<?xml version="1.0" standalone="no"?>
<!DOCTYPE svg PUBLIC "-//W3C//DTD SVG 1.1//EN" "http://www.w3.org/Graphics/SVG/1.1/DTD/svg11.dtd" >
<svg xmlns="http://www.w3.org/2000/svg" xmlns:xlink="http://www.w3.org/1999/xlink" version="1.1">
<metadata>
Created by FontForge 20161013 at Fri Sep 30 13:51:48 2011
 By ,,,
Copyright (c) 2009, Matt McInerney &#60;matt@pixelspread.com&#62;

</metadata>
<defs>
<font id="Allerta-Regular" horiz-adv-x="0" >
  <font-face 
    font-family="Allerta"
    font-weight="400"
    font-stretch="normal"
    units-per-em="1024"
    panose-1="0 0 0 0 0 0 0 0 0 0"
    ascent="819"
    descent="-205"
    x-height="564"
    cap-height="737"
    bbox="-63 -252 1022 1057"
    underline-thickness="51"
    underline-position="-151"
    unicode-range="U+0020-20AC"
  />
<missing-glyph horiz-adv-x="274" 
 />
    <glyph glyph-name=".notdef" horiz-adv-x="274" 
 />
    <glyph glyph-name=".null" 
 />
    <glyph glyph-name="nonmarkingreturn" horiz-adv-x="274" 
 />
    <glyph glyph-name="space" unicode=" " horiz-adv-x="274" 
 />
    <glyph glyph-name="space" unicode="&#xa0;" horiz-adv-x="274" 
 />
    <glyph glyph-name="exclam" unicode="!" horiz-adv-x="292" 
d="M190 204h-89l-16 533h122zM218 68q0 -30 -21 -51t-51 -21t-50.5 21t-20.5 51t21 50.5t50 20.5q30 0 51 -20.5t21 -50.5z" />
    <glyph glyph-name="quotedbl" unicode="&#x22;" horiz-adv-x="449" 
d="M167 564h-69l-16 173h101zM351 564h-68l-17 173h102z" />
    <glyph glyph-name="dollar" unicode="$" horiz-adv-x="542" 
d="M200 547q0 -40 23 -64.5t57 -43t74 -36t74.5 -42.5t57.5 -62.5t23 -96.5q0 -35 -12.5 -68t-36 -60t-56.5 -46.5t-76 -26.5v-98h-81v94q-43 2 -89 14t-77 38l21 86q14 -8 35.5 -15.5t44.5 -14t46 -10.5t43 -4q61 0 93.5 28.5t32.5 84.5q0 34 -23 58t-57.5 43.5t-74.5 39
t-75 46t-58 62.5t-23 90q0 41 13.5 75t36.5 59.5t54.5 42t67.5 23.5v86h81v-81q39 -2 77 -10.5t62 -24.5q-6 -13 -14 -28.5t-15 -29t-12 -22.5t-6 -10q-6 3 -13.5 8t-21.5 10t-37 7t-59 -1q-20 -2 -38 -11.5t-32 -23.5t-22 -31.5t-8 -33.5z" />
    <glyph glyph-name="percent" unicode="%" horiz-adv-x="805" 
d="M188 741q26 0 49 -11t40.5 -30.5t27.5 -46t10 -58.5t-10 -58.5t-27.5 -46.5t-40.5 -31.5t-49 -11.5t-48.5 11.5t-40.5 31.5t-28.5 46.5t-10.5 58.5t10.5 58.5t28.5 46t40.5 30.5t48.5 11zM188 509q27 0 46 22.5t19 63.5q0 40 -19 62.5t-46 22.5t-45.5 -22.5t-18.5 -62.5
q0 -41 18.5 -63.5t45.5 -22.5zM607 290q26 0 49 -11.5t40.5 -31t27.5 -46t10 -58.5t-10 -58.5t-27.5 -46.5t-40.5 -31t-49 -11t-48.5 11t-40.5 31t-28.5 47t-10.5 58q0 32 10.5 58.5t28.5 46t40.5 31t48.5 11.5zM607 57q27 0 46 22.5t19 63.5q0 40 -19 62.5t-46 22.5
t-45.5 -22.5t-18.5 -62.5q0 -41 18.5 -63.5t45.5 -22.5zM159 -1h-102l584 738h101z" />
    <glyph glyph-name="ampersand" unicode="&#x26;" horiz-adv-x="705" 
d="M528 0l-69 86q-32 -43 -84 -68t-123 -25q-32 0 -63.5 10t-57.5 32t-42 56.5t-16 81.5q0 40 12 74t32 61.5t45.5 50t51.5 38.5q-12 12 -28 29.5t-30.5 39.5t-24 50t-9.5 59q0 35 13 66t38 54t58 36t73 13q35 0 68.5 -10.5t59 -32t40.5 -55t15 -78.5q-2 -39 -14 -70.5
t-31.5 -56.5t-43 -43.5t-46.5 -30.5q19 -27 49 -59t57 -63q11 17 21 35.5t22 44.5l78 -32q-11 -32 -27 -63t-34 -62l135 -168h-125zM304 647q-15 0 -30.5 -5t-28 -15t-19.5 -23t-7 -29q0 -26 9 -47t21 -38t25 -30.5t21 -22.5q49 20 74 56.5t25 72.5q0 40 -26 60.5t-64 20.5z
M262 80q31 0 53 8t39 20t29 25.5t21 25.5q-33 41 -71 83.5t-64 78.5q-52 -33 -75.5 -72.5t-23.5 -75.5q0 -11 4.5 -27t15.5 -30.5t28 -25t44 -10.5z" />
    <glyph glyph-name="quotesingle" unicode="'" horiz-adv-x="250" 
d="M160 564h-69l-16 173h101z" />
    <glyph glyph-name="parenleft" unicode="(" horiz-adv-x="294" 
d="M171 -61q-22 28 -42 76t-35.5 106.5t-25.5 121.5t-10 118q0 52 9 111t22.5 114.5t32 100.5t37.5 70h63q-8 -11 -21.5 -44.5t-26 -86.5t-23 -124.5t-11.5 -160.5q-1 -78 11 -146t29 -120.5t33.5 -88t26.5 -47.5h-69z" />
    <glyph glyph-name="parenright" unicode=")" horiz-adv-x="293" 
d="M54 -61q9 12 26 47.5t34 88t29 120.5t11 146q-1 89 -11.5 160.5t-23.5 124.5t-26.5 86t-20.5 45h63q18 -25 36.5 -70t32.5 -100.5t23 -114t9 -111.5q0 -55 -10 -118t-25.5 -121.5t-36 -107t-41.5 -75.5h-69z" />
    <glyph glyph-name="asterisk" unicode="*" horiz-adv-x="467" 
d="M392 481l-122 46l45 -123l-73 -19l-22 128l-83 -100l-53 53l100 84l-129 21l21 74l122 -46l-45 122l73 20l22 -128l83 101l53 -55l-100 -82l129 -22z" />
    <glyph glyph-name="plus" unicode="+" horiz-adv-x="648" 
d="M606 231h-231v-231h-102v231h-231v102h231v231h102v-231h231v-102z" />
    <glyph glyph-name="comma" unicode="," horiz-adv-x="270" 
d="M136 139q30 0 51 -21t21 -50q0 -5 -1 -23.5t-9.5 -45t-27.5 -57.5t-56 -62h-47q20 19 33 40t21 38q9 19 15 38q-30 0 -50.5 21t-20.5 51t20.5 50.5t50.5 20.5z" />
    <glyph glyph-name="hyphen" unicode="-" horiz-adv-x="489" 
d="M404 343v-101h-318v101h318z" />
    <glyph glyph-name="period" unicode="." horiz-adv-x="207" 
d="M176 68q0 -30 -21 -51t-51 -21t-50.5 21t-20.5 51t21 50.5t50 20.5q30 0 51 -20.5t21 -50.5z" />
    <glyph glyph-name="slash" unicode="/" horiz-adv-x="454" 
d="M115 -22h-81l307 821h81z" />
    <glyph glyph-name="zero" unicode="0" horiz-adv-x="712" 
d="M356 749q66 0 118 -24.5t89 -71.5t56.5 -117.5t19.5 -163.5t-19.5 -164t-56.5 -118t-89 -71t-118 -24t-118 24t-88.5 71t-56 118t-19.5 164t19.5 163.5t56 117.5t88.5 71.5t118 24.5zM359 650q-37 0 -67 -14t-51 -47.5t-32.5 -86.5t-12.5 -130q1 -61 8 -108t21 -80
l208 445q-33 21 -74 21zM353 93q37 0 67.5 14.5t51.5 47.5t32.5 86.5t12.5 130.5q-1 125 -33 192l-209 -446q31 -25 78 -25z" />
    <glyph glyph-name="one" unicode="1" horiz-adv-x="422" 
d="M338 0h-122v565l-101 -101l-86 86l187 187h122v-737z" />
    <glyph glyph-name="two" unicode="2" horiz-adv-x="614" 
d="M534 518q0 -39 -17 -80.5t-45 -82t-61.5 -78.5t-67 -72t-63 -61.5t-48.5 -46.5h313v-97h-458v112q18 16 50 43.5t69 61.5t74 72.5t67.5 78t50 77.5t19.5 72q0 35 -12.5 58.5t-31.5 38.5t-41.5 21t-42.5 6q-39 0 -64.5 -2.5t-44.5 -7t-34 -12.5t-32 -18l-35 74
q18 16 44.5 29t55 21t56.5 12.5t52 4.5q65 0 111.5 -21t76.5 -53.5t44.5 -72.5t14.5 -77z" />
    <glyph glyph-name="three" unicode="3" horiz-adv-x="578" 
d="M367 388q23 -3 47.5 -15t45.5 -34t35 -53.5t14 -72.5q0 -50 -14.5 -86.5t-36.5 -60.5t-49.5 -38.5t-53.5 -21.5t-47.5 -9t-33.5 -2q-84 0 -132.5 11.5t-67.5 23.5l27 86q9 -5 17 -11t23 -11.5t42 -9t74 -3.5q69 0 103 37.5t34 94.5q0 54 -31 91t-91 37h-102h1l-1 81h68
q22 0 44.5 1t42.5 11t33 34t13 69q0 18 -3 38t-16.5 37t-39.5 27.5t-72 10.5t-73.5 -8.5t-41.5 -13.5l-35 90q24 7 59.5 15t102.5 8q47 0 89 -11.5t73.5 -36.5t50 -64t18.5 -92q0 -31 -11 -56.5t-28 -44.5t-38 -31.5t-39 -16.5z" />
    <glyph glyph-name="four" unicode="4" horiz-adv-x="621" 
d="M357 172h-319v95l319 470h122v-470h77v-95h-77v-172h-122v172zM357 267v330l-212 -330h212z" />
    <glyph glyph-name="five" unicode="5" horiz-adv-x="605" 
d="M213 639q-10 -74 -16 -115t-8.5 -61t-3 -24.5t-0.5 -5.5q7 7 23 12t34 8t35.5 4t27.5 1q52 0 93.5 -18.5t70.5 -49.5t44 -70t15 -81q0 -82 -27 -130.5t-66.5 -74t-82.5 -32.5t-74 -7q-34 0 -65 5.5t-56.5 14t-44.5 17t-29 13.5v100q14 -9 35.5 -19.5t45.5 -20t50.5 -15.5
t49.5 -6q74 0 116 38t42 117q0 57 -36.5 90t-95.5 33q-36 0 -69 -8.5t-57 -27.5h-86q0 8 2 30t5 52.5t7 66.5t8 73q10 86 23 189h365v-98h-275z" />
    <glyph glyph-name="six" unicode="6" horiz-adv-x="646" 
d="M347 499q52 0 94.5 -21t72.5 -55t45.5 -76t15.5 -84q0 -78 -25 -129.5t-62 -83t-80 -44t-79 -12.5q-66 0 -114 22t-80 62t-47 94t-15 119q0 132 24 219.5t62.5 138.5t86 72t94.5 21q56 0 105.5 -7t84.5 -30l-38 -83q-28 18 -62 22.5t-79 4.5q-41 0 -71 -18t-49.5 -48
t-29.5 -69t-10 -81q1 1 4 1t4 1q13 27 54.5 45.5t93.5 18.5zM330 91q30 0 55.5 12.5t44.5 34t29.5 51t10.5 64.5t-10.5 63.5t-29.5 49t-45 32.5t-55 12q-31 0 -57 -12t-45 -32.5t-30.5 -49t-11.5 -63.5t11.5 -64.5t30.5 -51t45 -34t57 -12.5z" />
    <glyph glyph-name="seven" unicode="7" horiz-adv-x="569" 
d="M128 0l256 639h-321v98h463l-286 -737h-112z" />
    <glyph glyph-name="eight" unicode="8" horiz-adv-x="607" 
d="M310 742q54 0 92 -15.5t61.5 -42t34.5 -60.5t11 -71q0 -24 -9.5 -46.5t-24.5 -43.5t-34 -40t-39 -35q27 -17 51.5 -36.5t43 -43t29.5 -51.5t11 -61q0 -48 -18.5 -86t-49.5 -64.5t-72 -40.5t-87 -14q-115 0 -176.5 53t-61.5 147q0 74 34.5 124.5t90.5 75.5
q-43 31 -72.5 69.5t-29.5 90.5q0 46 17 82t46 60.5t68.5 36.5t83.5 12zM429 182q0 26 -14 48t-36.5 41.5t-51 37.5t-59.5 36q-13 -11 -28.5 -25t-28.5 -32t-22.5 -41t-9.5 -50q0 -24 10 -44.5t27.5 -35.5t42 -23.5t51.5 -8.5q25 0 47 8t38 22t25 31.5t9 35.5zM198 549
q0 -17 11 -33t30.5 -30.5t44.5 -29t53 -29.5q26 22 48 52t22 72q0 29 -8 47t-20.5 29t-30 15t-37.5 4q-49 0 -81 -24t-32 -73z" />
    <glyph glyph-name="nine" unicode="9" horiz-adv-x="645" 
d="M298 238q-52 0 -94.5 21t-72.5 54.5t-45.5 75.5t-15.5 84q0 78 25 129.5t62.5 83t80.5 44t78 12.5q66 0 114 -22t80 -62t47 -94t15 -119q0 -132 -24 -219t-62.5 -138.5t-86 -72t-94.5 -20.5q-56 0 -105 7.5t-85 31.5l39 83q28 -18 61.5 -23t78.5 -5q41 0 71 18t49.5 47.5
t29.5 68t10 80.5q-1 -1 -4 -1t-4 -1q-13 -27 -54.5 -45t-93.5 -18zM315 645q-30 0 -55.5 -12t-44 -33.5t-29.5 -51.5t-11 -65t11 -63.5t29.5 -49.5t44.5 -32t55 -11q31 0 57 11t45 32t30.5 50t11.5 63q0 35 -11.5 65t-30.5 51.5t-45 33.5t-57 12z" />
    <glyph glyph-name="colon" unicode=":" horiz-adv-x="294" 
d="M220 498q0 -30 -21 -51t-51 -21t-50.5 21t-20.5 51t21 50.5t50 20.5q30 0 51 -20.5t21 -50.5zM220 67q0 -30 -21 -51t-51 -21t-50.5 21t-20.5 51t21 50.5t50 20.5q30 0 51 -20.5t21 -50.5z" />
    <glyph glyph-name="semicolon" unicode=";" horiz-adv-x="274" 
d="M188 118.5q21 -20.5 21 -50.5q0 -6 -1 -24t-9.5 -44.5t-27.5 -57.5t-56 -62h-47q20 20 33 40.5t21 37.5q9 20 15 38q-29 0 -50 21t-21 51q0 29 20.5 50t50.5 21t51 -20.5zM209 498q0 -30 -21 -51t-51 -21t-50.5 21t-20.5 51t21 50.5t50 20.5q30 0 51 -20.5t21 -50.5z" />
    <glyph glyph-name="less" unicode="&#x3c;" horiz-adv-x="645" 
d="M561 84v-90l-532 260v68l532 257v-90l-438 -201z" />
    <glyph glyph-name="equal" unicode="=" horiz-adv-x="638" 
d="M553 444v-101h-467v101h467zM553 242v-102h-467v102h467z" />
    <glyph glyph-name="greater" unicode="&#x3e;" horiz-adv-x="647" 
d="M86 84l438 204l-438 201v90l532 -257v-68l-532 -260v90z" />
    <glyph glyph-name="question" unicode="?" horiz-adv-x="507" 
d="M241 203h-91q0 59 14 96.5t36 62.5t47.5 42t47.5 35.5t36.5 43t14.5 64.5q0 16 -8 33.5t-22 31.5t-32.5 23.5t-37.5 11.5q-36 3 -59 1t-37 -7t-21.5 -10t-13.5 -8q-1 1 -6.5 10t-12 22.5t-14.5 28.5t-14 29q30 19 76 27.5t93 8.5q44 0 84 -14t71 -40.5t49.5 -64.5
t18.5 -87q0 -53 -16.5 -88.5t-40.5 -60t-52.5 -42.5t-53 -38t-40.5 -46t-16 -65zM267 68q0 -30 -21 -51t-50 -21q-30 0 -51 21t-21 51t21 50.5t51 20.5t50.5 -20.5t20.5 -50.5z" />
    <glyph glyph-name="at" unicode="@" horiz-adv-x="1040" 
d="M552 799q106 0 187 -38.5t135.5 -102.5t82 -147t27.5 -173q0 -63 -15.5 -114.5t-44 -87.5t-69.5 -56t-92 -20q-17 0 -39 5.5t-42 15t-37.5 23t-24.5 30.5h-10q-2 -10 -13 -20.5t-28.5 -18t-39.5 -12.5t-46 -5q-43 0 -75 19t-53.5 50.5t-32.5 73t-11 86.5q0 60 17 102.5
t43 68t58.5 36.5t64.5 11q38 0 69.5 -13t46.5 -35l11 44h85l1 -291q0 -25 7 -40.5t17 -25t22.5 -13.5t22.5 -4q56 0 83.5 46t27.5 145q0 81 -24.5 147.5t-68.5 114.5t-105.5 74.5t-136.5 26.5q-98 0 -170.5 -31t-119 -85t-69 -127t-22.5 -157q0 -70 19.5 -129.5t46 -106
t54.5 -76.5t46 -42l-56 -67q-31 26 -67.5 68t-67.5 96.5t-51.5 119.5t-20.5 137q0 121 34.5 213.5t98 155.5t151.5 96t194 33zM513 152q25 0 43.5 11.5t32 32t20.5 47.5t7 58q0 32 -7.5 59.5t-21.5 48t-32.5 32.5t-42.5 12t-42.5 -12.5t-32 -33t-20 -48.5t-6.5 -59t7.5 -58
t21 -47t32 -31.5t41.5 -11.5z" />
    <glyph glyph-name="A" unicode="A" horiz-adv-x="759" 
d="M63 0l258 736h119l256 -736h-124l-53 153h-277l-54 -153h-125zM270 234h220l-109 318z" />
    <glyph glyph-name="B" unicode="B" horiz-adv-x="671" 
d="M444 388q23 -3 49 -15t48.5 -34t37.5 -53.5t15 -72.5q0 -50 -15 -86t-37.5 -59.5t-49 -37t-51 -20.5t-43.5 -8.5t-25 -1.5h-277v737h212q47 0 91 -11t78 -35t54 -62.5t20 -91.5q0 -31 -10 -56.5t-25 -44.5t-34.5 -31.5t-37.5 -16.5zM366 88q53 0 83 34t30 91q0 54 -31 91
t-91 37h-141v-253h150zM305 422q22 0 45 1t43 11t32.5 34t12.5 69q0 18 -5 37.5t-20 35.5t-43 26t-74 10h-80v-224h5h84z" />
    <glyph glyph-name="C" unicode="C" horiz-adv-x="671" 
d="M591 75q-41 -40 -93 -60t-112 -20q-66 0 -121.5 24t-97 71t-65 118t-23.5 164t23.5 163.5t65 117.5t97.5 71.5t121 24.5q60 0 112 -20t93 -60l-83 -74q-25 29 -55.5 42t-63.5 13q-37 0 -70.5 -14t-60 -47.5t-41.5 -86.5t-16 -130q1 -75 15.5 -128t40 -86.5t58 -49
t68.5 -15.5t67.5 13t57.5 42z" />
    <glyph glyph-name="D" unicode="D" horiz-adv-x="770" 
d="M691 389q0 -91 -19.5 -155.5t-49.5 -108t-67.5 -68.5t-72.5 -37.5t-64 -16t-43 -3.5h-279v737h222q93 0 163.5 -29.5t117 -78.5t69.5 -111.5t23 -128.5zM335 88q122 0 176 78t54 226q0 46 -11 91t-42.5 81.5t-85.5 59t-140 22.5h-70v-558h119z" />
    <glyph glyph-name="E" unicode="E" horiz-adv-x="628" 
d="M217 646v-232h308v-82h-308v-241h339v-91h-461v737h461v-91h-339z" />
    <glyph glyph-name="F" unicode="F" horiz-adv-x="591" 
d="M217 646v-232h308v-82h-308v-332h-122v737h461v-91h-339z" />
    <glyph glyph-name="G" unicode="G" horiz-adv-x="710" 
d="M629 380v-285q-23 -29 -51.5 -47.5t-60 -30.5t-65 -17t-66.5 -5q-66 0 -121.5 24t-97 71t-65 118t-23.5 164t23.5 163.5t65 117.5t97.5 71.5t121 24.5q60 0 112 -20t93 -60l-83 -74q-24 29 -55 42t-64 13q-37 0 -70.5 -14t-60 -47.5t-41.5 -86.5t-16 -130
q1 -75 15.5 -130t40 -90t58 -52t68.5 -17q11 0 29.5 1.5t37 5t35.5 9.5t25 17v182h-125v82h244z" />
    <glyph glyph-name="H" unicode="H" horiz-adv-x="749" 
d="M655 737v-737h-120v332h-319v-332h-122v737h122v-323h319v323h120z" />
    <glyph glyph-name="I" unicode="I" horiz-adv-x="308" 
d="M216 0h-122v737h122v-737z" />
    <glyph glyph-name="J" unicode="J" horiz-adv-x="565" 
d="M477 752v-574q0 -52 -19 -87.5t-51 -57t-73.5 -30t-85.5 -8.5q-22 0 -51.5 4.5t-61 14t-60.5 21.5t-49 27l51 81q10 -7 28.5 -14.5t40.5 -14t46 -11.5t45 -5q53 0 84.5 20.5t33.5 69.5v564h122z" />
    <glyph glyph-name="K" unicode="K" horiz-adv-x="668" 
d="M572 737l-236 -379l256 -358h-139l-238 350v-350h-122v737h122v-369l220 369h137z" />
    <glyph glyph-name="L" unicode="L" horiz-adv-x="584" 
d="M215 737v-646h339v-91h-461v737h122z" />
    <glyph glyph-name="M" unicode="M" horiz-adv-x="865" 
d="M651 737h122v-737h-122v507l-165 -410h-106l-166 410v-507h-122v737h122l219 -504z" />
    <glyph glyph-name="N" unicode="N" horiz-adv-x="716" 
d="M625 737v-737h-122l-289 508v-508h-122v737h122l289 -508v508h122z" />
    <glyph glyph-name="O" unicode="O" horiz-adv-x="768" 
d="M691 372q0 -93 -23.5 -164t-65 -118t-97 -71t-121.5 -24t-121.5 24t-97 71t-65 118t-23.5 164t23.5 163.5t65 117.5t97 71.5t121.5 24.5t121.5 -24.5t97 -71.5t65 -117.5t23.5 -163.5zM381 93q37 0 70.5 14.5t60 47.5t41.5 86.5t16 130.5q-1 75 -15.5 127.5t-40 86.5
t-58 49t-68.5 15q-37 0 -70.5 -14t-60 -47.5t-41.5 -86.5t-16 -130q1 -75 15.5 -128t40 -86.5t58 -49t68.5 -15.5z" />
    <glyph glyph-name="P" unicode="P" horiz-adv-x="605" 
d="M211 0h-120v737h212q47 0 93 -15t82.5 -45t59 -72.5t22.5 -95.5q0 -56 -19 -101.5t-53 -76.5t-82 -48t-106 -17h-89v-266zM211 646v-292h110q22 0 43.5 7.5t39.5 24.5t29 47.5t11 75.5q0 18 -5 41.5t-20.5 45t-43.5 36t-74 14.5h-90z" />
    <glyph glyph-name="Q" unicode="Q" horiz-adv-x="749" 
d="M678 372q0 -76 -18 -138t-49 -109t-72 -77t-87 -39l138 -178h-132l-97 166h-29q-58 7 -107.5 34t-85.5 74t-56 114t-20 153q0 93 24 163.5t65.5 117.5t97 71.5t121.5 24.5t121.5 -24.5t97 -71.5t65 -117.5t23.5 -163.5zM185 372q1 -75 16 -128t40 -86.5t58 -49t69 -15.5
q37 0 70.5 14.5t59.5 47.5t41.5 86.5t16.5 130.5q-1 75 -16 127.5t-40 86.5t-57.5 49t-68.5 15q-37 0 -71 -14t-60 -47.5t-41.5 -86.5t-16.5 -130z" />
    <glyph glyph-name="R" unicode="R" horiz-adv-x="660" 
d="M463 0l-139 267q-3 0 -8 -0.5t-15.5 -0.5h-32h-58.5v-266h-120v737h212q47 0 93 -15t82.5 -45t59 -72.5t22.5 -95.5q0 -80 -37 -136t-100 -83l168 -290h-127zM210 354h109q22 0 44 7.5t40 24.5t29 47.5t11 75.5q0 18 -5 41.5t-20.5 45t-43.5 36t-74 14.5h-90v-292z" />
    <glyph glyph-name="S" unicode="S" horiz-adv-x="542" 
d="M509 202q0 -40 -16.5 -77.5t-46.5 -66t-74 -45.5t-100 -17q-24 0 -49.5 2.5t-51.5 8.5t-49.5 16.5t-40.5 25.5l21 86q14 -8 35.5 -15.5t44.5 -14t46 -10.5t43 -4q61 0 93.5 28.5t32.5 84.5q0 34 -23 58t-57.5 43.5t-74.5 39t-75 46t-58 62.5t-23 90q0 49 18 87t48.5 64.5
t71 40.5t85.5 14q46 0 93 -8.5t76 -27.5q-6 -13 -14 -28.5t-15 -29t-12 -22.5t-6 -10q-6 3 -13.5 8t-21.5 10t-37 7t-59 -1q-20 -2 -38 -11.5t-32 -23.5t-22 -31.5t-8 -33.5q0 -40 23 -64.5t57 -43t74 -36t74.5 -42.5t57.5 -62.5t23 -96.5z" />
    <glyph glyph-name="T" unicode="T" horiz-adv-x="663" 
d="M612 737v-82h-220v-655h-121v655h-220v82h561z" />
    <glyph glyph-name="U" unicode="U" horiz-adv-x="737" 
d="M655 737v-365q0 -93 -20.5 -164t-57.5 -118t-90 -71t-118 -24q-66 0 -118.5 24t-90 71t-58 118t-20.5 164v365h122v-353q0 -82 11.5 -138t32.5 -89.5t51 -48.5t67 -15q38 0 69 14t53 47t34 89t12 141v353h121z" />
    <glyph glyph-name="V" unicode="V" horiz-adv-x="743" 
d="M289 -4l-229 741h137l171 -636l181 636h136l-240 -741h-156z" />
    <glyph glyph-name="W" unicode="W" horiz-adv-x="1093" 
d="M1022 737l-199 -741h-156l-121 556l-129 -556h-157l-187 741h136l130 -636l140 636h136l130 -636l141 636h136z" />
    <glyph glyph-name="X" unicode="X" horiz-adv-x="702" 
d="M430 358l187 -358h-139l-117 278h-10l-126 -278h-139l187 358l-199 379h137l130 -300h10l141 300h137z" />
    <glyph glyph-name="Y" unicode="Y" horiz-adv-x="655" 
d="M603 737l-219 -437v-300h-122v290l-208 447h137l127 -330h11l137 330h137z" />
    <glyph glyph-name="Z" unicode="Z" horiz-adv-x="645" 
d="M568 737v-97l-351 -527l-20 -16h371v-97h-490v97l351 527l21 16h-372v97h490z" />
    <glyph glyph-name="bracketleft" unicode="[" horiz-adv-x="327" 
d="M270 676h-103v-657h103v-80h-184v818h184v-81z" />
    <glyph glyph-name="backslash" unicode="\" horiz-adv-x="455" 
d="M34 799h81l307 -821h-81z" />
    <glyph glyph-name="bracketright" unicode="]" horiz-adv-x="327" 
d="M86 676v81h184v-818h-184v80h103v657h-103z" />
    <glyph glyph-name="grave" unicode="`" horiz-adv-x="224" 
d="M24 777h121l68 -142h-81z" />
    <glyph glyph-name="a" unicode="a" horiz-adv-x="600" 
d="M495 175v-8q0 -8 1 -23.5t4 -31.5t9.5 -29t17.5 -17l-32 -67q-13 0 -27.5 6t-28 17t-23 24.5t-14.5 29.5q-7 -17 -24.5 -31.5t-39.5 -26t-47.5 -17.5t-47.5 -6q-34 0 -65.5 9t-55.5 29t-37.5 53t-13.5 81q0 46 19.5 79.5t50 55t69.5 32t79 10.5h85q0 49 -5 78t-17 42.5
t-29.5 17t-41.5 3.5q-22 0 -41.5 -5.5t-36 -13t-29 -16.5t-18.5 -14l-45 69q10 11 30 22.5t46 20.5t56.5 14.5t63.5 5.5q30 0 58.5 -6t52 -20t41 -37.5t24.5 -58.5t9.5 -70.5t2.5 -70.5v-130zM375 273h-64q-20 0 -42 -4t-41 -15t-31.5 -31.5t-12.5 -52.5q0 -50 22.5 -72
t65.5 -22q30 0 57.5 16t45.5 43v138z" />
    <glyph glyph-name="b" unicode="b" horiz-adv-x="641" 
d="M579 393q12 -46 12 -101q0 -57 -13.5 -111t-41 -95.5t-69 -66t-97.5 -24.5q-30 0 -58 6t-50.5 16.5t-37 23t-17.5 26.5q-1 -14 -3 -32t-3 -35h-115v777h121v-270q20 28 60.5 45t89.5 17q33 0 67 -9t63.5 -30t54 -55t37.5 -82zM329 90q30 0 54.5 15t42 40.5t28 60.5
t10.5 75q0 39 -9.5 74t-26 62t-40.5 43t-54 16t-55 -15t-42.5 -40.5t-27 -60t-9.5 -74.5t8.5 -75.5t25.5 -62t40.5 -42.5t54.5 -16z" />
    <glyph glyph-name="c" unicode="c" horiz-adv-x="585" 
d="M504 79q-34 -43 -74 -63.5t-102 -20.5q-59 0 -107 22.5t-82 61t-51.5 90.5t-17.5 113q0 60 19 112t53 90.5t82 60.5t107 22q62 0 106 -20.5t78 -63.5l-54 -65q-17 20 -47 36.5t-82 16.5q-30 0 -55 -14t-42.5 -39t-27 -59t-9.5 -74t8.5 -74.5t25.5 -60.5t40.5 -41
t54.5 -15q45 0 75.5 14.5t56.5 35.5z" />
    <glyph glyph-name="d" unicode="d" horiz-adv-x="641" 
d="M124 57q-38 43 -56 106t-18 127q0 78 21.5 131t55.5 86t75.5 47.5t81.5 14.5q49 0 89.5 -17t60.5 -45v270h122v-777h-115q-2 17 -3.5 34.5t-3.5 32.5q-3 -13 -17.5 -26t-37 -23.5t-50.5 -16.5t-58 -6q-40 0 -78.5 14t-68.5 48zM178 281q0 -40 10 -74.5t27 -60.5t41.5 -41
t53.5 -15q31 0 55.5 15.5t41.5 41.5t26 61t9 75t-9.5 75t-27 61t-42 41.5t-55.5 15.5t-55 -15.5t-40.5 -42.5t-25.5 -62t-9 -75z" />
    <glyph glyph-name="e" unicode="e" horiz-adv-x="664" 
d="M322 570q68 0 120 -27.5t85.5 -73t48 -105t5.5 -123.5h-392q0 -32 12 -59t32.5 -46.5t49 -30.5t61.5 -11q11 0 27.5 2.5t35 9t37 16.5t32.5 24l44 -67q-33 -41 -77 -62t-112 -21q-55 0 -103 22.5t-82 61.5t-54 91t-20 112q0 59 20 111.5t53.5 91.5t79.5 61.5t97 22.5z
M469 329q0 27 -10 53t-27.5 47t-42.5 33.5t-54 13.5q-31 0 -57 -12t-45 -32t-29.5 -47.5t-10.5 -55.5h276z" />
    <glyph glyph-name="f" unicode="f" horiz-adv-x="471" 
d="M327 693q-20 0 -33.5 -10t-22.5 -28t-13 -41.5t-5 -49.5h87v-82h-89v-48v-434h-122v434v48h-74v82h76q3 43 12 82.5t28.5 69t53 47.5t84.5 18q15 0 32 -2.5t33.5 -6t30.5 -8.5t22 -11l-39 -72q-14 8 -33.5 10t-27.5 2z" />
    <glyph glyph-name="g" unicode="g" horiz-adv-x="683" 
d="M201 -73q10 -17 25.5 -28t32 -17t33 -8.5t29.5 -2.5q62 0 97 36t35 123v26v2l1 5q0 1 -0.5 2t-0.5 2q-3 -13 -17.5 -26t-36.5 -23.5t-50 -16.5t-58 -6q-56 0 -98 24.5t-70 65.5t-41 94t-13 111q0 78 21.5 131t55 86.5t75 47.5t81.5 14q49 0 89.5 -17t61.5 -45l13 57h108
l-1 -564q-4 -61 -24.5 -104t-52.5 -71t-74 -40t-90 -12q-56 0 -110.5 19.5t-90.5 65.5zM461 286q0 40 -10 74t-27 60t-42 41t-54 15q-30 0 -54.5 -15.5t-41.5 -41.5t-26 -61t-9 -74q0 -40 9.5 -75.5t27 -61.5t42 -41.5t54.5 -15.5q31 0 55 15.5t40.5 42t26 62.5t9.5 76z" />
    <glyph glyph-name="h" unicode="h" horiz-adv-x="609" 
d="M553 0h-122v307q0 34 -3 65t-14 55t-30 37.5t-53 13.5q-11 0 -28.5 -3t-36 -9t-35 -15t-24.5 -21v-6v-2v-222v-2v-198h-121v777h121v-270q12 11 30.5 22.5t40.5 20.5t45 14.5t45 5.5q45 0 76 -19t62 -49q17 -17 26.5 -39.5t14 -47t5.5 -49.5t1 -49v-297v-20z" />
    <glyph glyph-name="i" unicode="i" horiz-adv-x="291" 
d="M207 0h-122v564h122v-564zM218 744q0 -30 -21 -50.5t-51 -20.5t-50.5 21t-20.5 50q0 30 21 51t50 21q30 0 51 -21t21 -51z" />
    <glyph glyph-name="j" unicode="j" horiz-adv-x="327" 
d="M-4.5 -218q-34.5 8 -51.5 19l39 73q14 -8 33.5 -10.5t27.5 -2.5q33 0 49 26.5t21.5 66.5t5 85t0.5 82v443h122v-444v-78.5t-5 -79t-15 -72.5t-30 -60t-52.5 -41t-79.5 -15q-30 0 -64.5 8zM252 744q0 -30 -20.5 -50.5t-50.5 -20.5t-50.5 21t-20.5 50q0 30 21 51t50 21
q30 0 50.5 -21t20.5 -51z" />
    <glyph glyph-name="k" unicode="k" horiz-adv-x="588" 
d="M413 0l-205 270v-270h-122v777h122v-482l181 269h136l-198 -281l224 -283h-138z" />
    <glyph glyph-name="l" unicode="l" horiz-adv-x="363" 
d="M206 172q0 -34 9 -53.5t25 -29t36.5 -12.5t44.5 -3v-74q-13 -2 -27 -3q-11 -1 -26 -1.5t-30 -0.5t-30 1t-27 3q-34 7 -53 30t-29 51.5t-12.5 55.5t-2.5 42v12v587h122v-605z" />
    <glyph glyph-name="m" unicode="m" horiz-adv-x="917" 
d="M831 19v-19h-120v307q0 34 -0.5 64.5t-6.5 54.5t-19.5 37.5t-41.5 13.5q-5 0 -17.5 -1.5t-29.5 -6t-37.5 -14.5t-40.5 -26q0 -39 0.5 -62t0.5 -50v-317h-121v307v64.5t-6 54.5t-20 37.5t-41 13.5q-9 0 -25 -2.5t-33.5 -8.5t-35 -15t-29.5 -21v-430h-122v564h109l13 -58
q25 23 64.5 42.5t82.5 19.5q48 0 80 -21t64 -62q17 19 38 35t43.5 27t44.5 17t42 6q34 0 64 -13.5t52.5 -38.5t35 -59.5t12.5 -74.5v-67v-298z" />
    <glyph glyph-name="n" unicode="n" horiz-adv-x="634" 
d="M553 0h-122v307q0 34 -3 65t-14 55t-30 37.5t-53 13.5q-11 0 -28.5 -3t-36 -9t-35 -15t-24.5 -21v-6v-2v-222v-2v-198h-121v564h108l13 -57q12 11 30.5 22.5t40.5 20.5t45 14.5t45 5.5q45 0 76 -19t62 -49q17 -17 26.5 -39.5t14 -47t5.5 -49.5t1 -49v-297v-20z" />
    <glyph glyph-name="o" unicode="o" horiz-adv-x="662" 
d="M337 567q58 0 105 -22.5t80 -61.5t51 -91t18 -112t-19 -112.5t-53.5 -91t-82 -60t-105.5 -21.5q-59 0 -107.5 22t-82 61t-51.5 91t-18 113t19.5 114t54 90.5t83.5 59t108 21.5zM329 90q30 0 54.5 14.5t42 40t28 60.5t10.5 75t-9.5 75t-26 61.5t-40.5 42.5t-54 16t-55 -15
t-42.5 -40.5t-27 -60t-9.5 -74.5t8.5 -75.5t25.5 -61.5t40.5 -42t54.5 -16z" />
    <glyph glyph-name="p" unicode="p" horiz-adv-x="640" 
d="M579 393q12 -46 12 -103t-13.5 -110.5t-41 -94.5t-69 -65.5t-97.5 -24.5q-30 0 -58 6t-50 16.5t-36.5 23t-17.5 26.5v-289h-122v786h109l13 -57q20 28 60.5 45t89.5 17q33 0 67 -9t63.5 -30t53.5 -55t37 -82zM330 89q30 0 54.5 15t42 40.5t27.5 61t10 75.5q0 39 -9 74
t-25.5 62t-40 43t-54.5 16q-30 0 -55 -15t-43 -40.5t-27.5 -60t-9.5 -74.5t8.5 -75.5t25.5 -62.5t41 -43t55 -16z" />
    <glyph glyph-name="q" unicode="q" horiz-adv-x="640" 
d="M556 -66v-25t3 -26t11 -25t23 -22q-2 -3 -7 -13.5t-12 -22.5q-7 -13 -15 -30q-58 8 -91.5 51.5t-33.5 104.5v141q-3 -13 -17.5 -26t-36.5 -23.5t-50 -16.5t-58 -6q-56 0 -98 24.5t-69.5 65.5t-41 94t-13.5 111q0 78 21.5 131t55.5 86.5t75.5 47.5t81.5 14q49 0 89.5 -17
t60.5 -45l13 57h109v-630zM313 90q30 0 53.5 15.5t40.5 41.5t26 61t9 75t-9.5 75t-27 61t-42 41.5t-54.5 15.5t-54.5 -15.5t-41 -41.5t-26 -61t-9.5 -74q0 -41 10 -76.5t27.5 -61.5t42 -41t55.5 -15z" />
    <glyph glyph-name="r" unicode="r" horiz-adv-x="446" 
d="M403 442q-28 8 -68 9q-36 0 -71.5 -8.5t-56.5 -28.5v-214v-2v-198h-121v564h108l13 -58q15 15 31.5 27t38.5 19.5t52 11.5t74 4v-126z" />
    <glyph glyph-name="s" unicode="s" horiz-adv-x="536" 
d="M75 45l51 81q20 -14 47.5 -26t69.5 -12q55 0 86 17t31 50q0 24 -18 38.5t-45.5 25t-59 20t-58.5 23.5q-53 28 -79.5 59t-26.5 82q0 42 17.5 74t45.5 53.5t64 32.5t73 11q50 0 92 -10.5t81 -35.5l-39 -83q-30 17 -65 23.5t-69 6.5q-37 0 -58.5 -16.5t-21.5 -51.5
q0 -27 19.5 -42.5t50.5 -27.5t66 -24t65.5 -30.5t50.5 -46.5t20 -72q0 -43 -17 -75t-46 -53t-67 -31t-81 -10q-26 0 -48 1.5t-43 6.5t-42 15t-46 27z" />
    <glyph glyph-name="t" unicode="t" horiz-adv-x="418" 
d="M247 171q0 -34 9 -53t25.5 -29t37 -12.5t43.5 -2.5v-74q-13 -2 -26 -3q-11 -1 -26.5 -1.5t-30.5 -0.5t-30.5 1t-26.5 3q-34 6 -53 29.5t-28.5 52t-12 55.5t-2.5 42v304h-74v82h74v160h121v-160h90v-82h-90v-311z" />
    <glyph glyph-name="u" unicode="u" horiz-adv-x="633" 
d="M82 544v20h122v-307q0 -35 3 -65.5t13 -53.5t30 -37t53 -14q10 0 28 2.5t36.5 8.5t35 15t24.5 21v7v1v224v1v197h122v-564h-109l-13 58q-12 -11 -30 -22t-39.5 -20.5t-44 -15t-44.5 -5.5q-24 0 -43 4.5t-35.5 14t-31.5 21.5t-30 27q-17 17 -27 39.5t-14.5 47t-5 49.5
t-0.5 49v298v-1z" />
    <glyph glyph-name="v" unicode="v" horiz-adv-x="671" 
d="M257 -4l-198 568h137l140 -470l140 470h136l-198 -568h-157z" />
    <glyph glyph-name="w" unicode="w" horiz-adv-x="932" 
d="M862 564l-159 -568h-156l-83 326l-90 -326h-157l-145 568h130l93 -470l105 470h131l95 -470l105 470h131z" />
    <glyph glyph-name="x" unicode="x" horiz-adv-x="680" 
d="M604 564l-185 -281l184 -283h-139l-114 202h-10l-123 -202h-139l184 283l-185 281h137l116 -203h10l127 203h137z" />
    <glyph glyph-name="y" unicode="y" horiz-adv-x="672" 
d="M630 564q-55 -147 -98 -260.5t-75 -199t-56.5 -144.5t-45 -98.5t-38.5 -62t-37 -34.5t-41.5 -14.5t-51.5 -2.5q-9 0 -21 2.5t-23.5 6t-20.5 7t-12 4.5q4 18 8 34q3 14 6.5 26.5t5.5 17.5q8 0 24.5 -5t24.5 -5q16 0 28.5 1.5t22.5 9t19 22t20 41.5l38 90l-231 564h121
l165 -434l146 434h122z" />
    <glyph glyph-name="z" unicode="z" horiz-adv-x="601" 
d="M86 564h429v-97l-290 -354l-20 -16h310v-97h-429v97l290 354l20 16h-310v97z" />
    <glyph glyph-name="bar" unicode="|" horiz-adv-x="250" 
d="M167 -242h-81v1051h81v-1051z" />
    <glyph glyph-name="exclamdown" unicode="&#xa1;" horiz-adv-x="292" 
d="M190 533.013h-89l-16 -532.968h122zM218 669.004q0 29.998 -21 50.9971t-51 20.999t-50.5 -20.999t-20.5 -50.9971t21 -50.4971q21 -20.498 50 -20.498q30 0 51 20.498q21 20.499 21 50.4971z" />
    <glyph glyph-name="cent" unicode="&#xa2;" horiz-adv-x="585" 
d="M327 94q45 0 75.5 14.5t56.5 35.5l45 -65q-29 -36 -61.5 -56.5t-78.5 -25.5v-79h-81v81q-49 8 -88.5 32.5t-67.5 62.5t-42.5 85.5t-14.5 102.5q0 54 15 101.5t43 84.5t67 62t88 33v84h81v-82q49 -5 85 -25.5t66 -56.5l-54 -65q-17 20 -47 36.5t-82 16.5q-30 0 -55 -14
t-42.5 -39t-27 -59t-9.5 -74t8.5 -74.5t25.5 -60.5t40.5 -41t54.5 -15z" />
    <glyph glyph-name="sterling" unicode="&#xa3;" horiz-adv-x="526" 
d="M61 82h74v318h-74v82h76q0 34 3.5 77t21 82t53.5 67.5t100 33.5q61 5 101.5 -6t57.5 -22l-40 -76q-14 8 -43.5 12t-57.5 4q-32 0 -47.5 -16.5t-21 -43t-5.5 -56.5v-56h108v-82h-110v-318h180v-82h-376v82z" />
    <glyph glyph-name="currency" unicode="&#xa4;" horiz-adv-x="677" 
d="M544 374q0 -71 -32 -125l88 -74l-72 -72l-69 84q-25 -17 -55 -27t-65 -10q-71 0 -120 37l-69 -84l-72 72l88 73q-15 27 -23 59t-8 68q0 71 32 126l-89 72l72 72l70 -85q51 40 123 40q68 -1 117 -38l68 83l72 -72l-88 -72q32 -55 32 -127zM337 214q25 0 45 12.5t35.5 33.5
t24 50t8.5 63t-8 63.5t-21.5 51.5t-34 35.5t-45.5 13.5t-46 -12.5t-35.5 -34t-23 -50t-8.5 -62.5t8 -63.5t21.5 -51.5t33.5 -35.5t46 -13.5z" />
    <glyph glyph-name="yen" unicode="&#xa5;" horiz-adv-x="664" 
d="M607 737l-155 -310h110v-82h-151l-23 -55v-6h174v-82h-174v-202h-122v202h-164v82h164v6l-25 55h-139v82h101l-145 310h138l127 -330h10l137 330h137z" />
    <glyph glyph-name="dieresis" unicode="&#xa8;" horiz-adv-x="538" 
d="M459 711q0 -30 -21 -51t-51 -21t-51 21t-21 51t21 50.5t51 20.5t51 -20.5t21 -50.5zM162 711q0 -30 -21 -51t-51 -21t-51 21t-21 51t21 50.5t51 20.5t51 -20.5t21 -50.5z" />
    <glyph glyph-name="guillemotleft" unicode="&#xab;" horiz-adv-x="736" 
d="M197 283l204 -252h-139l-202 252l205 251h137zM453 283l204 -252h-139l-202 252l205 251h137z" />
    <glyph glyph-name="acute" unicode="&#xb4;" horiz-adv-x="224" 
d="M213 777l-109 -142h-80l67 142h122z" />
    <glyph glyph-name="cedilla" unicode="&#xb8;" horiz-adv-x="294" 
d="M116 -71q17 7 35 8q18 0 33.5 -8t26 -19.5t16.5 -26t6 -28.5q0 -46 -30.5 -72t-82.5 -26v58q54 0 54 38q0 17 -14.5 29.5t-38.5 12.5q-13 0 -32 -6l-41 19l58 99h77z" />
    <glyph glyph-name="guillemotright" unicode="&#xbb;" horiz-adv-x="736" 
d="M334 534h137l205 -251l-202 -252h-139l205 252zM78 534h137l205 -251l-202 -252h-139l205 252z" />
    <glyph glyph-name="questiondown" unicode="&#xbf;" horiz-adv-x="507" 
d="M286.015 541.013h90.9941q0 -58.9971 -13.999 -96.4941q-13.999 -37.498 -35.998 -62.4961q-21.998 -24.999 -47.4971 -41.998q-25.498 -16.999 -47.4971 -35.498q-21.998 -18.498 -36.4971 -42.9971q-14.499 -24.498 -14.499 -64.4961q0 -15.999 7.99902 -33.498
q8 -17.499 21.999 -31.498t32.498 -23.498q18.499 -9.5 37.4971 -11.5q35.998 -2.99902 58.9971 -1q22.998 2 36.9971 7t21.499 9.99902q7.5 5 13.499 8q1 -1 6.5 -9.99902q5.49902 -9 11.999 -22.499t14.499 -28.498q8 -14.999 13.999 -28.998
q-29.998 -18.999 -75.9951 -27.499q-45.9971 -8.49902 -92.9941 -8.49902q-43.9971 0 -83.9951 13.999q-39.9971 13.999 -70.9961 40.4971q-30.998 26.499 -49.4961 64.4961q-18.499 37.998 -18.499 86.9951q0 52.9971 16.499 88.4941q16.499 35.498 40.4971 59.9971
q23.999 24.498 52.4971 42.4971t52.9971 37.998q24.498 19.998 40.4971 45.9971q15.999 25.998 15.999 64.9961zM260.017 676.004q0 29.998 20.998 50.9971q20.999 20.999 49.9971 20.999q29.998 0 50.9971 -20.999t20.999 -50.9971t-20.999 -50.4971
q-20.999 -20.498 -50.9971 -20.498t-50.4971 20.498q-20.498 20.499 -20.498 50.4971z" />
    <glyph glyph-name="Agrave" unicode="&#xc0;" horiz-adv-x="759" 
d="M63 0l258 736h119l256 -736h-124l-53 153h-277l-54 -153h-125zM270 234h220l-109 318zM285 950h121l68 -142h-81z" />
    <glyph glyph-name="Aacute" unicode="&#xc1;" horiz-adv-x="759" 
d="M63 0l258 736h119l256 -736h-124l-53 153h-277l-54 -153h-125zM270 234h220l-109 318zM474 950l-109 -142h-80l67 142h122z" />
    <glyph glyph-name="Acircumflex" unicode="&#xc2;" horiz-adv-x="759" 
d="M63 0l258 736h119l256 -736h-124l-53 153h-277l-54 -153h-125zM270 234h220l-109 318zM423 808l-44 79l-43 -79h-110l108 142h91l109 -142h-111z" />
    <glyph glyph-name="Atilde" unicode="&#xc3;" horiz-adv-x="759" 
d="M63 0l258 736h119l256 -736h-124l-53 153h-277l-54 -153h-125zM270 234h220l-109 318zM203 843q7 17 18 33.5t25.5 29.5t32 21t37.5 8q18 0 36.5 -5t34 -12t30.5 -12t27 -5q17 0 28 8t19 34l65 -19q-12 -44 -42 -67.5t-70 -23.5q-17 0 -33.5 5.5t-32 12t-30.5 11.5t-32 5
q-16 0 -29.5 -15.5t-22.5 -35.5z" />
    <glyph glyph-name="Adieresis" unicode="&#xc4;" horiz-adv-x="759" 
d="M63 0l258 736h119l256 -736h-124l-53 153h-277l-54 -153h-125zM270 234h220l-109 318zM611 884q0 -30 -21 -51t-51 -21t-51 21t-21 51t21 50.5t51 20.5t51 -20.5t21 -50.5zM314 884q0 -30 -21 -51t-51 -21t-51 21t-21 51t21 50.5t51 20.5t51 -20.5t21 -50.5z" />
    <glyph glyph-name="Aring" unicode="&#xc5;" horiz-adv-x="759" 
d="M63 0l258 736h119l256 -736h-124l-53 153h-277l-54 -153h-125zM270 234h220l-109 318zM380 1057q26 0 48 -10t39 -27t26.5 -39.5t9.5 -47.5q0 -26 -9.5 -49t-26.5 -40t-39.5 -26.5t-47.5 -9.5q-26 0 -49 9.5t-40 26.5t-26.5 40t-9.5 49t9.5 48t26.5 39t40 27t49 10z
M380 868q27 0 45.5 19t18.5 46t-19 45t-45 18q-27 0 -46 -18.5t-19 -44.5q0 -27 19 -46t46 -19z" />
    <glyph glyph-name="Ccedilla" unicode="&#xc7;" horiz-adv-x="671" 
d="M591 75q-41 -40 -93 -60t-112 -20q-66 0 -121.5 24t-97 71t-65 118t-23.5 164t23.5 163.5t65 117.5t97.5 71.5t121 24.5q60 0 112 -20t93 -60l-83 -74q-25 29 -55.5 42t-63.5 13q-37 0 -70.5 -14t-60 -47.5t-41.5 -86.5t-16 -130q1 -75 15.5 -128t40 -86.5t58 -49
t68.5 -15.5t67.5 13t57.5 42zM344 -71q17 7 35 8q18 0 33.5 -8t26 -19.5t16.5 -26t6 -28.5q0 -46 -30.5 -72t-82.5 -26v58q54 0 54 38q0 17 -14.5 29.5t-38.5 12.5q-13 0 -32 -6l-41 19l58 99h77z" />
    <glyph glyph-name="Egrave" unicode="&#xc8;" horiz-adv-x="628" 
d="M217 646v-232h308v-82h-308v-241h339v-91h-461v737h461v-91h-339zM220 950h121l68 -142h-81z" />
    <glyph glyph-name="Eacute" unicode="&#xc9;" horiz-adv-x="628" 
d="M217 646v-232h308v-82h-308v-241h339v-91h-461v737h461v-91h-339zM409 950l-109 -142h-80l67 142h122z" />
    <glyph glyph-name="Ecircumflex" unicode="&#xca;" horiz-adv-x="628" 
d="M217 646v-232h308v-82h-308v-241h339v-91h-461v737h461v-91h-339zM357 808l-44 79l-43 -79h-110l108 142h91l109 -142h-111z" />
    <glyph glyph-name="Edieresis" unicode="&#xcb;" horiz-adv-x="628" 
d="M217 646v-232h308v-82h-308v-241h339v-91h-461v737h461v-91h-339zM545 884q0 -30 -21 -51t-51 -21t-51 21t-21 51t21 50.5t51 20.5t51 -20.5t21 -50.5zM248 884q0 -30 -21 -51t-51 -21t-51 21t-21 51t21 50.5t51 20.5t51 -20.5t21 -50.5z" />
    <glyph glyph-name="Igrave" unicode="&#xcc;" horiz-adv-x="308" 
d="M216 0h-122v737h122v-737zM60 950h121l68 -142h-81z" />
    <glyph glyph-name="Iacute" unicode="&#xcd;" horiz-adv-x="308" 
d="M216 0h-122v737h122v-737zM249 950l-109 -142h-80l67 142h122z" />
    <glyph glyph-name="Icircumflex" unicode="&#xce;" horiz-adv-x="308" 
d="M216 0h-122v737h122v-737zM198 808l-44 79l-43 -79h-110l108 142h91l109 -142h-111z" />
    <glyph glyph-name="Idieresis" unicode="&#xcf;" horiz-adv-x="308" 
d="M216 0h-122v737h122v-737zM386 884q0 -30 -21 -51t-51 -21t-51 21t-21 51t21 50.5t51 20.5t51 -20.5t21 -50.5zM89 884q0 -30 -21 -51t-51 -21t-51 21t-21 51t21 50.5t51 20.5t51 -20.5t21 -50.5z" />
    <glyph glyph-name="Eth" unicode="&#xd0;" horiz-adv-x="770" 
d="M96 420v317h222q93 0 163.5 -29.5t117 -78.5t69.5 -111.5t23 -128.5q0 -91 -19.5 -155.5t-49.5 -108t-67.5 -68.5t-72.5 -37.5t-64 -16t-43 -3.5h-279v318h-89v102h89zM335 88q122 0 176 78t54 226q0 46 -11 91t-42.5 81.5t-85.5 59t-140 22.5h-70v-226h110v-102h-110
v-230h119z" />
    <glyph glyph-name="Ntilde" unicode="&#xd1;" horiz-adv-x="716" 
d="M625 737v-737h-122l-289 508v-508h-122v737h122l289 -508v508h122zM182 843q7 17 18 33.5t25.5 29.5t32 21t37.5 8q18 0 36.5 -5t34 -12t30.5 -12t27 -5q17 0 28 8t19 34l65 -19q-12 -44 -42 -67.5t-70 -23.5q-17 0 -33.5 5.5t-32 12t-30.5 11.5t-32 5q-16 0 -29.5 -15.5
t-22.5 -35.5z" />
    <glyph glyph-name="Ograve" unicode="&#xd2;" horiz-adv-x="768" 
d="M691 372q0 -93 -23.5 -164t-65 -118t-97 -71t-121.5 -24t-121.5 24t-97 71t-65 118t-23.5 164t23.5 163.5t65 117.5t97 71.5t121.5 24.5t121.5 -24.5t97 -71.5t65 -117.5t23.5 -163.5zM381 93q37 0 70.5 14.5t60 47.5t41.5 86.5t16 130.5q-1 75 -15.5 127.5t-40 86.5
t-58 49t-68.5 15q-37 0 -70.5 -14t-60 -47.5t-41.5 -86.5t-16 -130q1 -75 15.5 -128t40 -86.5t58 -49t68.5 -15.5zM289 950h121l68 -142h-81z" />
    <glyph glyph-name="Oacute" unicode="&#xd3;" horiz-adv-x="768" 
d="M691 372q0 -93 -23.5 -164t-65 -118t-97 -71t-121.5 -24t-121.5 24t-97 71t-65 118t-23.5 164t23.5 163.5t65 117.5t97 71.5t121.5 24.5t121.5 -24.5t97 -71.5t65 -117.5t23.5 -163.5zM381 93q37 0 70.5 14.5t60 47.5t41.5 86.5t16 130.5q-1 75 -15.5 127.5t-40 86.5
t-58 49t-68.5 15q-37 0 -70.5 -14t-60 -47.5t-41.5 -86.5t-16 -130q1 -75 15.5 -128t40 -86.5t58 -49t68.5 -15.5zM478 950l-109 -142h-80l67 142h122z" />
    <glyph glyph-name="Ocircumflex" unicode="&#xd4;" horiz-adv-x="768" 
d="M691 372q0 -93 -23.5 -164t-65 -118t-97 -71t-121.5 -24t-121.5 24t-97 71t-65 118t-23.5 164t23.5 163.5t65 117.5t97 71.5t121.5 24.5t121.5 -24.5t97 -71.5t65 -117.5t23.5 -163.5zM381 93q37 0 70.5 14.5t60 47.5t41.5 86.5t16 130.5q-1 75 -15.5 127.5t-40 86.5
t-58 49t-68.5 15q-37 0 -70.5 -14t-60 -47.5t-41.5 -86.5t-16 -130q1 -75 15.5 -128t40 -86.5t58 -49t68.5 -15.5zM427 808l-44 79l-43 -79h-110l108 142h91l109 -142h-111z" />
    <glyph glyph-name="Otilde" unicode="&#xd5;" horiz-adv-x="768" 
d="M691 372q0 -93 -23.5 -164t-65 -118t-97 -71t-121.5 -24t-121.5 24t-97 71t-65 118t-23.5 164t23.5 163.5t65 117.5t97 71.5t121.5 24.5t121.5 -24.5t97 -71.5t65 -117.5t23.5 -163.5zM381 93q37 0 70.5 14.5t60 47.5t41.5 86.5t16 130.5q-1 75 -15.5 127.5t-40 86.5
t-58 49t-68.5 15q-37 0 -70.5 -14t-60 -47.5t-41.5 -86.5t-16 -130q1 -75 15.5 -128t40 -86.5t58 -49t68.5 -15.5zM207 843q7 17 18 33.5t25.5 29.5t32 21t37.5 8q18 0 36.5 -5t34 -12t30.5 -12t27 -5q17 0 28 8t19 34l65 -19q-12 -44 -42 -67.5t-70 -23.5q-17 0 -33.5 5.5
t-32 12t-30.5 11.5t-32 5q-16 0 -29.5 -15.5t-22.5 -35.5z" />
    <glyph glyph-name="Odieresis" unicode="&#xd6;" horiz-adv-x="768" 
d="M691 372q0 -93 -23.5 -164t-65 -118t-97 -71t-121.5 -24t-121.5 24t-97 71t-65 118t-23.5 164t23.5 163.5t65 117.5t97 71.5t121.5 24.5t121.5 -24.5t97 -71.5t65 -117.5t23.5 -163.5zM381 93q37 0 70.5 14.5t60 47.5t41.5 86.5t16 130.5q-1 75 -15.5 127.5t-40 86.5
t-58 49t-68.5 15q-37 0 -70.5 -14t-60 -47.5t-41.5 -86.5t-16 -130q1 -75 15.5 -128t40 -86.5t58 -49t68.5 -15.5zM615 884q0 -30 -21 -51t-51 -21t-51 21t-21 51t21 50.5t51 20.5t51 -20.5t21 -50.5zM318 884q0 -30 -21 -51t-51 -21t-51 21t-21 51t21 50.5t51 20.5
t51 -20.5t21 -50.5z" />
    <glyph glyph-name="multiply" unicode="&#xd7;" horiz-adv-x="601" 
d="M379 283l143 -222h-139l-73 141h-10l-82 -141h-139l143 222l-144 220h137l75 -142h10l86 142h137z" />
    <glyph glyph-name="Ugrave" unicode="&#xd9;" horiz-adv-x="737" 
d="M655 737v-365q0 -93 -20.5 -164t-57.5 -118t-90 -71t-118 -24q-66 0 -118.5 24t-90 71t-58 118t-20.5 164v365h122v-353q0 -82 11.5 -138t32.5 -89.5t51 -48.5t67 -15q38 0 69 14t53 47t34 89t12 141v353h121zM274 950h121l68 -142h-81z" />
    <glyph glyph-name="Uacute" unicode="&#xda;" horiz-adv-x="737" 
d="M655 737v-365q0 -93 -20.5 -164t-57.5 -118t-90 -71t-118 -24q-66 0 -118.5 24t-90 71t-58 118t-20.5 164v365h122v-353q0 -82 11.5 -138t32.5 -89.5t51 -48.5t67 -15q38 0 69 14t53 47t34 89t12 141v353h121zM463 950l-109 -142h-80l67 142h122z" />
    <glyph glyph-name="Ucircumflex" unicode="&#xdb;" horiz-adv-x="737" 
d="M655 737v-365q0 -93 -20.5 -164t-57.5 -118t-90 -71t-118 -24q-66 0 -118.5 24t-90 71t-58 118t-20.5 164v365h122v-353q0 -82 11.5 -138t32.5 -89.5t51 -48.5t67 -15q38 0 69 14t53 47t34 89t12 141v353h121zM411 808l-44 79l-43 -79h-110l108 142h91l109 -142h-111z
" />
    <glyph glyph-name="Udieresis" unicode="&#xdc;" horiz-adv-x="737" 
d="M655 737v-365q0 -93 -20.5 -164t-57.5 -118t-90 -71t-118 -24q-66 0 -118.5 24t-90 71t-58 118t-20.5 164v365h122v-353q0 -82 11.5 -138t32.5 -89.5t51 -48.5t67 -15q38 0 69 14t53 47t34 89t12 141v353h121zM599 884q0 -30 -21 -51t-51 -21t-51 21t-21 51t21 50.5
t51 20.5t51 -20.5t21 -50.5zM302 884q0 -30 -21 -51t-51 -21t-51 21t-21 51t21 50.5t51 20.5t51 -20.5t21 -50.5z" />
    <glyph glyph-name="Yacute" unicode="&#xdd;" horiz-adv-x="655" 
d="M603 737l-219 -437v-300h-122v290l-208 447h137l127 -330h11l137 330h137zM422 950l-109 -142h-80l67 142h122z" />
    <glyph glyph-name="Thorn" unicode="&#xde;" horiz-adv-x="852" 
d="M211 0h-120v737h120v-82h92q47 0 93 -15t82.5 -45t59 -72.5t22.5 -95.5q0 -56 -19 -101t-53 -76.5t-82 -48.5t-106 -17h-89v-184zM211 564v-292h110q22 0 43.5 7.5t39.5 25t29 47.5t11 75q0 18 -5 42t-20.5 45.5t-43.5 35.5t-74 14h-90z" />
    <glyph glyph-name="germandbls" unicode="&#xdf;" horiz-adv-x="655" 
d="M460 388q23 -3 44.5 -15t38.5 -34t28 -53.5t11 -72.5q0 -50 -10 -86.5t-25.5 -60.5t-34.5 -38.5t-38 -21.5t-36.5 -9t-28.5 -2q-42 0 -69 3.5t-43.5 8.5t-27 11.5t-19.5 11.5l28 76q17 -8 41 -16.5t72 -8.5q39 0 57.5 37.5t18.5 94.5q0 27 -7.5 50.5t-21 41t-32.5 27
t-40 9.5h-71v81h56q16 0 31.5 5.5t28 20t21 38.5t11.5 62q0 76 -32 108t-81 32q-42 0 -66.5 -19t-38.5 -56.5t-18 -94.5t-4 -134v-384h-122v396q0 93 11 165.5t39 121.5t75.5 74t120.5 25q50 0 92 -14.5t72 -44t47 -73.5t17 -102q-3 -27 -12 -54t-21.5 -49t-28.5 -37.5
t-33 -19.5z" />
    <glyph glyph-name="agrave" unicode="&#xe0;" horiz-adv-x="600" 
d="M495 175v-8q0 -8 1 -23.5t4 -31.5t9.5 -29t17.5 -17l-32 -67q-13 0 -27.5 6t-28 17t-23 24.5t-14.5 29.5q-7 -17 -24.5 -31.5t-39.5 -26t-47.5 -17.5t-47.5 -6q-34 0 -65.5 9t-55.5 29t-37.5 53t-13.5 81q0 46 19.5 79.5t50 55t69.5 32t79 10.5h85q0 49 -5 78t-17 42.5
t-29.5 17t-41.5 3.5q-22 0 -41.5 -5.5t-36 -13t-29 -16.5t-18.5 -14l-45 69q10 11 30 22.5t46 20.5t56.5 14.5t63.5 5.5q30 0 58.5 -6t52 -20t41 -37.5t24.5 -58.5t9.5 -70.5t2.5 -70.5v-130zM375 273h-64q-20 0 -42 -4t-41 -15t-31.5 -31.5t-12.5 -52.5q0 -50 22.5 -72
t65.5 -22q30 0 57.5 16t45.5 43v138zM205 777h121l68 -142h-81z" />
    <glyph glyph-name="aacute" unicode="&#xe1;" horiz-adv-x="600" 
d="M495 175v-8q0 -8 1 -23.5t4 -31.5t9.5 -29t17.5 -17l-32 -67q-13 0 -27.5 6t-28 17t-23 24.5t-14.5 29.5q-7 -17 -24.5 -31.5t-39.5 -26t-47.5 -17.5t-47.5 -6q-34 0 -65.5 9t-55.5 29t-37.5 53t-13.5 81q0 46 19.5 79.5t50 55t69.5 32t79 10.5h85q0 49 -5 78t-17 42.5
t-29.5 17t-41.5 3.5q-22 0 -41.5 -5.5t-36 -13t-29 -16.5t-18.5 -14l-45 69q10 11 30 22.5t46 20.5t56.5 14.5t63.5 5.5q30 0 58.5 -6t52 -20t41 -37.5t24.5 -58.5t9.5 -70.5t2.5 -70.5v-130zM375 273h-64q-20 0 -42 -4t-41 -15t-31.5 -31.5t-12.5 -52.5q0 -50 22.5 -72
t65.5 -22q30 0 57.5 16t45.5 43v138zM394 777l-109 -142h-80l67 142h122z" />
    <glyph glyph-name="acircumflex" unicode="&#xe2;" horiz-adv-x="600" 
d="M495 175v-8q0 -8 1 -23.5t4 -31.5t9.5 -29t17.5 -17l-32 -67q-13 0 -27.5 6t-28 17t-23 24.5t-14.5 29.5q-7 -17 -24.5 -31.5t-39.5 -26t-47.5 -17.5t-47.5 -6q-34 0 -65.5 9t-55.5 29t-37.5 53t-13.5 81q0 46 19.5 79.5t50 55t69.5 32t79 10.5h85q0 49 -5 78t-17 42.5
t-29.5 17t-41.5 3.5q-22 0 -41.5 -5.5t-36 -13t-29 -16.5t-18.5 -14l-45 69q10 11 30 22.5t46 20.5t56.5 14.5t63.5 5.5q30 0 58.5 -6t52 -20t41 -37.5t24.5 -58.5t9.5 -70.5t2.5 -70.5v-130zM375 273h-64q-20 0 -42 -4t-41 -15t-31.5 -31.5t-12.5 -52.5q0 -50 22.5 -72
t65.5 -22q30 0 57.5 16t45.5 43v138zM343 635l-44 79l-43 -79h-110l108 142h91l109 -142h-111z" />
    <glyph glyph-name="atilde" unicode="&#xe3;" horiz-adv-x="600" 
d="M495 175v-8q0 -8 1 -23.5t4 -31.5t9.5 -29t17.5 -17l-32 -67q-13 0 -27.5 6t-28 17t-23 24.5t-14.5 29.5q-7 -17 -24.5 -31.5t-39.5 -26t-47.5 -17.5t-47.5 -6q-34 0 -65.5 9t-55.5 29t-37.5 53t-13.5 81q0 46 19.5 79.5t50 55t69.5 32t79 10.5h85q0 49 -5 78t-17 42.5
t-29.5 17t-41.5 3.5q-22 0 -41.5 -5.5t-36 -13t-29 -16.5t-18.5 -14l-45 69q10 11 30 22.5t46 20.5t56.5 14.5t63.5 5.5q30 0 58.5 -6t52 -20t41 -37.5t24.5 -58.5t9.5 -70.5t2.5 -70.5v-130zM375 273h-64q-20 0 -42 -4t-41 -15t-31.5 -31.5t-12.5 -52.5q0 -50 22.5 -72
t65.5 -22q30 0 57.5 16t45.5 43v138zM123 670q7 17 18 33.5t25.5 29.5t32 21t37.5 8q18 0 36.5 -5t34 -12t30.5 -12t27 -5q17 0 28 8t19 34l65 -19q-12 -44 -42 -67.5t-70 -23.5q-17 0 -33.5 5.5t-32 12t-30.5 11.5t-32 5q-16 0 -29.5 -15.5t-22.5 -35.5z" />
    <glyph glyph-name="adieresis" unicode="&#xe4;" horiz-adv-x="600" 
d="M495 175v-8q0 -8 1 -23.5t4 -31.5t9.5 -29t17.5 -17l-32 -67q-13 0 -27.5 6t-28 17t-23 24.5t-14.5 29.5q-7 -17 -24.5 -31.5t-39.5 -26t-47.5 -17.5t-47.5 -6q-34 0 -65.5 9t-55.5 29t-37.5 53t-13.5 81q0 46 19.5 79.5t50 55t69.5 32t79 10.5h85q0 49 -5 78t-17 42.5
t-29.5 17t-41.5 3.5q-22 0 -41.5 -5.5t-36 -13t-29 -16.5t-18.5 -14l-45 69q10 11 30 22.5t46 20.5t56.5 14.5t63.5 5.5q30 0 58.5 -6t52 -20t41 -37.5t24.5 -58.5t9.5 -70.5t2.5 -70.5v-130zM375 273h-64q-20 0 -42 -4t-41 -15t-31.5 -31.5t-12.5 -52.5q0 -50 22.5 -72
t65.5 -22q30 0 57.5 16t45.5 43v138zM531 711q0 -30 -21 -51t-51 -21t-51 21t-21 51t21 50.5t51 20.5t51 -20.5t21 -50.5zM234 711q0 -30 -21 -51t-51 -21t-51 21t-21 51t21 50.5t51 20.5t51 -20.5t21 -50.5z" />
    <glyph glyph-name="aring" unicode="&#xe5;" horiz-adv-x="600" 
d="M495 175v-8q0 -8 1 -23.5t4 -31.5t9.5 -29t17.5 -17l-32 -67q-13 0 -27.5 6t-28 17t-23 24.5t-14.5 29.5q-7 -17 -24.5 -31.5t-39.5 -26t-47.5 -17.5t-47.5 -6q-34 0 -65.5 9t-55.5 29t-37.5 53t-13.5 81q0 46 19.5 79.5t50 55t69.5 32t79 10.5h85q0 49 -5 78t-17 42.5
t-29.5 17t-41.5 3.5q-22 0 -41.5 -5.5t-36 -13t-29 -16.5t-18.5 -14l-45 69q10 11 30 22.5t46 20.5t56.5 14.5t63.5 5.5q30 0 58.5 -6t52 -20t41 -37.5t24.5 -58.5t9.5 -70.5t2.5 -70.5v-130zM375 273h-64q-20 0 -42 -4t-41 -15t-31.5 -31.5t-12.5 -52.5q0 -50 22.5 -72
t65.5 -22q30 0 57.5 16t45.5 43v138zM300 884q26 0 48 -10t39 -27t26.5 -39.5t9.5 -47.5q0 -26 -9.5 -49t-26.5 -40t-39.5 -26.5t-47.5 -9.5q-26 0 -49 9.5t-40 26.5t-26.5 40t-9.5 49t9.5 48t26.5 39t40 27t49 10zM300 695q27 0 45.5 19t18.5 46t-19 45t-45 18
q-27 0 -46 -18.5t-19 -44.5q0 -27 19 -46t46 -19z" />
    <glyph glyph-name="ccedilla" unicode="&#xe7;" horiz-adv-x="585" 
d="M504 79q-34 -43 -74 -63.5t-102 -20.5q-59 0 -107 22.5t-82 61t-51.5 90.5t-17.5 113q0 60 19 112t53 90.5t82 60.5t107 22q62 0 106 -20.5t78 -63.5l-54 -65q-17 20 -47 36.5t-82 16.5q-30 0 -55 -14t-42.5 -39t-27 -59t-9.5 -74t8.5 -74.5t25.5 -60.5t40.5 -41
t54.5 -15q45 0 75.5 14.5t56.5 35.5zM291 -71q17 7 35 8q18 0 33.5 -8t26 -19.5t16.5 -26t6 -28.5q0 -46 -30.5 -72t-82.5 -26v58q54 0 54 38q0 17 -14.5 29.5t-38.5 12.5q-13 0 -32 -6l-41 19l58 99h77z" />
    <glyph glyph-name="egrave" unicode="&#xe8;" horiz-adv-x="664" 
d="M322 570q68 0 120 -27.5t85.5 -73t48 -105t5.5 -123.5h-392q0 -32 12 -59t32.5 -46.5t49 -30.5t61.5 -11q11 0 27.5 2.5t35 9t37 16.5t32.5 24l44 -67q-33 -41 -77 -62t-112 -21q-55 0 -103 22.5t-82 61.5t-54 91t-20 112q0 59 20 111.5t53.5 91.5t79.5 61.5t97 22.5z
M469 329q0 27 -10 53t-27.5 47t-42.5 33.5t-54 13.5q-31 0 -57 -12t-45 -32t-29.5 -47.5t-10.5 -55.5h276zM238 777h121l68 -142h-81z" />
    <glyph glyph-name="eacute" unicode="&#xe9;" horiz-adv-x="664" 
d="M322 570q68 0 120 -27.5t85.5 -73t48 -105t5.5 -123.5h-392q0 -32 12 -59t32.5 -46.5t49 -30.5t61.5 -11q11 0 27.5 2.5t35 9t37 16.5t32.5 24l44 -67q-33 -41 -77 -62t-112 -21q-55 0 -103 22.5t-82 61.5t-54 91t-20 112q0 59 20 111.5t53.5 91.5t79.5 61.5t97 22.5z
M469 329q0 27 -10 53t-27.5 47t-42.5 33.5t-54 13.5q-31 0 -57 -12t-45 -32t-29.5 -47.5t-10.5 -55.5h276zM427 777l-109 -142h-80l67 142h122z" />
    <glyph glyph-name="ecircumflex" unicode="&#xea;" horiz-adv-x="664" 
d="M322 570q68 0 120 -27.5t85.5 -73t48 -105t5.5 -123.5h-392q0 -32 12 -59t32.5 -46.5t49 -30.5t61.5 -11q11 0 27.5 2.5t35 9t37 16.5t32.5 24l44 -67q-33 -41 -77 -62t-112 -21q-55 0 -103 22.5t-82 61.5t-54 91t-20 112q0 59 20 111.5t53.5 91.5t79.5 61.5t97 22.5z
M469 329q0 27 -10 53t-27.5 47t-42.5 33.5t-54 13.5q-31 0 -57 -12t-45 -32t-29.5 -47.5t-10.5 -55.5h276zM376 635l-44 79l-43 -79h-110l108 142h91l109 -142h-111z" />
    <glyph glyph-name="edieresis" unicode="&#xeb;" horiz-adv-x="664" 
d="M322 570q68 0 120 -27.5t85.5 -73t48 -105t5.5 -123.5h-392q0 -32 12 -59t32.5 -46.5t49 -30.5t61.5 -11q11 0 27.5 2.5t35 9t37 16.5t32.5 24l44 -67q-33 -41 -77 -62t-112 -21q-55 0 -103 22.5t-82 61.5t-54 91t-20 112q0 59 20 111.5t53.5 91.5t79.5 61.5t97 22.5z
M469 329q0 27 -10 53t-27.5 47t-42.5 33.5t-54 13.5q-31 0 -57 -12t-45 -32t-29.5 -47.5t-10.5 -55.5h276zM562 711q0 -30 -21 -51t-51 -21t-51 21t-21 51t21 50.5t51 20.5t51 -20.5t21 -50.5zM265 711q0 -30 -21 -51t-51 -21t-51 21t-21 51t21 50.5t51 20.5t51 -20.5
t21 -50.5z" />
    <glyph glyph-name="igrave" unicode="&#xec;" horiz-adv-x="291" 
d="M207 0h-122v564h122v-564zM52 777h121l68 -142h-81z" />
    <glyph glyph-name="iacute" unicode="&#xed;" horiz-adv-x="291" 
d="M207 0h-122v564h122v-564zM241 777l-109 -142h-80l67 142h122z" />
    <glyph glyph-name="icircumflex" unicode="&#xee;" horiz-adv-x="291" 
d="M207 0h-122v564h122v-564zM190 635l-44 79l-43 -79h-110l108 142h91l109 -142h-111z" />
    <glyph glyph-name="idieresis" unicode="&#xef;" horiz-adv-x="291" 
d="M207 0h-122v564h122v-564zM378 711q0 -30 -21 -51t-51 -21t-51 21t-21 51t21 50.5t51 20.5t51 -20.5t21 -50.5zM81 711q0 -30 -21 -51t-51 -21t-51 21t-21 51t21 50.5t51 20.5t51 -20.5t21 -50.5z" />
    <glyph glyph-name="eth" unicode="&#xf0;" horiz-adv-x="645" 
d="M477 671q43 -50 69 -144.5t26 -234.5q0 -65 -15 -119t-47 -94t-80 -62t-114 -22q-36 0 -78.5 12.5t-80 44t-62.5 83t-25 129.5q0 42 15.5 84t45.5 76t72.5 55t94.5 21t93.5 -18.5t54.5 -45.5q1 -1 4 -1t4 -1q-1 45 -12 91.5t-33 76.5l-58 -57l-71 71l47 49q-5 6 -16.5 13
t-26 14t-29.5 13.5t-29 10.5v62q28 0 55 -4.5t50 -11.5t40 -15t25 -14l67 66l72 -72zM315 92q31 0 57 12.5t45 34t30.5 51t11.5 64.5t-11.5 63.5t-30.5 49t-45 32.5t-57 12q-30 0 -55.5 -12t-44 -32.5t-29.5 -49t-11 -63.5t11 -64.5t29.5 -51t44 -34t55.5 -12.5z" />
    <glyph glyph-name="ntilde" unicode="&#xf1;" horiz-adv-x="634" 
d="M553 0h-122v307q0 34 -3 65t-14 55t-30 37.5t-53 13.5q-11 0 -28.5 -3t-36 -9t-35 -15t-24.5 -21v-6v-2v-222v-2v-198h-121v564h108l13 -57q12 11 30.5 22.5t40.5 20.5t45 14.5t45 5.5q45 0 76 -19t62 -49q17 -17 26.5 -39.5t14 -47t5.5 -49.5t1 -49v-297v-20zM141 670
q7 17 18 33.5t25.5 29.5t32 21t37.5 8q18 0 36.5 -5t34 -12t30.5 -12t27 -5q17 0 28 8t19 34l65 -19q-12 -44 -42 -67.5t-70 -23.5q-17 0 -33.5 5.5t-32 12t-30.5 11.5t-32 5q-16 0 -29.5 -15.5t-22.5 -35.5z" />
    <glyph glyph-name="ograve" unicode="&#xf2;" horiz-adv-x="662" 
d="M337 567q58 0 105 -22.5t80 -61.5t51 -91t18 -112t-19 -112.5t-53.5 -91t-82 -60t-105.5 -21.5q-59 0 -107.5 22t-82 61t-51.5 91t-18 113t19.5 114t54 90.5t83.5 59t108 21.5zM329 90q30 0 54.5 14.5t42 40t28 60.5t10.5 75t-9.5 75t-26 61.5t-40.5 42.5t-54 16t-55 -15
t-42.5 -40.5t-27 -60t-9.5 -74.5t8.5 -75.5t25.5 -61.5t40.5 -42t54.5 -16zM237 777h121l68 -142h-81z" />
    <glyph glyph-name="oacute" unicode="&#xf3;" horiz-adv-x="662" 
d="M337 567q58 0 105 -22.5t80 -61.5t51 -91t18 -112t-19 -112.5t-53.5 -91t-82 -60t-105.5 -21.5q-59 0 -107.5 22t-82 61t-51.5 91t-18 113t19.5 114t54 90.5t83.5 59t108 21.5zM329 90q30 0 54.5 14.5t42 40t28 60.5t10.5 75t-9.5 75t-26 61.5t-40.5 42.5t-54 16t-55 -15
t-42.5 -40.5t-27 -60t-9.5 -74.5t8.5 -75.5t25.5 -61.5t40.5 -42t54.5 -16zM426 777l-109 -142h-80l67 142h122z" />
    <glyph glyph-name="ocircumflex" unicode="&#xf4;" horiz-adv-x="662" 
d="M337 567q58 0 105 -22.5t80 -61.5t51 -91t18 -112t-19 -112.5t-53.5 -91t-82 -60t-105.5 -21.5q-59 0 -107.5 22t-82 61t-51.5 91t-18 113t19.5 114t54 90.5t83.5 59t108 21.5zM329 90q30 0 54.5 14.5t42 40t28 60.5t10.5 75t-9.5 75t-26 61.5t-40.5 42.5t-54 16t-55 -15
t-42.5 -40.5t-27 -60t-9.5 -74.5t8.5 -75.5t25.5 -61.5t40.5 -42t54.5 -16zM375 635l-44 79l-43 -79h-110l108 142h91l109 -142h-111z" />
    <glyph glyph-name="otilde" unicode="&#xf5;" horiz-adv-x="662" 
d="M337 567q58 0 105 -22.5t80 -61.5t51 -91t18 -112t-19 -112.5t-53.5 -91t-82 -60t-105.5 -21.5q-59 0 -107.5 22t-82 61t-51.5 91t-18 113t19.5 114t54 90.5t83.5 59t108 21.5zM329 90q30 0 54.5 14.5t42 40t28 60.5t10.5 75t-9.5 75t-26 61.5t-40.5 42.5t-54 16t-55 -15
t-42.5 -40.5t-27 -60t-9.5 -74.5t8.5 -75.5t25.5 -61.5t40.5 -42t54.5 -16zM155 670q7 17 18 33.5t25.5 29.5t32 21t37.5 8q18 0 36.5 -5t34 -12t30.5 -12t27 -5q17 0 28 8t19 34l65 -19q-12 -44 -42 -67.5t-70 -23.5q-17 0 -33.5 5.5t-32 12t-30.5 11.5t-32 5
q-16 0 -29.5 -15.5t-22.5 -35.5z" />
    <glyph glyph-name="odieresis" unicode="&#xf6;" horiz-adv-x="662" 
d="M337 567q58 0 105 -22.5t80 -61.5t51 -91t18 -112t-19 -112.5t-53.5 -91t-82 -60t-105.5 -21.5q-59 0 -107.5 22t-82 61t-51.5 91t-18 113t19.5 114t54 90.5t83.5 59t108 21.5zM329 90q30 0 54.5 14.5t42 40t28 60.5t10.5 75t-9.5 75t-26 61.5t-40.5 42.5t-54 16t-55 -15
t-42.5 -40.5t-27 -60t-9.5 -74.5t8.5 -75.5t25.5 -61.5t40.5 -42t54.5 -16zM561 711q0 -30 -21 -51t-51 -21t-51 21t-21 51t21 50.5t51 20.5t51 -20.5t21 -50.5zM264 711q0 -30 -21 -51t-51 -21t-51 21t-21 51t21 50.5t51 20.5t51 -20.5t21 -50.5z" />
    <glyph glyph-name="divide" unicode="&#xf7;" horiz-adv-x="551" 
d="M511 343v-101h-467v101h467zM344 498q0 -30 -21 -51t-51 -21t-50.5 21t-20.5 51t21 50.5t50 20.5q30 0 51 -20.5t21 -50.5zM344 67q0 -30 -21 -51t-51 -21t-50.5 21t-20.5 51t21 50.5t50 20.5q30 0 51 -20.5t21 -50.5z" />
    <glyph glyph-name="ugrave" unicode="&#xf9;" horiz-adv-x="633" 
d="M82 544v20h122v-307q0 -35 3 -65.5t13 -53.5t30 -37t53 -14q10 0 28 2.5t36.5 8.5t35 15t24.5 21v7v1v224v1v197h122v-564h-109l-13 58q-12 -11 -30 -22t-39.5 -20.5t-44 -15t-44.5 -5.5q-24 0 -43 4.5t-35.5 14t-31.5 21.5t-30 27q-17 17 -27 39.5t-14.5 47t-5 49.5
t-0.5 49v298v-1zM223 777h121l68 -142h-81z" />
    <glyph glyph-name="uacute" unicode="&#xfa;" horiz-adv-x="633" 
d="M82 544v20h122v-307q0 -35 3 -65.5t13 -53.5t30 -37t53 -14q10 0 28 2.5t36.5 8.5t35 15t24.5 21v7v1v224v1v197h122v-564h-109l-13 58q-12 -11 -30 -22t-39.5 -20.5t-44 -15t-44.5 -5.5q-24 0 -43 4.5t-35.5 14t-31.5 21.5t-30 27q-17 17 -27 39.5t-14.5 47t-5 49.5
t-0.5 49v298v-1zM412 777l-109 -142h-80l67 142h122z" />
    <glyph glyph-name="ucircumflex" unicode="&#xfb;" horiz-adv-x="633" 
d="M82 544v20h122v-307q0 -35 3 -65.5t13 -53.5t30 -37t53 -14q10 0 28 2.5t36.5 8.5t35 15t24.5 21v7v1v224v1v197h122v-564h-109l-13 58q-12 -11 -30 -22t-39.5 -20.5t-44 -15t-44.5 -5.5q-24 0 -43 4.5t-35.5 14t-31.5 21.5t-30 27q-17 17 -27 39.5t-14.5 47t-5 49.5
t-0.5 49v298v-1zM360 635l-44 79l-43 -79h-110l108 142h91l109 -142h-111z" />
    <glyph glyph-name="udieresis" unicode="&#xfc;" horiz-adv-x="633" 
d="M82 544v20h122v-307q0 -35 3 -65.5t13 -53.5t30 -37t53 -14q10 0 28 2.5t36.5 8.5t35 15t24.5 21v7v1v224v1v197h122v-564h-109l-13 58q-12 -11 -30 -22t-39.5 -20.5t-44 -15t-44.5 -5.5q-24 0 -43 4.5t-35.5 14t-31.5 21.5t-30 27q-17 17 -27 39.5t-14.5 47t-5 49.5
t-0.5 49v298v-1zM547 711q0 -30 -21 -51t-51 -21t-51 21t-21 51t21 50.5t51 20.5t51 -20.5t21 -50.5zM250 711q0 -30 -21 -51t-51 -21t-51 21t-21 51t21 50.5t51 20.5t51 -20.5t21 -50.5z" />
    <glyph glyph-name="yacute" unicode="&#xfd;" horiz-adv-x="672" 
d="M630 564q-55 -147 -98 -260.5t-75 -199t-56.5 -144.5t-45 -98.5t-38.5 -62t-37 -34.5t-41.5 -14.5t-51.5 -2.5q-9 0 -21 2.5t-23.5 6t-20.5 7t-12 4.5q4 18 8 34q3 14 6.5 26.5t5.5 17.5q8 0 24.5 -5t24.5 -5q16 0 28.5 1.5t22.5 9t19 22t20 41.5l38 90l-231 564h121
l165 -434l146 434h122zM431 777l-109 -142h-80l67 142h122z" />
    <glyph glyph-name="thorn" unicode="&#xfe;" horiz-adv-x="625" 
d="M579 393q12 -46 12 -103t-13.5 -110.5t-41 -94.5t-69 -65.5t-97.5 -24.5q-30 0 -58 6t-50 16.5t-36.5 23t-17.5 26.5v-289h-122v999h122v-270q20 28 60.5 45t89.5 17q33 0 67 -9t63.5 -30t53.5 -55t37 -82zM330 89q30 0 54.5 15t42 40.5t27.5 61t10 75.5q0 39 -9 74
t-25.5 62t-40 43t-54.5 16q-30 0 -55 -15t-43 -40.5t-27.5 -60t-9.5 -74.5t8.5 -75.5t25.5 -62.5t41 -43t55 -16z" />
    <glyph glyph-name="ydieresis" unicode="&#xff;" horiz-adv-x="672" 
d="M630 564q-55 -147 -98 -260.5t-75 -199t-56.5 -144.5t-45 -98.5t-38.5 -62t-37 -34.5t-41.5 -14.5t-51.5 -2.5q-9 0 -21 2.5t-23.5 6t-20.5 7t-12 4.5q4 18 8 34q3 14 6.5 26.5t5.5 17.5q8 0 24.5 -5t24.5 -5q16 0 28.5 1.5t22.5 9t19 22t20 41.5l38 90l-231 564h121
l165 -434l146 434h122zM567 711q0 -30 -21 -51t-51 -21t-51 21t-21 51t21 50.5t51 20.5t51 -20.5t21 -50.5zM270 711q0 -30 -21 -51t-51 -21t-51 21t-21 51t21 50.5t51 20.5t51 -20.5t21 -50.5z" />
    <glyph glyph-name="dotlessi" unicode="&#x131;" horiz-adv-x="291" 
d="M207 0h-122v564h122v-564z" />
    <glyph glyph-name="Lslash" unicode="&#x141;" horiz-adv-x="664" 
d="M381 514l72 -72l-340 -238l-72 71zM287 737v-646h339v-91h-461v737h122z" />
    <glyph glyph-name="lslash" unicode="&#x142;" horiz-adv-x="495" 
d="M374 565l71 -71l-329 -229l-72 72zM248 172q0 -34 9 -53.5t25 -29t36.5 -12.5t43.5 -3v-74q-13 -2 -26 -3q-11 -1 -26 -1.5t-30 -0.5t-30.5 1t-26.5 3q-34 7 -53 30t-29 51.5t-12.5 55.5t-2.5 42v12v587h122v-605z" />
    <glyph glyph-name="Scaron" unicode="&#x160;" horiz-adv-x="542" 
d="M509 202q0 -40 -16.5 -77.5t-46.5 -66t-74 -45.5t-100 -17q-24 0 -49.5 2.5t-51.5 8.5t-49.5 16.5t-40.5 25.5l21 86q14 -8 35.5 -15.5t44.5 -14t46 -10.5t43 -4q61 0 93.5 28.5t32.5 84.5q0 34 -23 58t-57.5 43.5t-74.5 39t-75 46t-58 62.5t-23 90q0 49 18 87t48.5 64.5
t71 40.5t85.5 14q46 0 93 -8.5t76 -27.5q-6 -13 -14 -28.5t-15 -29t-12 -22.5t-6 -10q-6 3 -13.5 8t-21.5 10t-37 7t-59 -1q-20 -2 -38 -11.5t-32 -23.5t-22 -31.5t-8 -33.5q0 -40 23 -64.5t57 -43t74 -36t74.5 -42.5t57.5 -62.5t23 -96.5zM227 950l43 -79l44 79h111
l-109 -142h-91l-108 142h110z" />
    <glyph glyph-name="scaron" unicode="&#x161;" horiz-adv-x="536" 
d="M75 45l51 81q20 -14 47.5 -26t69.5 -12q55 0 86 17t31 50q0 24 -18 38.5t-45.5 25t-59 20t-58.5 23.5q-53 28 -79.5 59t-26.5 82q0 42 17.5 74t45.5 53.5t64 32.5t73 11q50 0 92 -10.5t81 -35.5l-39 -83q-30 17 -65 23.5t-69 6.5q-37 0 -58.5 -16.5t-21.5 -51.5
q0 -27 19.5 -42.5t50.5 -27.5t66 -24t65.5 -30.5t50.5 -46.5t20 -72q0 -43 -17 -75t-46 -53t-67 -31t-81 -10q-26 0 -48 1.5t-43 6.5t-42 15t-46 27zM224 777l43 -79l44 79h111l-109 -142h-91l-108 142h110z" />
    <glyph glyph-name="Ydieresis" unicode="&#x178;" horiz-adv-x="655" 
d="M603 737l-219 -437v-300h-122v290l-208 447h137l127 -330h11l137 330h137zM558 884q0 -30 -21 -51t-51 -21t-51 21t-21 51t21 50.5t51 20.5t51 -20.5t21 -50.5zM261 884q0 -30 -21 -51t-51 -21t-51 21t-21 51t21 50.5t51 20.5t51 -20.5t21 -50.5z" />
    <glyph glyph-name="Zcaron" unicode="&#x17d;" horiz-adv-x="645" 
d="M568 737v-97l-351 -527l-20 -16h371v-97h-490v97l351 527l21 16h-372v97h490zM278 950l43 -79l44 79h111l-109 -142h-91l-108 142h110z" />
    <glyph glyph-name="zcaron" unicode="&#x17e;" horiz-adv-x="601" 
d="M86 564h429v-97l-290 -354l-20 -16h310v-97h-429v97l290 354l20 16h-310v97zM257 777l43 -79l44 79h111l-109 -142h-91l-108 142h110z" />
    <glyph glyph-name="circumflex" unicode="&#x2c6;" horiz-adv-x="355" 
d="M221 635l-44 79l-43 -79h-110l108 142h91l109 -142h-111z" />
    <glyph glyph-name="caron" unicode="&#x2c7;" horiz-adv-x="353" 
d="M133 777l43 -79l44 79h111l-109 -142h-91l-108 142h110z" />
    <glyph glyph-name="breve" unicode="&#x2d8;" horiz-adv-x="386" 
d="M194 695q27 0 45.5 19t18.5 46h59q0 -26 -9.5 -49t-26.5 -40t-39.5 -26.5t-47.5 -9.5q-26 0 -49 9.5t-40 26.5t-26.5 40t-9.5 49h60q0 -27 19 -46t46 -19z" />
    <glyph glyph-name="dotaccent" unicode="&#x2d9;" horiz-adv-x="285" 
d="M215 711q0 -30 -21 -51t-51 -21t-50.5 21t-20.5 51t21 50.5t50 20.5q30 0 51 -20.5t21 -50.5z" />
    <glyph glyph-name="ring" unicode="&#x2da;" horiz-adv-x="390" 
d="M196 884q26 0 48 -10t39 -27t26.5 -39.5t9.5 -47.5q0 -26 -9.5 -49t-26.5 -40t-39.5 -26.5t-47.5 -9.5q-26 0 -49 9.5t-40 26.5t-26.5 40t-9.5 49t9.5 48t26.5 39t40 27t49 10zM196 695q27 0 45.5 19t18.5 46t-19 45t-45 18q-27 0 -46 -18.5t-19 -44.5q0 -27 19 -46
t46 -19z" />
    <glyph glyph-name="ogonek" unicode="&#x2db;" horiz-adv-x="289" 
d="M227 16q-4 -3 -22.5 -14.5t-38.5 -28.5t-35.5 -38.5t-15.5 -45.5q0 -22 7 -36t18 -22.5t23.5 -12.5t23.5 -4v-38q-32 0 -56.5 9t-41 25t-25.5 36.5t-9 43.5q0 31 21 58t48 48q30 24 69 43q11 -4 21.5 -12.5t12.5 -10.5z" />
    <glyph glyph-name="tilde" unicode="&#x2dc;" horiz-adv-x="406" 
d="M30 670q7 17 18 33.5t25.5 29.5t32 21t37.5 8q18 0 36.5 -5t34 -12t30.5 -12t27 -5q17 0 28 8t19 34l65 -19q-12 -44 -42 -67.5t-70 -23.5q-17 0 -33.5 5.5t-32 12t-30.5 11.5t-32 5q-16 0 -29.5 -15.5t-22.5 -35.5z" />
    <glyph glyph-name="hungarumlaut" unicode="&#x2dd;" horiz-adv-x="448" 
d="M213 777l-109 -142h-80l67 142h122zM437 777l-108 -142h-81l67 142h122z" />
    <glyph glyph-name="endash" unicode="&#x2013;" horiz-adv-x="638" 
d="M553 343v-101h-467v101h467z" />
    <glyph glyph-name="emdash" unicode="&#x2014;" horiz-adv-x="917" 
d="M831 343v-101h-745v101h745z" />
    <glyph glyph-name="quoteleft" unicode="&#x2018;" horiz-adv-x="276" 
d="M134 483q-30 0 -51 21t-21 51q0 5 1.5 23.5t9.5 44.5t27.5 57.5t56.5 61.5h47q-20 -20 -33.5 -40t-22.5 -37q-10 -19 -14 -38q30 0 51 -21t21 -51t-21 -51t-51 -21z" />
    <glyph glyph-name="quoteright" unicode="&#x2019;" horiz-adv-x="275" 
d="M142 742q30 0 51 -21t21 -50q0 -5 -1 -23.5t-9 -44.5t-27.5 -57.5t-56.5 -62.5h-47q20 19 33 40t21 38q9 19 15 38q-30 0 -50.5 21t-20.5 51t20.5 50.5t50.5 20.5z" />
    <glyph glyph-name="quotedblleft" unicode="&#x201c;" horiz-adv-x="494" 
d="M344 483q-30 0 -51 21t-21 51q0 5 1 23.5t9.5 44.5t28 57.5t56.5 61.5h47q-20 -20 -33.5 -40t-22.5 -37q-10 -19 -14 -38q30 0 51 -21t21 -51t-21 -51t-51 -21zM150 483q-30 0 -51 21t-21 51q0 5 1 23.5t9 44.5t27.5 57.5t56.5 61.5h47q-20 -20 -33.5 -40t-21.5 -37
q-10 -19 -14 -38q30 0 50.5 -21t20.5 -51t-20.5 -51t-50.5 -21z" />
    <glyph glyph-name="quotedblright" unicode="&#x201d;" horiz-adv-x="493" 
d="M151 742q30 0 50.5 -21t20.5 -50q0 -5 -1 -23.5t-9 -44.5t-27.5 -57.5t-56.5 -62.5h-47q20 19 33 40t21 38q9 19 16 38q-30 0 -51 21t-21 51t21 50.5t51 20.5zM345 742q30 0 51 -21t21 -50q0 -5 -1 -23.5t-9.5 -44.5t-28 -57.5t-55.5 -62.5h-48q20 19 33.5 40t21.5 38
q9 19 15 38q-30 0 -51 21t-21 51t21 50.5t51 20.5z" />
    <glyph glyph-name="guilsinglleft" unicode="&#x2039;" horiz-adv-x="457" 
d="M180 283l205 -252h-139l-202 252l205 251h137z" />
    <glyph glyph-name="guilsinglright" unicode="&#x203a;" horiz-adv-x="457" 
d="M72 534h137l205 -251l-202 -252h-139l205 252z" />
    <glyph glyph-name="Euro" unicode="&#x20ac;" horiz-adv-x="678" 
d="M443 650q-57 0 -104 -35t-70 -119h256l-30 -82h-238q-1 -10 -1.5 -20.5t-0.5 -21.5t0.5 -21t1.5 -19h207l-31 -82h-164q22 -83 67.5 -120t100.5 -37q36 0 68 13t57 42v-130q-56 -24 -122 -23q-54 0 -101.5 16t-86 48t-66 79.5t-41.5 111.5h-91l31 82h49q-1 10 -1 19.5
v20.5v21t1 21h-80l31 82h60q14 62 42 109.5t66.5 79.5t86 48t100.5 16q92 0 163 -47l-41 -107q-25 29 -55.5 42t-63.5 13z" />
    <glyph glyph-name="glyph41" horiz-adv-x="648" 
 />
    <glyph glyph-name="glyph42" 
 />
    <glyph glyph-name="aid" horiz-adv-x="1090" 
d="M811 564q39 0 67 -5t46 -20.5t26.5 -43t8.5 -73.5v-280q0 -30 -0.5 -56t-13.5 -44.5t-44 -30t-90 -11.5h-548q-53 0 -80 12.5t-38 32.5t-11.5 45.5t-0.5 51.5v280q0 30 0.5 56t13.5 45t43.5 30t91.5 11h62v142h405v-142h62zM687 312h-80v80h-122v-80h-79v-122h79v-79h122
v79h80v122zM687 644h-281v-141h281v141z" />
    <glyph glyph-name="food" horiz-adv-x="568" 
d="M427 518q-18 -18 -36.5 -27.5t-33.5 -12.5q-17 -4 -32 -3q-1 15 3 33q3 14 12 32t28 37q18 18 36.5 26.5t32.5 12.5q17 4 33 4q1 -15 -3 -33q-4 -14 -13.5 -32.5t-26.5 -36.5zM427 395q-18 -18 -36.5 -27.5t-33.5 -12.5q-17 -4 -32 -3q-1 14 3 32q3 14 12 32.5t28 37.5
q18 18 36.5 26.5t32.5 13.5q17 4 33 3q1 -15 -3 -33q-4 -14 -13.5 -32.5t-26.5 -36.5zM427 272q-18 -18 -36.5 -27t-33.5 -13q-17 -4 -32 -3q-1 14 3 32q3 14 12 32.5t28 37.5q18 18 36.5 27t32.5 13q17 4 33 3q1 -15 -3 -33q-4 -14 -13.5 -32.5t-26.5 -36.5zM427 641
q-18 -18 -36.5 -27.5t-33.5 -12.5q-17 -4 -32 -3q-1 15 3 33q3 14 12 32.5t28 36.5q18 17 36.5 26.5t32.5 12.5q17 4 33 3q1 -15 -3 -32q-4 -14 -13.5 -32.5t-26.5 -36.5zM114 554.5q-9 18.5 -13 32.5q-4 18 -3 33q16 0 33 -4q14 -4 33 -12.5t37 -26.5q18 -19 27 -37t13 -32
q4 -18 3 -33q-16 -1 -33 3q-14 3 -33 12.5t-37 27.5t-27 36.5zM114 431.5q-9 18.5 -13 32.5q-4 18 -3 33q16 1 33 -3q14 -5 33 -13.5t37 -26.5q18 -19 27 -37.5t13 -32.5q4 -18 3 -32q-16 -1 -33 3q-14 3 -33 12.5t-37 27.5t-27 36.5zM114 308.5q-9 18.5 -13 32.5
q-4 18 -3 33q16 1 33 -3q14 -4 33 -13t37 -27q18 -19 27 -37.5t13 -32.5q4 -18 3 -32q-16 -1 -33 3q-14 4 -33 13t-37 27t-27 36.5zM114 677.5q-9 18.5 -13 32.5q-4 17 -3 32q16 1 33 -3q14 -3 33 -12.5t37 -26.5q18 -18 27 -36.5t13 -32.5q4 -18 3 -33q-16 -1 -33 3
q-14 3 -33 12.5t-37 27.5t-27 36.5zM304 0h-40v707h40v-707z" />
    <glyph glyph-name="up" horiz-adv-x="820" 
d="M737 214l-266 266v-480h-122v480l-266 -266v202l328 326l326 -326v-202z" />
    <glyph glyph-name="water" horiz-adv-x="716" 
d="M359 742q49 -49 95.5 -109t81.5 -123t56.5 -127t21.5 -122t-17.5 -108t-51 -86t-80.5 -56.5t-106 -20.5q-58 0 -105.5 20.5t-81.5 56.5t-52 86t-18 108t21.5 122t57.5 127t82 123t96 109zM482 143q12 0 21.5 7.5t15.5 18t9 22.5t3 22q0 18 -4.5 37.5t-11 38t-14 35
t-15.5 28.5q0 -24 -7.5 -47.5t-14.5 -37.5q-4 -10 -9 -17t-9.5 -15t-7.5 -17t-3 -21q0 -25 16 -39.5t31 -14.5z" />
    <glyph glyph-name="shelter" horiz-adv-x="859" 
d="M369 0v221h121v-221h-121zM430 730l327 -327v-150l-62 61v-314h-91v406l-174 175l-175 -175v-406h-91v314l-62 -61v150z" />
    <glyph glyph-name="transport" horiz-adv-x="881" 
d="M741 308v-44v-160h-51v-64q0 -5 -0.5 -12.5t-5 -14t-14.5 -11t-27 -4.5h-27q-15 0 -23.5 5t-13 13t-5 17t-0.5 17v54h-267v-64q0 -5 -0.5 -12.5t-5 -14t-13.5 -11t-28 -4.5h-26q-15 0 -23.5 5t-12.5 13t-5.5 17t-1.5 17v54h-51v484q0 29 0.5 55t14 45.5t43.5 30.5t91 11
h322q53 0 80 -12t38 -32t11.5 -46t0.5 -52v-280zM331 648q-43 0 -66 -8.5t-34 -23t-12.5 -33t-1.5 -37.5v-43.5t-1 -112.5h450v158q0 18 -1.5 36t-11 32.5t-30 23t-57.5 8.5h-235zM250 186q24 0 40.5 17.5t16.5 41.5t-17 40.5t-40 16.5q-24 0 -41.5 -17t-17.5 -40
q0 -24 17.5 -41.5t41.5 -17.5zM633 186q24 0 40.5 17.5t16.5 41.5t-17 40.5t-40 16.5q-25 0 -42 -17t-17 -40q0 -24 17 -41.5t42 -17.5z" />
    <glyph glyph-name="woman" horiz-adv-x="467" 
d="M236 642q-30 0 -51 21t-21 51t21 50.5t51 20.5t50.5 -21t20.5 -50q0 -30 -20.5 -51t-50.5 -21zM373 550v-216h-50v201h-14l-23 -102v-35l56 -214h-60l-9 -184h-76l-9 184h-60l56 214v36l-23 101h-14v-201h-51v201q0 13 1 23.5t7.5 19t20 13t40.5 4.5h148q20 0 32 -4
t18.5 -11.5t8 -16t1.5 -18.5v-16v21z" />
    <glyph glyph-name="man" horiz-adv-x="465" 
d="M371 550v-237h-59v222h-19v-535h-122v535h-19v-222h-58v222v13v2q0 10 2.5 18.5t10 14.5t20.5 9t36 3h147q25 0 37 -5.5t18 -15t6 -21v-24.5v21zM371 400v-20v20zM232 642q-30 0 -50.5 21t-20.5 51t21 50.5t50 20.5q30 0 51 -21t21 -50q0 -30 -21 -51t-51 -21z" />
    <glyph glyph-name="downright" horiz-adv-x="827" 
d="M697 462v-462h-463l-142 141h377l-340 340l86 86l340 -340v377z" />
    <glyph glyph-name="fruit" horiz-adv-x="675" 
d="M347 523q54 0 97 -19t73 -53.5t45.5 -83t15.5 -106.5q0 -49 -16.5 -96.5t-46.5 -85.5t-72.5 -61t-95.5 -23t-96 23t-73 61t-46 85.5t-16 96.5q0 58 15 106.5t45 83t73 53.5t98 19zM454 597q-18 -18 -37 -27.5t-33 -12.5q-17 -4 -32 -3q-1 15 3 33q3 14 12 32t27 36t37 27
t33 13q17 4 33 3q1 -15 -3 -32q-4 -14 -13 -32.5t-27 -36.5zM332 554q-22 -1 -44 4q-19 5 -44 17t-48 36q-25 25 -37 49t-17 43q-5 23 -4 45q20 0 43 -6q19 -5 44 -16.5t49 -36.5q25 -25 37 -49t17 -43q5 -23 4 -43z" />
    <glyph glyph-name="downleft" horiz-adv-x="828" 
d="M273 604v-377l340 340l86 -86l-340 -340h377l-142 -141h-463v462z" />
    <glyph glyph-name="right" horiz-adv-x="897" 
d="M485 693l327 -326l-327 -328h-201l266 266h-480v122h480l-266 266h201z" />
    <glyph glyph-name="left" horiz-adv-x="898" 
d="M613 693l-266 -266h480v-122h-480l266 -266h-201l-327 328l327 326h201z" />
    <glyph glyph-name="glyph163" 
 />
    <glyph glyph-name="down" horiz-adv-x="820" 
d="M737 322l-326 -327l-328 327v201l266 -266v480h122v-480l266 266v-201z" />
    <glyph glyph-name="glyph173" 
 />
    <glyph glyph-name="glyph174" 
 />
    <glyph glyph-name="glyph175" 
 />
    <glyph glyph-name="glyph176" 
 />
    <glyph glyph-name="glyph177" 
 />
    <glyph glyph-name="glyph178" 
 />
    <glyph glyph-name="upleft" horiz-adv-x="827" 
d="M131 142v462h463l142 -141h-377l340 -340l-86 -86l-340 340v-377z" />
    <glyph glyph-name="upright" horiz-adv-x="826" 
d="M554 0v377l-340 -340l-86 86l340 340h-377l142 141h463v-462z" />
    <glyph glyph-name="glyph181" 
 />
    <glyph glyph-name="glyph182" 
 />
    <glyph glyph-name="glyph183" 
 />
    <glyph glyph-name="glyph184" 
 />
    </font>
</defs>
</svg>
