<?xml version="1.0" standalone="no"?>
<!DOCTYPE svg PUBLIC "-//W3C//DTD SVG 1.1//EN" "http://www.w3.org/Graphics/SVG/1.1/DTD/svg11.dtd" >
<svg xmlns="http://www.w3.org/2000/svg" xmlns:xlink="http://www.w3.org/1999/xlink" version="1.1">
<metadata>
Created by FontForge 20161013 at Fri May 20 05:05:48 2011
 By ,,,
Copyright (c) 2011 by Gesine Todt. All rights reserved.
</metadata>
<defs>
<font id="Amaranth" horiz-adv-x="500" >
  <font-face 
    font-family="Amaranth"
    font-weight="400"
    font-stretch="normal"
    units-per-em="1000"
    panose-1="2 0 5 3 5 0 0 2 0 4"
    ascent="800"
    descent="-200"
    x-height="498"
    cap-height="677"
    bbox="-125 -223 871 928"
    underline-thickness="50"
    underline-position="-150"
    unicode-range="U+0020-2215"
  />
<missing-glyph horiz-adv-x="273" 
 />
    <glyph glyph-name=".notdef" horiz-adv-x="273" 
 />
    <glyph glyph-name=".null" horiz-adv-x="0" 
 />
    <glyph glyph-name="nonmarkingreturn" horiz-adv-x="255" 
 />
    <glyph glyph-name="space" unicode=" " horiz-adv-x="255" 
 />
    <glyph glyph-name="exclam" unicode="!" horiz-adv-x="319" 
d="M230 119q19 -21 19 -54q0 -32 -19 -54t-57 -22q-35 0 -53.5 22t-18.5 52q0 32 19 54.5t56 22.5q35 0 54 -21zM127 677h127l-29 -457h-98v457z" />
    <glyph glyph-name="quotedbl" unicode="&#x22;" horiz-adv-x="366" 
d="M146 677l-8 -243h-80l-8 243h96zM315 677l-8 -243h-80l-8 243h96z" />
    <glyph glyph-name="numbersign" unicode="#" horiz-adv-x="616" 
d="M485 593l-18 -137h99l-10 -78h-99l-20 -157h106l-10 -78h-106l-18 -143h-79l18 143h-124l-18 -143h-79l18 143h-105l10 78h105l20 157h-112l10 78h112l18 137h79l-18 -137h124l18 137h79zM234 221h124l20 157h-124z" />
    <glyph glyph-name="dollar" unicode="$" horiz-adv-x="519" 
d="M223 11q-32 3 -59.5 10.5t-50 16.5t-39 17.5t-24.5 13.5l43 88q7 -5 24 -14t38.5 -18.5t44.5 -16.5t43 -7q100 0 100 83q0 20 -6.5 33t-19 22.5t-30 17t-39.5 15.5q-42 16 -74.5 33.5t-55.5 39.5t-35 50t-12 64q0 28 11 54t31 46.5t48 35t62 20.5v79h82v-77q26 -3 50 -9
t43 -13t32.5 -13.5t19.5 -9.5l-40 -82q-8 4 -22.5 10.5t-32.5 13.5t-39 12t-42 5q-34 0 -60.5 -13.5t-26.5 -45.5q0 -20 7.5 -35.5t22 -27.5t36 -22.5t49.5 -20.5q37 -15 66 -31t49 -36t30.5 -46t10.5 -61q0 -30 -9.5 -58t-29 -52t-48 -41.5t-66.5 -25.5v-98h-82v94z" />
    <glyph glyph-name="percent" unicode="%" horiz-adv-x="840" 
d="M306 544.5q35 -46.5 35 -127.5q0 -38 -9.5 -71t-28.5 -57t-48 -38t-68 -14q-77 0 -112 46.5t-35 126.5q0 39 9.5 72t28.5 57.5t47.5 38t67.5 13.5q78 0 113 -46.5zM147.5 490.5q-9.5 -29.5 -9.5 -74.5q0 -23 2 -42.5t8 -34t17 -23t28 -8.5q31 0 40.5 29.5t9.5 74.5
q0 22 -2 42t-8 34.5t-17 23t-29 8.5q-30 0 -39.5 -29.5zM511 587h94l-274 -587h-94zM764.5 304.5q34.5 -46.5 34.5 -127.5q0 -38 -9.5 -71t-28 -57t-47.5 -38t-68 -14q-77 0 -112 46.5t-35 126.5q0 39 9.5 72t28 57.5t47.5 38t68 13.5q78 0 112.5 -46.5zM606.5 250.5
q-9.5 -29.5 -9.5 -74.5q0 -23 2 -42.5t8 -34t17 -23t28 -8.5q31 0 40.5 29.5t9.5 74.5q0 22 -2 42t-8 34.5t-17 23t-29 8.5q-30 0 -39.5 -29.5z" />
    <glyph glyph-name="ampersand" unicode="&#x26;" horiz-adv-x="574" 
d="M384 460q-4 3 -11 9.5t-17.5 13.5t-24.5 12.5t-31 5.5q-31 0 -46.5 -14.5t-15.5 -38.5t13 -50.5t36 -55.5t55 -60.5t71 -65.5q12 20 22 39.5t18 39.5l84 -34q-11 -25 -24.5 -52.5t-30.5 -53.5l97 -84l-57 -76l-102 83q-38 -37 -88 -60.5t-116 -23.5q-34 0 -66.5 11.5
t-58 34t-41 55t-15.5 74.5q0 37 10.5 67.5t26.5 54.5t35.5 42t36.5 30q-23 46 -23 90q0 27 9.5 52.5t30 45.5t53 32t78.5 12q51 0 87.5 -19.5t62.5 -52.5zM263.5 214q-40.5 38 -70.5 76q-14 -15 -27 -41.5t-13 -64.5q0 -43 25 -67.5t71 -24.5q27 0 52 12t48 34
q-45 38 -85.5 76z" />
    <glyph glyph-name="quotesingle" unicode="'" horiz-adv-x="196" 
d="M146 677l-8 -243h-80l-8 243h96z" />
    <glyph glyph-name="parenleft" unicode="(" horiz-adv-x="383" 
d="M92.5 442q22.5 76 55.5 133t69.5 94.5t63.5 56.5l62 -68q-22 -18 -49.5 -51t-52 -81.5t-41.5 -112.5t-17 -145q0 -82 16.5 -146.5t41 -112.5t52.5 -81t50 -51l-62 -68q-27 19 -63.5 56.5t-69.5 94.5t-55.5 134t-22.5 175q0 97 22.5 173z" />
    <glyph glyph-name="parenright" unicode=")" horiz-adv-x="383" 
d="M320.5 94q-22.5 -77 -55.5 -134t-69.5 -94.5t-63.5 -56.5l-61 68q22 18 50 51t52.5 81t41 112.5t16.5 146.5q0 81 -17 145t-41.5 112.5t-52 81.5t-49.5 51l61 68q27 -19 63.5 -56.5t69.5 -94.5t55.5 -133t22.5 -173q0 -98 -22.5 -175z" />
    <glyph glyph-name="asterisk" unicode="*" horiz-adv-x="450" 
d="M270 677l-10 -114l110 46l30 -91l-113 -27l76 -87l-78 -57l-61 99l-62 -100l-78 57l77 89l-111 26l30 91l103 -43l-9 111h96z" />
    <glyph glyph-name="plus" unicode="+" horiz-adv-x="512" 
d="M60 346h149v152h94v-152h149v-89h-149v-158h-94v158h-149v89z" />
    <glyph glyph-name="comma" unicode="," horiz-adv-x="280" 
d="M103 132.5q15 8.5 50 8.5t51 -21t16 -53q0 -41 -11.5 -74t-30.5 -60t-43.5 -47t-51.5 -33l-43 58q39 29 52.5 58t13.5 56q0 29 -9 54t-10 44q1 1 16 9.5z" />
    <glyph glyph-name="hyphen" unicode="-" horiz-adv-x="383" 
d="M50 361h283v-83h-283v83z" />
    <glyph glyph-name="period" unicode="." horiz-adv-x="269" 
d="M189.5 119q18.5 -21 18.5 -54q0 -32 -19 -54t-56 -22q-35 0 -54 22t-19 52q0 32 19 54.5t57 22.5q35 0 53.5 -21z" />
    <glyph glyph-name="slash" unicode="/" horiz-adv-x="417" 
d="M308 729h119l-318 -855h-119z" />
    <glyph glyph-name="zero" unicode="0" horiz-adv-x="563" 
d="M393.5 621q43.5 -21 71.5 -61t40.5 -99t12.5 -134t-13.5 -136t-43 -105t-75.5 -68t-111 -24q-62 0 -105.5 21t-71.5 61.5t-40.5 99.5t-12.5 135q0 75 13.5 136t43 104.5t75.5 67t111 23.5q62 0 105.5 -21zM223.5 538.5q-20.5 -16.5 -32.5 -47t-17 -73.5t-5 -96
q0 -50 4.5 -94t17 -76.5t35.5 -51.5t61 -19q31 0 51.5 17t32.5 47.5t17 73.5t5 96q0 50 -4 93.5t-17 76t-36 51.5t-61 19q-31 0 -51.5 -16.5z" />
    <glyph glyph-name="one" unicode="1" horiz-adv-x="385" 
d="M285 637v-637h-114v504q-31 -29 -64 -51.5t-62 -30.5l-45 82q24 10 48 20.5t48 25.5t49.5 35.5t54.5 51.5h85z" />
    <glyph glyph-name="two" unicode="2" horiz-adv-x="492" 
d="M39 586q20 9 45.5 19t54 18t58.5 13.5t60 5.5q35 0 67 -8.5t56.5 -28.5t39 -53.5t14.5 -82.5q0 -65 -43 -129.5t-119 -147.5l-92 -101h271v-91h-416l1 94q8 9 27.5 29.5t41 43t41 42.5t27.5 29q39 45 65.5 77.5t42.5 58.5t22.5 48.5t6.5 48.5q0 38 -21.5 61t-55.5 23
q-39 0 -73.5 -14t-81.5 -34z" />
    <glyph glyph-name="three" unicode="3" 
d="M380 603.5q45 -38.5 45 -100.5q0 -29 -10 -51.5t-25.5 -39t-33.5 -27.5t-33 -18q63 -19 97 -66.5t34 -102.5q0 -38 -11.5 -74.5t-38.5 -65.5t-71.5 -46.5t-110.5 -17.5q-45 0 -93 15.5t-94 36.5l34 83q45 -20 80 -34t70 -14q23 0 44.5 7t38 21t26.5 36t10 51
q0 46 -27 74.5t-63 28.5q-17 0 -33.5 -1.5t-30 -4t-22.5 -4.5t-11 -2l-31 78q36 12 69.5 23.5t59.5 25t41.5 32.5t15.5 46q0 31 -20 47t-55 16q-19 0 -35 -2.5t-32.5 -8t-35 -12.5t-41.5 -16l-39 77q25 11 47.5 20t46 15.5t49 10t56.5 3.5q88 0 133 -38.5z" />
    <glyph glyph-name="four" unicode="4" horiz-adv-x="525" 
d="M300 176h-280v64l182 397h117l-175 -375h156v204l113 20v-224h97l-16 -86h-81v-176h-113v176z" />
    <glyph glyph-name="five" unicode="5" horiz-adv-x="509" 
d="M65 322l34 315h328l-16 -91h-212l-21 -161q8 5 31 12t70 7q42 0 75.5 -15.5t57 -42.5t36 -63t12.5 -77q0 -39 -11 -77.5t-36 -68.5t-64.5 -48.5t-96.5 -18.5q-53 0 -104.5 15t-102.5 38l34 83q46 -20 80.5 -34t70.5 -14q58 0 82.5 31.5t24.5 94.5q0 53 -27.5 80.5
t-72.5 27.5q-30 0 -52 -4t-37.5 -9t-24 -9.5t-11.5 -5.5z" />
    <glyph glyph-name="six" unicode="6" horiz-adv-x="524" 
d="M412 534q-22 8 -48 13t-52 5q-44 0 -71.5 -16t-43.5 -44t-22.5 -64.5t-7.5 -78.5q8 10 20.5 21t29 20.5t37.5 16t47 6.5q88 0 138 -54.5t50 -153.5q0 -45 -14.5 -83.5t-42.5 -67t-69 -44.5t-95 -16q-63 0 -105.5 24t-68.5 67t-37.5 102.5t-11.5 130.5q0 64 15 122.5
t47.5 102.5t84 70.5t124.5 26.5q37 0 69 -8t58 -19zM240 321q-19 -6 -34 -14.5t-25.5 -16t-13.5 -10.5q4 -103 28.5 -152t81.5 -49q51 0 73.5 34.5t22.5 90.5q0 52 -20.5 87.5t-73.5 35.5q-20 0 -39 -6z" />
    <glyph glyph-name="seven" unicode="7" horiz-adv-x="458" 
d="M422 565l-201 -565h-123l194 546h-271l-16 91h417v-72z" />
    <glyph glyph-name="eight" unicode="8" horiz-adv-x="524" 
d="M261 -6q-43 0 -81.5 10t-67 30.5t-45.5 51.5t-17 73q0 30 10.5 55t28 45.5t39.5 37.5t45 31q-45 26 -75.5 66t-30.5 94q0 31 15 59t42 49t63.5 33.5t78.5 12.5q39 0 73.5 -11.5t59.5 -31.5t39.5 -47.5t14.5 -59.5q0 -26 -8.5 -48.5t-23 -42t-33 -36t-38.5 -30.5
q24 -13 46 -31t39.5 -40t28 -47t10.5 -52q0 -39 -16.5 -70.5t-45 -54t-67.5 -34.5t-84 -12zM169 163q0 -37 26 -63.5t74 -26.5q37 0 60 26.5t23 61.5q0 19 -8.5 37t-21 34t-28 30t-30.5 25q-19 -11 -36.5 -23.5t-30.5 -27.5t-20.5 -33t-7.5 -40zM334 491q0 31 -19 51.5
t-53 20.5q-35 0 -56 -18t-21 -52q0 -21 7 -38.5t18 -32t24.5 -25t27.5 -18.5q29 16 50.5 41t21.5 71z" />
    <glyph glyph-name="nine" unicode="9" horiz-adv-x="523" 
d="M112 100q23 -8 49 -13t52 -5q43 0 70.5 16t43.5 43.5t22.5 64t7.5 77.5q-8 -10 -20.5 -21t-29 -20t-37.5 -15t-47 -6q-88 0 -138 54.5t-50 153.5q0 45 14.5 83.5t42.5 67t69.5 44.5t95.5 16q63 0 105.5 -24t68.5 -67t37 -102.5t11 -130.5q0 -64 -15 -122.5t-47.5 -102.5
t-83.5 -70.5t-124 -26.5q-37 0 -69.5 8t-58.5 19zM284 313q19 6 34 14t25.5 15.5t13.5 9.5q-3 104 -28 153.5t-81 49.5q-51 0 -74 -35t-23 -90q0 -26 5 -48.5t16 -39t29 -26t44 -9.5q20 0 39 6z" />
    <glyph glyph-name="colon" unicode=":" horiz-adv-x="289" 
d="M220 119q19 -21 19 -54q0 -32 -19 -54t-57 -22q-35 0 -53.5 22t-18.5 52q0 32 19 54.5t56 22.5q35 0 54 -21zM220 489q19 -21 19 -54q0 -32 -19 -54t-57 -22q-35 0 -53.5 22t-18.5 51q0 33 19 55.5t56 22.5q35 0 54 -21z" />
    <glyph glyph-name="semicolon" unicode=";" horiz-adv-x="289" 
d="M219.5 489q18.5 -21 18.5 -54q0 -32 -19 -54t-56 -22q-35 0 -54 22t-19 51q0 33 19 55.5t57 22.5q35 0 53.5 -21zM122.5 132.5q14.5 8.5 49.5 8.5t51.5 -21t16.5 -53q0 -41 -11.5 -74t-31 -60t-44 -47t-51.5 -33l-42 58q39 29 52.5 58t13.5 56q0 29 -9 54t-10 44
q1 1 15.5 9.5z" />
    <glyph glyph-name="less" unicode="&#x3c;" horiz-adv-x="455" 
d="M375 90l-345 169v82l339 165l40 -93l-194 -87q-15 -8 -31.5 -14.5t-29.5 -11.5q13 -5 29.5 -11.5t32.5 -14.5l199 -91z" />
    <glyph glyph-name="equal" unicode="=" horiz-adv-x="503" 
d="M70 436h363v-88h-363v88zM70 261h363v-88h-363v88z" />
    <glyph glyph-name="greater" unicode="&#x3e;" horiz-adv-x="455" 
d="M40 183l199 91q15 7 31.5 14t30.5 12q-14 5 -30 11.5t-31 14.5l-194 87l40 93l339 -165v-82l-345 -169z" />
    <glyph glyph-name="question" unicode="?" horiz-adv-x="433" 
d="M358 652q51 -35 51 -115q0 -29 -9 -55.5t-23.5 -51t-33 -48t-36.5 -45.5q-28 -35 -50.5 -69t-33.5 -71l-84 23q0 52 22 95t49 79t49 67.5t22 61.5q0 37 -21 57t-56 20q-16 0 -29.5 -3t-27.5 -8t-30 -13t-38 -18l-39 79q41 19 84.5 34.5t94.5 15.5q88 0 139 -35zM241 119
q19 -21 19 -54q0 -32 -19 -54t-57 -22q-35 0 -53.5 22t-18.5 52q0 32 19 54.5t56 22.5q35 0 54 -21z" />
    <glyph glyph-name="at" unicode="@" horiz-adv-x="894" 
d="M626 217q0 -29 1.5 -55t6.5 -45.5t15.5 -31.5t27.5 -12q24 0 40 24t25.5 56.5t13.5 65.5t4 50q0 69 -23 119.5t-61.5 84t-89 49.5t-106.5 16q-63 0 -124 -21.5t-109 -64t-77.5 -105t-29.5 -144.5q0 -54 12 -105.5t42 -92t82.5 -65t133.5 -24.5q30 0 60 5.5t54.5 12.5
t40 13t17.5 7l27 -69q-1 -1 -18 -8.5t-44.5 -16t-63 -15.5t-72.5 -7q-67 0 -131 17t-114 58.5t-80.5 111t-30.5 174.5q0 102 38 179.5t99.5 130t140 79.5t158.5 27q69 0 133 -20.5t112.5 -62.5t78 -105.5t29.5 -149.5q0 -34 -9.5 -82.5t-30.5 -93t-54 -76t-81 -31.5
q-56 0 -85.5 32.5t-42.5 82.5q-14 -57 -48 -86t-94 -29q-85 0 -125 61t-40 163q0 51 15.5 94.5t44 75t68 49.5t87.5 18q27 0 58 -4t57 -9q31 -6 62 -13v-212zM456 83q19 14 33.5 37.5t22.5 53.5t8 63v134q-8 2 -27 6t-33 4q-30 0 -51.5 -11.5t-35.5 -32t-20.5 -48.5
t-6.5 -62q0 -32 2.5 -60.5t10 -50t21.5 -34.5t36 -13q21 0 40 14z" />
    <glyph glyph-name="A" unicode="A" horiz-adv-x="605" 
d="M255 677h94l261 -677h-127l-62 177h-244l-64 -177h-118zM390 265q-32 90 -55 163.5t-35 115.5q-14 -45 -37 -118t-54 -161h181z" />
    <glyph glyph-name="B" unicode="B" horiz-adv-x="565" 
d="M70 677q7 0 32 0.5t56 0.5t62 0.5t51 0.5q116 0 176.5 -46t60.5 -130q0 -49 -27 -88t-75 -63q60 -23 91.5 -65t31.5 -97q0 -86 -65 -138.5t-197 -52.5h-58t-59 0.5t-49.5 0.5h-30.5v677zM189 85h86q68 0 97.5 30.5t29.5 76.5q0 21 -6.5 41t-22.5 36t-42.5 25.5t-66.5 9.5
h-42.5t-32.5 -1v-218zM189 389h77q63 0 90 29t27 71q0 19 -6 38t-20.5 34t-39 24t-61.5 9h-38.5t-28.5 -1v-204z" />
    <glyph glyph-name="C" unicode="C" horiz-adv-x="523" 
d="M442 541q-24 26 -50.5 39.5t-61.5 13.5q-43 0 -72.5 -19.5t-47.5 -54t-26 -80.5t-8 -99t7.5 -99t26 -81t50 -55t79.5 -20q23 0 44 4t38.5 8.5t29 8.5t14.5 5l28 -84l-13 -5q-13 -5 -36.5 -11.5t-56 -12t-71.5 -5.5q-134 0 -201.5 85.5t-67.5 250.5q0 79 18 144.5
t54.5 112.5t92 73t130.5 26q60 0 98.5 -22t62.5 -50z" />
    <glyph glyph-name="D" unicode="D" horiz-adv-x="643" 
d="M70 677q7 0 30 0.5t52 0.5t60 0.5t54 0.5q170 0 252 -84.5t82 -251.5t-84 -256t-263 -89q-31 0 -60.5 0.5t-54 0.5t-42.5 0.5t-26 0.5v677zM213.5 589.5q-15.5 -0.5 -24.5 -0.5v-501q11 -1 28.5 -1h50.5q105 0 154 61.5t49 183.5q0 58 -11.5 105.5t-38 81.5t-68 52.5
t-101.5 18.5q-23 0 -38.5 -0.5z" />
    <glyph glyph-name="E" unicode="E" horiz-adv-x="513" 
d="M70 677h402v-90h-283v-189h233l-15 -91h-218v-217h298v-90h-417v677z" />
    <glyph glyph-name="F" unicode="F" horiz-adv-x="488" 
d="M70 677h402v-90h-283v-195h233l-15 -90h-218v-302h-119v677z" />
    <glyph glyph-name="G" unicode="G" horiz-adv-x="605" 
d="M331 -144q45 22 69 48.5t35.5 54t13 55t1.5 51.5v14q-23 -42 -67 -64.5t-102 -22.5q-63 0 -108 24t-74 68.5t-42.5 106.5t-13.5 138q0 78 18 143.5t54.5 113t92 74t131.5 26.5q67 0 112.5 -22t71.5 -49l-58 -76q-26 26 -63.5 40.5t-76.5 14.5q-43 0 -72 -20t-47 -54.5
t-26 -81t-8 -99.5q0 -57 7.5 -103.5t23 -80t40.5 -52t61 -18.5q23 0 47 10.5t43.5 30t31.5 47.5t12 64v91h117v-301q0 -61 -16.5 -102t-42 -68.5t-57 -46t-62.5 -33.5z" />
    <glyph glyph-name="H" unicode="H" horiz-adv-x="657" 
d="M468 308h-279v-308h-119v677h119v-282h279v282h119v-677h-119v308z" />
    <glyph glyph-name="I" unicode="I" horiz-adv-x="259" 
d="M70 677h119v-677h-119v677z" />
    <glyph glyph-name="J" unicode="J" horiz-adv-x="259" 
d="M189 25q0 -60 -16.5 -100.5t-42 -68.5t-57 -46t-61.5 -33l-47 79q39 19 60.5 40.5t31.5 42t11.5 39.5t1.5 35v664h119v-652z" />
    <glyph glyph-name="K" unicode="K" horiz-adv-x="591" 
d="M70 677h119v-677h-119v677zM503.5 549.5q-19.5 -52.5 -42.5 -89t-50.5 -62t-58.5 -46.5l246 -352h-138l-258 366v7q92 34 142.5 111.5t77.5 192.5h117q-16 -75 -35.5 -127.5z" />
    <glyph glyph-name="L" unicode="L" horiz-adv-x="442" 
d="M70 677h119v-587h253v-90h-372v677z" />
    <glyph glyph-name="M" unicode="M" horiz-adv-x="811" 
d="M450 0h-84l-113 257q-5 11 -12.5 30t-16.5 42t-19 48.5t-19 51.5q0 -26 -0.5 -51.5t-1.5 -48t-1.5 -40t-0.5 -27.5l-10 -262h-112l40 679h93l171 -424q9 -23 20.5 -50t21.5 -53q10 26 21 52.5t21 50.5l172 424h91l40 -679h-111l-11 259q-1 25 -2.5 71.5t-2.5 94.5
q-9 -25 -18.5 -50t-17.5 -47t-15 -40t-11 -28z" />
    <glyph glyph-name="N" unicode="N" horiz-adv-x="659" 
d="M470 677h119v-678h-99l-228 356q-19 29 -41.5 65.5t-42.5 67.5q3 -32 5.5 -67t2.5 -67l3 -354h-119v679h93l235 -352q20 -29 40.5 -61.5t40.5 -62.5q-2 32 -4 64.5t-2 55.5z" />
    <glyph glyph-name="O" unicode="O" horiz-adv-x="668" 
d="M469 662q53 -24 87.5 -68t50.5 -107.5t16 -142.5q0 -78 -17.5 -142.5t-54 -110.5t-92 -71.5t-131.5 -25.5q-75 0 -128.5 22.5t-88 66t-50.5 105.5t-16 142q0 78 17.5 143.5t54 113t92.5 73.5t132 26q75 0 128 -24zM254 574.5q-29 -19.5 -47 -53.5t-25.5 -80t-7.5 -100
q0 -51 7 -97t25.5 -81t51 -56t84.5 -21q43 0 72.5 19t47.5 52t25.5 78.5t7.5 98.5q0 51 -7 98t-25.5 83t-51 57.5t-84.5 21.5q-44 0 -73 -19.5z" />
    <glyph glyph-name="P" unicode="P" horiz-adv-x="535" 
d="M70 677q7 0 32 0.5t56 0.5t62 0.5t51 0.5q122 0 180 -54.5t58 -149.5q0 -46 -16 -84.5t-47.5 -66.5t-78 -43.5t-108.5 -15.5h-70v-265h-119v677zM189 354h77q63 0 90 33t27 84q0 23 -6 45t-20.5 39.5t-39 28t-61.5 10.5h-38.5t-28.5 -1v-239z" />
    <glyph glyph-name="Q" unicode="Q" horiz-adv-x="672" 
d="M656 -148q-42 -28 -91 -47t-105 -19q-65 0 -136.5 34.5t-134.5 104.5l22 66q12 -2 23.5 -3.5t22.5 -1.5q50 0 94 23t76.5 67t51.5 108.5t19 147.5q0 51 -7 98t-25.5 83.5t-51 58.5t-84.5 22q-44 0 -74.5 -20.5t-50 -55t-28.5 -79.5t-9 -95q0 -92 22.5 -144.5t87.5 -67.5
l-13 -85q-60 4 -102.5 31t-69 68t-38.5 90.5t-12 98.5q0 76 18.5 140t56 111t94 73.5t132.5 26.5q75 0 128.5 -24t87.5 -68.5t50 -108t16 -142.5q0 -93 -23 -167.5t-61.5 -128.5t-89.5 -87t-107 -43q23 -17 48 -24.5t51 -7.5q36 0 78 13t93 38z" />
    <glyph glyph-name="R" unicode="R" horiz-adv-x="574" 
d="M70 677q7 0 32 0.5t56 0.5t62 0.5t51 0.5q124 0 181 -48.5t57 -136.5q0 -58 -29 -103t-95 -65q28 -16 50 -44t43 -68.5t43 -94t51 -119.5h-129q-34 79 -59.5 135t-49.5 91t-51.5 51t-64.5 16h-29v-293h-119v677zM189 380h77q56 0 86.5 25t30.5 74q0 22 -6 43t-20.5 37
t-39 25.5t-61.5 9.5h-67v-214z" />
    <glyph glyph-name="S" unicode="S" horiz-adv-x="507" 
d="M265 686q35 0 67 -6.5t58.5 -15t45 -17.5t25.5 -14l-49 -86l-13 7q-13 7 -34 16t-46 16t-48 7q-36 0 -62.5 -17t-26.5 -53q0 -45 29 -73.5t91 -52.5q40 -16 71.5 -33.5t53.5 -40.5t33.5 -53t11.5 -72q0 -38 -14.5 -75t-43 -65.5t-70.5 -46t-97 -17.5q-39 0 -74 8
t-63.5 18.5t-49 21.5t-30.5 17l42 92l18 -10q18 -10 44 -22t55 -22t50 -10q53 0 79 26t26 73q0 22 -7 38.5t-20 28.5t-31.5 21.5t-41.5 18.5q-45 19 -80.5 38t-60.5 43.5t-38 56t-13 75.5q0 37 16 69.5t44 57t67 39t86 14.5z" />
    <glyph glyph-name="T" unicode="T" horiz-adv-x="493" 
d="M482 677l-15 -90h-168v-587h-118v587h-171v90h472z" />
    <glyph glyph-name="U" unicode="U" horiz-adv-x="635" 
d="M178 677v-419q0 -93 39 -132.5t106 -39.5q68 0 100.5 45.5t32.5 126.5v419h119v-428q0 -52 -13.5 -98t-44.5 -81t-82 -55.5t-125 -20.5q-71 0 -118.5 20.5t-77 55.5t-42 81t-12.5 98v428h118z" />
    <glyph glyph-name="V" unicode="V" horiz-adv-x="582" 
d="M338 0h-93l-253 677h127l84 -242q32 -94 55 -165.5t35 -109.5q11 38 33.5 107.5t56.5 165.5l87 244h121z" />
    <glyph glyph-name="W" unicode="W" horiz-adv-x="869" 
d="M461 411q-15 41 -24 80q-5 -19 -9.5 -38t-11.5 -42l-130 -411h-88l-188 677h119l88 -339q23 -88 33 -142q7 28 16.5 62t23.5 78l106 341h89l106 -341q14 -45 24 -82t16 -65q4 28 11.5 65t19.5 82l88 341h121l-188 -677h-88z" />
    <glyph glyph-name="X" unicode="X" horiz-adv-x="582" 
d="M0 0l210 355l-190 322h135l95 -171q8 -14 19 -35.5t22 -44.5q11 23 22.5 44t19.5 35l96 172h134l-191 -323l210 -354h-136l-112 200q-8 14 -20 36.5t-23 45.5l-42 -82l-112 -200h-137z" />
    <glyph glyph-name="Y" unicode="Y" horiz-adv-x="542" 
d="M210 259l-210 418h129l142 -307l145 307h126l-213 -423v-254h-119v259z" />
    <glyph glyph-name="Z" unicode="Z" horiz-adv-x="528" 
d="M40 0v71l294 516q-20 -2 -41 -2.5t-45 -0.5h-191l-16 93h440v-71l-288 -515q17 1 35 1.5t39 0.5h226v-93h-453z" />
    <glyph glyph-name="bracketleft" unicode="[" horiz-adv-x="369" 
d="M308 720v-88h-119v-730h119v-88h-228v906h228z" />
    <glyph glyph-name="backslash" unicode="\" horiz-adv-x="417" 
d="M427 -126h-119l-318 855h119z" />
    <glyph glyph-name="bracketright" unicode="]" horiz-adv-x="369" 
d="M289 -186h-228v88h119v730h-119v88h228v-906z" />
    <glyph glyph-name="asciicircum" unicode="^" horiz-adv-x="541" 
d="M384 303l-88 193l-25 61q-5 -14 -12 -30t-14 -31l-92 -200l-103 19l179 362h83l179 -362z" />
    <glyph glyph-name="underscore" unicode="_" 
d="M0 -80h500v-83h-500v83z" />
    <glyph glyph-name="grave" unicode="`" 
d="M265 538q-34 22 -69 48q-30 23 -65 54t-64 68l76 71l170 -189z" />
    <glyph glyph-name="a" unicode="a" horiz-adv-x="536" 
d="M467 241q0 -60 7.5 -100.5t16.5 -65.5q11 -30 24 -47l-89 -36q-13 13 -24 31q-9 16 -17 38.5t-10 53.5q-17 -60 -54.5 -90.5t-101.5 -30.5q-47 0 -81.5 17.5t-57.5 50t-34 78.5t-11 102q0 57 17.5 105.5t49 83.5t75.5 55t97 20q30 0 62.5 -4.5t60.5 -9.5t47.5 -9.5
t22.5 -5.5v-236zM284 91q21 17 36.5 44.5t24 63t8.5 72.5v144q-10 3 -30 7t-36 4q-38 0 -62.5 -13t-39.5 -36t-21 -55t-6 -70q0 -35 2 -67t10.5 -57t24.5 -39.5t43 -14.5q25 0 46 17z" />
    <glyph glyph-name="b" unicode="b" horiz-adv-x="532" 
d="M65 705l114 20v-305q18 41 50.5 63.5t83.5 22.5q47 0 81.5 -17.5t57.5 -50t34 -78.5t11 -102q0 -57 -17.5 -105.5t-49 -83.5t-75.5 -55t-97 -20q-30 0 -64 4.5t-63 9.5q-33 6 -66 15v682zM248 409q-21 -17 -36.5 -45t-24 -63t-8.5 -72v-145q9 -2 29 -6t37 -4q37 0 62 13
t40 36t21 55t6 70q0 35 -2 67t-10.5 57t-24.5 39.5t-43 14.5q-25 0 -46 -17z" />
    <glyph glyph-name="c" unicode="c" horiz-adv-x="410" 
d="M335 381q-15 17 -30.5 29t-41.5 12q-15 0 -33.5 -4.5t-34.5 -22t-26.5 -51.5t-10.5 -92q0 -59 10.5 -93.5t27 -53.5t35.5 -24.5t37 -5.5q14 0 29 2.5t29 6t24.5 6.5t15.5 5l28 -72q-3 -1 -13.5 -6t-28.5 -10t-43 -9.5t-56 -4.5q-58 0 -99 17.5t-67.5 49.5t-39 77
t-12.5 100q0 66 17.5 117t48.5 85.5t73 52.5t90 18q47 0 79.5 -18t55.5 -50z" />
    <glyph glyph-name="d" unicode="d" horiz-adv-x="536" 
d="M426 -8q-2 1 -9 9.5t-15.5 23.5t-16.5 37.5t-10 52.5q-17 -60 -54.5 -90.5t-101.5 -30.5q-47 0 -81.5 17.5t-57.5 50t-34 78.5t-11 102q0 57 17.5 105.5t49 83.5t75.5 55t97 20q18 0 38.5 -2t40.5 -5v226l114 -20v-464q0 -60 7 -99.5t16 -64t16.5 -35.5t8.5 -14zM284 92
q21 17 36.5 44.5t24 62.5t8.5 72v144q-10 3 -30 7t-36 4q-38 0 -62.5 -13t-39.5 -36t-21 -55t-6 -70q0 -35 2 -67t10.5 -56.5t24.5 -39t43 -14.5q25 0 46 17z" />
    <glyph glyph-name="e" unicode="e" horiz-adv-x="473" 
d="M53.5 355q18.5 51 51 85.5t76.5 52t95 17.5q45 0 76.5 -11t51.5 -30t29.5 -45t9.5 -56q0 -36 -20 -68.5t-57.5 -57t-90.5 -39t-119 -15.5q3 -23 9.5 -43.5t19 -36t32.5 -24.5t50 -9q22 0 47 5t46 12q25 8 49 18l30 -71q-26 -13 -56 -23q-26 -9 -60 -16t-72 -7
q-58 0 -99 17.5t-67 49.5t-38 77t-12 100q0 67 18.5 118zM212.5 416.5q-21.5 -15.5 -34.5 -40t-18.5 -55t-6.5 -61.5q48 2 81.5 12.5t54.5 26t30.5 33.5t9.5 36q0 29 -17 46.5t-45 17.5q-33 0 -54.5 -15.5z" />
    <glyph glyph-name="f" unicode="f" horiz-adv-x="352" 
d="M328 615q-3 3 -18.5 11t-29.5 8q-9 0 -22 -2.5t-25 -11t-20.5 -24.5t-8.5 -42q0 -11 1.5 -25t6.5 -31h124l-14 -81h-104v-392q0 -60 -15.5 -100.5t-40.5 -68t-55.5 -46t-60.5 -33.5l-46 76q37 19 58 40.5t31.5 43t12.5 41.5t2 36v403h-90v81h87q-4 15 -5.5 31t-1.5 30
q0 40 14.5 71t39 51t57 30.5t67.5 10.5q39 0 64 -12.5t41 -29.5z" />
    <glyph glyph-name="g" unicode="g" horiz-adv-x="531" 
d="M140 -88q15 -6 32 -12.5t36 -12.5t38.5 -10t38.5 -4q56 0 81 33.5t25 86.5q0 52 -22 105q-17 -51 -53.5 -77.5t-96.5 -26.5q-47 0 -81.5 17.5t-57.5 50t-34 78.5t-11 102q0 57 17.5 105.5t49 83.5t75.5 55t97 20q24 0 51.5 -3t54 -7.5t50 -9.5t40.5 -9l-5 -275
q-1 -30 3.5 -55t10.5 -49.5t11 -49.5t5 -55q0 -106 -54 -158t-146 -52q-30 0 -60 5.5t-55.5 12.5t-43.5 14t-24 10zM282.5 90q20.5 16 36.5 42.5t25 60.5t9 70v152q-10 3 -30 7t-36 4q-38 0 -62.5 -13t-39.5 -36t-21 -55t-6 -70q0 -35 2 -67t10.5 -57t24.5 -39.5t43 -14.5
q24 0 44.5 16z" />
    <glyph glyph-name="h" unicode="h" horiz-adv-x="540" 
d="M179 434q29 38 69.5 55t85.5 17q77 0 111.5 -46.5t34.5 -125.5v-334h-114v326q0 42 -15 66.5t-51 24.5q-21 0 -42.5 -11t-39 -31.5t-28.5 -48.5t-11 -62v-264h-114v705l114 20v-291z" />
    <glyph glyph-name="i" unicode="i" horiz-adv-x="256" 
d="M89 27.5q-28 31.5 -28 81.5v389h114v-379q0 -23 7 -31t21 -8h8.5t8.5 1q4 0 9 1l12 -72q-7 -4 -18 -7q-9 -3 -22.5 -5t-30.5 -2q-53 0 -81 31.5zM169 701q17 -19 17 -49t-17.5 -50t-51.5 -20q-32 0 -49.5 19.5t-17.5 47.5q0 31 17.5 51t52.5 20q32 0 49 -19z" />
    <glyph glyph-name="j" unicode="j" horiz-adv-x="244" 
d="M65 498h114v-474q0 -60 -16 -100t-40.5 -67.5t-55 -46t-60.5 -33.5l-46 76q37 19 58 40.5t31 43t12.5 41.5t2.5 35v485zM172.5 701q17.5 -19 17.5 -49t-17.5 -50t-52.5 -20q-32 0 -49 19.5t-17 47.5q0 31 17.5 51t51.5 20q32 0 49.5 -19z" />
    <glyph glyph-name="k" unicode="k" horiz-adv-x="520" 
d="M179 725v-285q8 10 20.5 21.5t31.5 21.5t44 17t58 7q31 0 58 -9t46.5 -26t31 -41.5t11.5 -55.5q0 -45 -18.5 -74t-41.5 -46q-26 -20 -60 -32l140 -223h-129l-144 249l-1 10q8 2 30.5 9t46.5 20t42.5 32.5t18.5 46.5q0 29 -17 44t-45 15q-38 0 -62 -15t-37.5 -34
t-18.5 -36t-5 -20v-321h-114v705z" />
    <glyph glyph-name="l" unicode="l" horiz-adv-x="291" 
d="M87 27.5q-27 31.5 -27 80.5v597l114 21v-607q0 -23 9 -32t26 -9q10 0 19.5 1t17.5 3q9 2 16 4l14 -72q-13 -5 -29 -9q-14 -4 -33 -6.5t-43 -2.5q-57 0 -84 31.5z" />
    <glyph glyph-name="m" unicode="m" horiz-adv-x="809" 
d="M636 0v326q0 42 -13 66.5t-45 24.5q-19 0 -38.5 -10.5t-35.5 -30.5t-26 -48t-10 -62v-266h-113v326q0 42 -13 66.5t-45 24.5q-20 0 -39.5 -11.5t-35 -33.5t-25 -53.5t-9.5 -70.5v-248h-114v252q0 60 -8 100.5t-17 65.5q-11 29 -24 47l90 36q10 -11 20 -27q8 -14 16 -34.5
t13 -46.5q25 60 70.5 86.5t96.5 26.5t79.5 -26t42.5 -67q27 50 69.5 71.5t89.5 21.5q39 0 65.5 -12.5t42 -35t22.5 -54t7 -70.5v-334h-113z" />
    <glyph glyph-name="n" unicode="n" horiz-adv-x="549" 
d="M375 0v323q0 42 -15 67.5t-51 25.5q-23 0 -44.5 -11.5t-38.5 -33.5t-27.5 -53.5t-10.5 -70.5v-247h-114v252q0 60 -8 100.5t-17 65.5q-11 29 -24 47l90 36q10 -11 20 -27q8 -14 16 -34.5t13 -46.5q26 60 75 86.5t103 26.5q77 0 111.5 -46.5t34.5 -125.5v-334h-113z" />
    <glyph glyph-name="o" unicode="o" horiz-adv-x="517" 
d="M430 442q52 -68 52 -187q0 -56 -14 -104.5t-42.5 -84t-71.5 -56t-100 -20.5t-98.5 17.5t-68.5 50.5t-39.5 80t-12.5 106q0 57 14 105.5t42.5 84t71.5 56t100 20.5q115 0 167 -68zM205.5 413q-18.5 -13 -29 -36.5t-14.5 -55t-4 -67.5q0 -37 4.5 -70t16.5 -57.5t32.5 -38.5
t52.5 -14q29 0 47.5 13t29 36.5t14.5 54.5t4 67q0 37 -4.5 70t-16.5 58t-32.5 39t-52.5 14q-29 0 -47.5 -13z" />
    <glyph glyph-name="p" unicode="p" horiz-adv-x="541" 
d="M74 -221v473q0 60 -8 100.5t-17 65.5q-11 29 -24 47l90 36q12 -12 22 -30q8 -15 16 -36.5t12 -50.5q17 60 54 91t103 31q47 0 81.5 -17.5t57 -50t33.5 -78.5t11 -102q0 -57 -17 -105.5t-48.5 -83.5t-75.5 -55t-98 -20q-19 0 -38.5 2t-39.5 4v-201zM257 409
q-21 -17 -36.5 -45t-24 -63t-8.5 -72v-144q10 -3 30 -7t35 -4q38 0 63 13t40 36t21 55t6 70q0 35 -2 67t-10.5 57t-24.5 39.5t-43 14.5q-25 0 -46 -17z" />
    <glyph glyph-name="q" unicode="q" horiz-adv-x="532" 
d="M467 -222l-114 21v263q-20 -34 -53 -51t-81 -17q-47 0 -81.5 17.5t-57.5 50t-34 78.5t-11 102q0 57 17.5 105.5t49 83.5t75.5 55t97 20q30 0 63.5 -5t62.5 -10q33 -6 67 -14v-699zM283 91.5q21 16.5 36.5 44t24.5 63t9 72.5v144q-10 3 -30 7t-36 4q-38 0 -62.5 -13
t-39.5 -36t-21 -55t-6 -70q0 -35 2 -67t10.5 -56.5t24.5 -39t43 -14.5q24 0 45 16.5z" />
    <glyph glyph-name="r" unicode="r" horiz-adv-x="369" 
d="M252 385q-18 -9 -32 -24.5t-23 -37.5t-9 -49v-274h-114v252q0 60 -8 100.5t-17 65.5q-11 29 -24 47l90 36q9 -11 19 -27q8 -14 16 -33t13 -45q20 58 58 83.5t86 25.5q23 0 43 -5.5t19 -5.5l-32 -111q1 0 -11.5 5.5t-37.5 5.5q-18 0 -36 -9z" />
    <glyph glyph-name="s" unicode="s" horiz-adv-x="412" 
d="M212 510q29 0 57 -6t50 -14q26 -9 48 -19l-34 -78q-20 9 -40 16q-17 6 -37.5 11.5t-40.5 5.5q-23 0 -39.5 -11t-16.5 -33q0 -57 83 -89q31 -12 56 -25.5t42.5 -31.5t26.5 -41.5t9 -55.5q0 -28 -11.5 -55t-34 -48t-55 -33.5t-73.5 -12.5q-33 0 -65 7.5t-57.5 16.5
t-40.5 17l-15 7l37 84l13 -7q13 -8 33 -17t43 -16.5t42 -7.5q35 0 52 14t17 37q0 26 -18.5 47.5t-55.5 35.5q-77 29 -110.5 66t-33.5 96q0 28 13 53.5t35.5 45t53.5 30.5t67 11z" />
    <glyph glyph-name="t" unicode="t" horiz-adv-x="361" 
d="M10 498h90l20 117l94 21v-138h123l-14 -81h-109v-296q0 -26 14 -33.5t31 -7.5q14 0 28 2t25 5q13 3 25 7l19 -75l-9 -3q-9 -4 -26.5 -8.5t-41 -8t-51.5 -3.5t-51.5 6t-40.5 19.5t-26.5 34.5t-9.5 52v309h-90v81z" />
    <glyph glyph-name="u" unicode="u" horiz-adv-x="549" 
d="M361 498h114v-257q0 -60 7.5 -100.5t16.5 -65.5q11 -30 24 -47l-89 -36q-12 11 -22 28q-8 14 -16.5 34.5t-11.5 48.5q-27 -59 -76 -84t-102 -25q-79 0 -112.5 46t-33.5 126v332h114v-330q0 -42 15 -66t51 -24q22 0 43.5 12.5t39 35.5t28 55.5t10.5 72.5v244z" />
    <glyph glyph-name="v" unicode="v" horiz-adv-x="524" 
d="M469 498l2 -8q1 -9 3 -23.5t3.5 -33t1.5 -37.5q0 -111 -16.5 -187.5t-50 -124t-85 -68.5t-121.5 -21q-79 0 -112.5 45.5t-33.5 125.5v332h114v-329q0 -42 15 -68t51 -26t60 27t38 70.5t20 99t6 112.5q0 21 -1.5 41.5t-4 36.5t-3.5 26l-2 10h116z" />
    <glyph glyph-name="w" unicode="w" horiz-adv-x="771" 
d="M716 498l2 -8q1 -9 3 -23t3.5 -33t1.5 -38q0 -111 -12.5 -188t-41 -124.5t-75.5 -69t-116 -21.5q-97 0 -133 80q-18 -41 -49.5 -60.5t-92.5 -19.5q-78 0 -112 45t-34 125v335h114v-326q0 -42 15 -69.5t51 -27.5q46 0 71 45t25 149v229h113q-1 -75 -1 -139q0 -28 -0.5 -56
t-0.5 -53v-45.5v-32.5q0 -42 16 -69.5t52 -27.5q35 0 54.5 27t28.5 70.5t11 99t2 112.5q0 23 -1.5 43.5t-4 36.5t-3.5 25l-2 9h116z" />
    <glyph glyph-name="x" unicode="x" horiz-adv-x="480" 
d="M-5 0l167 264l-146 234h132l63 -103q6 -10 16 -31l20 -42q12 18 23.5 36t20.5 35q24 44 34.5 75t10.5 30h118q0 1 -12 -33t-42 -90q-17 -30 -39 -59.5t-43 -52.5l162 -263h-130l-74 129l-39 73l-39 -74l-75 -128h-128z" />
    <glyph glyph-name="y" unicode="y" horiz-adv-x="538" 
d="M472 202q0 -30 4.5 -55t10 -49.5t10.5 -49.5t5 -55q0 -106 -54 -158t-146 -52q-30 0 -60 5.5t-55.5 12.5t-43.5 14t-24 10l28 87q14 -6 31.5 -12.5t36 -12.5t38.5 -10t39 -4q56 0 81 33.5t25 86.5q0 48 -20 99q-28 -53 -74.5 -75.5t-97.5 -22.5q-79 0 -112.5 46
t-33.5 126v332h114v-329q0 -42 15 -66t51 -24q19 0 40.5 11t39 30.5t29 47t11.5 59.5v271h117z" />
    <glyph glyph-name="z" unicode="z" horiz-adv-x="418" 
d="M30 0v68l221 350q-51 -3 -101 -3h-98l-14 83h346v-68l-218 -350q45 3 90 3h137v-83h-363z" />
    <glyph glyph-name="braceleft" unicode="{" horiz-adv-x="364" 
d="M152.5 692.5q36.5 31.5 105.5 31.5q38 0 85 -12l-22 -84q-14 5 -24.5 7t-19.5 2q-14 0 -23 -4.5t-14.5 -11.5t-7.5 -14.5t-2 -13.5q0 -45 6.5 -89.5t6.5 -83.5q0 -22 -3 -42.5t-11.5 -40t-25 -38t-43.5 -34.5q27 -16 43.5 -34t25 -37.5t11.5 -40t3 -41.5
q0 -39 -6.5 -83.5t-6.5 -89.5q0 -6 2 -14t7.5 -14.5t14.5 -11t23 -4.5q9 0 19.5 2t24.5 7l22 -84q-47 -12 -85 -12q-69 0 -105.5 31.5t-36.5 83.5q0 54 7 106t7 97q0 39 -17.5 65t-52.5 34v82q35 8 52.5 34t17.5 65q0 45 -7 97t-7 106q0 52 36.5 83.5z" />
    <glyph glyph-name="bar" unicode="|" horiz-adv-x="309" 
d="M209 729v-855h-109v855h109z" />
    <glyph glyph-name="braceright" unicode="}" horiz-adv-x="364" 
d="M240 503q-7 -52 -7 -97q0 -39 17.5 -65t52.5 -34v-82q-35 -8 -52.5 -34t-17.5 -65q0 -45 7 -97t7 -106q0 -52 -36 -83.5t-105 -31.5q-38 0 -86 12l23 84q27 -9 44 -9q14 0 23 4.5t14.5 11t7.5 14.5t2 14q0 45 -6.5 89.5t-6.5 83.5q0 21 3 41.5t11.5 40t25 37.5t43.5 34
q-27 16 -43.5 34.5t-25 38t-11.5 40t-3 42.5q0 39 6.5 83.5t6.5 89.5q0 6 -2 13.5t-7.5 14.5t-14.5 11.5t-23 4.5q-17 0 -44 -9l-23 84q48 12 86 12q69 0 105 -31.5t36 -83.5q0 -54 -7 -106z" />
    <glyph glyph-name="asciitilde" unicode="~" horiz-adv-x="516" 
d="M224.5 380.5q21.5 -9.5 39.5 -20.5t36 -20.5t41 -9.5q15 0 26 2.5t20 8.5t17.5 14.5t19.5 20.5l42 -46q-13 -24 -31 -42q-16 -16 -39 -28.5t-55 -12.5q-29 0 -50 9.5t-39 20.5t-36.5 20.5t-41.5 9.5q-15 0 -25.5 -2.5t-19.5 -8.5t-17.5 -14.5t-19.5 -20.5l-42 47
q12 23 30 41q15 15 38.5 28t55.5 13q29 0 50.5 -9.5z" />
    <glyph glyph-name="uni00A0" unicode="&#xa0;" horiz-adv-x="255" 
 />
    <glyph glyph-name="exclamdown" unicode="&#xa1;" horiz-adv-x="319" 
d="M141 355q-37 0 -56 22.5t-19 54.5q0 30 18.5 52t53.5 22q38 0 57 -22t19 -54q0 -33 -19 -54t-54 -21zM92 275h98l29 -457h-127v457z" />
    <glyph glyph-name="cent" unicode="&#xa2;" horiz-adv-x="458" 
d="M242 -42v116q-99 9 -143 71.5t-44 164.5q0 58 14 103.5t39 77.5t59 51.5t75 25.5v86h78v-87q33 -6 59 -22.5t44 -41.5l-65 -62q-8 9 -17.5 17.5t-20.5 14.5v-315q12 2 24.5 5t22.5 6t16 5l6 1l28 -72l-7 -3q-7 -3 -19.5 -7.5t-30.5 -9t-40 -7.5v-118h-78zM180.5 256
q5.5 -28 15 -47t21.5 -30t25 -16v315q-13 -4 -25 -13t-21.5 -26.5t-15 -45t-5.5 -68.5t5.5 -69z" />
    <glyph glyph-name="sterling" unicode="&#xa3;" horiz-adv-x="563" 
d="M134 341l7 88q3 47 19.5 85t44.5 65t65.5 42t84.5 15q34 0 60.5 -5t45.5 -12t31.5 -15t19.5 -13l-48 -87l-7 6q-8 6 -21.5 13.5t-32 13.5t-41.5 6q-18 0 -35 -5t-30.5 -17t-23.5 -32.5t-13 -52.5l-10 -95h182l-14 -90h-178l-4 -39q-5 -45 -17 -74.5t-25 -49.5q37 6 74 6
q29 0 56.5 -3t56.5 -3q15 0 31.5 3t30.5 8q16 5 32 12l34 -84l-10 -5q-11 -5 -29 -11.5t-41 -11.5t-47 -5q-45 0 -80 6t-69 6q-29 0 -54 -1t-44 -3q-22 -2 -40 -4l-28 67q14 9 25 25q10 14 18.5 35t10.5 53l6 73h-67v90h74z" />
    <glyph glyph-name="currency" unicode="&#xa4;" horiz-adv-x="588" 
d="M83 361q12 36 35 65l-86 78l68 68l83 -92q24 13 51.5 20t59.5 7q63 0 112 -26l82 91l69 -68l-87 -78q23 -29 35 -65t12 -78t-12 -77.5t-35 -64.5l88 -78l-68 -68l-84 92q-25 -13 -53.5 -20t-60.5 -7q-62 0 -111 26l-83 -91l-68 68l86 77q-45 59 -45 143q0 42 12 78z
M166 228q10 -28 28 -48.5t43 -32.5t55 -12q31 0 57 11t44.5 30t28.5 45.5t10 58.5t-10 60t-28.5 48.5t-44.5 32.5t-57 12q-30 0 -55 -11t-43 -30t-28 -46t-10 -58q0 -32 10 -60z" />
    <glyph glyph-name="yen" unicode="&#xa5;" horiz-adv-x="592" 
d="M196 341l-166 296h129l136 -275l140 275h126l-168 -296h82v-88h-122v-62h122v-88h-122v-103h-119v103h-120v88h120v62h-120v88h82z" />
    <glyph glyph-name="brokenbar" unicode="&#xa6;" horiz-adv-x="309" 
d="M100 353v376h109v-376h-109zM100 -126v374h109v-374h-109z" />
    <glyph glyph-name="section" unicode="&#xa7;" horiz-adv-x="558" 
d="M362.5 211.5q-14.5 20.5 -37 40t-50 39.5t-54.5 42q-9 -3 -18.5 -9t-18 -15t-13.5 -21.5t-5 -29.5q0 -23 14 -43t36.5 -40t50 -40t54.5 -42q9 3 19 9t18.5 15t13.5 22t5 30q0 22 -14.5 42.5zM207.5 -212q-22.5 4 -39.5 9t-28 9.5t-12 5.5l35 78q2 -1 10.5 -4.5t20.5 -7.5
t27 -7t30 -3q57 0 57 53q0 27 -19 50t-47.5 44.5t-62 43.5t-61.5 49q-29 27 -48.5 60.5t-19.5 76.5q0 33 11 57.5t27.5 42.5t35.5 29.5t35 18.5q-18 23 -28.5 48t-10.5 54q0 31 12 58t34 47t53 31.5t70 11.5q50 0 83 -12t43 -16l-35 -78q-8 5 -32 13.5t-56 8.5
q-27 0 -42 -13t-15 -40q0 -24 14.5 -44t37 -38.5t50.5 -37.5t55 -40q20 -16 38.5 -33t32.5 -37.5t22 -43.5t8 -51q0 -33 -11 -57.5t-27.5 -42.5t-35.5 -29.5t-35 -18.5q17 -22 28 -47t11 -54q0 -31 -12 -58t-34 -47t-53 -31.5t-70 -11.5q-24 0 -46.5 4z" />
    <glyph glyph-name="dieresis" unicode="&#xa8;" 
d="M196 586.5q-16 -18.5 -48 -18.5q-29 0 -44.5 18t-15.5 44q0 28 16 46.5t47 18.5q29 0 45 -18t16 -45t-16 -45.5zM396 586.5q-16 -18.5 -48 -18.5q-29 0 -45 18t-16 44q0 28 16 46.5t48 18.5q29 0 45 -18t16 -45t-16 -45.5z" />
    <glyph glyph-name="copyright" unicode="&#xa9;" horiz-adv-x="782" 
d="M71 479.5q26 63.5 72.5 109.5t110.5 71.5t140 25.5t139 -25.5t108.5 -71.5t70.5 -109.5t25 -139.5t-26 -139.5t-72.5 -109.5t-111 -71.5t-140.5 -25.5t-139 25.5t-108 71.5t-70 109.5t-25 139.5t26 139.5zM149 237q19 -51 53.5 -88.5t82.5 -59.5t105 -22q58 0 106 20
t82.5 55t53.5 84t19 107t-19 109.5t-53.5 89t-82 59.5t-105.5 22q-57 0 -105 -20t-82.5 -55t-54 -84.5t-19.5 -107.5t19 -109zM464 453q-3 2 -17.5 10.5t-36.5 8.5q-20 0 -33 -10t-21 -27.5t-11.5 -40.5t-3.5 -50q0 -54 17.5 -91t56.5 -37q27 0 45.5 5.5t22.5 7.5l22 -66
q-1 -1 -9.5 -4t-22 -6.5t-31.5 -6.5t-39 -3q-78 0 -117 49.5t-39 145.5q0 46 10.5 84t31.5 65.5t53 42.5t76 15q37 0 59.5 -12.5t35.5 -26.5z" />
    <glyph glyph-name="ordfeminine" unicode="&#xaa;" horiz-adv-x="400" 
d="M337 505q0 -39 5 -67t11 -45q7 -20 17 -33l-66 -26q-8 6 -15 16q-6 8 -12.5 19.5t-11.5 26.5q-26 -61 -98 -61q-68 0 -100 47t-32 125q0 39 12 72t34 56.5t52.5 37t67.5 13.5q20 0 44 -3t44.5 -6.5t34.5 -6.5l13 -3v-162zM205.5 411q12.5 12 22 31.5t15 44.5t5.5 52v79
q-9 2 -19.5 4t-18.5 2q-46 0 -62 -31.5t-16 -79.5q0 -21 1.5 -41.5t6 -36.5t13.5 -26t25 -10q15 0 27.5 12z" />
    <glyph glyph-name="guillemotleft" unicode="&#xab;" horiz-adv-x="567" 
d="M265 28q-40 35 -79 72q-33 32 -70 70t-66 75q29 37 66 75t70 70q39 37 79 72l47 -54l-130 -163l130 -163zM484 28q-40 35 -79 72q-33 32 -69.5 70t-65.5 75q29 37 65.5 75t69.5 70q39 37 79 72l47 -54l-130 -163l130 -163z" />
    <glyph glyph-name="logicalnot" unicode="&#xac;" horiz-adv-x="511" 
d="M50 395h410v-213h-86v125h-324v88z" />
    <glyph glyph-name="uni00AD" unicode="&#xad;" horiz-adv-x="383" 
d="M50 361h283v-83h-283v83z" />
    <glyph glyph-name="registered" unicode="&#xae;" horiz-adv-x="584" 
d="M77.5 547.5q17.5 42.5 48.5 73.5t74 48t94 17t93.5 -17t72.5 -48t47 -73.5t17 -93.5t-17.5 -93.5t-49 -73.5t-74 -48t-93.5 -17t-93.5 17t-72.5 48t-47 73.5t-17 93.5t17.5 93.5zM137.5 387.5q12.5 -32.5 34 -56.5t52 -38t66.5 -14q37 0 67.5 12.5t52.5 35t34.5 53.5
t12.5 69q0 37 -12 69.5t-34 56.5t-53 38t-68 14q-36 0 -66.5 -12.5t-52 -35t-34 -54t-12.5 -68.5t12.5 -69.5zM354 562.5q22 -18.5 22 -52.5q0 -19 -10.5 -33.5t-28.5 -25.5q16 -5 27 -28t31 -78l-50 -18q-12 30 -20 50.5t-16 32.5t-17.5 17t-24.5 6h-5v-108h-53v255h12
t21 0.5t23.5 0.5h18.5q48 0 70 -18.5zM262 549v-85q2 0 10 0.5t13 1.5q23 5 29.5 13t6.5 27q0 16 -9 29.5t-35 13.5h-15z" />
    <glyph glyph-name="macron" unicode="&#xaf;" 
d="M90 683h322v-83h-322v83z" />
    <glyph glyph-name="degree" unicode="&#xb0;" horiz-adv-x="310" 
d="M72.5 688q32.5 33 83.5 33t82.5 -33t31.5 -84q0 -50 -32.5 -83t-83.5 -33t-82.5 32.5t-31.5 83.5t32.5 84zM117.5 562q13.5 -17 37.5 -17q25 0 38.5 15.5t13.5 43.5q0 26 -13.5 43t-38.5 17q-24 0 -37.5 -15.5t-13.5 -43.5q0 -26 13.5 -43z" />
    <glyph glyph-name="plusminus" unicode="&#xb1;" horiz-adv-x="513" 
d="M61 346h149v152h94v-152h149v-89h-149v-137h148v-88h-392v88h150v137h-149v89z" />
    <glyph glyph-name="uni00B2" unicode="&#xb2;" horiz-adv-x="317" 
d="M35 647q29 16 59 27.5t65 11.5q51 0 80.5 -22.5t29.5 -71.5q0 -39 -24 -75t-64 -78q-14 -14 -41 -33h136v-70h-240v71q12 8 24 19q11 9 24 21.5t26 26.5q37 40 53 63t16 46q0 35 -28 35q-14 0 -28 -5t-26 -11t-20 -11.5t-10 -6.5z" />
    <glyph glyph-name="uni00B3" unicode="&#xb3;" horiz-adv-x="328" 
d="M240.5 663q26.5 -23 26.5 -60q0 -29 -14.5 -46t-29.5 -27q29 -12 44 -34t15 -50q0 -22 -6.5 -43t-22 -37.5t-41 -26.5t-62.5 -10q-26 0 -56.5 9.5t-58.5 24.5l26 61q14 -8 28 -14q12 -5 27 -9t31 -4q18 0 33 11.5t15 36.5q0 18 -9 30.5t-27 12.5q-13 0 -22.5 -1t-16.5 -2
q-8 -2 -15 -3l-21 52q14 4 30.5 7.5t31 9.5t24 15t9.5 25q0 11 -7 19t-18 8q-14 0 -32 -5.5t-49 -19.5l-30 63q32 14 59 22t61 8q51 0 77.5 -23z" />
    <glyph glyph-name="acute" unicode="&#xb4;" 
d="M178 590l170 189l76 -71q-30 -37 -64.5 -68t-63.5 -54q-34 -26 -69 -48z" />
    <glyph glyph-name="uni00B5" unicode="&#xb5;" horiz-adv-x="554" 
d="M65 498h114v-334q0 -38 23 -62t58 -24q20 0 39 10.5t34 30t24 47t9 60.5v272h114v-257q0 -59 7 -98.5t15.5 -64t16 -36t9.5 -14.5l-89 -36q-9 8 -23.5 27.5t-24.5 66.5q-37 -92 -131 -92q-46 0 -81 24v-219l-114 -21v720z" />
    <glyph glyph-name="paragraph" unicode="&#xb6;" horiz-adv-x="578" 
d="M290 265q-115 0 -172.5 56t-57.5 152q0 97 58.5 151.5t171.5 54.5v-414zM507 25q0 -60 -16.5 -100.5t-42 -68.5t-57 -46t-61.5 -33l-46 79q39 19 60.5 40t31.5 42t11.5 40t1.5 35v664h118v-652z" />
    <glyph glyph-name="periodcentered" unicode="&#xb7;" horiz-adv-x="249" 
d="M179.5 372q18.5 -21 18.5 -54q0 -32 -19 -54t-56 -22q-35 0 -54 22t-19 52q0 32 19 54.5t57 22.5q35 0 53.5 -21z" />
    <glyph glyph-name="cedilla" unicode="&#xb8;" 
d="M274 3l-11 -50q39 -3 64.5 -22.5t25.5 -56.5q0 -27 -10.5 -45t-27.5 -28.5t-38 -14.5t-42 -4q-24 0 -46.5 5t-39.5 12l16 54q11 -4 29 -8.5t35 -4.5q27 0 38.5 8t11.5 23q0 12 -9 20t-22.5 13.5t-29.5 8t-31 2.5l22 88h65z" />
    <glyph glyph-name="uni00B9" unicode="&#xb9;" horiz-adv-x="266" 
d="M195 677v-341h-82v252q-32 -31 -68 -47l-35 63l13 5q12 4 31 13.5t41 23t41 31.5h59z" />
    <glyph glyph-name="ordmasculine" unicode="&#xba;" horiz-adv-x="409" 
d="M327 639.5q37 -46.5 37 -127.5q0 -38 -10 -71t-30 -57t-50.5 -38t-71.5 -14q-83 0 -120 46t-37 126q0 39 10 72.5t30 57.5t51 38t72 14q82 0 119 -46.5zM153.5 588.5q-11.5 -30.5 -11.5 -77.5q0 -23 2.5 -43.5t10 -35.5t20.5 -24t34 -9q35 0 46.5 30.5t11.5 77.5
q0 23 -2.5 43.5t-10 35.5t-20.5 24t-33 9q-36 0 -47.5 -30.5z" />
    <glyph glyph-name="guillemotright" unicode="&#xbb;" horiz-adv-x="567" 
d="M302 462q39 -35 78 -72q33 -32 70 -70t66 -75q-29 -37 -66 -75t-70 -70q-39 -37 -78 -72l-47 54l130 163l-130 163zM83 462q39 -35 78 -72q33 -32 70 -70t66 -75q-29 -37 -66 -75t-70 -70q-39 -37 -78 -72l-48 54l130 163l-130 163z" />
    <glyph glyph-name="onequarter" unicode="&#xbc;" horiz-adv-x="711" 
d="M412 587h93l-273 -587h-94zM190 586v-341h-82v252q-32 -31 -68 -47l-35 63l13 5q12 4 31 13.5t41 23t41 31.5h59zM647 155h49l-10 -62h-39v-93h-83v93h-157v39l90 218h82l-83 -195h68v92l83 20v-112z" />
    <glyph glyph-name="onehalf" unicode="&#xbd;" horiz-adv-x="725" 
d="M412 587h93l-273 -587h-94zM190 586v-341h-82v252q-32 -31 -68 -47l-35 63l13 5q12 4 31 13.5t41 23t41 31.5h59zM443 310q29 17 59 28t65 11q50 0 80 -22t30 -71q0 -39 -24 -75.5t-65 -77.5q-7 -7 -17 -15.5t-23 -17.5h136v-70h-240v71q12 8 24 19q11 9 24 21t26 27
q37 40 53 63t16 46q0 34 -28 34q-14 0 -28 -4.5t-26 -10.5t-20 -11.5t-10 -6.5z" />
    <glyph glyph-name="threequarters" unicode="&#xbe;" horiz-adv-x="787" 
d="M462 587h94l-274 -587h-93zM699 146h49l-10 -63h-39v-83h-83v83h-157v40l91 217h82l-83 -194h67v92l83 20v-112zM212 564q27 -23 27 -60q0 -29 -14.5 -46t-30.5 -27q29 -12 44.5 -34t15.5 -50q0 -22 -6.5 -43t-22.5 -37.5t-41.5 -26.5t-62.5 -10q-26 0 -56.5 9.5
t-58.5 24.5l26 61q14 -8 28 -14q12 -5 27 -9t31 -4q18 0 33.5 11.5t15.5 36.5q0 18 -9 30.5t-28 12.5q-13 0 -22.5 -1t-16.5 -2q-8 -2 -15 -3l-21 52q14 4 30.5 7.5t31 9.5t24 15t9.5 25q0 11 -6.5 19t-17.5 8q-14 0 -32 -5.5t-50 -19.5l-29 63q31 14 58 22t61 8
q51 0 78 -23z" />
    <glyph glyph-name="questiondown" unicode="&#xbf;" horiz-adv-x="434" 
d="M75 -157q-51 35 -51 115q0 29 9 55.5t23.5 51t33 47.5t36.5 46q28 35 50.5 69t33.5 71l84 -23q0 -52 -22 -95t-49 -79t-49 -67.5t-22 -61.5q0 -37 21 -57t56 -20q16 0 29.5 3t27.5 8t30 13t38 18l39 -79q-41 -19 -84.5 -34.5t-94.5 -15.5q-88 0 -139 35zM192 376
q-19 21 -19 54q0 32 19 54t57 22q35 0 53.5 -22t18.5 -52q0 -32 -19 -54.5t-56 -22.5q-35 0 -54 21z" />
    <glyph glyph-name="Agrave" unicode="&#xc0;" horiz-adv-x="605" 
d="M255 677h94l261 -677h-127l-62 177h-244l-64 -177h-118zM390 265q-32 90 -55 163.5t-35 115.5q-14 -45 -37 -118t-54 -161h181zM296 718l-26 8q-26 8 -64.5 24t-82 40t-78.5 56l52 82l227 -152z" />
    <glyph glyph-name="Aacute" unicode="&#xc1;" horiz-adv-x="605" 
d="M255 677h94l261 -677h-127l-62 177h-244l-64 -177h-118zM390 265q-32 90 -55 163.5t-35 115.5q-14 -45 -37 -118t-54 -161h181zM271 776l227 152l52 -82q-35 -32 -78.5 -56t-82 -40t-64.5 -24l-26 -8z" />
    <glyph glyph-name="Acircumflex" unicode="&#xc2;" horiz-adv-x="605" 
d="M255 677h94l261 -677h-127l-62 177h-244l-64 -177h-118zM390 265q-32 90 -55 163.5t-35 115.5q-14 -45 -37 -118t-54 -161h181zM102 771l198 157l198 -157l-44 -53l-12 6q-13 5 -35 16.5t-49.5 28.5t-57.5 39q-30 -22 -58 -39t-49.5 -28.5t-33.5 -16.5l-13 -6z" />
    <glyph glyph-name="Atilde" unicode="&#xc3;" horiz-adv-x="605" 
d="M255 677h94l261 -677h-127l-62 177h-244l-64 -177h-118zM390 265q-32 90 -55 163.5t-35 115.5q-14 -45 -37 -118t-54 -161h181zM137 834q11 6 23 11q11 5 25 8.5t31 3.5q37 0 76.5 -10t76.5 -10q17 0 31.5 2t25.5 5q12 3 23 7v-74q-11 -7 -23 -12q-11 -5 -25.5 -8
t-31.5 -3q-37 0 -76.5 10t-76.5 10q-17 0 -31 -2.5t-25 -4.5q-12 -4 -23 -7v74z" />
    <glyph glyph-name="Adieresis" unicode="&#xc4;" horiz-adv-x="605" 
d="M255 677h94l261 -677h-127l-62 177h-244l-64 -177h-118zM390 265q-32 90 -55 163.5t-35 115.5q-14 -45 -37 -118t-54 -161h181zM248 765.5q-16 -18.5 -48 -18.5q-29 0 -44.5 18t-15.5 44q0 28 16 46.5t47 18.5q29 0 45 -18t16 -45t-16 -45.5zM448 765.5
q-16 -18.5 -48 -18.5q-29 0 -45 18t-16 44q0 28 16 46.5t48 18.5q29 0 45 -18t16 -45t-16 -45.5z" />
    <glyph glyph-name="Aring" unicode="&#xc5;" horiz-adv-x="605" 
d="M230.5 798.5q28.5 28.5 72.5 28.5q43 0 70.5 -28t27.5 -72q0 -26 -11 -47t-29 -35l249 -645h-127l-62 177h-244l-64 -177h-118l247 644q-19 14 -29.5 35.5t-10.5 47.5q0 43 28.5 71.5zM390 265q-32 90 -55 163.5t-35 115.5q-14 -45 -37 -118t-54 -161h181zM265.5 695.5
q7.5 -13.5 21.5 -18.5h27q31 8 31 50q0 23 -11.5 36.5t-32.5 13.5q-43 0 -43 -49q0 -19 7.5 -32.5z" />
    <glyph glyph-name="AE" unicode="&#xc6;" horiz-adv-x="876" 
d="M435 177h-201l-101 -177h-138l410 677h430v-90h-283v-189h233l-15 -91h-218v-217h298v-90h-415v177zM412 509.5q-17 -32.5 -38.5 -74t-45.5 -87t-44 -83.5h151v290q-6 -13 -23 -45.5z" />
    <glyph glyph-name="Ccedilla" unicode="&#xc7;" horiz-adv-x="523" 
d="M442 541q-24 26 -50.5 39.5t-61.5 13.5q-43 0 -72.5 -19.5t-47.5 -54t-26 -80.5t-8 -99t7.5 -99t26 -81t50 -55t79.5 -20q23 0 44 4t38.5 8.5t29 8.5t14.5 5l28 -84l-10 -4q-11 -5 -30 -10.5t-45.5 -11t-58.5 -7.5l-9 -42q39 -3 64.5 -22.5t25.5 -56.5q0 -27 -10.5 -45
t-27.5 -28.5t-38 -14.5t-41 -4q-25 0 -47.5 5t-39.5 12l16 54q11 -4 29 -8.5t35 -4.5q27 0 38.5 8t11.5 23q0 12 -9 20t-22.5 13.5t-29.5 8t-31 2.5l20 81q-118 10 -177.5 95t-59.5 239q0 79 18 144.5t54.5 112.5t92 73t130.5 26q60 0 98.5 -22t62.5 -50z" />
    <glyph glyph-name="Egrave" unicode="&#xc8;" horiz-adv-x="513" 
d="M70 677h402v-90h-283v-189h233l-15 -91h-218v-217h298v-90h-417v677zM279 718l-26 8q-26 8 -64.5 24t-82 40t-78.5 56l52 82l227 -152z" />
    <glyph glyph-name="Eacute" unicode="&#xc9;" horiz-adv-x="513" 
d="M70 677h402v-90h-283v-189h233l-15 -91h-218v-217h298v-90h-417v677zM255 776l227 152l52 -82q-35 -32 -78.5 -56t-82 -40t-64.5 -24l-26 -8z" />
    <glyph glyph-name="Ecircumflex" unicode="&#xca;" horiz-adv-x="513" 
d="M70 677h402v-90h-283v-189h233l-15 -91h-218v-217h298v-90h-417v677zM85 771l198 157l198 -157l-44 -53l-12 6q-13 5 -35 16.5t-49.5 28.5t-57.5 39q-30 -22 -58 -39t-49.5 -28.5t-33.5 -16.5l-13 -6z" />
    <glyph glyph-name="Edieresis" unicode="&#xcb;" horiz-adv-x="513" 
d="M70 677h402v-90h-283v-189h233l-15 -91h-218v-217h298v-90h-417v677zM202 765.5q-16 -18.5 -48 -18.5q-29 0 -44.5 18t-15.5 44q0 28 16 46.5t47 18.5q29 0 45 -18t16 -45t-16 -45.5zM402 765.5q-16 -18.5 -48 -18.5q-29 0 -45 18t-16 44q0 28 16 46.5t48 18.5
q29 0 45 -18t16 -45t-16 -45.5z" />
    <glyph glyph-name="Igrave" unicode="&#xcc;" horiz-adv-x="259" 
d="M70 677h119v-677h-119v677zM126 718l-26 8q-26 8 -64.5 24t-82 40t-78.5 56l52 82l227 -152z" />
    <glyph glyph-name="Iacute" unicode="&#xcd;" horiz-adv-x="259" 
d="M70 677h119v-677h-119v677zM102 776l227 152l52 -82q-35 -32 -78.5 -56t-82 -40t-64.5 -24l-26 -8z" />
    <glyph glyph-name="Icircumflex" unicode="&#xce;" horiz-adv-x="259" 
d="M70 677h119v-677h-119v677zM-68 771l198 157l198 -157l-44 -53l-12 6q-13 5 -35 16.5t-49.5 28.5t-57.5 39q-30 -22 -58 -39t-49.5 -28.5t-33.5 -16.5l-13 -6z" />
    <glyph glyph-name="Idieresis" unicode="&#xcf;" horiz-adv-x="259" 
d="M70 677h119v-677h-119v677zM76 765.5q-16 -18.5 -48 -18.5q-29 0 -44.5 18t-15.5 44q0 28 16 46.5t47 18.5q29 0 45 -18t16 -45t-16 -45.5zM276 765.5q-16 -18.5 -48 -18.5q-29 0 -45 18t-16 44q0 28 16 46.5t48 18.5q29 0 45 -18t16 -45t-16 -45.5z" />
    <glyph glyph-name="Eth" unicode="&#xd0;" horiz-adv-x="643" 
d="M70 303h-70v88h70v286q7 0 30 0.5t52 0.5t60 0.5t54 0.5q170 0 252 -84.5t82 -251.5t-84 -256t-263 -89q-31 0 -60.5 0.5t-54 0.5t-42.5 0.5t-26 0.5v303zM213.5 589.5q-15.5 -0.5 -24.5 -0.5v-198h180v-88h-180v-215q11 -1 28.5 -1h50.5q105 0 154 61.5t49 183.5
q0 58 -11.5 105.5t-38 81.5t-68 52.5t-101.5 18.5q-23 0 -38.5 -0.5z" />
    <glyph glyph-name="Ntilde" unicode="&#xd1;" horiz-adv-x="659" 
d="M470 677h119v-678h-99l-228 356q-19 29 -41.5 65.5t-42.5 67.5q3 -32 5.5 -67t2.5 -67l3 -354h-119v679h93l235 -352q20 -29 40.5 -61.5t40.5 -62.5q-2 32 -4 64.5t-2 55.5zM173 842q11 6 23 11q11 5 25 8.5t31 3.5q37 0 76.5 -10t76.5 -10q17 0 31.5 2t25.5 5q12 3 23 7
v-74q-11 -7 -23 -12q-11 -5 -25.5 -8t-31.5 -3q-37 0 -76.5 10t-76.5 10q-17 0 -31 -2.5t-25 -4.5q-12 -4 -23 -7v74z" />
    <glyph glyph-name="Ograve" unicode="&#xd2;" horiz-adv-x="668" 
d="M469 662q53 -24 87.5 -68t50.5 -107.5t16 -142.5q0 -78 -17.5 -142.5t-54 -110.5t-92 -71.5t-131.5 -25.5q-75 0 -128.5 22.5t-88 66t-50.5 105.5t-16 142q0 78 17.5 143.5t54 113t92.5 73.5t132 26q75 0 128 -24zM254 574.5q-29 -19.5 -47 -53.5t-25.5 -80t-7.5 -100
q0 -51 7 -97t25.5 -81t51 -56t84.5 -21q43 0 72.5 19t47.5 52t25.5 78.5t7.5 98.5q0 51 -7 98t-25.5 83t-51 57.5t-84.5 21.5q-44 0 -73 -19.5zM328 718l-26 8q-26 8 -64.5 24t-82 40t-78.5 56l52 82l227 -152z" />
    <glyph glyph-name="Oacute" unicode="&#xd3;" horiz-adv-x="668" 
d="M469 662q53 -24 87.5 -68t50.5 -107.5t16 -142.5q0 -78 -17.5 -142.5t-54 -110.5t-92 -71.5t-131.5 -25.5q-75 0 -128.5 22.5t-88 66t-50.5 105.5t-16 142q0 78 17.5 143.5t54 113t92.5 73.5t132 26q75 0 128 -24zM254 574.5q-29 -19.5 -47 -53.5t-25.5 -80t-7.5 -100
q0 -51 7 -97t25.5 -81t51 -56t84.5 -21q43 0 72.5 19t47.5 52t25.5 78.5t7.5 98.5q0 51 -7 98t-25.5 83t-51 57.5t-84.5 21.5q-44 0 -73 -19.5zM303 776l227 152l52 -82q-35 -32 -78.5 -56t-82 -40t-64.5 -24l-26 -8z" />
    <glyph glyph-name="Ocircumflex" unicode="&#xd4;" horiz-adv-x="668" 
d="M469 662q53 -24 87.5 -68t50.5 -107.5t16 -142.5q0 -78 -17.5 -142.5t-54 -110.5t-92 -71.5t-131.5 -25.5q-75 0 -128.5 22.5t-88 66t-50.5 105.5t-16 142q0 78 17.5 143.5t54 113t92.5 73.5t132 26q75 0 128 -24zM254 574.5q-29 -19.5 -47 -53.5t-25.5 -80t-7.5 -100
q0 -51 7 -97t25.5 -81t51 -56t84.5 -21q43 0 72.5 19t47.5 52t25.5 78.5t7.5 98.5q0 51 -7 98t-25.5 83t-51 57.5t-84.5 21.5q-44 0 -73 -19.5zM134 771l198 157l198 -157l-44 -53l-12 6q-13 5 -35 16.5t-49.5 28.5t-57.5 39q-30 -22 -58 -39t-49.5 -28.5t-33.5 -16.5
l-13 -6z" />
    <glyph glyph-name="Otilde" unicode="&#xd5;" horiz-adv-x="668" 
d="M469 662q53 -24 87.5 -68t50.5 -107.5t16 -142.5q0 -78 -17.5 -142.5t-54 -110.5t-92 -71.5t-131.5 -25.5q-75 0 -128.5 22.5t-88 66t-50.5 105.5t-16 142q0 78 17.5 143.5t54 113t92.5 73.5t132 26q75 0 128 -24zM254 574.5q-29 -19.5 -47 -53.5t-25.5 -80t-7.5 -100
q0 -51 7 -97t25.5 -81t51 -56t84.5 -21q43 0 72.5 19t47.5 52t25.5 78.5t7.5 98.5q0 51 -7 98t-25.5 83t-51 57.5t-84.5 21.5q-44 0 -73 -19.5zM169 834q11 6 23 11q11 5 25 8.5t31 3.5q37 0 76.5 -10t76.5 -10q17 0 31.5 2t25.5 5q12 3 23 7v-74q-11 -7 -23 -12
q-11 -5 -25.5 -8t-31.5 -3q-37 0 -76.5 10t-76.5 10q-17 0 -31 -2.5t-25 -4.5q-12 -4 -23 -7v74z" />
    <glyph glyph-name="Odieresis" unicode="&#xd6;" horiz-adv-x="668" 
d="M469 662q53 -24 87.5 -68t50.5 -107.5t16 -142.5q0 -78 -17.5 -142.5t-54 -110.5t-92 -71.5t-131.5 -25.5q-75 0 -128.5 22.5t-88 66t-50.5 105.5t-16 142q0 78 17.5 143.5t54 113t92.5 73.5t132 26q75 0 128 -24zM254 574.5q-29 -19.5 -47 -53.5t-25.5 -80t-7.5 -100
q0 -51 7 -97t25.5 -81t51 -56t84.5 -21q43 0 72.5 19t47.5 52t25.5 78.5t7.5 98.5q0 51 -7 98t-25.5 83t-51 57.5t-84.5 21.5q-44 0 -73 -19.5zM280 765.5q-16 -18.5 -48 -18.5q-29 0 -44.5 18t-15.5 44q0 28 16 46.5t47 18.5q29 0 45 -18t16 -45t-16 -45.5zM480 765.5
q-16 -18.5 -48 -18.5q-29 0 -45 18t-16 44q0 28 16 46.5t48 18.5q29 0 45 -18t16 -45t-16 -45.5z" />
    <glyph glyph-name="multiply" unicode="&#xd7;" horiz-adv-x="516" 
d="M128 495l128 -130l131 132l65 -67l-130 -130l134 -133l-61 -63l-134 135l-136 -135l-65 66l135 134l-128 128z" />
    <glyph glyph-name="Oslash" unicode="&#xd8;" horiz-adv-x="668" 
d="M414 679l25 63l98 -40l-26 -64q58 -42 85 -117t27 -177q0 -78 -17.5 -142.5t-54 -110.5t-92 -71.5t-131.5 -25.5q-41 0 -75 6l-25 -63l-97 40l25 63q-58 41 -84.5 114t-26.5 176q0 78 17.5 143.5t54 113t92.5 73.5t132 26q41 0 73 -7zM488 432.5q-7 47.5 -26 83.5
l-172 -424q22 -6 52 -6q43 0 72.5 19t47.5 52t25.5 78.5t7.5 98.5q0 51 -7 98.5zM254 574.5q-29 -19.5 -47 -53.5t-25.5 -80t-7.5 -100q0 -51 6.5 -97t25.5 -81l171 424q-11 3 -23.5 5t-26.5 2q-44 0 -73 -19.5z" />
    <glyph glyph-name="Ugrave" unicode="&#xd9;" horiz-adv-x="635" 
d="M178 677v-419q0 -93 39 -132.5t106 -39.5q68 0 100.5 45.5t32.5 126.5v419h119v-428q0 -52 -13.5 -98t-44.5 -81t-82 -55.5t-125 -20.5q-71 0 -118.5 20.5t-77 55.5t-42 81t-12.5 98v428h118zM314 718l-26 8q-26 8 -64.5 24t-82 40t-78.5 56l52 82l227 -152z" />
    <glyph glyph-name="Uacute" unicode="&#xda;" horiz-adv-x="635" 
d="M178 677v-419q0 -93 39 -132.5t106 -39.5q68 0 100.5 45.5t32.5 126.5v419h119v-428q0 -52 -13.5 -98t-44.5 -81t-82 -55.5t-125 -20.5q-71 0 -118.5 20.5t-77 55.5t-42 81t-12.5 98v428h118zM290 776l227 152l52 -82q-35 -32 -78.5 -56t-82 -40t-64.5 -24l-26 -8z" />
    <glyph glyph-name="Ucircumflex" unicode="&#xdb;" horiz-adv-x="635" 
d="M178 677v-419q0 -93 39 -132.5t106 -39.5q68 0 100.5 45.5t32.5 126.5v419h119v-428q0 -52 -13.5 -98t-44.5 -81t-82 -55.5t-125 -20.5q-71 0 -118.5 20.5t-77 55.5t-42 81t-12.5 98v428h118zM120 771l198 157l198 -157l-44 -53l-12 6q-13 5 -35 16.5t-49.5 28.5
t-57.5 39q-30 -22 -58 -39t-49.5 -28.5t-33.5 -16.5l-13 -6z" />
    <glyph glyph-name="Udieresis" unicode="&#xdc;" horiz-adv-x="635" 
d="M178 677v-419q0 -93 39 -132.5t106 -39.5q68 0 100.5 45.5t32.5 126.5v419h119v-428q0 -52 -13.5 -98t-44.5 -81t-82 -55.5t-125 -20.5q-71 0 -118.5 20.5t-77 55.5t-42 81t-12.5 98v428h118zM263 765.5q-16 -18.5 -48 -18.5q-29 0 -44.5 18t-15.5 44q0 28 16 46.5
t47 18.5q29 0 45 -18t16 -45t-16 -45.5zM463 765.5q-16 -18.5 -48 -18.5q-29 0 -45 18t-16 44q0 28 16 46.5t48 18.5q29 0 45 -18t16 -45t-16 -45.5z" />
    <glyph glyph-name="Yacute" unicode="&#xdd;" horiz-adv-x="543" 
d="M210 259l-210 418h129l142 -307l145 307h126l-213 -423v-254h-119v259zM245 776l227 152l52 -82q-35 -32 -78.5 -56t-82 -40t-64.5 -24l-26 -8z" />
    <glyph glyph-name="Thorn" unicode="&#xde;" horiz-adv-x="537" 
d="M70 677h119v-122h82q124 0 182 -53t58 -150q0 -95 -63 -152.5t-189 -57.5h-70v-142h-119v677zM189 230h77q63 0 90 33.5t27 84.5q0 24 -6 46t-20.5 39t-39 27.5t-61.5 10.5h-38.5t-28.5 -1v-240z" />
    <glyph glyph-name="germandbls" unicode="&#xdf;" horiz-adv-x="578" 
d="M209 25q0 -60 -15.5 -100.5t-40.5 -68t-55 -46t-60 -33.5l-43 69q37 19 57.5 42t30 46t11 44t1.5 36v464q0 55 14.5 100.5t44 78t73 50.5t102.5 18q46 0 79 -12t54.5 -31.5t32 -44.5t10.5 -52q0 -43 -18 -69t-39.5 -44t-39.5 -33t-18 -37q0 -23 11.5 -39.5t29 -30.5
t38 -28.5t38 -34.5t29 -48t11.5 -69q0 -35 -13.5 -64.5t-37.5 -50.5t-58 -32.5t-75 -11.5q-24 0 -45.5 5t-39 11.5t-28.5 12.5t-14 8l34 75l12 -6t19 -8.5t23 -8t24 -3.5q39 0 61.5 15.5t22.5 48.5q0 24 -11 40t-27.5 29.5t-35.5 27t-35.5 32.5t-27.5 45.5t-11 65.5
q0 37 17 62t37 45t37 39.5t17 45.5q0 34 -24 48.5t-55 14.5q-30 0 -50 -13.5t-32 -35t-17 -49t-5 -54.5v-461z" />
    <glyph glyph-name="agrave" unicode="&#xe0;" horiz-adv-x="536" 
d="M467 241q0 -60 7.5 -100.5t16.5 -65.5q11 -30 24 -47l-89 -36q-13 13 -24 31q-9 16 -17 38.5t-10 53.5q-17 -60 -54.5 -90.5t-101.5 -30.5q-47 0 -81.5 17.5t-57.5 50t-34 78.5t-11 102q0 57 17.5 105.5t49 83.5t75.5 55t97 20q30 0 62.5 -4.5t60.5 -9.5t47.5 -9.5
t22.5 -5.5v-236zM284 91q21 17 36.5 44.5t24 63t8.5 72.5v144q-10 3 -30 7t-36 4q-38 0 -62.5 -13t-39.5 -36t-21 -55t-6 -70q0 -35 2 -67t10.5 -57t24.5 -39.5t43 -14.5q25 0 46 17zM268 538q-34 22 -69 48q-30 23 -65 54t-64 68l76 71l170 -189z" />
    <glyph glyph-name="aacute" unicode="&#xe1;" horiz-adv-x="536" 
d="M467 241q0 -60 7.5 -100.5t16.5 -65.5q11 -30 24 -47l-89 -36q-13 13 -24 31q-9 16 -17 38.5t-10 53.5q-17 -60 -54.5 -90.5t-101.5 -30.5q-47 0 -81.5 17.5t-57.5 50t-34 78.5t-11 102q0 57 17.5 105.5t49 83.5t75.5 55t97 20q30 0 62.5 -4.5t60.5 -9.5t47.5 -9.5
t22.5 -5.5v-236zM284 91q21 17 36.5 44.5t24 63t8.5 72.5v144q-10 3 -30 7t-36 4q-38 0 -62.5 -13t-39.5 -36t-21 -55t-6 -70q0 -35 2 -67t10.5 -57t24.5 -39.5t43 -14.5q25 0 46 17zM210 590l170 189l76 -71q-30 -37 -64.5 -68t-63.5 -54q-34 -26 -69 -48z" />
    <glyph glyph-name="acircumflex" unicode="&#xe2;" horiz-adv-x="536" 
d="M467 241q0 -60 7.5 -100.5t16.5 -65.5q11 -30 24 -47l-89 -36q-13 13 -24 31q-9 16 -17 38.5t-10 53.5q-17 -60 -54.5 -90.5t-101.5 -30.5q-47 0 -81.5 17.5t-57.5 50t-34 78.5t-11 102q0 57 17.5 105.5t49 83.5t75.5 55t97 20q30 0 62.5 -4.5t60.5 -9.5t47.5 -9.5
t22.5 -5.5v-236zM284 91q21 17 36.5 44.5t24 63t8.5 72.5v144q-10 3 -30 7t-36 4q-38 0 -62.5 -13t-39.5 -36t-21 -55t-6 -70q0 -35 2 -67t10.5 -57t24.5 -39.5t43 -14.5q25 0 46 17zM87 592l188 187l187 -187l-43 -54l-11 7q-12 7 -32.5 20.5t-46.5 33t-54 43.5
q-29 -25 -55.5 -44t-46.5 -32.5t-31 -20.5l-12 -7z" />
    <glyph glyph-name="atilde" unicode="&#xe3;" horiz-adv-x="536" 
d="M467 241q0 -60 7.5 -100.5t16.5 -65.5q11 -30 24 -47l-89 -36q-13 13 -24 31q-9 16 -17 38.5t-10 53.5q-17 -60 -54.5 -90.5t-101.5 -30.5q-47 0 -81.5 17.5t-57.5 50t-34 78.5t-11 102q0 57 17.5 105.5t49 83.5t75.5 55t97 20q30 0 62.5 -4.5t60.5 -9.5t47.5 -9.5
t22.5 -5.5v-236zM284 91q21 17 36.5 44.5t24 63t8.5 72.5v144q-10 3 -30 7t-36 4q-38 0 -62.5 -13t-39.5 -36t-21 -55t-6 -70q0 -35 2 -67t10.5 -57t24.5 -39.5t43 -14.5q25 0 46 17zM106 663q11 6 23 11q11 5 25 8.5t31 3.5q37 0 76.5 -10t76.5 -10q17 0 31.5 2t25.5 5
q12 3 23 7v-74q-11 -7 -23 -12q-11 -5 -25.5 -8t-31.5 -3q-37 0 -76.5 10t-76.5 10q-17 0 -31 -2.5t-25 -4.5q-12 -4 -23 -7v74z" />
    <glyph glyph-name="adieresis" unicode="&#xe4;" horiz-adv-x="536" 
d="M467 241q0 -60 7.5 -100.5t16.5 -65.5q11 -30 24 -47l-89 -36q-13 13 -24 31q-9 16 -17 38.5t-10 53.5q-17 -60 -54.5 -90.5t-101.5 -30.5q-47 0 -81.5 17.5t-57.5 50t-34 78.5t-11 102q0 57 17.5 105.5t49 83.5t75.5 55t97 20q30 0 62.5 -4.5t60.5 -9.5t47.5 -9.5
t22.5 -5.5v-236zM284 91q21 17 36.5 44.5t24 63t8.5 72.5v144q-10 3 -30 7t-36 4q-38 0 -62.5 -13t-39.5 -36t-21 -55t-6 -70q0 -35 2 -67t10.5 -57t24.5 -39.5t43 -14.5q25 0 46 17zM213 605.5q-16 -18.5 -48 -18.5q-29 0 -44.5 18t-15.5 44q0 28 16 46.5t47 18.5
q29 0 45 -18t16 -45t-16 -45.5zM413 605.5q-16 -18.5 -48 -18.5q-29 0 -45 18t-16 44q0 28 16 46.5t48 18.5q29 0 45 -18t16 -45t-16 -45.5z" />
    <glyph glyph-name="aring" unicode="&#xe5;" horiz-adv-x="536" 
d="M467 241q0 -60 7.5 -100.5t16.5 -65.5q11 -30 24 -47l-89 -36q-13 13 -24 31q-9 16 -17 38.5t-10 53.5q-17 -60 -54.5 -90.5t-101.5 -30.5q-47 0 -81.5 17.5t-57.5 50t-34 78.5t-11 102q0 57 17.5 105.5t49 83.5t75.5 55t97 20q30 0 62.5 -4.5t60.5 -9.5t47.5 -9.5
t22.5 -5.5v-236zM284 91q21 17 36.5 44.5t24 63t8.5 72.5v144q-10 3 -30 7t-36 4q-38 0 -62.5 -13t-39.5 -36t-21 -55t-6 -70q0 -35 2 -67t10.5 -57t24.5 -39.5t43 -14.5q25 0 46 17zM196.5 717.5q28.5 28.5 72.5 28.5q43 0 70.5 -28t27.5 -72q0 -43 -28.5 -72t-72.5 -29
q-43 0 -70.5 29t-27.5 72t28.5 71.5zM235.5 609q11.5 -15 31.5 -15q21 0 32.5 14t11.5 38q0 23 -11.5 36.5t-32.5 13.5q-43 0 -43 -49q0 -23 11.5 -38z" />
    <glyph glyph-name="ae" unicode="&#xe6;" horiz-adv-x="760" 
d="M370.5 494q42.5 -12 67.5 -23q57 39 135 39q45 0 76.5 -11t51.5 -30t29.5 -45t9.5 -56q0 -36 -20 -68.5t-57 -57t-90.5 -39t-119.5 -15.5q3 -23 9.5 -43.5t19 -36t32.5 -24.5t50 -9q22 0 47 5t46 12q25 8 49 18l30 -71q-26 -13 -56 -23q-26 -9 -60 -16t-72 -7
q-69 0 -114 24t-70 69q-19 -46 -54 -69t-91 -23q-47 0 -81.5 17.5t-57.5 50t-34 78.5t-11 102q0 57 17.5 105.5t49 83.5t75.5 55t97 20q54 0 96.5 -12zM298 100q26 26 40 68q-3 16 -4 33t-1 36q0 51 10.5 92.5t30.5 73.5q-18 10 -39.5 16.5t-47.5 6.5q-38 0 -62.5 -13
t-39.5 -36t-21 -55t-6 -70q0 -35 2 -67t10.5 -57t24.5 -39.5t43 -14.5q34 0 60 26zM510 416.5q-22 -15.5 -35 -40t-18.5 -55t-6.5 -61.5q48 2 81.5 12.5t54.5 26t30.5 33.5t9.5 36q0 29 -17 46.5t-44 17.5q-33 0 -55 -15.5z" />
    <glyph glyph-name="ccedilla" unicode="&#xe7;" horiz-adv-x="410" 
d="M335 381q-15 17 -30.5 29t-41.5 12q-15 0 -33.5 -4.5t-34.5 -22t-26.5 -51.5t-10.5 -92q0 -59 10.5 -93.5t27 -53.5t35.5 -24.5t37 -5.5q14 0 29 2.5t29 6t24.5 6.5t15.5 5l28 -72q-5 -2 -33 -13t-77 -16l-9 -41q39 -3 64.5 -22.5t25.5 -56.5q0 -27 -10.5 -45
t-27.5 -28.5t-38 -14.5t-42 -4q-24 0 -46.5 5t-39.5 12l16 54q11 -4 29 -8.5t35 -4.5q27 0 38.5 8t11.5 23q0 12 -9 20t-22.5 13.5t-29.5 8t-31 2.5l20 80q-49 5 -83.5 24.5t-57 51t-33 73.5t-10.5 93q0 66 17.5 117t48.5 85.5t73 52.5t90 18q47 0 79.5 -18t55.5 -50z" />
    <glyph glyph-name="egrave" unicode="&#xe8;" horiz-adv-x="473" 
d="M53.5 355q18.5 51 51 85.5t76.5 52t95 17.5q45 0 76.5 -11t51.5 -30t29.5 -45t9.5 -56q0 -36 -20 -68.5t-57.5 -57t-90.5 -39t-119 -15.5q3 -23 9.5 -43.5t19 -36t32.5 -24.5t50 -9q22 0 47 5t46 12q25 8 49 18l30 -71q-26 -13 -56 -23q-26 -9 -60 -16t-72 -7
q-58 0 -99 17.5t-67 49.5t-38 77t-12 100q0 67 18.5 118zM212.5 416.5q-21.5 -15.5 -34.5 -40t-18.5 -55t-6.5 -61.5q48 2 81.5 12.5t54.5 26t30.5 33.5t9.5 36q0 29 -17 46.5t-45 17.5q-33 0 -54.5 -15.5zM257 538q-34 22 -69 48q-30 23 -65 54t-64 68l76 71l170 -189z" />
    <glyph glyph-name="eacute" unicode="&#xe9;" horiz-adv-x="473" 
d="M53.5 355q18.5 51 51 85.5t76.5 52t95 17.5q45 0 76.5 -11t51.5 -30t29.5 -45t9.5 -56q0 -36 -20 -68.5t-57.5 -57t-90.5 -39t-119 -15.5q3 -23 9.5 -43.5t19 -36t32.5 -24.5t50 -9q22 0 47 5t46 12q25 8 49 18l30 -71q-26 -13 -56 -23q-26 -9 -60 -16t-72 -7
q-58 0 -99 17.5t-67 49.5t-38 77t-12 100q0 67 18.5 118zM212.5 416.5q-21.5 -15.5 -34.5 -40t-18.5 -55t-6.5 -61.5q48 2 81.5 12.5t54.5 26t30.5 33.5t9.5 36q0 29 -17 46.5t-45 17.5q-33 0 -54.5 -15.5zM200 590l170 189l76 -71q-30 -37 -64.5 -68t-63.5 -54
q-34 -26 -69 -48z" />
    <glyph glyph-name="ecircumflex" unicode="&#xea;" horiz-adv-x="473" 
d="M53.5 355q18.5 51 51 85.5t76.5 52t95 17.5q45 0 76.5 -11t51.5 -30t29.5 -45t9.5 -56q0 -36 -20 -68.5t-57.5 -57t-90.5 -39t-119 -15.5q3 -23 9.5 -43.5t19 -36t32.5 -24.5t50 -9q22 0 47 5t46 12q25 8 49 18l30 -71q-26 -13 -56 -23q-26 -9 -60 -16t-72 -7
q-58 0 -99 17.5t-67 49.5t-38 77t-12 100q0 67 18.5 118zM212.5 416.5q-21.5 -15.5 -34.5 -40t-18.5 -55t-6.5 -61.5q48 2 81.5 12.5t54.5 26t30.5 33.5t9.5 36q0 29 -17 46.5t-45 17.5q-33 0 -54.5 -15.5zM76 592l188 187l187 -187l-43 -54l-11 7q-12 7 -32.5 20.5
t-46.5 33t-54 43.5q-29 -25 -55.5 -44t-46.5 -32.5t-31 -20.5l-12 -7z" />
    <glyph glyph-name="edieresis" unicode="&#xeb;" horiz-adv-x="473" 
d="M53.5 355q18.5 51 51 85.5t76.5 52t95 17.5q45 0 76.5 -11t51.5 -30t29.5 -45t9.5 -56q0 -36 -20 -68.5t-57.5 -57t-90.5 -39t-119 -15.5q3 -23 9.5 -43.5t19 -36t32.5 -24.5t50 -9q22 0 47 5t46 12q25 8 49 18l30 -71q-26 -13 -56 -23q-26 -9 -60 -16t-72 -7
q-58 0 -99 17.5t-67 49.5t-38 77t-12 100q0 67 18.5 118zM212.5 416.5q-21.5 -15.5 -34.5 -40t-18.5 -55t-6.5 -61.5q48 2 81.5 12.5t54.5 26t30.5 33.5t9.5 36q0 29 -17 46.5t-45 17.5q-33 0 -54.5 -15.5zM202 605.5q-16 -18.5 -48 -18.5q-29 0 -44.5 18t-15.5 44
q0 28 16 46.5t47 18.5q29 0 45 -18t16 -45t-16 -45.5zM402 605.5q-16 -18.5 -48 -18.5q-29 0 -45 18t-16 44q0 28 16 46.5t48 18.5q29 0 45 -18t16 -45t-16 -45.5z" />
    <glyph glyph-name="igrave" unicode="&#xec;" horiz-adv-x="245" 
d="M78 27.5q-28 31.5 -28 81.5v389h114v-379q0 -23 7 -31t21 -8h8.5t8.5 1q4 0 9 1l12 -72q-7 -4 -18 -7q-9 -3 -22.5 -5t-30.5 -2q-53 0 -81 31.5zM106 539q-27 23 -56 50q-25 23 -55.5 55t-59.5 69l80 67l139 -190z" />
    <glyph glyph-name="iacute" unicode="&#xed;" horiz-adv-x="245" 
d="M78 27.5q-28 31.5 -28 81.5v389h114v-379q0 -23 7 -31t21 -8h8.5t8.5 1q4 0 9 1l12 -72q-7 -4 -18 -7q-9 -3 -22.5 -5t-30.5 -2q-53 0 -81 31.5zM56 590l140 190l79 -67q-30 -37 -60 -69t-55 -55q-29 -27 -56 -50z" />
    <glyph glyph-name="icircumflex" unicode="&#xee;" horiz-adv-x="245" 
d="M78 27.5q-28 31.5 -28 81.5v389h114v-379q0 -23 7 -31t21 -8h8.5t8.5 1q4 0 9 1l12 -72q-7 -4 -18 -7q-9 -3 -22.5 -5t-30.5 -2q-53 0 -81 31.5zM24 570.5q-29 -21.5 -42 -31.5l-46 50l170 192l171 -192l-47 -50q-11 8 -41 31t-83 71q-53 -49 -82 -70.5z" />
    <glyph glyph-name="idieresis" unicode="&#xef;" horiz-adv-x="245" 
d="M78 27.5q-28 31.5 -28 81.5v389h114v-379q0 -23 7 -31t21 -8h8.5t8.5 1q4 0 9 1l12 -72q-7 -4 -18 -7q-9 -3 -22.5 -5t-30.5 -2q-53 0 -81 31.5zM67.5 602q-15.5 -18 -45.5 -18q-27 0 -42 17.5t-15 41.5q0 27 15.5 44.5t44.5 17.5q28 0 43 -16.5t15 -42.5t-15.5 -44z
M233.5 602q-15.5 -18 -45.5 -18q-28 0 -43 17.5t-15 41.5q0 27 15.5 44.5t45.5 17.5q28 0 43 -16.5t15 -42.5t-15.5 -44z" />
    <glyph glyph-name="eth" unicode="&#xf0;" horiz-adv-x="517" 
d="M468 146q-14 -48 -42.5 -82.5t-71.5 -54t-100 -19.5t-98.5 18.5t-68.5 51.5t-39.5 79t-12.5 100q0 52 14 96.5t41.5 77.5t68 52t94.5 19q30 0 54 -8.5t41 -20.5q-11 28 -23 52.5t-25 46.5l-112 -31l-20 78l75 16l-54 42l58 70q56 -35 103 -86l122 32l20 -77l-94 -20
q42 -68 63 -151t21 -177q0 -56 -14 -104zM205.5 393q-18.5 -12 -29 -33t-14.5 -50t-4 -62q0 -34 4.5 -65.5t16.5 -55.5t32.5 -38.5t52.5 -14.5q29 0 47.5 13.5t29 36.5t14.5 53t4 63q0 34 -4.5 64t-16.5 52.5t-32.5 35.5t-52.5 13q-29 0 -47.5 -12z" />
    <glyph glyph-name="ntilde" unicode="&#xf1;" horiz-adv-x="549" 
d="M375 0v323q0 42 -15 67.5t-51 25.5q-23 0 -44.5 -11.5t-38.5 -33.5t-27.5 -53.5t-10.5 -70.5v-247h-114v252q0 60 -8 100.5t-17 65.5q-11 29 -24 47l90 36q10 -11 20 -27q8 -14 16 -34.5t13 -46.5q26 60 75 86.5t103 26.5q77 0 111.5 -46.5t34.5 -125.5v-334h-113z
M157 663q11 6 23 11q11 5 25 8.5t31 3.5q37 0 76.5 -10t76.5 -10q17 0 31.5 2t25.5 5q12 3 23 7v-74q-11 -7 -23 -12q-11 -5 -25.5 -8t-31.5 -3q-37 0 -76.5 10t-76.5 10q-17 0 -31 -2.5t-25 -4.5q-12 -4 -23 -7v74z" />
    <glyph glyph-name="ograve" unicode="&#xf2;" horiz-adv-x="517" 
d="M430 442q52 -68 52 -187q0 -56 -14 -104.5t-42.5 -84t-71.5 -56t-100 -20.5t-98.5 17.5t-68.5 50.5t-39.5 80t-12.5 106q0 57 14 105.5t42.5 84t71.5 56t100 20.5q115 0 167 -68zM205.5 413q-18.5 -13 -29 -36.5t-14.5 -55t-4 -67.5q0 -37 4.5 -70t16.5 -57.5t32.5 -38.5
t52.5 -14q29 0 47.5 13t29 36.5t14.5 54.5t4 67q0 37 -4.5 70t-16.5 58t-32.5 39t-52.5 14q-29 0 -47.5 -13zM257 538q-34 22 -69 48q-30 23 -65 54t-64 68l76 71l170 -189z" />
    <glyph glyph-name="oacute" unicode="&#xf3;" horiz-adv-x="517" 
d="M430 442q52 -68 52 -187q0 -56 -14 -104.5t-42.5 -84t-71.5 -56t-100 -20.5t-98.5 17.5t-68.5 50.5t-39.5 80t-12.5 106q0 57 14 105.5t42.5 84t71.5 56t100 20.5q115 0 167 -68zM205.5 413q-18.5 -13 -29 -36.5t-14.5 -55t-4 -67.5q0 -37 4.5 -70t16.5 -57.5t32.5 -38.5
t52.5 -14q29 0 47.5 13t29 36.5t14.5 54.5t4 67q0 37 -4.5 70t-16.5 58t-32.5 39t-52.5 14q-29 0 -47.5 -13zM200 590l170 189l76 -71q-30 -37 -64.5 -68t-63.5 -54q-34 -26 -69 -48z" />
    <glyph glyph-name="ocircumflex" unicode="&#xf4;" horiz-adv-x="517" 
d="M430 442q52 -68 52 -187q0 -56 -14 -104.5t-42.5 -84t-71.5 -56t-100 -20.5t-98.5 17.5t-68.5 50.5t-39.5 80t-12.5 106q0 57 14 105.5t42.5 84t71.5 56t100 20.5q115 0 167 -68zM205.5 413q-18.5 -13 -29 -36.5t-14.5 -55t-4 -67.5q0 -37 4.5 -70t16.5 -57.5t32.5 -38.5
t52.5 -14q29 0 47.5 13t29 36.5t14.5 54.5t4 67q0 37 -4.5 70t-16.5 58t-32.5 39t-52.5 14q-29 0 -47.5 -13zM76 592l188 187l187 -187l-43 -54l-11 7q-12 7 -32.5 20.5t-46.5 33t-54 43.5q-29 -25 -55.5 -44t-46.5 -32.5t-31 -20.5l-12 -7z" />
    <glyph glyph-name="otilde" unicode="&#xf5;" horiz-adv-x="517" 
d="M430 442q52 -68 52 -187q0 -56 -14 -104.5t-42.5 -84t-71.5 -56t-100 -20.5t-98.5 17.5t-68.5 50.5t-39.5 80t-12.5 106q0 57 14 105.5t42.5 84t71.5 56t100 20.5q115 0 167 -68zM205.5 413q-18.5 -13 -29 -36.5t-14.5 -55t-4 -67.5q0 -37 4.5 -70t16.5 -57.5t32.5 -38.5
t52.5 -14q29 0 47.5 13t29 36.5t14.5 54.5t4 67q0 37 -4.5 70t-16.5 58t-32.5 39t-52.5 14q-29 0 -47.5 -13zM95 663q11 6 23 11q11 5 25 8.5t31 3.5q37 0 76.5 -10t76.5 -10q17 0 31.5 2t25.5 5q12 3 23 7v-74q-11 -7 -23 -12q-11 -5 -25.5 -8t-31.5 -3q-37 0 -76.5 10
t-76.5 10q-17 0 -31 -2.5t-25 -4.5q-12 -4 -23 -7v74z" />
    <glyph glyph-name="odieresis" unicode="&#xf6;" horiz-adv-x="517" 
d="M430 442q52 -68 52 -187q0 -56 -14 -104.5t-42.5 -84t-71.5 -56t-100 -20.5t-98.5 17.5t-68.5 50.5t-39.5 80t-12.5 106q0 57 14 105.5t42.5 84t71.5 56t100 20.5q115 0 167 -68zM205.5 413q-18.5 -13 -29 -36.5t-14.5 -55t-4 -67.5q0 -37 4.5 -70t16.5 -57.5t32.5 -38.5
t52.5 -14q29 0 47.5 13t29 36.5t14.5 54.5t4 67q0 37 -4.5 70t-16.5 58t-32.5 39t-52.5 14q-29 0 -47.5 -13zM202 605.5q-16 -18.5 -48 -18.5q-29 0 -44.5 18t-15.5 44q0 28 16 46.5t47 18.5q29 0 45 -18t16 -45t-16 -45.5zM402 605.5q-16 -18.5 -48 -18.5q-29 0 -45 18
t-16 44q0 28 16 46.5t48 18.5q29 0 45 -18t16 -45t-16 -45.5z" />
    <glyph glyph-name="divide" unicode="&#xf7;" horiz-adv-x="511" 
d="M297.5 421q-15.5 -18 -45.5 -18q-28 0 -43 17.5t-15 41.5q0 27 15.5 45t45.5 18q28 0 43 -17t15 -43t-15.5 -44zM60 346h391v-89h-391v89zM297.5 92q-15.5 -18 -45.5 -18q-28 0 -43 17.5t-15 41.5q0 27 15.5 45t45.5 18q28 0 43 -17t15 -43t-15.5 -44z" />
    <glyph glyph-name="oslash" unicode="&#xf8;" horiz-adv-x="517" 
d="M334 502l25 51l77 -35l-27 -55q38 -33 55.5 -85.5t17.5 -122.5q0 -56 -14 -104.5t-42.5 -84t-71.5 -56t-100 -20.5q-37 0 -71 8l-25 -52l-78 35l27 56q-37 32 -54.5 84.5t-17.5 122.5q0 57 14 105.5t42.5 84t71.5 56t100 20.5q37 0 71 -8zM205.5 413q-18.5 -13 -29 -36.5
t-14.5 -55t-4 -67.5q0 -26 2 -50t7 -44l126 258q-18 8 -40 8q-29 0 -47.5 -13zM349 340l-125 -259q15 -7 40 -7q29 0 47.5 13t29 36.5t14.5 54.5t4 67q0 55 -10 95z" />
    <glyph glyph-name="ugrave" unicode="&#xf9;" horiz-adv-x="549" 
d="M361 498h114v-257q0 -60 7.5 -100.5t16.5 -65.5q11 -30 24 -47l-89 -36q-12 11 -22 28q-8 14 -16.5 34.5t-11.5 48.5q-27 -59 -76 -84t-102 -25q-79 0 -112.5 46t-33.5 126v332h114v-330q0 -42 15 -66t51 -24q22 0 43.5 12.5t39 35.5t28 55.5t10.5 72.5v244zM271 538
q-34 22 -69 48q-30 23 -65 54t-64 68l76 71l170 -189z" />
    <glyph glyph-name="uacute" unicode="&#xfa;" horiz-adv-x="549" 
d="M361 498h114v-257q0 -60 7.5 -100.5t16.5 -65.5q11 -30 24 -47l-89 -36q-12 11 -22 28q-8 14 -16.5 34.5t-11.5 48.5q-27 -59 -76 -84t-102 -25q-79 0 -112.5 46t-33.5 126v332h114v-330q0 -42 15 -66t51 -24q22 0 43.5 12.5t39 35.5t28 55.5t10.5 72.5v244zM214 590
l170 189l76 -71q-30 -37 -64.5 -68t-63.5 -54q-34 -26 -69 -48z" />
    <glyph glyph-name="ucircumflex" unicode="&#xfb;" horiz-adv-x="549" 
d="M361 498h114v-257q0 -60 7.5 -100.5t16.5 -65.5q11 -30 24 -47l-89 -36q-12 11 -22 28q-8 14 -16.5 34.5t-11.5 48.5q-27 -59 -76 -84t-102 -25q-79 0 -112.5 46t-33.5 126v332h114v-330q0 -42 15 -66t51 -24q22 0 43.5 12.5t39 35.5t28 55.5t10.5 72.5v244zM91 592
l188 187l187 -187l-43 -54l-11 7q-12 7 -32.5 20.5t-46.5 33t-54 43.5q-29 -25 -55.5 -44t-46.5 -32.5t-31 -20.5l-12 -7z" />
    <glyph glyph-name="udieresis" unicode="&#xfc;" horiz-adv-x="549" 
d="M361 498h114v-257q0 -60 7.5 -100.5t16.5 -65.5q11 -30 24 -47l-89 -36q-12 11 -22 28q-8 14 -16.5 34.5t-11.5 48.5q-27 -59 -76 -84t-102 -25q-79 0 -112.5 46t-33.5 126v332h114v-330q0 -42 15 -66t51 -24q22 0 43.5 12.5t39 35.5t28 55.5t10.5 72.5v244zM217 605.5
q-16 -18.5 -48 -18.5q-29 0 -44.5 18t-15.5 44q0 28 16 46.5t47 18.5q29 0 45 -18t16 -45t-16 -45.5zM417 605.5q-16 -18.5 -48 -18.5q-29 0 -45 18t-16 44q0 28 16 46.5t48 18.5q29 0 45 -18t16 -45t-16 -45.5z" />
    <glyph glyph-name="yacute" unicode="&#xfd;" horiz-adv-x="538" 
d="M472 202q0 -30 4.5 -55t10 -49.5t10.5 -49.5t5 -55q0 -106 -54 -158t-146 -52q-30 0 -60 5.5t-55.5 12.5t-43.5 14t-24 10l28 87q14 -6 31.5 -12.5t36 -12.5t38.5 -10t39 -4q56 0 81 33.5t25 86.5q0 48 -20 99q-28 -53 -74.5 -75.5t-97.5 -22.5q-79 0 -112.5 46
t-33.5 126v332h114v-329q0 -42 15 -66t51 -24q19 0 40.5 11t39 30.5t29 47t11.5 59.5v271h117zM211 590l170 189l76 -71q-30 -37 -64.5 -68t-63.5 -54q-34 -26 -69 -48z" />
    <glyph glyph-name="thorn" unicode="&#xfe;" horiz-adv-x="532" 
d="M179 437q39 69 134 69q47 0 81.5 -17.5t57.5 -50t34 -78.5t11 -102q0 -57 -17.5 -105.5t-49 -83.5t-75.5 -55t-97 -20q-20 0 -39.5 2t-39.5 4v-201l-114 -20v926l114 20v-288zM249 409q-21 -16 -36.5 -42.5t-24.5 -61t-9 -70.5v-151q9 -2 29 -6t37 -4q37 0 62 13t40 36
t21 55t6 70q0 35 -2 67t-10.5 56.5t-24.5 39t-43 14.5q-24 0 -45 -16z" />
    <glyph glyph-name="ydieresis" unicode="&#xff;" horiz-adv-x="538" 
d="M472 202q0 -30 4.5 -55t10 -49.5t10.5 -49.5t5 -55q0 -106 -54 -158t-146 -52q-30 0 -60 5.5t-55.5 12.5t-43.5 14t-24 10l28 87q14 -6 31.5 -12.5t36 -12.5t38.5 -10t39 -4q56 0 81 33.5t25 86.5q0 48 -20 99q-28 -53 -74.5 -75.5t-97.5 -22.5q-79 0 -112.5 46
t-33.5 126v332h114v-329q0 -42 15 -66t51 -24q19 0 40.5 11t39 30.5t29 47t11.5 59.5v271h117zM213 605.5q-16 -18.5 -48 -18.5q-29 0 -44.5 18t-15.5 44q0 28 16 46.5t47 18.5q29 0 45 -18t16 -45t-16 -45.5zM413 605.5q-16 -18.5 -48 -18.5q-29 0 -45 18t-16 44
q0 28 16 46.5t48 18.5q29 0 45 -18t16 -45t-16 -45.5z" />
    <glyph glyph-name="dotlessi" unicode="&#x131;" horiz-adv-x="245" 
d="M78 27.5q-28 31.5 -28 81.5v389h114v-379q0 -23 7 -31t21 -8h8.5t8.5 1q4 0 9 1l12 -72q-7 -4 -18 -7q-9 -3 -22.5 -5t-30.5 -2q-53 0 -81 31.5z" />
    <glyph glyph-name="OE" unicode="&#x152;" horiz-adv-x="854" 
d="M367.5 -4q-21.5 -2 -39.5 -2q-75 0 -128.5 22.5t-88 66t-50.5 105.5t-16 142q0 78 17.5 143.5t54 113t92.5 73.5t132 26q27 0 47.5 -2.5t34.5 -6.5h391v-90h-284v-189h234l-15 -91h-219v-217h299v-90h-418q-22 -2 -43.5 -4zM374.5 88q18.5 2 37.5 4v489q-14 5 -35 9
t-50 4q-44 0 -73 -19.5t-47 -53.5t-25.5 -80t-7.5 -100q0 -51 7 -97t25.5 -81t51 -56t84.5 -21q14 0 32.5 2z" />
    <glyph glyph-name="oe" unicode="&#x153;" horiz-adv-x="800" 
d="M361 488.5q41 -21.5 67 -56.5q32 38 76.5 58t98.5 20q44 0 75.5 -11t51.5 -30t29.5 -45t9.5 -56q0 -36 -20 -68.5t-57 -57t-90.5 -39t-119.5 -15.5q3 -23 9.5 -43.5t19 -36t32.5 -24.5t50 -9q22 0 47 5t46 12q25 8 49 18l30 -71q-26 -13 -56 -23q-26 -9 -59.5 -16
t-71.5 -7q-58 0 -98 19t-66 52q-28 -34 -67.5 -54t-92.5 -20q-57 0 -98.5 17.5t-68.5 50.5t-39.5 80t-12.5 106q0 57 14 105.5t42.5 84t71.5 56t100 20.5t98 -21.5zM205.5 413q-18.5 -13 -29 -36.5t-14.5 -55t-4 -67.5q0 -37 4.5 -70t16.5 -57.5t32.5 -38.5t52.5 -14
q29 0 47.5 13t29 36.5t14.5 54.5t4 67q0 37 -4.5 70t-16.5 58t-32.5 39t-52.5 14q-29 0 -47.5 -13zM539.5 416.5q-21.5 -15.5 -34.5 -40t-18.5 -55t-6.5 -61.5q48 2 81.5 12.5t54.5 26t30.5 33.5t9.5 36q0 29 -17.5 46.5t-44.5 17.5q-33 0 -54.5 -15.5z" />
    <glyph glyph-name="Ydieresis" unicode="&#x178;" horiz-adv-x="543" 
d="M210 259l-210 418h129l142 -307l145 307h126l-213 -423v-254h-119v259zM217 765.5q-16 -18.5 -48 -18.5q-29 0 -44.5 18t-15.5 44q0 28 16 46.5t47 18.5q29 0 45 -18t16 -45t-16 -45.5zM417 765.5q-16 -18.5 -48 -18.5q-29 0 -45 18t-16 44q0 28 16 46.5t48 18.5
q29 0 45 -18t16 -45t-16 -45.5z" />
    <glyph glyph-name="apostrophe" unicode="&#x2bc;" horiz-adv-x="231" 
d="M93 715.5q15 8.5 50 8.5t51 -21t16 -53q0 -41 -11.5 -74t-30.5 -60t-43.5 -47t-51.5 -33l-43 58q39 29 52.5 58t13.5 56q0 29 -9 54t-10 44q1 1 16 9.5z" />
    <glyph glyph-name="circumflex" unicode="&#x2c6;" 
d="M70 592l188 187l187 -187l-43 -54l-11 7q-12 7 -32.5 20.5t-46.5 33t-54 43.5q-29 -25 -55.5 -44t-46.5 -32.5t-31 -20.5l-12 -7z" />
    <glyph glyph-name="ring" unicode="&#x2da;" 
d="M179.5 797.5q28.5 28.5 72.5 28.5q43 0 70.5 -28t27.5 -72q0 -43 -28.5 -72t-72.5 -29q-43 0 -70.5 29t-27.5 72t28.5 71.5zM218.5 689q11.5 -15 31.5 -15q21 0 32.5 14t11.5 38q0 23 -11.5 36.5t-32.5 13.5q-43 0 -43 -49q0 -23 11.5 -38z" />
    <glyph glyph-name="tilde" unicode="&#x2dc;" 
d="M94 663q11 6 23 11q11 5 25 8.5t31 3.5q37 0 76.5 -10t76.5 -10q17 0 31.5 2t25.5 5q12 3 23 7v-74q-11 -7 -23 -12q-11 -5 -25.5 -8t-31.5 -3q-37 0 -76.5 10t-76.5 10q-17 0 -31 -2.5t-25 -4.5q-12 -4 -23 -7v74z" />
    <glyph glyph-name="endash" unicode="&#x2013;" 
d="M0 361h500v-83h-500v83z" />
    <glyph glyph-name="emdash" unicode="&#x2014;" horiz-adv-x="698" 
d="M0 361h698v-83h-698v83z" />
    <glyph glyph-name="quoteleft" unicode="&#x2018;" horiz-adv-x="230" 
d="M136.5 442.5q-14.5 -8.5 -49.5 -8.5t-51 21t-16 53q0 40 11.5 73.5t30.5 60.5t43.5 46.5t51.5 33.5l43 -58q-40 -29 -53.5 -58t-13.5 -56q0 -29 9 -54t10 -44q-1 -1 -15.5 -9.5z" />
    <glyph glyph-name="quoteright" unicode="&#x2019;" horiz-adv-x="230" 
d="M93 715.5q15 8.5 50 8.5t51 -21t16 -53q0 -41 -11.5 -74t-30.5 -60t-43.5 -47t-51.5 -33l-43 58q39 29 52.5 58t13.5 56q0 29 -9 54t-10 44q1 1 16 9.5z" />
    <glyph glyph-name="quotesinglbase" unicode="&#x201a;" horiz-adv-x="230" 
d="M93 132.5q15 8.5 50 8.5t51 -21t16 -53q0 -41 -11.5 -74t-30.5 -60t-43.5 -47t-51.5 -33l-43 58q39 29 52.5 58t13.5 56q0 29 -9 54t-10 44q1 1 16 9.5z" />
    <glyph glyph-name="quotedblleft" unicode="&#x201c;" horiz-adv-x="430" 
d="M136.5 442.5q-14.5 -8.5 -49.5 -8.5t-51 21t-16 53q0 40 11.5 73.5t30.5 60.5t43.5 46.5t51.5 33.5l43 -58q-40 -29 -53.5 -58t-13.5 -56q0 -29 9 -54t10 -44q-1 -1 -15.5 -9.5zM336.5 442.5q-14.5 -8.5 -49.5 -8.5t-51.5 21t-16.5 53q0 40 11.5 73.5t31 60.5t44 46.5
t51.5 33.5l42 -58q-39 -29 -52.5 -58t-13.5 -56q0 -29 9 -54t10 -44q-1 -1 -15.5 -9.5z" />
    <glyph glyph-name="quotedblright" unicode="&#x201d;" horiz-adv-x="430" 
d="M93 718.5q15 8.5 50 8.5t51 -21t16 -53q0 -41 -11.5 -74t-30.5 -60t-43.5 -47t-51.5 -33l-43 58q39 29 52.5 58t13.5 56q0 29 -9 54t-10 44q1 1 16 9.5zM292.5 718.5q14.5 8.5 49.5 8.5t51.5 -21t16.5 -53q0 -41 -11.5 -74t-31 -60t-44 -47t-51.5 -33l-42 58
q39 29 52.5 58t13.5 56q0 29 -9 54t-10 44q1 1 15.5 9.5z" />
    <glyph glyph-name="quotedblbase" unicode="&#x201e;" horiz-adv-x="430" 
d="M93 132.5q15 8.5 50 8.5t51 -21t16 -53q0 -41 -11.5 -74t-30.5 -60t-43.5 -47t-51.5 -33l-43 58q39 29 52.5 58t13.5 56q0 29 -9 54t-10 44q1 1 16 9.5zM292.5 132.5q14.5 8.5 49.5 8.5t51.5 -21t16.5 -53q0 -41 -11.5 -74t-31 -60t-44 -47t-51.5 -33l-42 58
q39 29 52.5 58t13.5 56q0 29 -9 54t-10 44q1 1 15.5 9.5z" />
    <glyph glyph-name="bullet" unicode="&#x2022;" horiz-adv-x="314" 
d="M79 394q29 29 78 29t78 -29t29 -78t-29 -78t-78 -29t-78 29t-29 78t29 78z" />
    <glyph glyph-name="guilsinglleft" unicode="&#x2039;" horiz-adv-x="347" 
d="M312 408l-130 -163l130 -163l-47 -54q-40 35 -79 72q-33 32 -70 70t-66 75q29 37 66 75t70 70q39 37 79 72z" />
    <glyph glyph-name="guilsinglright" unicode="&#x203a;" horiz-adv-x="347" 
d="M83 462q39 -35 78 -72q33 -32 70 -70t66 -75q-29 -37 -66 -75t-70 -70q-39 -37 -78 -72l-48 54l130 163l-130 163z" />
    <glyph glyph-name="fraction" unicode="&#x2044;" horiz-adv-x="328" 
d="M254 587h94l-274 -587h-94z" />
    <glyph glyph-name="uni2074" unicode="&#x2074;" horiz-adv-x="329" 
d="M260 482h49l-10 -62h-39v-84h-83v84h-157v39l90 218h83l-84 -195h68v92l83 20v-112z" />
    <glyph glyph-name="Euro" unicode="&#x20ac;" horiz-adv-x="554" 
d="M95 424q25 100 91 159.5t162 59.5q57 0 92.5 -21t57.5 -47l-57 -71q-22 24 -47 37t-58 13q-44 0 -74.5 -36t-44.5 -94h216l-15 -89h-213q0 -5 -0.5 -10.5t-0.5 -15.5q0 -14 3 -35h206l-15 -88h-174q17 -48 47 -75.5t74 -27.5q22 0 42 3.5t36.5 8t27.5 8.5t14 5l25 -82
q1 0 -11.5 -5t-35 -11t-53 -11t-66.5 -5q-83 0 -143.5 48.5t-85.5 143.5h-60v88h48q-1 8 -1 17v18v13t1 13h-48v89h60z" />
    <glyph glyph-name="minus" unicode="&#x2212;" horiz-adv-x="458" 
d="M61 346h337v-89h-337v89z" />
    <glyph glyph-name="uni2215" unicode="&#x2215;" horiz-adv-x="417" 
d="M308 729h119l-318 -855h-119z" />
    </font>
</defs>
</svg>
