<?xml version="1.0" standalone="no"?>
<!DOCTYPE svg PUBLIC "-//W3C//DTD SVG 1.1//EN" "http://www.w3.org/Graphics/SVG/1.1/DTD/svg11.dtd" >
<svg xmlns="http://www.w3.org/2000/svg" xmlns:xlink="http://www.w3.org/1999/xlink" version="1.1">
<metadata>
Created by FontForge 20161013 at Fri Jul  1 18:25:54 2011
 By ,,,
Copyright (c) 2010, Kimberly Geswein (kimberlygeswein.com)
</metadata>
<defs>
<font id="ArchitectsDaughter" horiz-adv-x="155" >
  <font-face 
    font-family="Architects Daughter"
    font-weight="400"
    font-stretch="normal"
    units-per-em="1024"
    panose-1="0 0 0 0 0 0 0 0 0 0"
    ascent="819"
    descent="-205"
    x-height="433"
    cap-height="582"
    bbox="-124 -431 1226 1010"
    underline-thickness="0"
    underline-position="0"
    unicode-range="U+0020-FB02"
  />
<missing-glyph horiz-adv-x="692" 
 />
    <glyph glyph-name=".notdef" horiz-adv-x="692" 
 />
    <glyph glyph-name=".null" horiz-adv-x="0" 
 />
    <glyph glyph-name="nonmarkingreturn" horiz-adv-x="692" 
 />
    <glyph glyph-name="space" unicode=" " horiz-adv-x="410" 
 />
    <glyph glyph-name="space" unicode="&#xa0;" horiz-adv-x="410" 
 />
    <glyph glyph-name="exclam" unicode="!" horiz-adv-x="138" 
d="M63 67q42 0 51.5 -8t9.5 -17q-11 -40 -48 -48q-6 -1 -13 -1t-17.5 4t-15.5 14q-11 25 33 56zM110 901q-6 -26 -6 -324.5t-15 -343.5h-67q0 103 8 258q14 301 14 406z" />
    <glyph glyph-name="quotedbl" unicode="&#x22;" horiz-adv-x="242" 
d="M146 594l1 28l-1 41q0 83 36 100l17 -16v-199l16 -34q-3 -3 -15.5 -9.5t-17.5 -6.5q-36 0 -36 96zM54 585l1 29l-1 42q0 83 36 100l16 -16v-199l17 -34q-4 -4 -16 -10.5t-17 -6.5q-36 0 -36 95z" />
    <glyph glyph-name="numbersign" unicode="#" horiz-adv-x="653" 
d="M86 339q0 29 42 29q18 0 36.5 -4.5t21.5 -4.5v89q-14 0 -45 5t-47.5 7.5t-23.5 4.5q-14 8 -14 16.5t14 16.5q7 1 23.5 4t34.5 6q49 6 58 6v116q0 14 13 16.5t21 2.5t20.5 -2.5t12.5 -16.5v-109l100 10v133h50l33 -133h176q0 -54 -73 -54q-29 0 -62.5 5.5t-40.5 5.5v-102
q60 0 116.5 8t116.5 8v-20q0 -31 -161 -43q-26 -2 -46 -3.5t-26 -3.5q-2 -32 -3.5 -55t-8.5 -38q-15 -29 -71 -29v99q-22 2 -42.5 2t-38 -5t-22 -17t1.5 -27t9.5 -28.5t-3.5 -23.5t-38 -12h-8q-7 0 -9 1q-5 98 -61 119q-22 8 -39 9t-17 12zM355 480.5q-6 1.5 -15 1.5
t-23.5 -1.5t-28.5 -3.5q-35 -5 -35 -12v-106q61 0 79 7q38 15 38 66q0 34 -4.5 40.5t-10.5 8z" />
    <glyph glyph-name="dollar" unicode="$" horiz-adv-x="570" 
d="M343 199l18 -165v-11q0 -15 -39 -23q-21 -4 -53 -4l-14 198q7 -20 -71 -20l-28 1q-4 2 -6 16q-5 24 -8 30q9 18 95 25q18 2 24 3v133h-24q-155 0 -209 46q-17 15 -17 38q-2 10 -2 29t20 47.5t56 51.5q66 42 143 54v232h49l33 -199h200v-42l-182 -25l-1 -191h227
q1 -9 1 -29t-10.5 -47t-30.5 -47.5t-46 -34t-50.5 -24t-44.5 -20t-30 -22.5zM478 373q-10 16 -46 16q-25 0 -53.5 -7t-41.5 -13l6 -87q135 39 135 91zM159 430l43 1h26t20.5 0.5t12.5 0.5l-17 149q0 1 -7.5 2.5t-19.5 1.5t-35 -10t-44 -26q-47 -37 -47 -77q0 -42 68 -42z
" />
    <glyph glyph-name="percent" unicode="%" horiz-adv-x="531" 
d="M312 87q-9 15 -9 41.5t12 46.5q20 33 60 33q26 0 49 -12q47 -25 51 -71q0 -50 -21 -66.5t-61 -16.5q-31 0 -51.5 15t-29.5 30zM428 142q-22 23 -49 23q-31 0 -37 -29v-13.5t12 -28.5q18 -15 36 -17q36 -4 44 29v13.5t-6 22.5zM40 466q-9 15 -9 41.5t12 46.5q20 33 60 33
q26 0 49 -12q47 -25 51 -71q0 -50 -21 -66.5t-61 -16.5q-31 0 -51.5 15t-29.5 30zM156 521q-22 23 -49 23q-31 0 -37 -30v-12.5t12 -28.5q18 -15 35.5 -17t28.5 6q16 12 16 28.5t-6 30.5zM77 3q-15 0 -15 27v9q0 33 169 299q101 159 140.5 210.5t43.5 51.5q5 3 8.5 3
t3.5 -10.5t-15.5 -45.5t-40 -80.5t-54 -97.5t-63 -106.5t-65.5 -103.5q-73 -111 -112 -156z" />
    <glyph glyph-name="ampersand" unicode="&#x26;" horiz-adv-x="686" 
d="M622 76q0 -28 -44 -28q-29 0 -75 27q-17 10 -34.5 18.5t-38.5 8.5q-31 -16 -68 -36q-128 -68 -225 -68l-32 2h-5.5t-21.5 4q-44 11 -66 31q-7 7 -7 13.5t2 10.5l182 290q-44 76 -55 107q-16 49 -16 115q8 102 68 169q47 51 94 51q36 0 55 -35q13 -22 13 -62
q0 -117 -110 -328q3 -40 94 -116q44 -37 75 -55t39 -18q57 32 78 53t31 34t22 28q30 39 72 78q10 0 22 -9.5t11 -12t-9 -17.5t-29 -41q-54 -66 -157 -141q135 -67 135 -73zM80 62q0 -18 17 -18q3 0 26.5 0.5t59 6t68.5 16.5q57 19 136 66l-166 166q-24 -24 -56 -72
q-85 -124 -85 -165zM205 415q46 26 72 119q20 71 20 143l1 26q0 18 -8.5 23t-30 5t-40.5 -18.5t-31 -45.5q-22 -49 -22 -121t39 -131z" />
    <glyph glyph-name="quotesingle" unicode="'" horiz-adv-x="166" 
d="M104 619q24 0 24 -35q0 -41 -34 -108q-10 -20 -19 -34l-48 -4l56 176q12 5 21 5z" />
    <glyph glyph-name="parenleft" unicode="(" horiz-adv-x="305" 
d="M199 34q0 -20 -30.5 -20t-52.5 21.5t-39 55t-28.5 74t-18.5 79.5q-15 74 -15 109.5t8 83t23 103.5t36.5 113.5t47.5 104.5q59 106 119 106q11 0 19.5 -2t13.5 -15q-94 -133 -124.5 -198t-45 -123.5t-14.5 -118t16 -106t34.5 -90.5t34.5 -88t16 -89z" />
    <glyph glyph-name="parenright" unicode=")" horiz-adv-x="360" 
d="M28 763l-2 16q0 23 12 29.5t32 6.5q83 0 148 -93q78 -115 105 -300q7 -49 7 -76.5t-6.5 -61t-19 -71t-30 -75.5t-40.5 -69q-50 -69 -106 -69q-4 0 -10.5 6t-6.5 10q17 42 43 78.5t50 73t41 76t17 104t-18.5 124.5t-50.5 109t-74.5 92t-90.5 90z" />
    <glyph glyph-name="asterisk" unicode="*" horiz-adv-x="520" 
d="M82 190q71 129 77 181q0 22 -36 45q-15 9 -31 18q-53 31 -53 72q0 10 3 22q37 -1 60 -14t42 -26q39 -28 61 -28q10 0 20 2l82 216q8 21 56 21q0 -37 -10.5 -90.5t-15.5 -82.5t-5 -60q31 0 76 11.5t68.5 17t49.5 5.5q0 -32 -15 -49.5t-38 -28t-49 -17t-49 -16.5
q-53 -23 -53 -75q0 -30 12 -65q24 -66 24 -89.5t-14.5 -30.5t-36.5 -16q-20 10 -28 30.5t-13 44t-13 44t-28 30.5q-18 -15 -33.5 -37.5t-33 -43.5t-37.5 -36t-46 -15q-4 0 -10.5 6t-6.5 10q9 18 24 44z" />
    <glyph glyph-name="plus" unicode="+" horiz-adv-x="537" 
d="M210 482q0 19 35 19q17 0 22 -6.5t8 -21.5t6 -34t5.5 -40t5 -40t2.5 -26h220q0 -39 -94 -45q-26 -1 -50 -2q-65 -1 -76 -4q-2 -14 -2 -27.5t2 -34.5t7 -52q10 -63 10 -84.5t-1 -33.5q-20 -16 -44 -16q-19 0 -22 16q-2 21 -4 48.5t-6 57.5q-10 75 -24 110q-27 0 -64 -11
q-75 -22 -105.5 -22.5t-30.5 25.5q0 27 100 32q60 4 80 10t20 16v166z" />
    <glyph glyph-name="comma" unicode="," horiz-adv-x="182" 
d="M48 86q6 13 14 15t17 2t17 -2q14 -4 20 -17v-5.5t-4 -13t-12.5 -25t-18.5 -32t-20 -31.5t-14.5 -23t-11.5 -15q-24 -24 -45 -24q-6 0 -12 2z" />
    <glyph glyph-name="hyphen" unicode="-" horiz-adv-x="318" 
d="M80 216q-50 0 -50 26q0 13 11.5 18t40 9t72 12t91.5 13q20 0 34 -7q20 -10 20 -24q0 -5 -4.5 -13t-22.5 -14z" />
    <glyph glyph-name="period" unicode="." horiz-adv-x="144" 
d="M46 -1q-23 2 -23 20q0 22 25 41q10 7 15.5 7t8.5 -1q21 0 28.5 -8.5t7.5 -22.5t-6 -21t-15 -10q-15 -5 -41 -5z" />
    <glyph glyph-name="slash" unicode="/" horiz-adv-x="466" 
d="M39 0q-18 0 -18 32v10q15 44 395 614q19 29 22 33q5 -3 5 -14t-12 -46t-43.5 -101t-76 -144.5t-92.5 -153.5q-111 -172 -180 -230z" />
    <glyph glyph-name="zero" unicode="0" horiz-adv-x="646" 
d="M116 44q-36 23 -57 57.5t-21 74.5t12 95t30.5 102t45 91t60.5 78q75 73 170 73q128 0 196 -94q63 -85 63 -211q0 -149 -95 -232q-93 -80 -247 -80q-89 0 -157 46zM97 183q0 -135 192 -135q138 0 207.5 71t69.5 202v8q0 115 -57 176t-156 61h-19.5h-15.5q-53 0 -105 -72
q-49 -66 -84 -169q-32 -94 -32 -142z" />
    <glyph glyph-name="one" unicode="1" horiz-adv-x="131" 
d="M28 16q0 19 1.5 59.5t3 91.5t3.5 107t3.5 107t2.5 91t2 60q-2 22 8 28t22.5 6t22 -2t13.5 -16l-16 -514q-2 -18 -28 -25.5t-38 7.5z" />
    <glyph glyph-name="two" unicode="2" horiz-adv-x="586" 
d="M538 167q33 0 33 -25t-22 -36.5t-49.5 -16.5t-51.5 -5.5t-30.5 -2t-29 -8t-53.5 -15t-67 -18.5q-113 -30 -180 -30q-34 0 -45.5 10.5t-4.5 29.5q75 66 156 170q121 155 121 242q0 17 -5 32q-11 31 -57 40q-44 0 -72 -18t-52.5 -40t-50 -40t-62.5 -18q1 33 27 64
q52 64 147 92q34 11 54 11t30 -1q39 -4 67 -28t33 -74q0 -141 -132 -313q-36 -47 -71 -87q11 -1 34.5 -1t64.5 11.5t87 28t91 31.5t90 15z" />
    <glyph glyph-name="three" unicode="3" horiz-adv-x="521" 
d="M482 507q0 -60 -96 -141q-24 -19 -41 -34q123 -2 147 -58q5 -13 5 -27t-7.5 -37.5t-31.5 -55.5t-58 -62q-71 -62 -150 -86q-27 -8 -43.5 -8t-26.5 0.5t-21 6.5t-11 20q75 19 132 54t90 73q39 47 39 78t-19 42t-49 11q-76 0 -207 -62l-35 45q303 140 303 201q0 26 -57 34
q-59 0 -134.5 -20t-116.5 -29t-84 -9q0 47 23 55q42 10 89 22q154 39 246.5 39t113.5 -52z" />
    <glyph glyph-name="four" unicode="4" horiz-adv-x="697" 
d="M397 -15q-21 0 -24 12l4 198h-73l-120 1h-72q-13 0 -26 4t-13 21q53 68 103 137q159 217 218 217q66 0 66 -232q0 -30 -1 -64l221 3q0 -26 -6.5 -38t-11.5 -13l-185 -15q-14 -39 -17 -88q-5 -80 -5 -134zM377 482q-22 -30 -53.5 -58.5t-61.5 -57t-54 -57.5t-30 -60h31
t69 5.5t99 11.5v216z" />
    <glyph glyph-name="five" unicode="5" horiz-adv-x="725" 
d="M27 289l7 69q7 58 16 140l12 100q4 13 12.5 15t23.5 2t22 -7.5t7.5 -18.5t-2.5 -25t-3 -27q70 0 139.5 15t138.5 33t138 33t139 15q10 0 18.5 -2.5t13.5 -16.5q-4 -12 -14 -20t-33.5 -16t-63.5 -16.5t-103 -22t-153.5 -32.5t-213.5 -47v-128q32 3 73 10q76 13 116 13
t66.5 -1t60.5 -14q73 -28 82 -115q0 -63 -34.5 -106.5t-86.5 -69.5q-98 -49 -228 -49q-28 0 -40 6t-12 26t16 38t36 18v-18q118 0 170 16.5t82.5 46t30.5 73.5t-18 64t-44 30q-40 16 -91 16t-77 -8t-51 -18q-67 -25 -102 -25h-16q-34 0 -34 24z" />
    <glyph glyph-name="six" unicode="6" horiz-adv-x="642" 
d="M22 282v27.5t13 65.5t36.5 84.5t55 78.5t68.5 66q80 61 160 61q14 0 23 -5t9 -15.5v-14.5q-120 -22 -201 -124q-81 -101 -81 -224q0 -40 19.5 -83t36 -63.5t36.5 -20.5q16 13 36.5 34t46 45.5t55.5 49t63 44.5q74 44 149 46q34 0 54 -30q19 -29 19 -64
q-15 -121 -114 -188q-81 -56 -186 -56q-65 0 -120 22q-112 44 -157 150q-21 50 -21 114zM554 233q0 34 -32 34t-70.5 -24t-75.5 -56q-48 -40 -114 -111q18 -3 39.5 -3t58.5 5t82 25t77 52.5t35 77.5z" />
    <glyph glyph-name="seven" unicode="7" horiz-adv-x="630" 
d="M310 0l-3 58v11q0 92 63 221q27 53 52 101t34 87q-54 0 -107 -3q-194 -11 -239.5 -11t-81.5 2q-11 5 -14.5 10t-3.5 14t3.5 14t14.5 10q19 -1 54 -1t95 7t128.5 17.5t136.5 19.5t136 9q16 0 24 -8t8 -15.5v-10.5q-174 -193 -214 -375q-8 -39 -8 -74t6 -67z" />
    <glyph glyph-name="eight" unicode="8" horiz-adv-x="664" 
d="M569.5 560.5q18.5 -19.5 17.5 -63.5t-50 -99q58 -23 74 -42t21.5 -39.5t5.5 -50.5q0 -68 -35.5 -118.5t-89.5 -83.5t-118.5 -49t-111.5 -16t-90.5 6.5t-81.5 23.5q-89 40 -89 120q0 25 16 49.5t34.5 46.5t34.5 41.5t16 34t-5.5 24t-12.5 18.5q-18 23 -18 51t16 56
t42.5 49.5t60.5 37t69 25.5q68 18 130 18q85 0 115.5 -10t49 -29.5zM103 160q0 -67 68 -94q47 -18 113 -18t116 14t88 42q85 61 85 164q-24 81 -151 81q-88 0 -175 -39q-83 -38 -121 -91q-20 -28 -23 -59zM505 534q-43 19 -107 19q-139 0 -202 -69q-22 -24 -26 -58
q0 -30 19 -45.5t49 -15.5q5 -1 15.5 -1t34.5 4.5t56 13.5t64.5 21.5t59.5 26.5q60 32 70 59q0 17 -8 31t-25 14z" />
    <glyph glyph-name="nine" unicode="9" horiz-adv-x="583" 
d="M247 0q-13 2 -22.5 15t-9.5 31q96 57 137.5 100.5t63.5 86.5t26 98q-10 1 -27 1t-47.5 -4.5t-65.5 -10.5q-80 -13 -103 -13t-45.5 1.5t-53 13.5t-56.5 39q-14 19 -14 34q0 74 101 146q82 59 163 75q20 4 37.5 4t33.5 -5q117 -36 150 -137q12 -37 12 -63t-2 -57t-19 -83.5
t-45.5 -100.5t-63.5 -85q-76 -82 -150 -86zM124 386q46 -20 114 -20q99 0 200 41q4 17 4 30t-2 29.5t-14 35.5q-28 43 -84 47q-147 0 -199 -85q-19 -32 -19 -78z" />
    <glyph glyph-name="colon" unicode=":" horiz-adv-x="171" 
d="M77 126q0 15 13.5 29t30.5 14t26 -11t9 -23.5t-9.5 -23t-17.5 -10.5h-14.5t-22 5t-15.5 20zM45 318q-14 4 -14 15q0 15 15 25t24 11q31 -4 39.5 -15.5t8.5 -18.5q0 -21 -26 -27q-4 -2 -14.5 -2t-32.5 12z" />
    <glyph glyph-name="semicolon" unicode=";" horiz-adv-x="127" 
d="M68 117q28 0 28 -32t-3.5 -68.5t-15.5 -72.5q-28 -81 -99 -110q83 283 90 283zM32 310q-6 4 -5 17.5t12 22.5t23.5 9t22.5 -9t11 -22q1 -30 -18 -30q-31 0 -46 12z" />
    <glyph glyph-name="less" unicode="&#x3c;" horiz-adv-x="487" 
d="M84 229q32 25 75 59t87 68q108 85 155 111q13 0 19 -22q3 -9 3 -18t-4 -15l-235 -179q15 -8 43 -20.5t62 -29.5q81 -40 142 -80q-1 -1 -4 -8t-7 -15q-9 -21 -11 -21q-30 19 -86 38.5t-90 33t-63 27.5q-68 34 -86 71z" />
    <glyph glyph-name="equal" unicode="=" horiz-adv-x="504" 
d="M94 139q-24 0 -24 35q0 3 6.5 9.5t10.5 6.5q77 13 142 20q125 15 196 29q34 0 34 -36q0 -7 -1 -14q-57 0 -100.5 -8t-83.5 -17q-105 -25 -180 -25zM114 270l-18 -1q-30 0 -32 18l20 36q3 3 82 12q164 17 196.5 23t38.5 6t13.5 -4.5t7.5 -14.5q0 -25 -17 -36z" />
    <glyph glyph-name="greater" unicode="&#x3e;" horiz-adv-x="483" 
d="M118 48q-45 17 -50 36v7q0 31 71 73q105 61 137 85.5t38 47.5l-264 99l50 49q49 -35 90.5 -49t80 -22.5t76.5 -20t79 -42.5q-26 -31 -65.5 -62.5t-83 -64.5t-86 -67t-73.5 -69z" />
    <glyph glyph-name="question" unicode="?" horiz-adv-x="518" 
d="M278 -2q-36 0 -36 35t36 35q7 2 15.5 2t17.5 -10.5t9 -26.5t-9 -26.5t-17.5 -10.5t-15.5 2zM280 273q-157 0 -157 50q0 8 4 18q134 74 175 100q130 82 130 135q0 47 -105 72q-43 0 -108 -11.5t-99 -17t-68 -5.5q-11 0 -24.5 15t-17.5 30q126 41 241 41q83 0 138 -20
q109 -38 109 -111q0 -67 -112 -149q-60 -44 -158 -88l115 -33v-23q-24 -3 -63 -3z" />
    <glyph glyph-name="at" unicode="@" horiz-adv-x="1068" 
d="M592 342q-107 -91 -184 -91q-36 0 -56 21q-23 23 -23 51.5t14 57.5q30 67 127 101q48 16 114 16q4 0 10 0.5t18.5 0.5t25 -6.5t20.5 -19.5t11.5 -29t10.5 -30q15 -33 49 -33q81 0 81 58q-9 80 -99 137q-81 52 -177 59q-84 0 -161 -30.5t-135.5 -85t-93.5 -129.5t-35 -164
q32 -95 147 -140q65 -25 176 -38q84 7 160.5 16.5t145.5 30.5q149 45 253 154q7 3 14.5 3t21 -5.5t15.5 -21.5q-2 -81 -150 -143q-118 -50 -288 -74q-88 -13 -134.5 -13t-58.5 4q-138 0 -241 37q-86 30 -124 93q-19 33 -19 78q0 97 40.5 183.5t108 151.5t155 102.5
t182.5 37.5q136 0 233 -58q50 -31 82 -79.5t32 -106.5t-30 -86q-46 -44 -119 -44t-119 34zM574 420q-4 20 -34 20q-34 0 -70 -17q-67 -32 -86 -69q-6 -11 -6 -19.5t4 -16.5q6 -8 17 -8t28 2t49 16q78 36 98 92z" />
    <glyph glyph-name="A" unicode="A" horiz-adv-x="656" 
d="M549 366h28q17 0 32.5 -3t15.5 -22q7 -40 -47 -39q-15 1 -27.5 2t-20.5 0.5t-7 -5.5q10 -29 21.5 -65t25.5 -72q36 -89 68 -128q-17 -21 -39.5 -35t-24 -14t-2.5 1l-141 297l-273 -67l-10 -42q-29 -115 -65 -160q-6 -10 -25 -2q-32 12 -32 20q0 2 21 58t42.5 113.5
t45 120.5t44.5 120t38 102.5t24 66t9.5 36t7.5 26.5q10 23 50 23q43 -24 66.5 -62.5t40 -82.5t32.5 -89t43 -82q9 -14 27 -15t32 -1zM299 582q-8 -61 -36 -125t-45 -99.5t-29 -65.5q68 0 167 40q25 11 48 20q-47 201 -105 230z" />
    <glyph glyph-name="B" unicode="B" horiz-adv-x="728" 
d="M65 664q74 16 140 16t117.5 -5t103.5 -19q110 -31 136 -84q7 -11 7 -26q0 -44 -77 -95q-51 -34 -146 -69q233 -13 316 -68q46 -29 46 -68q0 -54 -76 -112q-83 -62 -212 -103q-119 -38 -221 -38q-78 0 -134 23q-2 64 -5 132q-8 151 -8 254.5t7 215.5q-11 0 -20 2.5
t-9 19.5q0 24 35 24zM155 66q161 9 264 38.5t148.5 64t45.5 66.5q0 42 -60 67q-65 26 -172.5 26t-249.5 -29zM248 615h-25q-82 0 -92 -17l-10 -201q90 0 219 43q84 29 123 64q20 18 20 37t-14.5 31.5t-37 20.5t-50 12.5t-53.5 6.5q-40 3 -80 3z" />
    <glyph glyph-name="C" unicode="C" horiz-adv-x="725" 
d="M522 555q-65 64 -144 64q-75 0 -144 -57q-87 -72 -120 -186q-12 -41 -12 -68t2 -42q0 -99 67 -152q63 -49 161 -49q134 11 257 103q34 26 72 50q14 0 28.5 -4t14.5 -23q-99 -86 -167 -124q-126 -68 -228 -68h-13q-111 0 -190 69q-84 73 -84 182q0 82 29.5 157t81 132.5
t122 91.5t151.5 34q69 0 90 -19q26 -23 26 -91z" />
    <glyph glyph-name="D" unicode="D" horiz-adv-x="664" 
d="M105 614q74 26 196 26q223 0 305 -110q32 -42 32 -107q1 -9 1 -18q0 -100 -117 -203q-107 -97 -264 -156q-104 -40 -172 -40q-28 0 -48 8v624h14q23 0 37 -7.5t16 -16.5zM571 415q-9 89 -99 132q-67 32 -168 32l-18 -1q-95 -2 -164 -30v-477q70 0 175 51q182 90 250 209
q24 42 24 84z" />
    <glyph glyph-name="E" unicode="E" horiz-adv-x="606" 
d="M353 635q100 0 133 -13v-49q-27 -4 -74 -4.5t-100 -1.5q-148 -3 -202 -15q-17 -80 -16 -109t2 -45q4 -39 4 -92q68 0 155.5 12t135.5 17.5t99 5.5v-55l-383 -48l6 -164q99 0 202.5 9.5t157 14t113.5 4.5q0 -20 -12 -38q-24 -32 -43 -19q-176 -19 -314.5 -30t-186.5 -15
l4 638q26 -8 96 -8z" />
    <glyph glyph-name="F" unicode="F" horiz-adv-x="709" 
d="M94 166q-56 8 -56 26q0 13 19 30t38 35q0 60 -18 134.5t-26 115.5t-8 75t10.5 43t30.5 9t26 -5.5t8 -13.5t2.5 -17t3.5 -17q5 -19 31 -19q67 1 134 11.5t133 21.5q132 22 185.5 22t84.5 -3q1 -19 4 -33t3 -23q0 -17 -33 -12q-523 -19 -523 -78q0 -65 9 -111.5t13.5 -58.5
t10.5 -12q57 0 115.5 10t117 21.5t117.5 21.5t116 10q1 0 1 -7.5t-1 -16.5q-3 -24 0 -24q-43 -24 -156 -39q-49 -7 -100 -13t-94 -13q-99 -14 -115 -37l-11 -196q-11 -11 -25 -11l-37 3h-10v171z" />
    <glyph glyph-name="G" unicode="G" horiz-adv-x="709" 
d="M496 -49v183q-95 -65 -132 -86q-86 -47 -151 -47q-78 0 -134 57q-57 59 -57 135q5 80 34 162q60 174 199 255q69 41 159 41h4l27 1q46 0 42 -36q-80 -4 -150 -37t-121.5 -88.5t-81 -129.5t-29.5 -151t40 -111t103 -34q54 0 150 47q61 30 91 68q15 18 15 38v148
q-30 0 -139.5 -23t-126.5 -26q-5 3 -12 6.5t-8 10.5q-2 15 44 46q11 6 132 23.5t154 22.5t55 8q10 -2 25 0.5t28 1.5q32 -1 30 -35l-83 -34q-19 -61 -19 -230l2 -149v-37q-30 -15 -58 -15t-32 15z" />
    <glyph glyph-name="H" unicode="H" horiz-adv-x="620" 
d="M155 282q-3 -34 -3 -96.5t19 -151.5l-79 -40l-36 272q-35 5 -35 24q0 14 16.5 33t24.5 31.5t9.5 28t4.5 55.5t5.5 85t5 85t2.5 56q22 22 32 27q25 13 34 -10l-6 -315q247 0 297 32v316q6 17 56 17q11 0 18 -1q0 -19 1.5 -57.5t3 -87.5t3.5 -103.5t4 -103.5q3 -102 5 -150
q7 -120 49 -194q-45 -18 -99 -18q-46 114 -49 299q-66 2 -90 2t-54 -3q-62 -4 -139 -32z" />
    <glyph glyph-name="I" unicode="I" 
d="M105 16q0 -17 -24 -17q-18 0 -43 17q-12 27 -12 129t2 168.5t4 122.5q6 122 6 129q29 17 48 17t19 -17v-549z" />
    <glyph glyph-name="J" unicode="J" horiz-adv-x="542" 
d="M429 327l-3 189q0 45 2.5 79.5t14.5 34.5h67q0 -16 3 -62t4 -92.5t1 -79.5t-1 -85.5t-10 -115.5q-21 -145 -80 -179q-45 -25 -143 -12q-99 14 -174 58q-88 51 -101 120q0 23 15 40q27 32 49 32q1 -57 31 -94q70 -84 225 -84q26 0 51 3q49 26 49 248z" />
    <glyph glyph-name="K" unicode="K" horiz-adv-x="620" 
d="M43 15q0 4 2.5 12t5 41t4 79.5t3 102t3 113.5t3.5 113.5t6 101.5q9 100 24 119q8 23 54 23h14q0 -38 -8.5 -160t-9.5 -145q65 33 125.5 71.5t113 71t95.5 54t64 21.5q35 0 35 -27q0 -21 -32 -46.5t-80 -53t-104.5 -55.5t-104.5 -54.5t-80 -49.5t-32 -40
q18 -11 59.5 -29.5t93 -42t107 -50t101.5 -53.5q104 -59 104 -98q0 -13 -17 -18q-7 -2 -14 -2h-10q-48 0 -90 23t-89.5 55t-107.5 66.5t-145 57.5v-200q-2 -4 -18 -9q-23 -7 -49 -7t-26 15z" />
    <glyph glyph-name="L" unicode="L" horiz-adv-x="709" 
d="M80 437l-2 249l80 -3l-9 -586l527 -15q16 -5 16 -17t-15 -25q-29 -26 -66 -26q-9 0 -19 2l-537 5q25 93 25 416z" />
    <glyph glyph-name="M" unicode="M" horiz-adv-x="847" 
d="M123 167l4 -73q0 -6 -0.5 -22t-12 -28.5t-28 -12.5t-25.5 1q-33 0 -33 29q0 24 22 193.5t28 218.5t10.5 82.5t6.5 49.5t6 32t12 26q15 19 58 19q72 -36 148 -204q54 -120 72 -152t35 -44l200 348q21 15 32 15q32 0 49 -29t28.5 -70.5t20 -91.5t15 -104.5t12.5 -106.5
q14 -125 21.5 -157t7.5 -45.5t-9 -26t-25 -12.5t-32 12.5t-19.5 31t-7 48.5t-8.5 67.5t-10 79t-10 79.5t-9 67.5t-6 44.5q0 20 -1 37t-8 21t-21.5 -9.5t-40.5 -54.5q-56 -87 -162 -293q-14 -25 -37 -11q-27 15 -46 77l-184 391q-24 -48 -44 -318q-3 -33 -4 -56
q-5 -25 -5 -49z" />
    <glyph glyph-name="N" unicode="N" horiz-adv-x="642" 
d="M608 353q0 -304 -25 -356l-73 6q-55 95 -185 267q-51 68 -101.5 135t-92.5 133q-20 -89 -20 -356q0 -102 -4 -172q-19 -18 -41.5 -18t-31.5 4.5t-9 15t2.5 33t6 75.5t6.5 112q8 154 8 265.5t-2 183.5q22 20 34 29t27 -0.5t38.5 -41t66.5 -93.5q147 -209 289 -392l19 498
q11 20 22 27.5t29 7.5q35 0 35 -64l-1 -37z" />
    <glyph glyph-name="O" unicode="O" horiz-adv-x="686" 
d="M46 168q-24 54 -24 127t23.5 129.5t64.5 97.5q87 85 218 85q137 0 226 -63q100 -72 100 -206q0 -166 -76.5 -245t-238.5 -79q-225 0 -293 154zM104 315q0 -236 238 -236q117 0 190 70q73 69 73 181q0 105 -87 160q-74 48 -187 48q-90 0 -159 -65q-68 -65 -68 -158z" />
    <glyph glyph-name="P" unicode="P" horiz-adv-x="653" 
d="M83 -2l-45 2v233q5 75 8 133t11 100t26 70.5t54 45.5q65 32 239 32q75 0 127 -14.5t77 -27.5q57 -28 57 -78t-28.5 -90.5t-74 -70t-102.5 -48.5t-114 -31q-102 -20 -196 -20l-4 -224q0 -12 -35 -12zM121 347q0 -50 43 -50q6 0 21 0.5t52.5 3t79.5 10t84.5 19.5t76.5 30
q77 42 77 107q-15 65 -119 83q-31 6 -55.5 6t-58 -2.5t-77.5 -15.5t-74 -35t-33 -51q-1 -12 -5 -28q-12 -51 -12 -77z" />
    <glyph glyph-name="Q" unicode="Q" horiz-adv-x="730" 
d="M27 244q0 64 22 136.5t65 128.5t106 90t145 34q12 1 24 1q130 0 204 -78q67 -71 67 -187q0 -114 -68 -211q-1 -5 -1 -15.5t14.5 -21.5t36 -20t36.5 -19t15 -18.5t-1 -13.5q-11 -8 -30 -12.5t-25.5 -3t-17.5 9t-21 16.5q-27 21 -47 24q-38 -36 -117 -62q-200 -63 -326 43
q-81 69 -81 179zM333 65q60 0 85 5q54 11 75 46l-183 166q-1 1 -1 3v5q0 18 14 22.5t34.5 4.5t45 -16t47.5 -37.5t45.5 -44.5t46.5 -37q51 78 52 170q1 28 1 63q-5 36 -17 65q-24 61 -121 80q-47 10 -89 10h-50q-62 0 -114 -58q-41 -47 -70 -130q-25 -67 -25 -124
q0 -104 59 -148.5t165 -44.5z" />
    <glyph glyph-name="R" unicode="R" horiz-adv-x="730" 
d="M118 594q55 53 199 53q90 0 151 -18t91.5 -38t30.5 -44q0 -55 -128 -109q-19 -9 -99.5 -36.5t-108.5 -37.5q-61 -23 -81 -36q0 -5 4 -8.5t19 -12t45 -24t83 -44.5q158 -86 325 -184q8 -6 21 -16.5t13 -23t-8 -17.5t-19 -7.5t-23 -2.5h-20q-20 0 -83.5 43t-110 75
t-94.5 62q-113 73 -179 95v-229q0 -20 -34 -20h-11q-21 0 -31 21q-14 32 -14 118l3 201q0 148 -13 260q24 41 59 -3q8 -10 13 -17zM456 582l-65 1q-226 0 -260 -52q-10 -14 -10 -35.5t2 -37.5q5 -41 23 -59q3 -1 10.5 -1t28 4t55 14.5t73.5 25.5t75 31q113 51 113 83
q0 18 -45 26z" />
    <glyph glyph-name="S" unicode="S" horiz-adv-x="658" 
d="M30.5 120.5q15.5 14.5 24 20t11.5 8.5q5 -91 123 -91q93 0 217 58q88 40 118 82q10 13 10 21.5t-3 13.5l-415 93q-18 4 -35 17q-31 22 -31 40q0 69 98 125q108 61 289 92q41 7 61 8q6 -2 18.5 -3.5t25.5 -4.5q31 -7 26 -26q0 -34 -130 -54q-168 -25 -209.5 -42t-60 -35
t-19.5 -43q0 -5 23 -11t55 -14.5t83 -22.5q124 -34 304 -86q10 -22 10 -41q0 -53 -62 -102q-70 -55 -194 -93q-103 -31 -164 -31q-51 0 -97 18t-69 35t-23 35.5t15.5 33z" />
    <glyph glyph-name="T" unicode="T" horiz-adv-x="638" 
d="M490 491l-89 2q-35 0 -81 -7q-2 -39 -8 -101q-21 -220 -21 -285.5t2 -92.5l-94 -7l31 494l-213 12q-8 0 -12.5 13t-4.5 24t9 24t21 13q73 -3 147 -10q137 -12 233 -12l62 2q73 2 145 16q16 -3 20 -50q1 -10 1 -16q-66 -19 -148 -19z" />
    <glyph glyph-name="U" unicode="U" horiz-adv-x="575" 
d="M526 16q0 -18 -31 -18q-15 0 -27.5 4.5t-15.5 7.5l10 128q-92 -79 -134 -99q-66 -33 -135 -33q-13 0 -27 1q-146 16 -146 187q0 78 40 265q13 58 17 106q3 1 13 1h12q5 1 9 1q32 0 32 -48q0 -33 -13 -82q-40 -161 -40 -223q0 -65 34 -102q22 -24 69 -29h12q163 0 214 157
q30 92 35 222q3 60 5 119q11 30 30 30t42 -17q3 -58 3 -114l-10 -382q0 -41 2 -82z" />
    <glyph glyph-name="V" unicode="V" horiz-adv-x="642" 
d="M261 16q-27 72 -100 214.5t-97 189.5q-53 109 -53 128q0 13 51 33q35 -65 65.5 -129.5t60.5 -121.5q71 -139 116 -192q16 16 72 136l82 173q66 140 85 183q35 42 59 42t24 -42l-284 -623q-17 -11 -43.5 -11t-37.5 20z" />
    <glyph glyph-name="W" unicode="W" horiz-adv-x="963" 
d="M763 166q50 162 116 592q63 0 66 -39q1 -12 1.5 -17t-3.5 -34.5t-11.5 -82.5t-18.5 -123t-25 -146q-34 -179 -70 -302q-36 -25 -56 -8q-9 9 -16 24.5t-16 35.5q-13 17 -48 90t-56.5 116t-41.5 80q-46 83 -77 97q-36 -56 -128 -307q-16 -44 -29 -81.5t-22 -60.5l-62 3
l-250 578q-2 5 -2 10t3.5 10t12.5 9q17 6 34 6t24.5 -6.5t12 -16.5t7.5 -22t11.5 -31t25 -56t35.5 -78t38 -81.5t36 -74.5q36 -75 45 -84q116 286 143 339.5t34 65.5q11 17 17 17q43 0 145 -192q28 -51 52 -98q59 -114 73 -132z" />
    <glyph glyph-name="X" unicode="X" horiz-adv-x="614" 
d="M298 225q-26 -21 -48.5 -57t-46 -70t-49.5 -59t-56.5 -25t-42.5 8.5t-12 22t1 21.5l190 225q-52 64 -87.5 109t-58.5 74t-35.5 45.5t-18 24t-7.5 11.5q0 20 27 28q23 7 40 -2l192 -232l239 282l58 -47l-240 -285q34 -46 77.5 -78.5t81.5 -61t63.5 -57.5t25.5 -68
q-3 -23 -21 -31q-4 -2 -14 -2t-30 15z" />
    <glyph glyph-name="Y" unicode="Y" horiz-adv-x="547" 
d="M278 -18q-16 0 -34 10q-35 21 -28 37q12 21 31 84l27 90q14 43 28 95l-267 272q-7 9 -7 16t8 11q13 6 31.5 6t38 -6t48.5 -30q57 -48 187 -203q59 172 85 221.5t41.5 64t28 15.5t21.5 -1t13 -14q-31 -66 -59.5 -149.5t-58.5 -172.5q-79 -236 -134 -346z" />
    <glyph glyph-name="Z" unicode="Z" horiz-adv-x="803" 
d="M770 16q-247 -19 -454 -19q-288 0 -288 37q0 8 10 16l432 482q-40 2 -65.5 2t-57.5 -0.5t-82 -4.5q-147 -12 -203 -15q-15 0 -18.5 9t-5.5 42q223 24 509 34q14 0 27 -4t13 -21q-28 -78 -193 -254q-194 -206 -225 -247q55 -11 129 -11t150 4.5t158 11.5t156 12z" />
    <glyph glyph-name="bracketleft" unicode="[" horiz-adv-x="435" 
d="M31 779q33 5 72.5 14t80.5 18q103 23 150 23q0 -13 2.5 -27t-8.5 -20q-18 -5 -52 -11.5t-70 -15.5q-88 -20 -113 -38q-1 -32 -1 -78t6 -119t16 -161t19 -176t9 -181l255 35q0 -5 2.5 -16t4.5 -23.5t2 -22.5t-5 -11l-336 -53z" />
    <glyph glyph-name="backslash" unicode="\" horiz-adv-x="514" 
d="M442 -2q-242 272 -414 542q-28 45 -28 47q0 1 10 -14q0 19 14.5 23t29.5 4q58 -57 109 -131t102.5 -151t107 -149.5t121.5 -126.5q0 -20 -17 -32t-35 -12z" />
    <glyph glyph-name="bracketright" unicode="]" horiz-adv-x="554" 
d="M419 658q0 -310 40 -727q-9 -1 -38 -3.5t-67.5 -6t-82.5 -6.5t-83 -6q-77 -6 -105 -6q-3 0 -3 55q50 3 96 3l20 -1q109 0 150 48q24 27 24 94.5t-3.5 151t-10.5 168.5q-13 173 -35 327q-11 1 -30 1t-49.5 -6t-65.5 -15q-97 -25 -145 -25q-3 0 -11 5q-20 14 -20 30t9 27
q0 2 126 20t161.5 22.5t61.5 8.5l30 2q30 -1 35 -19q-4 -66 -4 -142z" />
    <glyph glyph-name="asciicircum" unicode="^" horiz-adv-x="314" 
d="M29.5 515q-11.5 5 -11.5 24t10.5 37t29.5 38q42 44 104 73q51 -33 68 -47q28 -25 64 -81q6 -12 6 -22.5t-4 -16.5q-11 -16 -36 -1q-37 27 -43.5 33t-18.5 19t-43 43q-61 -42 -83 -78q-7 -12 -13 -26q-18 0 -29.5 5z" />
    <glyph glyph-name="underscore" unicode="_" horiz-adv-x="703" 
d="M33 0l-1 18v20q89 36 283 47q219 12 310 32q14 0 26.5 -4t12.5 -19q0 -21 -17 -44q-341 -9 -614 -50z" />
    <glyph glyph-name="grave" unicode="`" horiz-adv-x="176" 
d="M47 588q0 28 15 28q9 0 22 -14l67 -65l-17 -43q-66 45 -78 65q-4 8 -6.5 16t-2.5 13z" />
    <glyph glyph-name="a" unicode="a" horiz-adv-x="521" 
d="M420 166q-75 -118 -200 -146q-29 -6 -52.5 -6t-39 0.5t-34.5 4.5t-35 13q-37 21 -37 59q-4 18 -4 40.5t10 59.5t36.5 80t64.5 79q79 76 171 98q27 6 49.5 6t40.5 -3q58 0 78 -79q13 -50 15.5 -139.5t5 -138t12.5 -88.5h-59q-4 27 -6 48t-4 39q-5 42 -12 73zM416 321
q0 58 -57 58q-7 1 -14 1q-73 0 -154 -70q-38 -32 -65 -72q-40 -57 -40 -102q0 -59 68 -70q90 2 172 82q35 35 58 76q32 55 32 97z" />
    <glyph glyph-name="b" unicode="b" horiz-adv-x="575" 
d="M33 580l-3 129q0 16 11 25t27 9t29 -8.5t10 -23.5l7 -432q63 84 170 141q89 48 156 48q59 0 91 -38q24 -30 24 -79.5t-18.5 -86t-48.5 -70t-69 -62.5t-79 -52q-76 -44 -150 -73q-6 2 -20 1t-34 -1q-54 0 -95 13q-10 95 -10 289zM117 89q0 -11 20.5 -11t50.5 8t72.5 27.5
t85.5 50.5q100 71 151 167q-13 57 -78 57q-59 0 -133 -44q-105 -63 -150 -156q-19 -37 -19 -75v-16v-8z" />
    <glyph glyph-name="c" unicode="c" horiz-adv-x="648" 
d="M511 136q39 14 74.5 14t35.5 -22q0 -5 -2.5 -15.5t-27 -25t-60 -27.5t-77.5 -24t-82 -19q-83 -17 -118 -17t-75.5 8t-75.5 26q-81 42 -81 124v24t15 51.5t45 67t70 61.5q84 60 176 78q32 7 53.5 7t35.5 -0.5t29 -2t26 -7.5q26 -13 26 -51q0 -24 -34 -47q-9 -6 -16 -11
q-5 23 -13 39t-35 16q-118 -25 -203 -75q-96 -57 -96 -120q0 -7 1 -15q0 -64 49 -91q37 -20 95.5 -20t101.5 13.5t83.5 30t79.5 30.5z" />
    <glyph glyph-name="d" unicode="d" horiz-adv-x="525" 
d="M494.5 615.5q-5.5 -91.5 -10 -179t-4.5 -186t14 -208.5q0 -23 -8.5 -33t-28.5 -10q-47 0 -47 78v33q-142 -106 -240 -106q-39 0 -79.5 19t-76.5 77q-5 24 -5 49t9.5 60.5t39 73.5t71.5 67q92 62 199 62q46 0 88 -14q0 18 2.5 63t5.5 95q6 130 8 153.5t5.5 40t10.5 28.5
q15 25 52 25q0 -96 -5.5 -187.5zM82 157q0 -79 57 -79q9 0 20 2q41 0 101 24q114 45 139 78v133q0 35 -57 35q-7 1 -18.5 1t-35.5 -5t-54 -18t-59 -32q-61 -41 -84 -96q-9 -21 -9 -43z" />
    <glyph glyph-name="e" unicode="e" horiz-adv-x="554" 
d="M231 70q88 0 265 80q11 0 18 -7.5t7 -17.5q-40 -68 -153 -106t-211 -13q-111 29 -135 125q-2 19 -2 51t16.5 84.5t56.5 99.5t94 74t115 27q58 0 130 -40q34 -19 54 -43t20 -49q0 -7 -1 -14q-2 -61 -59 -77q-25 -7 -58 -7l-144 6q-72 0 -110 -31q-22 -17 -31 -51
q25 -91 128 -91zM363 402q-24 7 -40 7t-52 -10.5t-64 -23.5q-69 -32 -69 -67q80 -7 120 -7q111 0 150 19q24 10 24 25q0 18 -22.5 34t-46.5 23z" />
    <glyph glyph-name="f" unicode="f" horiz-adv-x="608" 
d="M601 334q5 0 5 -27t2 -37l-343 -42l18 -222l-81 4q0 90 -20 206l-130 -50q-13 0 -22 15q-16 26 -16 47l152 54q-20 172 -20 279.5t18 167.5t52.5 80.5t73.5 20.5t79.5 -17t77.5 -43t63 -58.5t26 -63.5q0 -24 -5 -34q-40 56 -97 100q-68 52 -128 52q-57 0 -76 -81
q-9 -42 -9 -118.5t4 -140t24 -127.5q62 0 139 11q148 23 213 24z" />
    <glyph glyph-name="g" unicode="g" horiz-adv-x="528" 
d="M316 -428l-14 1q-30 0 -64 -4h-38q-60 0 -94 23q-18 12 -18 36l230 11q106 3 106 114v13.5v41.5l5 322q0 17 -1 28q-162 -151 -312 -151q-13 0 -26 1q-67 0 -67 59q2 46 27 101.5t64.5 107t89.5 92.5q77 63 149 63q84 0 138 -89q16 -238 16 -338t-3 -164t-13.5 -117
t-27.5 -84t-40 -45q-38 -22 -107 -22zM376 358q-12 4 -33.5 4t-55.5 -18t-65 -46.5t-58 -63.5q-66 -86 -66 -137q0 -16 9 -24q7 -4 17.5 -4t30.5 3.5t54.5 18t71.5 37.5t67 51q70 64 70 125q0 37 -42 54z" />
    <glyph glyph-name="h" unicode="h" horiz-adv-x="507" 
d="M497 14q-9 -17 -46.5 -17t-37.5 27q0 118 -5 162q-9 97 -38 104q-72 14 -117.5 14t-75 -27.5t-45 -91t-22.5 -178.5h-77q2 57 2 106t-2 116.5t-5 147.5q-5 92 -5 155.5t8 116.5q10 19 29 19q23 0 36 -16.5t14 -29.5l-5 -165q0 -93 9 -139q90 60 186 60q31 0 66 -5
q75 -39 98 -83q11 -23 14 -49t4 -59q6 -114 15 -168z" />
    <glyph glyph-name="i" unicode="i" 
d="M117 470q13 -187 22 -433q-6 -31 -48 -31q-11 0 -22.5 4.5t-14.5 12.5v447h63zM24 606q0 35 41 35q27 0 44 -12q3 -11 3 -21.5t-8 -20.5t-24 -10t-32 7.5t-24 21.5z" />
    <glyph glyph-name="j" unicode="j" horiz-adv-x="182" 
d="M173 -200q0 -167 -88 -167q-9 0 -22.5 0.5t-40 4t-53.5 12.5q-65 22 -83 64q0 3 5 14q9 20 9 23q33 -25 71 -47t81 -22q29 0 46 42q16 36 16 72q0 97 -14 252q-20 233 -20 296.5t2 103.5q-3 24 22 36q19 9 42 9q-9 -62 -9 -98t0.5 -74.5t6 -112.5t12.5 -148
q17 -161 17 -260zM110 707q16 -11 16 -35t-18 -29h-7.5t-21.5 13q0 32 15 46q6 5 16 5z" />
    <glyph glyph-name="k" unicode="k" horiz-adv-x="629" 
d="M126 182l5 -87q0 -80 -38 -97q-8 -3 -19 -3t-26 5l1 374q0 81 -9.5 162.5t-9.5 162.5q0 32 34 32h8q7 0 9 -1q15 -62 20 -150q11 -195 20 -262q17 9 76 51t95 67.5t68 47.5q75 49 94 49q16 0 25 -19q-50 -63 -161 -140q-45 -31 -89.5 -61.5t-81.5 -63.5q67 -18 127 -37.5
t116 -35.5q129 -38 222 -43q0 -27 -5 -35q-9 -14 -37 -16h-8q-61 17 -162 38q-199 41 -274 62z" />
    <glyph glyph-name="l" unicode="l" horiz-adv-x="161" 
d="M41 484.5q-2 42.5 -2.5 63t-16.5 100.5q9 12 17.5 23t24.5 11q35 0 54 -295q10 -171 10 -342q0 -46 -64 -46l-8 1q0 52 -3 133t-4.5 141t-3.5 114t-4 96.5z" />
    <glyph glyph-name="m" unicode="m" horiz-adv-x="797" 
d="M110 16q-41 -17 -54.5 -17t-18.5 3t-11 14q0 33 2.5 83t4.5 107t2 115t-6 106q0 32 43 32q10 0 15.5 -36t8 -56t4.5 -29q26 47 103 74q41 13 77 13t63.5 -8.5t47 -31t19.5 -59.5q26 49 117 88q83 37 149 37q95 0 93 -72l21 -372q0 -5 -29 -7q-56 -4 -56 10q-1 20 -1 40
l5 161q0 113 -22 179q-66 -5 -101.5 -21.5t-62.5 -41t-48 -65.5q-47 -92 -47 -244q-6 -21 -39 -21q-22 0 -36 7.5t-11 13.5q19 106 19 165q0 47 -9.5 89.5t-23.5 97.5q-144 0 -194 -115q-22 -51 -24.5 -95.5t-2.5 -76t3 -67.5z" />
    <glyph glyph-name="n" unicode="n" horiz-adv-x="512" 
d="M417 219q0 119 -13 175q8 15 -24 15q-34 0 -88 -17t-88 -34q-81 -39 -90 -76v-272h-67q-13 34 -13 191q0 140 5.5 206t8.5 75q26 17 42 17q25 0 25 -59q0 -23 -2.5 -44.5t-2.5 -29.5q162 119 251 119q101 0 115 -163q6 -57 6 -158l-1 -79q0 -44 2 -85q-10 -6 -16 -6
q-3 1 -13 3t-26 3q-10 40 -11 81.5t-1 76.5z" />
    <glyph glyph-name="o" unicode="o" horiz-adv-x="576" 
d="M52 190q0 118 102 190q81 57 195 69h28t59 -13q82 -28 112 -99q12 -28 12 -47.5t-1 -27.5q0 -125 -95 -197q-88 -66 -220 -66q-95 0 -143.5 44t-48.5 147zM121 166q0 -62 33 -84q25 -16 84 -16t104 9t80 31q75 48 75 149q0 60 -32 98q-35 41 -92 41q-39 -7 -78.5 -15
t-74.5 -31q-76 -49 -99 -182z" />
    <glyph glyph-name="p" unicode="p" horiz-adv-x="570" 
d="M123 401q136 47 235 47q126 0 168 -66q19 -31 19 -67q0 -50 -31.5 -103t-83.5 -96q-121 -99 -294 -123q0 -11 0.5 -35.5t1 -54.5t1 -64t1.5 -65q3 -77 4.5 -88t1.5 -18q0 -25 -16 -37.5t-42 -12.5h-10l-16 804q9 13 24 12t24 -8t13 -25zM415 366q-33 17 -70.5 17
t-74.5 -7q-84 -16 -124 -71q-18 -26 -18 -64v-8v-173q206 46 292 128q50 47 50 97q0 53 -55 81z" />
    <glyph glyph-name="q" unicode="q" horiz-adv-x="526" 
d="M485 -354l-27 -1h-23l-15 437q-39 -37 -118 -62q-72 -23 -129 -23q-46 0 -76.5 13t-45 28.5t-15 32.5t-0.5 27q0 58 28 113t80 99t114.5 67t121.5 23h14q29 0 53 -21t40 -47q0 -174 1 -343t12 -343h-15zM400 286q0 47 -20 47q-101 0 -182 -59q-86 -65 -86 -162
q0 -48 54 -50h39.5t59.5 6.5t63 23.5q66 37 66 112z" />
    <glyph glyph-name="r" unicode="r" horiz-adv-x="565" 
d="M518 365q-42 30 -108 30q-62 0 -115 -23q-100 -42 -137 -108q-16 -30 -16 -64v-33.5t10 -74t10 -94.5q-21 -1 -34 -5t-22 -4t-15.5 8t-14.5 31q-1 6 -4 34t-7.5 68t-10 87.5t-10.5 93.5q-11 100 -17 147q0 24 35 24q21 0 33 -17.5t19 -40t9.5 -44.5t4.5 -31
q132 118 328 118q22 0 46 -1q6 1 15 1t18 -12q11 -14 11 -34q0 -50 -28 -56z" />
    <glyph glyph-name="s" unicode="s" horiz-adv-x="514" 
d="M369 258q110 0 110 -56q0 -42 -61 -98q-91 -83 -245 -133q-7 0 -15.5 14t-13 21.5t-6.5 9.5q115 38 189 92q50 36 50 59t-59 23t-173 -28q-52 2 -90 37q-33 31 -33 62.5t18 58t48 49.5t70 42q98 47 203 47q31 0 60 -6q24 0 28 -21t4 -69q-59 27 -133 27q-92 0 -152 -37
q-62 -36 -64 -94q0 -28 41 -28l73 8q94 20 151 20z" />
    <glyph glyph-name="t" unicode="t" horiz-adv-x="414" 
d="M178 96l2 160q0 38 -7 65h-155l-2 69h150v258q3 9 12 18q14 14 23.5 14t16.5 -2t15 -14q16 -66 16 -199q0 -33 3 -65q32 4 64 4h52q19 0 35 2l-3 -72l-146 4l5 -345q-18 -8 -31 -8q-50 0 -50 111z" />
    <glyph glyph-name="u" unicode="u" horiz-adv-x="520" 
d="M22 133q0 16 -2.5 44.5t-4.5 62.5t-2 69t6 64q13 65 54 65q28 -8 37.5 -20t9.5 -29.5t-9 -43.5q-33 -87 -33 -157q0 -23 3 -49q16 -67 110 -67q49 0 93 17q84 31 114 73q9 46 9 80.5t-2.5 61.5t-6 59.5t-4.5 71.5q13 6 25.5 6t26 -13t23 -49t12.5 -84.5t3.5 -100.5
t0.5 -100.5t4 -83.5q-12 -11 -23 -11q-40 0 -59 80q-13 -11 -44 -27q-66 -36 -156 -48q-17 -2 -38 -2t-52.5 8t-59.5 37t-35 86z" />
    <glyph glyph-name="v" unicode="v" horiz-adv-x="531" 
d="M36 387q-2 5 -2 11.5t5 17.5t14.5 19t21 7.5t18.5 -14.5l168 -312q8 12 25.5 44.5t40 73.5t47 85.5t45.5 81.5q48 85 57 85q21 0 30.5 -15.5t9.5 -23.5v-11q-56 -122 -103.5 -225t-63 -133.5t-27.5 -48.5q-21 -31 -41 -31t-46 31.5t-59 84.5q-58 96 -140 273z" />
    <glyph glyph-name="w" unicode="w" horiz-adv-x="828" 
d="M407 276q-22 -73 -36.5 -135t-28.5 -103q-22 -59 -50 -59q-15 0 -34 14q-46 49 -130 217q-82 164 -82 205q0 18 11 22.5t25 0.5q34 -10 48 -31q7 -10 17 -35l25 -62q42 -105 83 -192q22 34 42 88l31 86q40 113 72 115q25 16 150 -177q53 -82 66 -98q9 0 21.5 60t22 101.5
t23.5 77.5q33 84 76 84q14 0 19.5 -9.5t5.5 -15.5v-9q-12 -34 -25 -77.5t-27.5 -89t-29 -90t-28.5 -80.5q-33 -78 -55 -84q-17 -8 -55 39q-17 22 -36 52t-40 62q-51 80 -81 123z" />
    <glyph glyph-name="x" unicode="x" horiz-adv-x="482" 
d="M26 30q49 49 99 112t61 84l-84 92q-16 17 -31 34t-27 30t-19 22l-7 8l58 62q45 -55 66.5 -83.5t34.5 -45.5q22 -28 64 -69q14 20 50 72q60 89 96 132q23 0 37 -16t14 -30q-26 -56 -75 -118q-18 -22 -33 -42.5t-24 -44.5q61 -43 146 -146q19 -23 27 -35q0 -7 -11 -21
q-17 -24 -30 -30q-19 9 -39.5 32.5t-43.5 51.5t-47.5 56t-51.5 46q-23 -26 -64 -75q-75 -90 -100 -108q-19 -4 -54 18q-9 5 -12 12z" />
    <glyph glyph-name="y" unicode="y" horiz-adv-x="562" 
d="M238 -377q-21 -47 -50 -47q-14 0 -20.5 12.5t-0.5 29.5q22 93 63.5 212t55.5 160q-35 35 -110 140q-154 216 -154 237q0 1 1 2l38 38q79 -73 206 -248q32 -44 51 -74q21 42 33 72.5t19.5 49t20.5 49.5q34 83 94 211q9 4 19 4q25 0 36 -13q4 -5 4 -11.5t-2 -12.5z" />
    <glyph glyph-name="z" unicode="z" horiz-adv-x="507" 
d="M138 -4q-100 0 -100 44q0 28 44 73t77 73.5t63 55.5q71 65 116 120h-27t-52.5 -2.5t-72.5 -6.5q-103 -11 -135 -11t-32 14q0 17 19.5 31t28 14t13 1t15.5 2.5t31.5 4t55.5 5.5q69 7 216 19q48 -6 48 -35q0 -37 -70 -108q-62 -62 -132.5 -125t-98.5 -93q39 -3 68 -3l164 7
q38 0 69 -3.5t38 -6.5q16 -9 16 -34q0 -10 -4 -22q-25 3 -52 3t-71 -3t-106 -8q-85 -6 -129 -6z" />
    <glyph glyph-name="braceleft" unicode="{" horiz-adv-x="361" 
d="M251.5 902q-11.5 -26 -17.5 -72.5t-6 -119.5t10 -186q0 -21 -15.5 -34.5t-34.5 -25t-34.5 -23.5t-15.5 -31q-2 -5 -2 -13.5t11 -26.5q26 -39 76 -71q21 -13 25.5 -13h5.5q-6 -59 -6 -97.5t4.5 -83t21 -82.5t40 -55.5t47 -24t44 -6.5t30.5 -3l-4 -72q-168 11 -211 136
q-22 63 -27 139t-10 122q-6 12 -25 26t-40 31q-57 46 -66 88q5 37 21 57.5t34.5 34t36.5 26t28 35.5q-2 38 -6 86q-6 60 -6 108t5.5 92.5t24.5 82.5q42 84 148 84v-54q-41 3 -58 -12.5t-28.5 -41.5z" />
    <glyph glyph-name="bar" unicode="|" horiz-adv-x="149" 
d="M103 -68h-26q-18 0 -22 -2l-3 1050h59v-1046q0 -2 -8 -2z" />
    <glyph glyph-name="braceright" unicode="}" horiz-adv-x="490" 
d="M28 -218l-4 72q10 3 31.5 3t45.5 6.5t49 24.5q69 49 69 209q0 46 -6 105h6t26 13q53 31 80 73q9 15 9 23t-2 13q0 19 -16.5 31t-36 23t-35.5 24.5t-15.5 40.5t0.5 72t-6.5 103t-22 103.5t-36.5 70.5t-42 38.5t-40 17.5t-30 8v54q110 0 173 -82q48 -62 65 -178
q9 -53 9 -104.5t-1 -76.5q10 -23 30 -39.5t41 -32t37 -32.5t19 -40q-2 -50 -65 -99q-24 -19 -46 -31.5t-28 -19.5q-5 -45 -8 -90.5t-10 -88t-20.5 -79.5t-40.5 -65q-57 -61 -179 -70z" />
    <glyph glyph-name="asciitilde" unicode="~" horiz-adv-x="455" 
d="M148 567q-32 0 -86 -81q-6 0 -19.5 4t-16.5 17q15 48 45 85t63 50q8 3 18 3t24.5 -10.5t32.5 -29.5t37 -36t40.5 -17t34 7t23 20t23 32t35.5 43q6 0 17.5 -7.5t12 -15t0.5 -18.5t-8 -29.5t-26 -37.5q-51 -50 -115 -50q-46 0 -73 30q-20 18 -34 29.5t-28 11.5z" />
    <glyph glyph-name="exclamdown" unicode="&#xa1;" horiz-adv-x="138" 
d="M64.3535 424.729q41.5703 0 50.9727 5.76367t9.40234 12.2471q-10.8867 28.8184 -47.5078 34.582q-5.93848 0.720703 -12.8672 0.720703q-6.92773 0 -17.3203 -2.88184t-15.3408 -10.0859q-10.8877 -18.0117 32.6611 -40.3457zM110.872 -176.134
q-5.93848 18.7324 -5.93848 233.789q0 215.058 -14.8457 247.478h-66.3135q0 -74.207 7.91797 -185.878q13.8564 -216.858 13.8564 -292.507z" />
    <glyph glyph-name="cent" unicode="&#xa2;" horiz-adv-x="648" 
d="M346 -68h-27q-19 0 -21 -2l-1 74q-28 -4 -53 -4t-65.5 8t-75.5 26q-81 42 -81 124q-1 6 -1 13q0 74 81 150q81 77 194 111v138h59l-1 -125q35 4 55 4q89 0 89 -63q0 -24 -34 -47q-9 -6 -16 -11q-9 45 -31 52q-13 4 -63 -8v-294q31 9 61 21.5t59 24.5q68 26 107.5 26
t39.5 -22q0 -25 -29.5 -41.5t-68.5 -30.5q-76 -26 -169 -42v-80q0 -2 -8 -2zM254 62q25 0 43 3l-1 289q-144 -56 -184 -126q-11 -19 -11 -33.5t1 -21.5q0 -64 49 -91q37 -20 103 -20z" />
    <glyph glyph-name="sterling" unicode="&#xa3;" horiz-adv-x="552" 
d="M29 246q-51 0 -51 25q0 14 12 19t26 7t37 4.5t40 5.5q3 63 6.5 109t13 77.5t26.5 50.5t47 29q79 26 138 26q72 0 119.5 -23t70 -53t22.5 -49t-17.5 -19t-52.5 35q-25 26 -68 40q-56 18 -86 18t-55.5 -7.5t-50.5 -31t-39 -67.5l-15 -124l83 -1q41 0 53 -23q4 -9 -2 -19
t-24 -16l-111 -1l-27 -192q40 7 70 12.5t55.5 8.5t49 3t49.5 -4q42 -7 128 -34q6 -2 9 -8.5t0 -13.5q-8 -16 -29.5 -19t-37 0.5t-34.5 8.5q-55 14 -91.5 14t-50.5 -2.5t-25.5 -6.5t-22.5 -9q-43 -16 -116 -16h-21q15 67 20 250z" />
    <glyph glyph-name="currency" unicode="&#xa4;" horiz-adv-x="576" 
d="M451 111q-85 -61 -213 -61q-45 0 -79 9q-8 -8 -30.5 -26t-32.5 -27q-15 -11 -20 -11t-15.5 2t-23.5 7q-31 10 -38 25l87 75q-40 44 -40 137t64 157l-80 79l72 67q52 -56 82 -90q69 37 159 46h29.5t57.5 -13q10 13 30.5 37t31 36.5t17.5 19.5q29 0 45.5 -17.5t16.5 -32.5
q-7 -12 -23 -37l-25 -37q-8 -12 -13 -19q45 -50 45 -109q0 -7 -1 -14q0 -77 -41 -140q47 -44 87 -92q0 -9 -13 -23q-22 -26 -37 -33q-23 9 -47.5 32.5t-51.5 52.5zM107 207q0 -62 33 -83q26 -17 84.5 -17t103.5 9.5t80 31.5q75 48 75 149q0 59 -32 97q-35 41 -92 41
q-39 -6 -78.5 -14t-73.5 -31q-77 -51 -100 -183z" />
    <glyph glyph-name="yen" unicode="&#xa5;" horiz-adv-x="547" 
d="M121 186q93 14 140 19v43l-111 -14q-5 0 -12.5 -0.5t-15.5 0.5q-19 3 -21 17l20 36q2 2 140 17l1 45l-267 273q-5 7 -5 12t4 11.5t16 12.5q25 15 38 15q16 -12 28.5 -20.5t25 -18.5t27.5 -24.5t38 -39.5q33 -35 134 -155q82 240 130 281q16 13 28.5 14t24.5 -13.5
t17 -26.5q-16 -34 -36 -72t-41 -80q-53 -107 -79 -179l-2 -25q23 3 43 5.5t38 5.5q16 5 24.5 0t10 -14.5t-3 -20.5t-13.5 -17l-101 -14l-3 -45q58 7 120 20q23 0 29 -12t6 -21t-2 -17q-82 -2 -155 -19l-8 -162q-3 -7 -14 -15q-26 -19 -48 -6q-12 6 -14 28q8 15 10 139
q-75 -15 -134 -15q-24 0 -24 35q0 4 6.5 10.5t10.5 6.5z" />
    <glyph glyph-name="brokenbar" unicode="&#xa6;" horiz-adv-x="131" 
d="M28 16l8 274h66l-8 -256q-2 -18 -28 -26q-26 -7 -38 8zM37 314q3 117 7 218q-2 22 8 28t22.5 6t22 -2t13.5 -16l-8 -234h-65z" />
    <glyph glyph-name="section" unicode="&#xa7;" horiz-adv-x="514" 
d="M381 503q113 0 113 -55q0 -44 -65 -102q-35 -31 -83 -60q63 -6 87.5 -25.5t24.5 -42.5q0 -29 -32 -61.5t-80 -59.5q-111 -62 -247 -73q-9 0 -28 36q-4 7 -6 9q130 22 223 67q72 35 72 54.5t-59.5 19.5t-167.5 -19q-52 2 -90 37q-33 31 -33 66q0 67 98 125
q-33 15 -51.5 41t-18.5 52q0 51 66 102q100 76 245 88q14 1 36.5 1t51.5 -6q24 0 28 -21t4 -69q-59 27 -133 27q-140 0 -198 -78q-17 -23 -18 -54q0 -17 12.5 -22t28.5 -5l73 8q89 20 147 20zM391 413q0 28 -47 28q-38 0 -83.5 -16t-80.5 -37q-79 -48 -88 -102q0 -26 40 -26
q11 0 23 1q93 30 162 75q74 47 74 77z" />
    <glyph glyph-name="dieresis" unicode="&#xa8;" horiz-adv-x="380" 
d="M90 597q-24 0 -24 34q0 12 50 33q21 0 28.5 -9t7.5 -23t-6 -20.5t-15 -9.5q-12 -5 -41 -5zM234 597q-24 0 -24 34q0 13 51 33q36 0 36 -34q0 -31 -42 -32q-11 -1 -21 -1z" />
    <glyph glyph-name="copyright" unicode="&#xa9;" horiz-adv-x="646" 
d="M116 44q-36 23 -57 57.5t-21 74.5t12 95t30.5 102t45 91t60.5 78q75 73 170 73q128 0 196 -94q63 -85 63 -211q0 -149 -95 -232q-93 -80 -247 -80q-89 0 -157 46zM97 183q0 -135 192 -135q138 0 207.5 71t69.5 202v8q0 115 -57 176t-156 61h-19.5h-15.5q-53 0 -105 -72
q-49 -66 -84 -169q-32 -94 -32 -142zM164 246v12q0 42 20 86.5t54 81t70.5 55.5t66.5 19q7 0 20 -0.5t27.5 -9t14.5 -35.5t-10.5 -39t-18.5 -21q-2 20 -7 34t-21 14q-65 -19 -116 -65q-55 -50 -55 -105q0 -6 0.5 -25t8 -37.5t20.5 -28.5q20 -18 54 -18t58.5 11.5t47.5 26
t45.5 26t37.5 11.5t20.5 -3.5t5.5 -11t-1.5 -17.5t-15.5 -22.5t-34.5 -23.5t-44.5 -20.5t-47 -16.5q-48 -15 -67.5 -15t-42.5 7t-43 22q-47 37 -47 108z" />
    <glyph glyph-name="ordfeminine" unicode="&#xaa;" horiz-adv-x="255" 
d="M187.878 213.971q-33.0137 -63.9551 -88.0371 -79.1309q-12.7656 -3.25195 -23.1094 -3.25195q-10.3447 0 -17.168 0.271484q-6.82227 0.270508 -15.1865 2.43848q-8.36328 2.16797 -15.4062 7.0459q-16.2871 11.3818 -16.2871 31.9775
q-1.75977 9.75586 -1.75977 21.9502q0 12.1953 4.40137 32.249t16.0664 43.3594t28.3926 42.8174q34.7744 41.1914 75.2715 53.1152q11.8848 3.25195 21.7891 3.25195t17.8271 -1.62598q25.5312 0 34.335 -42.8174q5.72266 -27.0996 6.82324 -75.6074
q1.09961 -48.5088 2.2002 -74.7949q1.10059 -26.2871 5.50293 -47.9668h-25.9707q-1.76172 14.6338 -2.6416 26.0156t-1.76074 21.1377q-2.20117 22.7637 -5.28223 39.5654zM186.117 297.979q0 31.4355 -25.0908 31.4355q-3.08105 0.541992 -6.16211 0.541992
q-32.1338 0 -67.7891 -37.9395q-16.7266 -17.3438 -28.6123 -39.0234q-17.6074 -30.8936 -17.6074 -55.2832q0 -31.9775 29.9336 -37.9395q39.6162 1.08398 75.7109 44.4434q15.4072 18.9697 25.5312 41.1914q14.0859 29.8096 14.0859 52.5732z" />
    <glyph glyph-name="guillemotleft" unicode="&#xab;" horiz-adv-x="718" 
d="M84 229q32 25 75 59t87 68q108 85 155 111q13 0 19 -22q3 -9 3 -18t-4 -15l-235 -179q15 -8 43 -20.5t62 -29.5q81 -40 142 -80q-1 -1 -4 -8t-7 -15q-9 -21 -11 -21q-30 19 -86 38.5t-90 33t-63 27.5q-68 34 -86 71zM318 251q32 25 74.5 59.5t87.5 69.5q105 81 154 110
q13 -2 20 -23q6 -19 -1 -33l-235 -179q15 -8 42.5 -20.5t61.5 -29.5q92 -46 143 -79q-1 -2 -4 -9t-7 -15q-9 -20 -12 -20q-30 19 -86 38.5t-89.5 32.5t-63.5 28q-68 34 -85 70z" />
    <glyph glyph-name="logicalnot" unicode="&#xac;" horiz-adv-x="614" 
d="M587 341q-5 -55 -5 -78v-33q0 -35 -9 -109q-14 -1 -25 -1t-20 2q-17 5 -17 47l3 104l-441 -7l3 65q16 -1 46.5 -1t90.5 5l127 11q82 6 141.5 6t105.5 -11z" />
    <glyph glyph-name="registered" unicode="&#xae;" horiz-adv-x="646" 
d="M116 44q-36 23 -57 57.5t-21 74.5t12 95t30.5 102t45 91t60.5 78q75 73 170 73q128 0 196 -94q63 -85 63 -211q0 -149 -95 -232q-93 -80 -247 -80q-89 0 -157 46zM97 183q0 -135 192 -135q158 0 228 95q-6 -1 -13 -1h-10q-9 0 -36.5 17t-63.5 39q-94 60 -141 76v-110
q0 -8 -10 -8.5t-13 -0.5q-17 0 -20.5 20.5t-3.5 52.5l2 113q0 47 -6 99q13 25 36 -10q29 26 103 26q45 0 82 -10q59 -14 59 -39q0 -30 -96 -61q-107 -35 -120 -42q0 -3 5.5 -6t30.5 -15q89 -44 151.5 -77.5t67.5 -37t7 -7.5q38 64 38 160v8q0 115 -57 176t-156 61h-19.5
h-15.5q-53 0 -105 -72q-49 -66 -84 -169q-32 -94 -32 -142zM374 425q-110 0 -129 -24q-5 -7 -5 -17t1 -18q3 -19 12 -28q2 -1 7 -1t22.5 4t43.5 13q61 20 86 35t25 23.5t-24 12.5h-39z" />
    <glyph glyph-name="macron" unicode="&#xaf;" horiz-adv-x="318" 
d="M80 534q-50 0 -50 25q0 14 11.5 19t40 9t72 11.5t91.5 12.5q42 0 53 -23q1 -4 1 -8.5t-4.5 -12t-22.5 -13.5z" />
    <glyph glyph-name="degree" unicode="&#xb0;" horiz-adv-x="225" 
d="M34 315q-9 15 -9 42t12 47q21 33 60 33q52 0 83 -42q14 -18 17 -41q0 -51 -20.5 -67.5t-62.5 -16.5q-30 0 -50.5 15t-29.5 30zM150 370q-23 24 -49 24q-31 0 -37 -30v-12.5t12 -29.5q18 -15 28 -16t18.5 -1t18.5 8q15 10 15 26.5t-6 30.5z" />
    <glyph glyph-name="plusminus" unicode="&#xb1;" horiz-adv-x="537" 
d="M122 -5q-51 0 -51 26q0 13 11.5 18t26.5 7.5t52 8.5t81 14q-2 21 -4 47t-6 52q-9 59 -22 98q-27 0 -64 -11q-75 -22 -103 -23q-12 0 -18.5 14.5t-6.5 29.5l192 40v166q0 19 35 19q17 0 22 -6.5t8 -21.5t6 -34t5.5 -40t5 -40t2.5 -26l187 21q0 -23 -2 -34t-19 -17
t-55.5 -11t-111.5 -18q-3 -14 -3 -25.5t1.5 -27t6.5 -40.5q12 -68 13 -99q81 14 151 24q41 0 52 -23q3 -4 3 -8.5t-4.5 -12.5t-22.5 -14z" />
    <glyph glyph-name="twosuperior" unicode="&#xb2;" horiz-adv-x="384" 
d="M336.053 257.771q20.6133 0 20.6133 -13.1387q0 -13.1396 -13.7422 -19.1836t-30.9189 -8.67188q-17.1777 -2.62793 -32.1689 -2.89062t-19.0518 -1.05176q-4.05957 -0.788086 -18.1143 -4.2041q-14.0537 -3.41602 -33.418 -7.88379q-19.3633 -4.46777 -41.8496 -9.72266
q-70.584 -15.7676 -112.435 -15.7676q-21.2373 0 -28.4209 5.51855t-2.81055 15.5039q46.8477 34.6885 97.4424 89.3477q75.5811 81.4639 75.5811 127.189q0 8.93457 -3.12305 16.8184q-6.87109 16.292 -35.6045 21.0225q-27.4834 0 -44.9736 -9.45996
q-17.4893 -9.46094 -32.793 -21.0234t-31.2314 -21.0225q-15.9287 -9.46094 -39.04 -9.46094q0.625 17.3447 16.8652 33.6367q32.4805 33.6367 91.8213 48.3535q21.2373 5.78125 33.7295 5.78125q12.4932 0 18.7393 -0.525391q24.3613 -2.10254 41.8506 -14.7168
q17.4902 -12.6133 20.6133 -38.8926q0 -74.1055 -82.4521 -164.504q-22.4863 -24.7021 -44.3486 -45.7256q6.87109 -0.525391 21.5498 -0.525391t40.2891 6.04395q25.6094 6.04492 54.3428 14.7168t56.8418 16.5547q28.1084 7.88379 56.2168 7.88379z" />
    <glyph glyph-name="threesuperior" unicode="&#xb3;" horiz-adv-x="336" 
d="M294.158 463.283q0 -34.4707 -57.3926 -81.0078q-14.3477 -10.916 -24.5107 -19.5332q73.5342 -1.14941 87.8818 -33.3223q2.98926 -7.46875 2.98926 -15.5127q0 -8.04297 -4.4834 -21.5449q-4.48438 -13.501 -18.832 -31.8857q-14.3486 -18.3848 -34.6748 -35.6201
q-42.4463 -35.6211 -89.6758 -49.4092q-16.1416 -4.59668 -26.0059 -4.59668t-15.8428 0.288086q-5.97852 0.287109 -12.5547 3.73438q-6.57617 3.44629 -6.57617 11.4902q44.8379 10.916 78.9141 31.0244q34.0771 20.1084 53.8057 41.9404q23.3164 27.002 23.3164 44.8125
t-11.3594 24.1299q-11.3584 6.31934 -29.2939 6.31934q-45.4355 0 -123.753 -35.6201l-20.9238 25.8535q181.145 80.4336 181.145 115.479q0 14.9375 -34.0762 19.5342q-35.2725 0 -80.4102 -11.4912q-45.1367 -11.4902 -69.6475 -16.6611
q-24.5117 -5.1709 -50.2188 -5.1709q0 27.0029 13.75 31.5996q25.1094 5.74512 53.208 12.6387q92.0674 22.4072 147.367 22.4072t67.8545 -29.876z" />
    <glyph glyph-name="acute" unicode="&#xb4;" horiz-adv-x="176" 
d="M94 605q14 19 30 19q10 0 15 -9.5t4 -18.5t-5 -17t-13 -19q-17 -19 -69 -62l-31 28z" />
    <glyph glyph-name="mu" unicode="&#xb5;" horiz-adv-x="502" 
d="M33 226q0 220 43 220q15 0 37 -20q-1 -38 -5 -69q-7 -63 -7 -91t0.5 -47.5t8.5 -58.5q25 -40 90 -67q47 -20 91 -20t68 18.5t31 46.5q8 46 8 74q0 48 -7.5 101.5t-7.5 67t1 21.5q3 22 30 28q23 -23 36 -113q8 -59 8 -110.5t-1 -78.5q-1 -147 -27 -154q-3 -1 -10 -1t-23 9
q-3 2 -3 21q0 37 -2 35q-44 -35 -107 -35q-60 0 -117 26q-51 23 -67 50q-1 -11 -1 -21l4 -88q0 -63 -24 -76q-6 -4 -16 -4t-22 4q1 5 1 16.5t-1 34.5l-3 69q-6 140 -6 212z" />
    <glyph glyph-name="paragraph" unicode="&#xb6;" horiz-adv-x="388" 
d="M313 424l-11 2q-6 0 -8 -180.5t-2 -211.5l-1 -32q-6 0 -16 -0.5t-19 2.5q-22 7 -20 36q2 26 3 73q2 96 3 107q-93 18 -146 50q-78 49 -78 104t70 86q49 22 120 22t157 -27l-15 -456l-40 3q-2 0 -2 32l6 358q0 32 -1 32z" />
    <glyph glyph-name="periodcentered" unicode="&#xb7;" horiz-adv-x="144" 
d="M15 240q5 24 17 32.5t19 8.5t16 -1.5t21 -13t14 -27.5q0 -24 -10 -31.5t-23 -7.5t-21 2.5t-16 7.5q-17 12 -17 30z" />
    <glyph glyph-name="cedilla" unicode="&#xb8;" horiz-adv-x="273" 
d="M47 8q0 20 12 20t21 -13.5t5 -16.5q0 -27 1 -48t19 -21q22 2 47.5 2t52.5 -10q40 -16 40 -53q0 -40 -47 -72q-41 -29 -94 -29q-27 0 -58 10q-3 0 -3 5t0.5 12t1 13.5t-1.5 8.5q11 -1 27 -1t42 4.5t50 14t36 20.5q26 24 -30 32q-12 2 -33 2t-53 -3q-34 0 -34 108
q-1 9 -1 15z" />
    <glyph glyph-name="onesuperior" unicode="&#xb9;" horiz-adv-x="115" 
d="M26.7451 150.325q0 9.88574 1.16504 30.959t2.33008 47.6104q1.16406 26.5361 2.71777 55.6748q1.55371 29.1377 2.71777 55.6748q1.16504 26.5361 1.94141 47.3496q0.777344 20.8125 1.55371 31.2188q-1.55371 11.4473 6.21289 14.5693t17.4736 3.12207
q9.70801 0 17.0859 -1.04102q7.37695 -1.04004 10.4844 -8.3252l-12.4258 -267.446q-1.55371 -9.36621 -21.7461 -13.2686q-20.1914 -3.90234 -29.5107 3.90234z" />
    <glyph glyph-name="ordmasculine" unicode="&#xba;" horiz-adv-x="278" 
d="M23.709 248.659q0 62.5146 46.5049 100.659q36.9307 30.1973 88.9062 36.5547h12.7666t26.9004 -6.88672q37.3857 -14.834 51.0645 -52.4492q5.4707 -14.834 5.4707 -25.1641q0 -10.3311 -0.456055 -14.5693q0 -66.2236 -43.3135 -104.368
q-40.1221 -34.9648 -100.305 -34.9648q-43.3145 0 -65.4268 23.3105t-22.1123 77.8779zM55.168 235.944q0 -32.8467 15.0459 -44.502q11.3984 -8.47656 38.2979 -8.47656q26.9004 0 47.417 4.76855q20.5176 4.76758 36.4746 16.4229q34.1953 25.4297 34.1953 78.9385
q0 31.7871 -14.5898 51.918q-15.958 21.7217 -41.9463 21.7217q-17.7812 -3.70801 -35.79 -7.94629q-18.0098 -4.23828 -33.9678 -16.4238q-34.6504 -25.959 -45.1367 -96.4209z" />
    <glyph glyph-name="guillemotright" unicode="&#xbb;" horiz-adv-x="670" 
d="M118 48q-45 17 -50 36v7q0 31 71 73q105 61 137 85.5t38 47.5l-264 99l50 49q49 -35 90.5 -49t80 -22.5t76.5 -20t79 -42.5q-26 -31 -65.5 -62.5t-83 -64.5t-86 -67t-73.5 -69zM345 76q-88 34 -23 85q33 26 80.5 53t72.5 44q59 38 67 67l-265 99l50 49q49 -35 90.5 -49
t80.5 -22.5t76.5 -20t79.5 -42.5q-26 -31 -65.5 -62.5t-83 -64.5t-86 -67t-74.5 -69z" />
    <glyph glyph-name="onequarter" unicode="&#xbc;" horiz-adv-x="635" 
d="M62.8428 156.518q0 8.92676 1.06348 27.9561q1.0625 19.0283 2.12598 42.9912q1.0625 23.9619 2.48047 50.2734q1.41699 26.3115 2.48047 50.2744q1.0625 23.9619 1.77148 42.7559t1.41699 28.1904q-1.41699 10.3369 5.66992 13.1562t15.9453 2.81934t15.5908 -0.94043
q6.73242 -0.939453 9.56738 -7.51758l-11.3389 -241.502q-1.41797 -8.45703 -19.8438 -11.9805q-18.4248 -3.52441 -26.9297 3.52344zM31 -8q-18 0 -18 32v10q15 44 395 614q19 29 22 33q5 -3 5 -14t-12 -46t-43.5 -101t-76 -144.5t-92.5 -153.5q-111 -172 -180 -230z
M363.122 14.499q-12.7549 0 -14.5762 6.80078l2.42871 112.209h-44.3369l-72.8838 0.566406h-43.7295q-7.89551 0 -15.791 2.2666q-7.89648 2.26758 -7.89648 11.9014q32.1904 38.5361 62.5586 77.6396q96.5703 122.977 132.404 122.977q40.0859 0 40.0859 -131.478
q0 -17.001 -0.607422 -36.2695l134.228 1.7002q0 -14.7344 -3.94824 -21.5352t-6.98438 -7.36719l-112.362 -8.5q-8.50293 -22.1025 -10.3252 -49.8711q-3.03613 -45.3369 -3.03613 -75.9395zM350.975 296.155q-13.3613 -17.002 -32.4932 -33.1533t-37.3525 -32.3018
q-18.2207 -16.1514 -32.7979 -32.5859t-18.2207 -34.0029h18.8281q14.5762 0 41.9082 3.11719q27.3311 3.11621 60.1279 6.5166v122.41z" />
    <glyph glyph-name="onehalf" unicode="&#xbd;" horiz-adv-x="664" 
d="M26.4746 148.562q0 8.97949 1.15137 28.1191q1.15039 19.1406 2.30078 43.2432q1.15039 24.1016 2.68457 50.5674q1.5332 26.4648 2.68359 50.5674t1.91797 43.0059q0.766602 18.9043 1.5332 28.3564q-1.5332 10.3965 6.13672 13.2324q7.66895 2.83594 17.2559 2.83594
q9.58789 0 16.874 -0.945312t10.3535 -7.56152l-12.2715 -242.914q-1.53418 -8.50684 -21.4746 -12.0518q-19.9414 -3.54395 -29.1455 3.54492zM41 0q-18 0 -18 32v10q15 44 395 614q19 29 22 33q5 -3 5 -14t-12 -46t-43.5 -101t-76 -144.5t-92.5 -153.5
q-111 -172 -180 -230zM522.041 107.851q20.7959 0 20.7959 -14.7979t-13.8633 -21.6055q-13.8643 -6.80664 -31.1943 -9.7666t-32.4551 -3.25586t-19.2207 -1.18359q-4.09668 -0.887695 -18.2754 -4.73535q-14.1797 -3.84766 -33.7148 -8.87891
q-19.5361 -5.03125 -42.2227 -10.9502q-71.2119 -17.7578 -113.434 -17.7578q-21.4268 0 -28.6738 6.21582q-7.24707 6.21484 -2.83594 17.4609q47.2637 39.0664 98.3096 100.627q76.252 91.7471 76.252 143.244q0 10.0625 -3.15039 18.9414
q-6.93262 18.3496 -35.9209 23.6768q-27.7285 0 -45.373 -10.6553q-17.6455 -10.6543 -33.085 -23.6758q-15.4404 -13.0225 -31.5098 -23.6777q-16.0693 -10.6543 -39.3867 -10.6543q0.629883 19.5332 17.0146 37.8828q32.7705 37.8828 92.6377 54.457
q21.4268 6.51074 34.0303 6.51074t18.9062 -0.591797q24.5771 -2.36816 42.2227 -16.5732q17.6445 -14.207 20.7959 -43.8027q0 -83.46 -83.1846 -185.271q-22.6875 -27.8203 -44.7441 -51.4971q6.93262 -0.591797 21.7422 -0.591797t40.6465 6.80762
q25.8379 6.80664 54.8271 16.5732q28.9883 9.7666 57.3467 18.6455t56.7168 8.87891z" />
    <glyph glyph-name="threequarters" unicode="&#xbe;" horiz-adv-x="883" 
d="M341.289 456.388q0 -36.9688 -67.5762 -86.877q-16.8945 -11.707 -28.8613 -20.9492q86.582 -1.23242 103.477 -35.7363q3.51953 -8.00977 3.51953 -16.6357q0 -8.62695 -5.2793 -23.1064t-22.1738 -34.1963q-16.8936 -19.7168 -40.8271 -38.2012
q-49.9785 -38.2012 -105.588 -52.9883q-19.0059 -4.92969 -30.6201 -4.92969q-11.6152 0 -18.6543 0.308594q-7.03906 0.307617 -14.7822 4.00488q-7.74316 3.69629 -7.74316 12.3223q52.7939 11.707 92.918 33.2725q40.123 21.5654 63.3525 44.9785
q27.4521 28.96 27.4521 48.0605t-13.374 25.8779q-13.375 6.77734 -34.4922 6.77734q-53.498 0 -145.711 -38.2012l-24.6377 27.7266q213.288 86.2617 213.288 123.847q0 16.0195 -40.124 20.9492q-41.5312 0 -94.6768 -12.3232t-82.0068 -17.8682
q-28.8604 -5.5459 -59.1289 -5.5459q0 28.959 16.1904 33.8887q29.5645 6.16113 62.6484 13.5557q108.403 24.0293 173.516 24.0293q65.1133 0 79.8955 -32.04zM220 -20q-18 0 -18 32v10q15 44 395 614q19 29 22 33q5 -3 5 -14t-12 -46t-43.5 -101t-76 -144.5t-92.5 -153.5
q-111 -172 -180 -230zM528.5 14.3652q-13.832 0 -15.8086 7.70801l2.63477 127.182h-48.084l-79.043 0.642578h-47.4258q-8.5625 0 -17.126 2.56934t-8.56348 13.4893q34.9111 43.6787 67.8457 87.999q104.732 139.387 143.595 139.387q43.4736 0 43.4736 -149.021
q0 -19.2695 -0.658203 -41.1094l145.57 1.92773q0 -16.7012 -4.28125 -24.4092t-7.5752 -8.35059l-121.858 -9.63477q-9.2207 -25.0508 -11.1973 -56.5254q-3.29297 -51.3867 -3.29297 -86.0723zM515.326 333.605q-14.4902 -19.2705 -35.2393 -37.5771t-40.5098 -36.6133
q-19.7607 -18.3057 -35.5693 -36.9336t-19.7607 -38.54h20.4189t45.4502 3.53223q29.6416 3.5332 65.21 7.3877v138.744z" />
    <glyph glyph-name="questiondown" unicode="&#xbf;" horiz-adv-x="496" 
d="M155.438 727.031q30.2451 0 30.2451 -35.5527q0 -35.5537 -30.2451 -35.5537q-5.88086 -2.03125 -13.0225 -2.03125q-7.14062 0 -14.7021 10.666t-7.56152 26.9189t7.56152 26.9189t14.7021 10.666q7.1416 0 13.0225 -2.03223zM153.758 447.685
q131.904 0 131.904 -50.791q0 -8.12598 -3.36133 -18.2842q-112.58 -75.1699 -147.025 -101.581q-109.22 -83.2959 -109.22 -137.134q0 -47.7432 88.2158 -73.1387q36.126 0 90.7363 11.6826q54.6094 11.6816 83.1738 17.2686q28.5654 5.58691 57.1309 5.58691
q9.24121 0 20.583 -15.2373q11.3428 -15.2373 14.7031 -30.4746q-105.858 -41.6475 -202.476 -41.6475q-69.7324 0 -115.941 20.3154q-91.5762 38.6016 -91.5762 112.755q0 68.0596 94.0967 151.355q50.4092 44.6963 132.744 89.3916l-96.6172 33.5215v23.3633
q20.1631 3.04785 52.9287 3.04785z" />
    <glyph glyph-name="Agrave" unicode="&#xc0;" horiz-adv-x="656" 
d="M544 361h28q17 0 32.5 -3t15.5 -22q7 -40 -47 -39q-15 1 -27.5 2t-20.5 0.5t-7 -5.5q10 -29 21.5 -65t25.5 -72q36 -89 68 -128q-17 -21 -39.5 -35t-24 -14t-2.5 1l-141 297l-273 -67l-10 -42q-29 -115 -65 -160q-6 -10 -25 -2q-32 12 -32 20q0 2 21 58t42.5 113.5
t45 120.5t44.5 120t38 102.5t24 66t9.5 36t7.5 26.5q10 23 50 23q43 -24 66.5 -62.5t40 -82.5t32.5 -89t43 -82q9 -14 27 -15t32 -1zM294 577q-8 -61 -36 -125t-45 -99.5t-29 -65.5q68 0 167 40q25 11 48 20q-47 201 -105 230zM253 839q0 28 15 28q9 0 22 -14l67 -65
l-17 -43q-66 45 -78 65q-4 8 -6.5 16t-2.5 13z" />
    <glyph glyph-name="Aacute" unicode="&#xc1;" horiz-adv-x="656" 
d="M549 366h28q17 0 32.5 -3t15.5 -22q7 -40 -47 -39q-15 1 -27.5 2t-20.5 0.5t-7 -5.5q10 -29 21.5 -65t25.5 -72q36 -89 68 -128q-17 -21 -39.5 -35t-24 -14t-2.5 1l-141 297l-273 -67l-10 -42q-29 -115 -65 -160q-6 -10 -25 -2q-32 12 -32 20q0 2 21 58t42.5 113.5
t45 120.5t44.5 120t38 102.5t24 66t9.5 36t7.5 26.5q10 23 50 23q43 -24 66.5 -62.5t40 -82.5t32.5 -89t43 -82q9 -14 27 -15t32 -1zM299 582q-8 -61 -36 -125t-45 -99.5t-29 -65.5q68 0 167 40q25 11 48 20q-47 201 -105 230zM275 860q14 19 30 19q10 0 15 -9.5t4 -18.5
t-5 -17t-13 -19q-17 -19 -69 -62l-31 28z" />
    <glyph glyph-name="Acircumflex" unicode="&#xc2;" horiz-adv-x="656" 
d="M549 366h28q17 0 32.5 -3t15.5 -22q7 -40 -47 -39q-15 1 -27.5 2t-20.5 0.5t-7 -5.5q10 -29 21.5 -65t25.5 -72q36 -89 68 -128q-17 -21 -39.5 -35t-24 -14t-2.5 1l-141 297l-273 -67l-10 -42q-29 -115 -65 -160q-6 -10 -25 -2q-32 12 -32 20q0 2 21 58t42.5 113.5
t45 120.5t44.5 120t38 102.5t24 66t9.5 36t7.5 26.5q10 23 50 23q43 -24 66.5 -62.5t40 -82.5t32.5 -89t43 -82q9 -14 27 -15t32 -1zM299 582q-8 -61 -36 -125t-45 -99.5t-29 -65.5q68 0 167 40q25 11 48 20q-47 201 -105 230zM169.5 681q-11.5 5 -11.5 24t10.5 37t29.5 38
q42 44 104 73q51 -33 68 -47q28 -25 64 -81q6 -12 6 -22.5t-4 -16.5q-11 -16 -36 -1q-37 27 -43.5 33t-18.5 19t-43 43q-61 -42 -83 -78q-7 -12 -13 -26q-18 0 -29.5 5z" />
    <glyph glyph-name="Atilde" unicode="&#xc3;" horiz-adv-x="656" 
d="M549 366h28q17 0 32.5 -3t15.5 -22q7 -40 -47 -39q-15 1 -27.5 2t-20.5 0.5t-7 -5.5q10 -29 21.5 -65t25.5 -72q36 -89 68 -128q-17 -21 -39.5 -35t-24 -14t-2.5 1l-141 297l-273 -67l-10 -42q-29 -115 -65 -160q-6 -10 -25 -2q-32 12 -32 20q0 2 21 58t42.5 113.5
t45 120.5t44.5 120t38 102.5t24 66t9.5 36t7.5 26.5q10 23 50 23q43 -24 66.5 -62.5t40 -82.5t32.5 -89t43 -82q9 -14 27 -15t32 -1zM299 582q-8 -61 -36 -125t-45 -99.5t-29 -65.5q68 0 167 40q25 11 48 20q-47 201 -105 230zM254 798q-32 0 -86 -81q-6 0 -19.5 4t-16.5 17
q15 48 45 85t63 50q8 3 18 3t24.5 -10.5t32.5 -29.5t37 -36t40.5 -17t34 7t23 20t23 32t35.5 43q6 0 12.5 -10.5t7 -18t0.5 -18.5t-7.5 -29t-24.5 -36q-44 -47 -106 -47q-46 0 -74 31q-20 18 -34 29.5t-28 11.5z" />
    <glyph glyph-name="Adieresis" unicode="&#xc4;" horiz-adv-x="656" 
d="M549 366h28q17 0 32.5 -3t15.5 -22q7 -40 -47 -39q-15 1 -27.5 2t-20.5 0.5t-7 -5.5q10 -29 21.5 -65t25.5 -72q36 -89 68 -128q-17 -21 -39.5 -35t-24 -14t-2.5 1l-141 297l-273 -67l-10 -42q-29 -115 -65 -160q-6 -10 -25 -2q-32 12 -32 20q0 2 21 58t42.5 113.5
t45 120.5t44.5 120t38 102.5t24 66t9.5 36t7.5 26.5q10 23 50 23q43 -24 66.5 -62.5t40 -82.5t32.5 -89t43 -82q9 -14 27 -15t32 -1zM299 582q-8 -61 -36 -125t-45 -99.5t-29 -65.5q68 0 167 40q25 11 48 20q-47 201 -105 230zM230 748q-24 0 -24 34q0 12 50 33
q21 0 28.5 -9t7.5 -23t-6 -20.5t-15 -9.5q-12 -5 -41 -5zM374 748q-24 0 -24 34q0 13 51 33q36 0 36 -34q0 -31 -42 -32q-11 -1 -21 -1z" />
    <glyph glyph-name="Aring" unicode="&#xc5;" horiz-adv-x="656" 
d="M549 366h28q17 0 32.5 -3t15.5 -22q7 -40 -47 -39q-15 1 -27.5 2t-20.5 0.5t-7 -5.5q10 -29 21.5 -65t25.5 -72q36 -89 68 -128q-17 -21 -39.5 -35t-24 -14t-2.5 1l-141 297l-273 -67l-10 -42q-29 -115 -65 -160q-6 -10 -25 -2q-32 12 -32 20q0 2 21 58t42.5 113.5
t45 120.5t44.5 120t38 102.5t24 66t9.5 36t7.5 26.5q10 23 50 23q43 -24 66.5 -62.5t40 -82.5t32.5 -89t43 -82q9 -14 27 -15t32 -1zM299 582q-8 -61 -36 -125t-45 -99.5t-29 -65.5q68 0 167 40q25 11 48 20q-47 201 -105 230zM212 714q-9 15 -9 41.5t12 46.5q20 33 60 33
q26 0 49 -12q47 -25 51 -71q0 -50 -21 -66.5t-61 -16.5q-31 0 -51.5 15t-29.5 30zM328 769q-22 23 -49 23q-31 0 -37 -30v-12.5t12 -28.5q21 -17 38 -17q35 0 42 30v13t-6 22z" />
    <glyph glyph-name="AE" unicode="&#xc6;" horiz-adv-x="898" 
d="M731 559l-139 3q-69 0 -115 -10q-19 -88 -17 -113t3 -41q3 -50 3 -92q72 0 133 8q120 16 184 16v-54l-309 -38l5 -164q115 0 186 6q129 11 215 11q4 -2 4 -9t-7 -16q-19 -25 -52 -32q-111 -12 -221 -19t-207 -15v3q-32 5 -34 7l-25 242l-176 -26q-4 -15 -10.5 -41.5
t-15.5 -55.5q-22 -71 -49 -105q-6 -8 -24 -1.5t-25.5 11.5t-7.5 18t10 51.5t28 90t40.5 109t45.5 111.5q54 127 81 169q21 46 45 69q29 28 52 28q46 0 69 -42q32 -8 84 -9t108 -1q145 0 187 -16v-50q-22 -3 -49 -3zM346 355l4 127q0 56 -8 104q-125 -183 -149 -284
q44 0 72 6q53 12 84 13q-3 14 -3 34z" />
    <glyph glyph-name="Ccedilla" unicode="&#xc7;" horiz-adv-x="725" 
d="M522 555q-65 64 -144 64q-75 0 -144 -57q-87 -72 -120 -186q-12 -41 -12 -68t2 -42q0 -99 67 -152q63 -49 161 -49q134 11 257 103q34 26 72 50q14 0 28.5 -4t14.5 -23q-99 -86 -167 -124q-126 -68 -228 -68h-13q-111 0 -190 69q-84 73 -84 182q0 82 29.5 157t81 132.5
t122 91.5t151.5 34q69 0 90 -19q26 -23 26 -91zM268 15q0 20 12 20t21 -13.5t5 -16.5q0 -27 1 -48t19 -21q22 2 47.5 2t52.5 -10q40 -16 40 -53q0 -40 -47 -72q-41 -29 -94 -29q-27 0 -58 10q-3 0 -3 5t0.5 12t1 13.5t-1.5 8.5q11 -1 27 -1t42 4.5t50 14t36 20.5
q26 24 -30 32q-12 2 -33 2t-53 -3q-34 0 -34 108q-1 9 -1 15z" />
    <glyph glyph-name="Egrave" unicode="&#xc8;" horiz-adv-x="606" 
d="M353 635q100 0 133 -13v-49q-27 -4 -74 -4.5t-100 -1.5q-148 -3 -202 -15q-17 -80 -16 -109t2 -45q4 -39 4 -92q68 0 155.5 12t135.5 17.5t99 5.5v-55l-383 -48l6 -164q99 0 202.5 9.5t157 14t113.5 4.5q0 -20 -12 -38q-24 -32 -43 -19q-176 -19 -314.5 -30t-186.5 -15
l4 638q26 -8 96 -8zM187 768q0 28 15 28q9 0 22 -14l67 -65l-17 -43q-66 45 -78 65q-4 8 -6.5 16t-2.5 13z" />
    <glyph glyph-name="Eacute" unicode="&#xc9;" horiz-adv-x="606" 
d="M353 635q100 0 133 -13v-49q-27 -4 -74 -4.5t-100 -1.5q-148 -3 -202 -15q-17 -80 -16 -109t2 -45q4 -39 4 -92q68 0 155.5 12t135.5 17.5t99 5.5v-55l-383 -48l6 -164q99 0 202.5 9.5t157 14t113.5 4.5q0 -20 -12 -38q-24 -32 -43 -19q-176 -19 -314.5 -30t-186.5 -15
l4 638q26 -8 96 -8zM281 788q14 19 30 19q10 0 15 -9.5t4 -18.5t-5 -17t-13 -19q-17 -19 -69 -62l-31 28z" />
    <glyph glyph-name="Ecircumflex" unicode="&#xca;" horiz-adv-x="606" 
d="M353 635q100 0 133 -13v-49q-27 -4 -74 -4.5t-100 -1.5q-148 -3 -202 -15q-17 -80 -16 -109t2 -45q4 -39 4 -92q68 0 155.5 12t135.5 17.5t99 5.5v-55l-383 -48l6 -164q99 0 202.5 9.5t157 14t113.5 4.5q0 -20 -12 -38q-24 -32 -43 -19q-176 -19 -314.5 -30t-186.5 -15
l4 638q26 -8 96 -8zM154.5 681q-11.5 5 -11.5 24t10.5 37t29.5 38q42 44 104 73q51 -33 68 -47q28 -25 64 -81q6 -12 6 -22.5t-4 -16.5q-11 -16 -36 -1q-37 27 -43.5 33t-18.5 19t-43 43q-61 -42 -83 -78q-7 -12 -13 -26q-18 0 -29.5 5z" />
    <glyph glyph-name="Edieresis" unicode="&#xcb;" horiz-adv-x="606" 
d="M353 635q100 0 133 -13v-49q-27 -4 -74 -4.5t-100 -1.5q-148 -3 -202 -15q-17 -80 -16 -109t2 -45q4 -39 4 -92q68 0 155.5 12t135.5 17.5t99 5.5v-55l-383 -48l6 -164q99 0 202.5 9.5t157 14t113.5 4.5q0 -20 -12 -38q-24 -32 -43 -19q-176 -19 -314.5 -30t-186.5 -15
l4 638q26 -8 96 -8zM190 673q-24 0 -24 34q0 12 50 33q21 0 28.5 -9t7.5 -23t-6 -20.5t-15 -9.5q-12 -5 -41 -5zM334 673q-24 0 -24 34q0 13 51 33q36 0 36 -34q0 -31 -42 -32q-11 -1 -21 -1z" />
    <glyph glyph-name="Igrave" unicode="&#xcc;" 
d="M105 16q0 -17 -24 -17q-18 0 -43 17q-12 27 -12 129t2 168.5t4 122.5q6 122 6 129q29 17 48 17t19 -17v-549zM8 733q0 28 15 28q9 0 22 -14l67 -65l-17 -43q-66 45 -78 65q-4 8 -6.5 16t-2.5 13z" />
    <glyph glyph-name="Iacute" unicode="&#xcd;" 
d="M105 16q0 -17 -24 -17q-18 0 -43 17q-12 27 -12 129t2 168.5t4 122.5q6 122 6 129q29 17 48 17t19 -17v-549zM81 711q14 19 30 19q10 0 15 -9.5t4 -18.5t-5 -17t-13 -19q-17 -19 -69 -62l-31 28z" />
    <glyph glyph-name="Icircumflex" unicode="&#xce;" 
d="M105 16q0 -17 -24 -17q-18 0 -43 17q-12 27 -12 129t2 168.5t4 122.5q6 122 6 129q29 17 48 17t19 -17v-549zM-45.5 615q-11.5 5 -11.5 24t10.5 37t29.5 38q42 44 104 73q51 -33 68 -47q28 -25 64 -81q6 -12 6 -22.5t-4 -16.5q-11 -16 -36 -1q-37 27 -43.5 33t-18.5 19
t-43 43q-61 -42 -83 -78q-7 -12 -13 -26q-18 0 -29.5 5z" />
    <glyph glyph-name="Idieresis" unicode="&#xcf;" 
d="M105 16q0 -17 -24 -17q-18 0 -43 17q-12 27 -12 129t2 168.5t4 122.5q6 122 6 129q29 17 48 17t19 -17v-549zM-23 628q-24 0 -24 34q0 12 50 33q21 0 28.5 -9t7.5 -23t-6 -20.5t-15 -9.5q-12 -5 -41 -5zM121 628q-24 0 -24 34q0 13 51 33q36 0 36 -34q0 -31 -42 -32
q-11 -1 -21 -1z" />
    <glyph glyph-name="Eth" unicode="&#xd0;" horiz-adv-x="698" 
d="M60 194q-50 0 -50 25q0 14 11.5 19t21 6.5t16 2t14.5 2.5v389h13q24 0 37.5 -7.5t15.5 -16.5q74 26 196 26q224 0 307 -110q31 -42 31 -107q1 -8 1 -30t-16.5 -61t-50 -79t-79.5 -75.5t-97 -65.5t-103 -52q-122 -53 -209 -53q-27 0 -46 7v180h-13zM157 548v-286
q33 6 68 9q42 0 53 -23q4 -9 -2 -18.5t-24 -15.5l-95 -11v-132q70 0 175 51q182 90 250 209q24 42 24 84q-11 90 -100 132q-67 32 -171 32t-178 -31z" />
    <glyph glyph-name="Ntilde" unicode="&#xd1;" horiz-adv-x="642" 
d="M608 353q0 -304 -25 -356l-73 6q-55 95 -185 267q-51 68 -101.5 135t-92.5 133q-20 -89 -20 -356q0 -102 -4 -172q-19 -18 -41.5 -18t-31.5 4.5t-9 15t2.5 33t6 75.5t6.5 112q8 154 8 265.5t-2 183.5q22 20 34 29t27 -0.5t38.5 -41t66.5 -93.5q147 -209 289 -392l19 498
q11 20 22 27.5t29 7.5q35 0 35 -64l-1 -37zM244 819q-32 0 -86 -81q-6 0 -19.5 4t-16.5 17q15 48 45 85t63 50q8 3 18 3t24.5 -10.5t32.5 -29.5t37 -36t40.5 -17t34 7t23 20t23 32t35.5 43q6 0 12.5 -10.5t7 -18t0.5 -18.5t-7.5 -29t-24.5 -36q-44 -47 -106 -47
q-46 0 -74 31q-20 18 -34 29.5t-28 11.5z" />
    <glyph glyph-name="Ograve" unicode="&#xd2;" horiz-adv-x="686" 
d="M46 168q-24 54 -24 127t23.5 129.5t64.5 97.5q87 85 218 85q137 0 226 -63q100 -72 100 -206q0 -166 -76.5 -245t-238.5 -79q-225 0 -293 154zM104 315q0 -236 238 -236q117 0 190 70q73 69 73 181q0 105 -87 160q-74 48 -187 48q-90 0 -159 -65q-68 -65 -68 -158z
M282 746q0 28 15 28q9 0 22 -14l67 -65l-17 -43q-66 45 -78 65q-4 8 -6.5 16t-2.5 13z" />
    <glyph glyph-name="Oacute" unicode="&#xd3;" horiz-adv-x="686" 
d="M46 168q-24 54 -24 127t23.5 129.5t64.5 97.5q87 85 218 85q137 0 226 -63q100 -72 100 -206q0 -166 -76.5 -245t-238.5 -79q-225 0 -293 154zM104 315q0 -236 238 -236q117 0 190 70q73 69 73 181q0 105 -87 160q-74 48 -187 48q-90 0 -159 -65q-68 -65 -68 -158z
M359 754q14 19 30 19q10 0 15 -9.5t4 -18.5t-5 -17t-13 -19q-17 -19 -69 -62l-31 28z" />
    <glyph glyph-name="Ocircumflex" unicode="&#xd4;" horiz-adv-x="686" 
d="M46 168q-24 54 -24 127t23.5 129.5t64.5 97.5q87 85 218 85q137 0 226 -63q100 -72 100 -206q0 -166 -76.5 -245t-238.5 -79q-225 0 -293 154zM104 315q0 -236 238 -236q117 0 190 70q73 69 73 181q0 105 -87 160q-74 48 -187 48q-90 0 -159 -65q-68 -65 -68 -158z
M215.5 621q-11.5 5 -11.5 24t10.5 37t29.5 38q42 44 104 73q51 -33 68 -47q28 -25 64 -81q6 -12 6 -22.5t-4 -16.5q-11 -16 -36 -1q-37 27 -43.5 33t-18.5 19t-43 43q-61 -42 -83 -78q-7 -12 -13 -26q-18 0 -29.5 5z" />
    <glyph glyph-name="Otilde" unicode="&#xd5;" horiz-adv-x="686" 
d="M46 168q-24 54 -24 127t23.5 129.5t64.5 97.5q87 85 218 85q137 0 226 -63q100 -72 100 -206q0 -166 -76.5 -245t-238.5 -79q-225 0 -293 154zM104 315q0 -236 238 -236q117 0 190 70q73 69 73 181q0 105 -87 160q-74 48 -187 48q-90 0 -159 -65q-68 -65 -68 -158z
M294 712q-32 0 -86 -81q-6 0 -19.5 4t-16.5 17q15 48 45 85t63 50q8 3 18 3t24.5 -10.5t32.5 -29.5t37 -36t40.5 -17t34 7t23 20t23 32t35.5 43q6 0 12.5 -10.5t7 -18t0.5 -18.5t-7.5 -29t-24.5 -36q-44 -47 -106 -47q-46 0 -74 31q-20 18 -34 29.5t-28 11.5z" />
    <glyph glyph-name="Odieresis" unicode="&#xd6;" horiz-adv-x="686" 
d="M46 168q-24 54 -24 127t23.5 129.5t64.5 97.5q87 85 218 85q137 0 226 -63q100 -72 100 -206q0 -166 -76.5 -245t-238.5 -79q-225 0 -293 154zM104 315q0 -236 238 -236q117 0 190 70q73 69 73 181q0 105 -87 160q-74 48 -187 48q-90 0 -159 -65q-68 -65 -68 -158z
M252 646q-24 0 -24 34q0 12 50 33q21 0 28.5 -9t7.5 -23t-6 -20.5t-15 -9.5q-12 -5 -41 -5zM396 646q-24 0 -24 34q0 13 51 33q36 0 36 -34q0 -31 -42 -32q-11 -1 -21 -1z" />
    <glyph glyph-name="multiply" unicode="&#xd7;" horiz-adv-x="482" 
d="M249 209q-96 -115 -119 -134q-21 0 -33 9t-15 14q43 43 75.5 84.5t40.5 56.5q-35 38 -59.5 66t-43.5 48.5t-19 21.5l42 46q33 -40 48.5 -61t25.5 -34q17 -23 46 -50q10 13 22 31.5t26 38.5q31 46 58 79q17 0 26.5 -11.5t9.5 -22.5q-19 -41 -43 -71.5t-34.5 -45
t-16.5 -32.5q46 -33 104 -106q14 -17 20 -26q0 -10 -12.5 -22.5t-16.5 -14.5q-14 7 -29 24t-32 37q-43 54 -71 75z" />
    <glyph glyph-name="Oslash" unicode="&#xd8;" horiz-adv-x="686" 
d="M46 168q-24 54 -24 127t23.5 129.5t64.5 97.5q87 85 218 85q137 0 226 -63q100 -72 100 -206q0 -166 -76.5 -245t-238.5 -79q-225 0 -293 154zM104 315q0 -236 238 -236q117 0 190 70q73 69 73 181q0 105 -87 160q-74 48 -187 48q-90 0 -159 -65q-68 -65 -68 -158z
M129 -33q-18 0 -18 32v10q15 44 395 614q19 29 22 33q5 -3 5 -14t-12 -46t-43.5 -101t-76 -144.5t-92.5 -153.5q-111 -172 -180 -230z" />
    <glyph glyph-name="Ugrave" unicode="&#xd9;" horiz-adv-x="575" 
d="M526 16q0 -18 -31 -18q-15 0 -27.5 4.5t-15.5 7.5l10 128q-92 -79 -134 -99q-66 -33 -135 -33q-13 0 -27 1q-146 16 -146 187q0 78 40 265q13 58 17 106q3 1 13 1h12q5 1 9 1q32 0 32 -48q0 -33 -13 -82q-40 -161 -40 -223q0 -65 34 -102q22 -24 69 -29h12q163 0 214 157
q30 92 35 222q3 60 5 119q11 30 30 30t42 -17q3 -58 3 -114l-10 -382q0 -41 2 -82zM227 695q0 28 15 28q9 0 22 -14l67 -65l-17 -43q-66 45 -78 65q-4 8 -6.5 16t-2.5 13z" />
    <glyph glyph-name="Uacute" unicode="&#xda;" horiz-adv-x="575" 
d="M526 16q0 -18 -31 -18q-15 0 -27.5 4.5t-15.5 7.5l10 128q-92 -79 -134 -99q-66 -33 -135 -33q-13 0 -27 1q-146 16 -146 187q0 78 40 265q13 58 17 106q3 1 13 1h12q5 1 9 1q32 0 32 -48q0 -33 -13 -82q-40 -161 -40 -223q0 -65 34 -102q22 -24 69 -29h12q163 0 214 157
q30 92 35 222q3 60 5 119q11 30 30 30t42 -17q3 -58 3 -114l-10 -382q0 -41 2 -82zM317 747q14 19 30 19q10 0 15 -9.5t4 -18.5t-5 -17t-13 -19q-17 -19 -69 -62l-31 28z" />
    <glyph glyph-name="Ucircumflex" unicode="&#xdb;" horiz-adv-x="575" 
d="M526 16q0 -18 -31 -18q-15 0 -27.5 4.5t-15.5 7.5l10 128q-92 -79 -134 -99q-66 -33 -135 -33q-13 0 -27 1q-146 16 -146 187q0 78 40 265q13 58 17 106q3 1 13 1h12q5 1 9 1q32 0 32 -48q0 -33 -13 -82q-40 -161 -40 -223q0 -65 34 -102q22 -24 69 -29h12q163 0 214 157
q30 92 35 222q3 60 5 119q11 30 30 30t42 -17q3 -58 3 -114l-10 -382q0 -41 2 -82zM173.5 642q-11.5 5 -11.5 24t10.5 37t29.5 38q42 44 104 73q51 -33 68 -47q28 -25 64 -81q6 -12 6 -22.5t-4 -16.5q-11 -16 -36 -1q-37 27 -43.5 33t-18.5 19t-43 43q-61 -42 -83 -78
q-7 -12 -13 -26q-18 0 -29.5 5z" />
    <glyph glyph-name="Udieresis" unicode="&#xdc;" horiz-adv-x="575" 
d="M526 16q0 -18 -31 -18q-15 0 -27.5 4.5t-15.5 7.5l10 128q-92 -79 -134 -99q-66 -33 -135 -33q-13 0 -27 1q-146 16 -146 187q0 78 40 265q13 58 17 106q3 1 13 1h12q5 1 9 1q32 0 32 -48q0 -33 -13 -82q-40 -161 -40 -223q0 -65 34 -102q22 -24 69 -29h12q163 0 214 157
q30 92 35 222q3 60 5 119q11 30 30 30t42 -17q3 -58 3 -114l-10 -382q0 -41 2 -82zM206 652q-24 0 -24 34q0 12 50 33q21 0 28.5 -9t7.5 -23t-6 -20.5t-15 -9.5q-12 -5 -41 -5zM350 652q-24 0 -24 34q0 13 51 33q36 0 36 -34q0 -31 -42 -32q-11 -1 -21 -1z" />
    <glyph glyph-name="Yacute" unicode="&#xdd;" horiz-adv-x="547" 
d="M278 -18q-16 0 -34 10q-35 21 -28 37q12 21 31 84l27 90q14 43 28 95l-267 272q-7 9 -7 16t8 11q13 6 31.5 6t38 -6t48.5 -30q57 -48 187 -203q59 172 85 221.5t41.5 64t28 15.5t21.5 -1t13 -14q-31 -66 -59.5 -149.5t-58.5 -172.5q-79 -236 -134 -346zM321 767
q14 19 30 19q10 0 15 -9.5t4 -18.5t-5 -17t-13 -19q-17 -19 -69 -62l-31 28z" />
    <glyph glyph-name="Thorn" unicode="&#xde;" horiz-adv-x="518" 
d="M106 25q0 -24 -29 -24l-17 4q-10 5 -15 16l-11 656q-1 4 -1 14t11.5 19t27 9t28.5 -8.5t10 -23.5l5 -249q63 83 157 132q66 35 119 35q62 0 93 -49q20 -32 20 -81.5t-19 -88t-50.5 -73.5t-72.5 -64q-84 -59 -172 -79q-28 -6 -47.5 -6t-32.5 2zM118 246q0 -15 29 -15
q34 0 79 19.5t82 46.5q88 63 138 158q-14 63 -81 63q-47 0 -96 -29q-97 -57 -136 -145q-15 -35 -15 -58.5v-30.5v-9z" />
    <glyph glyph-name="germandbls" unicode="&#xdf;" horiz-adv-x="728" 
d="M223 615q-82 0 -92 -17l15 -743h-68q11 70 11 167.5t-3.5 192t-8 193.5t-4.5 140v51q0 28 32 49q18 12 61.5 19.5t80.5 7.5t84.5 -3.5t104.5 -22.5t86.5 -47t29.5 -57q0 -44 -59.5 -88.5t-178.5 -85.5q231 -13 316 -67q46 -29 46 -69q0 -54 -74 -109q-83 -62 -210 -104
q-62 -21 -125 -31l-7 78q115 16 187.5 44t103 57t30.5 55q0 37 -48 60q-68 33 -186 33q-59 0 -133 -9l-4 105q241 50 241 117q0 47 -85 69q-57 15 -122 15h-21z" />
    <glyph glyph-name="agrave" unicode="&#xe0;" horiz-adv-x="521" 
d="M420 166q-75 -118 -200 -146q-29 -6 -52.5 -6t-39 0.5t-34.5 4.5t-35 13q-37 21 -37 59q-4 18 -4 40.5t10 59.5t36.5 80t64.5 79q79 76 171 98q27 6 49.5 6t40.5 -3q58 0 78 -79q13 -50 15.5 -139.5t5 -138t12.5 -88.5h-59q-4 27 -6 48t-4 39q-5 42 -12 73zM416 321
q0 58 -57 58q-7 1 -14 1q-73 0 -154 -70q-38 -32 -65 -72q-40 -57 -40 -102q0 -59 68 -70q90 2 172 82q35 35 58 76q32 55 32 97zM210 588q0 28 15 28q9 0 22 -14l67 -65l-17 -43q-66 45 -78 65q-4 8 -6.5 16t-2.5 13z" />
    <glyph glyph-name="aacute" unicode="&#xe1;" horiz-adv-x="521" 
d="M420 166q-75 -118 -200 -146q-29 -6 -52.5 -6t-39 0.5t-34.5 4.5t-35 13q-37 21 -37 59q-4 18 -4 40.5t10 59.5t36.5 80t64.5 79q79 76 171 98q27 6 49.5 6t40.5 -3q58 0 78 -79q13 -50 15.5 -139.5t5 -138t12.5 -88.5h-59q-4 27 -6 48t-4 39q-5 42 -12 73zM416 321
q0 58 -57 58q-7 1 -14 1q-73 0 -154 -70q-38 -32 -65 -72q-40 -57 -40 -102q0 -59 68 -70q90 2 172 82q35 35 58 76q32 55 32 97zM270 605q14 19 30 19q10 0 15 -9.5t4 -18.5t-5 -17t-13 -19q-17 -19 -69 -62l-31 28z" />
    <glyph glyph-name="acircumflex" unicode="&#xe2;" horiz-adv-x="521" 
d="M420 166q-75 -118 -200 -146q-29 -6 -52.5 -6t-39 0.5t-34.5 4.5t-35 13q-37 21 -37 59q-4 18 -4 40.5t10 59.5t36.5 80t64.5 79q79 76 171 98q27 6 49.5 6t40.5 -3q58 0 78 -79q13 -50 15.5 -139.5t5 -138t12.5 -88.5h-59q-4 27 -6 48t-4 39q-5 42 -12 73zM416 321
q0 58 -57 58q-7 1 -14 1q-73 0 -154 -70q-38 -32 -65 -72q-40 -57 -40 -102q0 -59 68 -70q90 2 172 82q35 35 58 76q32 55 32 97zM125.5 515q-11.5 5 -11.5 24t10.5 37t29.5 38q42 44 104 73q51 -33 68 -47q28 -25 64 -81q6 -12 6 -22.5t-4 -16.5q-11 -16 -36 -1
q-37 27 -43.5 33t-18.5 19t-43 43q-61 -42 -83 -78q-7 -12 -13 -26q-18 0 -29.5 5z" />
    <glyph glyph-name="atilde" unicode="&#xe3;" horiz-adv-x="521" 
d="M420 166q-75 -118 -200 -146q-29 -6 -52.5 -6t-39 0.5t-34.5 4.5t-35 13q-37 21 -37 59q-4 18 -4 40.5t10 59.5t36.5 80t64.5 79q79 76 171 98q27 6 49.5 6t40.5 -3q58 0 78 -79q13 -50 15.5 -139.5t5 -138t12.5 -88.5h-59q-4 27 -6 48t-4 39q-5 42 -12 73zM416 321
q0 58 -57 58q-7 1 -14 1q-73 0 -154 -70q-38 -32 -65 -72q-40 -57 -40 -102q0 -59 68 -70q90 2 172 82q35 35 58 76q32 55 32 97zM177 567q-32 0 -86 -81q-6 0 -19.5 4t-16.5 17q15 48 45 85t63 50q8 3 18 3t24.5 -10.5t32.5 -29.5t37 -36t40.5 -17t34 7t23 20t23 32
t35.5 43q6 0 12.5 -10.5t7 -18t0.5 -18.5t-7.5 -29t-24.5 -36q-44 -47 -106 -47q-46 0 -74 31q-20 18 -34 29.5t-28 11.5z" />
    <glyph glyph-name="adieresis" unicode="&#xe4;" horiz-adv-x="521" 
d="M420 166q-75 -118 -200 -146q-29 -6 -52.5 -6t-39 0.5t-34.5 4.5t-35 13q-37 21 -37 59q-4 18 -4 40.5t10 59.5t36.5 80t64.5 79q79 76 171 98q27 6 49.5 6t40.5 -3q58 0 78 -79q13 -50 15.5 -139.5t5 -138t12.5 -88.5h-59q-4 27 -6 48t-4 39q-5 42 -12 73zM416 321
q0 58 -57 58q-7 1 -14 1q-73 0 -154 -70q-38 -32 -65 -72q-40 -57 -40 -102q0 -59 68 -70q90 2 172 82q35 35 58 76q32 55 32 97zM168 597q-24 0 -24 34q0 12 50 33q21 0 28.5 -9t7.5 -23t-6 -20.5t-15 -9.5q-12 -5 -41 -5zM312 597q-24 0 -24 34q0 13 51 33q36 0 36 -34
q0 -31 -42 -32q-11 -1 -21 -1z" />
    <glyph glyph-name="aring" unicode="&#xe5;" horiz-adv-x="521" 
d="M420 166q-75 -118 -200 -146q-29 -6 -52.5 -6t-39 0.5t-34.5 4.5t-35 13q-37 21 -37 59q-4 18 -4 40.5t10 59.5t36.5 80t64.5 79q79 76 171 98q27 6 49.5 6t40.5 -3q58 0 78 -79q13 -50 15.5 -139.5t5 -138t12.5 -88.5h-59q-4 27 -6 48t-4 39q-5 42 -12 73zM416 321
q0 58 -57 58q-7 1 -14 1q-73 0 -154 -70q-38 -32 -65 -72q-40 -57 -40 -102q0 -59 68 -70q90 2 172 82q35 35 58 76q32 55 32 97zM194 425q-9 15 -9 41.5t12 46.5q20 33 60 33q26 0 49 -12q47 -25 51 -71q0 -50 -21 -66.5t-61 -16.5q-31 0 -51.5 15t-29.5 30zM310 480
q-22 23 -49 23q-31 0 -37 -30v-12.5t12 -28.5q21 -17 38 -17q35 0 42 30v13t-6 22z" />
    <glyph glyph-name="ae" unicode="&#xe6;" horiz-adv-x="946" 
d="M420 166q-75 -118 -200 -146q-29 -6 -52.5 -6t-39 0.5t-34.5 4.5t-35 13q-37 21 -37 59q-4 18 -4 40.5t10 59.5t36.5 80t64.5 79q79 76 171 98q27 6 49.5 6t40.5 -3q58 0 78 -79q13 -50 15.5 -139.5t5 -138t12.5 -88.5h-59q-4 27 -6 48t-4 39q-5 42 -12 73zM416 321
q0 58 -57 58q-7 1 -14 1q-73 0 -154 -70q-38 -32 -65 -72q-40 -57 -40 -102q0 -59 68 -70q90 2 172 82q35 35 58 76q32 55 32 97zM649 54q88 0 265 80q11 0 18 -7.5t7 -17.5q-40 -68 -153 -106t-211 -13q-111 29 -135 125q-2 19 -2 51t16.5 84.5t56.5 99.5t94 74t115 27
q58 0 130 -40q34 -19 54 -43t20 -49q0 -7 -1 -14q-2 -61 -59 -77q-25 -7 -58 -7l-144 6q-72 0 -110 -31q-22 -17 -31 -51q25 -91 128 -91zM781 386q-24 7 -40 7t-52 -10.5t-64 -23.5q-69 -32 -69 -67q80 -7 120 -7q111 0 150 19q24 10 24 25q0 18 -22.5 34t-46.5 23z" />
    <glyph glyph-name="ccedilla" unicode="&#xe7;" horiz-adv-x="648" 
d="M511 136q39 14 74.5 14t35.5 -22q0 -5 -2.5 -15.5t-27 -25t-60 -27.5t-77.5 -24t-82 -19q-83 -17 -118 -17t-75.5 8t-75.5 26q-81 42 -81 124v24t15 51.5t45 67t70 61.5q84 60 176 78q32 7 53.5 7t35.5 -0.5t29 -2t26 -7.5q26 -13 26 -51q0 -24 -34 -47q-9 -6 -16 -11
q-5 23 -13 39t-35 16q-118 -25 -203 -75q-96 -57 -96 -120q0 -7 1 -15q0 -64 49 -91q37 -20 95.5 -20t101.5 13.5t83.5 30t79.5 30.5zM174 8q0 20 12 20t21 -13.5t5 -16.5q0 -27 1 -48t19 -21q22 2 47.5 2t52.5 -10q40 -16 40 -53q0 -40 -47 -72q-41 -29 -94 -29
q-27 0 -58 10q-3 0 -3 5t0.5 12t1 13.5t-1.5 8.5q11 -1 27 -1t42 4.5t50 14t36 20.5q26 24 -30 32q-12 2 -33 2t-53 -3q-34 0 -34 108q-1 9 -1 15z" />
    <glyph glyph-name="egrave" unicode="&#xe8;" horiz-adv-x="554" 
d="M231 70q88 0 265 80q11 0 18 -7.5t7 -17.5q-40 -68 -153 -106t-211 -13q-111 29 -135 125q-2 19 -2 51t16.5 84.5t56.5 99.5t94 74t115 27q58 0 130 -40q34 -19 54 -43t20 -49q0 -7 -1 -14q-2 -61 -59 -77q-25 -7 -58 -7l-144 6q-72 0 -110 -31q-22 -17 -31 -51
q25 -91 128 -91zM363 402q-24 7 -40 7t-52 -10.5t-64 -23.5q-69 -32 -69 -67q80 -7 120 -7q111 0 150 19q24 10 24 25q0 18 -22.5 34t-46.5 23zM226 588q0 28 15 28q9 0 22 -14l67 -65l-17 -43q-66 45 -78 65q-4 8 -6.5 16t-2.5 13z" />
    <glyph glyph-name="eacute" unicode="&#xe9;" horiz-adv-x="554" 
d="M231 70q88 0 265 80q11 0 18 -7.5t7 -17.5q-40 -68 -153 -106t-211 -13q-111 29 -135 125q-2 19 -2 51t16.5 84.5t56.5 99.5t94 74t115 27q58 0 130 -40q34 -19 54 -43t20 -49q0 -7 -1 -14q-2 -61 -59 -77q-25 -7 -58 -7l-144 6q-72 0 -110 -31q-22 -17 -31 -51
q25 -91 128 -91zM363 402q-24 7 -40 7t-52 -10.5t-64 -23.5q-69 -32 -69 -67q80 -7 120 -7q111 0 150 19q24 10 24 25q0 18 -22.5 34t-46.5 23zM286 605q14 19 30 19q10 0 15 -9.5t4 -18.5t-5 -17t-13 -19q-17 -19 -69 -62l-31 28z" />
    <glyph glyph-name="ecircumflex" unicode="&#xea;" horiz-adv-x="554" 
d="M231 70q88 0 265 80q11 0 18 -7.5t7 -17.5q-40 -68 -153 -106t-211 -13q-111 29 -135 125q-2 19 -2 51t16.5 84.5t56.5 99.5t94 74t115 27q58 0 130 -40q34 -19 54 -43t20 -49q0 -7 -1 -14q-2 -61 -59 -77q-25 -7 -58 -7l-144 6q-72 0 -110 -31q-22 -17 -31 -51
q25 -91 128 -91zM363 402q-24 7 -40 7t-52 -10.5t-64 -23.5q-69 -32 -69 -67q80 -7 120 -7q111 0 150 19q24 10 24 25q0 18 -22.5 34t-46.5 23zM142.5 515q-11.5 5 -11.5 24t10.5 37t29.5 38q42 44 104 73q51 -33 68 -47q28 -25 64 -81q6 -12 6 -22.5t-4 -16.5
q-11 -16 -36 -1q-37 27 -43.5 33t-18.5 19t-43 43q-61 -42 -83 -78q-7 -12 -13 -26q-18 0 -29.5 5z" />
    <glyph glyph-name="edieresis" unicode="&#xeb;" horiz-adv-x="554" 
d="M231 70q88 0 265 80q11 0 18 -7.5t7 -17.5q-40 -68 -153 -106t-211 -13q-111 29 -135 125q-2 19 -2 51t16.5 84.5t56.5 99.5t94 74t115 27q58 0 130 -40q34 -19 54 -43t20 -49q0 -7 -1 -14q-2 -61 -59 -77q-25 -7 -58 -7l-144 6q-72 0 -110 -31q-22 -17 -31 -51
q25 -91 128 -91zM363 402q-24 7 -40 7t-52 -10.5t-64 -23.5q-69 -32 -69 -67q80 -7 120 -7q111 0 150 19q24 10 24 25q0 18 -22.5 34t-46.5 23zM185 597q-24 0 -24 34q0 12 50 33q21 0 28.5 -9t7.5 -23t-6 -20.5t-15 -9.5q-12 -5 -41 -5zM329 597q-24 0 -24 34q0 13 51 33
q36 0 36 -34q0 -31 -42 -32q-11 -1 -21 -1z" />
    <glyph glyph-name="igrave" unicode="&#xec;" 
d="M139 37q-3 -16 -16 -23t-21 -7.5t-15 -0.5t-18.5 4.5t-14.5 12.5v447h63q13 -187 22 -433zM28 640q0 28 15 28q9 0 22 -14l67 -65l-17 -43q-66 45 -77 65q-5 8 -7.5 16t-2.5 13z" />
    <glyph glyph-name="iacute" unicode="&#xed;" 
d="M117 470q13 -187 22 -433q-6 -31 -48 -31q-11 0 -22.5 4.5t-14.5 12.5v447h63zM102 639q14 19 30 19q10 0 15 -9.5t4 -18.5t-5 -17t-13 -19q-17 -19 -69 -62l-31 28z" />
    <glyph glyph-name="icircumflex" unicode="&#xee;" 
d="M117 470q13 -187 22 -433q-6 -31 -48 -31q-11 0 -22.5 4.5t-14.5 12.5v447h63zM-56.5 515q-11.5 5 -11.5 24t10.5 37t29.5 38q42 44 104 73q51 -33 68 -47q28 -25 64 -81q6 -12 6 -22.5t-4 -16.5q-11 -16 -36 -1q-37 27 -43.5 33t-18.5 19t-43 43q-61 -42 -83 -78
q-7 -12 -13 -26q-18 0 -29.5 5z" />
    <glyph glyph-name="idieresis" unicode="&#xef;" 
d="M117 470q13 -187 22 -433q-6 -31 -48 -31q-11 0 -22.5 4.5t-14.5 12.5v447h63zM-14 597q-24 0 -24 34q0 12 50 33q21 0 28.5 -9t7.5 -23t-6 -20.5t-15 -9.5q-12 -5 -41 -5zM130 597q-24 0 -24 34q0 13 51 33q36 0 36 -34q0 -31 -42 -32q-11 -1 -21 -1z" />
    <glyph glyph-name="eth" unicode="&#xf0;" horiz-adv-x="594" 
d="M483 466q58 -115 58 -228q0 -119 -71 -184q-32 -29 -81 -43q-16 -5 -34 -5t-48 6t-72.5 25t-81.5 47q-84 59 -100 118q-2 9 -2 23.5t14 33.5q39 40 81 53t67 13t53 -1t83.5 -13.5t116.5 -24.5q-8 73 -56 142l-79 -45l-41 66l68 34q-43 68 -120 97q0 18 14.5 28.5
t27.5 13.5q62 -32 81 -45q39 -25 77 -63l73 52l42 -49zM146 232q0 -84 69 -126q56 -33 151 -33q58 4 84 45q17 26 17 51.5t-4 42.5q-102 40 -186 40t-131 -20z" />
    <glyph glyph-name="ntilde" unicode="&#xf1;" horiz-adv-x="512" 
d="M417 219q0 119 -13 175q8 15 -24 15q-34 0 -88 -17t-88 -34q-81 -39 -90 -76v-272h-67q-13 34 -13 191q0 140 5.5 206t8.5 75q26 17 42 17q25 0 25 -59q0 -23 -2.5 -44.5t-2.5 -29.5q162 119 251 119q101 0 115 -163q6 -57 6 -158l-1 -79q0 -44 2 -85q-10 -6 -16 -6
q-3 1 -13 3t-26 3q-10 40 -11 81.5t-1 76.5zM182 625q-32 0 -86 -81q-6 0 -19.5 4t-16.5 17q15 48 45 85t63 50q8 3 18 3t24.5 -10.5t32.5 -29.5t37 -36t40.5 -17t34 7t23 20t23 32t35.5 43q6 0 12.5 -10.5t7 -18t0.5 -18.5t-7.5 -29t-24.5 -36q-44 -47 -106 -47
q-46 0 -74 31q-20 18 -34 29.5t-28 11.5z" />
    <glyph glyph-name="ograve" unicode="&#xf2;" horiz-adv-x="576" 
d="M52 190q0 118 102 190q81 57 195 69h28t59 -13q82 -28 112 -99q12 -28 12 -47.5t-1 -27.5q0 -125 -95 -197q-88 -66 -220 -66q-95 0 -143.5 44t-48.5 147zM121 166q0 -62 33 -84q25 -16 84 -16t104 9t80 31q75 48 75 149q0 60 -32 98q-35 41 -92 41q-39 -7 -78.5 -15
t-74.5 -31q-76 -49 -99 -182zM237 588q0 28 15 28q9 0 22 -14l67 -65l-17 -43q-66 45 -78 65q-4 8 -6.5 16t-2.5 13z" />
    <glyph glyph-name="oacute" unicode="&#xf3;" horiz-adv-x="576" 
d="M52 190q0 118 102 190q81 57 195 69h28t59 -13q82 -28 112 -99q12 -28 12 -47.5t-1 -27.5q0 -125 -95 -197q-88 -66 -220 -66q-95 0 -143.5 44t-48.5 147zM121 166q0 -62 33 -84q25 -16 84 -16t104 9t80 31q75 48 75 149q0 60 -32 98q-35 41 -92 41q-39 -7 -78.5 -15
t-74.5 -31q-76 -49 -99 -182zM297 605q14 19 30 19q10 0 15 -9.5t4 -18.5t-5 -17t-13 -19q-17 -19 -69 -62l-31 28z" />
    <glyph glyph-name="ocircumflex" unicode="&#xf4;" horiz-adv-x="576" 
d="M52 190q0 118 102 190q81 57 195 69h28t59 -13q82 -28 112 -99q12 -28 12 -47.5t-1 -27.5q0 -125 -95 -197q-88 -66 -220 -66q-95 0 -143.5 44t-48.5 147zM121 166q0 -62 33 -84q25 -16 84 -16t104 9t80 31q75 48 75 149q0 60 -32 98q-35 41 -92 41q-39 -7 -78.5 -15
t-74.5 -31q-76 -49 -99 -182zM153.5 515q-11.5 5 -11.5 24t10.5 37t29.5 38q42 44 104 73q51 -33 68 -47q28 -25 64 -81q6 -12 6 -22.5t-4 -16.5q-11 -16 -36 -1q-37 27 -43.5 33t-18.5 19t-43 43q-61 -42 -83 -78q-7 -12 -13 -26q-18 0 -29.5 5z" />
    <glyph glyph-name="otilde" unicode="&#xf5;" horiz-adv-x="576" 
d="M52 190q0 118 102 190q81 57 195 69h28t59 -13q82 -28 112 -99q12 -28 12 -47.5t-1 -27.5q0 -125 -95 -197q-88 -66 -220 -66q-95 0 -143.5 44t-48.5 147zM121 166q0 -62 33 -84q25 -16 84 -16t104 9t80 31q75 48 75 149q0 60 -32 98q-35 41 -92 41q-39 -7 -78.5 -15
t-74.5 -31q-76 -49 -99 -182zM204 567q-32 0 -86 -81q-6 0 -19.5 4t-16.5 17q15 48 45 85t63 50q8 3 18 3t24.5 -10.5t32.5 -29.5t37 -36t40.5 -17t34 7t23 20t23 32t35.5 43q6 0 12.5 -10.5t7 -18t0.5 -18.5t-7.5 -29t-24.5 -36q-44 -47 -106 -47q-46 0 -74 31
q-20 18 -34 29.5t-28 11.5z" />
    <glyph glyph-name="odieresis" unicode="&#xf6;" horiz-adv-x="576" 
d="M52 190q0 118 102 190q81 57 195 69h28t59 -13q82 -28 112 -99q12 -28 12 -47.5t-1 -27.5q0 -125 -95 -197q-88 -66 -220 -66q-95 0 -143.5 44t-48.5 147zM121 166q0 -62 33 -84q25 -16 84 -16t104 9t80 31q75 48 75 149q0 60 -32 98q-35 41 -92 41q-39 -7 -78.5 -15
t-74.5 -31q-76 -49 -99 -182zM196 597q-24 0 -24 34q0 12 50 33q21 0 28.5 -9t7.5 -23t-6 -20.5t-15 -9.5q-12 -5 -41 -5zM340 597q-24 0 -24 34q0 13 51 33q36 0 36 -34q0 -31 -42 -32q-11 -1 -21 -1z" />
    <glyph glyph-name="divide" unicode="&#xf7;" horiz-adv-x="352" 
d="M171 136q0 15 13.5 29t30.5 14t26 -11t9 -23.5t-9.5 -23t-17.5 -10.5h-14.5t-22 5t-15.5 20zM139 328q-14 4 -14 15q0 15 15 25t24 11q31 -4 39.5 -15.5t8.5 -18.5q0 -21 -26 -27q-4 -2 -14.5 -2t-32.5 12zM108 216q-50 0 -50 26q0 13 11.5 18t40 9t72 12t91.5 13
q20 0 34 -7q20 -10 20 -24q0 -5 -4.5 -13t-22.5 -14z" />
    <glyph glyph-name="oslash" unicode="&#xf8;" horiz-adv-x="576" 
d="M52 190q0 118 102 190q81 57 195 69h28t59 -13q82 -28 112 -99q12 -28 12 -47.5t-1 -27.5q0 -125 -95 -197q-88 -66 -220 -66q-95 0 -143.5 44t-48.5 147zM121 166q0 -62 33 -84q25 -16 84 -16t104 9t80 31q75 48 75 149q0 60 -32 98q-35 41 -92 41q-39 -7 -78.5 -15
t-74.5 -31q-76 -49 -99 -182zM126.206 -38q-15.7871 0 -15.7871 25.791v8.05957q13.1553 35.4629 346.444 494.865q16.6641 23.373 19.2959 26.5967q4.38477 -2.41797 4.38477 -11.2832t-10.5244 -37.0742q-10.5254 -28.209 -38.1533 -81.4033t-66.6572 -116.463
q-39.0303 -63.2686 -81.1299 -123.716q-97.3545 -138.627 -157.873 -185.373z" />
    <glyph glyph-name="ugrave" unicode="&#xf9;" horiz-adv-x="520" 
d="M22 133q0 16 -2.5 44.5t-4.5 62.5t-2 69t6 64q13 65 54 65q28 -8 37.5 -20t9.5 -29.5t-9 -43.5q-33 -87 -33 -157q0 -23 3 -49q16 -67 110 -67q49 0 93 17q84 31 114 73q9 46 9 80.5t-2.5 61.5t-6 59.5t-4.5 71.5q13 6 25.5 6t26 -13t23 -49t12.5 -84.5t3.5 -100.5
t0.5 -100.5t4 -83.5q-12 -11 -23 -11q-40 0 -59 80q-13 -11 -44 -27q-66 -36 -156 -48q-17 -2 -38 -2t-52.5 8t-59.5 37t-35 86zM209 588q0 28 15 28q9 0 22 -14l67 -65l-17 -43q-66 45 -78 65q-4 8 -6.5 16t-2.5 13z" />
    <glyph glyph-name="uacute" unicode="&#xfa;" horiz-adv-x="520" 
d="M22 133q0 16 -2.5 44.5t-4.5 62.5t-2 69t6 64q13 65 54 65q28 -8 37.5 -20t9.5 -29.5t-9 -43.5q-33 -87 -33 -157q0 -23 3 -49q16 -67 110 -67q49 0 93 17q84 31 114 73q9 46 9 80.5t-2.5 61.5t-6 59.5t-4.5 71.5q13 6 25.5 6t26 -13t23 -49t12.5 -84.5t3.5 -100.5
t0.5 -100.5t4 -83.5q-12 -11 -23 -11q-40 0 -59 80q-13 -11 -44 -27q-66 -36 -156 -48q-17 -2 -38 -2t-52.5 8t-59.5 37t-35 86zM269 605q14 19 30 19q10 0 15 -9.5t4 -18.5t-5 -17t-13 -19q-17 -19 -69 -62l-31 28z" />
    <glyph glyph-name="ucircumflex" unicode="&#xfb;" horiz-adv-x="520" 
d="M22 133q0 16 -2.5 44.5t-4.5 62.5t-2 69t6 64q13 65 54 65q28 -8 37.5 -20t9.5 -29.5t-9 -43.5q-33 -87 -33 -157q0 -23 3 -49q16 -67 110 -67q49 0 93 17q84 31 114 73q9 46 9 80.5t-2.5 61.5t-6 59.5t-4.5 71.5q13 6 25.5 6t26 -13t23 -49t12.5 -84.5t3.5 -100.5
t0.5 -100.5t4 -83.5q-12 -11 -23 -11q-40 0 -59 80q-13 -11 -44 -27q-66 -36 -156 -48q-17 -2 -38 -2t-52.5 8t-59.5 37t-35 86zM125.5 515q-11.5 5 -11.5 24t10.5 37t29.5 38q42 44 104 73q51 -33 68 -47q28 -25 64 -81q6 -12 6 -22.5t-4 -16.5q-11 -16 -36 -1
q-37 27 -43.5 33t-18.5 19t-43 43q-61 -42 -83 -78q-7 -12 -13 -26q-18 0 -29.5 5z" />
    <glyph glyph-name="udieresis" unicode="&#xfc;" horiz-adv-x="520" 
d="M22 133q0 16 -2.5 44.5t-4.5 62.5t-2 69t6 64q13 65 54 65q28 -8 37.5 -20t9.5 -29.5t-9 -43.5q-33 -87 -33 -157q0 -23 3 -49q16 -67 110 -67q49 0 93 17q84 31 114 73q9 46 9 80.5t-2.5 61.5t-6 59.5t-4.5 71.5q13 6 25.5 6t26 -13t23 -49t12.5 -84.5t3.5 -100.5
t0.5 -100.5t4 -83.5q-12 -11 -23 -11q-40 0 -59 80q-13 -11 -44 -27q-66 -36 -156 -48q-17 -2 -38 -2t-52.5 8t-59.5 37t-35 86zM168 597q-24 0 -24 34q0 12 50 33q21 0 28.5 -9t7.5 -23t-6 -20.5t-15 -9.5q-12 -5 -41 -5zM312 597q-24 0 -24 34q0 13 51 33q36 0 36 -34
q0 -31 -42 -32q-11 -1 -21 -1z" />
    <glyph glyph-name="yacute" unicode="&#xfd;" horiz-adv-x="562" 
d="M238 -377q-21 -47 -50 -47q-14 0 -20.5 12.5t-0.5 29.5q22 93 63.5 212t55.5 160q-35 35 -110 140q-154 216 -154 237q0 1 1 2l38 38q79 -73 206 -248q32 -44 51 -74q21 42 33 72.5t19.5 49t20.5 49.5q34 83 94 211q9 4 19 4q25 0 36 -13q4 -5 4 -11.5t-2 -12.5zM290 605
q14 19 30 19q10 0 15 -9.5t4 -18.5t-5 -17t-13 -19q-17 -19 -69 -62l-31 28z" />
    <glyph glyph-name="thorn" unicode="&#xfe;" horiz-adv-x="531" 
d="M114 29l-1 -47q0 -29 4 -60q1 -8 1 -14q0 -26 -15.5 -38.5t-30.5 -12.5t-22 1l-26 724q23 9 34.5 9t18.5 -15q14 -26 18 -156q132 40 228 40q126 0 168 -60q19 -27 19 -60q0 -45 -30 -90.5t-81 -83.5q-117 -85 -286 -102q1 -18 1 -35zM388 389q-34 13 -71.5 13t-74.5 -7
q-84 -16 -124 -71q-18 -26 -18 -64v-8l5 -121q204 46 291 115q48 39 48 78q0 43 -56 65z" />
    <glyph glyph-name="ydieresis" unicode="&#xff;" horiz-adv-x="562" 
d="M238 -377q-21 -47 -50 -47q-14 0 -20.5 12.5t-0.5 29.5q22 93 63.5 212t55.5 160q-35 35 -110 140q-154 216 -154 237q0 1 1 2l38 38q79 -73 206 -248q32 -44 51 -74q21 42 33 72.5t19.5 49t20.5 49.5q34 83 94 211q9 4 19 4q25 0 36 -13q4 -5 4 -11.5t-2 -12.5zM189 597
q-24 0 -24 34q0 12 50 33q21 0 28.5 -9t7.5 -23t-6 -20.5t-15 -9.5q-12 -5 -41 -5zM333 597q-24 0 -24 34q0 13 51 33q36 0 36 -34q0 -31 -42 -32q-11 -1 -21 -1z" />
    <glyph glyph-name="Amacron" unicode="&#x100;" horiz-adv-x="656" 
d="M549 366h28q17 0 32.5 -3t15.5 -22q7 -40 -47 -39q-15 1 -27.5 2t-20.5 0.5t-7 -5.5q10 -29 21.5 -65t25.5 -72q36 -89 68 -128q-17 -21 -39.5 -35t-24 -14t-2.5 1l-141 297l-273 -67l-10 -42q-29 -115 -65 -160q-6 -10 -25 -2q-32 12 -32 20q0 2 21 58t42.5 113.5
t45 120.5t44.5 120t38 102.5t24 66t9.5 36t7.5 26.5q10 23 50 23q43 -24 66.5 -62.5t40 -82.5t32.5 -89t43 -82q9 -14 27 -15t32 -1zM299 582q-8 -61 -36 -125t-45 -99.5t-29 -65.5q68 0 167 40q25 11 48 20q-47 201 -105 230zM216 720q-50 0 -50 25q0 14 11.5 19t40 9
t72 11.5t91.5 12.5q42 0 53 -23q1 -4 1 -8.5t-4.5 -12t-22.5 -13.5z" />
    <glyph glyph-name="amacron" unicode="&#x101;" horiz-adv-x="521" 
d="M420 166q-75 -118 -200 -146q-29 -6 -52.5 -6t-39 0.5t-34.5 4.5t-35 13q-37 21 -37 59q-4 18 -4 40.5t10 59.5t36.5 80t64.5 79q79 76 171 98q27 6 49.5 6t40.5 -3q58 0 78 -79q13 -50 15.5 -139.5t5 -138t12.5 -88.5h-59q-4 27 -6 48t-4 39q-5 42 -12 73zM416 321
q0 58 -57 58q-7 1 -14 1q-73 0 -154 -70q-38 -32 -65 -72q-40 -57 -40 -102q0 -59 68 -70q90 2 172 82q35 35 58 76q32 55 32 97zM165 534q-50 0 -50 25q0 14 11.5 19t40 9t72 11.5t91.5 12.5q42 0 53 -23q1 -4 1 -8.5t-4.5 -12t-22.5 -13.5z" />
    <glyph glyph-name="Abreve" unicode="&#x102;" horiz-adv-x="656" 
d="M556 366h28q17 0 32.5 -3t15.5 -22q7 -40 -47 -39q-15 1 -27.5 2t-20.5 0.5t-7 -5.5q10 -29 21.5 -65t25.5 -72q36 -89 68 -128q-17 -21 -39.5 -35t-24 -14t-2.5 1l-141 297l-273 -67l-10 -42q-29 -115 -65 -160q-6 -10 -25 -2q-32 12 -32 20q0 2 21 58t42.5 113.5
t45 120.5t44.5 120t38 102.5t24 66t9.5 36t7.5 26.5q10 23 50 23q43 -24 66.5 -62.5t40 -82.5t32.5 -89t43 -82q9 -14 27 -15t32 -1zM306 582q-8 -61 -36 -125t-45 -99.5t-29 -65.5q68 0 167 40q25 11 48 20q-47 201 -105 230zM169 819.5q0 21.5 10 24.5t25 3q4 -32 20 -42
t25.5 -10t21.5 1.5t30.5 14t26.5 28.5q10 5 17.5 5t12 -5t4.5 -11.5t-6 -15.5q-28 -43 -55 -54t-42 -11q-44 0 -67 25.5t-23 47z" />
    <glyph glyph-name="abreve" unicode="&#x103;" horiz-adv-x="521" 
d="M420 166q-75 -118 -200 -146q-29 -6 -52.5 -6t-39 0.5t-34.5 4.5t-35 13q-37 21 -37 59q-4 18 -4 40.5t10 59.5t36.5 80t64.5 79q79 76 171 98q27 6 49.5 6t40.5 -3q58 0 78 -79q13 -50 15.5 -139.5t5 -138t12.5 -88.5h-59q-4 27 -6 48t-4 39q-5 42 -12 73zM416 321
q0 58 -57 58q-7 1 -14 1q-73 0 -154 -70q-38 -32 -65 -72q-40 -57 -40 -102q0 -59 68 -70q90 2 172 82q35 35 58 76q32 55 32 97zM159 546.5q0 21.5 10 24.5t25 3q4 -32 20 -42t25.5 -10t21.5 1.5t30.5 14t26.5 28.5q10 5 17.5 5t12 -5t4.5 -11.5t-6 -15.5q-28 -43 -55 -54
t-42 -11q-44 0 -67 25.5t-23 47z" />
    <glyph glyph-name="Aogonek" unicode="&#x104;" horiz-adv-x="656" 
d="M549 366h28q17 0 32.5 -3t15.5 -22q7 -40 -47 -39q-15 1 -27.5 2t-20.5 0.5t-7 -5.5q10 -29 21.5 -65t25.5 -72q36 -89 68 -128q-17 -21 -39.5 -35t-24 -14t-2.5 1l-141 297l-273 -67l-10 -42q-29 -115 -65 -160q-6 -10 -25 -2q-32 12 -32 20q0 2 21 58t42.5 113.5
t45 120.5t44.5 120t38 102.5t24 66t9.5 36t7.5 26.5q10 23 50 23q43 -24 66.5 -62.5t40 -82.5t32.5 -89t43 -82q9 -14 27 -15t32 -1zM299 582q-8 -61 -36 -125t-45 -99.5t-29 -65.5q68 0 167 40q25 11 48 20q-47 201 -105 230zM653 -170q-25 -12 -41 -12q-46 0 -73 24
q-55 45 -55 105q0 30 16.5 54.5t52.5 35.5l71 -25h-5q-32 0 -52 -13q-30 -20 -30 -51q0 -32 21 -50q27 -23 53.5 -23t52.5 11z" />
    <glyph glyph-name="aogonek" unicode="&#x105;" horiz-adv-x="521" 
d="M420 166q-75 -118 -200 -146q-29 -6 -52.5 -6t-39 0.5t-34.5 4.5t-35 13q-37 21 -37 59q-4 18 -4 40.5t10 59.5t36.5 80t64.5 79q79 76 171 98q27 6 49.5 6t40.5 -3q58 0 78 -79q13 -50 15.5 -139.5t5 -138t12.5 -88.5h-59q-4 27 -6 48t-4 39q-5 42 -12 73zM416 321
q0 58 -57 58q-7 1 -14 1q-73 0 -154 -70q-38 -32 -65 -72q-40 -57 -40 -102q0 -59 68 -70q90 2 172 82q35 35 58 76q32 55 32 97zM525 -163q-25 -12 -41 -12q-46 0 -73 24q-55 45 -55 105q0 30 16.5 54.5t52.5 35.5l71 -25h-5q-32 0 -52 -13q-30 -20 -30 -51q0 -32 21 -50
q27 -23 53.5 -23t52.5 11z" />
    <glyph glyph-name="Cacute" unicode="&#x106;" horiz-adv-x="725" 
d="M522 555q-65 64 -144 64q-75 0 -144 -57q-87 -72 -120 -186q-12 -41 -12 -68t2 -42q0 -99 67 -152q63 -49 161 -49q134 11 257 103q34 26 72 50q14 0 28.5 -4t14.5 -23q-99 -86 -167 -124q-126 -68 -228 -68h-13q-111 0 -190 69q-84 73 -84 182q0 82 29.5 157t81 132.5
t122 91.5t151.5 34q69 0 90 -19q26 -23 26 -91zM331 802q14 19 30 19q10 0 15 -9.5t4 -18.5t-5 -17t-13 -19q-17 -19 -69 -62l-31 28z" />
    <glyph glyph-name="cacute" unicode="&#x107;" horiz-adv-x="648" 
d="M511 136q39 14 74.5 14t35.5 -22q0 -5 -2.5 -15.5t-27 -25t-60 -27.5t-77.5 -24t-82 -19q-83 -17 -118 -17t-75.5 8t-75.5 26q-81 42 -81 124v24t15 51.5t45 67t70 61.5q84 60 176 78q32 7 53.5 7t35.5 -0.5t29 -2t26 -7.5q26 -13 26 -51q0 -24 -34 -47q-9 -6 -16 -11
q-5 23 -13 39t-35 16q-118 -25 -203 -75q-96 -57 -96 -120q0 -7 1 -15q0 -64 49 -91q37 -20 95.5 -20t101.5 13.5t83.5 30t79.5 30.5zM333 605q14 19 30 19q10 0 15 -9.5t4 -18.5t-5 -17t-13 -19q-17 -19 -69 -62l-31 28z" />
    <glyph glyph-name="Ccircumflex" unicode="&#x108;" horiz-adv-x="725" 
d="M522 555q-65 64 -144 64q-75 0 -144 -57q-87 -72 -120 -186q-12 -41 -12 -68t2 -42q0 -99 67 -152q63 -49 161 -49q134 11 257 103q34 26 72 50q14 0 28.5 -4t14.5 -23q-99 -86 -167 -124q-126 -68 -228 -68h-13q-111 0 -190 69q-84 73 -84 182q0 82 29.5 157t81 132.5
t122 91.5t151.5 34q69 0 90 -19q26 -23 26 -91zM200.5 733q-11.5 5 -11.5 24t10.5 37t29.5 38q42 44 104 73q51 -33 68 -47q28 -25 64 -81q6 -12 6 -22.5t-4 -16.5q-11 -16 -36 -1q-37 27 -43.5 33t-18.5 19t-43 43q-61 -42 -83 -78q-7 -12 -13 -26q-18 0 -29.5 5z" />
    <glyph glyph-name="ccircumflex" unicode="&#x109;" horiz-adv-x="648" 
d="M511 136q39 14 74.5 14t35.5 -22q0 -5 -2.5 -15.5t-27 -25t-60 -27.5t-77.5 -24t-82 -19q-83 -17 -118 -17t-75.5 8t-75.5 26q-81 42 -81 124v24t15 51.5t45 67t70 61.5q84 60 176 78q32 7 53.5 7t35.5 -0.5t29 -2t26 -7.5q26 -13 26 -51q0 -24 -34 -47q-9 -6 -16 -11
q-5 23 -13 39t-35 16q-118 -25 -203 -75q-96 -57 -96 -120q0 -7 1 -15q0 -64 49 -91q37 -20 95.5 -20t101.5 13.5t83.5 30t79.5 30.5zM189.5 515q-11.5 5 -11.5 24t10.5 37t29.5 38q42 44 104 73q51 -33 68 -47q28 -25 64 -81q6 -12 6 -22.5t-4 -16.5q-11 -16 -36 -1
q-37 27 -43.5 33t-18.5 19t-43 43q-61 -42 -83 -78q-7 -12 -13 -26q-18 0 -29.5 5z" />
    <glyph glyph-name="Cdotaccent" unicode="&#x10a;" horiz-adv-x="725" 
d="M522 555q-65 64 -144 64q-75 0 -144 -57q-87 -72 -120 -186q-12 -41 -12 -68t2 -42q0 -99 67 -152q63 -49 161 -49q134 11 257 103q34 26 72 50q14 0 28.5 -4t14.5 -23q-99 -86 -167 -124q-126 -68 -228 -68h-13q-111 0 -190 69q-84 73 -84 182q0 82 29.5 157t81 132.5
t122 91.5t151.5 34q69 0 90 -19q26 -23 26 -91zM298 753q5 24 17 32.5t19 8.5t16 -1.5t21 -13t14 -27.5q0 -24 -10 -31.5t-23 -7.5t-21 2.5t-15 8.5q-18 12 -18 29z" />
    <glyph glyph-name="cdotaccent" unicode="&#x10b;" horiz-adv-x="648" 
d="M511 136q39 14 74.5 14t35.5 -22q0 -5 -2.5 -15.5t-27 -25t-60 -27.5t-77.5 -24t-82 -19q-83 -17 -118 -17t-75.5 8t-75.5 26q-81 42 -81 124v24t15 51.5t45 67t70 61.5q84 60 176 78q32 7 53.5 7t35.5 -0.5t29 -2t26 -7.5q26 -13 26 -51q0 -24 -34 -47q-9 -6 -16 -11
q-5 23 -13 39t-35 16q-118 -25 -203 -75q-96 -57 -96 -120q0 -7 1 -15q0 -64 49 -91q37 -20 95.5 -20t101.5 13.5t83.5 30t79.5 30.5zM280 511q5 24 17 32.5t19 8.5t16 -1.5t21 -13t14 -27.5q0 -24 -10 -31.5t-23 -7.5t-21 2.5t-15 8.5q-18 12 -18 29z" />
    <glyph glyph-name="Ccaron" unicode="&#x10c;" horiz-adv-x="725" 
d="M522 555q-65 64 -144 64q-75 0 -144 -57q-87 -72 -120 -186q-12 -41 -12 -68t2 -42q0 -99 67 -152q63 -49 161 -49q134 11 257 103q34 26 72 50q14 0 28.5 -4t14.5 -23q-99 -86 -167 -124q-126 -68 -228 -68h-13q-111 0 -190 69q-84 73 -84 182q0 82 29.5 157t81 132.5
t122 91.5t151.5 34q69 0 90 -19q26 -23 26 -91zM219 789q-9 12 -9 25t10 16t25 3q11 -19 27.5 -34t53.5 -35q27 20 37 28.5t15.5 12.5t12 7.5t25.5 14.5q21 10 29 0q4 -5 4 -11.5t-5 -15.5q-29 -37 -47 -49q-23 -16 -64 -37q-51 19 -78 41t-36 34z" />
    <glyph glyph-name="ccaron" unicode="&#x10d;" horiz-adv-x="648" 
d="M511 136q39 14 74.5 14t35.5 -22q0 -5 -2.5 -15.5t-27 -25t-60 -27.5t-77.5 -24t-82 -19q-83 -17 -118 -17t-75.5 8t-75.5 26q-81 42 -81 124v24t15 51.5t45 67t70 61.5q84 60 176 78q32 7 53.5 7t35.5 -0.5t29 -2t26 -7.5q26 -13 26 -51q0 -24 -34 -47q-9 -6 -16 -11
q-5 23 -13 39t-35 16q-118 -25 -203 -75q-96 -57 -96 -120q0 -7 1 -15q0 -64 49 -91q37 -20 95.5 -20t101.5 13.5t83.5 30t79.5 30.5zM185 551q-9 12 -9 25t10 16t25 3q11 -19 27.5 -34t53.5 -35q27 20 37 28.5t15.5 12.5t12 7.5t25.5 14.5q21 10 29 0q4 -5 4 -11.5
t-5 -15.5q-29 -37 -47 -49q-23 -16 -64 -37q-51 19 -78 41t-36 34z" />
    <glyph glyph-name="Dcaron" unicode="&#x10e;" horiz-adv-x="664" 
d="M105 614q74 26 196 26q223 0 305 -110q32 -42 32 -107q1 -9 1 -18q0 -100 -117 -203q-107 -97 -264 -156q-104 -40 -172 -40q-28 0 -48 8v624h14q23 0 37 -7.5t16 -16.5zM571 415q-9 89 -99 132q-67 32 -168 32l-18 -1q-95 -2 -164 -30v-477q70 0 175 51q182 90 250 209
q24 42 24 84zM186 765q-9 12 -9 25t10 16t25 3q11 -19 27.5 -34t53.5 -35q27 20 37 28.5t15.5 12.5t12 7.5t25.5 14.5q21 10 29 0q4 -5 4 -11.5t-5 -15.5q-29 -37 -47 -49q-23 -16 -64 -37q-51 19 -78 41t-36 34z" />
    <glyph glyph-name="Emacron" unicode="&#x112;" horiz-adv-x="606" 
d="M353 635q100 0 133 -13v-49q-27 -4 -74 -4.5t-100 -1.5q-148 -3 -202 -15q-17 -80 -16 -109t2 -45q4 -39 4 -92q68 0 155.5 12t135.5 17.5t99 5.5v-55l-383 -48l6 -164q99 0 202.5 9.5t157 14t113.5 4.5q0 -20 -12 -38q-24 -32 -43 -19q-176 -19 -314.5 -30t-186.5 -15
l4 638q26 -8 96 -8zM190 662q-50 0 -50 25q0 14 11.5 19t40 9t72 11.5t91.5 12.5q42 0 53 -23q1 -4 1 -8.5t-4.5 -12t-22.5 -13.5z" />
    <glyph glyph-name="emacron" unicode="&#x113;" horiz-adv-x="554" 
d="M231 70q88 0 265 80q11 0 18 -7.5t7 -17.5q-40 -68 -153 -106t-211 -13q-111 29 -135 125q-2 19 -2 51t16.5 84.5t56.5 99.5t94 74t115 27q58 0 130 -40q34 -19 54 -43t20 -49q0 -7 -1 -14q-2 -61 -59 -77q-25 -7 -58 -7l-144 6q-72 0 -110 -31q-22 -17 -31 -51
q25 -91 128 -91zM363 402q-24 7 -40 7t-52 -10.5t-64 -23.5q-69 -32 -69 -67q80 -7 120 -7q111 0 150 19q24 10 24 25q0 18 -22.5 34t-46.5 23zM182 534q-50 0 -50 25q0 14 11.5 19t40 9t72 11.5t91.5 12.5q42 0 53 -23q1 -4 1 -8.5t-4.5 -12t-22.5 -13.5z" />
    <glyph glyph-name="Ebreve" unicode="&#x114;" horiz-adv-x="606" 
d="M353 635q100 0 133 -13v-49q-27 -4 -74 -4.5t-100 -1.5q-148 -3 -202 -15q-17 -80 -16 -109t2 -45q4 -39 4 -92q68 0 155.5 12t135.5 17.5t99 5.5v-55l-383 -48l6 -164q99 0 202.5 9.5t157 14t113.5 4.5q0 -20 -12 -38q-24 -32 -43 -19q-176 -19 -314.5 -30t-186.5 -15
l4 638q26 -8 96 -8zM205 746.5q0 21.5 10 24.5t25 3q4 -32 20 -42t25.5 -10t21.5 1.5t30.5 14t26.5 28.5q10 5 17.5 5t12 -5t4.5 -11.5t-6 -15.5q-28 -43 -55 -54t-42 -11q-44 0 -67 25.5t-23 47z" />
    <glyph glyph-name="ebreve" unicode="&#x115;" horiz-adv-x="554" 
d="M231 70q88 0 265 80q11 0 18 -7.5t7 -17.5q-40 -68 -153 -106t-211 -13q-111 29 -135 125q-2 19 -2 51t16.5 84.5t56.5 99.5t94 74t115 27q58 0 130 -40q34 -19 54 -43t20 -49q0 -7 -1 -14q-2 -61 -59 -77q-25 -7 -58 -7l-144 6q-72 0 -110 -31q-22 -17 -31 -51
q25 -91 128 -91zM363 402q-24 7 -40 7t-52 -10.5t-64 -23.5q-69 -32 -69 -67q80 -7 120 -7q111 0 150 19q24 10 24 25q0 18 -22.5 34t-46.5 23zM173 574.5q0 21.5 10 24.5t25 3q4 -32 20 -42t25.5 -10t21.5 1.5t30.5 14t26.5 28.5q10 5 17.5 5t12 -5t4.5 -11.5t-6 -15.5
q-28 -43 -55 -54t-42 -11q-44 0 -67 25.5t-23 47z" />
    <glyph glyph-name="Edotaccent" unicode="&#x116;" horiz-adv-x="606" 
d="M353 635q100 0 133 -13v-49q-27 -4 -74 -4.5t-100 -1.5q-148 -3 -202 -15q-17 -80 -16 -109t2 -45q4 -39 4 -92q68 0 155.5 12t135.5 17.5t99 5.5v-55l-383 -48l6 -164q99 0 202.5 9.5t157 14t113.5 4.5q0 -20 -12 -38q-24 -32 -43 -19q-176 -19 -314.5 -30t-186.5 -15
l4 638q26 -8 96 -8zM228 715q5 24 17 32.5t19 8.5t16 -1.5t21 -13t14 -27.5q0 -24 -10 -31.5t-23 -7.5t-21 2.5t-15 8.5q-18 12 -18 29z" />
    <glyph glyph-name="edotaccent" unicode="&#x117;" horiz-adv-x="554" 
d="M231 70q88 0 265 80q11 0 18 -7.5t7 -17.5q-40 -68 -153 -106t-211 -13q-111 29 -135 125q-2 19 -2 51t16.5 84.5t56.5 99.5t94 74t115 27q58 0 130 -40q34 -19 54 -43t20 -49q0 -7 -1 -14q-2 -61 -59 -77q-25 -7 -58 -7l-144 6q-72 0 -110 -31q-22 -17 -31 -51
q25 -91 128 -91zM363 402q-24 7 -40 7t-52 -10.5t-64 -23.5q-69 -32 -69 -67q80 -7 120 -7q111 0 150 19q24 10 24 25q0 18 -22.5 34t-46.5 23zM233 549q5 24 17 32.5t19 8.5t16 -1.5t21 -13t14 -27.5q0 -24 -10 -31.5t-23 -7.5t-21 2.5t-15 8.5q-18 12 -18 29z" />
    <glyph glyph-name="Eogonek" unicode="&#x118;" horiz-adv-x="606" 
d="M353 635q100 0 133 -13v-49q-27 -4 -74 -4.5t-100 -1.5q-148 -3 -202 -15q-17 -80 -16 -109t2 -45q4 -39 4 -92q68 0 155.5 12t135.5 17.5t99 5.5v-55l-383 -48l6 -164q99 0 202.5 9.5t157 14t113.5 4.5q0 -20 -12 -38q-24 -32 -43 -19q-176 -19 -314.5 -30t-186.5 -15
l4 638q26 -8 96 -8zM559 -132q-25 -12 -41 -12q-46 0 -73 24q-55 45 -55 105q0 30 16.5 54.5t52.5 35.5l71 -25h-5q-32 0 -52 -13q-30 -20 -30 -51q0 -32 21 -50q27 -23 53.5 -23t52.5 11z" />
    <glyph glyph-name="eogonek" unicode="&#x119;" horiz-adv-x="554" 
d="M231 70q88 0 265 80q11 0 18 -7.5t7 -17.5q-40 -68 -153 -106t-211 -13q-111 29 -135 125q-2 19 -2 51t16.5 84.5t56.5 99.5t94 74t115 27q58 0 130 -40q34 -19 54 -43t20 -49q0 -7 -1 -14q-2 -61 -59 -77q-25 -7 -58 -7l-144 6q-72 0 -110 -31q-22 -17 -31 -51
q25 -91 128 -91zM363 402q-24 7 -40 7t-52 -10.5t-64 -23.5q-69 -32 -69 -67q80 -7 120 -7q111 0 150 19q24 10 24 25q0 18 -22.5 34t-46.5 23zM365 -170q-25 -12 -41 -12q-46 0 -73 24q-55 45 -55 105q0 30 16.5 54.5t52.5 35.5l71 -25h-5q-32 0 -52 -13q-30 -20 -30 -51
q0 -32 21 -50q27 -23 53.5 -23t52.5 11z" />
    <glyph glyph-name="Ecaron" unicode="&#x11a;" horiz-adv-x="606" 
d="M353 635q100 0 133 -13v-49q-27 -4 -74 -4.5t-100 -1.5q-148 -3 -202 -15q-17 -80 -16 -109t2 -45q4 -39 4 -92q68 0 155.5 12t135.5 17.5t99 5.5v-55l-383 -48l6 -164q99 0 202.5 9.5t157 14t113.5 4.5q0 -20 -12 -38q-24 -32 -43 -19q-176 -19 -314.5 -30t-186.5 -15
l4 638q26 -8 96 -8zM184 757q-9 12 -9 25t10 16t25 3q11 -19 27.5 -34t53.5 -35q27 20 37 28.5t15.5 12.5t12 7.5t25.5 14.5q21 10 29 0q4 -5 4 -11.5t-5 -15.5q-29 -37 -47 -49q-23 -16 -64 -37q-51 19 -78 41t-36 34z" />
    <glyph glyph-name="ecaron" unicode="&#x11b;" horiz-adv-x="554" 
d="M231 70q88 0 265 80q11 0 18 -7.5t7 -17.5q-40 -68 -153 -106t-211 -13q-111 29 -135 125q-2 19 -2 51t16.5 84.5t56.5 99.5t94 74t115 27q58 0 130 -40q34 -19 54 -43t20 -49q0 -7 -1 -14q-2 -61 -59 -77q-25 -7 -58 -7l-144 6q-72 0 -110 -31q-22 -17 -31 -51
q25 -91 128 -91zM363 402q-24 7 -40 7t-52 -10.5t-64 -23.5q-69 -32 -69 -67q80 -7 120 -7q111 0 150 19q24 10 24 25q0 18 -22.5 34t-46.5 23zM151 581q-9 12 -9 25t10 16t25 3q11 -19 27.5 -34t53.5 -35q27 20 37 28.5t15.5 12.5t12 7.5t25.5 14.5q21 10 29 0
q4 -5 4 -11.5t-5 -15.5q-29 -37 -47 -49q-23 -16 -64 -37q-51 19 -78 41t-36 34z" />
    <glyph glyph-name="Gcircumflex" unicode="&#x11c;" horiz-adv-x="709" 
d="M496 -49v183q-95 -65 -132 -86q-86 -47 -151 -47q-78 0 -134 57q-57 59 -57 135q5 80 34 162q60 174 199 255q69 41 159 41h4l27 1q46 0 42 -36q-80 -4 -150 -37t-121.5 -88.5t-81 -129.5t-29.5 -151t40 -111t103 -34q54 0 150 47q61 30 91 68q15 18 15 38v148
q-30 0 -139.5 -23t-126.5 -26q-5 3 -12 6.5t-8 10.5q-2 15 44 46q11 6 132 23.5t154 22.5t55 8q10 -2 25 0.5t28 1.5q32 -1 30 -35l-83 -34q-19 -61 -19 -230l2 -149v-37q-30 -15 -58 -15t-32 15zM230.5 712q-11.5 5 -11.5 24t10.5 37t29.5 38q42 44 104 73q51 -33 68 -47
q28 -25 64 -81q6 -12 6 -22.5t-4 -16.5q-11 -16 -36 -1q-37 27 -43.5 33t-18.5 19t-43 43q-61 -42 -83 -78q-7 -12 -13 -26q-18 0 -29.5 5z" />
    <glyph glyph-name="gcircumflex" unicode="&#x11d;" horiz-adv-x="528" 
d="M316 -428l-14 1q-30 0 -64 -4h-38q-60 0 -94 23q-18 12 -18 36l230 11q106 3 106 114v13.5v41.5l5 322q0 17 -1 28q-162 -151 -312 -151q-13 0 -26 1q-67 0 -67 59q2 46 27 101.5t64.5 107t89.5 92.5q77 63 149 63q84 0 138 -89q16 -238 16 -338t-3 -164t-13.5 -117
t-27.5 -84t-40 -45q-38 -22 -107 -22zM376 358q-12 4 -33.5 4t-55.5 -18t-65 -46.5t-58 -63.5q-66 -86 -66 -137q0 -16 9 -24q7 -4 17.5 -4t30.5 3.5t54.5 18t71.5 37.5t67 51q70 64 70 125q0 37 -42 54zM129.5 515q-11.5 5 -11.5 24t10.5 37t29.5 38q42 44 104 73
q51 -33 68 -47q28 -25 64 -81q6 -12 6 -22.5t-4 -16.5q-11 -16 -36 -1q-37 27 -43.5 33t-18.5 19t-43 43q-61 -42 -83 -78q-7 -12 -13 -26q-18 0 -29.5 5z" />
    <glyph glyph-name="Gbreve" unicode="&#x11e;" horiz-adv-x="709" 
d="M496 -49v183q-95 -65 -132 -86q-86 -47 -151 -47q-78 0 -134 57q-57 59 -57 135q5 80 34 162q60 174 199 255q69 41 159 41h4l27 1q46 0 42 -36q-80 -4 -150 -37t-121.5 -88.5t-81 -129.5t-29.5 -151t40 -111t103 -34q54 0 150 47q61 30 91 68q15 18 15 38v148
q-30 0 -139.5 -23t-126.5 -26q-5 3 -12 6.5t-8 10.5q-2 15 44 46q11 6 132 23.5t154 22.5t55 8q10 -2 25 0.5t28 1.5q32 -1 30 -35l-83 -34q-19 -61 -19 -230l2 -149v-37q-30 -15 -58 -15t-32 15zM247 756.5q0 21.5 10 24.5t25 3q4 -32 20 -42t25.5 -10t21.5 1.5t30.5 14
t26.5 28.5q10 5 17.5 5t12 -5t4.5 -11.5t-6 -15.5q-28 -43 -55 -54t-42 -11q-44 0 -67 25.5t-23 47z" />
    <glyph glyph-name="gbreve" unicode="&#x11f;" horiz-adv-x="528" 
d="M316 -428l-14 1q-30 0 -64 -4h-38q-60 0 -94 23q-18 12 -18 36l230 11q106 3 106 114v13.5v41.5l5 322q0 17 -1 28q-162 -151 -312 -151q-13 0 -26 1q-67 0 -67 59q2 46 27 101.5t64.5 107t89.5 92.5q77 63 149 63q84 0 138 -89q16 -238 16 -338t-3 -164t-13.5 -117
t-27.5 -84t-40 -45q-38 -22 -107 -22zM376 358q-12 4 -33.5 4t-55.5 -18t-65 -46.5t-58 -63.5q-66 -86 -66 -137q0 -16 9 -24q7 -4 17.5 -4t30.5 3.5t54.5 18t71.5 37.5t67 51q70 64 70 125q0 37 -42 54zM163 546.5q0 21.5 10 24.5t25 3q4 -32 20 -42t25.5 -10t21.5 1.5
t30.5 14t26.5 28.5q10 5 17.5 5t12 -5t4.5 -11.5t-6 -15.5q-28 -43 -55 -54t-42 -11q-44 0 -67 25.5t-23 47z" />
    <glyph glyph-name="Gdotaccent" unicode="&#x120;" horiz-adv-x="709" 
d="M496 -49v183q-95 -65 -132 -86q-86 -47 -151 -47q-78 0 -134 57q-57 59 -57 135q5 80 34 162q60 174 199 255q69 41 159 41h4l27 1q46 0 42 -36q-80 -4 -150 -37t-121.5 -88.5t-81 -129.5t-29.5 -151t40 -111t103 -34q54 0 150 47q61 30 91 68q15 18 15 38v148
q-30 0 -139.5 -23t-126.5 -26q-5 3 -12 6.5t-8 10.5q-2 15 44 46q11 6 132 23.5t154 22.5t55 8q10 -2 25 0.5t28 1.5q32 -1 30 -35l-83 -34q-19 -61 -19 -230l2 -149v-37q-30 -15 -58 -15t-32 15zM265 732q5 24 17 32.5t19 8.5t16 -1.5t21 -13t14 -27.5q0 -24 -10 -31.5
t-23 -7.5t-21 2.5t-15 8.5q-18 12 -18 29z" />
    <glyph glyph-name="gdotaccent" unicode="&#x121;" horiz-adv-x="528" 
d="M316 -428l-14 1q-30 0 -64 -4h-38q-60 0 -94 23q-18 12 -18 36l230 11q106 3 106 114v13.5v41.5l5 322q0 17 -1 28q-162 -151 -312 -151q-13 0 -26 1q-67 0 -67 59q2 46 27 101.5t64.5 107t89.5 92.5q77 63 149 63q84 0 138 -89q16 -238 16 -338t-3 -164t-13.5 -117
t-27.5 -84t-40 -45q-38 -22 -107 -22zM376 358q-12 4 -33.5 4t-55.5 -18t-65 -46.5t-58 -63.5q-66 -86 -66 -137q0 -16 9 -24q7 -4 17.5 -4t30.5 3.5t54.5 18t71.5 37.5t67 51q70 64 70 125q0 37 -42 54zM220 511q5 24 17 32.5t19 8.5t16 -1.5t21 -13t14 -27.5
q0 -24 -10 -31.5t-23 -7.5t-21 2.5t-15 8.5q-18 12 -18 29z" />
    <glyph glyph-name="Gcommaaccent" unicode="&#x122;" horiz-adv-x="709" 
d="M496 -49v183q-95 -65 -132 -86q-86 -47 -151 -47q-78 0 -134 57q-57 59 -57 135q5 80 34 162q60 174 199 255q69 41 159 41h4l27 1q46 0 42 -36q-80 -4 -150 -37t-121.5 -88.5t-81 -129.5t-29.5 -151t40 -111t103 -34q54 0 150 47q61 30 91 68q15 18 15 38v148
q-30 0 -139.5 -23t-126.5 -26q-5 3 -12 6.5t-8 10.5q-2 15 44 46q11 6 132 23.5t154 22.5t55 8q10 -2 25 0.5t28 1.5q32 -1 30 -35l-83 -34q-19 -61 -19 -230l2 -149v-37q-30 -15 -58 -15t-32 15zM352 -79q6 13 13.5 15t16.5 2t16 -2q22 -6 22 -23q0 -16 -55 -101
q-10 -16 -14.5 -23.5t-11.5 -14.5q-23 -25 -46 -25q-6 0 -12 2z" />
    <glyph glyph-name="gcommaaccent" unicode="&#x123;" horiz-adv-x="528" 
d="M316 -428l-14 1q-30 0 -64 -4h-38q-60 0 -94 23q-18 12 -18 36l230 11q106 3 106 114v13.5v41.5l5 322q0 17 -1 28q-162 -151 -312 -151q-13 0 -26 1q-67 0 -67 59q2 46 27 101.5t64.5 107t89.5 92.5q77 63 149 63q84 0 138 -89q16 -238 16 -338t-3 -164t-13.5 -117
t-27.5 -84t-40 -45q-38 -22 -107 -22zM376 358q-12 4 -33.5 4t-55.5 -18t-65 -46.5t-58 -63.5q-66 -86 -66 -137q0 -16 9 -24q7 -4 17.5 -4t30.5 3.5t54.5 18t71.5 37.5t67 51q70 64 70 125q0 37 -42 54zM270 619q24 0 24 -35q0 -41 -34 -108q-10 -20 -19 -34l-48 -4l56 176
q12 5 21 5z" />
    <glyph glyph-name="Hcircumflex" unicode="&#x124;" horiz-adv-x="620" 
d="M155 282q-3 -34 -3 -96.5t19 -151.5l-79 -40l-36 272q-35 5 -35 24q0 14 16.5 33t24.5 31.5t9.5 28t4.5 55.5t5.5 85t5 85t2.5 56q22 22 32 27q25 13 34 -10l-6 -315q247 0 297 32v316q6 17 56 17q11 0 18 -1q0 -19 1.5 -57.5t3 -87.5t3.5 -103.5t4 -103.5q3 -102 5 -150
q7 -120 49 -194q-45 -18 -99 -18q-46 114 -49 299q-66 2 -90 2t-54 -3q-62 -4 -139 -32zM140.5 801q-11.5 5 -11.5 24t10.5 37t29.5 38q42 44 104 73q51 -33 68 -47q28 -25 64 -81q6 -12 6 -22.5t-4 -16.5q-11 -16 -36 -1q-37 27 -43.5 33t-18.5 19t-43 43q-61 -42 -83 -78
q-7 -12 -13 -26q-18 0 -29.5 5z" />
    <glyph glyph-name="hcircumflex" unicode="&#x125;" horiz-adv-x="507" 
d="M497 14q-9 -17 -46.5 -17t-37.5 27q0 118 -5 162q-9 97 -38 104q-72 14 -117.5 14t-75 -27.5t-45 -91t-22.5 -178.5h-77q2 57 2 106t-2 116.5t-5 147.5q-5 92 -5 155.5t8 116.5q10 19 29 19q23 0 36 -16.5t14 -29.5l-5 -165q0 -93 9 -139q90 60 186 60q31 0 66 -5
q75 -39 98 -83q11 -23 14 -49t4 -59q6 -114 15 -168zM150.5 625q-11.5 5 -11.5 24t10.5 37t29.5 38q42 44 104 73q51 -33 68 -47q28 -25 64 -81q6 -12 6 -22.5t-4 -16.5q-11 -16 -36 -1q-37 27 -43.5 33t-18.5 19t-43 43q-61 -42 -83 -78q-7 -12 -13 -26q-18 0 -29.5 5z" />
    <glyph glyph-name="Hbar" unicode="&#x126;" horiz-adv-x="620" 
d="M155 282q-3 -34 -3 -96.5t19 -151.5l-79 -40l-36 272q-35 5 -35 24q0 14 16.5 33t24.5 31.5t9.5 28t4.5 55.5t5.5 85t5 85t2.5 56q22 22 32 27q25 13 34 -10l-6 -315q247 0 297 32v316q6 17 56 17q11 0 18 -1q0 -19 1.5 -57.5t3 -87.5t3.5 -103.5t4 -103.5q3 -102 5 -150
q7 -120 49 -194q-45 -18 -99 -18q-46 114 -49 299q-66 2 -90 2t-54 -3q-62 -4 -139 -32zM138.901 513.524q-99.3135 0 -99.3135 27.834q0 15.5869 22.8418 21.1533q22.8428 5.56641 79.4512 10.0205q56.6084 4.45312 143.011 12.8027q86.4033 8.35059 181.744 13.917
q83.4229 0 105.271 -25.6064q1.98633 -4.4541 1.98633 -9.46387t-8.9375 -13.3604q-8.93848 -8.34961 -44.6914 -15.0293z" />
    <glyph glyph-name="hbar" unicode="&#x127;" horiz-adv-x="507" 
d="M497 14q-9 -17 -46.5 -17t-37.5 27q0 118 -5 162q-9 97 -38 104q-72 14 -117.5 14t-75 -27.5t-45 -91t-22.5 -178.5h-77q2 57 2 106t-2 116.5t-5 147.5q-5 92 -5 155.5t8 116.5q10 19 29 19q23 0 36 -16.5t14 -29.5l-5 -165q0 -93 9 -139q90 60 186 60q31 0 66 -5
q75 -39 98 -83q11 -23 14 -49t4 -59q6 -114 15 -168zM35 435q-50 0 -50 25q0 14 11.5 19t40 9t72 11.5t91.5 12.5q42 0 53 -23q1 -4 1 -8.5t-4.5 -12t-22.5 -13.5z" />
    <glyph glyph-name="Itilde" unicode="&#x128;" 
d="M105 16q0 -17 -24 -17q-18 0 -43 17q-12 27 -12 129t2 168.5t4 122.5q6 122 6 129q29 17 48 17t19 -17v-549zM13 691q-32 0 -86 -81q-6 0 -19.5 4t-16.5 17q15 48 45 85t63 50q8 3 18 3t24.5 -10.5t32.5 -29.5t37 -36t40.5 -17t34 7t23 20t23 32t35.5 43q6 0 12.5 -10.5
t7 -18t0.5 -18.5t-7.5 -29t-24.5 -36q-44 -47 -106 -47q-46 0 -74 31q-20 18 -34 29.5t-28 11.5z" />
    <glyph glyph-name="itilde" unicode="&#x129;" 
d="M117 470q13 -187 22 -433q-6 -31 -48 -31q-11 0 -22.5 4.5t-14.5 12.5v447h63zM-2 601q-32 0 -86 -81q-6 0 -19.5 4t-16.5 17q15 48 45 85t63 50q8 3 18 3t24.5 -10.5t32.5 -29.5t37 -36t40.5 -17t34 7t23 20t23 32t35.5 43q6 0 12.5 -10.5t7 -18t0.5 -18.5t-7.5 -29
t-24.5 -36q-44 -47 -106 -47q-46 0 -74 31q-20 18 -34 29.5t-28 11.5z" />
    <glyph glyph-name="imacron" unicode="&#x12b;" 
d="M117 470q13 -187 22 -433q-6 -31 -48 -31q-11 0 -22.5 4.5t-14.5 12.5v447h63zM-18 534q-50 0 -50 25q0 14 11.5 19t40 9t72 11.5t91.5 12.5q42 0 53 -23q1 -4 1 -8.5t-4.5 -12t-22.5 -13.5z" />
    <glyph glyph-name="Ibreve" unicode="&#x12c;" 
d="M105 16q0 -17 -24 -17q-18 0 -43 17q-12 27 -12 129t2 168.5t4 122.5q6 122 6 129q29 17 48 17t19 -17v-549zM-33 694.5q0 21.5 10 24.5t25 3q4 -32 20 -42t25.5 -10t21.5 1.5t30.5 14t26.5 28.5q10 5 17.5 5t12 -5t4.5 -11.5t-6 -15.5q-28 -43 -55 -54t-42 -11
q-44 0 -67 25.5t-23 47z" />
    <glyph glyph-name="Iogonek" unicode="&#x12e;" 
d="M105 16q0 -17 -24 -17q-18 0 -43 17q-12 27 -12 129t2 168.5t4 122.5q6 122 6 129q29 17 48 17t19 -17v-549zM126 -167q-25 -12 -41 -12q-46 0 -73 24q-55 45 -55 105q0 30 16.5 54.5t52.5 35.5l71 -25h-5q-32 0 -52 -13q-30 -20 -30 -51q0 -32 21 -50q27 -23 53.5 -23
t52.5 11z" />
    <glyph glyph-name="iogonek" unicode="&#x12f;" 
d="M117 470q13 -187 22 -433q-6 -31 -48 -31q-11 0 -22.5 4.5t-14.5 12.5v447h63zM24 606q0 35 41 35q27 0 44 -12q3 -11 3 -21.5t-8 -20.5t-24 -10t-32 7.5t-24 21.5zM157 -159q-25 -12 -41 -12q-46 0 -73 24q-55 45 -55 105q0 30 16.5 54.5t52.5 35.5l71 -25h-5
q-32 0 -52 -13q-30 -20 -30 -51q0 -32 21 -50q27 -23 53.5 -23t52.5 11z" />
    <glyph glyph-name="Idotaccent" unicode="&#x130;" 
d="M105 16q0 -17 -24 -17q-18 0 -43 17q-12 27 -12 129t2 168.5t4 122.5q6 122 6 129q29 17 48 17t19 -17v-549zM34 667q5 24 17 32.5t19 8.5t16 -1.5t21 -13t14 -27.5q0 -24 -10 -31.5t-23 -7.5t-21 2.5t-15 8.5q-18 12 -18 29z" />
    <glyph glyph-name="dotlessi" unicode="&#x131;" 
d="M117 470q13 -187 22 -433q-6 -31 -48 -31q-11 0 -22.5 4.5t-14.5 12.5v447h63z" />
    <glyph glyph-name="Jcircumflex" unicode="&#x134;" horiz-adv-x="542" 
d="M429 327l-3 189q0 45 2.5 79.5t14.5 34.5h67q0 -16 3 -62t4 -92.5t1 -79.5t-1 -85.5t-10 -115.5q-21 -145 -80 -179q-45 -25 -143 -12q-99 14 -174 58q-88 51 -101 120q0 23 15 40q27 32 49 32q1 -57 31 -94q70 -84 225 -84q26 0 51 3q49 26 49 248zM153.5 736
q-11.5 5 -11.5 24t10.5 37t29.5 38q42 44 104 73q51 -33 68 -47q28 -25 64 -81q6 -12 6 -22.5t-4 -16.5q-11 -16 -36 -1q-37 27 -43.5 33t-18.5 19t-43 43q-61 -42 -83 -78q-7 -12 -13 -26q-18 0 -29.5 5z" />
    <glyph glyph-name="jcircumflex" unicode="&#x135;" horiz-adv-x="172" 
d="M163 -200q0 -167 -88 -167q-9 0 -22.5 0.5t-40 4t-53.5 12.5q-65 22 -83 64q0 5 7 20.5t7 16.5q33 -25 71 -47t81 -22q28 0 46 42q15 36 15 72q0 85 -6.5 165.5t-12.5 160.5q-14 165 -14 225.5t2 100.5q-3 24 22 36q19 9 42 9q-9 -62 -9 -98t0.5 -74.5t6 -112.5
t12.5 -148q17 -161 17 -260zM-53.5 515q-11.5 5 -11.5 24t10.5 37t29.5 38q42 44 104 73q51 -33 68 -47q28 -25 64 -81q6 -12 6 -22.5t-5 -16.5q-10 -16 -35 -1q-37 27 -43.5 33t-18.5 19t-43 43q-61 -42 -82 -78q-8 -12 -14 -26q-18 0 -29.5 5z" />
    <glyph glyph-name="Kcommaaccent" unicode="&#x136;" horiz-adv-x="620" 
d="M43 15q0 4 2.5 12t5 41t4 79.5t3 102t3 113.5t3.5 113.5t6 101.5q9 100 24 119q8 23 54 23h14q0 -38 -8.5 -160t-9.5 -145q65 33 125.5 71.5t113 71t95.5 54t64 21.5q35 0 35 -27q0 -21 -32 -46.5t-80 -53t-104.5 -55.5t-104.5 -54.5t-80 -49.5t-32 -40
q18 -11 59.5 -29.5t93 -42t107 -50t101.5 -53.5q104 -59 104 -98q0 -13 -17 -18q-7 -2 -14 -2h-10q-48 0 -90 23t-89.5 55t-107.5 66.5t-145 57.5v-200q-2 -4 -18 -9q-23 -7 -49 -7t-26 15zM308 -79q6 13 13.5 15t16.5 2t16 -2q22 -6 22 -23q0 -16 -55 -101
q-10 -16 -14.5 -23.5t-11.5 -14.5q-23 -25 -46 -25q-6 0 -12 2z" />
    <glyph glyph-name="kcommaaccent" unicode="&#x137;" horiz-adv-x="629" 
d="M126 182l5 -87q0 -80 -38 -97q-8 -3 -19 -3t-26 5l1 374q0 81 -9.5 162.5t-9.5 162.5q0 32 34 32h8q7 0 9 -1q15 -62 20 -150q11 -195 20 -262q17 9 76 51t95 67.5t68 47.5q75 49 94 49q16 0 25 -19q-50 -63 -161 -140q-45 -31 -89.5 -61.5t-81.5 -63.5q67 -18 127 -37.5
t116 -35.5q129 -38 222 -43q0 -27 -5 -35q-9 -14 -37 -16h-8q-61 17 -162 38q-199 41 -274 62zM312 -79q6 13 13.5 15t16.5 2t16 -2q22 -6 22 -23q0 -16 -55 -101q-10 -16 -14.5 -23.5t-11.5 -14.5q-23 -25 -46 -25q-6 0 -12 2z" />
    <glyph glyph-name="Lacute" unicode="&#x139;" horiz-adv-x="709" 
d="M80 437l-2 249l80 -3l-9 -586l527 -15q16 -5 16 -17t-15 -25q-29 -26 -66 -26q-9 0 -19 2l-537 5q25 93 25 416zM357 837q14 19 30 19q10 0 15 -9.5t4 -18.5t-5 -17t-13 -19q-17 -19 -69 -62l-31 28z" />
    <glyph glyph-name="lacute" unicode="&#x13a;" horiz-adv-x="161" 
d="M41 484.5q-2 42.5 -2.5 63t-16.5 100.5q9 12 17.5 23t24.5 11q35 0 54 -295q10 -171 10 -342q0 -46 -64 -46l-8 1q0 52 -3 133t-4.5 141t-3.5 114t-4 96.5zM85 809q14 19 30 19q10 0 15 -9.5t4 -18.5t-5 -17t-13 -19q-17 -19 -69 -62l-31 28z" />
    <glyph glyph-name="Lcommaaccent" unicode="&#x13b;" horiz-adv-x="709" 
d="M80 437l-2 249l80 -3l-9 -586l527 -15q16 -5 16 -17t-15 -25q-29 -26 -66 -26q-9 0 -19 2l-537 5q25 93 25 416zM352 -79q6 13 13.5 15t16.5 2t16 -2q22 -6 22 -23q0 -16 -55 -101q-10 -16 -14.5 -23.5t-11.5 -14.5q-23 -25 -46 -25q-6 0 -12 2z" />
    <glyph glyph-name="lcommaaccent" unicode="&#x13c;" horiz-adv-x="161" 
d="M41 484.5q-2 42.5 -2.5 63t-16.5 100.5q9 12 17.5 23t24.5 11q35 0 54 -295q10 -171 10 -342q0 -46 -64 -46l-8 1q0 52 -3 133t-4.5 141t-3.5 114t-4 96.5zM79 -79q6 13 13.5 15t16.5 2t16 -2q22 -6 22 -23q0 -16 -55 -101q-10 -16 -14.5 -23.5t-11.5 -14.5
q-23 -25 -46 -25q-6 0 -12 2z" />
    <glyph glyph-name="Lcaron" unicode="&#x13d;" horiz-adv-x="709" 
d="M80 437l-2 249l80 -3l-9 -586l527 -15q16 -5 16 -17t-15 -25q-29 -26 -66 -26q-9 0 -19 2l-537 5q25 93 25 416zM360 619q24 0 24 -35q0 -41 -34 -108q-10 -20 -19 -34l-48 -4l56 176q12 5 21 5z" />
    <glyph glyph-name="Ldot" unicode="&#x13f;" horiz-adv-x="709" 
d="M80 437l-2 249l80 -3l-9 -586l527 -15q16 -5 16 -17t-15 -25q-29 -26 -66 -26q-9 0 -19 2l-537 5q25 93 25 416zM311 240q5 24 17 32.5t19 8.5t16 -1.5t21 -13t14 -27.5q0 -24 -10 -31.5t-23 -7.5t-21 2.5t-16 7.5q-17 12 -17 30z" />
    <glyph glyph-name="ldot" unicode="&#x140;" horiz-adv-x="305" 
d="M41 484.5q-2 42.5 -2.5 63t-16.5 100.5q9 12 17.5 23t24.5 11q35 0 54 -295q10 -171 10 -342q0 -46 -64 -46l-8 1q0 52 -3 133t-4.5 141t-3.5 114t-4 96.5zM176 240q5 24 17 32.5t19 8.5t16 -1.5t21 -13t14 -27.5q0 -24 -10 -31.5t-23 -7.5t-21 2.5t-16 7.5
q-17 12 -17 30z" />
    <glyph glyph-name="Lslash" unicode="&#x141;" horiz-adv-x="709" 
d="M80 437l-2 249l80 -3l-9 -586l527 -15q16 -5 16 -17t-15 -25q-29 -26 -66 -26q-9 0 -19 2l-537 5q25 93 25 416zM59 244q-50 0 -50 26q0 13 11.5 18t40 9t72 12t91.5 13q20 0 34 -7q20 -10 20 -24q0 -5 -4.5 -13t-22.5 -14z" />
    <glyph glyph-name="lslash" unicode="&#x142;" horiz-adv-x="161" 
d="M41 484.5q-2 42.5 -2.5 63t-16.5 100.5q9 12 17.5 23t24.5 11q35 0 54 -295q10 -171 10 -342q0 -46 -64 -46l-8 1q0 52 -3 133t-4.5 141t-3.5 114t-4 96.5zM-13 216q-50 0 -50 26q0 13 11.5 18t40 9t72 12t91.5 13q20 0 34 -7q20 -10 20 -24q0 -5 -4.5 -13t-22.5 -14z
" />
    <glyph glyph-name="Nacute" unicode="&#x143;" horiz-adv-x="642" 
d="M608 353q0 -304 -25 -356l-73 6q-55 95 -185 267q-51 68 -101.5 135t-92.5 133q-20 -89 -20 -356q0 -102 -4 -172q-19 -18 -41.5 -18t-31.5 4.5t-9 15t2.5 33t6 75.5t6.5 112q8 154 8 265.5t-2 183.5q22 20 34 29t27 -0.5t38.5 -41t66.5 -93.5q147 -209 289 -392l19 498
q11 20 22 27.5t29 7.5q35 0 35 -64l-1 -37zM334 850q14 19 30 19q10 0 15 -9.5t4 -18.5t-5 -17t-13 -19q-17 -19 -69 -62l-31 28z" />
    <glyph glyph-name="nacute" unicode="&#x144;" horiz-adv-x="512" 
d="M417 219q0 119 -13 175q8 15 -24 15q-34 0 -88 -17t-88 -34q-81 -39 -90 -76v-272h-67q-13 34 -13 191q0 140 5.5 206t8.5 75q26 17 42 17q25 0 25 -59q0 -23 -2.5 -44.5t-2.5 -29.5q162 119 251 119q101 0 115 -163q6 -57 6 -158l-1 -79q0 -44 2 -85q-10 -6 -16 -6
q-3 1 -13 3t-26 3q-10 40 -11 81.5t-1 76.5zM265 605q14 19 30 19q10 0 15 -9.5t4 -18.5t-5 -17t-13 -19q-17 -19 -69 -62l-31 28z" />
    <glyph glyph-name="Ncommaaccent" unicode="&#x145;" horiz-adv-x="642" 
d="M608 353q0 -304 -25 -356l-73 6q-55 95 -185 267q-51 68 -101.5 135t-92.5 133q-20 -89 -20 -356q0 -102 -4 -172q-19 -18 -41.5 -18t-31.5 4.5t-9 15t2.5 33t6 75.5t6.5 112q8 154 8 265.5t-2 183.5q22 20 34 29t27 -0.5t38.5 -41t66.5 -93.5q147 -209 289 -392l19 498
q11 20 22 27.5t29 7.5q35 0 35 -64l-1 -37zM319 -79q6 13 13.5 15t16.5 2t16 -2q22 -6 22 -23q0 -16 -55 -101q-10 -16 -14.5 -23.5t-11.5 -14.5q-23 -25 -46 -25q-6 0 -12 2z" />
    <glyph glyph-name="ncommaaccent" unicode="&#x146;" horiz-adv-x="512" 
d="M417 219q0 119 -13 175q8 15 -24 15q-34 0 -88 -17t-88 -34q-81 -39 -90 -76v-272h-67q-13 34 -13 191q0 140 5.5 206t8.5 75q26 17 42 17q25 0 25 -59q0 -23 -2.5 -44.5t-2.5 -29.5q162 119 251 119q101 0 115 -163q6 -57 6 -158l-1 -79q0 -44 2 -85q-10 -6 -16 -6
q-3 1 -13 3t-26 3q-10 40 -11 81.5t-1 76.5zM253 -79q6 13 13.5 15t16.5 2t16 -2q22 -6 22 -23q0 -16 -55 -101q-10 -16 -14.5 -23.5t-11.5 -14.5q-23 -25 -46 -25q-6 0 -12 2z" />
    <glyph glyph-name="Ncaron" unicode="&#x147;" horiz-adv-x="642" 
d="M608 353q0 -304 -25 -356l-73 6q-55 95 -185 267q-51 68 -101.5 135t-92.5 133q-20 -89 -20 -356q0 -102 -4 -172q-19 -18 -41.5 -18t-31.5 4.5t-9 15t2.5 33t6 75.5t6.5 112q8 154 8 265.5t-2 183.5q22 20 34 29t27 -0.5t38.5 -41t66.5 -93.5q147 -209 289 -392l19 498
q11 20 22 27.5t29 7.5q35 0 35 -64l-1 -37zM209 837q-9 12 -9 25t10 16t25 3q11 -19 27.5 -34t53.5 -35q27 20 37 28.5t15.5 12.5t12 7.5t25.5 14.5q21 10 29 0q4 -5 4 -11.5t-5 -15.5q-29 -37 -47 -49q-23 -16 -64 -37q-51 19 -78 41t-36 34z" />
    <glyph glyph-name="ncaron" unicode="&#x148;" horiz-adv-x="512" 
d="M417 219q0 119 -13 175q8 15 -24 15q-34 0 -88 -17t-88 -34q-81 -39 -90 -76v-272h-67q-13 34 -13 191q0 140 5.5 206t8.5 75q26 17 42 17q25 0 25 -59q0 -23 -2.5 -44.5t-2.5 -29.5q162 119 251 119q101 0 115 -163q6 -57 6 -158l-1 -79q0 -44 2 -85q-10 -6 -16 -6
q-3 1 -13 3t-26 3q-10 40 -11 81.5t-1 76.5zM144 596q-9 12 -9 25t10 16t25 3q11 -19 27.5 -34t53.5 -35q27 20 37 28.5t15.5 12.5t12 7.5t25.5 14.5q21 10 29 0q4 -5 4 -11.5t-5 -15.5q-29 -37 -47 -49q-23 -16 -64 -37q-51 19 -78 41t-36 34z" />
    <glyph glyph-name="napostrophe" unicode="&#x149;" horiz-adv-x="512" 
d="M417 219q0 119 -13 175q8 15 -24 15q-34 0 -88 -17t-88 -34q-81 -39 -90 -76v-272h-67q-13 34 -13 191q0 140 5.5 206t8.5 75q26 17 42 17q25 0 25 -59q0 -23 -2.5 -44.5t-2.5 -29.5q162 119 251 119q101 0 115 -163q6 -57 6 -158l-1 -79q0 -44 2 -85q-10 -6 -16 -6
q-3 1 -13 3t-26 3q-10 40 -11 81.5t-1 76.5zM114 764q6 13 13.5 15t16.5 2t16 -2q22 -6 22 -23q0 -16 -55 -101q-10 -16 -14.5 -23.5t-11.5 -14.5q-23 -25 -46 -25q-6 0 -12 2z" />
    <glyph glyph-name="Omacron" unicode="&#x14c;" horiz-adv-x="686" 
d="M46 168q-24 54 -24 127t23.5 129.5t64.5 97.5q87 85 218 85q137 0 226 -63q100 -72 100 -206q0 -166 -76.5 -245t-238.5 -79q-225 0 -293 154zM104 315q0 -236 238 -236q117 0 190 70q73 69 73 181q0 105 -87 160q-74 48 -187 48q-90 0 -159 -65q-68 -65 -68 -158z
M248 652q-50 0 -50 25q0 14 11.5 19t40 9t72 11.5t91.5 12.5q42 0 53 -23q1 -4 1 -8.5t-4.5 -12t-22.5 -13.5z" />
    <glyph glyph-name="omacron" unicode="&#x14d;" horiz-adv-x="576" 
d="M52 190q0 118 102 190q81 57 195 69h28t59 -13q82 -28 112 -99q12 -28 12 -47.5t-1 -27.5q0 -125 -95 -197q-88 -66 -220 -66q-95 0 -143.5 44t-48.5 147zM121 166q0 -62 33 -84q25 -16 84 -16t104 9t80 31q75 48 75 149q0 60 -32 98q-35 41 -92 41q-39 -7 -78.5 -15
t-74.5 -31q-76 -49 -99 -182zM193 534q-50 0 -50 25q0 14 11.5 19t40 9t72 11.5t91.5 12.5q42 0 53 -23q1 -4 1 -8.5t-4.5 -12t-22.5 -13.5z" />
    <glyph glyph-name="Obreve" unicode="&#x14e;" horiz-adv-x="686" 
d="M46 168q-24 54 -24 127t23.5 129.5t64.5 97.5q87 85 218 85q137 0 226 -63q100 -72 100 -206q0 -166 -76.5 -245t-238.5 -79q-225 0 -293 154zM104 315q0 -236 238 -236q117 0 190 70q73 69 73 181q0 105 -87 160q-74 48 -187 48q-90 0 -159 -65q-68 -65 -68 -158z
M235 729.5q0 21.5 10 24.5t25 3q4 -32 20 -42t25.5 -10t21.5 1.5t30.5 14t26.5 28.5q10 5 17.5 5t12 -5t4.5 -11.5t-6 -15.5q-28 -43 -55 -54t-42 -11q-44 0 -67 25.5t-23 47z" />
    <glyph glyph-name="obreve" unicode="&#x14f;" horiz-adv-x="576" 
d="M52 190q0 118 102 190q81 57 195 69h28t59 -13q82 -28 112 -99q12 -28 12 -47.5t-1 -27.5q0 -125 -95 -197q-88 -66 -220 -66q-95 0 -143.5 44t-48.5 147zM121 166q0 -62 33 -84q25 -16 84 -16t104 9t80 31q75 48 75 149q0 60 -32 98q-35 41 -92 41q-39 -7 -78.5 -15
t-74.5 -31q-76 -49 -99 -182zM187 546.5q0 21.5 10 24.5t25 3q4 -32 20 -42t25.5 -10t21.5 1.5t30.5 14t26.5 28.5q10 5 17.5 5t12 -5t4.5 -11.5t-6 -15.5q-28 -43 -55 -54t-42 -11q-44 0 -67 25.5t-23 47z" />
    <glyph glyph-name="Ohungarumlaut" unicode="&#x150;" horiz-adv-x="686" 
d="M46 168q-24 54 -24 127t23.5 129.5t64.5 97.5q87 85 218 85q137 0 226 -63q100 -72 100 -206q0 -166 -76.5 -245t-238.5 -79q-225 0 -293 154zM104 315q0 -236 238 -236q117 0 190 70q73 69 73 181q0 105 -87 160q-74 48 -187 48q-90 0 -159 -65q-68 -65 -68 -158z
M287 764q12 25 29 25q8 0 14 -7t8 -16q0 -18 -10 -35q-16 -27 -57 -80l-37 22zM432 755q0 -17 -10 -34q-13 -22 -58 -80l-36 22l52 90q12 25 29.5 25t22.5 -23z" />
    <glyph glyph-name="ohungarumlaut" unicode="&#x151;" horiz-adv-x="576" 
d="M52 190q0 118 102 190q81 57 195 69h28t59 -13q82 -28 112 -99q12 -28 12 -47.5t-1 -27.5q0 -125 -95 -197q-88 -66 -220 -66q-95 0 -143.5 44t-48.5 147zM121 166q0 -62 33 -84q25 -16 84 -16t104 9t80 31q75 48 75 149q0 60 -32 98q-35 41 -92 41q-39 -7 -78.5 -15
t-74.5 -31q-76 -49 -99 -182zM242 633q12 25 29 25q8 0 14 -7t8 -16q0 -18 -10 -35q-16 -27 -57 -80l-37 22zM387 624q0 -17 -10 -34q-13 -22 -58 -80l-36 22l52 90q12 25 29.5 25t22.5 -23z" />
    <glyph glyph-name="OE" unicode="&#x152;" horiz-adv-x="1084" 
d="M855 622q85 0 121 -13v-50q-28 -4 -128 -5q-185 -2 -248 -16q-17 -78 -16 -108t2 -46q4 -39 4 -91q61 0 152 11.5t139 17t98 5.5v-54l-382 -48l5 -164q117 0 212 9q175 18 262 18q0 -20 -13 -37t-22.5 -22t-19.5 2q-126 -14 -501 -45v88q-45 -57 -122 -76
q-29 -8 -80.5 -8t-108.5 19.5t-99 58.5q-88 83 -88 231q0 69 24.5 130t67 106.5t99 72.5t121.5 27q116 0 189 -109l1 99q27 -8 109 -8zM123.5 406.5q-19.5 -45.5 -19.5 -98t14.5 -100.5t43.5 -82q60 -72 175 -72t163 94q14 28 21 58l1 196q-27 117 -114 152q-31 12 -73 12
t-84 -22t-75 -57t-52.5 -80.5z" />
    <glyph glyph-name="oe" unicode="&#x153;" horiz-adv-x="935" 
d="M24 169q0 118 102 190q81 57 195 69h13q50 0 83 -23t47 -64q60 98 169 128q33 9 52 9h29.5t42.5 -8q76 -17 113 -62q15 -19 15 -34t-2 -24q-33 -24 -75.5 -32.5t-87 -12t-86.5 -6.5q-93 -7 -123 -53q-13 -19 -13 -40.5t2 -34.5q25 -91 128 -91q57 0 116 20q72 26 149 61
q10 0 17.5 -7.5t7.5 -18.5q-36 -62 -134 -99q-76 -29 -152 -29q-71 0 -119 23.5t-72 59.5q-60 -112 -225 -112q-95 0 -143.5 44t-48.5 147zM398.5 109q14.5 27 16 54t3.5 39v65q0 63 -28 91q-15 15 -45 15q-39 -7 -78.5 -15t-74.5 -30q-76 -50 -99 -183q0 -62 33 -83
q25 -17 82.5 -17t92 4.5t59 18.5t39 41zM777 382q-23 36 -76 36q-38 0 -66 -11q-57 -22 -57 -57z" />
    <glyph glyph-name="Racute" unicode="&#x154;" horiz-adv-x="730" 
d="M118 594q55 53 199 53q90 0 151 -18t91.5 -38t30.5 -44q0 -55 -128 -109q-19 -9 -99.5 -36.5t-108.5 -37.5q-61 -23 -81 -36q0 -5 4 -8.5t19 -12t45 -24t83 -44.5q158 -86 325 -184q8 -6 21 -16.5t13 -23t-8 -17.5t-19 -7.5t-23 -2.5h-20q-20 0 -83.5 43t-110 75
t-94.5 62q-113 73 -179 95v-229q0 -20 -34 -20h-11q-21 0 -31 21q-14 32 -14 118l3 201q0 148 -13 260q24 41 59 -3q8 -10 13 -17zM456 582l-65 1q-226 0 -260 -52q-10 -14 -10 -35.5t2 -37.5q5 -41 23 -59q3 -1 10.5 -1t28 4t55 14.5t73.5 25.5t75 31q113 51 113 83
q0 18 -45 26zM302 795q14 19 30 19q10 0 15 -9.5t4 -18.5t-5 -17t-13 -19q-17 -19 -69 -62l-31 28z" />
    <glyph glyph-name="racute" unicode="&#x155;" horiz-adv-x="565" 
d="M518 365q-42 30 -108 30q-62 0 -115 -23q-100 -42 -137 -108q-16 -30 -16 -64v-33.5t10 -74t10 -94.5q-21 -1 -34 -5t-22 -4t-15.5 8t-14.5 31q-1 6 -4 34t-7.5 68t-10 87.5t-10.5 93.5q-11 100 -17 147q0 24 35 24q21 0 33 -17.5t19 -40t9.5 -44.5t4.5 -31
q132 118 328 118q22 0 46 -1q6 1 15 1t18 -12q11 -14 11 -34q0 -50 -28 -56zM292 605q14 19 30 19q10 0 15 -9.5t4 -18.5t-5 -17t-13 -19q-17 -19 -69 -62l-31 28z" />
    <glyph glyph-name="Rcommaaccent" unicode="&#x156;" horiz-adv-x="730" 
d="M118 594q55 53 199 53q90 0 151 -18t91.5 -38t30.5 -44q0 -55 -128 -109q-19 -9 -99.5 -36.5t-108.5 -37.5q-61 -23 -81 -36q0 -5 4 -8.5t19 -12t45 -24t83 -44.5q158 -86 325 -184q8 -6 21 -16.5t13 -23t-8 -17.5t-19 -7.5t-23 -2.5h-20q-20 0 -83.5 43t-110 75
t-94.5 62q-113 73 -179 95v-229q0 -20 -34 -20h-11q-21 0 -31 21q-14 32 -14 118l3 201q0 148 -13 260q24 41 59 -3q8 -10 13 -17zM456 582l-65 1q-226 0 -260 -52q-10 -14 -10 -35.5t2 -37.5q5 -41 23 -59q3 -1 10.5 -1t28 4t55 14.5t73.5 25.5t75 31q113 51 113 83
q0 18 -45 26zM363 -79q6 13 13.5 15t16.5 2t16 -2q22 -6 22 -23q0 -16 -55 -101q-10 -16 -14.5 -23.5t-11.5 -14.5q-23 -25 -46 -25q-6 0 -12 2z" />
    <glyph glyph-name="rcommaaccent" unicode="&#x157;" horiz-adv-x="565" 
d="M518 365q-42 30 -108 30q-62 0 -115 -23q-100 -42 -137 -108q-16 -30 -16 -64v-33.5t10 -74t10 -94.5q-21 -1 -34 -5t-22 -4t-15.5 8t-14.5 31q-1 6 -4 34t-7.5 68t-10 87.5t-10.5 93.5q-11 100 -17 147q0 24 35 24q21 0 33 -17.5t19 -40t9.5 -44.5t4.5 -31
q132 118 328 118q22 0 46 -1q6 1 15 1t18 -12q11 -14 11 -34q0 -50 -28 -56zM280 -79q6 13 13.5 15t16.5 2t16 -2q22 -6 22 -23q0 -16 -55 -101q-10 -16 -14.5 -23.5t-11.5 -14.5q-23 -25 -46 -25q-6 0 -12 2z" />
    <glyph glyph-name="Rcaron" unicode="&#x158;" horiz-adv-x="730" 
d="M118 594q55 53 199 53q90 0 151 -18t91.5 -38t30.5 -44q0 -55 -128 -109q-19 -9 -99.5 -36.5t-108.5 -37.5q-61 -23 -81 -36q0 -5 4 -8.5t19 -12t45 -24t83 -44.5q158 -86 325 -184q8 -6 21 -16.5t13 -23t-8 -17.5t-19 -7.5t-23 -2.5h-20q-20 0 -83.5 43t-110 75
t-94.5 62q-113 73 -179 95v-229q0 -20 -34 -20h-11q-21 0 -31 21q-14 32 -14 118l3 201q0 148 -13 260q24 41 59 -3q8 -10 13 -17zM456 582l-65 1q-226 0 -260 -52q-10 -14 -10 -35.5t2 -37.5q5 -41 23 -59q3 -1 10.5 -1t28 4t55 14.5t73.5 25.5t75 31q113 51 113 83
q0 18 -45 26zM181 765q-9 12 -9 25t10 16t25 3q11 -19 27.5 -34t53.5 -35q27 20 37 28.5t15.5 12.5t12 7.5t25.5 14.5q21 10 29 0q4 -5 4 -11.5t-5 -15.5q-29 -37 -47 -49q-23 -16 -64 -37q-51 19 -78 41t-36 34z" />
    <glyph glyph-name="rcaron" unicode="&#x159;" horiz-adv-x="565" 
d="M518 365q-42 30 -108 30q-62 0 -115 -23q-100 -42 -137 -108q-16 -30 -16 -64v-33.5t10 -74t10 -94.5q-21 -1 -34 -5t-22 -4t-15.5 8t-14.5 31q-1 6 -4 34t-7.5 68t-10 87.5t-10.5 93.5q-11 100 -17 147q0 24 35 24q21 0 33 -17.5t19 -40t9.5 -44.5t4.5 -31
q132 118 328 118q22 0 46 -1q6 1 15 1t18 -12q11 -14 11 -34q0 -50 -28 -56zM170 589q-9 12 -9 25t10 16t25 3q11 -19 27.5 -34t53.5 -35q27 20 37 28.5t15.5 12.5t12 7.5t25.5 14.5q21 10 29 0q4 -5 4 -11.5t-5 -15.5q-29 -37 -47 -49q-23 -16 -64 -37q-51 19 -78 41
t-36 34z" />
    <glyph glyph-name="Sacute" unicode="&#x15a;" horiz-adv-x="658" 
d="M30.5 120.5q15.5 14.5 24 20t11.5 8.5q5 -91 123 -91q93 0 217 58q88 40 118 82q10 13 10 21.5t-3 13.5l-415 93q-18 4 -35 17q-31 22 -31 40q0 69 98 125q108 61 289 92q41 7 61 8q6 -2 18.5 -3.5t25.5 -4.5q31 -7 26 -26q0 -34 -130 -54q-168 -25 -209.5 -42t-60 -35
t-19.5 -43q0 -5 23 -11t55 -14.5t83 -22.5q124 -34 304 -86q10 -22 10 -41q0 -53 -62 -102q-70 -55 -194 -93q-103 -31 -164 -31q-51 0 -97 18t-69 35t-23 35.5t15.5 33zM339 712q14 19 30 19q10 0 15 -9.5t4 -18.5t-5 -17t-13 -19q-17 -19 -69 -62l-31 28z" />
    <glyph glyph-name="sacute" unicode="&#x15b;" horiz-adv-x="514" 
d="M369 258q110 0 110 -56q0 -42 -61 -98q-91 -83 -245 -133q-7 0 -15.5 14t-13 21.5t-6.5 9.5q115 38 189 92q50 36 50 59t-59 23t-173 -28q-52 2 -90 37q-33 31 -33 62.5t18 58t48 49.5t70 42q98 47 203 47q31 0 60 -6q24 0 28 -21t4 -69q-59 27 -133 27q-92 0 -152 -37
q-62 -36 -64 -94q0 -28 41 -28l73 8q94 20 151 20zM267 605q14 19 30 19q10 0 15 -9.5t4 -18.5t-5 -17t-13 -19q-17 -19 -69 -62l-31 28z" />
    <glyph glyph-name="Scircumflex" unicode="&#x15c;" horiz-adv-x="658" 
d="M30.5 120.5q15.5 14.5 24 20t11.5 8.5q5 -91 123 -91q93 0 217 58q88 40 118 82q10 13 10 21.5t-3 13.5l-415 93q-18 4 -35 17q-31 22 -31 40q0 69 98 125q108 61 289 92q41 7 61 8q6 -2 18.5 -3.5t25.5 -4.5q31 -7 26 -26q0 -34 -130 -54q-168 -25 -209.5 -42t-60 -35
t-19.5 -43q0 -5 23 -11t55 -14.5t83 -22.5q124 -34 304 -86q10 -22 10 -41q0 -53 -62 -102q-70 -55 -194 -93q-103 -31 -164 -31q-51 0 -97 18t-69 35t-23 35.5t15.5 33zM183.5 657q-11.5 5 -11.5 24t10.5 37t29.5 38q42 44 104 73q51 -33 68 -47q28 -25 64 -81
q6 -12 6 -22.5t-4 -16.5q-11 -16 -36 -1q-37 27 -43.5 33t-18.5 19t-43 43q-61 -42 -83 -78q-7 -12 -13 -26q-18 0 -29.5 5z" />
    <glyph glyph-name="scircumflex" unicode="&#x15d;" horiz-adv-x="514" 
d="M369 258q110 0 110 -56q0 -42 -61 -98q-91 -83 -245 -133q-7 0 -15.5 14t-13 21.5t-6.5 9.5q115 38 189 92q50 36 50 59t-59 23t-173 -28q-52 2 -90 37q-33 31 -33 62.5t18 58t48 49.5t70 42q98 47 203 47q31 0 60 -6q24 0 28 -21t4 -69q-59 27 -133 27q-92 0 -152 -37
q-62 -36 -64 -94q0 -28 41 -28l73 8q94 20 151 20zM122.5 515q-11.5 5 -11.5 24t10.5 37t29.5 38q42 44 104 73q51 -33 68 -47q28 -25 64 -81q6 -12 6 -22.5t-4 -16.5q-11 -16 -36 -1q-37 27 -43.5 33t-18.5 19t-43 43q-61 -42 -83 -78q-7 -12 -13 -26q-18 0 -29.5 5z" />
    <glyph glyph-name="Scedilla" unicode="&#x15e;" horiz-adv-x="658" 
d="M30.5 120.5q15.5 14.5 24 20t11.5 8.5q5 -91 123 -91q93 0 217 58q88 40 118 82q10 13 10 21.5t-3 13.5l-415 93q-18 4 -35 17q-31 22 -31 40q0 69 98 125q108 61 289 92q41 7 61 8q6 -2 18.5 -3.5t25.5 -4.5q31 -7 26 -26q0 -34 -130 -54q-168 -25 -209.5 -42t-60 -35
t-19.5 -43q0 -5 23 -11t55 -14.5t83 -22.5q124 -34 304 -86q10 -22 10 -41q0 -53 -62 -102q-70 -55 -194 -93q-103 -31 -164 -31q-51 0 -97 18t-69 35t-23 35.5t15.5 33zM245 8q0 20 12 20t21 -13.5t5 -16.5q0 -27 1 -48t19 -21q22 2 47.5 2t52.5 -10q40 -16 40 -53
q0 -40 -47 -72q-41 -29 -94 -29q-27 0 -58 10q-3 0 -3 5t0.5 12t1 13.5t-1.5 8.5q11 -1 27 -1t42 4.5t50 14t36 20.5q26 24 -30 32q-12 2 -33 2t-53 -3q-34 0 -34 108q-1 9 -1 15z" />
    <glyph glyph-name="scedilla" unicode="&#x15f;" horiz-adv-x="514" 
d="M369 258q110 0 110 -56q0 -42 -61 -98q-91 -83 -245 -133q-7 0 -15.5 14t-13 21.5t-6.5 9.5q115 38 189 92q50 36 50 59t-59 23t-173 -28q-52 2 -90 37q-33 31 -33 62.5t18 58t48 49.5t70 42q98 47 203 47q31 0 60 -6q24 0 28 -21t4 -69q-59 27 -133 27q-92 0 -152 -37
q-62 -36 -64 -94q0 -28 41 -28l73 8q94 20 151 20zM229 11q0 20 12 20t21 -13.5t5 -16.5q0 -27 1 -48t19 -21q22 2 47.5 2t52.5 -10q40 -16 40 -53q0 -40 -47 -72q-41 -29 -94 -29q-27 0 -58 10q-3 0 -3 5t0.5 12t1 13.5t-1.5 8.5q11 -1 27 -1t42 4.5t50 14t36 20.5
q26 24 -30 32q-12 2 -33 2t-53 -3q-34 0 -34 108q-1 9 -1 15z" />
    <glyph glyph-name="Scaron" unicode="&#x160;" horiz-adv-x="658" 
d="M30.5 120.5q15.5 14.5 24 20t11.5 8.5q5 -91 123 -91q93 0 217 58q88 40 118 82q10 13 10 21.5t-3 13.5l-415 93q-18 4 -35 17q-31 22 -31 40q0 69 98 125q108 61 289 92q41 7 61 8q6 -2 18.5 -3.5t25.5 -4.5q31 -7 26 -26q0 -34 -130 -54q-168 -25 -209.5 -42t-60 -35
t-19.5 -43q0 -5 23 -11t55 -14.5t83 -22.5q124 -34 304 -86q10 -22 10 -41q0 -53 -62 -102q-70 -55 -194 -93q-103 -31 -164 -31q-51 0 -97 18t-69 35t-23 35.5t15.5 33zM190 685q-9 12 -9 25t10 16t25 3q11 -19 27.5 -34t53.5 -35q27 20 37 28.5t15.5 12.5t12 7.5
t25.5 14.5q21 10 29 0q4 -5 4 -11.5t-5 -15.5q-29 -37 -47 -49q-23 -16 -64 -37q-51 19 -78 41t-36 34z" />
    <glyph glyph-name="scaron" unicode="&#x161;" horiz-adv-x="514" 
d="M369 258q110 0 110 -56q0 -42 -61 -98q-91 -83 -245 -133q-7 0 -15.5 14t-13 21.5t-6.5 9.5q115 38 189 92q50 36 50 59t-59 23t-173 -28q-52 2 -90 37q-33 31 -33 62.5t18 58t48 49.5t70 42q98 47 203 47q31 0 60 -6q24 0 28 -21t4 -69q-59 27 -133 27q-92 0 -152 -37
q-62 -36 -64 -94q0 -28 41 -28l73 8q94 20 151 20zM142 551q-9 12 -9 25t10 16t25 3q11 -19 27.5 -34t53.5 -35q27 20 37 28.5t15.5 12.5t12 7.5t25.5 14.5q21 10 29 0q4 -5 4 -11.5t-5 -15.5q-29 -37 -47 -49q-23 -16 -64 -37q-51 19 -78 41t-36 34z" />
    <glyph glyph-name="Tcommaaccent" unicode="&#x162;" horiz-adv-x="638" 
d="M490 491l-89 2q-35 0 -81 -7q-2 -39 -8 -101q-21 -220 -21 -285.5t2 -92.5l-94 -7l31 494l-213 12q-8 0 -12.5 13t-4.5 24t9 24t21 13q73 -3 147 -10q137 -12 233 -12l62 2q73 2 145 16q16 -3 20 -50q1 -10 1 -16q-66 -19 -148 -19zM220 -54q6 13 13.5 15t16.5 2t16 -2
q22 -6 22 -23q0 -16 -55 -101q-10 -16 -14.5 -23.5t-11.5 -14.5q-23 -25 -46 -25q-6 0 -12 2z" />
    <glyph glyph-name="tcommaaccent" unicode="&#x163;" horiz-adv-x="414" 
d="M178 96l2 160q0 38 -7 65h-155l-2 69h150v258q3 9 12 18q14 14 23.5 14t16.5 -2t15 -14q16 -66 16 -199q0 -33 3 -65q32 4 64 4h52q19 0 35 2l-3 -72l-146 4l5 -345q-18 -8 -31 -8q-50 0 -50 111zM204 -79q6 13 13.5 15t16.5 2t16 -2q22 -6 22 -23q0 -16 -55 -101
q-10 -16 -14.5 -23.5t-11.5 -14.5q-23 -25 -46 -25q-6 0 -12 2z" />
    <glyph glyph-name="Tcaron" unicode="&#x164;" horiz-adv-x="638" 
d="M490 491l-89 2q-35 0 -81 -7q-2 -39 -8 -101q-21 -220 -21 -285.5t2 -92.5l-94 -7l31 494l-213 12q-8 0 -12.5 13t-4.5 24t9 24t21 13q73 -3 147 -10q137 -12 233 -12l62 2q73 2 145 16q16 -3 20 -50q1 -10 1 -16q-66 -19 -148 -19zM178 699q-9 12 -9 25t10 16t25 3
q11 -19 27.5 -34t53.5 -35q27 20 37 28.5t15.5 12.5t12 7.5t25.5 14.5q21 10 29 0q4 -5 4 -11.5t-5 -15.5q-29 -37 -47 -49q-23 -16 -64 -37q-51 19 -78 41t-36 34z" />
    <glyph glyph-name="Tbar" unicode="&#x166;" horiz-adv-x="638" 
d="M490 491l-89 2q-35 0 -81 -7q-2 -39 -8 -101q-21 -220 -21 -285.5t2 -92.5l-94 -7l31 494l-213 12q-8 0 -12.5 13t-4.5 24t9 24t21 13q73 -3 147 -10q137 -12 233 -12l62 2q73 2 145 16q16 -3 20 -50q1 -10 1 -16q-66 -19 -148 -19zM185 332q-50 0 -50 25q0 14 11.5 19
t40 9t72 11.5t91.5 12.5q42 0 53 -23q1 -4 1 -8.5t-4.5 -12t-22.5 -13.5z" />
    <glyph glyph-name="tbar" unicode="&#x167;" horiz-adv-x="414" 
d="M178 96l2 160q0 38 -7 65h-155l-2 69h150v258q3 9 12 18q14 14 23.5 14t16.5 -2t15 -14q16 -66 16 -199q0 -33 3 -65q32 4 64 4h52q19 0 35 2l-3 -72l-146 4l5 -345q-18 -8 -31 -8q-50 0 -50 111zM65.5381 113.574q-75.9609 0 -75.9609 30.4102
q0 17.0303 17.4707 23.1123t60.7695 10.9482q43.2979 4.86523 109.384 13.9893q66.0859 9.12305 139.009 15.2051q63.8076 0 80.5195 -27.9775q1.51953 -4.86621 1.51953 -10.3398q0 -5.47461 -6.83691 -14.5977t-34.1826 -16.4219z" />
    <glyph glyph-name="Utilde" unicode="&#x168;" horiz-adv-x="575" 
d="M526 16q0 -18 -31 -18q-15 0 -27.5 4.5t-15.5 7.5l10 128q-92 -79 -134 -99q-66 -33 -135 -33q-13 0 -27 1q-146 16 -146 187q0 78 40 265q13 58 17 106q3 1 13 1h12q5 1 9 1q32 0 32 -48q0 -33 -13 -82q-40 -161 -40 -223q0 -65 34 -102q22 -24 69 -29h12q163 0 214 157
q30 92 35 222q3 60 5 119q11 30 30 30t42 -17q3 -58 3 -114l-10 -382q0 -41 2 -82zM214 716q-32 0 -86 -81q-6 0 -19.5 4t-16.5 17q15 48 45 85t63 50q8 3 18 3t24.5 -10.5t32.5 -29.5t37 -36t40.5 -17t34 7t23 20t23 32t35.5 43q6 0 12.5 -10.5t7 -18t0.5 -18.5t-7.5 -29
t-24.5 -36q-44 -47 -106 -47q-46 0 -74 31q-20 18 -34 29.5t-28 11.5z" />
    <glyph glyph-name="utilde" unicode="&#x169;" horiz-adv-x="520" 
d="M22 133q0 16 -2.5 44.5t-4.5 62.5t-2 69t6 64q13 65 54 65q28 -8 37.5 -20t9.5 -29.5t-9 -43.5q-33 -87 -33 -157q0 -23 3 -49q16 -67 110 -67q49 0 93 17q84 31 114 73q9 46 9 80.5t-2.5 61.5t-6 59.5t-4.5 71.5q13 6 25.5 6t26 -13t23 -49t12.5 -84.5t3.5 -100.5
t0.5 -100.5t4 -83.5q-12 -11 -23 -11q-40 0 -59 80q-13 -11 -44 -27q-66 -36 -156 -48q-17 -2 -38 -2t-52.5 8t-59.5 37t-35 86zM176 567q-32 0 -86 -81q-6 0 -19.5 4t-16.5 17q15 48 45 85t63 50q8 3 18 3t24.5 -10.5t32.5 -29.5t37 -36t40.5 -17t34 7t23 20t23 32t35.5 43
q6 0 12.5 -10.5t7 -18t0.5 -18.5t-7.5 -29t-24.5 -36q-44 -47 -106 -47q-46 0 -74 31q-20 18 -34 29.5t-28 11.5z" />
    <glyph glyph-name="Umacron" unicode="&#x16a;" horiz-adv-x="575" 
d="M526 16q0 -18 -31 -18q-15 0 -27.5 4.5t-15.5 7.5l10 128q-92 -79 -134 -99q-66 -33 -135 -33q-13 0 -27 1q-146 16 -146 187q0 78 40 265q13 58 17 106q3 1 13 1h12q5 1 9 1q32 0 32 -48q0 -33 -13 -82q-40 -161 -40 -223q0 -65 34 -102q22 -24 69 -29h12q163 0 214 157
q30 92 35 222q3 60 5 119q11 30 30 30t42 -17q3 -58 3 -114l-10 -382q0 -41 2 -82zM199 620q-50 0 -50 25q0 14 11.5 19t40 9t72 11.5t91.5 12.5q42 0 53 -23q1 -4 1 -8.5t-4.5 -12t-22.5 -13.5z" />
    <glyph glyph-name="umacron" unicode="&#x16b;" horiz-adv-x="520" 
d="M22 133q0 16 -2.5 44.5t-4.5 62.5t-2 69t6 64q13 65 54 65q28 -8 37.5 -20t9.5 -29.5t-9 -43.5q-33 -87 -33 -157q0 -23 3 -49q16 -67 110 -67q49 0 93 17q84 31 114 73q9 46 9 80.5t-2.5 61.5t-6 59.5t-4.5 71.5q13 6 25.5 6t26 -13t23 -49t12.5 -84.5t3.5 -100.5
t0.5 -100.5t4 -83.5q-12 -11 -23 -11q-40 0 -59 80q-13 -11 -44 -27q-66 -36 -156 -48q-17 -2 -38 -2t-52.5 8t-59.5 37t-35 86zM165 534q-50 0 -50 25q0 14 11.5 19t40 9t72 11.5t91.5 12.5q42 0 53 -23q1 -4 1 -8.5t-4.5 -12t-22.5 -13.5z" />
    <glyph glyph-name="Ubreve" unicode="&#x16c;" horiz-adv-x="575" 
d="M526 16q0 -18 -31 -18q-15 0 -27.5 4.5t-15.5 7.5l10 128q-92 -79 -134 -99q-66 -33 -135 -33q-13 0 -27 1q-146 16 -146 187q0 78 40 265q13 58 17 106q3 1 13 1h12q5 1 9 1q32 0 32 -48q0 -33 -13 -82q-40 -161 -40 -223q0 -65 34 -102q22 -24 69 -29h12q163 0 214 157
q30 92 35 222q3 60 5 119q11 30 30 30t42 -17q3 -58 3 -114l-10 -382q0 -41 2 -82zM182 674.5q0 21.5 10 24.5t25 3q4 -32 20 -42t25.5 -10t21.5 1.5t30.5 14t26.5 28.5q10 5 17.5 5t12 -5t4.5 -11.5t-6 -15.5q-28 -43 -55 -54t-42 -11q-44 0 -67 25.5t-23 47z" />
    <glyph glyph-name="ubreve" unicode="&#x16d;" horiz-adv-x="520" 
d="M22 133q0 16 -2.5 44.5t-4.5 62.5t-2 69t6 64q13 65 54 65q28 -8 37.5 -20t9.5 -29.5t-9 -43.5q-33 -87 -33 -157q0 -23 3 -49q16 -67 110 -67q49 0 93 17q84 31 114 73q9 46 9 80.5t-2.5 61.5t-6 59.5t-4.5 71.5q13 6 25.5 6t26 -13t23 -49t12.5 -84.5t3.5 -100.5
t0.5 -100.5t4 -83.5q-12 -11 -23 -11q-40 0 -59 80q-13 -11 -44 -27q-66 -36 -156 -48q-17 -2 -38 -2t-52.5 8t-59.5 37t-35 86zM159 546.5q0 21.5 10 24.5t25 3q4 -32 20 -42t25.5 -10t21.5 1.5t30.5 14t26.5 28.5q10 5 17.5 5t12 -5t4.5 -11.5t-6 -15.5q-28 -43 -55 -54
t-42 -11q-44 0 -67 25.5t-23 47z" />
    <glyph glyph-name="Uring" unicode="&#x16e;" horiz-adv-x="575" 
d="M526 16q0 -18 -31 -18q-15 0 -27.5 4.5t-15.5 7.5l10 128q-92 -79 -134 -99q-66 -33 -135 -33q-13 0 -27 1q-146 16 -146 187q0 78 40 265q13 58 17 106q3 1 13 1h12q5 1 9 1q32 0 32 -48q0 -33 -13 -82q-40 -161 -40 -223q0 -65 34 -102q22 -24 69 -29h12q163 0 214 157
q30 92 35 222q3 60 5 119q11 30 30 30t42 -17q3 -58 3 -114l-10 -382q0 -41 2 -82zM206 645q-9 15 -9 41.5t12 46.5q20 33 60 33q26 0 49 -12q47 -25 51 -71q0 -50 -21 -66.5t-61 -16.5q-31 0 -51.5 15t-29.5 30zM322 700q-22 23 -49 23q-31 0 -37 -30v-12.5t12 -28.5
q21 -17 38 -17q35 0 42 30v13t-6 22z" />
    <glyph glyph-name="uring" unicode="&#x16f;" horiz-adv-x="520" 
d="M22 133q0 16 -2.5 44.5t-4.5 62.5t-2 69t6 64q13 65 54 65q28 -8 37.5 -20t9.5 -29.5t-9 -43.5q-33 -87 -33 -157q0 -23 3 -49q16 -67 110 -67q49 0 93 17q84 31 114 73q9 46 9 80.5t-2.5 61.5t-6 59.5t-4.5 71.5q13 6 25.5 6t26 -13t23 -49t12.5 -84.5t3.5 -100.5
t0.5 -100.5t4 -83.5q-12 -11 -23 -11q-40 0 -59 80q-13 -11 -44 -27q-66 -36 -156 -48q-17 -2 -38 -2t-52.5 8t-59.5 37t-35 86zM182 466q-9 15 -9 41.5t12 46.5q20 33 60 33q26 0 49 -12q47 -25 51 -71q0 -50 -21 -66.5t-61 -16.5q-31 0 -51.5 15t-29.5 30zM298 521
q-22 23 -49 23q-31 0 -37 -30v-12.5t12 -28.5q21 -17 38 -17q35 0 42 30v13t-6 22z" />
    <glyph glyph-name="Uhungarumlaut" unicode="&#x170;" horiz-adv-x="575" 
d="M526 16q0 -18 -31 -18q-15 0 -27.5 4.5t-15.5 7.5l10 128q-92 -79 -134 -99q-66 -33 -135 -33q-13 0 -27 1q-146 16 -146 187q0 78 40 265q13 58 17 106q3 1 13 1h12q5 1 9 1q32 0 32 -48q0 -33 -13 -82q-40 -161 -40 -223q0 -65 34 -102q22 -24 69 -29h12q163 0 214 157
q30 92 35 222q3 60 5 119q11 30 30 30t42 -17q3 -58 3 -114l-10 -382q0 -41 2 -82zM266 760q12 25 29 25q8 0 14 -7t8 -16q0 -18 -10 -35q-16 -27 -57 -80l-37 22zM411 751q0 -17 -10 -34q-13 -22 -58 -80l-36 22l52 90q12 25 29.5 25t22.5 -23z" />
    <glyph glyph-name="uhungarumlaut" unicode="&#x171;" horiz-adv-x="520" 
d="M22 133q0 16 -2.5 44.5t-4.5 62.5t-2 69t6 64q13 65 54 65q28 -8 37.5 -20t9.5 -29.5t-9 -43.5q-33 -87 -33 -157q0 -23 3 -49q16 -67 110 -67q49 0 93 17q84 31 114 73q9 46 9 80.5t-2.5 61.5t-6 59.5t-4.5 71.5q13 6 25.5 6t26 -13t23 -49t12.5 -84.5t3.5 -100.5
t0.5 -100.5t4 -83.5q-12 -11 -23 -11q-40 0 -59 80q-13 -11 -44 -27q-66 -36 -156 -48q-17 -2 -38 -2t-52.5 8t-59.5 37t-35 86zM214 633q12 25 29 25q8 0 14 -7t8 -16q0 -18 -10 -35q-16 -27 -57 -80l-37 22zM359 624q0 -17 -10 -34q-13 -22 -58 -80l-36 22l52 90
q12 25 29.5 25t22.5 -23z" />
    <glyph glyph-name="Uogonek" unicode="&#x172;" horiz-adv-x="575" 
d="M526 16q0 -18 -31 -18q-15 0 -27.5 4.5t-15.5 7.5l10 128q-92 -79 -134 -99q-66 -33 -135 -33q-13 0 -27 1q-146 16 -146 187q0 78 40 265q13 58 17 106q3 1 13 1h12q5 1 9 1q32 0 32 -48q0 -33 -13 -82q-40 -161 -40 -223q0 -65 34 -102q22 -24 69 -29h12q163 0 214 157
q30 92 35 222q3 60 5 119q11 30 30 30t42 -17q3 -58 3 -114l-10 -382q0 -41 2 -82zM537 -148q-25 -12 -41 -12q-46 0 -73 24q-55 45 -55 105q0 30 16.5 54.5t52.5 35.5l71 -25h-5q-32 0 -52 -13q-30 -20 -30 -51q0 -32 21 -50q27 -23 53.5 -23t52.5 11z" />
    <glyph glyph-name="uogonek" unicode="&#x173;" horiz-adv-x="520" 
d="M22 133q0 16 -2.5 44.5t-4.5 62.5t-2 69t6 64q13 65 54 65q28 -8 37.5 -20t9.5 -29.5t-9 -43.5q-33 -87 -33 -157q0 -23 3 -49q16 -67 110 -67q49 0 93 17q84 31 114 73q9 46 9 80.5t-2.5 61.5t-6 59.5t-4.5 71.5q13 6 25.5 6t26 -13t23 -49t12.5 -84.5t3.5 -100.5
t0.5 -100.5t4 -83.5q-12 -11 -23 -11q-40 0 -59 80q-13 -11 -44 -27q-66 -36 -156 -48q-17 -2 -38 -2t-52.5 8t-59.5 37t-35 86zM514 -145q-25 -12 -41 -12q-46 0 -73 24q-55 45 -55 105q0 30 16.5 54.5t52.5 35.5l71 -25h-5q-32 0 -52 -13q-30 -20 -30 -51q0 -32 21 -50
q27 -23 53.5 -23t52.5 11z" />
    <glyph glyph-name="Wcircumflex" unicode="&#x174;" horiz-adv-x="963" 
d="M763 166q50 162 116 592q63 0 66 -39q1 -12 1.5 -17t-3.5 -34.5t-11.5 -82.5t-18.5 -123t-25 -146q-34 -179 -70 -302q-36 -25 -56 -8q-9 9 -16 24.5t-16 35.5q-13 17 -48 90t-56.5 116t-41.5 80q-46 83 -77 97q-36 -56 -128 -307q-16 -44 -29 -81.5t-22 -60.5l-62 3
l-250 578q-2 5 -2 10t3.5 10t12.5 9q17 6 34 6t24.5 -6.5t12 -16.5t7.5 -22t11.5 -31t25 -56t35.5 -78t38 -81.5t36 -74.5q36 -75 45 -84q116 286 143 339.5t34 65.5q11 17 17 17q43 0 145 -192q28 -51 52 -98q59 -114 73 -132zM347.5 708q-11.5 5 -11.5 24t10.5 37t29.5 38
q42 44 104 73q51 -33 68 -47q28 -25 64 -81q6 -12 6 -22.5t-4 -16.5q-11 -16 -36 -1q-37 27 -43.5 33t-18.5 19t-43 43q-61 -42 -83 -78q-7 -12 -13 -26q-18 0 -29.5 5z" />
    <glyph glyph-name="wcircumflex" unicode="&#x175;" horiz-adv-x="828" 
d="M407 276q-22 -73 -36.5 -135t-28.5 -103q-22 -59 -50 -59q-15 0 -34 14q-46 49 -130 217q-82 164 -82 205q0 18 11 22.5t25 0.5q34 -10 48 -31q7 -10 17 -35l25 -62q42 -105 83 -192q22 34 42 88l31 86q40 113 72 115q25 16 150 -177q53 -82 66 -98q9 0 21.5 60t22 101.5
t23.5 77.5q33 84 76 84q14 0 19.5 -9.5t5.5 -15.5v-9q-12 -34 -25 -77.5t-27.5 -89t-29 -90t-28.5 -80.5q-33 -78 -55 -84q-17 -8 -55 39q-17 22 -36 52t-40 62q-51 80 -81 123zM279.5 515q-11.5 5 -11.5 24t10.5 37t29.5 38q42 44 104 73q51 -33 68 -47q28 -25 64 -81
q6 -12 6 -22.5t-4 -16.5q-11 -16 -36 -1q-37 27 -43.5 33t-18.5 19t-43 43q-61 -42 -83 -78q-7 -12 -13 -26q-18 0 -29.5 5z" />
    <glyph glyph-name="Ycircumflex" unicode="&#x176;" horiz-adv-x="547" 
d="M278 -18q-16 0 -34 10q-35 21 -28 37q12 21 31 84l27 90q14 43 28 95l-267 272q-7 9 -7 16t8 11q13 6 31.5 6t38 -6t48.5 -30q57 -48 187 -203q59 172 85 221.5t41.5 64t28 15.5t21.5 -1t13 -14q-31 -66 -59.5 -149.5t-58.5 -172.5q-79 -236 -134 -346zM139.5 681
q-11.5 5 -11.5 24t10.5 37t29.5 38q42 44 104 73q51 -33 68 -47q28 -25 64 -81q6 -12 6 -22.5t-4 -16.5q-11 -16 -36 -1q-37 27 -43.5 33t-18.5 19t-43 43q-61 -42 -83 -78q-7 -12 -13 -26q-18 0 -29.5 5z" />
    <glyph glyph-name="ycircumflex" unicode="&#x177;" horiz-adv-x="562" 
d="M238 -377q-21 -47 -50 -47q-14 0 -20.5 12.5t-0.5 29.5q22 93 63.5 212t55.5 160q-35 35 -110 140q-154 216 -154 237q0 1 1 2l38 38q79 -73 206 -248q32 -44 51 -74q21 42 33 72.5t19.5 49t20.5 49.5q34 83 94 211q9 4 19 4q25 0 36 -13q4 -5 4 -11.5t-2 -12.5z
M146.5 515q-11.5 5 -11.5 24t10.5 37t29.5 38q42 44 104 73q51 -33 68 -47q28 -25 64 -81q6 -12 6 -22.5t-4 -16.5q-11 -16 -36 -1q-37 27 -43.5 33t-18.5 19t-43 43q-61 -42 -83 -78q-7 -12 -13 -26q-18 0 -29.5 5z" />
    <glyph glyph-name="Ydieresis" unicode="&#x178;" horiz-adv-x="547" 
d="M278 -18q-16 0 -34 10q-35 21 -28 37q12 21 31 84l27 90q14 43 28 95l-267 272q-7 9 -7 16t8 11q13 6 31.5 6t38 -6t48.5 -30q57 -48 187 -203q59 172 85 221.5t41.5 64t28 15.5t21.5 -1t13 -14q-31 -66 -59.5 -149.5t-58.5 -172.5q-79 -236 -134 -346zM178 635
q-24 0 -24 34q0 12 50 33q21 0 28.5 -9t7.5 -23t-6 -20.5t-15 -9.5q-12 -5 -41 -5zM322 635q-24 0 -24 34q0 13 51 33q36 0 36 -34q0 -31 -42 -32q-11 -1 -21 -1z" />
    <glyph glyph-name="Zacute" unicode="&#x179;" horiz-adv-x="803" 
d="M770 16q-247 -19 -454 -19q-288 0 -288 37q0 8 10 16l432 482q-40 2 -65.5 2t-57.5 -0.5t-82 -4.5q-147 -12 -203 -15q-15 0 -18.5 9t-5.5 42q223 24 509 34q14 0 27 -4t13 -21q-28 -78 -193 -254q-194 -206 -225 -247q55 -11 129 -11t150 4.5t158 11.5t156 12zM384 760
q14 19 30 19q10 0 15 -9.5t4 -18.5t-5 -17t-13 -19q-17 -19 -69 -62l-31 28z" />
    <glyph glyph-name="zacute" unicode="&#x17a;" horiz-adv-x="507" 
d="M138 -4q-100 0 -100 44q0 28 44 73t77 73.5t63 55.5q71 65 116 120h-27t-52.5 -2.5t-72.5 -6.5q-103 -11 -135 -11t-32 14q0 17 19.5 31t28 14t13 1t15.5 2.5t31.5 4t55.5 5.5q69 7 216 19q48 -6 48 -35q0 -37 -70 -108q-62 -62 -132.5 -125t-98.5 -93q39 -3 68 -3l164 7
q38 0 69 -3.5t38 -6.5q16 -9 16 -34q0 -10 -4 -22q-25 3 -52 3t-71 -3t-106 -8q-85 -6 -129 -6zM263 605q14 19 30 19q10 0 15 -9.5t4 -18.5t-5 -17t-13 -19q-17 -19 -69 -62l-31 28z" />
    <glyph glyph-name="Zdotaccent" unicode="&#x17b;" horiz-adv-x="803" 
d="M770 16q-247 -19 -454 -19q-288 0 -288 37q0 8 10 16l432 482q-40 2 -65.5 2t-57.5 -0.5t-82 -4.5q-147 -12 -203 -15q-15 0 -18.5 9t-5.5 42q223 24 509 34q14 0 27 -4t13 -21q-28 -78 -193 -254q-194 -206 -225 -247q55 -11 129 -11t150 4.5t158 11.5t156 12zM279 690
q5 24 17 32.5t19 8.5t16 -1.5t21 -13t14 -27.5q0 -24 -10 -31.5t-23 -7.5t-21 2.5t-15 8.5q-18 12 -18 29z" />
    <glyph glyph-name="zdotaccent" unicode="&#x17c;" horiz-adv-x="507" 
d="M138 -4q-100 0 -100 44q0 28 44 73t77 73.5t63 55.5q71 65 116 120h-27t-52.5 -2.5t-72.5 -6.5q-103 -11 -135 -11t-32 14q0 17 19.5 31t28 14t13 1t15.5 2.5t31.5 4t55.5 5.5q69 7 216 19q48 -6 48 -35q0 -37 -70 -108q-62 -62 -132.5 -125t-98.5 -93q39 -3 68 -3l164 7
q38 0 69 -3.5t38 -6.5q16 -9 16 -34q0 -10 -4 -22q-25 3 -52 3t-71 -3t-106 -8q-85 -6 -129 -6zM210 511q5 24 17 32.5t19 8.5t16 -1.5t21 -13t14 -27.5q0 -24 -10 -31.5t-23 -7.5t-21 2.5t-15 8.5q-18 12 -18 29z" />
    <glyph glyph-name="Zcaron" unicode="&#x17d;" horiz-adv-x="803" 
d="M770 16q-247 -19 -454 -19q-288 0 -288 37q0 8 10 16l432 482q-40 2 -65.5 2t-57.5 -0.5t-82 -4.5q-147 -12 -203 -15q-15 0 -18.5 9t-5.5 42q223 24 509 34q14 0 27 -4t13 -21q-28 -78 -193 -254q-194 -206 -225 -247q55 -11 129 -11t150 4.5t158 11.5t156 12zM225 744
q-9 12 -9 25t10 16t25 3q11 -19 27.5 -34t53.5 -35q27 20 37 28.5t15.5 12.5t12 7.5t25.5 14.5q21 10 29 0q4 -5 4 -11.5t-5 -15.5q-29 -37 -47 -49q-23 -16 -64 -37q-51 19 -78 41t-36 34z" />
    <glyph glyph-name="zcaron" unicode="&#x17e;" horiz-adv-x="507" 
d="M138 -4q-100 0 -100 44q0 28 44 73t77 73.5t63 55.5q71 65 116 120h-27t-52.5 -2.5t-72.5 -6.5q-103 -11 -135 -11t-32 14q0 17 19.5 31t28 14t13 1t15.5 2.5t31.5 4t55.5 5.5q69 7 216 19q48 -6 48 -35q0 -37 -70 -108q-62 -62 -132.5 -125t-98.5 -93q39 -3 68 -3l164 7
q38 0 69 -3.5t38 -6.5q16 -9 16 -34q0 -10 -4 -22q-25 3 -52 3t-71 -3t-106 -8q-85 -6 -129 -6zM138 530q-9 12 -9 25t10 16t25 3q11 -19 27.5 -34t53.5 -35q27 20 37 28.5t15.5 12.5t12 7.5t25.5 14.5q21 10 29 0q4 -5 4 -11.5t-5 -15.5q-29 -37 -47 -49q-23 -16 -64 -37
q-51 19 -78 41t-36 34z" />
    <glyph glyph-name="florin" unicode="&#x192;" horiz-adv-x="608" 
d="M601 334q5 0 5 -27t2 -37l-343 -42l21 -625l-220 -21l2 85l144 3q0 89 -7 212t-10 178q-7 120 -13 156l-130 -50q-13 0 -22 15q-16 26 -16 47l152 54q-20 172 -20 279.5t18 167.5t52.5 80.5t73.5 20.5t79.5 -17t77.5 -43t63 -58.5t26 -63.5q0 -24 -5 -34q-40 56 -97 100
q-68 52 -128 52q-57 0 -76 -81q-9 -42 -9 -118.5t4 -140t24 -127.5q62 0 139 11q148 23 213 24z" />
    <glyph glyph-name="AEacute" unicode="&#x1fc;" horiz-adv-x="898" 
d="M730 553l-139 3q-69 0 -115 -10q-19 -88 -17 -113t3 -41q3 -50 3 -92q72 0 133 8q120 16 184 16v-54l-309 -38l5 -164q115 0 186 6q129 11 215 11q4 -2 4 -9t-7 -16q-19 -25 -52 -32q-111 -12 -221 -19t-207 -15v3q-32 5 -34 7l-25 242l-176 -26q-4 -15 -10.5 -41.5
t-15.5 -55.5q-22 -71 -49 -105q-6 -8 -24 -1.5t-25.5 11.5t-7.5 18t10 51.5t28 90t40.5 109t45.5 111.5q54 127 81 169q21 46 45 69q29 28 52 28q46 0 69 -42q32 -8 84 -9t108 -1q145 0 187 -16v-50q-22 -3 -49 -3zM345 349l4 127q0 56 -8 104q-125 -183 -149 -284
q44 0 72 6q53 12 84 13q-3 14 -3 34zM398.484 711.527q11.8379 15.0283 25.3672 15.0283q8.45605 0 12.6846 -7.51367q4.22754 -7.51465 3.38184 -14.6328q-0.845703 -7.11914 -4.22754 -13.4463q-3.38281 -6.32812 -10.9932 -15.0283q-14.375 -15.0283 -58.3447 -49.0391
l-26.2129 22.1465z" />
    <glyph glyph-name="aeacute" unicode="&#x1fd;" horiz-adv-x="946" 
d="M420 166q-75 -118 -200 -146q-29 -6 -52.5 -6t-39 0.5t-34.5 4.5t-35 13q-37 21 -37 59q-4 18 -4 40.5t10 59.5t36.5 80t64.5 79q79 76 171 98q27 6 49.5 6t40.5 -3q58 0 78 -79q13 -50 15.5 -139.5t5 -138t12.5 -88.5h-59q-4 27 -6 48t-4 39q-5 42 -12 73zM416 321
q0 58 -57 58q-7 1 -14 1q-73 0 -154 -70q-38 -32 -65 -72q-40 -57 -40 -102q0 -59 68 -70q90 2 172 82q35 35 58 76q32 55 32 97zM649 54q88 0 265 80q11 0 18 -7.5t7 -17.5q-40 -68 -153 -106t-211 -13q-111 29 -135 125q-2 19 -2 51t16.5 84.5t56.5 99.5t94 74t115 27
q58 0 130 -40q34 -19 54 -43t20 -49q0 -7 -1 -14q-2 -61 -59 -77q-25 -7 -58 -7l-144 6q-72 0 -110 -31q-22 -17 -31 -51q25 -91 128 -91zM781 386q-24 7 -40 7t-52 -10.5t-64 -23.5q-69 -32 -69 -67q80 -7 120 -7q111 0 150 19q24 10 24 25q0 18 -22.5 34t-46.5 23z
M482 605q14 19 30 19q10 0 15 -9.5t4 -18.5t-5 -17t-13 -19q-17 -19 -69 -62l-31 28z" />
    <glyph glyph-name="Oslashacute" unicode="&#x1fe;" horiz-adv-x="686" 
d="M46 168q-24 54 -24 127t23.5 129.5t64.5 97.5q87 85 218 85q137 0 226 -63q100 -72 100 -206q0 -166 -76.5 -245t-238.5 -79q-225 0 -293 154zM104 315q0 -236 238 -236q117 0 190 70q73 69 73 181q0 105 -87 160q-74 48 -187 48q-90 0 -159 -65q-68 -65 -68 -158zM132 0
q-18 0 -18 32v10q15 44 395 614q19 29 22 33q5 -3 5 -14t-12 -46t-43.5 -101t-76 -144.5t-92.5 -153.5q-111 -172 -180 -230zM332 760q14 19 30 19q10 0 15 -9.5t4 -18.5t-5 -17t-13 -19q-17 -19 -69 -62l-31 28z" />
    <glyph glyph-name="oslashacute" unicode="&#x1ff;" horiz-adv-x="576" 
d="M52 190q0 118 102 190q81 57 195 69h28t59 -13q82 -28 112 -99q12 -28 12 -47.5t-1 -27.5q0 -125 -95 -197q-88 -66 -220 -66q-95 0 -143.5 44t-48.5 147zM121 166q0 -62 33 -84q25 -16 84 -16t104 9t80 31q75 48 75 149q0 60 -32 98q-35 41 -92 41q-39 -7 -78.5 -15
t-74.5 -31q-76 -49 -99 -182zM127.33 -46q-15.3828 0 -15.3828 25.6797v8.02539q12.8184 35.3086 337.572 492.729q16.2373 23.2725 18.8018 26.4824q4.27246 -2.4082 4.27246 -11.2354t-10.2549 -36.9141q-10.2559 -28.0869 -37.1758 -81.0518
q-26.9209 -52.9648 -64.9512 -115.96t-79.0518 -123.183q-94.8613 -138.027 -153.83 -184.572zM297 605q14 19 30 19q10 0 15 -9.5t4 -18.5t-5 -17t-13 -19q-17 -19 -69 -62l-31 28z" />
    <glyph glyph-name="Scommaaccent" unicode="&#x218;" horiz-adv-x="658" 
d="M30.5 120.5q15.5 14.5 24 20t11.5 8.5q5 -91 123 -91q93 0 217 58q88 40 118 82q10 13 10 21.5t-3 13.5l-415 93q-18 4 -35 17q-31 22 -31 40q0 69 98 125q108 61 289 92q41 7 61 8q6 -2 18.5 -3.5t25.5 -4.5q31 -7 26 -26q0 -34 -130 -54q-168 -25 -209.5 -42t-60 -35
t-19.5 -43q0 -5 23 -11t55 -14.5t83 -22.5q124 -34 304 -86q10 -22 10 -41q0 -53 -62 -102q-70 -55 -194 -93q-103 -31 -164 -31q-51 0 -97 18t-69 35t-23 35.5t15.5 33zM363 -79q6 13 13.5 15t16.5 2t16 -2q22 -6 22 -23q0 -16 -55 -101q-10 -16 -14.5 -23.5t-11.5 -14.5
q-23 -25 -46 -25q-6 0 -12 2z" />
    <glyph glyph-name="scommaaccent" unicode="&#x219;" horiz-adv-x="514" 
d="M369 258q110 0 110 -56q0 -42 -61 -98q-91 -83 -245 -133q-7 0 -15.5 14t-13 21.5t-6.5 9.5q115 38 189 92q50 36 50 59t-59 23t-173 -28q-52 2 -90 37q-33 31 -33 62.5t18 58t48 49.5t70 42q98 47 203 47q31 0 60 -6q24 0 28 -21t4 -69q-59 27 -133 27q-92 0 -152 -37
q-62 -36 -64 -94q0 -28 41 -28l73 8q94 20 151 20zM255 -79q6 13 13.5 15t16.5 2t16 -2q22 -6 22 -23q0 -16 -55 -101q-10 -16 -14.5 -23.5t-11.5 -14.5q-23 -25 -46 -25q-6 0 -12 2z" />
    <glyph glyph-name="circumflex" unicode="&#x2c6;" horiz-adv-x="314" 
d="M29.5 515q-11.5 5 -11.5 24t10.5 37t29.5 38q42 44 104 73q51 -33 68 -47q28 -25 64 -81q6 -12 6 -22.5t-4 -16.5q-11 -16 -36 -1q-37 27 -43.5 33t-18.5 19t-43 43q-61 -42 -83 -78q-7 -12 -13 -26q-18 0 -29.5 5z" />
    <glyph glyph-name="caron" unicode="&#x2c7;" horiz-adv-x="314" 
d="M40 530q-9 12 -9 25t10 16t25 3q11 -19 27.5 -34t53.5 -35q27 20 37 28.5t15.5 12.5t12 7.5t25.5 14.5q21 10 29 0q4 -5 4 -11.5t-5 -15.5q-29 -37 -47 -49q-23 -16 -64 -37q-51 19 -78 41t-36 34z" />
    <glyph glyph-name="breve" unicode="&#x2d8;" horiz-adv-x="252" 
d="M31 546.5q0 21.5 10 24.5t25 3q4 -32 20 -42t25.5 -10t21.5 1.5t30.5 14t26.5 28.5q10 5 17.5 5t12 -5t4.5 -11.5t-6 -15.5q-28 -43 -55 -54t-42 -11q-44 0 -67 25.5t-23 47z" />
    <glyph glyph-name="dotaccent" unicode="&#x2d9;" horiz-adv-x="144" 
d="M34 511q5 24 17 32.5t19 8.5t16 -1.5t21 -13t14 -27.5q0 -24 -10 -31.5t-23 -7.5t-21 2.5t-15 8.5q-18 12 -18 29z" />
    <glyph glyph-name="ring" unicode="&#x2da;" horiz-adv-x="225" 
d="M40 466q-9 15 -9 41.5t12 46.5q20 33 60 33q26 0 49 -12q47 -25 51 -71q0 -50 -21 -66.5t-61 -16.5q-31 0 -51.5 15t-29.5 30zM156 521q-22 23 -49 23q-31 0 -37 -30v-12.5t12 -28.5q21 -17 38 -17q35 0 42 30v13t-6 22z" />
    <glyph glyph-name="ogonek" unicode="&#x2db;" horiz-adv-x="252" 
d="M207 -173q-25 -12 -41 -12q-46 0 -73 24q-55 45 -55 105q0 30 16.5 54.5t52.5 35.5l71 -25h-5q-32 0 -52 -13q-30 -20 -30 -51q0 -32 21 -50q27 -23 53.5 -23t52.5 11z" />
    <glyph glyph-name="tilde" unicode="&#x2dc;" horiz-adv-x="455" 
d="M148 567q-32 0 -86 -81q-6 0 -19.5 4t-16.5 17q15 48 45 85t63 50q8 3 18 3t24.5 -10.5t32.5 -29.5t37 -36t40.5 -17t34 7t23 20t23 32t35.5 43q6 0 12.5 -10.5t7 -18t0.5 -18.5t-7.5 -29t-24.5 -36q-44 -47 -106 -47q-46 0 -74 31q-20 18 -34 29.5t-28 11.5z" />
    <glyph glyph-name="hungarumlaut" unicode="&#x2dd;" horiz-adv-x="279" 
d="M97 633q12 25 29 25q8 0 14 -7t8 -16q0 -18 -10 -35q-16 -27 -57 -80l-37 22zM242 624q0 -17 -10 -34q-13 -22 -58 -80l-36 22l52 90q12 25 29.5 25t22.5 -23z" />
    <glyph glyph-name="Wgrave" unicode="&#x1e80;" horiz-adv-x="963" 
d="M763 166q50 162 116 592q63 0 66 -39q1 -12 1.5 -17t-3.5 -34.5t-11.5 -82.5t-18.5 -123t-25 -146q-34 -179 -70 -302q-36 -25 -56 -8q-9 9 -16 24.5t-16 35.5q-13 17 -48 90t-56.5 116t-41.5 80q-46 83 -77 97q-36 -56 -128 -307q-16 -44 -29 -81.5t-22 -60.5l-62 3
l-250 578q-2 5 -2 10t3.5 10t12.5 9q17 6 34 6t24.5 -6.5t12 -16.5t7.5 -22t11.5 -31t25 -56t35.5 -78t38 -81.5t36 -74.5q36 -75 45 -84q116 286 143 339.5t34 65.5q11 17 17 17q43 0 145 -192q28 -51 52 -98q59 -114 73 -132zM452 812q0 28 15 28q9 0 22 -14l67 -65
l-17 -43q-66 45 -78 65q-4 8 -6.5 16t-2.5 13z" />
    <glyph glyph-name="wgrave" unicode="&#x1e81;" horiz-adv-x="828" 
d="M407 276q-22 -73 -36.5 -135t-28.5 -103q-22 -59 -50 -59q-15 0 -34 14q-46 49 -130 217q-82 164 -82 205q0 18 11 22.5t25 0.5q34 -10 48 -31q7 -10 17 -35l25 -62q42 -105 83 -192q22 34 42 88l31 86q40 113 72 115q25 16 150 -177q53 -82 66 -98q9 0 21.5 60t22 101.5
t23.5 77.5q33 84 76 84q14 0 19.5 -9.5t5.5 -15.5v-9q-12 -34 -25 -77.5t-27.5 -89t-29 -90t-28.5 -80.5q-33 -78 -55 -84q-17 -8 -55 39q-17 22 -36 52t-40 62q-51 80 -81 123zM364 588q0 28 15 28q9 0 22 -14l67 -65l-17 -43q-66 45 -78 65q-4 8 -6.5 16t-2.5 13z" />
    <glyph glyph-name="Wacute" unicode="&#x1e82;" horiz-adv-x="963" 
d="M763 166q50 162 116 592q63 0 66 -39q1 -12 1.5 -17t-3.5 -34.5t-11.5 -82.5t-18.5 -123t-25 -146q-34 -179 -70 -302q-36 -25 -56 -8q-9 9 -16 24.5t-16 35.5q-13 17 -48 90t-56.5 116t-41.5 80q-46 83 -77 97q-36 -56 -128 -307q-16 -44 -29 -81.5t-22 -60.5l-62 3
l-250 578q-2 5 -2 10t3.5 10t12.5 9q17 6 34 6t24.5 -6.5t12 -16.5t7.5 -22t11.5 -31t25 -56t35.5 -78t38 -81.5t36 -74.5q36 -75 45 -84q116 286 143 339.5t34 65.5q11 17 17 17q43 0 145 -192q28 -51 52 -98q59 -114 73 -132zM494 836q14 19 30 19q10 0 15 -9.5t4 -18.5
t-5 -17t-13 -19q-17 -19 -69 -62l-31 28z" />
    <glyph glyph-name="wacute" unicode="&#x1e83;" horiz-adv-x="828" 
d="M407 276q-22 -73 -36.5 -135t-28.5 -103q-22 -59 -50 -59q-15 0 -34 14q-46 49 -130 217q-82 164 -82 205q0 18 11 22.5t25 0.5q34 -10 48 -31q7 -10 17 -35l25 -62q42 -105 83 -192q22 34 42 88l31 86q40 113 72 115q25 16 150 -177q53 -82 66 -98q9 0 21.5 60t22 101.5
t23.5 77.5q33 84 76 84q14 0 19.5 -9.5t5.5 -15.5v-9q-12 -34 -25 -77.5t-27.5 -89t-29 -90t-28.5 -80.5q-33 -78 -55 -84q-17 -8 -55 39q-17 22 -36 52t-40 62q-51 80 -81 123zM424 605q14 19 30 19q10 0 15 -9.5t4 -18.5t-5 -17t-13 -19q-17 -19 -69 -62l-31 28z" />
    <glyph glyph-name="Wdieresis" unicode="&#x1e84;" horiz-adv-x="963" 
d="M763 166q50 162 116 592q63 0 66 -39q1 -12 1.5 -17t-3.5 -34.5t-11.5 -82.5t-18.5 -123t-25 -146q-34 -179 -70 -302q-36 -25 -56 -8q-9 9 -16 24.5t-16 35.5q-13 17 -48 90t-56.5 116t-41.5 80q-46 83 -77 97q-36 -56 -128 -307q-16 -44 -29 -81.5t-22 -60.5l-62 3
l-250 578q-2 5 -2 10t3.5 10t12.5 9q17 6 34 6t24.5 -6.5t12 -16.5t7.5 -22t11.5 -31t25 -56t35.5 -78t38 -81.5t36 -74.5q36 -75 45 -84q116 286 143 339.5t34 65.5q11 17 17 17q43 0 145 -192q28 -51 52 -98q59 -114 73 -132zM383 800q-24 0 -24 34q0 12 50 33
q21 0 28.5 -9t7.5 -23t-6 -20.5t-15 -9.5q-12 -5 -41 -5zM527 800q-24 0 -24 34q0 13 51 33q36 0 36 -34q0 -31 -42 -32q-11 -1 -21 -1z" />
    <glyph glyph-name="wdieresis" unicode="&#x1e85;" horiz-adv-x="828" 
d="M407 276q-22 -73 -36.5 -135t-28.5 -103q-22 -59 -50 -59q-15 0 -34 14q-46 49 -130 217q-82 164 -82 205q0 18 11 22.5t25 0.5q34 -10 48 -31q7 -10 17 -35l25 -62q42 -105 83 -192q22 34 42 88l31 86q40 113 72 115q25 16 150 -177q53 -82 66 -98q9 0 21.5 60t22 101.5
t23.5 77.5q33 84 76 84q14 0 19.5 -9.5t5.5 -15.5v-9q-12 -34 -25 -77.5t-27.5 -89t-29 -90t-28.5 -80.5q-33 -78 -55 -84q-17 -8 -55 39q-17 22 -36 52t-40 62q-51 80 -81 123zM322 597q-24 0 -24 34q0 12 50 33q21 0 28.5 -9t7.5 -23t-6 -20.5t-15 -9.5q-12 -5 -41 -5z
M466 597q-24 0 -24 34q0 13 51 33q36 0 36 -34q0 -31 -42 -32q-11 -1 -21 -1z" />
    <glyph glyph-name="Ygrave" unicode="&#x1ef2;" horiz-adv-x="547" 
d="M278 -18q-16 0 -34 10q-35 21 -28 37q12 21 31 84l27 90q14 43 28 95l-267 272q-7 9 -7 16t8 11q13 6 31.5 6t38 -6t48.5 -30q57 -48 187 -203q59 172 85 221.5t41.5 64t28 15.5t21.5 -1t13 -14q-31 -66 -59.5 -149.5t-58.5 -172.5q-79 -236 -134 -346zM244 788
q0 28 15 28q9 0 22 -14l67 -65l-17 -43q-66 45 -78 65q-4 8 -6.5 16t-2.5 13z" />
    <glyph glyph-name="ygrave" unicode="&#x1ef3;" horiz-adv-x="562" 
d="M238 -377q-21 -47 -50 -47q-14 0 -20.5 12.5t-0.5 29.5q22 93 63.5 212t55.5 160q-35 35 -110 140q-154 216 -154 237q0 1 1 2l38 38q79 -73 206 -248q32 -44 51 -74q21 42 33 72.5t19.5 49t20.5 49.5q34 83 94 211q9 4 19 4q25 0 36 -13q4 -5 4 -11.5t-2 -12.5zM230 588
q0 28 15 28q9 0 22 -14l67 -65l-17 -43q-66 45 -78 65q-4 8 -6.5 16t-2.5 13z" />
    <glyph glyph-name="endash" unicode="&#x2013;" horiz-adv-x="318" 
d="M80 216q-50 0 -50 26q0 13 11.5 18t40 9t72 12t91.5 13q20 0 34 -7q20 -10 20 -24q0 -5 -4.5 -13t-22.5 -14z" />
    <glyph glyph-name="emdash" unicode="&#x2014;" horiz-adv-x="421" 
d="M80 216q-50 0 -50 26q0 13 11.5 18t28.5 7.5t53 6t74.5 7t75 6.5t59.5 6q20 0 34 -7q20 -10 20 -24q0 -5 -4.5 -13t-22.5 -14z" />
    <glyph glyph-name="quoteleft" unicode="&#x2018;" horiz-adv-x="166" 
d="M104 619q24 0 24 -35q0 -41 -34 -108q-10 -20 -19 -34l-48 -4l56 176q12 5 21 5z" />
    <glyph glyph-name="quoteright" unicode="&#x2019;" horiz-adv-x="166" 
d="M104 619q24 0 24 -35q0 -41 -34 -108q-10 -20 -19 -34l-48 -4l56 176q12 5 21 5z" />
    <glyph glyph-name="quotesinglbase" unicode="&#x201a;" horiz-adv-x="166" 
d="M112 191q24 0 24 -35q0 -41 -34 -108q-10 -20 -19 -34l-48 -4l56 176q12 5 21 5z" />
    <glyph glyph-name="quotedblleft" unicode="&#x201c;" horiz-adv-x="242" 
d="M146 594l1 28l-1 41q0 83 36 100l17 -16v-199l16 -34q-3 -3 -15.5 -9.5t-17.5 -6.5q-36 0 -36 96zM54 585l1 29l-1 42q0 83 36 100l16 -16v-199l17 -34q-4 -4 -16 -10.5t-17 -6.5q-36 0 -36 95z" />
    <glyph glyph-name="quotedblright" unicode="&#x201d;" horiz-adv-x="242" 
d="M146 594l1 28l-1 41q0 83 36 100l17 -16v-199l16 -34q-3 -3 -15.5 -9.5t-17.5 -6.5q-36 0 -36 96zM54 585l1 29l-1 42q0 83 36 100l16 -16v-199l17 -34q-4 -4 -16 -10.5t-17 -6.5q-36 0 -36 95z" />
    <glyph glyph-name="quotedblbase" unicode="&#x201e;" horiz-adv-x="287" 
d="M185 127l1 28l-1 40q0 82 36 102l17 -17v-199l16 -34q-3 -4 -15.5 -10t-17.5 -6q-36 0 -36 96zM85 131l1 28l-1 42q0 81 36 100l17 -17v-199l16 -33q-3 -5 -15.5 -11t-17.5 -6q-36 0 -36 96z" />
    <glyph glyph-name="dagger" unicode="&#x2020;" horiz-adv-x="410" 
d="M229 0q0 -2 -25 -2h-36q-12 0 -14 -1l-4 519l-59 -6q-42 0 -61 14q-7 5 -7 16q0 20 47 26q21 2 40.5 4.5t39.5 4.5l-10 281h80l9 -270q8 1 83 8q57 0 71 -24q3 -4 3 -9t-6.5 -13.5t-30.5 -15.5l-120 -10v-522z" />
    <glyph glyph-name="daggerdbl" unicode="&#x2021;" horiz-adv-x="410" 
d="M229 0q0 -2 -25 -2h-36q-12 0 -14 -1l-3 409l-72 -9q-32 4 -42.5 10.5t-9 16t22.5 26.5q4 4 100 13v53l-59 -6q-42 0 -61 14q-7 5 -7 16q0 20 47 26q21 2 40.5 4.5t39.5 4.5l-10 281h80l9 -270q8 1 83 8q57 0 71 -24q6 -10 -2 -20.5t-32 -17.5l-120 -10v-50
q33 4 65.5 7.5t58.5 8.5q16 5 25.5 -0.5t9.5 -15.5q0 -23 -18 -36l-141 -19v-417z" />
    <glyph glyph-name="bullet" unicode="&#x2022;" horiz-adv-x="197" 
d="M33 257q8 37 26.5 50.5t29.5 13.5q33 0 53 -20t23 -46q0 -37 -15 -49t-35 -12t-32.5 4t-23.5 12q-26 21 -26 47z" />
    <glyph glyph-name="ellipsis" unicode="&#x2026;" horiz-adv-x="433" 
d="M22 34q0 8 18 16.5t32 15.5q21 0 28.5 -8.5t7.5 -22.5t-6 -21t-15 -10q-15 -5 -40 -5t-25 35zM166 34q0 8 18 16.5t32 15.5q21 0 28.5 -8.5t7.5 -22.5t-6 -21t-15 -10q-15 -5 -40 -5t-25 35zM334 -1q-24 0 -24 35q0 8 25 20l26 12q36 0 36 -33q0 -34 -63 -34z" />
    <glyph glyph-name="guilsinglleft" unicode="&#x2039;" horiz-adv-x="487" 
d="M84 229q32 25 75 59t87 68q108 85 155 111q13 0 19 -22q3 -9 3 -18t-4 -15l-235 -179q15 -8 43 -20.5t62 -29.5q81 -40 142 -80q-1 -1 -4 -8t-7 -15q-9 -21 -11 -21q-30 19 -86 38.5t-90 33t-63 27.5q-68 34 -86 71z" />
    <glyph glyph-name="guilsinglright" unicode="&#x203a;" horiz-adv-x="483" 
d="M118 48q-45 17 -50 36v7q0 31 71 73q105 61 137 85.5t38 47.5l-264 99l50 49q49 -35 90.5 -49t80 -22.5t76.5 -20t79 -42.5q-26 -31 -65.5 -62.5t-83 -64.5t-86 -67t-73.5 -69z" />
    <glyph glyph-name="fraction" unicode="&#x2044;" horiz-adv-x="466" 
d="M39 0q-18 0 -18 32v10q0 36 199 345q115 177 193 277q20 25 25 25q6 4 10.5 4t4.5 -12t-18.5 -52.5t-47.5 -93.5t-64 -113t-74.5 -122.5t-77.5 -119.5q-79 -119 -132 -180z" />
    <glyph glyph-name="Euro" unicode="&#x20ac;" horiz-adv-x="814" 
d="M59 175q-24 0 -24 35q0 3 6.5 9.5t10.5 6.5q41 7 59 10v14q0 30 4 60l-37 -4q-5 0 -12.5 -0.5t-15.5 0.5q-19 3 -21 17l20 36q2 2 24 4.5t55 6.5q37 128 136 210q102 85 231 85q69 0 91 -19q25 -23 25 -91q-69 39 -135.5 39t-121.5 -28t-94.5 -77.5t-54.5 -110.5
q38 5 76.5 9.5t70.5 9.5q16 5 24.5 0t10 -14.5t-3 -20.5t-13.5 -17l-176 -24q-2 -14 -2 -28t2 -27v-20q22 3 43 5t44 5q50 7 109 19q34 0 34 -34q0 -8 -2 -16q-80 0 -168 -22q-24 -6 -48 -11q23 -65 81.5 -96t134.5 -31q138 12 175 21q66 16 137 61q14 0 28.5 -3.5
t14.5 -22.5q-80 -71 -170 -97t-191 -26q-15 0 -44.5 0.5t-71.5 13t-78 36.5q-74 49 -100 130q-30 -3 -63 -3z" />
    <glyph glyph-name="trademark" unicode="&#x2122;" horiz-adv-x="1239" 
d="M504 491l-95 2q-41 0 -89 -7q-2 -39 -8 -101q-21 -220 -21 -285.5t2 -92.5l-94 -7l31 494l-213 12q-8 0 -12.5 13t-4.5 24t9 24t21 13q60 -3 120 -8q193 -14 255.5 -14t108.5 4q6 27 21 39t50 12t63 -24.5t51 -63t42 -85.5t36 -91.5t32 -81t31 -54.5l200 348q24 22 43 22
q59 0 88 -184q9 -59 21 -165q21 -191 27.5 -220t6.5 -42.5t-9 -26.5t-25 -13t-32 12.5t-19.5 31t-7 48.5t-8 68t-10 79.5t-10.5 78.5l-9 68q-4 30 -6 44q0 21 -1 37.5t-8 20.5t-21 -9.5t-40 -53.5q-53 -81 -162 -294q-14 -25 -38 -11q-28 16 -46 78l-175 371q-12 -3 -17 -3
q-16 -58 -34 -273q-4 -48 -6 -79q-4 -24 -4 -47l4 -71q0 -8 -1 -25t-12.5 -29.5t-28 -12.5t-29.5 0.5t-22 9.5t-6.5 30.5t7.5 61.5t10.5 86t11.5 95.5t12 95.5t11 85.5t9 65.5z" />
    <glyph glyph-name="minus" unicode="&#x2212;" horiz-adv-x="318" 
d="M80 216q-50 0 -50 26q0 13 11.5 18t40 9t72 12t91.5 13q20 0 34 -7q20 -10 20 -24q0 -5 -4.5 -13t-22.5 -14z" />
    <glyph glyph-name="fi" unicode="&#xfb01;" horiz-adv-x="701" 
d="M601 334q5 0 5 -27t2 -37l-343 -42l18 -222l-81 4q0 90 -20 206l-130 -50q-13 0 -22 15q-16 26 -16 47l152 54q-20 172 -20 279.5t18 167.5t52.5 80.5t73.5 20.5t79.5 -17t77.5 -43t63 -58.5t26 -63.5q0 -24 -5 -34q-40 56 -97 100q-68 52 -128 52q-57 0 -76 -81
q-9 -42 -9 -118.5t4 -140t24 -127.5q62 0 139 11q148 23 213 24zM639 441q13 -187 22 -433q-6 -31 -48 -31q-11 0 -22.5 4.5t-14.5 12.5v447h63zM546 577q0 35 41 35q27 0 44 -12q3 -11 3 -21.5t-8 -20.5t-24 -10t-32 7.5t-24 21.5z" />
    <glyph glyph-name="fl" unicode="&#xfb02;" horiz-adv-x="718" 
d="M601 334q5 0 5 -27t2 -37l-343 -42l18 -222l-81 4q0 90 -20 206l-130 -50q-13 0 -22 15q-16 26 -16 47l152 54q-20 172 -20 279.5t18 167.5t52.5 80.5t73.5 20.5t79.5 -17t77.5 -43t63 -58.5t26 -63.5q0 -24 -5 -34q-40 56 -97 100q-68 52 -128 52q-57 0 -76 -81
q-9 -42 -9 -118.5t4 -140t24 -127.5q62 0 139 11q148 23 213 24zM583 498.5q-2 42.5 -2.5 63t-16.5 100.5q9 12 17.5 23t24.5 11q35 0 54 -295q10 -171 10 -342q0 -46 -64 -46l-8 1q0 52 -3 133t-4.5 141t-3.5 114t-4 96.5z" />
    <glyph glyph-name="commaaccent" horiz-adv-x="410" 
d="M194 -79q6 13 13.5 15t16.5 2t16 -2q22 -6 22 -23q0 -16 -55 -101q-10 -16 -14.5 -23.5t-11.5 -14.5q-23 -25 -46 -25q-6 0 -12 2z" />
    <glyph glyph-name="Imacron" 
d="M105 16q0 -17 -24 -17q-18 0 -43 17q-12 27 -12 129t2 168.5t4 122.5q6 122 6 129q29 17 48 17t19 -17v-549zM-13 669q-50 0 -50 25q0 14 11.5 19t40 9t72 11.5t91.5 12.5q42 0 53 -23q1 -4 1 -8.5t-4.5 -12t-22.5 -13.5z" />
  </font>
</defs>
</svg>
