<?xml version="1.0" standalone="no"?>
<!DOCTYPE svg PUBLIC "-//W3C//DTD SVG 1.1//EN" "http://www.w3.org/Graphics/SVG/1.1/DTD/svg11.dtd" >
<svg xmlns="http://www.w3.org/2000/svg" xmlns:xlink="http://www.w3.org/1999/xlink" version="1.1">
<metadata>
Created by FontForge 20161013 at Fri Feb 18 04:08:56 2011
 By ,,,
Copyright (c) 2011 by vernon adams. All rights reserved.
</metadata>
<defs>
<font id="Bevan" horiz-adv-x="1683" >
  <font-face 
    font-family="Bevan"
    font-weight="400"
    font-stretch="normal"
    units-per-em="2048"
    panose-1="2 0 0 0 0 0 0 0 0 0"
    ascent="1638"
    descent="-410"
    x-height="1072"
    cap-height="1623"
    bbox="-156 -923 3755 2385"
    underline-thickness="102"
    underline-position="-409"
    unicode-range="U+0020-FB04"
  />
<missing-glyph horiz-adv-x="456" 
 />
    <glyph glyph-name=".notdef" horiz-adv-x="456" 
 />
    <glyph glyph-name=".null" horiz-adv-x="0" 
 />
    <glyph glyph-name="nonmarkingreturn" horiz-adv-x="682" 
 />
    <glyph glyph-name="space" unicode=" " horiz-adv-x="480" 
 />
    <glyph glyph-name="exclam" unicode="!" horiz-adv-x="802" 
d="M610 558l-421 -2l-82 775v299h587v-299zM399 463q-119 0 -198 -67.5t-79 -182.5q0 -113 77.5 -179t199.5 -66q127 0 207 66t80 179q0 115 -82.5 182.5t-204.5 67.5z" />
    <glyph glyph-name="quotedbl" unicode="&#x22;" horiz-adv-x="1147" 
d="M44 1624h480l-100 -679h-300zM631 1624h480l-100 -679h-300z" />
    <glyph glyph-name="numbersign" unicode="#" horiz-adv-x="1413" 
d="M409 1246l84 377h324l-87 -377h158l84 377h324l-87 -377h140l-63 -299h-145l-83 -362h144l-63 -299h-150l-65 -286h-313l63 286h-164l-65 -286h-313l63 286h-136l63 299h140l80 362h-136l63 299h140zM579 585h162l80 362h-159z" />
    <glyph glyph-name="dollar" unicode="$" horiz-adv-x="1358" 
d="M95 545h247q7 -85 88.5 -166t154.5 -81v288q-66 18 -113 33t-102.5 38t-93.5 47.5t-76 59.5t-60.5 75.5t-36.5 95t-14 118.5q0 207 137.5 327.5t364.5 132.5v191h227v-210q52 -18 144 -60l16 16l27 27h157q2 0 9 -2t8 -2l2.5 -2.5l2.5 -2.5t1 -2v-426l-6 -6l-121 -4
q-1 0 -25.5 -1t-31.5 -1q-11 0 -37 2l-10 10q-23 96 -107 174q-10 11 -20 11q-11 0 -11 -6v-228q82 -22 146.5 -47t127.5 -64.5t105.5 -88.5t69.5 -118.5t29 -154.5q3 -127 -61 -236.5t-175 -175t-242 -71.5v-201h-231v214q-139 28 -251 80l-44 -62h-195v479zM916 399
q5 42 -20 81t-80 47v-220q37 0 68.5 29t31.5 63zM475 1180q0 -44 31.5 -77t82.5 -44v211q-43 2 -78.5 -25.5t-35.5 -64.5z" />
    <glyph glyph-name="percent" unicode="%" horiz-adv-x="2728" 
d="M1675 521q0 158 59 288t173 208.5t262 78.5q243 0 372 -148t129 -393q0 -113 -30 -214t-87 -182t-150 -129t-210 -48q-246 0 -382 145.5t-136 393.5zM2175 755q-56 -3 -80 -62q-16 -42 -16 -153q0 -208 93 -208q22 0 39 8t27 23t17 31.5t9.5 39.5t3.5 40t1 39v27
q1 26 0.5 40.5t-2.5 43.5t-8.5 47.5t-16.5 39t-27 31.5t-40 13zM938 0l341 1623h504l-342 -1623h-503zM56 1078q0 158 59 288t173 208.5t262 78.5q243 0 372 -148t129 -393q0 -113 -30 -214t-87 -182t-150 -129t-210 -48q-246 0 -382 145.5t-136 393.5zM556 1312
q-57 -2 -80 -62q-16 -42 -16 -153q0 -208 93 -208q22 0 39 8t27 23t17 31.5t9.5 39.5t3.5 40t1 39l1 26q0 27 -0.5 41.5t-2.5 43.5t-8.5 47.5t-16.5 39t-27 31.5t-40 13z" />
    <glyph glyph-name="ampersand" unicode="&#x26;" horiz-adv-x="1728" 
d="M1117 0q-49 49 -173 183q-185 -204 -461 -210q-194 2 -321.5 109t-131.5 298q3 154 80.5 258t233.5 171q-116 127 -119 302q0 96 38.5 173.5t104.5 127.5t153 76.5t185 26.5q77 0 152 -23t136 -65.5t98.5 -110t37.5 -147.5q0 -61 -8 -103.5t-31 -80.5t-50 -66t-80 -75
l179 -175l27 24q26 24 53 55.5t27 47.5q0 35 -27 35h-47v295h483v-289q-70 -24 -107 -50.5t-101 -92.5l-170 -176q5 -2 148 -150h230v-368h-539zM487 487q0 -66 44 -109t110 -43q62 0 114 40l-207 214l-7 -5q-6 -4 -15 -13.5t-17.5 -21.5t-15 -28.5t-6.5 -33.5zM678 1175
q0 -30 18 -59.5t37 -47.5t51 -43q48 33 70 59.5t22 67.5q0 51 -26.5 86t-77.5 35q-39 0 -66.5 -29.5t-27.5 -68.5z" />
    <glyph glyph-name="quotesingle" unicode="'" horiz-adv-x="559" 
d="M44 1624h480l-100 -679h-300z" />
    <glyph glyph-name="parenleft" unicode="(" horiz-adv-x="966" 
d="M912 1321q-77 -2 -137 -22.5t-98 -59t-63.5 -83t-38 -105t-17 -113t-4.5 -118.5q0 -78 8.5 -145t32 -135.5t61.5 -116.5t102 -78.5t148 -30.5v-331q-173 0 -315.5 45t-241.5 123t-167.5 184.5t-100 228t-31.5 255.5q0 207 48 359.5t150.5 260t268 161t395.5 53.5v-332z
" />
    <glyph glyph-name="parenright" unicode=")" horiz-adv-x="966" 
d="M54 1653q230 0 395.5 -53.5t268 -161t150.5 -260t48 -359.5q0 -134 -31.5 -255.5t-100 -228t-167.5 -184.5t-241.5 -123t-315.5 -45v331q84 0 148 30.5t102 78.5t61.5 116.5t32 135.5t8.5 145q0 66 -4.5 118.5t-17 113t-38 105t-63.5 83t-98 59t-137 22.5v332z" />
    <glyph glyph-name="asterisk" unicode="*" horiz-adv-x="1347" 
d="M98 1328q35 55 98.5 68t140.5 -32q33 -22 73 -60.5t63 -64t71.5 -83.5t58.5 -70q-5 16 -26 87.5t-30 105.5t-19 88t-10 94q0 84 48 132t113 48t113 -48t48 -132q0 -32 -5 -69t-16 -80.5t-19.5 -73.5t-24 -81.5t-21.5 -70.5q15 17 60 70.5t70 82t64.5 66t72.5 59.5
q77 45 140.5 32t98.5 -68q23 -34 26.5 -75t-18.5 -84t-69 -74q-48 -32 -116.5 -58t-163.5 -54t-124 -38q33 -12 125.5 -39t161.5 -53.5t117 -57.5q47 -31 69 -74t18.5 -84t-26.5 -75q-35 -55 -98.5 -68t-140.5 32q-33 22 -73 60t-63.5 64.5t-71 83t-59.5 70.5
q4 -13 26.5 -87.5t31 -106.5t18.5 -86.5t10 -94.5q0 -84 -48 -132t-113 -48t-113 48t-48 132q0 40 10 93.5t19 89t29.5 104t26.5 88.5q-5 -6 -58 -69.5t-73 -86t-61 -61.5t-74 -61q-77 -45 -140.5 -32t-98.5 68q-23 34 -26.5 75t18.5 84t69 74q48 31 117 57.5t161.5 54
t124.5 38.5q-29 10 -124 38t-163 54t-116 58q-47 31 -69 74t-18.5 84t26.5 75z" />
    <glyph glyph-name="plus" unicode="+" horiz-adv-x="910" 
d="M59 762h272v289h255v-289h265v-245h-265v-279h-255v279h-272v245z" />
    <glyph glyph-name="comma" unicode="," horiz-adv-x="716" 
d="M95 -223q45 0 78 6.5t53.5 22t32.5 31.5t17.5 46t6.5 52.5t1 64.5h-189v366h510q24 -154 24 -277q0 -278 -130 -407.5t-404 -129.5v225z" />
    <glyph glyph-name="hyphen" unicode="-" horiz-adv-x="838" 
d="M742 836v-299h-647v299h647z" />
    <glyph glyph-name="period" unicode="." horiz-adv-x="678" 
d="M335 -27q-119 0 -198 67.5t-79 182.5q0 113 77.5 179t199.5 66q127 0 207 -66t80 -179q0 -115 -82.5 -182.5t-204.5 -67.5z" />
    <glyph glyph-name="slash" unicode="/" horiz-adv-x="954" 
d="M52 0l491 1623h364l-502 -1623h-353z" />
    <glyph glyph-name="zero" unicode="0" horiz-adv-x="1370" 
d="M68 695q0 142 43.5 264.5t122.5 212t195.5 141t256.5 52.5q138 -1 254.5 -52.5t195.5 -141t122.5 -212t43.5 -264.5q0 -216 -66.5 -376t-207 -253t-342.5 -92q-204 -1 -344.5 92t-207 253t-66.5 376zM685 349q44 0 72.5 31t40.5 86t15.5 99.5t3.5 103.5v28q0 27 0.5 55.5
t-2.5 58t-7 56.5t-14 51t-24 42t-35.5 28t-49.5 10q-32 0 -56.5 -13.5t-38 -37t-22.5 -54t-11 -64t-4 -67.5t0 -65v-28q0 -46 1.5 -81t9.5 -83t21 -79.5t39 -54t61 -22.5z" />
    <glyph glyph-name="one" unicode="1" horiz-adv-x="924" 
d="M137 0l-1 325l90 -1v627l-164 -1v258l662 167l6 -1051h96v-324h-689z" />
    <glyph glyph-name="two" unicode="2" horiz-adv-x="1330" 
d="M1260 0v471h-173q0 -45 -17 -74.5t-49.5 -44.5t-67 -21t-82.5 -7h-161q87 65 128 96.5t116 98.5t116 120q106 136 106 289q0 106 -41 192.5t-112.5 143t-165.5 88t-203 35.5q-81 3 -162.5 -13.5t-155.5 -53t-131.5 -88.5t-91.5 -125t-33 -157q-3 -106 34.5 -201
t113.5 -163l226 174q-7 7 -17.5 18.5t-27.5 45.5t-17 65q0 62 35 102t100 40q53 0 93 -47.5t44 -124.5q0 -63 -16.5 -115.5t-52.5 -99.5t-67.5 -78t-88.5 -79q-129 -110 -322 -184v-303h1143z" />
    <glyph glyph-name="three" unicode="3" horiz-adv-x="1274" 
d="M83 424v-346q89 -60 202.5 -78t271.5 -18q300 0 474.5 128t174.5 364q0 140 -103.5 252t-247.5 125q284 234 284 237v264h-1069v-453l194 -1q21 80 36 102q29 41 101 41h220v-10l-342 -291v-158l1 -5q6 -5 20 -5q6 0 47 10t80 10q45 0 86 -8t79 -26t61 -52.5t23 -81.5
q0 -41 -21 -70.5t-55.5 -45.5t-71 -23t-75.5 -7q-189 0 -370 146z" />
    <glyph glyph-name="four" unicode="4" horiz-adv-x="1281" 
d="M1000 288h122v-288h-705v288h127v132l-533 -1v269l551 654l439 -1v-666l227 2v-257h-228v-132zM544 677v234l-189 -233z" />
    <glyph glyph-name="five" unicode="5" horiz-adv-x="1167" 
d="M113 75q46 -45 156 -69t209 -24q102 0 193.5 19t171 61t137 103t90.5 150t33 198q0 184 -137.5 306t-337.5 122q-56 0 -108.5 -4.5t-77.5 -8.5l-25 -4v139h611v297h-916v-794l12 -11q86 64 178 64q59 0 114 -16t96.5 -57t41.5 -100q0 -48 -26 -83t-65.5 -51.5t-74 -23.5
t-63.5 -7q-34 0 -87 16.5t-89 32.5l-36 17v-272z" />
    <glyph glyph-name="six" unicode="6" horiz-adv-x="1355" 
d="M588 1345q-14 -14 -54.5 -53t-65 -63t-68 -69t-72.5 -77.5t-68.5 -81t-65.5 -88.5t-54.5 -90.5t-45.5 -95.5t-28 -95t-11 -98q0 -164 84.5 -291t226.5 -194t316 -67q162 0 303.5 72t228.5 202t88 288q2 211 -127.5 339.5t-345.5 139.5q10 27 82.5 105.5t142.5 147
t70 69.5h-536zM571 550q0 38 1 62t7.5 58t18 54t34.5 35t56 16q30 0 51.5 -19t31 -42t15 -62t6 -57.5t0.5 -50.5q0 -217 -116 -217q-34 0 -56.5 24.5t-32 64t-13 70.5t-3.5 64z" />
    <glyph glyph-name="seven" unicode="7" horiz-adv-x="1232" 
d="M63 878h218q0 85 31 113.5t100 28.5h241l-505 -1020h532l526 1067v270h-1143v-459z" />
    <glyph glyph-name="eight" unicode="8" horiz-adv-x="1322" 
d="M61 375q0 255 261 355q-87 33 -135.5 107t-48.5 173q0 86 36 153t90.5 106.5t127.5 64.5t138 34t132 10q65 -1 130 -10t138 -34t127.5 -64.5t90.5 -106.5t36 -153q0 -99 -48.5 -173t-135.5 -107q261 -100 261 -355q0 -93 -40 -165t-100.5 -114t-144 -69t-159 -36
t-156.5 -9t-156.5 9t-159 36t-144 69t-100.5 114t-40 165zM581 406q0 -166 80 -166t80 166q0 172 -78 172q-82 0 -82 -172zM581 986q0 -162 82 -160q78 -2 78 160q0 28 -2.5 47.5t-9.5 42t-24.5 34t-41.5 12.5q-28 -1 -45.5 -12.5t-24.5 -34t-9.5 -42t-2.5 -47.5z" />
    <glyph glyph-name="nine" unicode="9" horiz-adv-x="1357" 
d="M235 0h537q22 23 70.5 72t84.5 85.5t87 92.5t88 103t77.5 108t66 115t42 116.5t16.5 120.5q0 158 -79.5 285t-219 198.5t-311.5 71.5q-282 0 -461.5 -166t-179.5 -420q0 -196 139 -328.5t346 -132.5q-41 -52 -117 -132t-131 -135zM575 782q0 230 111 230q30 0 51 -26
t29.5 -66.5t12 -71.5t3.5 -58q0 -217 -98 -217q-109 0 -109 209z" />
    <glyph glyph-name="colon" unicode=":" horiz-adv-x="724" 
d="M357 596q-119 0 -198 67.5t-79 182.5q0 113 77.5 179t199.5 66q127 0 207 -66t80 -179q0 -115 -82.5 -182.5t-204.5 -67.5zM357 -18q-119 0 -198 67.5t-79 182.5q0 113 77.5 179t199.5 66q127 0 207 -66t80 -179q0 -115 -82.5 -182.5t-204.5 -67.5z" />
    <glyph glyph-name="semicolon" unicode=";" horiz-adv-x="720" 
d="M105 -448q274 0 404 129.5t130 407.5q0 123 -24 277h-510v-366h189q0 -42 -1 -64.5t-6.5 -52.5t-17.5 -46t-32.5 -31.5t-53.5 -22t-78 -6.5v-225zM372 595q-119 0 -198 67.5t-79 182.5q0 113 77.5 179t199.5 66q127 0 207 -66t80 -179q0 -115 -82.5 -182.5t-204.5 -67.5z
" />
    <glyph glyph-name="less" unicode="&#x3c;" horiz-adv-x="909" 
d="M57 946l715 596v-465l-333 -316l333 -316v-465l-715 596v370z" />
    <glyph glyph-name="equal" unicode="=" horiz-adv-x="844" 
d="M746 392v-223h-647v223h647zM746 761v-223h-647v223h647z" />
    <glyph glyph-name="greater" unicode="&#x3e;" horiz-adv-x="909" 
d="M852 576l-715 -596v465l333 316l-333 316v465l715 -596v-370z" />
    <glyph glyph-name="question" unicode="?" horiz-adv-x="1311" 
d="M359 891q396 179 396 358q0 16 -3.5 34.5t-12 42.5t-29.5 39.5t-51 15.5q-120 0 -130 -162h-472q14 226 183.5 372t426.5 146q169 0 306.5 -60t215.5 -166.5t78 -238.5q0 -68 -19.5 -129t-49.5 -107.5t-77.5 -89.5t-93 -73t-107 -59.5t-108 -48t-107.5 -39.5v-187h-347z
M538 -27q-119 0 -198 67.5t-79 182.5q0 113 77.5 179t199.5 66q127 0 207 -66t80 -179q0 -115 -82.5 -182.5t-204.5 -67.5z" />
    <glyph glyph-name="at" unicode="@" horiz-adv-x="1899" 
d="M1399 398q24 0 43 4.5t42 21t38 45t25 82t10 126.5q0 200 -145 320t-425 120q-284 0 -437 -149t-153 -401q0 -111 40.5 -206.5t118.5 -168t201.5 -114t279.5 -41.5q87 0 163 22l52 -228q-110 -29 -215 -29q-224 0 -407 60.5t-301.5 165t-182.5 243t-64 296.5
q0 166 61 311.5t174 255.5t286 174t384 64q197 0 360 -54.5t270.5 -149t166 -221t58.5 -270.5q0 -105 -32.5 -189.5t-100 -149t-179.5 -99.5t-263 -35h-150l-38 90q-35 -49 -95.5 -76.5t-117.5 -27.5q-119 0 -202.5 109.5t-83.5 288.5q0 77 24 142.5t72.5 119t133 84
t195.5 30.5q29 0 52 -1t66.5 -8.5t76.5 -20.5t72.5 -40t65 -63.5t43 -95.5t17.5 -132zM923 582q0 -93 20 -150.5t53 -57.5q55 0 83 35v262q0 83 -17 114.5t-59 31.5q-25 0 -41.5 -19.5t-24.5 -55.5t-11 -73t-3 -87z" />
    <glyph glyph-name="A" unicode="A" horiz-adv-x="1643" 
d="M1185 1623h-994v-353h212l-172 -679q-27 -105 -38 -129q-33 -76 -111 -95q-34 -8 -78 -8v-359h678v359h-84q-21 0 -32 36t-11 64q1 21 2 32t8 21.5t20 10.5h275q67 0 67 -164h-120l1 -359h826v359h-86q-15 0 -26 12.5t-16.5 28.5t-13.5 47zM612 773l112 508l117 -508
h-229z" />
    <glyph glyph-name="B" unicode="B" horiz-adv-x="1666" 
d="M89 0h942q129 0 232.5 23t184 71.5t124.5 131t44 194.5q0 169 -82 277t-232 151v2q109 41 177 135.5t68 218.5q0 100 -30 174t-82.5 121t-135 75t-175 38.5t-214.5 10.5l-814 -1v-352h166l-1 -911h-172v-359zM863 700q29 0 52 -2.5t51.5 -13t48 -28.5t33 -51t13.5 -78
q0 -25 -3.5 -46t-10 -36.5t-15.5 -28.5t-20.5 -21.5t-25.5 -15t-29.5 -10t-32.5 -6t-35.5 -3.5t-38 -1.5t-39.5 0.5h-22v340q63 1 74 1zM789 1270h126q56 0 97 -36t41 -103q0 -55 -16.5 -90.5t-50.5 -52t-68.5 -22t-87.5 -5.5h-41v309z" />
    <glyph glyph-name="C" unicode="C" horiz-adv-x="1538" 
d="M1456 612h-301q-4 -74 -8 -94q-15 -80 -76.5 -127.5t-142.5 -47.5q-61 0 -107 22t-71.5 59t-43 85t-21.5 100t-7 104.5t0 97.5v44q0 47 1 80t6 82t14 83.5t27 72.5t42.5 62t62 39.5t84.5 15.5q63 0 111 -27.5t74 -72.5t38 -95.5t11 -103.5h298l-1 632h-311l-34 -71
q-45 43 -112.5 66.5t-120.5 28.5t-127 5q-141 0 -257 -49t-194 -131t-131.5 -192.5t-77.5 -229.5t-24 -246q0 -252 85.5 -437.5t260 -290.5t422.5 -105q104 0 207.5 24t176.5 57.5t131 67.5t87 58l29 24v410z" />
    <glyph glyph-name="D" unicode="D" horiz-adv-x="1801" 
d="M98 0h802q202 0 365 67t266 180.5t158 259.5t55 309q0 396 -205 601.5t-617 205.5h-830v-352h169v-912h-163v-359zM808 359v912h47q74 0 129 -28.5t86 -72t49.5 -106.5t24.5 -120.5t6 -126.5q0 -67 -7.5 -127t-28.5 -122.5t-54 -107t-88.5 -73t-128.5 -28.5h-35z" />
    <glyph glyph-name="E" unicode="E" horiz-adv-x="1490" 
d="M1099 968l-76 302h-213v-282h205v-352h-205v-277h219l13 61l63 267h273v-687h-1279v359h158v911h-158v353h1268v-654z" />
    <glyph glyph-name="F" unicode="F" horiz-adv-x="1407" 
d="M1025 643h-202v-284h154v-359h-877v359h158v911h-158v353h1275v-664h-284l-64 311h-204v-271h202v-356z" />
    <glyph glyph-name="G" unicode="G" horiz-adv-x="1720" 
d="M1344 0h276v862h-625v-304l160 -1q8 -29 8 -81q0 -73 -57 -115.5t-133 -42.5q-315 0 -315 441q0 63 4 115.5t15 116t33.5 112t56.5 90.5t88 64.5t124 22.5q63 0 110.5 -18.5t76 -47t48.5 -75.5t29.5 -90t16.5 -104h288v678h-315l-44 -62q-128 91 -333 91
q-191 0 -345.5 -68t-253.5 -186t-151.5 -273t-52.5 -333q0 -154 42.5 -286t119.5 -229.5t183 -166.5t235 -104t274 -35q250 0 395 130z" />
    <glyph glyph-name="H" unicode="H" horiz-adv-x="1908" 
d="M105 359h147v911h-147v353h809v-353h-95v-284h269v284h-88v353h798v-353h-141v-911h147v-359h-800v359h84v276h-269v-276h96l-1 -359h-809v359z" />
    <glyph glyph-name="I" unicode="I" horiz-adv-x="1076" 
d="M972 1270h-147v-911h141v-359h-862v359h147v911h-143v353h864v-353z" />
    <glyph glyph-name="J" unicode="J" horiz-adv-x="1314" 
d="M30 -13h270l37 92q89 -109 288 -109q234 0 365 137.5t131 367.5v795h147v353h-854v-353h154v-698q0 -110 -27 -158.5t-84 -48.5q-25 0 -45.5 11t-33 26t-21.5 41t-13.5 46t-6.5 52t-2.5 48t-0.5 44h-304v-646z" />
    <glyph glyph-name="K" unicode="K" horiz-adv-x="1799" 
d="M105 1622h821v-352h-127v-383l287 383v352l624 1v-353h-137l-319 -406v-14q78 0 138 -12t108.5 -39t74 -76.5t25.5 -120.5v-141q0 -35 18 -68.5t49 -33.5h90l6 -359h-348q-336 0 -336 307v185q0 48 -32 98t-78 50h-170v-281h127l6 -324v-35h-827v359h147v911h-147v352z
" />
    <glyph glyph-name="L" unicode="L" horiz-adv-x="1421" 
d="M818 359h191l87 350h286v-709h-1273l-1 359h143v911h-147v352h868v-352h-154v-911z" />
    <glyph glyph-name="M" unicode="M" horiz-adv-x="2408" 
d="M589 999l416 -999h281l342 977v-618h-123v-359h803v359h-154v911h147v353h-784l-276 -767l-310 767h-835l1 -353h167v-662v-50.5t-1.5 -44t-4.5 -40.5t-8.5 -33t-13.5 -29.5t-20.5 -21.5t-28.5 -17t-38 -9t-49 -4v-359h651v359q-27 0 -49 3.5t-38 8t-28 14.5t-20 17
t-13.5 22.5t-8 24t-4 28t-1.5 28.5v30v464z" />
    <glyph glyph-name="N" unicode="N" horiz-adv-x="1874" 
d="M1814 1622l-637 1v-353q39 1 68 -4t45.5 -18.5t26.5 -26t13.5 -35t4 -34.5t0.5 -36v-469l-496 976h-735v-351h157v-722q0 -38 -2 -60t-10.5 -50.5t-25 -43.5t-48 -26t-77.5 -11v-359h637v359q-85 0 -121.5 33t-36.5 115v401l473 -908h606v1118q0 74 36.5 113t121.5 39
v352z" />
    <glyph glyph-name="O" unicode="O" horiz-adv-x="1744" 
d="M1692 808q0 -235 -107.5 -427t-295.5 -301t-417 -109t-417 109t-295.5 301t-107.5 427q0 258 107.5 451.5t292 293.5t422.5 100q234 0 418.5 -100t292 -293.5t107.5 -451.5zM872 319q39 0 70 13t52.5 36t37.5 54t25 67.5t15 75.5t7.5 78.5t2.5 77.5t0 72v30v35
q-1 36 0 76t-3.5 82.5t-11 82.5t-22.5 76t-37.5 63t-56.5 42.5t-79 15.5q-39 0 -70.5 -12t-52.5 -33.5t-37.5 -50t-25 -62t-15 -70t-7.5 -73t-2.5 -71.5t0.5 -66v-35v-30q1 -30 0 -63t1.5 -68.5t5.5 -70.5t10.5 -69t17.5 -64t26 -55.5t36.5 -44t49.5 -29t63 -10.5z" />
    <glyph glyph-name="P" unicode="P" horiz-adv-x="1651" 
d="M99 0h861v359h-146v210q79 -10 150 -10q153 0 271.5 29t208 92t136 170.5t44.5 255.5q-1 85 -16.5 155t-42.5 120.5t-65 90.5t-84 65t-99.5 43t-112.5 25.5t-121.5 13t-127.5 4.5t-130 0h-24.5h-21.5h-24h-651v-353h151v-911h-156v-359zM814 1270h84q78 0 131 -42
t53 -132q0 -201 -227 -201h-41v375z" />
    <glyph glyph-name="Q" unicode="Q" horiz-adv-x="1765" 
d="M893 -30q40 0 116 8l251 22h484v359h-163q121 203 121 448q0 194 -61.5 354t-170 267t-258 165.5t-325.5 58.5q-246 0 -436.5 -106t-294 -296.5t-103.5 -434.5q0 -250 103 -441.5t294 -297.5t443 -106zM670 777v118.5t4 107t11.5 92.5t22.5 75.5t38 56.5t57 35.5t79 12.5
q51 0 88.5 -18.5t59.5 -58.5t35.5 -76.5t19 -99.5t6.5 -99t1 -101v-47q3 -43 0.5 -92t-5.5 -97.5t-16.5 -93.5t-34 -79t-57.5 -54.5t-86 -20.5q-39 0 -70 9t-53.5 28t-39 41t-27 56.5t-17.5 65t-10 75.5t-4.5 79t-1.5 85z" />
    <glyph glyph-name="R" unicode="R" horiz-adv-x="1765" 
d="M912 359h-121v335h98q60 0 98 -17t56.5 -52.5t25 -75t6.5 -98.5v-195q0 -41 8 -75.5t20 -59.5t33.5 -44.5t41 -32t51 -21.5t54.5 -13.5t60.5 -6.5t60 -2.5t61.5 -0.5h262v359q-56 0 -89.5 6.5t-49.5 22t-20.5 32.5t-4.5 46v93q0 92 -64 153t-213 95q172 32 265.5 125
t93.5 238q0 123 -37 211.5t-108.5 141t-166 76.5t-217.5 24h-1015v-353h155v-911h-154v-360q546 1 810 1v359zM785 920v350h121q89 0 139.5 -47.5t50.5 -126.5q0 -50 -21 -86t-58 -55t-78.5 -27t-92.5 -8h-61z" />
    <glyph glyph-name="S" unicode="S" horiz-adv-x="1329" 
d="M874 1623q-28 -48 -32 -60q-119 90 -312 90q-223 0 -339.5 -141t-116.5 -379q0 -66 9.5 -123t25.5 -103t42 -86.5t55 -71.5t69 -59t78.5 -48.5t89.5 -40.5t96 -34.5t104 -31.5q37 -10 62 -21t47 -35.5t22 -58.5q0 -41 -32.5 -63.5t-76.5 -22.5q-73 0 -140 55.5t-93 128.5
h-322v-518h323l36 92q78 -66 149.5 -93.5t179.5 -27.5q105 0 196.5 45.5t153 120.5t96 172t32.5 199q-2 104 -28.5 188.5t-69.5 141t-98 100t-115.5 70t-121 47.5t-115 36.5t-96.5 31.5t-66.5 38t-24.5 52q0 46 25 69t69 23q75 0 137 -60t80 -138h307v516h-285z" />
    <glyph glyph-name="T" unicode="T" horiz-adv-x="1535" 
d="M1215 965l-62 305h-106v-910h164v-360h-891v360h164v910h-100l-64 -305h-281v657h1457v-657h-281z" />
    <glyph glyph-name="U" unicode="U" 
d="M1485 1270h154v352h-654v-352h164v-734q0 -88 -52 -139t-144 -51q-52 0 -90.5 22t-59 59.5t-30 80.5t-9.5 92v670h148v352h-869v-352h161v-566q0 -88 7.5 -163t27 -151t50.5 -137t80 -115t113.5 -90t153.5 -56.5t198 -20.5q171 0 319 68t240 195.5t92 285.5v750z" />
    <glyph glyph-name="V" unicode="V" horiz-adv-x="1668" 
d="M743 1270h116v352h-865v-352h166l361 -1270h584l354 1032q6 17 16.5 49t15 45t14 37t16.5 33.5t19 25.5t24.5 22t30.5 13.5t40 10t49 2.5v352h-694v-352q74 0 110.5 -23.5t37.5 -65.5t-17 -100l-176 -564z" />
    <glyph glyph-name="W" unicode="W" horiz-adv-x="2460" 
d="M-4 1623l-1 -353h144l349 -1270h537l202 706l193 -706h543l321 1148q20 71 62.5 96.5t126.5 25.5v353h-651v-353q74 0 98 -12.5t12 -56.5l-135 -498l-253 920h-409l-260 -951l-159 598h141v353h-861z" />
    <glyph glyph-name="X" unicode="X" horiz-adv-x="1863" 
d="M1798 1623h-737v-353q23 0 54.5 -12.5t31.5 -31.5q0 -16 -22.5 -56.5t-45.5 -73.5l-22 -32l-162 206h82v353h-878v-353h131l371 -408l-287 -369q-61 -85 -118.5 -109.5t-187.5 -24.5v-359h828l-6 359h-84q-26 0 -45 17t-19 44q0 14 6.5 33.5t14.5 29.5l110 151l243 -275
h-126v-359h899v359h-122l-429 470l258 351q38 53 104 71.5t158 18.5v353z" />
    <glyph glyph-name="Y" unicode="Y" horiz-adv-x="1559" 
d="M1564 1622h-637v-352h22.5h21.5h18t16.5 -1.5t13 -3.5t11 -6t7.5 -9t5.5 -12.5t1.5 -16.5q0 -55 -114 -228q-21 30 -91.5 138.5t-92.5 138.5h91v352h-852v-352h112l421 -598v-313h-155v-359h869v359h-157v365l204 371q24 45 35.5 64.5t31.5 46.5t38 37.5t44.5 18.5
t61.5 8h74v352z" />
    <glyph glyph-name="Z" unicode="Z" horiz-adv-x="1607" 
d="M1495 1293l-677 -934h309l107 346h282l-1 -705h-1409l-1 350l679 920h-315l-80 -332h-288v684h1394v-329z" />
    <glyph glyph-name="bracketleft" unicode="[" horiz-adv-x="910" 
d="M145 0v1623h714v-301h-197v-1011h193l-1 -311h-709z" />
    <glyph glyph-name="backslash" unicode="\" horiz-adv-x="1031" 
d="M400 0l-342 1623h574l341 -1623h-573z" />
    <glyph glyph-name="bracketright" unicode="]" horiz-adv-x="909" 
d="M55 0l-1 311h193v1011h-197v301h714v-1623h-709z" />
    <glyph glyph-name="asciicircum" unicode="^" horiz-adv-x="1707" 
d="M1088 1624l496 -715h-465l-216 333l-216 -333h-465l496 715h370z" />
    <glyph glyph-name="underscore" unicode="_" horiz-adv-x="1165" 
d="M1179 -1v-223h-1193v223h1193z" />
    <glyph glyph-name="grave" unicode="`" horiz-adv-x="1016" 
d="M281 1708l474 -437l-104 -141l-554 313z" />
    <glyph glyph-name="a" unicode="a" horiz-adv-x="1294" 
d="M30 308q0 -149 113.5 -237.5t275.5 -88.5q82 0 169 36t137 101l50 -119h472v305h-76v445q0 69 -25.5 124.5t-63 90.5t-94 60.5t-105 38t-111 19.5t-95.5 8t-74 1q-107 0 -228 -17.5t-188 -34.5l-67 -18v-314h175q72 95 215 95q211 0 211 -166v-45q-110 38 -256 38
q-83 0 -159.5 -20.5t-138.5 -59.5t-99.5 -102t-37.5 -140zM520 326q0 43 31 77.5t74 34.5q22 0 46.5 -5t38.5 -11l14 -5v-147q-4 -5 -12 -12.5t-36 -20.5t-60 -13q-44 0 -70 28.5t-26 73.5z" />
    <glyph glyph-name="b" unicode="b" horiz-adv-x="1401" 
d="M599 1631h-566v-306h84v-1325h450l40 102q98 -70 135 -88q66 -32 141 -32q93 0 171.5 31t133.5 84t93.5 124t56.5 151t18 166q0 81 -17.5 159.5t-54 150t-89 126t-127.5 86.5t-164 32q-148 0 -305 -127v666zM603 662q2 4 5.5 10.5t16.5 23t27 29t37.5 23t48.5 10.5
q39 0 67.5 -17t44.5 -41t25.5 -58.5t12 -63t2.5 -59.5q0 -92 -43 -141.5t-109 -49.5q-36 0 -70 17t-50 34l-15 17v266z" />
    <glyph glyph-name="c" unicode="c" horiz-adv-x="1110" 
d="M43 546q0 -178 73.5 -307.5t197 -193t281.5 -63.5q126 0 250 36.5t193 105.5v301h-240q-1 -5 -2.5 -14t-10 -31.5t-21 -39.5t-37 -31t-56.5 -14q-43 0 -74.5 20t-48.5 53t-24.5 69t-7.5 76q0 135 46 200t109 65q51 0 87 -42t36 -108h242v444h-175l-41 -77
q-121 97 -258 97q-117 0 -216 -44.5t-164.5 -119.5t-102 -174t-36.5 -208z" />
    <glyph glyph-name="d" unicode="d" horiz-adv-x="1442" 
d="M1370 305h-77l-1 1335h-585v-305h90v-375q-68 69 -137.5 99.5t-161.5 30.5q-103 0 -190.5 -47t-144.5 -124t-88.5 -173t-31.5 -196q0 -105 29 -204t84 -181.5t146 -133t204 -50.5q90 1 167 40t128 107v-128h569v305zM801 415q-2 -4 -5.5 -10.5t-16.5 -23t-27 -29
t-37.5 -23t-48.5 -10.5q-39 0 -67.5 17t-44.5 41t-25.5 58.5t-12 63t-2.5 59.5q0 92 43 141.5t109 49.5q36 0 70 -17t50 -34l15 -17v-266z" />
    <glyph glyph-name="e" unicode="e" horiz-adv-x="1224" 
d="M611 -18q160 0 287.5 33t259.5 112v224h-307q-2 -59 -35 -94t-105 -35q-82 0 -129.5 66.5t-47.5 167.5h602q19 -8 23.5 -4.5t13.5 32.5q5 37 5 71q0 150 -62.5 270t-189.5 193.5t-299 73.5q-180 0 -314.5 -74.5t-203.5 -203t-69 -293.5q0 -147 73 -270t204.5 -196
t293.5 -73zM536 656q0 61 27 109.5t81 48.5q37 0 61 -17.5t33 -50t11.5 -58.5t1.5 -61h-215v29z" />
    <glyph glyph-name="f" unicode="f" horiz-adv-x="875" 
d="M175 1207q2 -132 2 -135h-83v-311h84v-456h-84v-305h680v305h-110v456h172v311h-179q-6 108 20.5 150.5t89.5 42.5q38 0 96 -13v311q-14 5 -40.5 13t-107 21t-160.5 13q-380 0 -380 -403z" />
    <glyph glyph-name="g" unicode="g" horiz-adv-x="1414" 
d="M564 -389q694 0 694 524v626h87v311h-453l-33 -75q-173 93 -325 93q-139 0 -252.5 -78.5t-175 -202t-61.5 -261.5q0 -103 31.5 -196t90.5 -165.5t151 -115.5t204 -43q77 0 153 23.5t134 65.5q0 -64 -17 -105t-54.5 -62.5t-83 -29t-114.5 -7.5q-178 0 -364 68v-309
q13 -7 40.5 -17t128 -27t219.5 -17zM528 532q0 61 11.5 109.5t43.5 83.5t82 35q48 0 82 -38.5t47.5 -90t13.5 -108.5q0 -37 -7.5 -74t-22.5 -71.5t-42.5 -56.5t-62.5 -22q-53 0 -87 37t-46 86.5t-12 109.5z" />
    <glyph glyph-name="h" unicode="h" horiz-adv-x="1451" 
d="M71 0h653v305h-80v321q0 118 101 118q82 0 83 -125v-619h576v305h-86v397q0 189 -94 288.5t-264 99.5q-35 0 -67.5 -6t-55 -12.5t-50 -23.5t-40.5 -26t-39 -34.5t-33.5 -33.5t-34.5 -38v724h-573v-308h84v-1027h-79z" />
    <glyph glyph-name="i" unicode="i" horiz-adv-x="814" 
d="M661 1072h-570v-311h89v-456h-82v-305h647v305h-84v767zM380 1135q-119 0 -198 67.5t-79 182.5q0 113 77.5 179t199.5 66q127 0 207 -66t80 -179q0 -115 -82.5 -182.5t-204.5 -67.5z" />
    <glyph glyph-name="j" unicode="j" horiz-adv-x="772" 
d="M49 -72l2 -326q173 0 290.5 32t186.5 100t98 163t29 232v943h-589v-312h90v-769q0 -37 -35.5 -52t-71.5 -11zM371 1135q-119 0 -198 67.5t-79 182.5q0 113 77.5 179t199.5 66q127 0 207 -66t80 -179q0 -115 -82.5 -182.5t-204.5 -67.5z" />
    <glyph glyph-name="k" unicode="k" horiz-adv-x="1413" 
d="M646 438v-438h-577v305h83v1025h-84v304h578v-1047l201 174h-95v311h584v-311h-151l-143 -117v-26l227 -313h115v-305h-453z" />
    <glyph glyph-name="l" unicode="l" horiz-adv-x="794" 
d="M644 305h78v-305h-647v305h74v1012h-84v313h579v-1325z" />
    <glyph glyph-name="m" unicode="m" horiz-adv-x="2073" 
d="M830 0v638q0 100 -112 100q-35 0 -56 -20.5t-32.5 -50.5t-15.5 -64.5t-4 -61.5v-238h80v-303h-595v299h73v462h-74v311h516v-170q34 47 77.5 82.5t91.5 59.5t98 36t98 12q84 0 154.5 -52t113.5 -149q135 201 349 201q70 0 133.5 -20t111.5 -63.5t76.5 -112.5t28.5 -167
v-424h74v-305h-529v635q-5 48 -30 78t-70 30q-32 0 -54 -12.5t-36.5 -35t-21.5 -52.5t-8 -64v-274h85v-305h-522z" />
    <glyph glyph-name="n" unicode="n" horiz-adv-x="1483" 
d="M661 1072h-563v-311h76v-456h-83v-305h658v305h-88v319q0 47 28.5 80t75.5 33q36 0 63 -31t27 -79v-627h574v305h-80v375q0 412 -330 412q-118 0 -210.5 -45.5t-147.5 -130.5v156z" />
    <glyph glyph-name="o" unicode="o" horiz-adv-x="1290" 
d="M43 547q0 260 161 402t440 142q281 0 442 -142t161 -402q0 -175 -76.5 -304t-212 -195t-313.5 -66t-313.5 66t-212 195t-76.5 304zM508 545q0 -251 137 -251t137 251q0 51 -4.5 86.5t-17.5 72.5t-42 56t-73 19t-73 -19t-42 -56t-17.5 -72.5t-4.5 -86.5z" />
    <glyph glyph-name="p" unicode="p" horiz-adv-x="1438" 
d="M740 -397v301h-111v215q41 -33 61 -47.5t63.5 -40t89 -37t97.5 -11.5q109 0 197.5 47.5t143 127t83.5 178t29 205.5q0 108 -30 207t-85.5 176t-142.5 123t-193 46q-93 0 -160.5 -32.5t-131.5 -104.5h-10v116h-564v-311h74v-855h-84v-303h674zM629 417v228q1 4 3 10
t12 22.5t23.5 29t38 22.5t55.5 10q163 0 163 -194q0 -44 -7.5 -82.5t-25 -74.5t-51.5 -57t-82 -21q-32 0 -57 11t-38 27t-21.5 31.5t-10.5 26.5z" />
    <glyph glyph-name="q" unicode="q" horiz-adv-x="1438" 
d="M715 -397v301h111v224q-33 -28 -47 -39.5t-50 -36.5t-63 -36.5t-68 -22t-83 -10.5q-92 0 -168 33t-128 89.5t-88 132.5t-52.5 159.5t-16.5 173.5q0 102 32.5 196t90.5 166.5t146 115.5t192 43q97 0 164.5 -25t137.5 -82h10l64 87h480v-311h-74v-855h84v-304zM826 526
q6 31 0.5 73t-16.5 79.5t-41.5 63.5t-74.5 26q-143 0 -143 -214q0 -58 11 -105t45.5 -83.5t89.5 -36.5q44 0 74.5 33t42.5 76t12 88z" />
    <glyph glyph-name="r" unicode="r" horiz-adv-x="1000" 
d="M94 1072h543v-163l4 -4q49 84 141 131t191 47v-416l-106 7q-110 0 -173 -63.5t-63 -184.5v-121h137v-305h-674v305h79v456h-79v311z" />
    <glyph glyph-name="s" unicode="s" horiz-adv-x="1055" 
d="M976 761v320h-168l-27 -48q-10 7 -30 16.5t-96 26t-168 16.5q-121 0 -211.5 -35t-145.5 -114.5t-55 -196.5q0 -77 27.5 -135t71 -92t96 -58.5t105.5 -41.5t96.5 -33t71 -40.5t27.5 -58.5q0 -38 -33.5 -58t-74.5 -20q-66 0 -112 54.5t-58 123.5h-221l-7 -378h177l36 67
q100 -94 308 -94q203 0 307 105t104 308q0 226 -241 324q-14 5 -61 17t-82 23t-65 34t-30 53q0 35 27.5 54.5t64.5 19.5q34 0 69 -18t54 -46q4 -5 15 -29t20 -45l8 -21h201z" />
    <glyph glyph-name="t" unicode="t" horiz-adv-x="873" 
d="M837 348q-63 -14 -108 -14q-56 0 -77 32.5t-21 71.5l1 323h152v311h-152v334l-487 -105v-229h-103v-311h108l-1 -376q-2 -403 380 -403q80 0 157 16.5t114 33.5l37 17v299z" />
    <glyph glyph-name="u" unicode="u" horiz-adv-x="1465" 
d="M821 156q-55 -85 -147.5 -129.5t-210.5 -44.5q-330 0 -330 403v376h-80v311h574v-634q0 -53 27 -86.5t63 -33.5q47 0 75.5 34.5t28.5 85.5v323h-81v311h575v-767h76v-305h-570v156z" />
    <glyph glyph-name="v" unicode="v" horiz-adv-x="1314" 
d="M762 1072v-311q60 0 87.5 -19t11.5 -62l-131 -342l-169 423h91v311h-644v-311h74l320 -761h473l291 682q17 41 47 60t96 19v311h-547z" />
    <glyph glyph-name="w" unicode="w" horiz-adv-x="1929" 
d="M797 0l151 430l130 -430h475l153 483q6 20 16.5 57.5t17 58t18.5 50.5t25 46.5t32.5 33.5t46 24.5t59.5 7.5v311h-557v-311q12 0 20.5 -0.5t21 -1t20.5 -3t18 -6t15 -9.5t9 -14t4 -19.5t-4 -25.5l-85 -302q-19 50 -73.5 223t-99.5 321l-45 148h-266l-210 -680l-113 369
h114v311h-664v-311h69l258 -761h444z" />
    <glyph glyph-name="x" unicode="x" horiz-adv-x="1199" 
d="M1166 0h-453l-189 277l-207 -277h-277v305h131l180 207l-182 249h-109v311h474l162 -251l185 251h254v-311h-110l-163 -181l193 -275h111v-305z" />
    <glyph glyph-name="y" unicode="y" horiz-adv-x="1377" 
d="M360 -377h691v295h-232l378 710q21 40 31 56.5t31 38.5t48 30t66 8v311h-580v-311q70 0 90 -10q37 -20 5 -89l-97 -208l-176 307h68v311h-680v-311h88l466 -730z" />
    <glyph glyph-name="z" unicode="z" horiz-adv-x="1214" 
d="M64 0h1085v451h-183q-10 -37 -20.5 -61.5t-26 -41t-28 -25t-39.5 -13t-46.5 -5t-61.5 -0.5h-101v11l469 479v277h-1022v-436h197q0 23 3.5 41t12.5 31t17.5 22.5t26 15t29.5 9t37 4.5t40 1.5t45 0.5h60v-11l-494 -467v-283z" />
    <glyph glyph-name="braceleft" unicode="{" horiz-adv-x="873" 
d="M169 1128q0 118 39.5 220.5t116.5 183t203 126.5t287 46v-331q-162 0 -162 -246q0 -191 -251 -284q251 -92 251 -283q0 -246 162 -246v-331q-161 0 -287 46t-203 126.5t-116.5 183t-39.5 220.5q0 32 -5.5 56t-21 49.5t-50.5 40.5t-88 17v243q53 2 88 17t50.5 40.5
t21 49.5t5.5 56z" />
    <glyph glyph-name="bar" unicode="|" horiz-adv-x="685" 
d="M540 1623v-1623h-395v1623h395z" />
    <glyph glyph-name="braceright" unicode="}" horiz-adv-x="872" 
d="M704 1128q0 -32 5.5 -56t21 -49.5t50.5 -40.5t88 -17v-243q-53 -2 -88 -17t-50.5 -40.5t-21 -49.5t-5.5 -56q0 -118 -39.5 -220.5t-116.5 -183t-203 -126.5t-287 -46v331q162 0 162 246q0 191 251 283q-251 93 -251 284q0 246 -162 246v331q161 0 287 -46t203 -126.5
t116.5 -183t39.5 -220.5z" />
    <glyph glyph-name="asciitilde" unicode="~" horiz-adv-x="1289" 
d="M914 629q-55 0 -114.5 21t-111.5 50.5t-101.5 59.5t-102 51t-96.5 21q-27 0 -65 -34t-147 -164l-131 86q24 37 54.5 100t55.5 109.5t59 94t80.5 73t104.5 25.5q55 0 114.5 -20.5t111.5 -50t102.5 -58.5t103.5 -49.5t97 -20.5q25 0 65.5 35t143.5 159l129 -85
q-24 -36 -54.5 -98.5t-55 -110t-58.5 -95t-80 -73.5t-104 -26z" />
    <glyph glyph-name="uni00A0" unicode="&#xa0;" horiz-adv-x="480" 
 />
    <glyph glyph-name="exclamdown" unicode="&#xa1;" horiz-adv-x="804" 
d="M611 1072l-421 2l-82 -775v-299h587v299zM400 1158q-119 0 -198 67.5t-79 182.5q0 113 77.5 179t199.5 66q127 0 207 -66t80 -179q0 -115 -82.5 -182.5t-204.5 -67.5z" />
    <glyph glyph-name="cent" unicode="&#xa2;" horiz-adv-x="1149" 
d="M733 1362v-305q50 -23 100 -62l41 77h175v-444h-242q0 49 -20.5 85.5t-53.5 52.5v-461q19 8 34 24t23 31t13 32t6.5 23t1.5 10h240v-301q-103 -103 -318 -133v-252h-112v243h-13q-158 0 -281.5 63.5t-197 193t-73.5 307.5q0 109 36.5 208t102 174t164.5 119.5t216 44.5
q23 0 46 -3v273h112zM529 513q0 -67 22 -124t70 -80v450q-92 -58 -92 -246z" />
    <glyph glyph-name="sterling" unicode="&#xa3;" horiz-adv-x="1285" 
d="M745 365l31 -9q32 -8 106 -16.5t159 -8.5q76 0 175 9v-311q-137 -47 -272 -47q-254 0 -254 171q-104 -172 -342 -172q-112 0 -283 48v311q58 -13 96 -13q62 0 86 41.5t24 151.5v240h-124v233h124v214q0 86 35.5 155.5t93 114.5t136 75.5t160.5 43.5t169 13q185 0 317 -46
v-311q-122 13 -208 13q-111 0 -170 -33.5t-59 -114.5v-124h253v-233h-253v-241v-154z" />
    <glyph glyph-name="currency" unicode="&#xa4;" horiz-adv-x="1292" 
d="M70 1097q0 210 115 353l-67 68l103 103l71 -72q153 105 352 105q205 0 358 -110l77 77l103 -103l-74 -74q110 -142 110 -347q0 -213 -117 -356l81 -81l-103 -103l-86 86q-151 -103 -349 -103q-194 0 -342 98l-81 -81l-103 103l74 74q-122 145 -122 363zM991 1269
q-32 78 -86.5 125.5t-121.5 73t-139 25.5t-139 -25.5t-121.5 -73t-87 -125t-32.5 -172.5t32.5 -172.5t87 -125t121.5 -73t139 -25.5t139 25.5t121.5 73t87 125t32.5 172.5t-33 172z" />
    <glyph glyph-name="yen" unicode="&#xa5;" horiz-adv-x="1708" 
d="M171 936v-174h359l63 -90v-42h-422v-174h422v-85h-155v-371h869v371h-157v85h414v174h-414v132h414v174h-311l101 159q25 46 36 65t31.5 46.5t38 38t44 19t61.5 8.5h74v350h-637v-350q75 0 90 -6q27 -9 27 -45q0 -55 -114 -228q-21 31 -91.5 141t-92.5 140h91v348h-852
v-348h112l236 -338h-237z" />
    <glyph glyph-name="brokenbar" unicode="&#xa6;" horiz-adv-x="687" 
d="M541 721v-721h-395v721h395zM541 1623v-721h-395v721h395z" />
    <glyph glyph-name="section" unicode="&#xa7;" horiz-adv-x="1080" 
d="M76 837q0 85 56 156t148 104q-165 119 -165 259q0 118 101.5 200t249.5 82q52 0 99 -7t74.5 -16t51 -20t30 -15.5t9.5 -7.5l27 51h168v-323h-201l-43 95q-17 32 -45.5 51.5t-57.5 19.5q-32 0 -57.5 -23.5t-25.5 -65.5q0 -28 28.5 -57t74.5 -56t101 -57t110 -66t101 -76.5
t74.5 -95t28.5 -114.5q0 -104 -56 -187t-156 -113q161 -98 161 -259q0 -121 -103 -217.5t-253 -96.5q-95 0 -165.5 16.5t-122.5 69.5l-36 -67h-170v378h221q12 -68 61 -119t119 -51q34 0 61 20t27 58q0 36 -29 71.5t-75.5 66.5t-102.5 63t-111.5 68.5t-102 76.5t-75.5 93
t-29 111zM497 988q-102 -50 -102 -110q0 -48 68.5 -97t174.5 -92q86 55 86 132q0 49 -66.5 94t-160.5 73z" />
    <glyph glyph-name="dieresis" unicode="&#xa8;" horiz-adv-x="1707" 
d="M720 1342q0 -108 -66.5 -169t-157.5 -61q-93 0 -160.5 61.5t-67.5 171.5q0 107 67 167t159 60t159 -60.5t67 -169.5zM1337 1342q0 -108 -66.5 -169t-157.5 -61q-93 0 -160.5 61.5t-67.5 171.5q0 107 67 167t159 60t159 -60.5t67 -169.5z" />
    <glyph glyph-name="copyright" unicode="&#xa9;" horiz-adv-x="1806" 
d="M129 1106q67 150 179.5 258.5t268 173t326.5 64.5t326.5 -64.5t268 -173t179 -258.5t66.5 -314t-66.5 -314t-179 -258.5t-268 -173t-326.5 -64.5t-326.5 64.5t-268 173t-179 258.5t-66.5 314t66 314zM903 1448q-135 0 -258 -52t-212.5 -140t-142.5 -209.5t-53 -254.5
t53 -254.5t142.5 -209.5t212.5 -140t258 -52q180 0 333.5 88t243 239t89.5 329t-89.5 329t-243 239t-333.5 88zM1275 398l-18 -15q-18 -15 -55 -36.5t-83 -43t-112 -36.5t-132 -15q-236 0 -361.5 142t-125.5 386q0 80 15 156t49 146t83.5 122t123.5 83t163 31q162 0 228 -64
l22 45h197v-401h-189q1 46 -12 87t-48 72t-88 31q-35 0 -61 -12t-42 -35.5t-26 -48t-14.5 -60t-5.5 -60.5t-1 -60q0 -7 -0.5 -35.5t0 -41t1.5 -41.5t4 -44.5t8.5 -40.5t13.5 -39.5t20 -32t27.5 -27t36.5 -16t47 -6.5q52 0 90.5 29.5t48.5 80.5q3 13 5 60h191v-260z" />
    <glyph glyph-name="ordfeminine" unicode="&#xaa;" horiz-adv-x="999" 
d="M37 1046q0 57 27.5 103.5t73.5 75.5t102.5 44t117.5 15q108 0 189 -28v33q0 122 -156 122q-105 0 -158 -70h-130v232l50 13q49 13 138.5 26t168.5 13q30 0 54.5 -1t70.5 -6t82 -14.5t77.5 -28t69 -44.5t46.5 -67t19 -92v-328h56v-225h-348l-37 88q-37 -48 -101 -74.5
t-125 -26.5q-119 0 -203 65t-84 175zM399 1060q0 -34 19 -55t51 -21q24 0 44.5 9.5t26.5 15.5l9 9v109l-10 4q-11 4 -29 7.5t-34 3.5q-32 0 -54.5 -25.5t-22.5 -56.5z" />
    <glyph glyph-name="guillemotleft" unicode="&#xab;" horiz-adv-x="1306" 
d="M643 669l426 404l191 -224l-315 -315l315 -315l-191 -224l-426 404v270zM33 669l426 404l191 -224l-315 -315l315 -315l-191 -224l-426 404v270z" />
    <glyph glyph-name="logicalnot" unicode="&#xac;" horiz-adv-x="1195" 
d="M78 1092h1011v-550h-231v219h-779z" />
    <glyph glyph-name="uni00AD" unicode="&#xad;" horiz-adv-x="774" 
d="M717 836v-299h-647v299h647z" />
    <glyph glyph-name="registered" unicode="&#xae;" horiz-adv-x="1806" 
d="M129 1106q67 150 179.5 258.5t268 173t326.5 64.5t326.5 -64.5t268 -173t179 -258.5t66.5 -314t-66.5 -314t-179 -258.5t-268 -173t-326.5 -64.5t-326.5 64.5t-268 173t-179 258.5t-66.5 314t66 314zM903 1448q-135 0 -258 -52t-212.5 -140t-142.5 -209.5t-53 -254.5
t53 -254.5t142.5 -209.5t212.5 -140t258 -52q180 0 333.5 88t243 239t89.5 329t-89.5 329t-243 239t-333.5 88zM923 363q-147 0 -450 -1v203h85v496h-86v204h564q142 0 218.5 -59t76.5 -192q0 -81 -52 -133t-148 -69q82 -19 118 -53t36 -85v-52q0 -33 16.5 -46.5t74.5 -13.5
v-199h-146q-40 0 -62 1t-56 8.5t-52 21.5t-32 42t-14 69v109q0 67 -20.5 101t-83.5 34h-54v-181h67v-205zM886 875q139 0 139 97q0 44 -28 71.5t-77 27.5h-68v-196h34z" />
    <glyph glyph-name="glyph113" unicode="&#xaf;" horiz-adv-x="774" 
d="M717 1433v-269h-647v269h647z" />
    <glyph glyph-name="degree" unicode="&#xb0;" horiz-adv-x="781" 
d="M385 1092q97 0 152.5 60.5t55.5 143.5q0 81 -55 140t-153 59q-95 0 -148 -59t-53 -140q0 -82 54 -143t147 -61zM385 951q-84 0 -152.5 29.5t-111.5 79t-66 110.5t-23 127q0 64 22.5 123.5t65 107.5t111.5 76.5t154 28.5q89 0 160 -28.5t115 -76.5t67.5 -107t23.5 -124
q0 -66 -24 -127t-68.5 -110.5t-115.5 -79t-158 -29.5z" />
    <glyph glyph-name="plusminus" unicode="&#xb1;" horiz-adv-x="849" 
d="M746 223v-224h-647v224h647zM69 762h232v269h255v-269h225v-245h-225v-239h-255v239h-232v245z" />
    <glyph glyph-name="uni00B2" unicode="&#xb2;" horiz-adv-x="864" 
d="M108 286v182q116 46 194 111q46 39 69.5 63.5t44.5 68t21 92.5q-3 46 -27 75t-55 29q-39 0 -60.5 -24.5t-21.5 -61.5q0 -42 38 -77l-137 -105q-92 82 -89 219q0 83 53.5 146t131.5 91.5t161 25.5q136 -5 225 -77.5t89 -198.5q0 -93 -64 -174q-51 -66 -216 -190h97
q61 2 95.5 20t34.5 69h104v-284h-688z" />
    <glyph glyph-name="uni00B3" unicode="&#xb3;" horiz-adv-x="824" 
d="M87 529q106 -86 217 -86q51 0 91 20.5t40 65.5q0 52 -44 75t-102 23q-23 0 -47 -5.5t-28 -5.5l-11 2l-1 3v93l200 170v6h-128q-22 0 -36 -4.5t-22.5 -19t-12 -24t-10.5 -36.5l-113 1v265h626v-154q0 -2 -167 -139q85 -8 145.5 -73.5t60.5 -147.5q0 -138 -102 -213
t-278 -75q-93 0 -159 10.5t-119 45.5v203v0z" />
    <glyph glyph-name="acute" unicode="&#xb4;" horiz-adv-x="1016" 
d="M851 1443l-554 -313l-104 141l474 437z" />
    <glyph glyph-name="uni00B5" unicode="&#xb5;" horiz-adv-x="1468" 
d="M827 156q-55 -85 -147.5 -129.5t-210.5 -44.5q-330 0 -330 403v376h-80v311h574v-634q0 -53 27 -86.5t63 -33.5q47 0 75.5 34.5t28.5 85.5v323h-81v311h575v-767h76v-305h-570v156z" />
    <glyph glyph-name="paragraph" unicode="&#xb6;" horiz-adv-x="1555" 
d="M626 739q-133 0 -234.5 22t-179.5 71t-118 133t-38 201q1 75 16.5 137t43 106.5t65.5 80t84.5 57t100 38t112.5 23t122 11.5t128 4t131 0h66h501v-355h-151v-905h156v-363h-409v1270h-125v-1270h-417v363h146v376z" />
    <glyph glyph-name="periodcentered" unicode="&#xb7;" horiz-adv-x="682" 
d="M337 514q-119 0 -198 67.5t-79 182.5q0 113 77.5 179t199.5 66q127 0 207 -66t80 -179q0 -115 -82.5 -182.5t-204.5 -67.5z" />
    <glyph glyph-name="cedilla" unicode="&#xb8;" horiz-adv-x="502" 
d="M147 0h180v-119q133 -77 133 -166q0 -82 -108.5 -141t-260.5 -59h-21v113q97 1 142 29t45 72q0 40 -32 83t-78 69v119z" />
    <glyph glyph-name="uni00B9" unicode="&#xb9;" horiz-adv-x="615" 
d="M117 286l-1 190h53v367l-96 -1v151l387 98l4 -615h56v-190h-403z" />
    <glyph glyph-name="ordmasculine" unicode="&#xba;" horiz-adv-x="1032" 
d="M70 688q0 193 119.5 298t326.5 105q208 0 327 -105t119 -298q0 -195 -122.5 -306.5t-323.5 -111.5t-323.5 111.5t-122.5 306.5zM415 686q0 -185 101 -185q102 0 102 185q0 38 -3.5 64.5t-13 54t-31 41.5t-54.5 14t-54 -14t-31 -41.5t-13 -54t-3 -64.5z" />
    <glyph glyph-name="guillemotright" unicode="&#xbb;" horiz-adv-x="1306" 
d="M663 399l-426 -404l-191 224l315 315l-315 315l191 224l426 -404v-270zM1273 399l-426 -404l-191 224l315 315l-315 315l191 224l426 -404v-270z" />
    <glyph glyph-name="onequarter" unicode="&#xbc;" horiz-adv-x="1721" 
d="M111 818l-1 190h53v367l-96 -1v151l387 98l4 -615h56v-190h-403zM348 0l491 1623h364l-502 -1623h-353zM1536 170h72v-169h-414v169h74v77h-313v158l324 384l258 -1v-391l133 1v-151h-134v-77zM1268 398v138l-111 -137z" />
    <glyph glyph-name="onehalf" unicode="&#xbd;" horiz-adv-x="1784" 
d="M107 818l-1 190h53v367l-96 -1v151l387 98l4 -615h56v-190h-403zM352 0l491 1623h364l-502 -1623h-353zM1042 -1v182q116 46 194 111q46 39 69.5 63.5t44.5 68t21 92.5q-3 46 -27 75t-55 29q-39 0 -60.5 -24.5t-21.5 -61.5q0 -42 38 -77l-137 -105q-92 82 -89 219
q0 83 53.5 146t131.5 91.5t161 25.5q136 -5 225 -77.5t89 -198.5q0 -93 -64 -174q-51 -66 -216 -190h97q61 2 95.5 20t34.5 69h104v-284h-688z" />
    <glyph glyph-name="threequarters" unicode="&#xbe;" horiz-adv-x="1827" 
d="M83 1081q106 -86 217 -86q51 0 91 20.5t40 65.5q0 52 -44 75t-102 23q-23 0 -47 -5.5t-28 -5.5q-8 0 -11 2l-1 3v93l200 170v6h-128q-22 0 -36 -4.5t-22.5 -19t-12 -24t-10.5 -36.5l-113 1v265h626v-154q0 -2 -167 -139q85 -8 145.5 -73.5t60.5 -147.5q0 -138 -102 -213
t-278 -75q-93 0 -159 10.5t-119 45.5v203zM502 0l491 1623h364l-502 -1623h-353zM1642 168h72v-169h-414v169h74v77h-313v158l324 384l258 -1v-391l133 1v-151h-134v-77zM1374 396v138l-111 -137z" />
    <glyph glyph-name="questiondown" unicode="&#xbf;" horiz-adv-x="1312" 
d="M962 1180h-347v-187q-61 -21 -107.5 -39.5t-108 -48t-107 -59.5t-93 -73t-77.5 -89.5t-49.5 -107.5t-19.5 -129q0 -132 78 -238.5t215.5 -166.5t306.5 -60q257 0 426.5 146t183.5 372h-472q-10 -162 -130 -162q-30 0 -51 15.5t-29.5 39.5t-12 42.5t-3.5 34.5
q0 179 396 358zM782 1746q119 0 198 -67.5t79 -182.5q0 -113 -77.5 -179t-199.5 -66q-127 0 -207 66t-80 179q0 115 82.5 182.5t204.5 67.5z" />
    <glyph glyph-name="Agrave" unicode="&#xc0;" horiz-adv-x="1643" 
d="M1185 1623h-994v-353h212l-172 -679q-27 -105 -38 -129q-33 -76 -111 -95q-34 -8 -78 -8v-359h678v359h-84q-21 0 -32 36t-11 64q1 21 2 32t8 21.5t20 10.5h275q67 0 67 -164h-120l1 -359h826v359h-86q-15 0 -26 12.5t-16.5 28.5t-13.5 47zM612 773l112 508l117 -508
h-229zM648 2270l474 -437l-104 -141l-554 313z" />
    <glyph glyph-name="Aacute" unicode="&#xc1;" horiz-adv-x="1643" 
d="M1492 447q8 -31 13.5 -47t16.5 -28.5t26 -12.5h86v-359h-826l-1 359h120q0 164 -67 164h-275q-13 0 -20 -10.5t-8 -21.5t-2 -32q0 -28 11 -64t32 -36h84v-359h-678v359q44 0 78 8q78 19 111 95q11 24 38 129l172 679h-212v353h994zM841 773l-117 508l-112 -508h229z
M1122 2005l-554 -313l-104 141l474 437z" />
    <glyph glyph-name="Acircumflex" unicode="&#xc2;" horiz-adv-x="1643" 
d="M1492 447q8 -31 13.5 -47t16.5 -28.5t26 -12.5h86v-359h-826l-1 359h120q0 164 -67 164h-275q-13 0 -20 -10.5t-8 -21.5t-2 -32q0 -28 11 -64t32 -36h84v-359h-678v359q44 0 78 8q78 19 111 95q11 24 38 129l172 679h-212v353h994zM841 773l-117 508l-112 -508h229z
M828 2162l274 -376l-154 -101l-255 245l-255 -245l-154 101l273 377z" />
    <glyph glyph-name="Atilde" unicode="&#xc3;" horiz-adv-x="1643" 
d="M1185 1623h-994v-353h212l-172 -679q-27 -105 -38 -129q-33 -76 -111 -95q-34 -8 -78 -8v-359h678v359h-84q-21 0 -32 36t-11 64q1 21 2 32t8 21.5t20 10.5h275q67 0 67 -164h-120l1 -359h826v359h-86q-15 0 -26 12.5t-16.5 28.5t-13.5 47zM612 773l112 508l117 -508
h-229zM967 2085q44 0 80 -19t62 -53.5t45.5 -68.5t43 -79t41.5 -71l-113 -74q-73 70 -100.5 89t-46.5 19q-45 0 -107 -30t-128.5 -60.5t-121.5 -30.5q-45 0 -81 18.5t-62.5 53t-45.5 68t-43 79t-42 71.5l114 75q76 -73 104 -92.5t46 -19.5q36 0 83 19.5t86 43t90 43t96 19.5
z" />
    <glyph glyph-name="Adieresis" unicode="&#xc4;" horiz-adv-x="1643" 
d="M1185 1623h-994v-353h212l-172 -679q-27 -105 -38 -129q-33 -76 -111 -95q-34 -8 -78 -8v-359h678v359h-84q-21 0 -32 36t-11 64q1 21 2 32t8 21.5t20 10.5h275q67 0 67 -164h-120l1 -359h826v359h-86q-15 0 -26 12.5t-16.5 28.5t-13.5 47zM612 773l112 508l117 -508
h-229zM711 1904q0 -108 -66.5 -169t-157.5 -61q-93 0 -160.5 61.5t-67.5 171.5q0 107 67 167t159 60t159 -60.5t67 -169.5zM1328 1904q0 -108 -66.5 -169t-157.5 -61q-93 0 -160.5 61.5t-67.5 171.5q0 107 67 167t159 60t159 -60.5t67 -169.5z" />
    <glyph glyph-name="Aring" unicode="&#xc5;" horiz-adv-x="1643" 
d="M1492 447q8 -31 13.5 -47t16.5 -28.5t26 -12.5h86v-359h-826l-1 359h120q0 164 -67 164h-275q-13 0 -20 -10.5t-8 -21.5t-2 -32q0 -28 11 -64t32 -36h84v-359h-678v359q44 0 78 8q78 19 111 95q11 24 38 129l172 679h-212v353h994zM841 773l-117 508l-112 -508h229z
M789 1802q77 0 121 44t44 104q0 59 -43.5 102t-121.5 43q-76 0 -118.5 -43t-42.5 -102q0 -60 43 -104t118 -44zM789 1700q-127 0 -199 75t-72 176q0 99 71 171.5t200 72.5q133 0 206.5 -72t73.5 -172q0 -101 -74.5 -176t-205.5 -75z" />
    <glyph glyph-name="AE" unicode="&#xc6;" horiz-adv-x="2138" 
d="M1747 969l-76 302h-213v-283h205v-352h-205v-286h219l13 70l63 267h273v-687h-1229l-1 376h120q32 164 -36 164h-275q-13 0 -22 -10.5t-12 -21.5t-8 -32q-6 -17 -1.5 -58.5t25.5 -41.5h84v-376l-681 -1v355q30 0 55 4t46 14t37 18.5t32 27.5t25 30t22.5 37t19 37.5t19 43
t18.5 42.5l322 666h-212l71 349h1570v-653zM908 771l1 521l-240 -521h239z" />
    <glyph glyph-name="Ccedilla" unicode="&#xc7;" horiz-adv-x="1542" 
d="M1458 202l-29 -24q-29 -24 -87 -58t-131 -67.5t-176.5 -57.5t-207.5 -24q-248 0 -422.5 105t-260 290.5t-85.5 437.5q0 127 24 246t77.5 229.5t131.5 192.5t194 131t257 49q74 0 127 -5t120.5 -28.5t112.5 -66.5l34 71h311l1 -632h-298q1 53 -11 103.5t-38 95.5t-74 72.5
t-111 27.5q-47 0 -84.5 -15.5t-62 -39.5t-42.5 -62t-27 -72.5t-14 -83.5t-6 -82t-1 -80v-44q-3 -45 0 -97.5t7 -104.5t21.5 -100t43 -85t71.5 -59t107 -22q81 0 142.5 47.5t76.5 127.5q4 20 8 94h301v-410zM709 0h180v-119q133 -77 133 -166q0 -82 -108.5 -141t-260.5 -59
h-21v113q97 1 142 29t45 72q0 40 -32 83t-78 69v119z" />
    <glyph glyph-name="Egrave" unicode="&#xc8;" horiz-adv-x="1490" 
d="M1367 969v654h-1268v-353h158v-911h-158v-359h1279v687h-273l-63 -267l-13 -61h-219v277h205v352h-205v282h213l76 -302zM591 2270l474 -437l-104 -141l-554 313z" />
    <glyph glyph-name="Eacute" unicode="&#xc9;" horiz-adv-x="1490" 
d="M1099 968l-76 302h-213v-282h205v-352h-205v-277h219l13 61l63 267h273v-687h-1279v359h158v911h-158v353h1268v-654zM1065 2005l-554 -313l-104 141l474 437z" />
    <glyph glyph-name="Ecircumflex" unicode="&#xca;" horiz-adv-x="1490" 
d="M1099 968l-76 302h-213v-282h205v-352h-205v-277h219l13 61l63 267h273v-687h-1279v359h158v911h-158v353h1268v-654zM871 2162l274 -376l-154 -101l-255 245l-255 -245l-154 101l273 377z" />
    <glyph glyph-name="Edieresis" unicode="&#xcb;" horiz-adv-x="1490" 
d="M1367 969v654h-1268v-353h158v-911h-158v-359h1279v687h-273l-63 -267l-13 -61h-219v277h205v352h-205v282h213l76 -302zM654 1904q0 -108 -66.5 -169t-157.5 -61q-93 0 -160.5 61.5t-67.5 171.5q0 107 67 167t159 60t159 -60.5t67 -169.5zM1271 1904q0 -108 -66.5 -169
t-157.5 -61q-93 0 -160.5 61.5t-67.5 171.5q0 107 67 167t159 60t159 -60.5t67 -169.5z" />
    <glyph glyph-name="Igrave" unicode="&#xcc;" horiz-adv-x="1076" 
d="M972 1623h-864v-353h143v-911h-147v-359h862v359h-141v911h147v353zM395 2270l474 -437l-104 -141l-554 313z" />
    <glyph glyph-name="Iacute" unicode="&#xcd;" horiz-adv-x="1076" 
d="M972 1270h-147v-911h141v-359h-862v359h147v911h-143v353h864v-353zM869 2005l-554 -313l-104 141l474 437z" />
    <glyph glyph-name="Icircumflex" unicode="&#xce;" horiz-adv-x="1076" 
d="M972 1270h-147v-911h141v-359h-862v359h147v911h-143v353h864v-353zM675 2162l274 -376l-154 -101l-255 245l-255 -245l-154 101l273 377z" />
    <glyph glyph-name="Idieresis" unicode="&#xcf;" horiz-adv-x="1076" 
d="M972 1623h-864v-353h143v-911h-147v-359h862v359h-141v911h147v353zM458 1904q0 -108 -66.5 -169t-157.5 -61q-93 0 -160.5 61.5t-67.5 171.5q0 107 67 167t159 60t159 -60.5t67 -169.5zM1075 1904q0 -108 -66.5 -169t-157.5 -61q-93 0 -160.5 61.5t-67.5 171.5
q0 107 67 167t159 60t159 -60.5t67 -169.5z" />
    <glyph glyph-name="Eth" unicode="&#xd0;" horiz-adv-x="1802" 
d="M262 952v319h-169v352h830q412 0 617 -205.5t205 -601.5q0 -163 -55 -309t-158 -259.5t-266 -180.5t-365 -67h-802v351h163v302h-130v299h130zM844 351q73 0 128.5 29.5t88.5 75t54 109.5t28.5 124.5t7.5 127.5q0 69 -6 126.5t-24.5 120.5t-49.5 106.5t-86 72t-129 28.5
h-47v-99v-118.5v-101.5h86v-299h-85l3 -302h31z" />
    <glyph glyph-name="Ntilde" unicode="&#xd1;" horiz-adv-x="1873" 
d="M1814 1622l-637 1v-353q39 1 68 -4t45.5 -18.5t26.5 -26t13.5 -35t4 -34.5t0.5 -36v-469l-496 976h-735v-351h157v-722q0 -38 -2 -60t-10.5 -50.5t-25 -43.5t-48 -26t-77.5 -11v-359h637v359q-85 0 -121.5 33t-36.5 115v401l473 -908h606v1118q0 74 36.5 113t121.5 39
v352zM1082 2085q44 0 80 -19t62 -53.5t45.5 -68.5t43 -79t41.5 -71l-113 -74q-73 70 -100.5 89t-46.5 19q-45 0 -107 -30t-128.5 -60.5t-121.5 -30.5q-45 0 -81 18.5t-62.5 53t-45.5 68t-43 79t-42 71.5l114 75q76 -73 104 -92.5t46 -19.5q36 0 83 19.5t86 43t90 43t96 19.5
z" />
    <glyph glyph-name="Ograve" unicode="&#xd2;" horiz-adv-x="1744" 
d="M1692 808q0 -235 -107.5 -427t-295.5 -301t-417 -109t-417 109t-295.5 301t-107.5 427q0 258 107.5 451.5t292 293.5t420.5 100t420.5 -100t292 -293.5t107.5 -451.5zM872 319q39 0 70 13t52.5 36t37.5 54t25 67.5t15 75.5t7.5 78.5t2.5 77.5t0 72v30v35q-1 36 0 76
t-3.5 82.5t-11 82.5t-22.5 76t-37.5 63t-56.5 42.5t-79 15.5q-39 0 -70.5 -12t-52.5 -33.5t-37.5 -50t-25 -62t-15 -70t-7.5 -73t-2.5 -71.5t0.5 -66v-35v-30q1 -30 0 -63t1.5 -68.5t5.5 -70.5t10.5 -69t17.5 -64t26 -55.5t36.5 -44t49.5 -29t63 -10.5zM725 2270l474 -437
l-104 -141l-554 313z" />
    <glyph glyph-name="Oacute" unicode="&#xd3;" horiz-adv-x="1744" 
d="M1692 808q0 -235 -107.5 -427t-295.5 -301t-417 -109t-417 109t-295.5 301t-107.5 427q0 258 107.5 451.5t292 293.5t420.5 100t420.5 -100t292 -293.5t107.5 -451.5zM872 319q39 0 70 13t52.5 36t37.5 54t25 67.5t15 75.5t7.5 78.5t2.5 77.5t0 72v30v35q-1 36 0 76
t-3.5 82.5t-11 82.5t-22.5 76t-37.5 63t-56.5 42.5t-79 15.5q-39 0 -70.5 -12t-52.5 -33.5t-37.5 -50t-25 -62t-15 -70t-7.5 -73t-2.5 -71.5t0.5 -66v-35v-30q1 -30 0 -63t1.5 -68.5t5.5 -70.5t10.5 -69t17.5 -64t26 -55.5t36.5 -44t49.5 -29t63 -10.5zM1199 2005l-554 -313
l-104 141l474 437z" />
    <glyph glyph-name="Ocircumflex" unicode="&#xd4;" horiz-adv-x="1744" 
d="M1692 808q0 -235 -107.5 -427t-295.5 -301t-417 -109t-417 109t-295.5 301t-107.5 427q0 258 107.5 451.5t292 293.5t420.5 100t420.5 -100t292 -293.5t107.5 -451.5zM872 319q39 0 70 13t52.5 36t37.5 54t25 67.5t15 75.5t7.5 78.5t2.5 77.5t0 72v30v35q-1 36 0 76
t-3.5 82.5t-11 82.5t-22.5 76t-37.5 63t-56.5 42.5t-79 15.5q-39 0 -70.5 -12t-52.5 -33.5t-37.5 -50t-25 -62t-15 -70t-7.5 -73t-2.5 -71.5t0.5 -66v-35v-30q1 -30 0 -63t1.5 -68.5t5.5 -70.5t10.5 -69t17.5 -64t26 -55.5t36.5 -44t49.5 -29t63 -10.5zM1005 2162l274 -376
l-154 -101l-255 245l-255 -245l-154 101l273 377z" />
    <glyph glyph-name="Otilde" unicode="&#xd5;" horiz-adv-x="1744" 
d="M1692 808q0 -235 -107.5 -427t-295.5 -301t-417 -109t-417 109t-295.5 301t-107.5 427q0 258 107.5 451.5t292 293.5t420.5 100t420.5 -100t292 -293.5t107.5 -451.5zM872 319q39 0 70 13t52.5 36t37.5 54t25 67.5t15 75.5t7.5 78.5t2.5 77.5t0 72v30v35q-1 36 0 76
t-3.5 82.5t-11 82.5t-22.5 76t-37.5 63t-56.5 42.5t-79 15.5q-39 0 -70.5 -12t-52.5 -33.5t-37.5 -50t-25 -62t-15 -70t-7.5 -73t-2.5 -71.5t0.5 -66v-35v-30q1 -30 0 -63t1.5 -68.5t5.5 -70.5t10.5 -69t17.5 -64t26 -55.5t36.5 -44t49.5 -29t63 -10.5zM1044 2085
q44 0 80 -19t62 -53.5t45.5 -68.5t43 -79t41.5 -71l-113 -74q-73 70 -100.5 89t-46.5 19q-45 0 -107 -30t-128.5 -60.5t-121.5 -30.5q-45 0 -81 18.5t-62.5 53t-45.5 68t-43 79t-42 71.5l114 75q76 -73 104 -92.5t46 -19.5q36 0 83 19.5t86 43t90 43t96 19.5z" />
    <glyph glyph-name="Odieresis" unicode="&#xd6;" horiz-adv-x="1744" 
d="M1692 808q0 -235 -107.5 -427t-295.5 -301t-417 -109t-417 109t-295.5 301t-107.5 427q0 258 107.5 451.5t292 293.5t420.5 100t420.5 -100t292 -293.5t107.5 -451.5zM872 319q39 0 70 13t52.5 36t37.5 54t25 67.5t15 75.5t7.5 78.5t2.5 77.5t0 72v30v35q-1 36 0 76
t-3.5 82.5t-11 82.5t-22.5 76t-37.5 63t-56.5 42.5t-79 15.5q-39 0 -70.5 -12t-52.5 -33.5t-37.5 -50t-25 -62t-15 -70t-7.5 -73t-2.5 -71.5t0.5 -66v-35v-30q1 -30 0 -63t1.5 -68.5t5.5 -70.5t10.5 -69t17.5 -64t26 -55.5t36.5 -44t49.5 -29t63 -10.5zM788 1904
q0 -108 -66.5 -169t-157.5 -61q-93 0 -160.5 61.5t-67.5 171.5q0 107 67 167t159 60t159 -60.5t67 -169.5zM1405 1904q0 -108 -66.5 -169t-157.5 -61q-93 0 -160.5 61.5t-67.5 171.5q0 107 67 167t159 60t159 -60.5t67 -169.5z" />
    <glyph glyph-name="multiply" unicode="&#xd7;" horiz-adv-x="902" 
d="M451 467l-192 -193l-173 173l192 193l-204 204l180 180l197 -204l197 204l180 -180l-204 -204l192 -193l-173 -173z" />
    <glyph glyph-name="Oslash" unicode="&#xd8;" horiz-adv-x="1742" 
d="M567 -155l38 167q-249 82 -401.5 297.5t-152.5 498.5q0 258 107.5 451.5t292 293.5t420.5 100q48 0 111 -7l37 158l153 -30l-36 -158q254 -75 404.5 -286.5t150.5 -521.5q0 -235 -107.5 -427t-295.5 -301t-417 -109q-53 0 -104 6l-38 -171zM871 1296q-39 0 -70.5 -12
t-52.5 -33.5t-37.5 -50t-25 -62t-15 -70t-7.5 -73t-2.5 -71.5t0.5 -66v-35v-47v-58t1 -54t4 -63t7.5 -54.5t12 -59.5t17.5 -49l198 856q-20 2 -30 2zM871 319q39 0 70 13t52.5 36t37.5 54t25 67.5t15 75.5t7.5 78.5t2.5 77.5t0 72v30q0 7 0.5 44t0 53t-1.5 51.5t-4 58
t-7.5 52.5t-12 55.5t-17.5 47.5l-194 -865q8 -1 26 -1z" />
    <glyph glyph-name="Ugrave" unicode="&#xd9;" 
d="M1485 1270h154v352h-654v-352h164v-734q0 -88 -52 -139t-144 -51q-52 0 -90.5 22t-59 59.5t-30 80.5t-9.5 92v670h148v352h-869v-352h161v-566q0 -88 7.5 -163t27 -151t50.5 -137t80 -115t113.5 -90t153.5 -56.5t198 -20.5q171 0 319 68t240 195.5t92 285.5v750z
M696 2270l474 -437l-104 -141l-554 313z" />
    <glyph glyph-name="Uacute" unicode="&#xda;" 
d="M1485 520q0 -158 -92 -285.5t-240 -195.5t-319 -68q-109 0 -198 20.5t-153.5 56.5t-113.5 90t-80 115t-50.5 137t-27 151t-7.5 163v566h-161v352h869v-352h-148v-670q0 -49 9.5 -92t30 -80.5t59 -59.5t90.5 -22q92 0 144 51t52 139v734h-164v352h654v-352h-154v-750z
M1170 2005l-554 -313l-104 141l474 437z" />
    <glyph glyph-name="Ucircumflex" unicode="&#xdb;" 
d="M1485 520q0 -158 -92 -285.5t-240 -195.5t-319 -68q-109 0 -198 20.5t-153.5 56.5t-113.5 90t-80 115t-50.5 137t-27 151t-7.5 163v566h-161v352h869v-352h-148v-670q0 -49 9.5 -92t30 -80.5t59 -59.5t90.5 -22q92 0 144 51t52 139v734h-164v352h654v-352h-154v-750z
M976 2162l274 -376l-154 -101l-255 245l-255 -245l-154 101l273 377z" />
    <glyph glyph-name="Udieresis" unicode="&#xdc;" 
d="M1485 1270h154v352h-654v-352h164v-734q0 -88 -52 -139t-144 -51q-52 0 -90.5 22t-59 59.5t-30 80.5t-9.5 92v670h148v352h-869v-352h161v-566q0 -88 7.5 -163t27 -151t50.5 -137t80 -115t113.5 -90t153.5 -56.5t198 -20.5q171 0 319 68t240 195.5t92 285.5v750z
M758 1904q0 -108 -66.5 -169t-157.5 -61q-93 0 -160.5 61.5t-67.5 171.5q0 107 67 167t159 60t159 -60.5t67 -169.5zM1375 1904q0 -108 -66.5 -169t-157.5 -61q-93 0 -160.5 61.5t-67.5 171.5q0 107 67 167t159 60t159 -60.5t67 -169.5z" />
    <glyph glyph-name="Yacute" unicode="&#xdd;" horiz-adv-x="1559" 
d="M1564 1270h-74q-35 0 -61.5 -8t-44.5 -18.5t-38 -37.5t-31.5 -46.5t-35.5 -64.5l-204 -371v-365h157v-359h-869v359h155v313l-421 598h-112v352h852v-352h-91q22 -30 92.5 -138.5t91.5 -138.5q114 173 114 228q0 9 -1.5 16.5t-5.5 12.5t-7.5 9t-11 6t-13 3.5t-16.5 1.5
h-18h-21.5h-22.5v352h637v-352zM1106 2005l-554 -313l-104 141l474 437z" />
    <glyph glyph-name="Thorn" unicode="&#xde;" horiz-adv-x="1638" 
d="M90 363h156v1125h-151v355h710l-1 -300q74 0 132 -1t129 -6.5t125.5 -15.5t114 -28t103 -42.5t84.5 -61t66.5 -82t41 -106.5t15.5 -134q0 -134 -47 -232.5t-135.5 -158t-207 -88t-270.5 -28.5q-71 0 -150 10v-206h146v-363h-861v363zM805 895h61q110 0 168.5 37.5
t58.5 123.5q0 76 -53.5 114t-130.5 38h-104v-313z" />
    <glyph glyph-name="germandbls" unicode="&#xdf;" horiz-adv-x="1633" 
d="M803 1623q129 0 235.5 -21.5t179 -58t121.5 -86.5t71.5 -105.5t22.5 -115.5q0 -96 -60 -187t-166 -151q191 -61 296.5 -191t105.5 -278q0 -89 -39.5 -168.5t-115 -142t-197.5 -99.5t-276 -37l-1 367q145 82 145 184q0 92 -91 154.5t-266 62.5l-3 151q88 0 151.5 72
t63.5 151q0 68 -36 109.5t-110 41.5q-61 0 -101 -34.5t-40 -109.5l1 -782q126 0 151 1v-350h-851v369h172v723q0 120 29.5 211t83 151.5t134.5 98.5t175.5 54t214.5 16z" />
    <glyph glyph-name="agrave" unicode="&#xe0;" horiz-adv-x="1294" 
d="M30 308q0 -149 113.5 -237.5t275.5 -88.5q82 0 169 36t137 101l50 -119h472v305h-76v445q0 69 -25.5 124.5t-63 90.5t-94 60.5t-105 38t-111 19.5t-95.5 8t-74 1q-107 0 -228 -17.5t-188 -34.5l-67 -18v-314h175q72 95 215 95q211 0 211 -166v-45q-110 38 -256 38
q-83 0 -159.5 -20.5t-138.5 -59.5t-99.5 -102t-37.5 -140zM520 326q0 43 31 77.5t74 34.5q22 0 46.5 -5t38.5 -11l14 -5v-147q-4 -5 -12 -12.5t-36 -20.5t-60 -13q-44 0 -70 28.5t-26 73.5zM496 1708l474 -437l-104 -141l-554 313z" />
    <glyph glyph-name="aacute" unicode="&#xe1;" horiz-adv-x="1294" 
d="M30 308q0 77 37.5 140t99.5 102t138.5 59.5t159.5 20.5q146 0 256 -38v45q0 166 -211 166q-143 0 -215 -95h-175v314l67 18q67 17 188 34.5t228 17.5q41 0 74 -1t95.5 -8t111 -19.5t105 -38t94 -60.5t63 -90.5t25.5 -124.5v-445h76v-305h-472l-50 119q-50 -65 -137 -101
t-169 -36q-162 0 -275.5 88.5t-113.5 237.5zM520 326q0 -45 26 -73.5t70 -28.5q32 0 60 13t36 20.5t12 12.5v147l-14 5q-14 6 -38.5 11t-46.5 5q-43 0 -74 -34.5t-31 -77.5zM1092 1443l-554 -313l-104 141l474 437z" />
    <glyph glyph-name="acircumflex" unicode="&#xe2;" horiz-adv-x="1294" 
d="M30 308q0 77 37.5 140t99.5 102t138.5 59.5t159.5 20.5q146 0 256 -38v45q0 166 -211 166q-143 0 -215 -95h-175v314l67 18q67 17 188 34.5t228 17.5q41 0 74 -1t95.5 -8t111 -19.5t105 -38t94 -60.5t63 -90.5t25.5 -124.5v-445h76v-305h-472l-50 119q-50 -65 -137 -101
t-169 -36q-162 0 -275.5 88.5t-113.5 237.5zM520 326q0 -45 26 -73.5t70 -28.5q32 0 60 13t36 20.5t12 12.5v147l-14 5q-14 6 -38.5 11t-46.5 5q-43 0 -74 -34.5t-31 -77.5zM776 1600l274 -376l-154 -101l-255 245l-255 -245l-154 101l273 377z" />
    <glyph glyph-name="atilde" unicode="&#xe3;" horiz-adv-x="1294" 
d="M30 308q0 -149 113.5 -237.5t275.5 -88.5q82 0 169 36t137 101l50 -119h472v305h-76v445q0 69 -25.5 124.5t-63 90.5t-94 60.5t-105 38t-111 19.5t-95.5 8t-74 1q-107 0 -228 -17.5t-188 -34.5l-67 -18v-314h175q72 95 215 95q211 0 211 -166v-45q-110 38 -256 38
q-83 0 -159.5 -20.5t-138.5 -59.5t-99.5 -102t-37.5 -140zM520 326q0 43 31 77.5t74 34.5q22 0 46.5 -5t38.5 -11l14 -5v-147q-4 -5 -12 -12.5t-36 -20.5t-60 -13q-44 0 -70 28.5t-26 73.5zM789 1523q44 0 80 -19t62 -53.5t45.5 -68.5t43 -79t41.5 -71l-113 -74
q-73 70 -100.5 89t-46.5 19q-45 0 -107 -30t-128.5 -60.5t-121.5 -30.5q-45 0 -81 18.5t-62.5 53t-45.5 68t-43 79t-42 71.5l114 75q76 -73 104 -92.5t46 -19.5q36 0 83 19.5t86 43t90 43t96 19.5z" />
    <glyph glyph-name="adieresis" unicode="&#xe4;" horiz-adv-x="1294" 
d="M30 308q0 -149 113.5 -237.5t275.5 -88.5q82 0 169 36t137 101l50 -119h472v305h-76v445q0 69 -25.5 124.5t-63 90.5t-94 60.5t-105 38t-111 19.5t-95.5 8t-74 1q-107 0 -228 -17.5t-188 -34.5l-67 -18v-314h175q72 95 215 95q211 0 211 -166v-45q-110 38 -256 38
q-83 0 -159.5 -20.5t-138.5 -59.5t-99.5 -102t-37.5 -140zM520 326q0 43 31 77.5t74 34.5q22 0 46.5 -5t38.5 -11l14 -5v-147q-4 -5 -12 -12.5t-36 -20.5t-60 -13q-44 0 -70 28.5t-26 73.5zM559 1342q0 -108 -66.5 -169t-157.5 -61q-93 0 -160.5 61.5t-67.5 171.5
q0 107 67 167t159 60t159 -60.5t67 -169.5zM1176 1342q0 -108 -66.5 -169t-157.5 -61q-93 0 -160.5 61.5t-67.5 171.5q0 107 67 167t159 60t159 -60.5t67 -169.5z" />
    <glyph glyph-name="aring" unicode="&#xe5;" horiz-adv-x="1294" 
d="M30 308q0 77 37.5 140t99.5 102t138.5 59.5t159.5 20.5q146 0 256 -38v45q0 166 -211 166q-143 0 -215 -95h-175v314l67 18q67 17 188 34.5t228 17.5q41 0 74 -1t95.5 -8t111 -19.5t105 -38t94 -60.5t63 -90.5t25.5 -124.5v-445h76v-305h-472l-50 119q-50 -65 -137 -101
t-169 -36q-162 0 -275.5 88.5t-113.5 237.5zM520 326q0 -45 26 -73.5t70 -28.5q32 0 60 13t36 20.5t12 12.5v147l-14 5q-14 6 -38.5 11t-46.5 5q-43 0 -74 -34.5t-31 -77.5zM637 1240q77 0 121 44t44 104q0 59 -43.5 102t-121.5 43q-76 0 -118.5 -43t-42.5 -102
q0 -60 43 -104t118 -44zM637 1138q-127 0 -199 75t-72 176q0 99 71 171.5t200 72.5q133 0 206.5 -72t73.5 -172q0 -101 -74.5 -176t-205.5 -75z" />
    <glyph glyph-name="ae" unicode="&#xe6;" horiz-adv-x="1911" 
d="M30 299q0 77 37.5 140t99.5 102t138.5 59.5t159.5 20.5q146 0 256 -38v45q0 166 -211 166q-143 0 -215 -95h-175v314l67 17q67 18 188 35.5t228 17.5q68 0 132 -13t103 -29.5t73.5 -37.5t44.5 -29t15 -13l14 13q13 13 43 31t68.5 36t97 31t121.5 13q172 0 299 -73.5
t189.5 -193.5t62.5 -270q0 -34 -5 -79q-9 -21 -13.5 -24.5t-23.5 -3.5h-602q0 -93 47.5 -159.5t129.5 -66.5q72 0 105 35t35 108h307v-238q-132 -79 -259.5 -112t-287.5 -33q-189 0 -332 130q-103 -76 -227.5 -105t-320.5 -27q-105 1 -192 38.5t-142 112.5t-55 175zM520 317
q0 -45 26 -73.5t70 -28.5q32 0 60 13t36 20.5t12 12.5v147l-14 5q-14 5 -38.5 10.5t-46.5 5.5q-43 0 -74 -34.5t-31 -77.5zM1224 620h215q1 35 -1.5 61t-11.5 58.5t-33 50t-61 17.5q-54 0 -81 -48.5t-27 -109.5v-29z" />
    <glyph glyph-name="ccedilla" unicode="&#xe7;" horiz-adv-x="1112" 
d="M44 546q0 109 36.5 208t102 174t164.5 119.5t216 44.5q137 0 258 -97l41 77h175v-444h-242q0 66 -36 108t-87 42q-63 0 -109 -65t-46 -200q0 -40 7.5 -76t24.5 -69t48.5 -53t74.5 -20q32 0 56.5 14t37 31t21 39.5t10 31.5t2.5 14h240v-301q-69 -69 -193 -105.5
t-250 -36.5q-158 0 -281.5 63.5t-197 193t-73.5 307.5zM475 0h180v-119q133 -77 133 -166q0 -82 -108.5 -141t-260.5 -59h-21v113q97 1 142 29t45 72q0 40 -32 83t-78 69v119z" />
    <glyph glyph-name="egrave" unicode="&#xe8;" horiz-adv-x="1224" 
d="M611 -18q160 0 287.5 33t259.5 112v238h-307q-2 -73 -35 -108t-105 -35q-82 0 -129.5 66.5t-47.5 159.5h602q19 0 23.5 3.5t13.5 24.5q5 45 5 79q0 150 -62.5 270t-189.5 193.5t-299 73.5q-180 0 -314.5 -74.5t-203.5 -203t-69 -293.5q0 -147 73 -270t204.5 -196
t293.5 -73zM536 656q0 61 27 109.5t81 48.5q37 0 61 -17.5t33 -50t11.5 -58.5t1.5 -61h-215v29zM460 1708l474 -437l-104 -141l-554 313z" />
    <glyph glyph-name="eacute" unicode="&#xe9;" horiz-adv-x="1224" 
d="M611 -18q-162 0 -293.5 73t-204.5 196t-73 270q0 165 69 293.5t203.5 203t314.5 74.5q172 0 299 -73.5t189.5 -193.5t62.5 -270q0 -34 -5 -79q-9 -21 -13.5 -24.5t-23.5 -3.5h-602q0 -93 47.5 -159.5t129.5 -66.5q72 0 105 35t35 108h307v-238q-132 -79 -259.5 -112
t-287.5 -33zM536 627h215q1 35 -1.5 61t-11.5 58.5t-33 50t-61 17.5q-54 0 -81 -48.5t-27 -109.5v-29zM934 1443l-554 -313l-104 141l474 437z" />
    <glyph glyph-name="ecircumflex" unicode="&#xea;" horiz-adv-x="1224" 
d="M611 -18q-162 0 -293.5 73t-204.5 196t-73 270q0 165 69 293.5t203.5 203t314.5 74.5q172 0 299 -73.5t189.5 -193.5t62.5 -270q0 -34 -5 -79q-9 -21 -13.5 -24.5t-23.5 -3.5h-602q0 -93 47.5 -159.5t129.5 -66.5q72 0 105 35t35 108h307v-238q-132 -79 -259.5 -112
t-287.5 -33zM536 627h215q1 35 -1.5 61t-11.5 58.5t-33 50t-61 17.5q-54 0 -81 -48.5t-27 -109.5v-29zM740 1600l274 -376l-154 -101l-255 245l-255 -245l-154 101l273 377z" />
    <glyph glyph-name="edieresis" unicode="&#xeb;" horiz-adv-x="1224" 
d="M611 -18q160 0 287.5 33t259.5 112v238h-307q-2 -73 -35 -108t-105 -35q-82 0 -129.5 66.5t-47.5 159.5h602q19 0 23.5 3.5t13.5 24.5q5 45 5 79q0 150 -62.5 270t-189.5 193.5t-299 73.5q-180 0 -314.5 -74.5t-203.5 -203t-69 -293.5q0 -147 73 -270t204.5 -196
t293.5 -73zM536 656q0 61 27 109.5t81 48.5q37 0 61 -17.5t33 -50t11.5 -58.5t1.5 -61h-215v29zM523 1342q0 -108 -66.5 -169t-157.5 -61q-93 0 -160.5 61.5t-67.5 171.5q0 107 67 167t159 60t159 -60.5t67 -169.5zM1140 1342q0 -108 -66.5 -169t-157.5 -61
q-93 0 -160.5 61.5t-67.5 171.5q0 107 67 167t159 60t159 -60.5t67 -169.5z" />
    <glyph glyph-name="igrave" unicode="&#xec;" horiz-adv-x="814" 
d="M270 1708l474 -437l-104 -141l-554 313zM661 1072h-570v-325h89v-448h-82v-299h647v299h-84v773z" />
    <glyph glyph-name="iacute" unicode="&#xed;" horiz-adv-x="814" 
d="M744 1443l-554 -313l-104 141l474 437zM661 299h84v-299h-647v299h82v448h-89v325h570v-773z" />
    <glyph glyph-name="icircumflex" unicode="&#xee;" horiz-adv-x="813" 
d="M550 1600l274 -376l-154 -101l-255 245l-255 -245l-154 101l273 377zM661 299h84v-299h-647v299h82v448h-89v325h570v-773z" />
    <glyph glyph-name="idieresis" unicode="&#xef;" horiz-adv-x="815" 
d="M334 1342q0 -108 -66.5 -169t-157.5 -61q-93 0 -160.5 61.5t-67.5 171.5q0 107 67 167t159 60t159 -60.5t67 -169.5zM951 1342q0 -108 -66.5 -169t-157.5 -61q-93 0 -160.5 61.5t-67.5 171.5q0 107 67 167t159 60t159 -60.5t67 -169.5zM662 1072h-570v-325h89v-448h-82
v-299h647v299h-84v773z" />
    <glyph glyph-name="eth" unicode="&#xf0;" horiz-adv-x="1337" 
d="M1206 1585l63 -157l-157 -63q152 -223 171 -614q1 -20 1 -60q0 -117 -22.5 -220.5t-72 -193.5t-122.5 -155t-180.5 -102.5t-240.5 -37.5q-142 0 -260 48.5t-192.5 128.5t-115 178.5t-40.5 202.5q0 76 22.5 147t70.5 133.5t117.5 108.5t169.5 73t219 27h33q-24 92 -48 140
l-251 -101l-63 157l180 72q-62 24 -146 24q-78 0 -125 -11v311q155 33 294 33q296 0 481 -155zM557 568q0 -230 111 -230q30 0 51 26t29.5 66.5t12 71.5t3.5 58q0 217 -98 217q-109 0 -109 -209z" />
    <glyph glyph-name="ntilde" unicode="&#xf1;" horiz-adv-x="1482" 
d="M661 1072h-563v-311h76v-456h-83v-305h658v305h-88v319q0 47 28.5 80t75.5 33q36 0 63 -31t27 -79v-627h574v305h-80v375q0 412 -330 412q-118 0 -210.5 -45.5t-147.5 -130.5v156zM889 1523q44 0 80 -19t62 -53.5t45.5 -68.5t43 -79t41.5 -71l-113 -74q-73 70 -100.5 89
t-46.5 19q-45 0 -107 -30t-128.5 -60.5t-121.5 -30.5q-45 0 -81 18.5t-62.5 53t-45.5 68t-43 79t-42 71.5l114 75q76 -73 104 -92.5t46 -19.5q36 0 83 19.5t86 43t90 43t96 19.5z" />
    <glyph glyph-name="ograve" unicode="&#xf2;" horiz-adv-x="1290" 
d="M43 547q0 260 161 402t441 142t441 -142t161 -402q0 -175 -76.5 -304t-212 -195t-313.5 -66t-313.5 66t-212 195t-76.5 304zM508 545q0 -251 137 -251t137 251q0 51 -4.5 86.5t-17.5 72.5t-42 56t-73 19t-73 -19t-42 -56t-17.5 -72.5t-4.5 -86.5zM495 1708l474 -437
l-104 -141l-554 313z" />
    <glyph glyph-name="oacute" unicode="&#xf3;" horiz-adv-x="1290" 
d="M43 547q0 260 161 402t441 142t441 -142t161 -402q0 -175 -76.5 -304t-212 -195t-313.5 -66t-313.5 66t-212 195t-76.5 304zM508 545q0 -251 137 -251t137 251q0 51 -4.5 86.5t-17.5 72.5t-42 56t-73 19t-73 -19t-42 -56t-17.5 -72.5t-4.5 -86.5zM969 1443l-554 -313
l-104 141l474 437z" />
    <glyph glyph-name="ocircumflex" unicode="&#xf4;" horiz-adv-x="1290" 
d="M43 547q0 260 161 402t441 142t441 -142t161 -402q0 -175 -76.5 -304t-212 -195t-313.5 -66t-313.5 66t-212 195t-76.5 304zM508 545q0 -251 137 -251t137 251q0 51 -4.5 86.5t-17.5 72.5t-42 56t-73 19t-73 -19t-42 -56t-17.5 -72.5t-4.5 -86.5zM775 1600l274 -376
l-154 -101l-255 245l-255 -245l-154 101l273 377z" />
    <glyph glyph-name="otilde" unicode="&#xf5;" horiz-adv-x="1290" 
d="M43 547q0 260 161 402t441 142t441 -142t161 -402q0 -175 -76.5 -304t-212 -195t-313.5 -66t-313.5 66t-212 195t-76.5 304zM508 545q0 -251 137 -251t137 251q0 51 -4.5 86.5t-17.5 72.5t-42 56t-73 19t-73 -19t-42 -56t-17.5 -72.5t-4.5 -86.5zM813 1523q44 0 80 -19
t62 -53.5t45.5 -68.5t43 -79t41.5 -71l-113 -74q-73 70 -100.5 89t-46.5 19q-45 0 -107 -30t-128.5 -60.5t-121.5 -30.5q-45 0 -81 18.5t-62.5 53t-45.5 68t-43 79t-42 71.5l114 75q76 -73 104 -92.5t46 -19.5q36 0 83 19.5t86 43t90 43t96 19.5z" />
    <glyph glyph-name="odieresis" unicode="&#xf6;" horiz-adv-x="1290" 
d="M43 547q0 260 161 402t441 142t441 -142t161 -402q0 -175 -76.5 -304t-212 -195t-313.5 -66t-313.5 66t-212 195t-76.5 304zM508 545q0 -251 137 -251t137 251q0 51 -4.5 86.5t-17.5 72.5t-42 56t-73 19t-73 -19t-42 -56t-17.5 -72.5t-4.5 -86.5zM558 1342
q0 -108 -66.5 -169t-157.5 -61q-93 0 -160.5 61.5t-67.5 171.5q0 107 67 167t159 60t159 -60.5t67 -169.5zM1175 1342q0 -108 -66.5 -169t-157.5 -61q-93 0 -160.5 61.5t-67.5 171.5q0 107 67 167t159 60t159 -60.5t67 -169.5z" />
    <glyph glyph-name="divide" unicode="&#xf7;" horiz-adv-x="920" 
d="M68 761v-223h774v223h-774zM471 -18q-98 0 -163 55.5t-65 150.5q0 92 63.5 146.5t164.5 54.5q104 0 170 -54.5t66 -146.5q0 -95 -68 -150.5t-168 -55.5zM471 886q-98 0 -163 55.5t-65 150.5q0 92 63.5 146.5t164.5 54.5q104 0 170 -54.5t66 -146.5q0 -95 -68 -150.5
t-168 -55.5z" />
    <glyph glyph-name="oslash" unicode="&#xf8;" horiz-adv-x="1288" 
d="M43 547q0 260 161 402t441 142t441 -142t161 -402q0 -175 -76.5 -304t-212 -195t-313.5 -66t-313.5 66t-212 195t-76.5 304zM508 545q0 -251 137 -251t137 251q0 51 -4.5 86.5t-17.5 72.5t-42 56t-73 19t-73 -19t-42 -56t-17.5 -72.5t-4.5 -86.5zM246 -54l701 1246
l87 -50l-701 -1246z" />
    <glyph glyph-name="ugrave" unicode="&#xf9;" horiz-adv-x="1466" 
d="M822 0h570v305h-76v767h-575v-311h81v-323q0 -51 -28.5 -85.5t-75.5 -34.5q-36 0 -63 33.5t-27 86.5v634h-574v-311h80v-376q0 -403 330 -403q118 0 210.5 44.5t147.5 129.5v-156zM584 1708l474 -437l-104 -141l-554 313z" />
    <glyph glyph-name="uacute" unicode="&#xfa;" horiz-adv-x="1466" 
d="M822 156q-55 -85 -147.5 -129.5t-210.5 -44.5q-330 0 -330 403v376h-80v311h574v-634q0 -53 27 -86.5t63 -33.5q47 0 75.5 34.5t28.5 85.5v323h-81v311h575v-767h76v-305h-570v156zM1058 1443l-554 -313l-104 141l474 437z" />
    <glyph glyph-name="ucircumflex" unicode="&#xfb;" horiz-adv-x="1466" 
d="M822 156q-55 -85 -147.5 -129.5t-210.5 -44.5q-330 0 -330 403v376h-80v311h574v-634q0 -53 27 -86.5t63 -33.5q47 0 75.5 34.5t28.5 85.5v323h-81v311h575v-767h76v-305h-570v156zM864 1600l274 -376l-154 -101l-255 245l-255 -245l-154 101l273 377z" />
    <glyph glyph-name="udieresis" unicode="&#xfc;" horiz-adv-x="1466" 
d="M822 0h570v305h-76v767h-575v-311h81v-323q0 -51 -28.5 -85.5t-75.5 -34.5q-36 0 -63 33.5t-27 86.5v634h-574v-311h80v-376q0 -403 330 -403q118 0 210.5 44.5t147.5 129.5v-156zM647 1342q0 -108 -66.5 -169t-157.5 -61q-93 0 -160.5 61.5t-67.5 171.5q0 107 67 167
t159 60t159 -60.5t67 -169.5zM1264 1342q0 -108 -66.5 -169t-157.5 -61q-93 0 -160.5 61.5t-67.5 171.5q0 107 67 167t159 60t159 -60.5t67 -169.5z" />
    <glyph glyph-name="yacute" unicode="&#xfd;" horiz-adv-x="1377" 
d="M557 31l-466 730h-88v311h680v-311h-68l176 -307l97 208q32 69 -5 89q-20 10 -90 10v311h580v-311q-39 0 -66 -8t-48 -30t-31 -38.5t-31 -56.5l-378 -710h232v-295h-691zM1016 1443l-554 -313l-104 141l474 437z" />
    <glyph glyph-name="thorn" unicode="&#xfe;" horiz-adv-x="1405" 
d="M33 -398v304h84v1235h-74v306h564v-491h10q64 67 132 97t160 30q106 0 193 -45t142.5 -121t85.5 -172.5t30 -203.5q0 -105 -29 -202t-83.5 -175.5t-143 -125.5t-197.5 -47q-103 0 -185.5 37.5t-125.5 90.5v-215h111v-301zM598 406q2 -11 10.5 -26.5t21.5 -31.5t38 -27
t57 -11q48 0 82 21t51.5 57t25 74.5t7.5 82.5q0 194 -163 194q-31 0 -55.5 -10t-38 -22.5t-23.5 -29t-12 -22.5t-3 -10v-228z" />
    <glyph glyph-name="ydieresis" unicode="&#xff;" horiz-adv-x="1377" 
d="M360 -377h691v295h-232l378 710q21 40 31 56.5t31 38.5t48 30t66 8v311h-580v-311q70 0 90 -10q37 -20 5 -89l-97 -208l-176 307h68v311h-680v-311h88l466 -730zM605 1342q0 -108 -66.5 -169t-157.5 -61q-93 0 -160.5 61.5t-67.5 171.5q0 107 67 167t159 60t159 -60.5
t67 -169.5zM1222 1342q0 -108 -66.5 -169t-157.5 -61q-93 0 -160.5 61.5t-67.5 171.5q0 107 67 167t159 60t159 -60.5t67 -169.5z" />
    <glyph glyph-name="Amacron" unicode="&#x100;" horiz-adv-x="1643" 
d="M1185 1623h-994v-353h212l-172 -679q-27 -105 -38 -129q-33 -76 -111 -95q-34 -8 -78 -8v-359h678v359h-84q-21 0 -32 36t-11 64q1 21 2 32t8 21.5t20 10.5h275q67 0 67 -164h-120l1 -359h826v359h-86q-15 0 -26 12.5t-16.5 28.5t-13.5 47zM612 773l112 508l117 -508
h-229zM1195 1734h-748v335h748v-335z" />
    <glyph glyph-name="amacron" unicode="&#x101;" horiz-adv-x="1294" 
d="M30 308q0 -149 113.5 -237.5t275.5 -88.5q82 0 169 36t137 101l50 -119h472v305h-76v445q0 69 -25.5 124.5t-63 90.5t-94 60.5t-105 38t-111 19.5t-95.5 8t-74 1q-107 0 -228 -17.5t-188 -34.5l-67 -18v-314h175q72 95 215 95q211 0 211 -166v-45q-110 38 -256 38
q-83 0 -159.5 -20.5t-138.5 -59.5t-99.5 -102t-37.5 -140zM520 326q0 43 31 77.5t74 34.5q22 0 46.5 -5t38.5 -11l14 -5v-147q-4 -5 -12 -12.5t-36 -20.5t-60 -13q-44 0 -70 28.5t-26 73.5zM1021 1183h-748v335h748v-335z" />
    <glyph glyph-name="Abreve" unicode="&#x102;" horiz-adv-x="1643" 
d="M1185 1623h-994v-353h212l-172 -679q-27 -105 -38 -129q-33 -76 -111 -95q-34 -8 -78 -8v-359h678v359h-84q-21 0 -32 36t-11 64q1 21 2 32t8 21.5t20 10.5h275q67 0 67 -164h-120l1 -359h826v359h-86q-15 0 -26 12.5t-16.5 28.5t-13.5 47zM612 773l112 508l117 -508
h-229zM821 1796q-199 0 -301.5 100t-102.5 277h252q0 -76 45 -118.5t107 -42.5t107 42.5t45 118.5h252q0 -176 -103.5 -276.5t-300.5 -100.5z" />
    <glyph glyph-name="abreve" unicode="&#x103;" horiz-adv-x="1294" 
d="M30 308q0 -149 113.5 -237.5t275.5 -88.5q82 0 169 36t137 101l50 -119h472v305h-76v445q0 69 -25.5 124.5t-63 90.5t-94 60.5t-105 38t-111 19.5t-95.5 8t-74 1q-107 0 -228 -17.5t-188 -34.5l-67 -18v-314h175q72 95 215 95q211 0 211 -166v-45q-110 38 -256 38
q-83 0 -159.5 -20.5t-138.5 -59.5t-99.5 -102t-37.5 -140zM520 326q0 43 31 77.5t74 34.5q22 0 46.5 -5t38.5 -11l14 -5v-147q-4 -5 -12 -12.5t-36 -20.5t-60 -13q-44 0 -70 28.5t-26 73.5zM649 1245q-199 0 -301.5 100t-102.5 277h252q0 -76 45 -118.5t107 -42.5t107 42.5
t45 118.5h252q0 -176 -103.5 -276.5t-300.5 -100.5z" />
    <glyph glyph-name="Aogonek" unicode="&#x104;" horiz-adv-x="1643" 
d="M1185 1623h-994v-353h212l-172 -679q-27 -105 -38 -129q-33 -76 -111 -95q-34 -8 -78 -8v-359h678v359h-84q-21 0 -32 36t-11 64q1 21 2 32t8 21.5t20 10.5h275q67 0 67 -164h-120l1 -359h826v359h-86q-15 0 -26 12.5t-16.5 28.5t-13.5 47zM612 773l112 508l117 -508
h-229zM1587 0q-29 -60 -67 -121t-55.5 -93.5t-17.5 -56.5q0 -44 45 -72t142 -29v-113h-21q-152 0 -260.5 59t-108.5 141q0 16 5 32t21 44t29 48t48.5 72t59.5 89h180z" />
    <glyph glyph-name="aogonek" unicode="&#x105;" horiz-adv-x="1294" 
d="M30 308q0 -149 113.5 -237.5t275.5 -88.5q82 0 169 36t137 101l50 -119h472v305h-76v445q0 69 -25.5 124.5t-63 90.5t-94 60.5t-105 38t-111 19.5t-95.5 8t-74 1q-107 0 -228 -17.5t-188 -34.5l-67 -18v-314h175q72 95 215 95q211 0 211 -166v-45q-110 38 -256 38
q-83 0 -159.5 -20.5t-138.5 -59.5t-99.5 -102t-37.5 -140zM520 326q0 43 31 77.5t74 34.5q22 0 46.5 -5t38.5 -11l14 -5v-147q-4 -5 -12 -12.5t-36 -20.5t-60 -13q-44 0 -70 28.5t-26 73.5zM1200 0q-29 -60 -67 -121t-55.5 -93.5t-17.5 -56.5q0 -44 45 -72t142 -29v-113h-21
q-152 0 -260.5 59t-108.5 141q0 16 5 32t21 44t29 48t48.5 72t59.5 89h180z" />
    <glyph glyph-name="Cacute" unicode="&#x106;" horiz-adv-x="1538" 
d="M1456 612h-301q-4 -74 -8 -94q-15 -80 -76.5 -127.5t-142.5 -47.5q-61 0 -107 22t-71.5 59t-43 85t-21.5 100t-7 104.5t0 97.5v44q0 47 1 80t6 82t14 83.5t27 72.5t42.5 62t62 39.5t84.5 15.5q63 0 111 -27.5t74 -72.5t38 -95.5t11 -103.5h298l-1 632h-311l-34 -71
q-45 43 -112.5 66.5t-120.5 28.5t-127 5q-141 0 -257 -49t-194 -131t-131.5 -192.5t-77.5 -229.5t-24 -246q0 -252 85.5 -437.5t260 -290.5t422.5 -105q104 0 207.5 24t176.5 57.5t131 67.5t87 58l29 24v410zM1098 1994l-554 -313l-104 141l474 437z" />
    <glyph glyph-name="cacute" unicode="&#x107;" horiz-adv-x="1110" 
d="M43 546q0 -178 73.5 -307.5t197 -193t281.5 -63.5q126 0 250 36.5t193 105.5v301h-240q-1 -5 -2.5 -14t-10 -31.5t-21 -39.5t-37 -31t-56.5 -14q-43 0 -74.5 20t-48.5 53t-24.5 69t-7.5 76q0 135 46 200t109 65q51 0 87 -42t36 -108h242v444h-175l-41 -77
q-121 97 -258 97q-117 0 -216 -44.5t-164.5 -119.5t-102 -174t-36.5 -208zM884 1443l-554 -313l-104 141l474 437z" />
    <glyph glyph-name="Ccircumflex" unicode="&#x108;" horiz-adv-x="1538" 
d="M1456 612h-301q-4 -74 -8 -94q-15 -80 -76.5 -127.5t-142.5 -47.5q-61 0 -107 22t-71.5 59t-43 85t-21.5 100t-7 104.5t0 97.5v44q0 47 1 80t6 82t14 83.5t27 72.5t42.5 62t62 39.5t84.5 15.5q63 0 111 -27.5t74 -72.5t38 -95.5t11 -103.5h298l-1 632h-311l-34 -71
q-45 43 -112.5 66.5t-120.5 28.5t-127 5q-141 0 -257 -49t-194 -131t-131.5 -192.5t-77.5 -229.5t-24 -246q0 -252 85.5 -437.5t260 -290.5t422.5 -105q104 0 207.5 24t176.5 57.5t131 67.5t87 58l29 24v410zM904 2151l274 -376l-154 -101l-255 245l-255 -245l-154 101
l273 377z" />
    <glyph glyph-name="ccircumflex" unicode="&#x109;" horiz-adv-x="1110" 
d="M43 546q0 -178 73.5 -307.5t197 -193t281.5 -63.5q126 0 250 36.5t193 105.5v301h-240q-1 -5 -2.5 -14t-10 -31.5t-21 -39.5t-37 -31t-56.5 -14q-43 0 -74.5 20t-48.5 53t-24.5 69t-7.5 76q0 135 46 200t109 65q51 0 87 -42t36 -108h242v444h-175l-41 -77
q-121 97 -258 97q-117 0 -216 -44.5t-164.5 -119.5t-102 -174t-36.5 -208zM690 1600l274 -376l-154 -101l-255 245l-255 -245l-154 101l273 377z" />
    <glyph glyph-name="Cdotaccent" unicode="&#x10a;" horiz-adv-x="1538" 
d="M1456 612h-301q-4 -74 -8 -94q-15 -80 -76.5 -127.5t-142.5 -47.5q-61 0 -107 22t-71.5 59t-43 85t-21.5 100t-7 104.5t0 97.5v44q0 47 1 80t6 82t14 83.5t27 72.5t42.5 62t62 39.5t84.5 15.5q63 0 111 -27.5t74 -72.5t38 -95.5t11 -103.5h298l-1 632h-311l-34 -71
q-45 43 -112.5 66.5t-120.5 28.5t-127 5q-141 0 -257 -49t-194 -131t-131.5 -192.5t-77.5 -229.5t-24 -246q0 -252 85.5 -437.5t260 -290.5t422.5 -105q104 0 207.5 24t176.5 57.5t131 67.5t87 58l29 24v410zM764 1696q-119 0 -198 67.5t-79 182.5q0 113 77.5 179t199.5 66
q127 0 207 -66t80 -179q0 -115 -82.5 -182.5t-204.5 -67.5z" />
    <glyph glyph-name="cdotaccent" unicode="&#x10b;" horiz-adv-x="1110" 
d="M43 546q0 -178 73.5 -307.5t197 -193t281.5 -63.5q126 0 250 36.5t193 105.5v301h-240q-1 -5 -2.5 -14t-10 -31.5t-21 -39.5t-37 -31t-56.5 -14q-43 0 -74.5 20t-48.5 53t-24.5 69t-7.5 76q0 135 46 200t109 65q51 0 87 -42t36 -108h242v444h-175l-41 -77
q-121 97 -258 97q-117 0 -216 -44.5t-164.5 -119.5t-102 -174t-36.5 -208zM552 1145q-119 0 -198 67.5t-79 182.5q0 113 77.5 179t199.5 66q127 0 207 -66t80 -179q0 -115 -82.5 -182.5t-204.5 -67.5z" />
    <glyph glyph-name="Ccaron" unicode="&#x10c;" horiz-adv-x="1538" 
d="M1456 612h-301q-4 -74 -8 -94q-15 -80 -76.5 -127.5t-142.5 -47.5q-61 0 -107 22t-71.5 59t-43 85t-21.5 100t-7 104.5t0 97.5v44q0 47 1 80t6 82t14 83.5t27 72.5t42.5 62t62 39.5t84.5 15.5q63 0 111 -27.5t74 -72.5t38 -95.5t11 -103.5h298l-1 632h-311l-34 -71
q-45 43 -112.5 66.5t-120.5 28.5t-127 5q-141 0 -257 -49t-194 -131t-131.5 -192.5t-77.5 -229.5t-24 -246q0 -252 85.5 -437.5t260 -290.5t422.5 -105q104 0 207.5 24t176.5 57.5t131 67.5t87 58l29 24v410zM633 1700l-273 377l154 101l255 -245l255 245l154 -101
l-274 -376z" />
    <glyph glyph-name="ccaron" unicode="&#x10d;" horiz-adv-x="1110" 
d="M43 546q0 -178 73.5 -307.5t197 -193t281.5 -63.5q126 0 250 36.5t193 105.5v301h-240q-1 -5 -2.5 -14t-10 -31.5t-21 -39.5t-37 -31t-56.5 -14q-43 0 -74.5 20t-48.5 53t-24.5 69t-7.5 76q0 135 46 200t109 65q51 0 87 -42t36 -108h242v444h-175l-41 -77
q-121 97 -258 97q-117 0 -216 -44.5t-164.5 -119.5t-102 -174t-36.5 -208zM419 1149l-273 377l154 101l255 -245l255 245l154 -101l-274 -376z" />
    <glyph glyph-name="Dcaron" unicode="&#x10e;" horiz-adv-x="1801" 
d="M98 0h802q202 0 365 67t266 180.5t158 259.5t55 309q0 396 -205 601.5t-617 205.5h-830v-352h169v-912h-163v-359zM808 359v912h47q74 0 129 -28.5t86 -72t49.5 -106.5t24.5 -120.5t6 -126.5q0 -67 -7.5 -127t-28.5 -122.5t-54 -107t-88.5 -73t-128.5 -28.5h-35z
M764 1700l-273 377l154 101l255 -245l255 245l154 -101l-274 -376z" />
    <glyph glyph-name="dcaron" unicode="&#x10f;" horiz-adv-x="2109" 
d="M1370 305h-77l-1 1335h-585v-305h90v-375q-68 69 -137.5 99.5t-161.5 30.5q-103 0 -190.5 -47t-144.5 -124t-88.5 -173t-31.5 -196q0 -105 29 -204t84 -181.5t146 -133t204 -50.5q90 1 167 40t128 107v-128h569v305zM801 415q-2 -4 -5.5 -10.5t-16.5 -23t-27 -29
t-37.5 -23t-48.5 -10.5q-39 0 -67.5 17t-44.5 41t-25.5 58.5t-12 63t-2.5 59.5q0 92 43 141.5t109 49.5q36 0 70 -17t50 -34l15 -17v-266zM1529 1034q45 0 78 6.5t53.5 22t32.5 31.5t17.5 46t6.5 52.5t1 64.5h-189v366h510q24 -155 24 -277q0 -278 -130 -407.5t-404 -129.5
v225z" />
    <glyph glyph-name="Dcroat" unicode="&#x110;" horiz-adv-x="1801" 
d="M98 0h802q202 0 365 67t266 180.5t158 259.5t55 309q0 396 -205 601.5t-617 205.5h-830v-352h169v-912h-163v-359zM808 359v912h47q74 0 129 -28.5t86 -72t49.5 -106.5t24.5 -120.5t6 -126.5q0 -67 -7.5 -127t-28.5 -122.5t-54 -107t-88.5 -73t-128.5 -28.5h-35z" />
    <glyph glyph-name="dcroat" unicode="&#x111;" horiz-adv-x="1442" 
d="M1370 0h-569v128q-51 -68 -128 -107t-167 -40q-113 0 -204 50.5t-146 133t-84 181.5t-29 204q0 100 31.5 196t88.5 173t144.5 124t190.5 47q92 0 161.5 -30.5t137.5 -99.5v177h-105v138h105v60h-90v305h585v-365h77v-138h-77l1 -832h77v-305zM801 681l-15 17
q-16 17 -50 34t-70 17q-66 0 -109 -49.5t-43 -141.5q0 -31 2.5 -59.5t12 -63t25.5 -58.5t44.5 -41t67.5 -17q25 0 48.5 10.5t37.5 23t27 29t16.5 23t5.5 10.5v266z" />
    <glyph glyph-name="Emacron" unicode="&#x112;" horiz-adv-x="1490" 
d="M1099 968l-76 302h-213v-282h205v-352h-205v-277h219l13 61l63 267h273v-687h-1279v359h158v911h-158v353h1268v-654zM1119 1734h-748v335h748v-335z" />
    <glyph glyph-name="emacron" unicode="&#x113;" horiz-adv-x="1224" 
d="M611 -18q160 0 287.5 33t259.5 112v224h-307q-2 -59 -35 -94t-105 -35q-82 0 -129.5 66.5t-47.5 167.5h602q19 -8 23.5 -4.5t13.5 32.5q5 37 5 71q0 150 -62.5 270t-189.5 193.5t-299 73.5q-180 0 -314.5 -74.5t-203.5 -203t-69 -293.5q0 -147 73 -270t204.5 -196
t293.5 -73zM536 656q0 61 27 109.5t81 48.5q37 0 61 -17.5t33 -50t11.5 -58.5t1.5 -61h-215v29zM986 1183h-748v335h748v-335z" />
    <glyph glyph-name="Ebreve" unicode="&#x114;" horiz-adv-x="1490" 
d="M1099 968l-76 302h-213v-282h205v-352h-205v-277h219l13 61l63 267h273v-687h-1279v359h158v911h-158v353h1268v-654zM747 1796q-199 0 -301.5 100t-102.5 277h252q0 -76 45 -118.5t107 -42.5t107 42.5t45 118.5h252q0 -176 -103.5 -276.5t-300.5 -100.5z" />
    <glyph glyph-name="ebreve" unicode="&#x115;" horiz-adv-x="1224" 
d="M611 -18q160 0 287.5 33t259.5 112v224h-307q-2 -59 -35 -94t-105 -35q-82 0 -129.5 66.5t-47.5 167.5h602q19 -8 23.5 -4.5t13.5 32.5q5 37 5 71q0 150 -62.5 270t-189.5 193.5t-299 73.5q-180 0 -314.5 -74.5t-203.5 -203t-69 -293.5q0 -147 73 -270t204.5 -196
t293.5 -73zM536 656q0 61 27 109.5t81 48.5q37 0 61 -17.5t33 -50t11.5 -58.5t1.5 -61h-215v29zM614 1245q-199 0 -301.5 100t-102.5 277h252q0 -76 45 -118.5t107 -42.5t107 42.5t45 118.5h252q0 -176 -103.5 -276.5t-300.5 -100.5z" />
    <glyph glyph-name="Edotaccent" unicode="&#x116;" horiz-adv-x="1490" 
d="M1099 968l-76 302h-213v-282h205v-352h-205v-277h219l13 61l63 267h273v-687h-1279v359h158v911h-158v353h1268v-654zM740 1696q-119 0 -198 67.5t-79 182.5q0 113 77.5 179t199.5 66q127 0 207 -66t80 -179q0 -115 -82.5 -182.5t-204.5 -67.5z" />
    <glyph glyph-name="edotaccent" unicode="&#x117;" horiz-adv-x="1224" 
d="M611 -18q160 0 287.5 33t259.5 112v224h-307q-2 -59 -35 -94t-105 -35q-82 0 -129.5 66.5t-47.5 167.5h602q19 -8 23.5 -4.5t13.5 32.5q5 37 5 71q0 150 -62.5 270t-189.5 193.5t-299 73.5q-180 0 -314.5 -74.5t-203.5 -203t-69 -293.5q0 -147 73 -270t204.5 -196
t293.5 -73zM536 656q0 61 27 109.5t81 48.5q37 0 61 -17.5t33 -50t11.5 -58.5t1.5 -61h-215v29zM607 1145q-119 0 -198 67.5t-79 182.5q0 113 77.5 179t199.5 66q127 0 207 -66t80 -179q0 -115 -82.5 -182.5t-204.5 -67.5z" />
    <glyph glyph-name="Eogonek" unicode="&#x118;" horiz-adv-x="1490" 
d="M1099 968l-76 302h-213v-282h205v-352h-205v-277h219l13 61l63 267h273v-687h-1279v359h158v911h-158v353h1268v-654zM1331 0q-29 -60 -67 -121t-55.5 -93.5t-17.5 -56.5q0 -44 45 -72t142 -29v-113h-21q-152 0 -260.5 59t-108.5 141q0 16 5 32t21 44t29 48t48.5 72
t59.5 89h180z" />
    <glyph glyph-name="eogonek" unicode="&#x119;" horiz-adv-x="1224" 
d="M611 -18q160 0 287.5 33t259.5 112v224h-307q-2 -59 -35 -94t-105 -35q-82 0 -129.5 66.5t-47.5 167.5h602q19 -8 23.5 -4.5t13.5 32.5q5 37 5 71q0 150 -62.5 270t-189.5 193.5t-299 73.5q-180 0 -314.5 -74.5t-203.5 -203t-69 -293.5q0 -147 73 -270t204.5 -196
t293.5 -73zM536 656q0 61 27 109.5t81 48.5q37 0 61 -17.5t33 -50t11.5 -58.5t1.5 -61h-215v29zM993 50q-29 -60 -67 -121t-55.5 -93.5t-17.5 -56.5q0 -44 45 -72t142 -29v-113h-21q-152 0 -260.5 59t-108.5 141q0 16 5 32t21 44t29 48t48.5 72t59.5 89h180z" />
    <glyph glyph-name="Ecaron" unicode="&#x11a;" horiz-adv-x="1490" 
d="M1099 968l-76 302h-213v-282h205v-352h-205v-277h219l13 61l63 267h273v-687h-1279v359h158v911h-158v353h1268v-654zM609 1700l-273 377l154 101l255 -245l255 245l154 -101l-274 -376z" />
    <glyph glyph-name="ecaron" unicode="&#x11b;" horiz-adv-x="1224" 
d="M611 -18q160 0 287.5 33t259.5 112v224h-307q-2 -59 -35 -94t-105 -35q-82 0 -129.5 66.5t-47.5 167.5h602q19 -8 23.5 -4.5t13.5 32.5q5 37 5 71q0 150 -62.5 270t-189.5 193.5t-299 73.5q-180 0 -314.5 -74.5t-203.5 -203t-69 -293.5q0 -147 73 -270t204.5 -196
t293.5 -73zM536 656q0 61 27 109.5t81 48.5q37 0 61 -17.5t33 -50t11.5 -58.5t1.5 -61h-215v29zM476 1149l-273 377l154 101l255 -245l255 245l154 -101l-274 -376z" />
    <glyph glyph-name="Gcircumflex" unicode="&#x11c;" horiz-adv-x="1720" 
d="M1344 0h276v862h-625v-304l160 -1q8 -29 8 -81q0 -73 -57 -115.5t-133 -42.5q-315 0 -315 441q0 63 4 115.5t15 116t33.5 112t56.5 90.5t88 64.5t124 22.5q63 0 110.5 -18.5t76 -47t48.5 -75.5t29.5 -90t16.5 -104h288v678h-315l-44 -62q-128 91 -333 91
q-191 0 -345.5 -68t-253.5 -186t-151.5 -273t-52.5 -333q0 -154 42.5 -286t119.5 -229.5t183 -166.5t235 -104t274 -35q250 0 395 130zM995 2151l274 -376l-154 -101l-255 245l-255 -245l-154 101l273 377z" />
    <glyph glyph-name="gcircumflex" unicode="&#x11d;" horiz-adv-x="1414" 
d="M564 -389q694 0 694 524v626h87v311h-453l-33 -75q-173 93 -325 93q-139 0 -252.5 -78.5t-175 -202t-61.5 -261.5q0 -103 31.5 -196t90.5 -165.5t151 -115.5t204 -43q77 0 153 23.5t134 65.5q0 -64 -17 -105t-54.5 -62.5t-83 -29t-114.5 -7.5q-178 0 -364 68v-309
q13 -7 40.5 -17t128 -27t219.5 -17zM528 532q0 61 11.5 109.5t43.5 83.5t82 35q48 0 82 -38.5t47.5 -90t13.5 -108.5q0 -37 -7.5 -74t-22.5 -71.5t-42.5 -56.5t-62.5 -22q-53 0 -87 37t-46 86.5t-12 109.5zM842 1600l274 -376l-154 -101l-255 245l-255 -245l-154 101
l273 377z" />
    <glyph glyph-name="Gbreve" unicode="&#x11e;" horiz-adv-x="1720" 
d="M1344 0h276v862h-625v-304l160 -1q8 -29 8 -81q0 -73 -57 -115.5t-133 -42.5q-315 0 -315 441q0 63 4 115.5t15 116t33.5 112t56.5 90.5t88 64.5t124 22.5q63 0 110.5 -18.5t76 -47t48.5 -75.5t29.5 -90t16.5 -104h288v678h-315l-44 -62q-128 91 -333 91
q-191 0 -345.5 -68t-253.5 -186t-151.5 -273t-52.5 -333q0 -154 42.5 -286t119.5 -229.5t183 -166.5t235 -104t274 -35q250 0 395 130zM860 1796q-199 0 -301.5 100t-102.5 277h252q0 -76 45 -118.5t107 -42.5t107 42.5t45 118.5h252q0 -176 -103.5 -276.5t-300.5 -100.5z
" />
    <glyph glyph-name="gbreve" unicode="&#x11f;" horiz-adv-x="1414" 
d="M564 -389q694 0 694 524v626h87v311h-453l-33 -75q-173 93 -325 93q-139 0 -252.5 -78.5t-175 -202t-61.5 -261.5q0 -103 31.5 -196t90.5 -165.5t151 -115.5t204 -43q77 0 153 23.5t134 65.5q0 -64 -17 -105t-54.5 -62.5t-83 -29t-114.5 -7.5q-178 0 -364 68v-309
q13 -7 40.5 -17t128 -27t219.5 -17zM528 532q0 61 11.5 109.5t43.5 83.5t82 35q48 0 82 -38.5t47.5 -90t13.5 -108.5q0 -37 -7.5 -74t-22.5 -71.5t-42.5 -56.5t-62.5 -22q-53 0 -87 37t-46 86.5t-12 109.5zM709 1245q-199 0 -301.5 100t-102.5 277h252q0 -76 45 -118.5
t107 -42.5t107 42.5t45 118.5h252q0 -176 -103.5 -276.5t-300.5 -100.5z" />
    <glyph glyph-name="Gdotaccent" unicode="&#x120;" horiz-adv-x="1720" 
d="M1344 0h276v862h-625v-304l160 -1q8 -29 8 -81q0 -73 -57 -115.5t-133 -42.5q-315 0 -315 441q0 63 4 115.5t15 116t33.5 112t56.5 90.5t88 64.5t124 22.5q63 0 110.5 -18.5t76 -47t48.5 -75.5t29.5 -90t16.5 -104h288v678h-315l-44 -62q-128 91 -333 91
q-191 0 -345.5 -68t-253.5 -186t-151.5 -273t-52.5 -333q0 -154 42.5 -286t119.5 -229.5t183 -166.5t235 -104t274 -35q250 0 395 130zM855 1696q-119 0 -198 67.5t-79 182.5q0 113 77.5 179t199.5 66q127 0 207 -66t80 -179q0 -115 -82.5 -182.5t-204.5 -67.5z" />
    <glyph glyph-name="gdotaccent" unicode="&#x121;" horiz-adv-x="1414" 
d="M564 -389q694 0 694 524v626h87v311h-453l-33 -75q-173 93 -325 93q-139 0 -252.5 -78.5t-175 -202t-61.5 -261.5q0 -103 31.5 -196t90.5 -165.5t151 -115.5t204 -43q77 0 153 23.5t134 65.5q0 -64 -17 -105t-54.5 -62.5t-83 -29t-114.5 -7.5q-178 0 -364 68v-309
q13 -7 40.5 -17t128 -27t219.5 -17zM528 532q0 61 11.5 109.5t43.5 83.5t82 35q48 0 82 -38.5t47.5 -90t13.5 -108.5q0 -37 -7.5 -74t-22.5 -71.5t-42.5 -56.5t-62.5 -22q-53 0 -87 37t-46 86.5t-12 109.5zM702 1145q-119 0 -198 67.5t-79 182.5q0 113 77.5 179t199.5 66
q127 0 207 -66t80 -179q0 -115 -82.5 -182.5t-204.5 -67.5z" />
    <glyph glyph-name="Gcommaaccent" unicode="&#x122;" horiz-adv-x="1720" 
d="M1344 0h276v862h-625v-304l160 -1q8 -29 8 -81q0 -73 -57 -115.5t-133 -42.5q-315 0 -315 441q0 63 4 115.5t15 116t33.5 112t56.5 90.5t88 64.5t124 22.5q63 0 110.5 -18.5t76 -47t48.5 -75.5t29.5 -90t16.5 -104h288v678h-315l-44 -62q-128 91 -333 91
q-191 0 -345.5 -68t-253.5 -186t-151.5 -273t-52.5 -333q0 -154 42.5 -286t119.5 -229.5t183 -166.5t235 -104t274 -35q250 0 395 130zM676 -698q45 0 78 6.5t53.5 22t32.5 31.5t17.5 46t6.5 52.5t1 64.5h-189v366h510q24 -154 24 -277q0 -278 -130 -407.5t-404 -129.5v225z
" />
    <glyph glyph-name="gcommaaccent" unicode="&#x123;" horiz-adv-x="1414" 
d="M564 -389q694 0 694 524v626h87v311h-453l-33 -75q-173 93 -325 93q-139 0 -252.5 -78.5t-175 -202t-61.5 -261.5q0 -103 31.5 -196t90.5 -165.5t151 -115.5t204 -43q77 0 153 23.5t134 65.5q0 -64 -17 -105t-54.5 -62.5t-83 -29t-114.5 -7.5q-178 0 -364 68v-309
q13 -7 40.5 -17t128 -27t219.5 -17zM528 532q0 61 11.5 109.5t43.5 83.5t82 35q48 0 82 -38.5t47.5 -90t13.5 -108.5q0 -37 -7.5 -74t-22.5 -71.5t-42.5 -56.5t-62.5 -22q-53 0 -87 37t-46 86.5t-12 109.5zM974 1979q-45 0 -78 -6.5t-53.5 -22t-32.5 -31.5t-17.5 -46
t-6.5 -52.5t-1 -64.5h189v-366h-510q-24 154 -24 277q0 278 130 407.5t404 129.5v-225z" />
    <glyph glyph-name="Hcircumflex" unicode="&#x124;" horiz-adv-x="1908" 
d="M105 359h147v911h-147v353h809v-353h-95v-284h269v284h-88v353h798v-353h-141v-911h147v-359h-800v359h84v276h-269v-276h96l-1 -359h-809v359zM1089 2151l274 -376l-154 -101l-255 245l-255 -245l-154 101l273 377z" />
    <glyph glyph-name="hcircumflex" unicode="&#x125;" horiz-adv-x="1451" 
d="M71 0h653v305h-80v321q0 118 101 118q82 0 83 -125v-619h576v305h-86v397q0 189 -94 288.5t-264 99.5q-35 0 -67.5 -6t-55 -12.5t-50 -23.5t-40.5 -26t-39 -34.5t-33.5 -33.5t-34.5 -38v724h-573v-308h84v-1027h-79zM799 2157l274 -376l-154 -101l-255 245l-255 -245
l-154 101l273 377z" />
    <glyph glyph-name="Hbar" unicode="&#x126;" horiz-adv-x="1908" 
d="M105 359h147v713h-147v100h147v98h-147v353h809v-353h-95v-98h269v98h-88v353h798v-353h-141v-98h140v-100h-140v-713h147v-359h-800v359h84v276h-269v-276h96l-1 -359h-809v359zM1088 986v86h-269v-86h269z" />
    <glyph glyph-name="hbar" unicode="&#x127;" horiz-adv-x="1451" 
d="M72 305h79v828h-84v139h84v60h-84v308h573v-368h175v-139h-175v-217q27 30 34.5 38t33.5 33.5t39 34.5t40.5 26t50 23.5t55 12.5t67.5 6q170 0 264 -99.5t94 -288.5v-397h86v-305h-576v619q-1 125 -83 125q-101 0 -101 -118v-321h80v-305h-653z" />
    <glyph glyph-name="Itilde" unicode="&#x128;" horiz-adv-x="1076" 
d="M972 1270h-147v-911h141v-359h-862v359h147v911h-143v353h864v-353zM714 2074q44 0 80 -19t62 -53.5t45.5 -68.5t43 -79t41.5 -71l-113 -74q-73 70 -100.5 89t-46.5 19q-45 0 -107 -30t-128.5 -60.5t-121.5 -30.5q-45 0 -81 18.5t-62.5 53t-45.5 68t-43 79t-42 71.5
l114 75q76 -73 104 -92.5t46 -19.5q36 0 83 19.5t86 43t90 43t96 19.5z" />
    <glyph glyph-name="itilde" unicode="&#x129;" horiz-adv-x="814" 
d="M661 299h84v-299h-647v299h82v448h-89v325h570v-773zM583 1523q44 0 80 -19t62 -53.5t45.5 -68.5t43 -79t41.5 -71l-113 -74q-73 70 -100.5 89t-46.5 19q-45 0 -107 -30t-128.5 -60.5t-121.5 -30.5q-45 0 -81 18.5t-62.5 53t-45.5 68t-43 79t-42 71.5l114 75
q76 -73 104 -92.5t46 -19.5q36 0 83 19.5t86 43t90 43t96 19.5z" />
    <glyph glyph-name="Imacron" unicode="&#x12a;" horiz-adv-x="1076" 
d="M972 1270h-147v-911h141v-359h-862v359h147v911h-143v353h864v-353zM914 1734h-748v335h748v-335z" />
    <glyph glyph-name="imacron" unicode="&#x12b;" horiz-adv-x="814" 
d="M661 299h84v-299h-647v299h82v448h-89v325h570v-773zM783 1183h-748v335h748v-335z" />
    <glyph glyph-name="Ibreve" unicode="&#x12c;" horiz-adv-x="1076" 
d="M972 1270h-147v-911h141v-359h-862v359h147v911h-143v353h864v-353zM540 1796q-199 0 -301.5 100t-102.5 277h252q0 -76 45 -118.5t107 -42.5t107 42.5t45 118.5h252q0 -176 -103.5 -276.5t-300.5 -100.5z" />
    <glyph glyph-name="ibreve" unicode="&#x12d;" horiz-adv-x="814" 
d="M661 299h84v-299h-647v299h82v448h-89v325h570v-773zM409 1245q-199 0 -301.5 100t-102.5 277h252q0 -76 45 -118.5t107 -42.5t107 42.5t45 118.5h252q0 -176 -103.5 -276.5t-300.5 -100.5z" />
    <glyph glyph-name="Iogonek" unicode="&#x12e;" horiz-adv-x="1076" 
d="M972 1270h-147v-911h141v-359h-862v359h147v911h-143v353h864v-353zM925 0q-29 -60 -67 -121t-55.5 -93.5t-17.5 -56.5q0 -44 45 -72t142 -29v-113h-21q-152 0 -260.5 59t-108.5 141q0 16 5 32t21 44t29 48t48.5 72t59.5 89h180z" />
    <glyph glyph-name="iogonek" unicode="&#x12f;" horiz-adv-x="814" 
d="M661 1072h-570v-311h89v-456h-82v-305h647v305h-84v767zM380 1135q-119 0 -198 67.5t-79 182.5q0 113 77.5 179t199.5 66q127 0 207 -66t80 -179q0 -115 -82.5 -182.5t-204.5 -67.5zM557 0q-29 -60 -67 -121t-55.5 -93.5t-17.5 -56.5q0 -44 45 -72t142 -29v-113h-21
q-152 0 -260.5 59t-108.5 141q0 16 5 32t21 44t29 48t48.5 72t59.5 89h180z" />
    <glyph glyph-name="Idotaccent" unicode="&#x130;" horiz-adv-x="1076" 
d="M972 1270h-147v-911h141v-359h-862v359h147v911h-143v353h864v-353zM535 1696q-119 0 -198 67.5t-79 182.5q0 113 77.5 179t199.5 66q127 0 207 -66t80 -179q0 -115 -82.5 -182.5t-204.5 -67.5z" />
    <glyph glyph-name="dotlessi" unicode="&#x131;" horiz-adv-x="814" 
d="M661 299h84v-299h-647v299h82v448h-89v325h570v-773z" />
    <glyph glyph-name="ij" unicode="&#x133;" horiz-adv-x="1572" 
d="M1455 1072h-1364v-311h89v-456h-82v-305h647v305h-84v455h295v-769q0 -37 -35.5 -52t-71.5 -11l2 -326q173 0 290.5 32t186.5 100t98 163t29 232v943zM380 1135q-119 0 -198 67.5t-79 182.5q0 113 77.5 179t199.5 66q127 0 207 -66t80 -179q0 -115 -82.5 -182.5
t-204.5 -67.5zM1171 1135q-119 0 -198 67.5t-79 182.5q0 113 77.5 179t199.5 66q127 0 207 -66t80 -179q0 -115 -82.5 -182.5t-204.5 -67.5z" />
    <glyph glyph-name="Jcircumflex" unicode="&#x134;" horiz-adv-x="1314" 
d="M30 -13h270l37 92q89 -109 288 -109q234 0 365 137.5t131 367.5v795h147v353h-854v-353h154v-698q0 -110 -27 -158.5t-84 -48.5q-25 0 -45.5 11t-33 26t-21.5 41t-13.5 46t-6.5 52t-2.5 48t-0.5 44h-304v-646zM792 2151l274 -376l-154 -101l-255 245l-255 -245l-154 101
l273 377z" />
    <glyph glyph-name="jcircumflex" unicode="&#x135;" horiz-adv-x="772" 
d="M49 -72q36 -4 71.5 11t35.5 52v769h-90v312h589v-943q0 -137 -29 -232t-98 -163t-186.5 -100t-290.5 -32zM523 1600l274 -376l-154 -101l-255 245l-255 -245l-154 101l273 377z" />
    <glyph glyph-name="Kcommaaccent" unicode="&#x136;" horiz-adv-x="1799" 
d="M105 1622h821v-352h-127v-383l287 383v352l624 1v-353h-137l-319 -406v-14q78 0 138 -12t108.5 -39t74 -76.5t25.5 -120.5v-141q0 -35 18 -68.5t49 -33.5h90l6 -359h-348q-336 0 -336 307v185q0 48 -32 98t-78 50h-170v-281h127l6 -324v-35h-827v359h147v911h-147v352z
M676 -698q45 0 78 6.5t53.5 22t32.5 31.5t17.5 46t6.5 52.5t1 64.5h-189v366h510q24 -154 24 -277q0 -278 -130 -407.5t-404 -129.5v225z" />
    <glyph glyph-name="kcommaaccent" unicode="&#x137;" horiz-adv-x="1413" 
d="M646 438v-438h-577v305h83v1025h-84v304h578v-1047l201 174h-95v311h584v-311h-151l-143 -117v-26l227 -313h115v-305h-453zM453 -698q45 0 78 6.5t53.5 22t32.5 31.5t17.5 46t6.5 52.5t1 64.5h-189v366h510q24 -154 24 -277q0 -278 -130 -407.5t-404 -129.5v225z" />
    <glyph glyph-name="Lacute" unicode="&#x139;" horiz-adv-x="1421" 
d="M818 359h191l87 350h286v-709h-1273l-1 359h143v911h-147v352h868v-352h-154v-911zM1039 1994l-554 -313l-104 141l474 437z" />
    <glyph glyph-name="lacute" unicode="&#x13a;" horiz-adv-x="794" 
d="M644 305h78v-305h-647v305h74v1012h-84v313h579v-1325zM728 1997l-554 -313l-104 141l474 437z" />
    <glyph glyph-name="Lcommaaccent" unicode="&#x13b;" horiz-adv-x="1421" 
d="M818 359h191l87 350h286v-709h-1273l-1 359h143v911h-147v352h868v-352h-154v-911zM461 -698q45 0 78 6.5t53.5 22t32.5 31.5t17.5 46t6.5 52.5t1 64.5h-189v366h510q24 -154 24 -277q0 -278 -130 -407.5t-404 -129.5v225z" />
    <glyph glyph-name="lcommaaccent" unicode="&#x13c;" horiz-adv-x="794" 
d="M644 305h78v-305h-647v305h74v1012h-84v313h579v-1325zM137 -698q45 0 78 6.5t53.5 22t32.5 31.5t17.5 46t6.5 52.5t1 64.5h-189v366h510q24 -154 24 -277q0 -278 -130 -407.5t-404 -129.5v225z" />
    <glyph glyph-name="Lcaron" unicode="&#x13d;" horiz-adv-x="1421" 
d="M818 359h191l87 350h286v-709h-1273l-1 359h143v911h-147v352h868v-352h-154v-911zM994 1464q45 0 78 6.5t53.5 22t32.5 31.5t17.5 46t6.5 52.5t1 64.5h-189v366h510q24 -155 24 -277q0 -278 -130 -407.5t-404 -129.5v225z" />
    <glyph glyph-name="lcaron" unicode="&#x13e;" horiz-adv-x="1443" 
d="M644 305h78v-305h-647v305h74v1012h-84v313h579v-1325zM863 1034q45 0 78 6.5t53.5 22t32.5 31.5t17.5 46t6.5 52.5t1 64.5h-189v366h510q24 -155 24 -277q0 -278 -130 -407.5t-404 -129.5v225z" />
    <glyph glyph-name="Ldot" unicode="&#x13f;" horiz-adv-x="1421" 
d="M818 359h191l87 350h286v-709h-1273l-1 359h143v911h-147v352h868v-352h-154v-911zM1136 757q-119 0 -198 67.5t-79 182.5q0 113 77.5 179t199.5 66q127 0 207 -66t80 -179q0 -115 -82.5 -182.5t-204.5 -67.5z" />
    <glyph glyph-name="ldot" unicode="&#x140;" horiz-adv-x="1290" 
d="M644 305h78v-305h-647v305h74v1012h-84v313h579v-1325zM945 514q-119 0 -198 67.5t-79 182.5q0 113 77.5 179t199.5 66q127 0 207 -66t80 -179q0 -115 -82.5 -182.5t-204.5 -67.5z" />
    <glyph glyph-name="Lslash" unicode="&#x141;" horiz-adv-x="1422" 
d="M819 359h191l87 350h286v-709h-1273l-1 359h143v911h-147v352h868v-352h-154v-911zM943 1160l99 -179l-868 -503l-100 178z" />
    <glyph glyph-name="lslash" unicode="&#x142;" horiz-adv-x="794" 
d="M644 305h78v-305h-647v305h74v1012h-84v313h579v-1325zM725 1153l99 -179l-751 -434l-100 178z" />
    <glyph glyph-name="Nacute" unicode="&#x143;" horiz-adv-x="1874" 
d="M1814 1622l-637 1v-353q39 1 68 -4t45.5 -18.5t26.5 -26t13.5 -35t4 -34.5t0.5 -36v-469l-496 976h-735v-351h157v-722q0 -38 -2 -60t-10.5 -50.5t-25 -43.5t-48 -26t-77.5 -11v-359h637v359q-85 0 -121.5 33t-36.5 115v401l473 -908h606v1118q0 74 36.5 113t121.5 39
v352zM1266 1994l-554 -313l-104 141l474 437z" />
    <glyph glyph-name="nacute" unicode="&#x144;" horiz-adv-x="1483" 
d="M661 1072h-563v-311h76v-456h-83v-305h658v305h-88v319q0 47 28.5 80t75.5 33q36 0 63 -31t27 -79v-627h574v305h-80v375q0 412 -330 412q-118 0 -210.5 -45.5t-147.5 -130.5v156zM1070 1443l-554 -313l-104 141l474 437z" />
    <glyph glyph-name="Ncommaaccent" unicode="&#x145;" horiz-adv-x="1874" 
d="M1814 1622l-637 1v-353q39 1 68 -4t45.5 -18.5t26.5 -26t13.5 -35t4 -34.5t0.5 -36v-469l-496 976h-735v-351h157v-722q0 -38 -2 -60t-10.5 -50.5t-25 -43.5t-48 -26t-77.5 -11v-359h637v359q-85 0 -121.5 33t-36.5 115v401l473 -908h606v1118q0 74 36.5 113t121.5 39
v352zM676 -698q45 0 78 6.5t53.5 22t32.5 31.5t17.5 46t6.5 52.5t1 64.5h-189v366h510q24 -154 24 -277q0 -278 -130 -407.5t-404 -129.5v225z" />
    <glyph glyph-name="ncommaaccent" unicode="&#x146;" horiz-adv-x="1483" 
d="M661 1072h-563v-311h76v-456h-83v-305h658v305h-88v319q0 47 28.5 80t75.5 33q36 0 63 -31t27 -79v-627h574v305h-80v375q0 412 -330 412q-118 0 -210.5 -45.5t-147.5 -130.5v156zM529 -698q45 0 78 6.5t53.5 22t32.5 31.5t17.5 46t6.5 52.5t1 64.5h-189v366h510
q24 -154 24 -277q0 -278 -130 -407.5t-404 -129.5v225z" />
    <glyph glyph-name="Ncaron" unicode="&#x147;" horiz-adv-x="1874" 
d="M1814 1622l-637 1v-353q39 1 68 -4t45.5 -18.5t26.5 -26t13.5 -35t4 -34.5t0.5 -36v-469l-496 976h-735v-351h157v-722q0 -38 -2 -60t-10.5 -50.5t-25 -43.5t-48 -26t-77.5 -11v-359h637v359q-85 0 -121.5 33t-36.5 115v401l473 -908h606v1118q0 74 36.5 113t121.5 39
v352zM801 1700l-273 377l154 101l255 -245l255 245l154 -101l-274 -376z" />
    <glyph glyph-name="ncaron" unicode="&#x148;" horiz-adv-x="1483" 
d="M661 1072h-563v-311h76v-456h-83v-305h658v305h-88v319q0 47 28.5 80t75.5 33q36 0 63 -31t27 -79v-627h574v305h-80v375q0 412 -330 412q-118 0 -210.5 -45.5t-147.5 -130.5v156zM605 1149l-273 377l154 101l255 -245l255 245l154 -101l-274 -376z" />
    <glyph glyph-name="napostrophe" unicode="&#x149;" horiz-adv-x="1483" 
d="M661 1072h-563v-311h76v-456h-83v-305h658v305h-88v319q0 47 28.5 80t75.5 33q36 0 63 -31t27 -79v-627h574v305h-80v375q0 412 -330 412q-118 0 -210.5 -45.5t-147.5 -130.5v156zM99 1349q45 0 78 6.5t53.5 22t32.5 31.5t17.5 46t6.5 52.5t1 64.5h-189v366h510
q24 -154 24 -277q0 -278 -130 -407.5t-404 -129.5v225z" />
    <glyph glyph-name="Eng" unicode="&#x14a;" horiz-adv-x="1874" 
d="M565 -124h304l3 -32q2 -21 8 -42.5t19 -39t35.5 -29.5t57.5 -15q57 0 84 48.5t27 158.5l-53 125l-473 858v-401q0 -82 36.5 -115t121.5 -33v-359h-637v359q71 3 105 22t45 58q9 29 11 51t2 60v722h-157v351h735l496 -976v469v20.5t-0.5 16t-1.5 15t-3 18.5q-3 24 -13 35
q-14 21 -47 37t-93 12v353l637 -1v-352q-85 0 -121.5 -38.5t-36.5 -113.5v-1290q0 -230 -131 -367q-131 -138 -365 -138q-200 0 -288 109l-37 -92h-270v536z" />
    <glyph glyph-name="eng" unicode="&#x14b;" horiz-adv-x="1483" 
d="M743 -108q36 -4 71.5 11t40.5 52v672q0 48 -27 79t-63 31q-47 0 -75.5 -33t-28.5 -80v-319h88v-305h-658v305h83v456h-76v311h563v-156q55 85 147.5 130.5t210.5 45.5q330 0 330 -412v-587q0 -137 -29 -232t-98 -163t-186.5 -100t-290.5 -32z" />
    <glyph glyph-name="Omacron" unicode="&#x14c;" horiz-adv-x="1744" 
d="M1692 808q0 -235 -107.5 -427t-295.5 -301t-417 -109t-417 109t-295.5 301t-107.5 427q0 258 107.5 451.5t292 293.5t422.5 100q234 0 418.5 -100t292 -293.5t107.5 -451.5zM872 319q39 0 70 13t52.5 36t37.5 54t25 67.5t15 75.5t7.5 78.5t2.5 77.5t0 72v30v35
q-1 36 0 76t-3.5 82.5t-11 82.5t-22.5 76t-37.5 63t-56.5 42.5t-79 15.5q-39 0 -70.5 -12t-52.5 -33.5t-37.5 -50t-25 -62t-15 -70t-7.5 -73t-2.5 -71.5t0.5 -66v-35v-30q1 -30 0 -63t1.5 -68.5t5.5 -70.5t10.5 -69t17.5 -64t26 -55.5t36.5 -44t49.5 -29t63 -10.5z
M1246 1734h-748v335h748v-335z" />
    <glyph glyph-name="omacron" unicode="&#x14d;" horiz-adv-x="1290" 
d="M43 547q0 260 161 402t440 142q281 0 442 -142t161 -402q0 -175 -76.5 -304t-212 -195t-313.5 -66t-313.5 66t-212 195t-76.5 304zM508 545q0 -251 137 -251t137 251q0 51 -4.5 86.5t-17.5 72.5t-42 56t-73 19t-73 -19t-42 -56t-17.5 -72.5t-4.5 -86.5zM1019 1183h-748
v335h748v-335z" />
    <glyph glyph-name="Obreve" unicode="&#x14e;" horiz-adv-x="1744" 
d="M1692 808q0 -235 -107.5 -427t-295.5 -301t-417 -109t-417 109t-295.5 301t-107.5 427q0 258 107.5 451.5t292 293.5t422.5 100q234 0 418.5 -100t292 -293.5t107.5 -451.5zM872 319q39 0 70 13t52.5 36t37.5 54t25 67.5t15 75.5t7.5 78.5t2.5 77.5t0 72v30v35
q-1 36 0 76t-3.5 82.5t-11 82.5t-22.5 76t-37.5 63t-56.5 42.5t-79 15.5q-39 0 -70.5 -12t-52.5 -33.5t-37.5 -50t-25 -62t-15 -70t-7.5 -73t-2.5 -71.5t0.5 -66v-35v-30q1 -30 0 -63t1.5 -68.5t5.5 -70.5t10.5 -69t17.5 -64t26 -55.5t36.5 -44t49.5 -29t63 -10.5zM872 1796
q-199 0 -301.5 100t-102.5 277h252q0 -76 45 -118.5t107 -42.5t107 42.5t45 118.5h252q0 -176 -103.5 -276.5t-300.5 -100.5z" />
    <glyph glyph-name="obreve" unicode="&#x14f;" horiz-adv-x="1290" 
d="M43 547q0 260 161 402t440 142q281 0 442 -142t161 -402q0 -175 -76.5 -304t-212 -195t-313.5 -66t-313.5 66t-212 195t-76.5 304zM508 545q0 -251 137 -251t137 251q0 51 -4.5 86.5t-17.5 72.5t-42 56t-73 19t-73 -19t-42 -56t-17.5 -72.5t-4.5 -86.5zM647 1245
q-199 0 -301.5 100t-102.5 277h252q0 -76 45 -118.5t107 -42.5t107 42.5t45 118.5h252q0 -176 -103.5 -276.5t-300.5 -100.5z" />
    <glyph glyph-name="Ohungarumlaut" unicode="&#x150;" horiz-adv-x="1744" 
d="M1692 808q0 -235 -107.5 -427t-295.5 -301t-417 -109t-417 109t-295.5 301t-107.5 427q0 258 107.5 451.5t292 293.5t422.5 100q234 0 418.5 -100t292 -293.5t107.5 -451.5zM872 319q39 0 70 13t52.5 36t37.5 54t25 67.5t15 75.5t7.5 78.5t2.5 77.5t0 72v30v35
q-1 36 0 76t-3.5 82.5t-11 82.5t-22.5 76t-37.5 63t-56.5 42.5t-79 15.5q-39 0 -70.5 -12t-52.5 -33.5t-37.5 -50t-25 -62t-15 -70t-7.5 -73t-2.5 -71.5t0.5 -66v-35v-30q1 -30 0 -63t1.5 -68.5t5.5 -70.5t10.5 -69t17.5 -64t26 -55.5t36.5 -44t49.5 -29t63 -10.5zM924 2246
l-288 -567l-165 60l153 626zM1378 2155l-423 -475l-144 99l307 567z" />
    <glyph glyph-name="ohungarumlaut" unicode="&#x151;" horiz-adv-x="1290" 
d="M43 547q0 260 161 402t440 142q281 0 442 -142t161 -402q0 -175 -76.5 -304t-212 -195t-313.5 -66t-313.5 66t-212 195t-76.5 304zM508 545q0 -251 137 -251t137 251q0 51 -4.5 86.5t-17.5 72.5t-42 56t-73 19t-73 -19t-42 -56t-17.5 -72.5t-4.5 -86.5zM794 1695
l-288 -567l-165 60l153 626zM1248 1604l-423 -475l-144 99l307 567z" />
    <glyph glyph-name="OE" unicode="&#x152;" horiz-adv-x="2329" 
d="M896 0q-382 0 -610.5 216.5t-229.5 576.5q0 238 103.5 424t294 289.5t436.5 103.5h1315v-653l-268 -1l-76 302h-213v-270h205v-352h-205v-286h219l13 70l63 267h273v-687h-1320zM673 755q0 -52 1.5 -88.5t6.5 -82t14 -76.5t25.5 -63.5t39.5 -51.5t57.5 -31t78.5 -12h199
v907h-210q-52 0 -91 -18t-61 -49t-36.5 -73t-18 -91t-6 -102.5t0.5 -106.5v-62z" />
    <glyph glyph-name="oe" unicode="&#x153;" horiz-adv-x="1927" 
d="M646 -26q-178 0 -313.5 66t-212 195t-76.5 304q0 260 161 402t441 142q66 0 127 -13t100.5 -31t70 -36t44.5 -31l14 -13q4 5 12 13.5t37 30t63.5 37.5t92.5 29.5t123 13.5q172 0 299 -73.5t189.5 -193.5t62.5 -270q0 -34 -5 -79q-10 -23 -16 -26q-5 -2 -21 -2h-602
q0 -93 47.5 -159.5t129.5 -66.5q72 0 105 35t35 108h307v-238q-133 -80 -260 -113t-287 -32q-59 0 -113.5 14.5t-90 35t-62.5 41t-40 34.5l-12 15q-5 -6 -14 -15t-41.5 -33t-70 -42.5t-98 -33.5t-126.5 -15zM509 537q0 -211 137 -211t137 211q0 42 -4.5 71.5t-17.5 60
t-42 46.5t-73 16t-73 -16t-42 -46.5t-17.5 -60t-4.5 -71.5zM1239 647v-29h215q1 35 -1.5 61t-11.5 58.5t-33 50t-61 17.5q-54 0 -81 -48.5t-27 -109.5z" />
    <glyph glyph-name="Racute" unicode="&#x154;" horiz-adv-x="1765" 
d="M912 359h-121v335h98q60 0 98 -17t56.5 -52.5t25 -75t6.5 -98.5v-195q0 -41 8 -75.5t20 -59.5t33.5 -44.5t41 -32t51 -21.5t54.5 -13.5t60.5 -6.5t60 -2.5t61.5 -0.5h262v359q-56 0 -89.5 6.5t-49.5 22t-20.5 32.5t-4.5 46v93q0 92 -64 153t-213 95q172 32 265.5 125
t93.5 238q0 123 -37 211.5t-108.5 141t-166 76.5t-217.5 24h-1015v-353h155v-911h-154v-360q546 1 810 1v359zM785 920v350h121q89 0 139.5 -47.5t50.5 -126.5q0 -50 -21 -86t-58 -55t-78.5 -27t-92.5 -8h-61zM1211 1994l-554 -313l-104 141l474 437z" />
    <glyph glyph-name="racute" unicode="&#x155;" horiz-adv-x="1000" 
d="M94 1072h543v-163l4 -4q49 84 141 131t191 47v-416l-106 7q-110 0 -173 -63.5t-63 -184.5v-121h137v-305h-674v305h79v456h-79v311zM831 1443l-554 -313l-104 141l474 437z" />
    <glyph glyph-name="Rcommaaccent" unicode="&#x156;" horiz-adv-x="1765" 
d="M912 359h-121v335h98q60 0 98 -17t56.5 -52.5t25 -75t6.5 -98.5v-195q0 -41 8 -75.5t20 -59.5t33.5 -44.5t41 -32t51 -21.5t54.5 -13.5t60.5 -6.5t60 -2.5t61.5 -0.5h262v359q-56 0 -89.5 6.5t-49.5 22t-20.5 32.5t-4.5 46v93q0 92 -64 153t-213 95q172 32 265.5 125
t93.5 238q0 123 -37 211.5t-108.5 141t-166 76.5t-217.5 24h-1015v-353h155v-911h-154v-360q546 1 810 1v359zM785 920v350h121q89 0 139.5 -47.5t50.5 -126.5q0 -50 -21 -86t-58 -55t-78.5 -27t-92.5 -8h-61zM676 -698q45 0 78 6.5t53.5 22t32.5 31.5t17.5 46t6.5 52.5
t1 64.5h-189v366h510q24 -154 24 -277q0 -278 -130 -407.5t-404 -129.5v225z" />
    <glyph glyph-name="rcommaaccent" unicode="&#x157;" horiz-adv-x="1000" 
d="M94 1072h543v-163l4 -4q49 84 141 131t191 47v-416l-106 7q-110 0 -173 -63.5t-63 -184.5v-121h137v-305h-674v305h79v456h-79v311zM172 -698q45 0 78 6.5t53.5 22t32.5 31.5t17.5 46t6.5 52.5t1 64.5h-189v366h510q24 -154 24 -277q0 -278 -130 -407.5t-404 -129.5v225z
" />
    <glyph glyph-name="Rcaron" unicode="&#x158;" horiz-adv-x="1765" 
d="M912 359h-121v335h98q60 0 98 -17t56.5 -52.5t25 -75t6.5 -98.5v-195q0 -41 8 -75.5t20 -59.5t33.5 -44.5t41 -32t51 -21.5t54.5 -13.5t60.5 -6.5t60 -2.5t61.5 -0.5h262v359q-56 0 -89.5 6.5t-49.5 22t-20.5 32.5t-4.5 46v93q0 92 -64 153t-213 95q172 32 265.5 125
t93.5 238q0 123 -37 211.5t-108.5 141t-166 76.5t-217.5 24h-1015v-353h155v-911h-154v-360q546 1 810 1v359zM785 920v350h121q89 0 139.5 -47.5t50.5 -126.5q0 -50 -21 -86t-58 -55t-78.5 -27t-92.5 -8h-61zM746 1700l-273 377l154 101l255 -245l255 245l154 -101
l-274 -376z" />
    <glyph glyph-name="rcaron" unicode="&#x159;" horiz-adv-x="1000" 
d="M94 1072h543v-163l4 -4q49 84 141 131t191 47v-416l-106 7q-110 0 -173 -63.5t-63 -184.5v-121h137v-305h-674v305h79v456h-79v311zM366 1149l-273 377l154 101l255 -245l255 245l154 -101l-274 -376z" />
    <glyph glyph-name="Sacute" unicode="&#x15a;" horiz-adv-x="1329" 
d="M874 1623q-28 -48 -32 -60q-119 90 -312 90q-223 0 -339.5 -141t-116.5 -379q0 -66 9.5 -123t25.5 -103t42 -86.5t55 -71.5t69 -59t78.5 -48.5t89.5 -40.5t96 -34.5t104 -31.5q37 -10 62 -21t47 -35.5t22 -58.5q0 -41 -32.5 -63.5t-76.5 -22.5q-73 0 -140 55.5t-93 128.5
h-322v-518h323l36 92q78 -66 149.5 -93.5t179.5 -27.5q105 0 196.5 45.5t153 120.5t96 172t32.5 199q-2 104 -28.5 188.5t-69.5 141t-98 100t-115.5 70t-121 47.5t-115 36.5t-96.5 31.5t-66.5 38t-24.5 52q0 46 25 69t69 23q75 0 137 -60t80 -138h307v516h-285zM993 1994
l-554 -313l-104 141l474 437z" />
    <glyph glyph-name="sacute" unicode="&#x15b;" horiz-adv-x="1055" 
d="M976 761v320h-168l-27 -48q-10 7 -30 16.5t-96 26t-168 16.5q-121 0 -211.5 -35t-145.5 -114.5t-55 -196.5q0 -77 27.5 -135t71 -92t96 -58.5t105.5 -41.5t96.5 -33t71 -40.5t27.5 -58.5q0 -38 -33.5 -58t-74.5 -20q-66 0 -112 54.5t-58 123.5h-221l-7 -378h177l36 67
q100 -94 308 -94q203 0 307 105t104 308q0 226 -241 324q-14 5 -61 17t-82 23t-65 34t-30 53q0 35 27.5 54.5t64.5 19.5q34 0 69 -18t54 -46q4 -5 15 -29t20 -45l8 -21h201zM856 1443l-554 -313l-104 141l474 437z" />
    <glyph glyph-name="Scircumflex" unicode="&#x15c;" horiz-adv-x="1329" 
d="M874 1623q-28 -48 -32 -60q-119 90 -312 90q-223 0 -339.5 -141t-116.5 -379q0 -66 9.5 -123t25.5 -103t42 -86.5t55 -71.5t69 -59t78.5 -48.5t89.5 -40.5t96 -34.5t104 -31.5q37 -10 62 -21t47 -35.5t22 -58.5q0 -41 -32.5 -63.5t-76.5 -22.5q-73 0 -140 55.5t-93 128.5
h-322v-518h323l36 92q78 -66 149.5 -93.5t179.5 -27.5q105 0 196.5 45.5t153 120.5t96 172t32.5 199q-2 104 -28.5 188.5t-69.5 141t-98 100t-115.5 70t-121 47.5t-115 36.5t-96.5 31.5t-66.5 38t-24.5 52q0 46 25 69t69 23q75 0 137 -60t80 -138h307v516h-285zM799 2151
l274 -376l-154 -101l-255 245l-255 -245l-154 101l273 377z" />
    <glyph glyph-name="scircumflex" unicode="&#x15d;" horiz-adv-x="1055" 
d="M976 761v320h-168l-27 -48q-10 7 -30 16.5t-96 26t-168 16.5q-121 0 -211.5 -35t-145.5 -114.5t-55 -196.5q0 -77 27.5 -135t71 -92t96 -58.5t105.5 -41.5t96.5 -33t71 -40.5t27.5 -58.5q0 -38 -33.5 -58t-74.5 -20q-66 0 -112 54.5t-58 123.5h-221l-7 -378h177l36 67
q100 -94 308 -94q203 0 307 105t104 308q0 226 -241 324q-14 5 -61 17t-82 23t-65 34t-30 53q0 35 27.5 54.5t64.5 19.5q34 0 69 -18t54 -46q4 -5 15 -29t20 -45l8 -21h201zM662 1600l274 -376l-154 -101l-255 245l-255 -245l-154 101l273 377z" />
    <glyph glyph-name="Scedilla" unicode="&#x15e;" horiz-adv-x="1329" 
d="M874 1623q-28 -48 -32 -60q-119 90 -312 90q-223 0 -339.5 -141t-116.5 -379q0 -66 9.5 -123t25.5 -103t42 -86.5t55 -71.5t69 -59t78.5 -48.5t89.5 -40.5t96 -34.5t104 -31.5q37 -10 62 -21t47 -35.5t22 -58.5q0 -41 -32.5 -63.5t-76.5 -22.5q-73 0 -140 55.5t-93 128.5
h-322v-518h323l36 92q78 -66 149.5 -93.5t179.5 -27.5q105 0 196.5 45.5t153 120.5t96 172t32.5 199q-2 104 -28.5 188.5t-69.5 141t-98 100t-115.5 70t-121 47.5t-115 36.5t-96.5 31.5t-66.5 38t-24.5 52q0 46 25 69t69 23q75 0 137 -60t80 -138h307v516h-285zM546 0h180
v-119q133 -77 133 -166q0 -82 -108.5 -141t-260.5 -59h-21v113q97 1 142 29t45 72q0 40 -32 83t-78 69v119z" />
    <glyph glyph-name="scedilla" unicode="&#x15f;" horiz-adv-x="1055" 
d="M976 761v320h-168l-27 -48q-10 7 -30 16.5t-96 26t-168 16.5q-121 0 -211.5 -35t-145.5 -114.5t-55 -196.5q0 -77 27.5 -135t71 -92t96 -58.5t105.5 -41.5t96.5 -33t71 -40.5t27.5 -58.5q0 -38 -33.5 -58t-74.5 -20q-66 0 -112 54.5t-58 123.5h-221l-7 -378h177l36 67
q100 -94 308 -94q203 0 307 105t104 308q0 226 -241 324q-14 5 -61 17t-82 23t-65 34t-30 53q0 35 27.5 54.5t64.5 19.5q34 0 69 -18t54 -46q4 -5 15 -29t20 -45l8 -21h201zM409 0h180v-119q133 -77 133 -166q0 -82 -108.5 -141t-260.5 -59h-21v113q97 1 142 29t45 72
q0 40 -32 83t-78 69v119z" />
    <glyph glyph-name="Scaron" unicode="&#x160;" horiz-adv-x="1329" 
d="M874 1623q-28 -48 -32 -60q-119 90 -312 90q-223 0 -339.5 -141t-116.5 -379q0 -66 9.5 -123t25.5 -103t42 -86.5t55 -71.5t69 -59t78.5 -48.5t89.5 -40.5t96 -34.5t104 -31.5q37 -10 62 -21t47 -35.5t22 -58.5q0 -41 -32.5 -63.5t-76.5 -22.5q-73 0 -140 55.5t-93 128.5
h-322v-518h323l36 92q78 -66 149.5 -93.5t179.5 -27.5q105 0 196.5 45.5t153 120.5t96 172t32.5 199q-2 104 -28.5 188.5t-69.5 141t-98 100t-115.5 70t-121 47.5t-115 36.5t-96.5 31.5t-66.5 38t-24.5 52q0 46 25 69t69 23q75 0 137 -60t80 -138h307v516h-285zM535 1711
l-273 377l154 101l255 -245l255 245l154 -101l-274 -376z" />
    <glyph glyph-name="scaron" unicode="&#x161;" horiz-adv-x="1055" 
d="M976 761v320h-168l-27 -48q-10 7 -30 16.5t-96 26t-168 16.5q-121 0 -211.5 -35t-145.5 -114.5t-55 -196.5q0 -77 27.5 -135t71 -92t96 -58.5t105.5 -41.5t96.5 -33t71 -40.5t27.5 -58.5q0 -38 -33.5 -58t-74.5 -20q-66 0 -112 54.5t-58 123.5h-221l-7 -378h177l36 67
q100 -94 308 -94q203 0 307 105t104 308q0 226 -241 324q-14 5 -61 17t-82 23t-65 34t-30 53q0 35 27.5 54.5t64.5 19.5q34 0 69 -18t54 -46q4 -5 15 -29t20 -45l8 -21h201zM394 1149l-273 377l154 101l255 -245l255 245l154 -101l-274 -376z" />
    <glyph glyph-name="Tcommaaccent" unicode="&#x162;" horiz-adv-x="1531" 
d="M1213 965l-62 305h-106v-910h164v-360h-891v360h164v910h-100l-64 -305h-281v657h1457v-657h-281zM372 -674q45 0 78 6.5t53.5 22t32.5 31.5t17.5 46t6.5 52.5t1 64.5h-189v366h510q24 -154 24 -277q0 -278 -130 -407.5t-404 -129.5v225z" />
    <glyph glyph-name="tcommaaccent" unicode="&#x163;" horiz-adv-x="875" 
d="M839 49l-37 -17q-37 -17 -114 -33.5t-157 -16.5q-382 0 -380 403l1 376h-108v311h103v229l487 105v-334h152v-311h-152l-1 -323q0 -39 21 -71.5t77 -32.5q45 0 108 14v-299zM240 -674q45 0 78 6.5t53.5 22t32.5 31.5t17.5 46t6.5 52.5t1 64.5h-189v366h510
q24 -154 24 -277q0 -278 -130 -407.5t-404 -129.5v225z" />
    <glyph glyph-name="Tcaron" unicode="&#x164;" horiz-adv-x="1535" 
d="M1215 965l-62 305h-106v-910h164v-360h-891v360h164v910h-100l-64 -305h-281v657h1457v-657h-281zM631 1700l-273 377l154 101l255 -245l255 245l154 -101l-274 -376z" />
    <glyph glyph-name="tcaron" unicode="&#x165;" horiz-adv-x="1540" 
d="M837 348q-63 -14 -108 -14q-56 0 -77 32.5t-21 71.5l1 323h152v311h-152v334l-487 -105v-229h-103v-311h108l-1 -376q-2 -403 380 -403q80 0 157 16.5t114 33.5l37 17v299zM960 1034q45 0 78 6.5t53.5 22t32.5 31.5t17.5 46t6.5 52.5t1 64.5h-189v366h510
q24 -155 24 -277q0 -278 -130 -407.5t-404 -129.5v225z" />
    <glyph glyph-name="Tbar" unicode="&#x166;" horiz-adv-x="1535" 
d="M1215 965l-62 305h-106v-415h94v-215h-94v-280h164v-360h-891v360h164v280h-91v215h91v415h-100l-64 -305h-281v657h1457v-657h-281z" />
    <glyph glyph-name="tbar" unicode="&#x167;" horiz-adv-x="873" 
d="M837 49l-37 -17q-37 -17 -114 -33.5t-157 -16.5q-382 0 -380 403v81h-108v211h108l1 84h-108v311h103v229l487 105v-334h152v-311h-152l-1 -84h149v-211h-149v-28q0 -39 21 -71.5t77 -32.5q45 0 108 14v-299z" />
    <glyph glyph-name="Utilde" unicode="&#x168;" 
d="M1485 1270h154v352h-654v-352h164v-734q0 -88 -52 -139t-144 -51q-52 0 -90.5 22t-59 59.5t-30 80.5t-9.5 92v670h148v352h-869v-352h161v-566q0 -88 7.5 -163t27 -151t50.5 -137t80 -115t113.5 -90t153.5 -56.5t198 -20.5q171 0 319 68t240 195.5t92 285.5v750z
M1015 2074q44 0 80 -19t62 -53.5t45.5 -68.5t43 -79t41.5 -71l-113 -74q-73 70 -100.5 89t-46.5 19q-45 0 -107 -30t-128.5 -60.5t-121.5 -30.5q-45 0 -81 18.5t-62.5 53t-45.5 68t-43 79t-42 71.5l114 75q76 -73 104 -92.5t46 -19.5q36 0 83 19.5t86 43t90 43t96 19.5z" />
    <glyph glyph-name="utilde" unicode="&#x169;" horiz-adv-x="1465" 
d="M821 156q-55 -85 -147.5 -129.5t-210.5 -44.5q-330 0 -330 403v376h-80v311h574v-634q0 -53 27 -86.5t63 -33.5q47 0 75.5 34.5t28.5 85.5v323h-81v311h575v-767h76v-305h-570v156zM906 1523q44 0 80 -19t62 -53.5t45.5 -68.5t43 -79t41.5 -71l-113 -74q-73 70 -100.5 89
t-46.5 19q-45 0 -107 -30t-128.5 -60.5t-121.5 -30.5q-45 0 -81 18.5t-62.5 53t-45.5 68t-43 79t-42 71.5l114 75q76 -73 104 -92.5t46 -19.5q36 0 83 19.5t86 43t90 43t96 19.5z" />
    <glyph glyph-name="Umacron" unicode="&#x16a;" 
d="M1485 1270h154v352h-654v-352h164v-734q0 -88 -52 -139t-144 -51q-52 0 -90.5 22t-59 59.5t-30 80.5t-9.5 92v670h148v352h-869v-352h161v-566q0 -88 7.5 -163t27 -151t50.5 -137t80 -115t113.5 -90t153.5 -56.5t198 -20.5q171 0 319 68t240 195.5t92 285.5v750z
M1215 1734h-748v335h748v-335z" />
    <glyph glyph-name="umacron" unicode="&#x16b;" horiz-adv-x="1465" 
d="M821 156q-55 -85 -147.5 -129.5t-210.5 -44.5q-330 0 -330 403v376h-80v311h574v-634q0 -53 27 -86.5t63 -33.5q47 0 75.5 34.5t28.5 85.5v323h-81v311h575v-767h76v-305h-570v156zM1106 1183h-748v335h748v-335z" />
    <glyph glyph-name="Ubreve" unicode="&#x16c;" 
d="M1485 1270h154v352h-654v-352h164v-734q0 -88 -52 -139t-144 -51q-52 0 -90.5 22t-59 59.5t-30 80.5t-9.5 92v670h148v352h-869v-352h161v-566q0 -88 7.5 -163t27 -151t50.5 -137t80 -115t113.5 -90t153.5 -56.5t198 -20.5q171 0 319 68t240 195.5t92 285.5v750z
M841 1796q-199 0 -301.5 100t-102.5 277h252q0 -76 45 -118.5t107 -42.5t107 42.5t45 118.5h252q0 -176 -103.5 -276.5t-300.5 -100.5z" />
    <glyph glyph-name="ubreve" unicode="&#x16d;" horiz-adv-x="1465" 
d="M821 156q-55 -85 -147.5 -129.5t-210.5 -44.5q-330 0 -330 403v376h-80v311h574v-634q0 -53 27 -86.5t63 -33.5q47 0 75.5 34.5t28.5 85.5v323h-81v311h575v-767h76v-305h-570v156zM735 1245q-199 0 -301.5 100t-102.5 277h252q0 -76 45 -118.5t107 -42.5t107 42.5
t45 118.5h252q0 -176 -103.5 -276.5t-300.5 -100.5z" />
    <glyph glyph-name="Uring" unicode="&#x16e;" 
d="M1485 1270h154v352h-654v-352h164v-734q0 -88 -52 -139t-144 -51q-52 0 -90.5 22t-59 59.5t-30 80.5t-9.5 92v670h148v352h-869v-352h161v-566q0 -88 7.5 -163t27 -151t50.5 -137t80 -115t113.5 -90t153.5 -56.5t198 -20.5q171 0 319 68t240 195.5t92 285.5v750z
M837 1791q77 0 121 44t44 104q0 59 -43.5 102t-121.5 43q-76 0 -118.5 -43t-42.5 -102q0 -60 43 -104t118 -44zM837 1689q-127 0 -199 75t-72 176q0 99 71 171.5t200 72.5q133 0 206.5 -72t73.5 -172q0 -101 -74.5 -176t-205.5 -75z" />
    <glyph glyph-name="uring" unicode="&#x16f;" horiz-adv-x="1465" 
d="M821 156q-55 -85 -147.5 -129.5t-210.5 -44.5q-330 0 -330 403v376h-80v311h574v-634q0 -53 27 -86.5t63 -33.5q47 0 75.5 34.5t28.5 85.5v323h-81v311h575v-767h76v-305h-570v156zM728 1240q77 0 121 44t44 104q0 59 -43.5 102t-121.5 43q-76 0 -118.5 -43t-42.5 -102
q0 -60 43 -104t118 -44zM728 1138q-127 0 -199 75t-72 176q0 99 71 171.5t200 72.5q133 0 206.5 -72t73.5 -172q0 -101 -74.5 -176t-205.5 -75z" />
    <glyph glyph-name="Uhungarumlaut" unicode="&#x170;" 
d="M1485 1270h154v352h-654v-352h164v-734q0 -88 -52 -139t-144 -51q-52 0 -90.5 22t-59 59.5t-30 80.5t-9.5 92v670h148v352h-869v-352h161v-566q0 -88 7.5 -163t27 -151t50.5 -137t80 -115t113.5 -90t153.5 -56.5t198 -20.5q171 0 319 68t240 195.5t92 285.5v750z
M894 2246l-288 -567l-165 60l153 626zM1348 2155l-423 -475l-144 99l307 567z" />
    <glyph glyph-name="uhungarumlaut" unicode="&#x171;" horiz-adv-x="1465" 
d="M821 156q-55 -85 -147.5 -129.5t-210.5 -44.5q-330 0 -330 403v376h-80v311h574v-634q0 -53 27 -86.5t63 -33.5q47 0 75.5 34.5t28.5 85.5v323h-81v311h575v-767h76v-305h-570v156zM734 1695l-288 -567l-165 60l153 626zM1188 1604l-423 -475l-144 99l307 567z" />
    <glyph glyph-name="Uogonek" unicode="&#x172;" 
d="M1485 1270h154v352h-654v-352h164v-734q0 -88 -52 -139t-144 -51q-52 0 -90.5 22t-59 59.5t-30 80.5t-9.5 92v670h148v352h-869v-352h161v-566q0 -88 7.5 -163t27 -151t50.5 -137t80 -115t113.5 -90t153.5 -56.5t198 -20.5q171 0 319 68t240 195.5t92 285.5v750zM1050 0
q-29 -60 -67 -121t-55.5 -93.5t-17.5 -56.5q0 -44 45 -72t142 -29v-113h-21q-152 0 -260.5 59t-108.5 141q0 16 5 32t21 44t29 48t48.5 72t59.5 89h180z" />
    <glyph glyph-name="uogonek" unicode="&#x173;" horiz-adv-x="1465" 
d="M821 156q-55 -85 -147.5 -129.5t-210.5 -44.5q-330 0 -330 403v376h-80v311h574v-634q0 -53 27 -86.5t63 -33.5q47 0 75.5 34.5t28.5 85.5v323h-81v311h575v-767h76v-305h-570v156zM1344 0q-29 -60 -67 -121t-55.5 -93.5t-17.5 -56.5q0 -44 45 -72t142 -29v-113h-21
q-152 0 -260.5 59t-108.5 141q0 16 5 32t21 44t29 48t48.5 72t59.5 89h180z" />
    <glyph glyph-name="Wcircumflex" unicode="&#x174;" horiz-adv-x="2460" 
d="M-4 1623l-1 -353h144l349 -1270h537l202 706l193 -706h543l321 1148q20 71 62.5 96.5t126.5 25.5v353h-651v-353q74 0 98 -12.5t12 -56.5l-135 -498l-253 920h-409l-260 -951l-159 598h141v353h-861zM1365 2151l274 -376l-154 -101l-255 245l-255 -245l-154 101l273 377z
" />
    <glyph glyph-name="wcircumflex" unicode="&#x175;" horiz-adv-x="1929" 
d="M797 0l151 430l130 -430h475l153 483q6 20 16.5 57.5t17 58t18.5 50.5t25 46.5t32.5 33.5t46 24.5t59.5 7.5v311h-557v-311q12 0 20.5 -0.5t21 -1t20.5 -3t18 -6t15 -9.5t9 -14t4 -19.5t-4 -25.5l-85 -302q-19 50 -73.5 223t-99.5 321l-45 148h-266l-210 -680l-113 369
h114v311h-664v-311h69l258 -761h444zM1099 1600l274 -376l-154 -101l-255 245l-255 -245l-154 101l273 377z" />
    <glyph glyph-name="Ycircumflex" unicode="&#x176;" horiz-adv-x="1559" 
d="M1564 1622h-637v-352h22.5h21.5h18t16.5 -1.5t13 -3.5t11 -6t7.5 -9t5.5 -12.5t1.5 -16.5q0 -55 -114 -228q-21 30 -91.5 138.5t-92.5 138.5h91v352h-852v-352h112l421 -598v-313h-155v-359h869v359h-157v365l204 371q24 45 35.5 64.5t31.5 46.5t38 37.5t44.5 18.5
t61.5 8h74v352zM914 2151l274 -376l-154 -101l-255 245l-255 -245l-154 101l273 377z" />
    <glyph glyph-name="ycircumflex" unicode="&#x177;" horiz-adv-x="1377" 
d="M360 -377h691v295h-232l378 710q21 40 31 56.5t31 38.5t48 30t66 8v311h-580v-311q70 0 90 -10q37 -20 5 -89l-97 -208l-176 307h68v311h-680v-311h88l466 -730zM823 1600l274 -376l-154 -101l-255 245l-255 -245l-154 101l273 377z" />
    <glyph glyph-name="Ydieresis" unicode="&#x178;" horiz-adv-x="1559" 
d="M1564 1622h-637v-352h22.5h21.5h18t16.5 -1.5t13 -3.5t11 -6t7.5 -9t5.5 -12.5t1.5 -16.5q0 -55 -114 -228q-21 30 -91.5 138.5t-92.5 138.5h91v352h-852v-352h112l421 -598v-313h-155v-359h869v359h-157v365l204 371q24 45 35.5 64.5t31.5 46.5t38 37.5t44.5 18.5
t61.5 8h74v352zM694 1904q0 -108 -66.5 -169t-157.5 -61q-93 0 -160.5 61.5t-67.5 171.5q0 107 67 167t159 60t159 -60.5t67 -169.5zM1311 1904q0 -108 -66.5 -169t-157.5 -61q-93 0 -160.5 61.5t-67.5 171.5q0 107 67 167t159 60t159 -60.5t67 -169.5z" />
    <glyph glyph-name="Zacute" unicode="&#x179;" horiz-adv-x="1607" 
d="M1495 1293l-677 -934h309l107 346h282l-1 -705h-1409l-1 350l679 920h-315l-80 -332h-288v684h1394v-329zM1132 1994l-554 -313l-104 141l474 437z" />
    <glyph glyph-name="zacute" unicode="&#x17a;" horiz-adv-x="1214" 
d="M64 0h1085v451h-183q-10 -37 -20.5 -61.5t-26 -41t-28 -25t-39.5 -13t-46.5 -5t-61.5 -0.5h-101v11l469 479v277h-1022v-436h197q0 23 3.5 41t12.5 31t17.5 22.5t26 15t29.5 9t37 4.5t40 1.5t45 0.5h60v-11l-494 -467v-283zM936 1443l-554 -313l-104 141l474 437z" />
    <glyph glyph-name="Zdotaccent" unicode="&#x17b;" horiz-adv-x="1607" 
d="M1495 1293l-677 -934h309l107 346h282l-1 -705h-1409l-1 350l679 920h-315l-80 -332h-288v684h1394v-329zM798 1696q-119 0 -198 67.5t-79 182.5q0 113 77.5 179t199.5 66q127 0 207 -66t80 -179q0 -115 -82.5 -182.5t-204.5 -67.5z" />
    <glyph glyph-name="zdotaccent" unicode="&#x17c;" horiz-adv-x="1214" 
d="M64 0h1085v451h-183q-10 -37 -20.5 -61.5t-26 -41t-28 -25t-39.5 -13t-46.5 -5t-61.5 -0.5h-101v11l469 479v277h-1022v-436h197q0 23 3.5 41t12.5 31t17.5 22.5t26 15t29.5 9t37 4.5t40 1.5t45 0.5h60v-11l-494 -467v-283zM602 1145q-119 0 -198 67.5t-79 182.5
q0 113 77.5 179t199.5 66q127 0 207 -66t80 -179q0 -115 -82.5 -182.5t-204.5 -67.5z" />
    <glyph glyph-name="Zcaron" unicode="&#x17d;" horiz-adv-x="1607" 
d="M1495 1622h-1394v-684h288l80 332h315l-679 -920l1 -350h1409l1 705h-282l-107 -346h-309l677 934v329zM669 1700l-273 377l154 101l255 -245l255 245l154 -101l-274 -376z" />
    <glyph glyph-name="zcaron" unicode="&#x17e;" horiz-adv-x="1214" 
d="M64 0h1085v451h-183q-10 -37 -20.5 -61.5t-26 -41t-28 -25t-39.5 -13t-46.5 -5t-61.5 -0.5h-101v11l469 479v277h-1022v-436h197q0 23 3.5 41t12.5 31t17.5 22.5t26 15t29.5 9t37 4.5t40 1.5t45 0.5h60v-11l-494 -467v-283zM470 1149l-273 377l154 101l255 -245l255 245
l154 -101l-274 -376z" />
    <glyph glyph-name="florin" unicode="&#x192;" horiz-adv-x="891" 
d="M682 761q0 -464 2 -597q0 -196 -95.5 -299.5t-290.5 -103.5q-80 0 -160.5 13t-107 21t-40.5 13v311q59 -13 96 -13q62 0 86 41.5t24 151.5v462h-84v311h83q0 3 -2 135q0 403 380 403q80 0 160.5 -13t107 -21t40.5 -13v-311q-58 13 -96 13q-63 0 -89.5 -42.5t-20.5 -150.5
h179v-311h-172v0z" />
    <glyph glyph-name="uni01D3" unicode="&#x1d3;" 
d="M1485 1270h154v352h-654v-352h164v-734q0 -88 -52 -139t-144 -51q-52 0 -90.5 22t-59 59.5t-30 80.5t-9.5 92v670h148v352h-869v-352h161v-566q0 -88 7.5 -163t27 -151t50.5 -137t80 -115t113.5 -90t153.5 -56.5t198 -20.5q171 0 319 68t240 195.5t92 285.5v750z
M705 1700l-273 377l154 101l255 -245l255 245l154 -101l-274 -376z" />
    <glyph glyph-name="uni01D4" unicode="&#x1d4;" horiz-adv-x="1465" 
d="M821 156q-55 -85 -147.5 -129.5t-210.5 -44.5q-330 0 -330 403v376h-80v311h574v-634q0 -53 27 -86.5t63 -33.5q47 0 75.5 34.5t28.5 85.5v323h-81v311h575v-767h76v-305h-570v156zM596 1149l-273 377l154 101l255 -245l255 245l154 -101l-274 -376z" />
    <glyph glyph-name="uni01E2" unicode="&#x1e2;" horiz-adv-x="2138" 
d="M1747 969l-76 302h-213v-283h205v-352h-205v-286h219l13 70l63 267h273v-687h-1229l-1 376h120q32 164 -36 164h-275q-13 0 -22 -10.5t-12 -21.5t-8 -32q-6 -17 -1.5 -58.5t25.5 -41.5h84v-376l-681 -1v355q30 0 55 4t46 14t37 18.5t32 27.5t25 30t22.5 37t19 37.5t19 43
t18.5 42.5l322 666h-212l71 349h1570v-653zM908 771l1 521l-240 -521h239zM1582 1734h-748v335h748v-335z" />
    <glyph glyph-name="uni01E3" unicode="&#x1e3;" horiz-adv-x="1911" 
d="M30 299q0 77 37.5 140t99.5 102t138.5 59.5t159.5 20.5q146 0 256 -38v45q0 166 -211 166q-143 0 -215 -95h-175v314l67 17q67 18 188 35.5t228 17.5q68 0 132 -13t103 -29.5t73.5 -37.5t44.5 -29t15 -13l14 13q13 13 43 31t68.5 36t97 31t121.5 13q172 0 299 -73.5
t189.5 -193.5t62.5 -270q0 -34 -5 -79q-9 -21 -13.5 -24.5t-23.5 -3.5h-602q0 -93 47.5 -159.5t129.5 -66.5q72 0 105 35t35 108h307v-238q-132 -79 -259.5 -112t-287.5 -33q-189 0 -332 130q-103 -76 -227.5 -105t-320.5 -27q-105 1 -192 38.5t-142 112.5t-55 175zM520 317
q0 -45 26 -73.5t70 -28.5q32 0 60 13t36 20.5t12 12.5v147l-14 5q-14 5 -38.5 10.5t-46.5 5.5q-43 0 -74 -34.5t-31 -77.5zM1224 620h215q1 35 -1.5 61t-11.5 58.5t-33 50t-61 17.5q-54 0 -81 -48.5t-27 -109.5v-29zM1357 1183h-748v335h748v-335z" />
    <glyph glyph-name="AEacute" unicode="&#x1fc;" horiz-adv-x="2138" 
d="M1747 969l-76 302h-213v-283h205v-352h-205v-286h219l13 70l63 267h273v-687h-1229l-1 376h120q32 164 -36 164h-275q-13 0 -22 -10.5t-12 -21.5t-8 -32q-6 -17 -1.5 -58.5t25.5 -41.5h84v-376l-681 -1v355q30 0 55 4t46 14t37 18.5t32 27.5t25 30t22.5 37t19 37.5t19 43
t18.5 42.5l322 666h-212l71 349h1570v-653zM908 771l1 521l-240 -521h239zM1398 1994l-554 -313l-104 141l474 437z" />
    <glyph glyph-name="aeacute" unicode="&#x1fd;" horiz-adv-x="1911" 
d="M30 299q0 77 37.5 140t99.5 102t138.5 59.5t159.5 20.5q146 0 256 -38v45q0 166 -211 166q-143 0 -215 -95h-175v314l67 17q67 18 188 35.5t228 17.5q68 0 132 -13t103 -29.5t73.5 -37.5t44.5 -29t15 -13l14 13q13 13 43 31t68.5 36t97 31t121.5 13q172 0 299 -73.5
t189.5 -193.5t62.5 -270q0 -34 -5 -79q-9 -21 -13.5 -24.5t-23.5 -3.5h-602q0 -93 47.5 -159.5t129.5 -66.5q72 0 105 35t35 108h307v-238q-132 -79 -259.5 -112t-287.5 -33q-189 0 -332 130q-103 -76 -227.5 -105t-320.5 -27q-105 1 -192 38.5t-142 112.5t-55 175zM520 317
q0 -45 26 -73.5t70 -28.5q32 0 60 13t36 20.5t12 12.5v147l-14 5q-14 5 -38.5 10.5t-46.5 5.5q-43 0 -74 -34.5t-31 -77.5zM1224 620h215q1 35 -1.5 61t-11.5 58.5t-33 50t-61 17.5q-54 0 -81 -48.5t-27 -109.5v-29zM1284 1443l-554 -313l-104 141l474 437z" />
    <glyph glyph-name="Oslashacute" unicode="&#x1fe;" horiz-adv-x="1744" 
d="M567 -155l38 167q-249 82 -401.5 297.5t-152.5 498.5q0 258 107.5 451.5t292 293.5t420.5 100q48 0 111 -7l37 158l153 -30l-36 -158q254 -75 404.5 -286.5t150.5 -521.5q0 -235 -107.5 -427t-295.5 -301t-417 -109q-53 0 -104 6l-38 -171zM871 1296q-39 0 -70.5 -12
t-52.5 -33.5t-37.5 -50t-25 -62t-15 -70t-7.5 -73t-2.5 -71.5t0.5 -66v-35v-47v-58t1 -54t4 -63t7.5 -54.5t12 -59.5t17.5 -49l198 856q-20 2 -30 2zM871 319q39 0 70 13t52.5 36t37.5 54t25 67.5t15 75.5t7.5 78.5t2.5 77.5t0 72v30q0 7 0.5 44t0 53t-1.5 51.5t-4 58
t-7.5 52.5t-12 55.5t-17.5 47.5l-194 -865q8 -1 26 -1zM1201 1994l-554 -313l-104 141l474 437z" />
    <glyph glyph-name="oslashacute" unicode="&#x1ff;" horiz-adv-x="1290" 
d="M43 547q0 260 161 402t441 142t441 -142t161 -402q0 -175 -76.5 -304t-212 -195t-313.5 -66t-313.5 66t-212 195t-76.5 304zM508 545q0 -251 137 -251t137 251q0 51 -4.5 86.5t-17.5 72.5t-42 56t-73 19t-73 -19t-42 -56t-17.5 -72.5t-4.5 -86.5zM246 -54l701 1246
l87 -50l-701 -1246zM974 1443l-554 -313l-104 141l474 437z" />
    <glyph glyph-name="uni0200" unicode="&#x200;" horiz-adv-x="1643" 
d="M1185 1623h-994v-353h212l-172 -679q-27 -105 -38 -129q-33 -76 -111 -95q-34 -8 -78 -8v-359h678v359h-84q-21 0 -32 36t-11 64q1 21 2 32t8 21.5t20 10.5h275q67 0 67 -164h-120l1 -359h826v359h-86q-15 0 -26 12.5t-16.5 28.5t-13.5 47zM612 773l112 508l117 -508
h-229zM874 2385l153 -626l-165 -60l-288 567zM274 2366l307 -567l-144 -99l-423 475z" />
    <glyph glyph-name="uni0201" unicode="&#x201;" horiz-adv-x="1294" 
d="M30 308q0 -149 113.5 -237.5t275.5 -88.5q82 0 169 36t137 101l50 -119h472v305h-76v445q0 69 -25.5 124.5t-63 90.5t-94 60.5t-105 38t-111 19.5t-95.5 8t-74 1q-107 0 -228 -17.5t-188 -34.5l-67 -18v-314h175q72 95 215 95q211 0 211 -166v-45q-110 38 -256 38
q-83 0 -159.5 -20.5t-138.5 -59.5t-99.5 -102t-37.5 -140zM520 326q0 43 31 77.5t74 34.5q22 0 46.5 -5t38.5 -11l14 -5v-147q-4 -5 -12 -12.5t-36 -20.5t-60 -13q-44 0 -70 28.5t-26 73.5zM838 1843l153 -626l-165 -60l-288 567zM238 1824l307 -567l-144 -99l-423 475z" />
    <glyph glyph-name="uni0202" unicode="&#x202;" horiz-adv-x="1643" 
d="M1185 1623h-994v-353h212l-172 -679q-27 -105 -38 -129q-33 -76 -111 -95q-34 -8 -78 -8v-359h678v359h-84q-21 0 -32 36t-11 64q1 21 2 32t8 21.5t20 10.5h275q67 0 67 -164h-120l1 -359h826v359h-86q-15 0 -26 12.5t-16.5 28.5t-13.5 47zM612 773l112 508l117 -508
h-229zM874 2385l153 -626l-165 -60l-288 567zM274 2366l307 -567l-144 -99l-423 475z" />
    <glyph glyph-name="uni0203" unicode="&#x203;" horiz-adv-x="1294" 
d="M30 308q0 -149 113.5 -237.5t275.5 -88.5q82 0 169 36t137 101l50 -119h472v305h-76v445q0 69 -25.5 124.5t-63 90.5t-94 60.5t-105 38t-111 19.5t-95.5 8t-74 1q-107 0 -228 -17.5t-188 -34.5l-67 -18v-314h175q72 95 215 95q211 0 211 -166v-45q-110 38 -256 38
q-83 0 -159.5 -20.5t-138.5 -59.5t-99.5 -102t-37.5 -140zM520 326q0 43 31 77.5t74 34.5q22 0 46.5 -5t38.5 -11l14 -5v-147q-4 -5 -12 -12.5t-36 -20.5t-60 -13q-44 0 -70 28.5t-26 73.5zM838 1843l153 -626l-165 -60l-288 567zM238 1824l307 -567l-144 -99l-423 475z" />
    <glyph glyph-name="uni0204" unicode="&#x204;" horiz-adv-x="1490" 
d="M1367 969v654h-1268v-353h158v-911h-158v-359h1279v687h-273l-63 -267l-13 -61h-219v277h205v352h-205v282h213l76 -302zM988 2385l153 -626l-165 -60l-288 567zM388 2366l307 -567l-144 -99l-423 475z" />
    <glyph glyph-name="uni0205" unicode="&#x205;" horiz-adv-x="1224" 
d="M611 -18q160 0 287.5 33t259.5 112v238h-307q-2 -73 -35 -108t-105 -35q-82 0 -129.5 66.5t-47.5 159.5h602q19 0 23.5 3.5t13.5 24.5q5 45 5 79q0 150 -62.5 270t-189.5 193.5t-299 73.5q-180 0 -314.5 -74.5t-203.5 -203t-69 -293.5q0 -147 73 -270t204.5 -196
t293.5 -73zM536 656q0 61 27 109.5t81 48.5q37 0 61 -17.5t33 -50t11.5 -58.5t1.5 -61h-215v29zM842 1843l153 -626l-165 -60l-288 567zM242 1824l307 -567l-144 -99l-423 475z" />
    <glyph glyph-name="uni0206" unicode="&#x206;" horiz-adv-x="1490" 
d="M1099 968l-76 302h-213v-282h205v-352h-205v-277h219l13 61l63 267h273v-687h-1279v359h158v911h-158v353h1268v-654zM364 1699q0 83 34.5 150t92 108.5t129 63.5t148.5 22t148.5 -22t129 -63.5t92 -108.5t34.5 -150h-252q0 76 -45 118.5t-107 42.5t-107 -42.5
t-45 -118.5h-252z" />
    <glyph glyph-name="uni0207" unicode="&#x207;" horiz-adv-x="1224" 
d="M611 -18q-162 0 -293.5 73t-204.5 196t-73 270q0 165 69 293.5t203.5 203t314.5 74.5q172 0 299 -73.5t189.5 -193.5t62.5 -270q0 -34 -5 -79q-9 -21 -13.5 -24.5t-23.5 -3.5h-602q0 -93 47.5 -159.5t129.5 -66.5q72 0 105 35t35 108h307v-238q-132 -79 -259.5 -112
t-287.5 -33zM536 627h215q1 35 -1.5 61t-11.5 58.5t-33 50t-61 17.5q-54 0 -81 -48.5t-27 -109.5v-29zM226 1152q0 83 34.5 150t92 108.5t129 63.5t148.5 22t148.5 -22t129 -63.5t92 -108.5t34.5 -150h-252q0 76 -45 118.5t-107 42.5t-107 -42.5t-45 -118.5h-252z" />
    <glyph glyph-name="uni0208" unicode="&#x208;" horiz-adv-x="1076" 
d="M972 1623h-864v-353h143v-911h-147v-359h862v359h-141v911h147v353zM856 2385l153 -626l-165 -60l-288 567zM256 2366l307 -567l-144 -99l-423 475z" />
    <glyph glyph-name="uni0209" unicode="&#x209;" horiz-adv-x="814" 
d="M662 1072h-570v-325h89v-448h-82v-299h647v299h-84v773zM704 1843l153 -626l-165 -60l-288 567zM104 1824l307 -567l-144 -99l-423 475z" />
    <glyph glyph-name="uni020A" unicode="&#x20a;" horiz-adv-x="1076" 
d="M972 1270h-147v-911h141v-359h-862v359h147v911h-143v353h864v-353zM140 1699q0 83 34.5 150t92 108.5t129 63.5t148.5 22t148.5 -22t129 -63.5t92 -108.5t34.5 -150h-252q0 76 -45 118.5t-107 42.5t-107 -42.5t-45 -118.5h-252z" />
    <glyph glyph-name="uni020B" unicode="&#x20b;" horiz-adv-x="815" 
d="M662 299h84v-299h-647v299h82v448h-89v325h570v-773zM14 1152q0 83 34.5 150t92 108.5t129 63.5t148.5 22t148.5 -22t129 -63.5t92 -108.5t34.5 -150h-252q0 76 -45 118.5t-107 42.5t-107 -42.5t-45 -118.5h-252z" />
    <glyph glyph-name="uni020C" unicode="&#x20c;" horiz-adv-x="1744" 
d="M1692 808q0 -235 -107.5 -427t-295.5 -301t-417 -109t-417 109t-295.5 301t-107.5 427q0 258 107.5 451.5t292 293.5t420.5 100t420.5 -100t292 -293.5t107.5 -451.5zM872 319q39 0 70 13t52.5 36t37.5 54t25 67.5t15 75.5t7.5 78.5t2.5 77.5t0 72v30v35q-1 36 0 76
t-3.5 82.5t-11 82.5t-22.5 76t-37.5 63t-56.5 42.5t-79 15.5q-39 0 -70.5 -12t-52.5 -33.5t-37.5 -50t-25 -62t-15 -70t-7.5 -73t-2.5 -71.5t0.5 -66v-35v-30q1 -30 0 -63t1.5 -68.5t5.5 -70.5t10.5 -69t17.5 -64t26 -55.5t36.5 -44t49.5 -29t63 -10.5zM1115 2385l153 -626
l-165 -60l-288 567zM515 2366l307 -567l-144 -99l-423 475z" />
    <glyph glyph-name="uni020D" unicode="&#x20d;" horiz-adv-x="1290" 
d="M43 547q0 260 161 402t441 142t441 -142t161 -402q0 -175 -76.5 -304t-212 -195t-313.5 -66t-313.5 66t-212 195t-76.5 304zM508 545q0 -251 137 -251t137 251q0 51 -4.5 86.5t-17.5 72.5t-42 56t-73 19t-73 -19t-42 -56t-17.5 -72.5t-4.5 -86.5zM826 1843l153 -626
l-165 -60l-288 567zM226 1824l307 -567l-144 -99l-423 475z" />
    <glyph glyph-name="uni020E" unicode="&#x20e;" horiz-adv-x="1744" 
d="M1692 808q0 -235 -107.5 -427t-295.5 -301t-417 -109t-417 109t-295.5 301t-107.5 427q0 258 107.5 451.5t292 293.5t420.5 100t420.5 -100t292 -293.5t107.5 -451.5zM872 319q39 0 70 13t52.5 36t37.5 54t25 67.5t15 75.5t7.5 78.5t2.5 77.5t0 72v30v35q-1 36 0 76
t-3.5 82.5t-11 82.5t-22.5 76t-37.5 63t-56.5 42.5t-79 15.5q-39 0 -70.5 -12t-52.5 -33.5t-37.5 -50t-25 -62t-15 -70t-7.5 -73t-2.5 -71.5t0.5 -66v-35v-30q1 -30 0 -63t1.5 -68.5t5.5 -70.5t10.5 -69t17.5 -64t26 -55.5t36.5 -44t49.5 -29t63 -10.5zM470 1699
q0 83 34.5 150t92 108.5t129 63.5t148.5 22t148.5 -22t129 -63.5t92 -108.5t34.5 -150h-252q0 76 -45 118.5t-107 42.5t-107 -42.5t-45 -118.5h-252z" />
    <glyph glyph-name="uni020F" unicode="&#x20f;" horiz-adv-x="1290" 
d="M43 547q0 260 161 402t441 142t441 -142t161 -402q0 -175 -76.5 -304t-212 -195t-313.5 -66t-313.5 66t-212 195t-76.5 304zM508 545q0 -251 137 -251t137 251q0 51 -4.5 86.5t-17.5 72.5t-42 56t-73 19t-73 -19t-42 -56t-17.5 -72.5t-4.5 -86.5zM242 1152q0 83 34.5 150
t92 108.5t129 63.5t148.5 22t148.5 -22t129 -63.5t92 -108.5t34.5 -150h-252q0 76 -45 118.5t-107 42.5t-107 -42.5t-45 -118.5h-252z" />
    <glyph glyph-name="uni0210" unicode="&#x210;" horiz-adv-x="1765" 
d="M912 359h-121v335h98q60 0 98 -17t56.5 -52.5t25 -75t6.5 -98.5v-195q0 -41 8 -75.5t20 -59.5t33.5 -44.5t41 -32t51 -21.5t54.5 -13.5t60.5 -6.5t60 -2.5t61.5 -0.5h262v359q-56 0 -89.5 6.5t-49.5 22t-20.5 32.5t-4.5 46v93q0 92 -64 153t-213 95q172 32 265.5 125
t93.5 238q0 123 -37 211.5t-108.5 141t-166 76.5t-217.5 24h-1015v-353h155v-911h-154v-360q546 1 810 1v359zM785 920v350h121q89 0 139.5 -47.5t50.5 -126.5q0 -50 -21 -86t-58 -55t-78.5 -27t-92.5 -8h-61zM989 2385l153 -626l-165 -60l-288 567zM389 2366l307 -567
l-144 -99l-423 475z" />
    <glyph glyph-name="uni0211" unicode="&#x211;" horiz-adv-x="1001" 
d="M95 761h79v-456h-79v-305h674v305h-137v121q0 121 63 184.5t173 63.5l106 -7v416q-99 0 -191 -47t-141 -131l-4 4v163h-543v-311zM820 1843l153 -626l-165 -60l-288 567zM220 1824l307 -567l-144 -99l-423 475z" />
    <glyph glyph-name="uni0212" unicode="&#x212;" horiz-adv-x="1765" 
d="M912 0q-264 0 -810 -1v360h154v911h-155v353h1015q123 0 217.5 -24t166 -76.5t108.5 -141t37 -211.5q0 -145 -93.5 -238t-265.5 -125q149 -34 213 -95t64 -153v-93q0 -29 4.5 -46t20.5 -32.5t49.5 -22t89.5 -6.5v-359h-262q-39 0 -61.5 0.5t-60 2.5t-60.5 6.5t-54.5 13.5
t-51 21.5t-41 32t-33.5 44.5t-20 59.5t-8 75.5v195q0 59 -6.5 98.5t-25 75t-56.5 52.5t-98 17h-98v-335h121v-359zM846 920q51 0 92.5 8t78.5 27t58 55t21 86q0 79 -50.5 126.5t-139.5 47.5h-121v-350h61zM394 1699q0 83 34.5 150t92 108.5t129 63.5t148.5 22t148.5 -22
t129 -63.5t92 -108.5t34.5 -150h-252q0 76 -45 118.5t-107 42.5t-107 -42.5t-45 -118.5h-252z" />
    <glyph glyph-name="uni0213" unicode="&#x213;" horiz-adv-x="1000" 
d="M94 1072h543v-163l4 -4q49 84 141 131t191 47v-416l-106 7q-110 0 -173 -63.5t-63 -184.5v-121h137v-305h-674v305h79v456h-79v311zM130 1152q0 83 34.5 150t92 108.5t129 63.5t148.5 22t148.5 -22t129 -63.5t92 -108.5t34.5 -150h-252q0 76 -45 118.5t-107 42.5
t-107 -42.5t-45 -118.5h-252z" />
    <glyph glyph-name="uni0214" unicode="&#x214;" 
d="M1485 1270h154v352h-654v-352h164v-734q0 -88 -52 -139t-144 -51q-52 0 -90.5 22t-59 59.5t-30 80.5t-9.5 92v670h148v352h-869v-352h161v-566q0 -88 7.5 -163t27 -151t50.5 -137t80 -115t113.5 -90t153.5 -56.5t198 -20.5q171 0 319 68t240 195.5t92 285.5v750z
M1036 2385l153 -626l-165 -60l-288 567zM436 2366l307 -567l-144 -99l-423 475z" />
    <glyph glyph-name="uni0215" unicode="&#x215;" horiz-adv-x="1466" 
d="M822 0h570v305h-76v767h-575v-311h81v-323q0 -51 -28.5 -85.5t-75.5 -34.5q-36 0 -63 33.5t-27 86.5v634h-574v-311h80v-376q0 -403 330 -403q118 0 210.5 44.5t147.5 129.5v-156zM914 1843l153 -626l-165 -60l-288 567zM314 1824l307 -567l-144 -99l-423 475z" />
    <glyph glyph-name="uni0216" unicode="&#x216;" 
d="M1485 520q0 -158 -92 -285.5t-240 -195.5t-319 -68q-109 0 -198 20.5t-153.5 56.5t-113.5 90t-80 115t-50.5 137t-27 151t-7.5 163v566h-161v352h869v-352h-148v-670q0 -49 9.5 -92t30 -80.5t59 -59.5t90.5 -22q92 0 144 51t52 139v734h-164v352h654v-352h-154v-750z
M509 1699q0 83 34.5 150t92 108.5t129 63.5t148.5 22t148.5 -22t129 -63.5t92 -108.5t34.5 -150h-252q0 76 -45 118.5t-107 42.5t-107 -42.5t-45 -118.5h-252z" />
    <glyph glyph-name="uni0217" unicode="&#x217;" horiz-adv-x="1466" 
d="M822 156q-55 -85 -147.5 -129.5t-210.5 -44.5q-330 0 -330 403v376h-80v311h574v-634q0 -53 27 -86.5t63 -33.5q47 0 75.5 34.5t28.5 85.5v323h-81v311h575v-767h76v-305h-570v156zM291 1152q0 83 34.5 150t92 108.5t129 63.5t148.5 22t148.5 -22t129 -63.5t92 -108.5
t34.5 -150h-252q0 76 -45 118.5t-107 42.5t-107 -42.5t-45 -118.5h-252z" />
    <glyph glyph-name="Scommaaccent" unicode="&#x218;" horiz-adv-x="1329" 
d="M1159 1623v-516h-307q-18 78 -80 138t-137 60q-44 0 -69 -23t-25 -69q0 -30 24.5 -52t66.5 -38t96.5 -31.5t115 -36.5t121 -47.5t115.5 -70t98 -100t69.5 -141t28.5 -188.5q2 -102 -32.5 -199t-96 -172t-153 -120.5t-196.5 -45.5q-108 0 -179.5 27.5t-149.5 93.5l-36 -92
h-323v518h322q26 -73 93 -128.5t140 -55.5q44 0 76.5 22.5t32.5 63.5q0 34 -22 58.5t-47 35.5t-62 21q-59 17 -104 31.5t-96 34.5t-89.5 40.5t-78.5 48.5t-69 59t-55 71.5t-42 86.5t-25.5 103t-9.5 123q0 238 116.5 379t339.5 141q193 0 312 -90q4 12 32 60h285zM416 -674
q45 0 78 6.5t53.5 22t32.5 31.5t17.5 46t6.5 52.5t1 64.5h-189v366h510q24 -155 24 -277q0 -278 -130 -407.5t-404 -129.5v225z" />
    <glyph glyph-name="scommaaccent" unicode="&#x219;" horiz-adv-x="1055" 
d="M244 -674q45 0 78 6.5t53.5 22t32.5 31.5t17.5 46t6.5 52.5t1 64.5h-189v366h510q24 -154 24 -277q0 -278 -130 -407.5t-404 -129.5v225zM775 761l-9 21q-8 21 -19 45t-15 29q-19 28 -54 46t-69 18q-37 0 -64.5 -19.5t-27.5 -54.5q0 -30 30 -53t65 -34t82 -23t61 -17
q241 -98 241 -324q0 -203 -104 -308t-307 -105q-208 0 -308 94l-36 -67h-177l7 378h221q12 -69 58 -123.5t112 -54.5q41 0 74.5 20t33.5 58q0 34 -27.5 58.5t-71 40.5t-96.5 33t-105.5 41.5t-96 58.5t-71 92t-27.5 135q0 117 55 196.5t145.5 114.5t211.5 35q92 0 168 -16.5
t96 -26t30 -16.5l27 48h168v-320h-201z" />
    <glyph glyph-name="uni021A" unicode="&#x21a;" horiz-adv-x="1531" 
d="M1213 965l-62 305h-106v-910h164v-360h-891v360h164v910h-100l-64 -305h-281v657h1457v-657h-281zM372 -674q45 0 78 6.5t53.5 22t32.5 31.5t17.5 46t6.5 52.5t1 64.5h-189v366h510q24 -154 24 -277q0 -278 -130 -407.5t-404 -129.5v225z" />
    <glyph glyph-name="uni021B" unicode="&#x21b;" horiz-adv-x="875" 
d="M839 49l-37 -17q-37 -17 -114 -33.5t-157 -16.5q-382 0 -380 403l1 376h-108v311h103v229l487 105v-334h152v-311h-152l-1 -323q0 -39 21 -71.5t77 -32.5q45 0 108 14v-299zM240 -674q45 0 78 6.5t53.5 22t32.5 31.5t17.5 46t6.5 52.5t1 64.5h-189v366h510
q24 -154 24 -277q0 -278 -130 -407.5t-404 -129.5v225z" />
    <glyph glyph-name="uni0237" unicode="&#x237;" horiz-adv-x="772" 
d="M49 -72q36 -4 71.5 11t35.5 52v769h-90v312h589v-943q0 -137 -29 -232t-98 -163t-186.5 -100t-290.5 -32z" />
    <glyph glyph-name="circumflex" unicode="&#x2c6;" horiz-adv-x="1016" 
d="M647 1600l274 -376l-154 -101l-255 245l-255 -245l-154 101l273 377z" />
    <glyph glyph-name="caron" unicode="&#x2c7;" horiz-adv-x="1016" 
d="M366 1149l-273 377l154 101l255 -245l255 245l154 -101l-274 -376z" />
    <glyph glyph-name="breve" unicode="&#x2d8;" horiz-adv-x="1707" 
d="M770 1245q-199 0 -301.5 100t-102.5 277h252q0 -76 45 -118.5t107 -42.5t107 42.5t45 118.5h252q0 -176 -103.5 -276.5t-300.5 -100.5z" />
    <glyph glyph-name="dotaccent" unicode="&#x2d9;" horiz-adv-x="1090" 
d="M557 1145q-119 0 -198 67.5t-79 182.5q0 113 77.5 179t199.5 66q127 0 207 -66t80 -179q0 -115 -82.5 -182.5t-204.5 -67.5z" />
    <glyph glyph-name="ring" unicode="&#x2da;" horiz-adv-x="1707" 
d="M697 1240q77 0 121 44t44 104q0 59 -43.5 102t-121.5 43q-76 0 -118.5 -43t-42.5 -102q0 -60 43 -104t118 -44zM697 1138q-127 0 -199 75t-72 176q0 99 71 171.5t200 72.5q133 0 206.5 -72t73.5 -172q0 -101 -74.5 -176t-205.5 -75z" />
    <glyph glyph-name="ogonek" unicode="&#x2db;" horiz-adv-x="1707" 
d="M871 0q-29 -60 -67 -121t-55.5 -93.5t-17.5 -56.5q0 -44 45 -72t142 -29v-113h-21q-152 0 -260.5 59t-108.5 141q0 16 5 32t21 44t29 48t48.5 72t59.5 89h180z" />
    <glyph glyph-name="tilde" unicode="&#x2dc;" horiz-adv-x="1707" 
d="M844 1523q44 0 80 -19t62 -53.5t45.5 -68.5t43 -79t41.5 -71l-113 -74q-73 70 -100.5 89t-46.5 19q-45 0 -107 -30t-128.5 -60.5t-121.5 -30.5q-45 0 -81 18.5t-62.5 53t-45.5 68t-43 79t-42 71.5l114 75q76 -73 104 -92.5t46 -19.5q36 0 83 19.5t86 43t90 43t96 19.5z
" />
    <glyph glyph-name="hungarumlaut" unicode="&#x2dd;" horiz-adv-x="1478" 
d="M889 1695l-288 -567l-165 60l153 626zM1343 1604l-423 -475l-144 99l307 567z" />
    <glyph glyph-name="Sigma" unicode="&#x3a3;" horiz-adv-x="1421" 
d="M754 350h249l13 70l63 267h273v-687h-1279v348h158l188 485l-188 437h-158v353h1268v-654l-268 -1l-76 302h-243l181 -437z" />
    <glyph glyph-name="Omega" unicode="&#x3a9;" horiz-adv-x="1522" 
d="M1093 973q0 94 -14.5 170.5t-45.5 140t-87 99t-133 35.5t-133 -35.5t-87 -99t-45.5 -140t-14.5 -170.5q0 -175 21 -304t47 -188t60 -93t47 -37.5t21 -3.5v-347h-552v312h241q-137 129 -212 299.5t-75 340.5q0 113 25.5 215t80 191.5t133.5 154.5t192.5 102.5t250.5 37.5
t250.5 -37.5t192.5 -102.5t133.5 -154.5t80 -191.5t25.5 -215q0 -170 -75 -340.5t-212 -299.5h241v-312h-552v347l20 4q20 4 49 37.5t58 92.5t49 188t20 304z" />
    <glyph glyph-name="pi" unicode="&#x3c0;" horiz-adv-x="1537" 
d="M298 761q-104 0 -154 -30.5t-50 -79.5h-58q0 77 1 117.5t7.5 92t18 75t35 53.5t55.5 41t82.5 23.5t113 15.5t149.5 3h946v-311h-149v-17q0 -326 20 -391.5t130 -65.5v-305q-74 0 -109.5 0.5t-95.5 3t-88 7.5t-73 15t-65 25t-49.5 36.5t-42.5 51.5t-27 69t-19 88t-5 110
v373h-158l-1 -761h-561z" />
    <glyph glyph-name="uni1E46" unicode="&#x1e46;" horiz-adv-x="1874" 
d="M1814 1622l-637 1v-353q39 1 68 -4t45.5 -18.5t26.5 -26t13.5 -35t4 -34.5t0.5 -36v-469l-496 976h-735v-351h157v-722q0 -38 -2 -60t-10.5 -50.5t-25 -43.5t-48 -26t-77.5 -11v-359h637v359q-85 0 -121.5 33t-36.5 115v401l473 -908h606v1118q0 74 36.5 113t121.5 39
v352zM974 -579q-119 0 -198 67.5t-79 182.5q0 113 77.5 179t199.5 66q127 0 207 -66t80 -179q0 -115 -82.5 -182.5t-204.5 -67.5z" />
    <glyph glyph-name="uni1E47" unicode="&#x1e47;" horiz-adv-x="1483" 
d="M661 1072h-563v-311h76v-456h-83v-305h658v305h-88v319q0 47 28.5 80t75.5 33q36 0 63 -31t27 -79v-627h574v305h-80v375q0 412 -330 412q-118 0 -210.5 -45.5t-147.5 -130.5v156zM802 -558q-119 0 -198 67.5t-79 182.5q0 113 77.5 179t199.5 66q127 0 207 -66t80 -179
q0 -115 -82.5 -182.5t-204.5 -67.5z" />
    <glyph glyph-name="uni1E62" unicode="&#x1e62;" horiz-adv-x="1329" 
d="M874 1623q-28 -48 -32 -60q-119 90 -312 90q-223 0 -339.5 -141t-116.5 -379q0 -66 9.5 -123t25.5 -103t42 -86.5t55 -71.5t69 -59t78.5 -48.5t89.5 -40.5t96 -34.5t104 -31.5q37 -10 62 -21t47 -35.5t22 -58.5q0 -41 -32.5 -63.5t-76.5 -22.5q-73 0 -140 55.5t-93 128.5
h-322v-518h323l36 92q78 -66 149.5 -93.5t179.5 -27.5q105 0 196.5 45.5t153 120.5t96 172t32.5 199q-2 104 -28.5 188.5t-69.5 141t-98 100t-115.5 70t-121 47.5t-115 36.5t-96.5 31.5t-66.5 38t-24.5 52q0 46 25 69t69 23q75 0 137 -60t80 -138h307v516h-285zM687 -579
q-119 0 -198 67.5t-79 182.5q0 113 77.5 179t199.5 66q127 0 207 -66t80 -179q0 -115 -82.5 -182.5t-204.5 -67.5z" />
    <glyph glyph-name="uni1E63" unicode="&#x1e63;" horiz-adv-x="1055" 
d="M976 761v320h-168l-27 -48q-10 7 -30 16.5t-96 26t-168 16.5q-121 0 -211.5 -35t-145.5 -114.5t-55 -196.5q0 -77 27.5 -135t71 -92t96 -58.5t105.5 -41.5t96.5 -33t71 -40.5t27.5 -58.5q0 -38 -33.5 -58t-74.5 -20q-66 0 -112 54.5t-58 123.5h-221l-7 -378h177l36 67
q100 -94 308 -94q203 0 307 105t104 308q0 226 -241 324q-14 5 -61 17t-82 23t-65 34t-30 53q0 35 27.5 54.5t64.5 19.5q34 0 69 -18t54 -46q4 -5 15 -29t20 -45l8 -21h201zM524 -555q-119 0 -198 67.5t-79 182.5q0 113 77.5 179t199.5 66q127 0 207 -66t80 -179
q0 -115 -82.5 -182.5t-204.5 -67.5z" />
    <glyph glyph-name="Wgrave" unicode="&#x1e80;" horiz-adv-x="2460" 
d="M-4 1623l-1 -353h144l349 -1270h537l202 706l193 -706h543l321 1148q20 71 62.5 96.5t126.5 25.5v353h-651v-353q74 0 98 -12.5t12 -56.5l-135 -498l-253 920h-409l-260 -951l-159 598h141v353h-861zM1085 2259l474 -437l-104 -141l-554 313z" />
    <glyph glyph-name="wgrave" unicode="&#x1e81;" horiz-adv-x="1929" 
d="M797 0l151 430l130 -430h475l153 483q6 20 16.5 57.5t17 58t18.5 50.5t25 46.5t32.5 33.5t46 24.5t59.5 7.5v311h-557v-311q12 0 20.5 -0.5t21 -1t20.5 -3t18 -6t15 -9.5t9 -14t4 -19.5t-4 -25.5l-85 -302q-19 50 -73.5 223t-99.5 321l-45 148h-266l-210 -680l-113 369
h114v311h-664v-311h69l258 -761h444zM819 1708l474 -437l-104 -141l-554 313z" />
    <glyph glyph-name="Wacute" unicode="&#x1e82;" horiz-adv-x="2460" 
d="M-4 1623l-1 -353h144l349 -1270h537l202 706l193 -706h543l321 1148q20 71 62.5 96.5t126.5 25.5v353h-651v-353q74 0 98 -12.5t12 -56.5l-135 -498l-253 920h-409l-260 -951l-159 598h141v353h-861zM1559 1994l-554 -313l-104 141l474 437z" />
    <glyph glyph-name="wacute" unicode="&#x1e83;" horiz-adv-x="1929" 
d="M797 0l151 430l130 -430h475l153 483q6 20 16.5 57.5t17 58t18.5 50.5t25 46.5t32.5 33.5t46 24.5t59.5 7.5v311h-557v-311q12 0 20.5 -0.5t21 -1t20.5 -3t18 -6t15 -9.5t9 -14t4 -19.5t-4 -25.5l-85 -302q-19 50 -73.5 223t-99.5 321l-45 148h-266l-210 -680l-113 369
h114v311h-664v-311h69l258 -761h444zM1293 1443l-554 -313l-104 141l474 437z" />
    <glyph glyph-name="Wdieresis" unicode="&#x1e84;" horiz-adv-x="2460" 
d="M-4 1623l-1 -353h144l349 -1270h537l202 706l193 -706h543l321 1148q20 71 62.5 96.5t126.5 25.5v353h-651v-353q74 0 98 -12.5t12 -56.5l-135 -498l-253 920h-409l-260 -951l-159 598h141v353h-861zM1147 1893q0 -108 -66.5 -169t-157.5 -61q-93 0 -160.5 61.5
t-67.5 171.5q0 107 67 167t159 60t159 -60.5t67 -169.5zM1764 1893q0 -108 -66.5 -169t-157.5 -61q-93 0 -160.5 61.5t-67.5 171.5q0 107 67 167t159 60t159 -60.5t67 -169.5z" />
    <glyph glyph-name="wdieresis" unicode="&#x1e85;" horiz-adv-x="1929" 
d="M797 0l151 430l130 -430h475l153 483q6 20 16.5 57.5t17 58t18.5 50.5t25 46.5t32.5 33.5t46 24.5t59.5 7.5v311h-557v-311q12 0 20.5 -0.5t21 -1t20.5 -3t18 -6t15 -9.5t9 -14t4 -19.5t-4 -25.5l-85 -302q-19 50 -73.5 223t-99.5 321l-45 148h-266l-210 -680l-113 369
h114v311h-664v-311h69l258 -761h444zM882 1342q0 -108 -66.5 -169t-157.5 -61q-93 0 -160.5 61.5t-67.5 171.5q0 107 67 167t159 60t159 -60.5t67 -169.5zM1499 1342q0 -108 -66.5 -169t-157.5 -61q-93 0 -160.5 61.5t-67.5 171.5q0 107 67 167t159 60t159 -60.5t67 -169.5z
" />
    <glyph glyph-name="uni1EBC" unicode="&#x1ebc;" horiz-adv-x="1490" 
d="M1099 968l-76 302h-213v-282h205v-352h-205v-277h219l13 61l63 267h273v-687h-1279v359h158v911h-158v353h1268v-654zM918 2074q44 0 80 -19t62 -53.5t45.5 -68.5t43 -79t41.5 -71l-113 -74q-73 70 -100.5 89t-46.5 19q-45 0 -107 -30t-128.5 -60.5t-121.5 -30.5
q-45 0 -81 18.5t-62.5 53t-45.5 68t-43 79t-42 71.5l114 75q76 -73 104 -92.5t46 -19.5q36 0 83 19.5t86 43t90 43t96 19.5z" />
    <glyph glyph-name="uni1EBD" unicode="&#x1ebd;" horiz-adv-x="1224" 
d="M611 -18q160 0 287.5 33t259.5 112v224h-307q-2 -59 -35 -94t-105 -35q-82 0 -129.5 66.5t-47.5 167.5h602q19 -8 23.5 -4.5t13.5 32.5q5 37 5 71q0 150 -62.5 270t-189.5 193.5t-299 73.5q-180 0 -314.5 -74.5t-203.5 -203t-69 -293.5q0 -147 73 -270t204.5 -196
t293.5 -73zM536 656q0 61 27 109.5t81 48.5q37 0 61 -17.5t33 -50t11.5 -58.5t1.5 -61h-215v29zM788 1523q44 0 80 -19t62 -53.5t45.5 -68.5t43 -79t41.5 -71l-113 -74q-73 70 -100.5 89t-46.5 19q-45 0 -107 -30t-128.5 -60.5t-121.5 -30.5q-45 0 -81 18.5t-62.5 53
t-45.5 68t-43 79t-42 71.5l114 75q76 -73 104 -92.5t46 -19.5q36 0 83 19.5t86 43t90 43t96 19.5z" />
    <glyph glyph-name="Ygrave" unicode="&#x1ef2;" horiz-adv-x="1559" 
d="M1564 1622h-637v-352h22.5h21.5h18t16.5 -1.5t13 -3.5t11 -6t7.5 -9t5.5 -12.5t1.5 -16.5q0 -55 -114 -228q-21 30 -91.5 138.5t-92.5 138.5h91v352h-852v-352h112l421 -598v-313h-155v-359h869v359h-157v365l204 371q24 45 35.5 64.5t31.5 46.5t38 37.5t44.5 18.5
t61.5 8h74v352zM634 2259l474 -437l-104 -141l-554 313z" />
    <glyph glyph-name="ygrave" unicode="&#x1ef3;" horiz-adv-x="1377" 
d="M360 -377h691v295h-232l378 710q21 40 31 56.5t31 38.5t48 30t66 8v311h-580v-311q70 0 90 -10q37 -20 5 -89l-97 -208l-176 307h68v311h-680v-311h88l466 -730zM543 1708l474 -437l-104 -141l-554 313z" />
    <glyph glyph-name="uni2000" unicode="&#x2000;" horiz-adv-x="1192" 
 />
    <glyph glyph-name="uni2001" unicode="&#x2001;" horiz-adv-x="2385" 
 />
    <glyph glyph-name="uni2002" unicode="&#x2002;" horiz-adv-x="1192" 
 />
    <glyph glyph-name="uni2003" unicode="&#x2003;" horiz-adv-x="2385" 
 />
    <glyph glyph-name="uni2004" unicode="&#x2004;" horiz-adv-x="795" 
 />
    <glyph glyph-name="uni2005" unicode="&#x2005;" horiz-adv-x="596" 
 />
    <glyph glyph-name="uni2006" unicode="&#x2006;" horiz-adv-x="397" 
 />
    <glyph glyph-name="uni2007" unicode="&#x2007;" horiz-adv-x="397" 
 />
    <glyph glyph-name="uni2008" unicode="&#x2008;" horiz-adv-x="298" 
 />
    <glyph glyph-name="uni2009" unicode="&#x2009;" horiz-adv-x="477" 
 />
    <glyph glyph-name="uni200A" unicode="&#x200a;" horiz-adv-x="132" 
 />
    <glyph glyph-name="uni2010" unicode="&#x2010;" horiz-adv-x="838" 
d="M742 836v-299h-647v299h647z" />
    <glyph glyph-name="uni2011" unicode="&#x2011;" horiz-adv-x="838" 
d="M742 836v-299h-647v299h647z" />
    <glyph glyph-name="figuredash" unicode="&#x2012;" horiz-adv-x="838" 
d="M742 836v-299h-647v299h647z" />
    <glyph glyph-name="endash" unicode="&#x2013;" horiz-adv-x="838" 
d="M742 836v-299h-647v299h647z" />
    <glyph glyph-name="emdash" unicode="&#x2014;" horiz-adv-x="1360" 
d="M1265 836v-299h-1170v299h1170z" />
    <glyph glyph-name="quoteleft" unicode="&#x2018;" horiz-adv-x="683" 
d="M601 1428q-45 0 -78 -6.5t-53.5 -22t-32.5 -31.5t-17.5 -46t-6.5 -52.5t-1 -64.5h189v-366h-510q-24 154 -24 277q0 278 130 407.5t404 129.5v-225z" />
    <glyph glyph-name="quoteright" unicode="&#x2019;" horiz-adv-x="667" 
d="M87 1034q45 0 78 6.5t53.5 22t32.5 31.5t17.5 46t6.5 52.5t1 64.5h-189v366h510q24 -155 24 -277q0 -278 -130 -407.5t-404 -129.5v225z" />
    <glyph glyph-name="quotesinglbase" unicode="&#x201a;" horiz-adv-x="716" 
d="M95 -223q45 0 78 6.5t53.5 22t32.5 31.5t17.5 46t6.5 52.5t1 64.5h-189v366h510q24 -154 24 -277q0 -278 -130 -407.5t-404 -129.5v225z" />
    <glyph glyph-name="quotedblleft" unicode="&#x201c;" horiz-adv-x="1315" 
d="M1233 1428q-45 0 -78 -6.5t-53.5 -22t-32.5 -31.5t-17.5 -46t-6.5 -52.5t-1 -64.5h189v-366h-510q-24 154 -24 277q0 278 130 407.5t404 129.5v-225zM602 1428q-45 0 -78 -6.5t-53.5 -22t-32.5 -31.5t-17.5 -46t-6.5 -52.5t-1 -64.5h189v-366h-510q-24 154 -24 277
q0 278 130 407.5t404 129.5v-225z" />
    <glyph glyph-name="quotedblright" unicode="&#x201d;" horiz-adv-x="1317" 
d="M738 1034q45 0 78 6.5t53.5 22t32.5 31.5t17.5 46t6.5 52.5t1 64.5h-189v366h510q24 -155 24 -277q0 -278 -130 -407.5t-404 -129.5v225zM87 1034q45 0 78 6.5t53.5 22t32.5 31.5t17.5 46t6.5 52.5t1 64.5h-189v366h510q24 -155 24 -277q0 -278 -130 -407.5t-404 -129.5
v225z" />
    <glyph glyph-name="quotedblbase" unicode="&#x201e;" horiz-adv-x="1350" 
d="M730 -223q45 0 78 6.5t53.5 22t32.5 31.5t17.5 46t6.5 52.5t1 64.5h-189v366h510q24 -154 24 -277q0 -278 -130 -407.5t-404 -129.5v225zM95 -223q45 0 78 6.5t53.5 22t32.5 31.5t17.5 46t6.5 52.5t1 64.5h-189v366h510q24 -154 24 -277q0 -278 -130 -407.5t-404 -129.5
v225z" />
    <glyph glyph-name="dagger" unicode="&#x2020;" horiz-adv-x="916" 
d="M61 1286h242v337h315v-337h235v-295h-235v-991h-315v991h-242v295z" />
    <glyph glyph-name="daggerdbl" unicode="&#x2021;" horiz-adv-x="935" 
d="M71 1286h242v337h315v-337h235v-295h-235v-310h235v-295h-235v-386h-315v386h-242v295h242v310h-242v295z" />
    <glyph glyph-name="bullet" unicode="&#x2022;" horiz-adv-x="935" 
d="M74 537v13q0 89 33 161t88.5 116.5t124 68t143.5 23.5q76 0 146.5 -24.5t127.5 -70.5t91.5 -120.5t34.5 -166.5q0 -95 -34 -172.5t-91 -125t-127.5 -73t-146.5 -25.5q-77 0 -146.5 25.5t-124.5 73t-87 124.5t-32 173z" />
    <glyph glyph-name="ellipsis" unicode="&#x2026;" horiz-adv-x="2158" 
d="M1815 -27q-119 0 -198 67.5t-79 182.5q0 113 77.5 179t199.5 66q127 0 207 -66t80 -179q0 -115 -82.5 -182.5t-204.5 -67.5zM1074 -27q-119 0 -198 67.5t-79 182.5q0 113 77.5 179t199.5 66q127 0 207 -66t80 -179q0 -115 -82.5 -182.5t-204.5 -67.5zM334 -27
q-119 0 -198 67.5t-79 182.5q0 113 77.5 179t199.5 66q127 0 207 -66t80 -179q0 -115 -82.5 -182.5t-204.5 -67.5z" />
    <glyph glyph-name="uni202F" unicode="&#x202f;" horiz-adv-x="477" 
 />
    <glyph glyph-name="perthousand" unicode="&#x2030;" horiz-adv-x="3811" 
d="M2760 521q0 158 59 288t173 208.5t262 78.5q243 0 372 -148t129 -393q0 -113 -30 -214t-87 -182t-150 -129t-210 -48q-246 0 -382 145.5t-136 393.5zM3260 755q-56 -3 -80 -62q-16 -42 -16 -153q0 -208 93 -208q22 0 39 8t27 23t17 31.5t9.5 39.5t3.5 40t1 39l1 27
q0 26 -0.5 40.5t-2.5 43.5t-8.5 47.5t-16.5 39t-27 31.5t-40 13zM937 0l341 1623h504l-342 -1623h-503zM56 1078q0 158 59 288t173 208.5t262 78.5q243 0 372 -148t129 -393q0 -113 -30 -214t-87 -182t-150 -129t-210 -48q-246 0 -382 145.5t-136 393.5zM556 1312
q-57 -2 -80 -62q-16 -42 -16 -153q0 -208 93 -208q22 0 39 8t27 23t17 31.5t9.5 39.5t3.5 40t1 39l1 26q0 27 -0.5 41.5t-2.5 43.5t-8.5 47.5t-16.5 39t-27 31.5t-40 13zM1675 521q0 158 59 288t173 208.5t262 78.5q243 0 372 -148t129 -393q0 -113 -30 -214t-87 -182
t-150 -129t-210 -48q-246 0 -382 145.5t-136 393.5zM2175 755q-56 -3 -80 -62q-16 -42 -16 -153q0 -208 93 -208q22 0 39 8t27 23t17 31.5t9.5 39.5t3.5 40t1 39v27q1 26 0.5 40.5t-2.5 43.5t-8.5 47.5t-16.5 39t-27 31.5t-40 13z" />
    <glyph glyph-name="guilsinglleft" unicode="&#x2039;" horiz-adv-x="696" 
d="M33 669l426 404l191 -224l-315 -315l315 -315l-191 -224l-426 404v270z" />
    <glyph glyph-name="guilsinglright" unicode="&#x203a;" horiz-adv-x="696" 
d="M663 399l-426 -404l-191 224l315 315l-315 315l191 224l426 -404v-270z" />
    <glyph glyph-name="fraction" unicode="&#x2044;" horiz-adv-x="962" 
d="M24 0l341 1623h574l-342 -1623h-573z" />
    <glyph glyph-name="uni205F" unicode="&#x205f;" horiz-adv-x="596" 
 />
    <glyph glyph-name="uni2074" unicode="&#x2074;" horiz-adv-x="812" 
d="M615 455h72v-169h-414v169h74v77h-313v158l324 384l258 -1v-391l133 1v-151h-134v-77zM347 683v138l-111 -137z" />
    <glyph glyph-name="Euro" unicode="&#x20ac;" horiz-adv-x="1608" 
d="M184 1091q22 94 58 175.5t90 153t122 122.5t158 80.5t194 29.5q74 0 127 -5t120.5 -28.5t112.5 -66.5l34 71h311l1 -632h-298q1 53 -11 103.5t-38 95.5t-74 72.5t-111 27.5q-137 0 -183 -199h183v-224h-207v-63v-63h207v-224h-180q46 -173 180 -173q63 0 111 27.5
t74 72.5t38 95.5t11 103.5h298l-1 -632h-311l-34 71q-45 -43 -112.5 -66.5t-120.5 -28.5t-127 -5q-129 0 -235.5 41.5t-181.5 116t-125.5 168.5t-78.5 209h-120v224h88q-1 21 -1 63t1 63h-88v224h119z" />
    <glyph glyph-name="trademark" unicode="&#x2122;" horiz-adv-x="2717" 
d="M853 1183l-42 199h-71v-604h110v-241h-596v241h110v604h-67l-43 -199h-188v439h975v-439h-188zM1462 895q0 -25 0.5 -36t6 -29.5t16.5 -26.5t32.5 -15t53.5 -7v-244h-436v237q32 0 53.5 8.5t33 20t16.5 37.5t6 45t1 59v439h-112v240h558l208 -513l184 513h525v-233h-98
v-607h103v-246h-538v246h83v408l-229 -654h-188l-279 668v-310z" />
    <glyph glyph-name="partialdiff" unicode="&#x2202;" horiz-adv-x="1354" 
d="M770 1345q14 -14 54.5 -53t65 -63t68 -69t72.5 -77.5t68.5 -81t65.5 -88.5t54.5 -90.5t45.5 -95.5t28 -95t11 -98q0 -164 -84.5 -291t-226.5 -194t-316 -67q-162 0 -303.5 72t-228.5 202t-88 288q-2 211 127.5 339.5t345.5 139.5q-10 27 -82.5 105.5t-142.5 147t-70 69.5
h536zM787 550q0 38 -1 62t-7.5 58t-18 54t-34.5 35t-56 16q-30 0 -51.5 -19t-31 -42t-15 -62t-6 -57.5t-0.5 -50.5q0 -217 116 -217q34 0 56.5 24.5t32 64t13 70.5t3.5 64z" />
    <glyph glyph-name="uni2206" unicode="&#x2206;" horiz-adv-x="1432" 
d="M137 55l320 1183h473l290 -1183v-55h-1083v55zM536 205h380l-171 875z" />
    <glyph glyph-name="product" unicode="&#x220f;" horiz-adv-x="1837" 
d="M1763 1247h-141v-896h147v-351h-800v351h84v921h-269v-921h96l-1 -351h-809v351h147v896h-147v376h1693v-376z" />
    <glyph glyph-name="summation" unicode="&#x2211;" horiz-adv-x="1421" 
d="M754 350h249l13 70l63 267h273v-687h-1279v348h158l188 485l-188 437h-158v353h1268v-654l-268 -1l-76 302h-243l181 -437z" />
    <glyph glyph-name="minus" unicode="&#x2212;" horiz-adv-x="844" 
d="M746 539v-224h-647v224h647z" />
    <glyph glyph-name="radical" unicode="&#x221a;" horiz-adv-x="2486" 
d="M79 978l481 -1l192 -759l310 1404h814v-373h-653l-293 -1249h-473l-135 588q-33 56 -72.5 67.5t-170.5 11.5v311z" />
    <glyph glyph-name="infinity" unicode="&#x221e;" horiz-adv-x="1337" 
d="M621 391q-4 -5 -11.5 -13.5t-34 -30t-56.5 -37.5t-78 -29.5t-100 -13.5q-86 0 -153.5 28t-106.5 70.5t-64 99t-34 106t-9 99.5t9 99.5t34 106t64 99t106.5 70.5t153.5 28q52 0 99.5 -14t79 -33.5t55.5 -39t35 -33.5l11 -14q4 5 12 14.5t35.5 32.5t57.5 40.5t77.5 32
t97.5 14.5q86 0 153.5 -28t106.5 -70.5t64 -99t34 -106t9 -99.5t-9 -99.5t-34 -106t-64 -99t-106.5 -70.5t-153.5 -28q-50 0 -97 13t-78.5 31t-56.5 36t-37 31zM230 670q0 -26 10 -43.5t29 -24.5t35.5 -9.5t40.5 -2.5q27 0 72.5 20t77.5 40l32 20q-122 80 -182 80
q-24 0 -40.5 -2.5t-35.5 -9.5t-29 -24.5t-10 -43.5zM1012 670q0 26 -10 43.5t-29 24.5t-35.5 9.5t-40.5 2.5q-27 0 -72.5 -20t-77.5 -40l-32 -20q122 -80 182 -80q24 0 40.5 2.5t35.5 9.5t29 24.5t10 43.5z" />
    <glyph glyph-name="integral" unicode="&#x222b;" horiz-adv-x="864" 
d="M616 1072q7 -774 0 -908q0 -403 -377 -403q-80 0 -160.5 13t-107 21t-40.5 13v311q59 -13 96 -13q61 0 84 41t23 152v908q0 403 380 403q80 0 160.5 -13t107 -21t40.5 -13v-311q-58 13 -96 13q-63 0 -89.5 -42.5t-20.5 -150.5z" />
    <glyph glyph-name="approxequal" unicode="&#x2248;" horiz-adv-x="1707" 
d="M1090 74q-55 0 -114.5 21t-111.5 50.5t-101.5 59.5t-102 51t-96.5 21q-27 0 -65 -34t-147 -164l-131 86q24 37 54.5 100t55.5 109.5t59 94t80.5 73t104.5 25.5q55 0 114.5 -20.5t111.5 -50t102.5 -58.5t103.5 -49.5t97 -20.5q25 0 65.5 35t143.5 159l129 -85
q-24 -36 -54.5 -98.5t-55 -110t-58.5 -95t-80 -73.5t-104 -26zM1112 629q-55 0 -114.5 21t-111.5 50.5t-101.5 59.5t-102 51t-96.5 21q-27 0 -65 -34t-147 -164l-131 86q24 37 54.5 100t55.5 109.5t59 94t80.5 73t104.5 25.5q55 0 114.5 -20.5t111.5 -50t102.5 -58.5
t103.5 -49.5t97 -20.5q25 0 65.5 35t143.5 159l129 -85q-24 -36 -54.5 -98.5t-55 -110t-58.5 -95t-80 -73.5t-104 -26z" />
    <glyph glyph-name="notequal" unicode="&#x2260;" horiz-adv-x="774" 
d="M717 392v-223h-647v223h647zM717 761v-223h-647v223h647z" />
    <glyph glyph-name="lessequal" unicode="&#x2264;" horiz-adv-x="456" 
d="M-129 1182l715 596v-465l-333 -316l333 -316v-465l-715 596v370zM-95 224v-224h647v224h-647z" />
    <glyph glyph-name="greaterequal" unicode="&#x2265;" horiz-adv-x="456" 
d="M586 812l-715 -596v465l333 316l-333 316v465l715 -596v-370zM552 224v-224h-647v224h647z" />
    <glyph glyph-name="lozenge" unicode="&#x25ca;" horiz-adv-x="1432" 
d="M137 762l320 763h473l291 -763l-291 -763h-473zM496 762l209 -495l171 495l-171 495z" />
    <glyph glyph-name="uniE000" unicode="&#xe000;" horiz-adv-x="1070" 
d="M0 1070h1070v-1070h-1070v1070z" />
    <glyph glyph-name="uniF6D6" unicode="&#xf6d6;" horiz-adv-x="1478" 
d="M962 1814l153 -626l-165 -60l-288 567zM362 1795l307 -567l-144 -99l-423 475z" />
    <glyph glyph-name="uniF8FF" unicode="&#xf8ff;" horiz-adv-x="0" 
 />
    <glyph glyph-name="uniFB00" unicode="&#xfb00;" horiz-adv-x="1750" 
d="M1050 1207q0 403 380 403q80 0 160.5 -13t107 -21t40.5 -13v-311q-58 13 -96 13q-63 0 -89.5 -42.5t-20.5 -150.5h179v-311h-172v-456h110v-305h-680v305h84v456h-389v-456h110v-305h-680v305h84v456h-84v311h83q0 3 -2 135q0 403 380 403q80 0 160.5 -13t107 -21
t40.5 -13v-311q-58 13 -96 13q-63 0 -89.5 -42.5t-20.5 -150.5h395q0 3 -2 135z" />
    <glyph glyph-name="uniFB01" unicode="&#xfb01;" horiz-adv-x="1691" 
d="M1538 1072h-881q-6 108 20.5 150.5t89.5 42.5q38 0 96 -13v311q-14 5 -40.5 13t-107 21t-160.5 13q-380 0 -380 -403q2 -132 2 -135h-83v-311h84v-462h-84v-299h680v299h-110v462h393v-462h-82v-299h647v299h-84v773zM1257 1135q-119 0 -198 67.5t-79 182.5
q0 113 77.5 179t199.5 66q127 0 207 -66t80 -179q0 -115 -82.5 -182.5t-204.5 -67.5z" />
    <glyph glyph-name="uniFB02" unicode="&#xfb02;" horiz-adv-x="1703" 
d="M1552 1630v-1324h78v-306h-647v306h74v1011h-168t-107.5 -10t-73 -19.5t-31.5 -44.5t-18 -66.5v-104.5h177v-311h-172v-462h110v-299h-680v299h84v462h-84v311h83q0 3 -2 135q0 72 17.5 132t45.5 102.5t71.5 75.5t87 53.5t101 34t105 19.5t108 8.5t100 1.5t90.5 -2.5
t72 -1.5h579z" />
    <glyph glyph-name="uniFB03" unicode="&#xfb03;" horiz-adv-x="2564" 
d="M175 1207q2 -132 2 -135h-83v-311h84v-456h-84v-305h680v305h-110v456h389v-456h-84v-305h680v305h-110v456h391v-456h-82v-305h647v305h-84v767h-879q-6 108 20.5 150.5t89.5 42.5q38 0 96 -13v311q-14 5 -40.5 13t-107 21t-160.5 13q-380 0 -380 -403q2 -132 2 -135
h-395q-6 108 20.5 150.5t89.5 42.5q38 0 96 -13v311q-14 5 -40.5 13t-107 21t-160.5 13q-380 0 -380 -403zM2130 1135q-119 0 -198 67.5t-79 182.5q0 113 77.5 179t199.5 66q127 0 207 -66t80 -179q0 -115 -82.5 -182.5t-204.5 -67.5z" />
    <glyph glyph-name="uniFB04" unicode="&#xfb04;" horiz-adv-x="2544" 
d="M175 1207q0 403 380 403q80 0 160.5 -13t107 -21t40.5 -13v-311q-58 13 -96 13q-63 0 -89.5 -42.5t-20.5 -150.5h395q0 3 -2 135q0 403 380 403q80 0 160.5 -13t107 -21t40.5 -13v-311q-58 13 -96 13q-63 0 -89.5 -42.5t-20.5 -150.5h179v-311h-172v-456h110v-305h-680
v305h84v456h-389v-456h110v-305h-680v305h84v456h-84v311h83q0 3 -2 135zM2394 305h78v-305h-647v305h74v1012h-84v313h579v-1325z" />
    <glyph glyph-name="NULL" horiz-adv-x="0" 
 />
    <glyph glyph-name="invertedbreve" horiz-adv-x="1707" 
d="M366 1152q0 83 34.5 150t92 108.5t129 63.5t148.5 22t148.5 -22t129 -63.5t92 -108.5t34.5 -150h-252q0 76 -45 118.5t-107 42.5t-107 -42.5t-45 -118.5h-252v0z" />
    <glyph glyph-name="macron" horiz-adv-x="1090" 
d="M924 1183h-748v335h748v-335z" />
    <glyph glyph-name="Ymacron" horiz-adv-x="1559" 
d="M1564 1622h-637v-352h22.5h21.5h18t16.5 -1.5t13 -3.5t11 -6t7.5 -9t5.5 -12.5t1.5 -16.5q0 -55 -114 -228q-21 30 -91.5 138.5t-92.5 138.5h91v352h-852v-352h112l421 -598v-313h-155v-359h869v359h-157v365l204 371q24 45 35.5 64.5t31.5 46.5t38 37.5t44.5 18.5
t61.5 8h74v352zM1208 1696h-748v335h748v-335z" />
    <glyph glyph-name="ymacron" horiz-adv-x="1377" 
d="M360 -377h691v295h-232l378 710q21 40 31 56.5t31 38.5t48 30t66 8v311h-580v-311q70 0 90 -10q37 -20 5 -89l-97 -208l-176 307h68v311h-680v-311h88l466 -730zM1100 1183h-748v335h748v-335z" />
    <glyph glyph-name="Delta" horiz-adv-x="1432" 
d="M137 55l320 1183h473l290 -1183v-55h-1083v55zM536 205h380l-171 875z" />
    <glyph glyph-name="fi" horiz-adv-x="1689" 
d="M1536 1072h-879q-6 108 20.5 150.5t89.5 42.5q38 0 96 -13v311q-14 5 -40.5 13t-107 21t-160.5 13q-380 0 -380 -403q2 -132 2 -135h-83v-311h84v-456h-84v-305h680v305h-110v456h391v-456h-82v-305h647v305h-84v767zM1255 1135q-119 0 -198 67.5t-79 182.5
q0 113 77.5 179t199.5 66q127 0 207 -66t80 -179q0 -115 -82.5 -182.5t-204.5 -67.5z" />
    <glyph glyph-name="fl" horiz-adv-x="1669" 
d="M1519 305h78v-305h-647v305h74v1005h-257q-63 0 -89.5 -65t-20.5 -173h179v-311h-172v-456h110v-305h-680v305h84v456h-84v311h83q0 2 -0.5 35.5t-1.5 99.5q0 202 95 309t285 107h964v-1318z" />
    </font>
</defs>
</svg>
