<?xml version="1.0" standalone="no"?>
<!DOCTYPE svg PUBLIC "-//W3C//DTD SVG 1.1//EN" "http://www.w3.org/Graphics/SVG/1.1/DTD/svg11.dtd" >
<svg xmlns="http://www.w3.org/2000/svg" xmlns:xlink="http://www.w3.org/1999/xlink" version="1.1">
<metadata>
Created by FontForge 20161013 at Fri May  6 18:38:28 2011
 By ,,,
Copyright (c) 2011 by Oleg Frolov | Cyreal. All rights reserved.
</metadata>
<defs>
<font id="Brawler" horiz-adv-x="1369" >
  <font-face 
    font-family="Brawler"
    font-weight="400"
    font-stretch="normal"
    units-per-em="2048"
    panose-1="2 0 0 0 0 0 0 0 0 0"
    ascent="1638"
    descent="-410"
    x-height="1065"
    cap-height="1434"
    bbox="-196 -506 2269 1988"
    underline-thickness="102"
    underline-position="-307"
    unicode-range="U+0020-F000"
  />
<missing-glyph horiz-adv-x="1020" 
d="M102 1067h848v-1067h-848v1067zM250 147h553v773h-553v-773z" />
    <glyph glyph-name=".notdef" horiz-adv-x="1020" 
d="M102 1067h848v-1067h-848v1067zM250 147h553v773h-553v-773z" />
    <glyph glyph-name=".null" horiz-adv-x="532" 
 />
    <glyph glyph-name="glyph2" horiz-adv-x="532" 
 />
    <glyph glyph-name="space" unicode=" " horiz-adv-x="503" 
 />
    <glyph glyph-name="exclam" unicode="!" horiz-adv-x="507" 
d="M310 420h-113l-63 932q25 41 52.5 67.5t70.5 53.5q45 -25 69.5 -48.5t49.5 -70.5zM103 113q54 96 152 149q94 -51 145 -145q-55 -97 -151 -150q-97 49 -146 146z" />
    <glyph glyph-name="quotedbl" unicode="&#x22;" horiz-adv-x="710" 
d="M227 944h-74l-55 465q10 21 33.5 47.5t58.5 36.5q35 -10 58.5 -36.5t33.5 -47.5zM556 944h-73l-56 465q11 21 34.5 47.5t58.5 36.5q34 -10 57.5 -36.5t34.5 -47.5z" />
    <glyph glyph-name="numbersign" unicode="#" horiz-adv-x="1572" 
d="M862 436h-358l-181 -504l-123 41l166 463h-299v144h353l100 280h-350v144h401l182 501l123 -41l-166 -460h357l182 501l123 -41l-166 -460h299v-144h-352l-101 -280h351v-144h-404l-180 -504l-123 41zM557 580h358l101 280h-359z" />
    <glyph glyph-name="dollar" unicode="$" horiz-adv-x="1087" 
d="M88 414l102 10l76 -299q57 -23 122.5 -34t131.5 -9v565q-74 31 -148.5 63.5t-134 80t-98.5 116t-39 170.5q0 90 36 155.5t94 109.5t134 69t156 35v323h102v-319q113 0 205 -24.5t133 -63.5v-346l-102 -10l-78 305q-74 28 -158 32v-552q72 -31 142.5 -68t126 -87
t90 -118.5t34.5 -163.5q0 -92 -32.5 -157.5t-87 -109.5t-125 -68.5t-148.5 -32.5v-330h-102v324q-72 -3 -139.5 4.5t-125 20.5t-101.5 29.5t-66 33.5v346zM294 1075q0 -45 17.5 -79.5t48.5 -63.5t72 -52.5t88 -45.5v501q-94 -20 -160 -84.5t-66 -175.5zM821 354
q0 47 -15.5 85t-42 67t-62.5 52.5t-79 43.5v-504q86 23 142.5 83.5t56.5 172.5z" />
    <glyph glyph-name="percent" unicode="%" horiz-adv-x="1428" 
d="M635 1151q0 -66 -16.5 -121t-50 -97t-88 -65.5t-128.5 -23.5q-75 0 -128.5 23.5t-88.5 65.5t-51 97t-16 121t16 122t50 98t88.5 66.5t127.5 24.5q76 0 130.5 -24.5t88 -66.5t50 -98t16.5 -122zM1176 1434l-770 -1434h-154l770 1434h154zM1360 287q0 -66 -16.5 -121
t-50 -97t-88 -65.5t-128.5 -23.5q-75 0 -128.5 23.5t-88.5 65.5t-51 97t-16 121q0 65 16 121.5t50 98.5t88.5 66.5t127.5 24.5q76 0 130.5 -24.5t88 -66.5t50 -98.5t16.5 -121.5zM504 1151q0 49 -9.5 91t-27.5 74t-47 50t-68 18q-41 0 -69.5 -18t-47 -50t-26.5 -74t-8 -91
q0 -96 35.5 -162.5t115.5 -66.5t116 66.5t36 162.5zM1229 287q0 49 -9.5 91t-27.5 73.5t-47 50t-68 18.5q-41 0 -69.5 -18.5t-47 -50t-26.5 -73.5t-8 -91q0 -97 35.5 -163.5t115.5 -66.5t116 66.5t36 163.5z" />
    <glyph glyph-name="ampersand" unicode="&#x26;" horiz-adv-x="1453" 
d="M510 926q106 -123 205.5 -244t197.5 -227l160 247l-141 21l20 98h420v-61l-172 -74l-209 -315q106 -111 210.5 -190t213.5 -109l-21 -72h-79q-129 43 -229.5 99.5t-188.5 127.5q-12 -18 -45 -59t-88.5 -82t-133 -72.5t-180.5 -31.5q-88 0 -157.5 27.5t-118.5 73.5
t-75 107.5t-26 128.5q0 70 29 135.5t76 124t104.5 106.5t116.5 81q-67 68 -112.5 139.5t-45.5 171.5q0 92 35 163t95.5 120t140.5 73.5t170 24.5q102 0 195.5 -36t152.5 -111l-129 -264l-94 38l32 195q-34 35 -74 50.5t-81 15.5q-47 0 -93 -17.5t-81 -49.5t-56.5 -75
t-21.5 -94q0 -43 18.5 -90t59.5 -94zM497 109q58 0 110 23.5t93 54t69.5 63.5t43.5 51q-84 78 -163 169t-167 196q-98 -66 -155.5 -158t-57.5 -182t56.5 -153.5t170.5 -63.5z" />
    <glyph glyph-name="quotesingle" unicode="'" horiz-adv-x="381" 
d="M227 944h-73l-56 465q11 21 34.5 47.5t58.5 36.5q34 -10 57.5 -36.5t34.5 -47.5z" />
    <glyph glyph-name="parenleft" unicode="(" horiz-adv-x="559" 
d="M72 549q0 131 25 261t75 254t124.5 235.5t175.5 205.5l61 -45q-86 -90 -140 -199.5t-84 -228.5t-41 -242.5t-11 -240.5t11 -241t41 -242.5t84 -228t140 -199.5l-61 -46q-101 95 -175.5 206.5t-124.5 235.5t-75 254t-25 261z" />
    <glyph glyph-name="parenright" unicode=")" horiz-adv-x="559" 
d="M487 549q0 -131 -24.5 -261t-74.5 -254t-125 -235.5t-175 -206.5l-62 46q86 90 140.5 199.5t84 228t41 242.5t11.5 241t-11.5 240.5t-41 242.5t-84 228.5t-140.5 199.5l62 45q100 -94 175 -205.5t125 -235.5t74.5 -254t24.5 -261z" />
    <glyph glyph-name="asterisk" unicode="*" horiz-adv-x="976" 
d="M445 1165l-45 312h178l-43 -312h-90zM385 1055l-309 53l56 170l282 -137zM478 971l-148 -279l-143 107l217 225zM584 1034l219 -227l-145 -102l-148 274zM557 1151l285 137l51 -170l-305 -55z" />
    <glyph glyph-name="plus" unicode="+" horiz-adv-x="1348" 
d="M66 680h532v557h152v-557h532v-145h-532v-535h-152v535h-532v145z" />
    <glyph glyph-name="comma" unicode="," horiz-adv-x="469" 
d="M378 104q12 -51 0.5 -122.5t-41 -141t-73.5 -125t-97 -73.5l-41 51q36 24 59 57t34 70t12 71.5t-5 63.5q-96 49 -145 145q53 97 151 150q94 -51 146 -146z" />
    <glyph glyph-name="hyphen" unicode="-" horiz-adv-x="751" 
d="M125 553h500v-154h-500v154z" />
    <glyph glyph-name="period" unicode="." horiz-adv-x="464" 
d="M83 113q54 96 152 149q94 -51 145 -145q-55 -97 -151 -150q-96 49 -146 146z" />
    <glyph glyph-name="slash" unicode="/" horiz-adv-x="1195" 
d="M1155 1434l-942 -1756h-170l942 1756h170z" />
    <glyph glyph-name="zero" unicode="0" horiz-adv-x="1250" 
d="M625 1462q142 0 240 -60t158.5 -163t88 -239.5t27.5 -288.5q0 -151 -27.5 -285t-88 -235.5t-157.5 -160t-239 -58.5q-141 0 -239.5 58.5t-160 160t-89 235.5t-27.5 285q0 152 27.5 288.5t88 239.5t159 163t239.5 60zM621 1349q-76 0 -130 -44.5t-90 -126t-52.5 -199.5
t-16.5 -264q0 -140 15.5 -256t49.5 -198.5t88 -129t132 -46.5q84 0 141.5 46.5t93 129t51 198.5t15.5 256q0 146 -17.5 264t-53 199.5t-92 126t-134.5 44.5z" />
    <glyph glyph-name="one" unicode="1" horiz-adv-x="875" 
d="M865 92l-21 -92h-735v72l285 59v1116l-340 -71v71q133 51 254 109.5t221 109.5h70v-1335z" />
    <glyph glyph-name="two" unicode="2" horiz-adv-x="1185" 
d="M86 127q150 145 261.5 249.5t192 184t132.5 140t82 118t41.5 118t11.5 139.5t-22.5 134t-60 89t-86 49t-101.5 15q-54 0 -121 -21q-66 -21 -105 -57l-81 -339l-103 21v346q41 31 96.5 58.5t114.5 47.5t117.5 32t105.5 12q102 0 188.5 -23.5t149 -73t98 -126.5t35.5 -183
q0 -49 -9 -92.5t-28.5 -86.5t-49 -87t-69.5 -93q-41 -49 -93 -104t-117 -116l-314 -294h600l41 183l86 -21v-346h-993v127z" />
    <glyph glyph-name="three" unicode="3" horiz-adv-x="1212" 
d="M1106 407q0 -116 -43.5 -199t-116.5 -136t-169.5 -78t-201.5 -25q-124 0 -243.5 23.5t-219.5 65.5v360l103 18l69 -294q48 -32 106.5 -45t121.5 -13q177 0 272.5 81t95.5 246q0 99 -64 178q-63 79 -192 105h-137v125h123q120 21 181 86t61 168q0 58 -20.5 109t-59 88.5
t-92 59t-119.5 21.5q-63 0 -124 -12.5t-112 -44.5l-69 -291l-103 21v349q48 19 103 36t113.5 29t119.5 19t121 7q90 0 173 -18.5t146.5 -62t101.5 -115t38 -176.5q0 -53 -20.5 -105t-57 -98t-88 -82t-113.5 -56q61 -19 118.5 -48.5t101 -71.5t70 -98t26.5 -126z" />
    <glyph glyph-name="four" unicode="4" horiz-adv-x="1181" 
d="M698 131v213h-689v55l797 1065h96v-1007h197v-113h-197v-213l195 -39l-21 -92h-600v72zM698 457v671l-506 -671h506z" />
    <glyph glyph-name="five" unicode="5" horiz-adv-x="1178" 
d="M990 1249h-643l-33 -409q64 14 132.5 22t140.5 8q124 0 217.5 -37.5t155 -99t92 -140.5t30.5 -161q0 -123 -46 -211t-123 -143t-177 -81t-211 -26q-110 0 -223 22.5t-213 67.5v347l102 20l70 -289q53 -24 116.5 -39.5t129.5 -15.5q69 0 132.5 18.5t113 57.5t78 100.5
t28.5 147.5q0 61 -21.5 120.5t-66.5 105.5t-116 73.5t-167 25.5q-18 0 -35.5 -1t-37.5 -3q-35 -4 -67 -6t-63 -6h-94l58 717h667l62 108l106 -26z" />
    <glyph glyph-name="six" unicode="6" horiz-adv-x="1196" 
d="M907 427q0 77 -24 134.5t-63.5 96t-93 59t-114.5 20.5q-74 0 -149 -32.5t-136 -92.5q0 -119 19.5 -217t58.5 -167t98 -107.5t139 -38.5q131 0 198 96t67 249zM337 713q78 75 174 110t189 35q84 0 161.5 -24.5t138 -75.5t96.5 -129t36 -183q0 -98 -37 -183.5t-101.5 -151
t-154.5 -103.5t-195 -38q-256 0 -399 158t-143 454q0 223 78.5 389t199.5 277t266.5 163t280.5 50l37 -92q-109 -8 -220.5 -48t-201.5 -118.5t-147.5 -199t-57.5 -290.5z" />
    <glyph glyph-name="seven" unicode="7" horiz-adv-x="994" 
d="M974 1434v-100q-80 -172 -153.5 -338.5t-143.5 -331t-137.5 -329.5t-134.5 -335h-235q75 161 150.5 316t154 309t161.5 309t172 316h-553l-72 -254l-106 23v415h897z" />
    <glyph glyph-name="eight" unicode="8" horiz-adv-x="1197" 
d="M1100 385q0 -106 -44 -184t-116.5 -129.5t-164.5 -77t-187 -25.5q-92 0 -181 20.5t-157.5 65.5t-110.5 113t-42 164q0 55 14.5 111.5t48 108.5t91 100t141.5 87q-103 54 -166.5 149t-63.5 202q0 69 31 136.5t89.5 121t143.5 85t193 31.5q84 0 160 -21.5t132 -63.5
t89 -105.5t33 -147.5q0 -106 -54.5 -200.5t-193.5 -163.5q51 -27 107.5 -60.5t102.5 -78.5t75.5 -103.5t29.5 -134.5zM887 324q0 79 -29.5 131.5t-81.5 91.5t-123 70.5t-151 68.5q-37 -18 -71.5 -51t-60 -75t-42 -92t-16.5 -106q0 -73 24.5 -126.5t65.5 -87t93 -49
t106 -15.5q53 0 105 15.5t92 46t64.5 75.5t24.5 103zM373 1124q0 -55 20.5 -109t82.5 -95q28 -19 86.5 -51.5t115.5 -57.5q68 63 104 137t36 182q0 111 -62.5 165.5t-152.5 54.5q-92 0 -161 -57.5t-69 -168.5z" />
    <glyph glyph-name="nine" unicode="9" horiz-adv-x="1197" 
d="M289 1006q0 -77 24 -134.5t63.5 -96t93 -59t114.5 -20.5q74 0 149 32.5t136 92.5q0 119 -19.5 217t-58.5 167t-98 107.5t-139 38.5q-131 0 -198 -96t-67 -249zM859 720q-78 -75 -174 -110t-189 -35q-84 0 -161.5 24.5t-138 75.5t-96.5 129t-36 183q0 98 37 183.5
t101.5 151t154.5 103.5t195 38q256 0 399 -158t143 -454q0 -223 -78.5 -389t-199.5 -277t-266.5 -163t-280.5 -50l-37 92q109 8 220.5 48t201.5 118.5t147.5 199t57.5 290.5z" />
    <glyph glyph-name="colon" unicode=":" horiz-adv-x="548" 
d="M126 113q53 96 151 149q95 -51 146 -145q-55 -97 -152 -150q-96 49 -145 146zM126 948q53 97 151 150q95 -51 146 -145q-55 -97 -152 -150q-96 49 -145 145z" />
    <glyph glyph-name="semicolon" unicode=";" horiz-adv-x="555" 
d="M126 948q54 97 152 150q94 -51 145 -145q-55 -97 -151 -150q-96 49 -146 145zM423 104q13 -51 1.5 -122.5t-41 -141t-73.5 -125t-98 -73.5l-40 51q36 24 58.5 57t34 70t12.5 71.5t-5 63.5q-96 49 -146 145q54 97 152 150q94 -51 145 -146z" />
    <glyph glyph-name="less" unicode="&#x3c;" horiz-adv-x="1421" 
d="M61 680l1247 506v-160l-1036 -410l1036 -409v-160l-1247 506v127z" />
    <glyph glyph-name="equal" unicode="=" horiz-adv-x="1504" 
d="M144 885h1216v-146h-1216v146zM144 500h1216v-146h-1216v146z" />
    <glyph glyph-name="greater" unicode="&#x3e;" horiz-adv-x="1421" 
d="M1360 553l-1247 -506v160l1036 409l-1036 410v160l1247 -506v-127z" />
    <glyph glyph-name="question" unicode="?" horiz-adv-x="885" 
d="M293 113q53 96 152 149q94 -51 145 -145q-55 -97 -152 -150q-96 49 -145 146zM230 1098l-101 -15l-63 287q76 41 171 64.5t193 23.5q70 0 134.5 -16.5t113.5 -50t79 -86t30 -125.5q0 -88 -29 -149.5t-71 -106.5t-92 -77t-92 -61.5t-70.5 -61.5t-28.5 -75
q0 -41 19.5 -70.5t70.5 -29.5q53 0 80 74l73 -58q-12 -35 -31.5 -58.5t-41 -38.5t-41 -22.5t-33.5 -9.5q-107 -14 -177.5 45.5t-70.5 182.5q0 67 52.5 124.5t114.5 112.5t114.5 114.5t52.5 131.5q0 98 -62.5 147t-144.5 49q-70 0 -133 -32z" />
    <glyph glyph-name="at" unicode="@" horiz-adv-x="1764" 
d="M1168 1100h154l-130 -838q99 10 172.5 59.5t124 123t76 165.5t25.5 189q0 131 -42 239.5t-121 185t-191.5 118.5t-253.5 42q-166 0 -303.5 -60t-236.5 -165.5t-154.5 -249t-55.5 -309.5q0 -182 56.5 -320.5t150.5 -231.5t218 -140t259 -47q90 0 171 12t150.5 29.5t127 39
t100.5 40.5q6 -23 14 -39q4 -17 9.5 -28t5.5 -13q-25 -15 -80.5 -39.5t-133 -49t-172 -42t-194.5 -17.5q-193 0 -346.5 65.5t-261 177.5t-164.5 261.5t-57 319.5q0 167 56 331t169.5 293t283.5 209t396 80q184 0 317 -59.5t219 -156.5t127 -220t41 -252t-38 -248
t-109.5 -210t-175 -146.5t-232.5 -55.5q-22 0 -39.5 1t-27.5 3q-9 3 -14 14t-9 25q-6 17 -10 35l51 262q-22 -41 -61 -103.5t-88.5 -120.5t-103.5 -100t-105 -42q-52 0 -96 19.5t-77.5 59.5t-53 102t-19.5 148q0 144 44 269t113.5 216t157.5 143t174 52q72 0 116 -29.5
t67 -74.5zM1127 928q0 37 -27.5 60.5t-89.5 23.5q-63 0 -113.5 -30t-89 -78t-65.5 -107.5t-43 -117.5t-24.5 -111.5t-8.5 -86.5q0 -28 4 -61t15.5 -60.5t30 -46t48.5 -18.5q62 0 113 43t92 107.5t71 142.5t49.5 148.5t28.5 122.5t9 69z" />
    <glyph glyph-name="A" unicode="A" 
d="M1400 92l-20 -92h-471v72l145 45l-131 334h-563l-125 -328l166 -31l-21 -92h-411v72l145 51l493 1311h150l500 -1307zM401 563h481l-242 633z" />
    <glyph glyph-name="B" unicode="B" horiz-adv-x="1303" 
d="M74 0v72l194 59v1172l-194 38l20 93h582q223 0 349 -93.5t126 -269.5q0 -78 -28.5 -133t-72.5 -92t-99.5 -58.5t-110.5 -29.5v-10q69 -3 136.5 -25.5t121 -65.5t87.5 -105.5t34 -145.5q0 -119 -38 -197t-109 -124t-171 -65.5t-225 -19.5h-602zM676 113q90 0 152.5 24.5
t101.5 65.5t56 93t17 107q0 54 -19 104t-56 90t-93.5 64.5t-130.5 24.5h-231v-573h203zM709 788q38 0 79 16.5t74 50.5t53.5 86t20.5 122q0 121 -67.5 189.5t-192.5 68.5h-203v-533h236z" />
    <glyph glyph-name="C" unicode="C" horiz-adv-x="1350" 
d="M1058 1297q-49 32 -113.5 41t-126.5 9q-98 0 -191 -38t-165 -117t-115 -199t-43 -282q0 -175 43 -294.5t117 -192.5t170 -105.5t203 -33.5q78 1 132 17.5t101 40.5l74 317l104 -22v-350q-88 -43 -198.5 -80t-261.5 -37q-140 0 -267 47.5t-223 140.5t-152.5 232t-56.5 320
q0 177 62.5 315.5t168 235t244 148t289.5 51.5q94 0 188.5 -20.5t188.5 -64.5v-349l-103 -21z" />
    <glyph glyph-name="D" unicode="D" horiz-adv-x="1484" 
d="M1393 713q0 -148 -47.5 -278t-138.5 -226t-224 -152.5t-305 -56.5h-604v72l194 59v1172l-194 38l20 93h584q178 0 312 -57.5t223 -156t134.5 -229.5t45.5 -278zM473 1321v-1208h170q127 0 226.5 42t168 119.5t104.5 188t36 250.5q0 137 -31 249.5t-95.5 192.5t-166 123
t-242.5 43h-170z" />
    <glyph glyph-name="E" unicode="E" horiz-adv-x="1252" 
d="M1077 350l107 -22v-328h-1110v72l194 59v1172l-194 38l20 93h1047v-336l-103 -21l-65 244h-500v-520l346 8l55 137l72 -20v-363l-57 -20l-70 135l-346 10v-575h539z" />
    <glyph glyph-name="F" unicode="F" horiz-adv-x="1182" 
d="M819 809l55 137l72 -20v-363l-57 -20l-70 135l-346 10v-557l234 -39l-21 -92h-612v72l194 59v1172l-194 38l20 93h1047v-347l-103 -20l-65 254h-500v-520z" />
    <glyph glyph-name="G" unicode="G" horiz-adv-x="1461" 
d="M1289 1026l-104 -20l-70 287q-49 31 -113.5 43.5t-125.5 12.5q-122 0 -226.5 -40t-181 -120t-119.5 -199.5t-43 -279.5q0 -86 13 -158.5t36.5 -132.5t55.5 -107.5t70 -83.5q39 -37 82 -62.5t88 -42t90 -24t89 -7.5q64 0 128.5 15.5t125.5 36.5v372l-204 39v71h524v-71
l-115 -37v-424q-109 -55 -230.5 -89t-256.5 -34q-140 0 -268.5 47.5t-227 141t-157 231.5t-58.5 319q0 131 29 237.5t81.5 190t125 144.5t160 101t187 59.5t204.5 19.5q216 0 411 -91v-345z" />
    <glyph glyph-name="H" unicode="H" horiz-adv-x="1642" 
d="M1569 92l-21 -92h-573v72l194 59v543h-696v-543l195 -39l-21 -92h-573v72l194 59v1172l-194 38l20 93h574v-72l-195 -59v-517h696v517l-194 38l20 93h574v-72l-195 -59v-1172z" />
    <glyph glyph-name="I" unicode="I" horiz-adv-x="741" 
d="M473 1303v-1172l195 -39l-21 -92h-573v72l194 59v1172l-194 38l20 93h574v-72z" />
    <glyph glyph-name="J" unicode="J" horiz-adv-x="990" 
d="M657 86q-54 -61 -122.5 -87t-144.5 -26q-84 0 -168 23.5t-155 58.5v336l106 21l74 -303q61 -21 113 -21q69 0 108 29.5t58.5 79t24.5 114t5 135.5v89v768l-194 38l20 93h559v-72l-180 -59v-752q0 -59 -1 -120.5t-10 -122t-30.5 -117t-62.5 -105.5z" />
    <glyph glyph-name="K" unicode="K" horiz-adv-x="1406" 
d="M473 672v-541l174 -39l-20 -92h-553v72l194 59v1172l-194 38l20 93h533v-72l-154 -59v-519h184l392 537l-132 20l21 93h412v-72l-174 -57l-379 -517l442 -659l195 -37l-21 -92h-334l-450 672h-156z" />
    <glyph glyph-name="L" unicode="L" horiz-adv-x="1151" 
d="M1009 408l103 -21v-387h-1039v72l195 59v1172l-195 38l21 93h594v-72l-215 -59v-1190h467z" />
    <glyph glyph-name="M" unicode="M" horiz-adv-x="1949" 
d="M1681 1303v-1172l195 -39l-21 -92h-571v72l192 57v1032l-506 -1030h-71l-508 1004v-1004l194 -39l-20 -92h-492v72l195 59v1172l-193 38l21 93h362l517 -1024l503 1024h398v-72z" />
    <glyph glyph-name="N" unicode="N" horiz-adv-x="1602" 
d="M391 1434l838 -1112v981l-193 38l20 93h490v-72l-195 -59v-1303h-122l-838 1114v-983l194 -39l-20 -92h-492v72l195 59v1172l-195 38l21 93h297z" />
    <glyph glyph-name="O" unicode="O" horiz-adv-x="1567" 
d="M807 84q102 0 186 49t143.5 131t92.5 190.5t33 225.5q0 127 -29 248t-90.5 214t-156.5 150.5t-226 57.5q-103 0 -186.5 -49.5t-143 -131.5t-92.5 -190.5t-33 -224.5q0 -127 29 -248t90 -214t156.5 -150.5t226.5 -57.5zM782 1462q170 0 300 -61.5t217.5 -164.5
t132.5 -238.5t45 -282.5q0 -154 -48.5 -290t-137.5 -236.5t-217 -159t-290 -58.5q-170 0 -300 61.5t-218 165t-132 238.5t-44 283q0 153 48 289.5t137.5 237t217.5 158.5t289 58z" />
    <glyph glyph-name="P" unicode="P" horiz-adv-x="1227" 
d="M604 1434q94 0 193.5 -11.5t182.5 -56.5t136 -134t53 -245q0 -137 -53 -221t-136 -130t-182.5 -62.5t-193.5 -16.5h-131v-426l236 -39l-21 -92h-614v72l194 59v1172l-194 38l20 93h510zM473 1321v-651h131q66 0 128.5 9t111.5 41t79.5 95.5t30.5 171.5q0 96 -27.5 160.5
t-74.5 102.5t-110.5 54.5t-137.5 16.5h-131z" />
    <glyph glyph-name="Q" unicode="Q" horiz-adv-x="1569" 
d="M783 1462q170 0 300 -61.5t217.5 -164.5t132.5 -238.5t45 -282.5q0 -133 -35 -251t-101.5 -213t-163 -163t-216.5 -96q45 -70 114.5 -110t145 -57.5t151.5 -16t137 13.5v-76q-100 -41 -212.5 -54.5t-219 11.5t-197.5 90.5t-147 179.5q-157 11 -278 75.5t-202 166.5
t-122 232.5t-41 271.5q0 153 48 289.5t137.5 237t217.5 158.5t289 58zM808 84q102 0 186 49t143.5 131t92.5 190.5t33 225.5q0 127 -29 248t-90.5 214t-156.5 150.5t-226 57.5q-103 0 -186.5 -49.5t-143 -131.5t-92.5 -190.5t-33 -224.5q0 -127 29 -248t90 -214
t156.5 -150.5t226.5 -57.5z" />
    <glyph glyph-name="R" unicode="R" horiz-adv-x="1358" 
d="M604 1434q94 0 195.5 -13.5t185.5 -57.5t139.5 -131t55.5 -235q0 -71 -20.5 -128.5t-55.5 -100.5t-82 -74.5t-102 -52.5l313 -516l166 -33l-21 -92h-309l-348 594q-62 -6 -117 -6h-131v-457l195 -39l-21 -92h-573v72l194 59v1172l-194 38l20 93h510zM473 1321v-621h131
q66 0 130.5 10.5t115.5 42t83 90t32 154.5q0 101 -32 163.5t-83 98t-115.5 49t-130.5 13.5h-131z" />
    <glyph glyph-name="S" unicode="S" horiz-adv-x="1116" 
d="M107 404l102 20l76 -298q54 -20 110 -31.5t113 -11.5q59 0 113.5 12.5t96 43.5t66.5 82t25 128q0 93 -51 149q-51 57 -127.5 97.5t-166.5 74.5q-45 17 -86.5 38.5t-79.5 46.5q-77 50 -128 126t-51 202q0 71 21.5 126.5t58 98t86.5 71.5t106.5 47.5t118 27t121.5 8.5
q113 0 205 -24q93 -23 133 -66v-346l-103 -20l-77 309q-84 34 -168 34q-58 0 -110 -16t-91.5 -48.5t-62.5 -82.5t-23 -119q0 -83 51 -135t127.5 -92.5t166.5 -79.5q89 -38 166 -92t128 -134t51 -201q0 -111 -44 -184t-117 -118q-36 -22 -77.5 -37t-86 -24t-91 -13t-92.5 -4
q-67 0 -131.5 7.5t-119.5 20t-96.5 29t-61.5 33.5v345z" />
    <glyph glyph-name="T" unicode="T" horiz-adv-x="1284" 
d="M143 1026l-102 21v387h1202v-387l-102 -21l-68 295h-325v-1190l194 -39l-20 -92h-574v72l195 59v1190h-332z" />
    <glyph glyph-name="U" unicode="U" horiz-adv-x="1533" 
d="M436 1303v-837q0 -192 100.5 -287.5t286.5 -95.5q137 0 209.5 44t103.5 113.5t34 153.5t3 162l-4 747l-195 38l21 93h491v-72l-174 -59v-790q0 -90 -17 -186t-69.5 -175t-151 -130t-259.5 -51q-289 0 -436.5 115.5t-147.5 381.5v835l-195 38l21 93h573v-72z" />
    <glyph glyph-name="V" unicode="V" horiz-adv-x="1353" 
d="M617 0l-502 1303l-157 38l20 93h494v-72l-154 -45l406 -1049l366 1043l-176 30l21 93h444v-72l-160 -57l-460 -1305h-142z" />
    <glyph glyph-name="W" unicode="W" horiz-adv-x="2091" 
d="M541 0l-393 1305l-164 36l20 93h521v-72l-176 -49l299 -991l383 1112h116l350 -1117l342 992l-180 32l21 93h458v-72l-169 -53l-449 -1309h-127l-346 1102l-381 -1102h-125z" />
    <glyph glyph-name="X" unicode="X" horiz-adv-x="1359" 
d="M1199 1309l-406 -566l398 -612l159 -39l-20 -92h-498v72l139 39l-317 489l-358 -485l149 -23l-20 -92h-432v72l161 55l430 578l-387 598l-170 38l21 93h516v-72l-145 -41l307 -473l334 471l-144 22l21 93h419v-72z" />
    <glyph glyph-name="Y" unicode="Y" horiz-adv-x="1304" 
d="M559 131v479l-440 693l-160 38l21 93h502v-72l-144 -41l357 -557l339 553l-151 24l20 93h428v-72l-165 -57l-402 -652v-522l195 -39l-21 -92h-573v72z" />
    <glyph glyph-name="Z" unicode="Z" horiz-adv-x="1223" 
d="M82 0v100l785 1221h-582l-78 -295l-102 21l2 387h999v-105l-780 -1216h633l75 288l103 -20v-381h-1055z" />
    <glyph glyph-name="bracketleft" unicode="[" horiz-adv-x="555" 
d="M171 1507h327v-92h-163v-1628h163v-92h-327v1812z" />
    <glyph glyph-name="backslash" unicode="\" horiz-adv-x="1195" 
d="M210 1434l942 -1756h-170l-942 1756h170z" />
    <glyph glyph-name="bracketright" unicode="]" horiz-adv-x="555" 
d="M384 -305h-327v92h164v1628h-164v92h327v-1812z" />
    <glyph glyph-name="asciicircum" unicode="^" horiz-adv-x="2032" 
d="M1622 821h-113l-493 514l-494 -514h-112l503 645h205z" />
    <glyph glyph-name="underscore" unicode="_" horiz-adv-x="1571" 
d="M198 -182h1175v-156h-1175v156z" />
    <glyph glyph-name="grave" unicode="`" horiz-adv-x="1079" 
d="M231 1536h201l219 -344h-112z" />
    <glyph glyph-name="a" unicode="a" horiz-adv-x="1078" 
d="M707 0v166q-31 -37 -75 -70t-93 -58.5t-99 -39.5t-95 -14q-56 0 -105 17t-86 52t-59.5 84t-22.5 115q0 102 52.5 166.5t185.5 99.5q100 27 193 44.5t204 29.5v168q0 57 -16.5 97t-45 65.5t-66.5 37t-81 11.5q-47 0 -96 -6.5t-96 -22.5l-58 -233l-106 18v266
q80 35 171 62.5t195 27.5q80 0 150 -16t122 -54t81.5 -100.5t29.5 -154.5v-629l148 -35l-21 -94h-311zM277 268q0 -49 12.5 -78.5t34 -47t49 -23.5t58.5 -6q36 0 77 15t79 37.5t70 51.5t50 55v234q-65 -8 -131 -17.5t-131 -27.5q-96 -27 -132 -78t-36 -115z" />
    <glyph glyph-name="b" unicode="b" horiz-adv-x="1185" 
d="M160 1364l-170 33l-11 90l365 49v-588q78 70 161 101.5t163 31.5q86 0 164.5 -34.5t139 -101t95.5 -160t35 -210.5q0 -155 -45 -268.5t-123 -187.5t-183.5 -110t-226.5 -36q-86 0 -185 19.5t-179 60.5v1311zM344 145q117 -59 219 -59q78 0 140.5 32t105.5 89t66.5 137
t23.5 174q0 189 -80 297.5t-215 108.5q-119 0 -260 -90v-689z" />
    <glyph glyph-name="c" unicode="c" horiz-adv-x="1058" 
d="M793 936q-88 35 -160 35q-78 0 -141.5 -33t-108.5 -89t-70.5 -134t-25.5 -168q0 -82 20.5 -160t63.5 -139.5t108.5 -98t155.5 -36.5q70 0 152.5 26.5t146.5 73.5l45 -78q-82 -78 -180.5 -118t-202.5 -40t-197.5 37t-164 108t-111.5 174t-41 236q0 132 46 234t122 173
t174 107.5t203 36.5q84 0 165.5 -23.5t159.5 -72.5v-272l-102 -21z" />
    <glyph glyph-name="d" unicode="d" horiz-adv-x="1226" 
d="M846 117q-70 -64 -146.5 -98.5t-173.5 -34.5q-86 0 -165.5 36.5t-141 103t-99.5 162t-38 212.5q0 131 44 237.5t117.5 181t168 114.5t192.5 40q62 0 123 -17.5t119 -52.5v363l-170 33l-10 90l362 49v-1407l139 -35l-20 -94h-301v117zM565 119q66 0 141.5 33.5t139.5 89.5
v608q-53 55 -111.5 80.5t-116.5 25.5q-65 0 -124.5 -30.5t-105.5 -85t-73.5 -131t-27.5 -168.5q0 -86 15 -163t49 -134.5t87.5 -91t126.5 -33.5z" />
    <glyph glyph-name="e" unicode="e" horiz-adv-x="1095" 
d="M288 549q0 -103 27.5 -182.5t76.5 -136t115.5 -86t144.5 -29.5q144 0 301 100l45 -78q-100 -78 -206.5 -116.5t-208.5 -38.5q-103 0 -193 36.5t-158.5 107.5t-108.5 174t-40 237q0 135 44 237.5t114.5 171t158.5 102t176 33.5q138 0 223 -47t133 -122.5t65.5 -171
t17.5 -191.5h-727zM810 659q0 80 -20.5 139.5t-53.5 97.5t-77 56.5t-89 18.5q-49 0 -97 -20.5t-87 -60.5t-64.5 -97.5t-27.5 -133.5h516z" />
    <glyph glyph-name="f" unicode="f" horiz-adv-x="757" 
d="M608 1550q60 0 134.5 -17t134.5 -52v-273l-103 -20l-57 225q-25 12 -54.5 18.5t-54.5 6.5q-92 0 -135 -55.5t-43 -204.5v-113h273v-113h-273v-825l228 -29l-21 -98h-569v61l178 62v829h-178v113h178v115q2 102 33.5 172.5t83 114.5t116 63.5t129.5 19.5z" />
    <glyph glyph-name="g" unicode="g" horiz-adv-x="1164" 
d="M544 330q-33 0 -66 3t-65 11q-35 -27 -59.5 -61.5t-24.5 -73.5q0 -35 32.5 -58.5t100.5 -25.5h385q131 -4 187.5 -66.5t56.5 -148.5q0 -98 -55.5 -176t-142.5 -131.5t-196.5 -81t-218.5 -27.5q-184 0 -295.5 66.5t-111.5 206.5q0 77 48 135.5t130 111.5q-82 60 -82 156
q0 53 38 110.5t107 98.5q-90 41 -147 116.5t-57 198.5q0 105 35.5 178.5t96 120.5t139.5 69.5t163 22.5q80 0 150.5 -20.5t123.5 -63.5q29 0 86.5 3.5t116.5 7.5q67 4 145 10v-141l-256 6q39 -82 39 -193q0 -102 -33.5 -171.5t-91 -112.5t-130 -61.5t-148.5 -18.5zM548 442
q102 0 148 71t46 181q0 58 -13 109t-38.5 90t-66.5 61.5t-97 22.5q-53 0 -94 -21.5t-67.5 -59.5t-40 -88t-13.5 -108q0 -55 13.5 -102t42 -82t72.5 -54.5t108 -19.5zM505 -49q-103 0 -178 26q-68 -79 -68 -155q0 -60 22.5 -99.5t63.5 -64.5t97.5 -35t123.5 -10
q72 0 141.5 18.5t124 49t87 71.5t32.5 86q0 60 -42 86.5t-160 26.5h-244z" />
    <glyph glyph-name="h" unicode="h" horiz-adv-x="1249" 
d="M392 911q34 43 78 75t91.5 53.5t94.5 32.5t90 11q147 0 228 -90t81 -286l2 -580l164 -35l-21 -92h-485v61l158 62v543q0 75 -12.5 124.5t-37 77t-61.5 37.5t-86 10q-41 0 -83 -7t-80 -21.5t-69.5 -32.5t-51.5 -43v-684l153 -29l-20 -98h-498v61l180 62v1247l-170 33
l-10 84l365 49v-625z" />
    <glyph glyph-name="i" unicode="i" horiz-adv-x="624" 
d="M422 127l154 -29l-21 -98h-497v61l180 62v792l-166 31l-10 84l360 49v-952zM170 1378q52 90 144 142q90 -47 137 -138q-53 -90 -143 -141q-43 23 -79 58.5t-59 78.5z" />
    <glyph glyph-name="j" unicode="j" horiz-adv-x="559" 
d="M207 915l-166 31l-10 84l361 49v-1167q0 -94 -30 -167t-79 -123t-113.5 -75.5t-134.5 -25.5q-57 0 -116.5 17.5t-114.5 53.5v273l102 20l58 -223q61 -24 104 -24q49 0 77 25.5t41 65.5t17 90t4 97v999zM142 1378q51 90 143 142q90 -47 137 -138q-53 -90 -143 -141
q-43 23 -79 58.5t-58 78.5z" />
    <glyph glyph-name="k" unicode="k" horiz-adv-x="1203" 
d="M392 127l153 -29l-20 -98h-498v61l180 62v1249l-166 31l-10 84l361 49v-1000l405 409l-131 22l21 98h451v-62l-197 -73l-251 -250l354 -555l147 -27l-20 -98h-265l-347 544l-167 -164v-253z" />
    <glyph glyph-name="l" unicode="l" horiz-adv-x="598" 
d="M391 127l174 -29l-20 -98h-519v61l181 62v1249l-166 31l-10 84l360 49v-1409z" />
    <glyph glyph-name="m" unicode="m" horiz-adv-x="1891" 
d="M1219 92l-21 -92h-469v61l148 62v573q0 117 -59.5 168t-143.5 51q-65 0 -138 -28.5t-114 -75.5v-684l146 -29l-21 -98h-485v61l178 62v784l-170 33l-10 90l362 49v-168q70 86 166 129t182 43q92 0 160 -52t105 -161q67 97 166.5 155t197.5 58q62 0 117 -23.5t96 -71.5
t64.5 -120.5t23.5 -171.5v-569l166 -35l-20 -92h-478v61l148 62v573q0 58 -17.5 100t-47 68.5t-66.5 38.5t-76 12q-82 0 -143.5 -37.5t-104.5 -95.5v-655z" />
    <glyph glyph-name="n" unicode="n" horiz-adv-x="1280" 
d="M1088 127l164 -35l-21 -92h-485v61l157 62v543q0 75 -12 124.5t-36.5 77t-61.5 37.5t-86 10q-41 0 -83 -7t-80 -21.5t-69.5 -32.5t-52.5 -43v-684l156 -29l-21 -98h-495v61l178 62v784l-170 33l-10 90l362 49v-168q35 43 79 75t91 53.5t94 32.5t90 11q148 0 228 -90
t84 -286v-580z" />
    <glyph glyph-name="o" unicode="o" horiz-adv-x="1214" 
d="M622 96q82 0 140 36t95 95.5t54.5 135t17.5 155.5q0 84 -16.5 166t-55.5 146.5t-103.5 103.5t-160.5 39q-82 0 -140.5 -36t-95 -95.5t-54 -135t-17.5 -155.5q0 -84 16 -166t55 -146.5t103.5 -103.5t161.5 -39zM591 1085q137 0 239.5 -46t170 -122.5t100.5 -175t33 -200.5
q0 -105 -34 -204t-98.5 -178t-159.5 -127t-218 -48q-138 0 -240 46t-170 122.5t-100.5 175t-32.5 200.5q0 105 34 204t98.5 178t159.5 127t218 48z" />
    <glyph glyph-name="p" unicode="p" horiz-adv-x="1218" 
d="M393 946q80 72 162.5 104.5t160.5 32.5q86 0 163 -37.5t133.5 -105.5t89 -163t32.5 -212q0 -121 -35 -224t-98.5 -180t-154.5 -121t-201 -44q-121 0 -252 53v-383l196 -28l-20 -99h-539v62l178 61v1245l-166 33l-10 90l361 49v-133zM393 203q71 -49 133.5 -71.5
t116.5 -22.5q69 0 122.5 33.5t90 91t56 134t19.5 162.5q0 183 -72.5 290.5t-201.5 107.5q-57 0 -124 -23.5t-140 -77.5v-624z" />
    <glyph glyph-name="q" unicode="q" horiz-adv-x="1164" 
d="M816 942q-45 12 -85 17.5t-75 5.5q-98 0 -167.5 -39t-114.5 -104.5t-65.5 -153.5t-20.5 -189q0 -82 21.5 -148.5t59.5 -114.5t91 -73.5t114 -25.5q56 0 117.5 26.5t124.5 67.5v731zM816 102q-72 -65 -150.5 -95t-156.5 -30q-84 0 -161 33t-136 94.5t-94 149.5t-35 197
q0 145 42 261.5t118.5 197.5t186.5 124t243 43q149 0 327 -59l2 -1352l156 -28l-20 -99h-529v62l209 61z" />
    <glyph glyph-name="r" unicode="r" horiz-adv-x="917" 
d="M875 776l-107 -18l-55 155q-8 2 -20.5 2h-20.5q-66 0 -137.5 -28.5t-112.5 -75.5v-684l189 -29l-21 -98h-528v61l178 62v784l-170 33l-10 90l362 49v-168q70 74 149 121t169 47q69 0 135 -28v-275z" />
    <glyph glyph-name="s" unicode="s" horiz-adv-x="933" 
d="M92 324l107 18l55 -203q53 -22 94 -34.5t101 -12.5q92 0 150.5 41t60.5 133q2 60 -38 97.5t-101.5 67.5t-132 56.5t-132 65.5t-102.5 94t-41 141q0 80 39 135.5t100 90.5t138 50t151 15q88 0 160.5 -18.5t103.5 -48.5v-256l-107 -19l-55 209q-35 10 -63.5 15.5t-77.5 5.5
q-39 0 -75 -7.5t-63.5 -23.5t-44 -45t-16.5 -72q0 -61 41 -101t101.5 -71t132 -58.5t132 -64.5t101.5 -91t41 -136q0 -90 -34 -151.5t-91 -98.5t-130 -52t-150 -15q-101 0 -195 20t-160 49v275z" />
    <glyph glyph-name="t" unicode="t" horiz-adv-x="772" 
d="M751 141q-47 -73 -137 -119.5t-182 -46.5q-68 0 -113 21.5t-70.5 60.5t-37 92.5t-11.5 114.5v686h-162v72l172 62l72 226h103v-245h327v-113h-327v-639q0 -55 4 -93t16 -60.5t35.5 -31.5t62.5 -9q47 0 96.5 16.5t112.5 54.5z" />
    <glyph glyph-name="u" unicode="u" horiz-adv-x="1245" 
d="M192 938l-164 35l21 92h328v-664q0 -77 12 -125.5t36.5 -76t61.5 -37.5t86 -10q41 0 83 7t80 21.5t69.5 32.5t52.5 43v682l-156 29l21 98h317v-938l166 -37l-22 -90h-326v156q-35 -43 -79 -75t-91 -53.5t-94 -32.5t-90 -11q-148 0 -229 90t-83 286v578z" />
    <glyph glyph-name="v" unicode="v" horiz-adv-x="1132" 
d="M740 967l21 98h391v-61l-147 -62l-375 -942h-121l-375 946l-147 27l20 92h471v-61l-147 -52l276 -704l279 698z" />
    <glyph glyph-name="w" unicode="w" horiz-adv-x="1646" 
d="M1248 967l21 98h391v-61l-156 -62l-254 -942h-114l-289 752l-242 -752h-110l-359 946l-149 27l20 92h469v-61l-160 -52l261 -673l251 786h84l299 -778l179 659z" />
    <glyph glyph-name="x" unicode="x" horiz-adv-x="1167" 
d="M615 664l217 286l-115 17l21 98h391v-61l-166 -64l-281 -373l306 -438l165 -37l-20 -92h-457v61l109 37l-238 340l-244 -327l136 -13l-21 -98h-403v61l149 52l316 422l-281 403l-158 35l21 92h463v-61l-121 -37z" />
    <glyph glyph-name="y" unicode="y" horiz-adv-x="1114" 
d="M448 -86q10 27 23 57.5t26 63.5l-369 903l-141 35l20 92h439v-61l-123 -52l254 -628l12 -58l282 680l-124 21l20 98h365v-61l-134 -60q-96 -239 -181 -428.5t-144 -339.5q-55 -139 -100.5 -250.5t-90.5 -189.5q-22 -41 -53 -78t-69.5 -65.5t-87 -46t-109.5 -17.5
q-62 0 -131 20l57 170q66 -14 121 -14t90 15.5t59.5 43t44 65.5t44.5 85z" />
    <glyph glyph-name="z" unicode="z" horiz-adv-x="1028" 
d="M199 733l-107 19l-2 313h844v-59l-590 -893h436l56 217l106 -19v-311h-852v59l588 893h-424z" />
    <glyph glyph-name="braceleft" unicode="{" horiz-adv-x="646" 
d="M-6 621h84q74 0 110 44t36 126v380q0 125 39 188.5t98 90.5t129 29t133 2v-66q-41 0 -81 -9t-73.5 -30.5t-54 -56.5t-20.5 -88v-414q0 -55 -18.5 -96t-42 -70.5t-47 -45t-36.5 -17.5q13 -2 36.5 -18.5t47 -45t42 -70.5t18.5 -96v-413q0 -33 13 -67t42 -60.5t72 -43
t102 -16.5v-65q-49 -4 -116.5 -1t-131 31.5t-107.5 93t-44 185.5v381q0 82 -36 126t-110 44h-84v68z" />
    <glyph glyph-name="bar" unicode="|" horiz-adv-x="477" 
d="M166 -502v2091h145v-2091h-145z" />
    <glyph glyph-name="braceright" unicode="}" horiz-adv-x="646" 
d="M651 553h-84q-74 0 -109.5 -44t-35.5 -126v-381q0 -121 -44 -185.5t-107.5 -93t-131 -31.5t-117.5 1v65q60 0 103 16.5t71.5 43t42 60.5t13.5 67v413q0 54 18.5 96t42 70.5t47 45t35.5 18.5q-12 2 -35.5 17.5t-47 45t-42 70.5t-18.5 96v414q0 53 -20.5 88t-54.5 56.5
t-75 30.5t-80 9v66q64 0 133.5 -2t129 -29t98.5 -90.5t39 -188.5v-380q0 -82 35.5 -126t109.5 -44h84v-68z" />
    <glyph glyph-name="asciitilde" unicode="~" horiz-adv-x="1233" 
d="M556 551q-20 7 -42.5 17.5t-45.5 20t-44.5 16t-39.5 6.5q-20 0 -73.5 -25t-133.5 -70l-72 80q7 6 35.5 26.5t66 45t79 48t73.5 34.5q17 6 35 8.5t37 2.5q34 0 69 -7t67.5 -17.5t61 -22.5t48.5 -22q19 -8 42 -18t45.5 -19.5t44.5 -16t40 -6.5q10 0 30 7t47 19.5t60.5 30
t71.5 38.5l77 -76q-4 -4 -19 -15.5t-37 -26.5t-48.5 -32.5t-54 -33.5t-54 -29t-47.5 -20q-38 -12 -75 -12q-35 0 -69.5 7.5t-67 18t-60 22.5t-47.5 21z" />
    <glyph glyph-name="nonbreakingspace" unicode="&#xa0;" horiz-adv-x="688" 
 />
    <glyph glyph-name="exclamdown" unicode="&#xa1;" horiz-adv-x="508" 
d="M376 90q-25 -47 -49.5 -70.5t-69.5 -48.5q-43 27 -70.5 53.5t-52.5 67.5l63 932h113zM103 1331q49 96 146 146q96 -54 151 -150q-51 -94 -145 -145q-98 53 -152 149z" />
    <glyph glyph-name="cent" unicode="&#xa2;" horiz-adv-x="1080" 
d="M547 -20q-94 8 -178 50t-146.5 112.5t-98 170t-35.5 224.5q0 127 36.5 225t99 166.5t145.5 106.5t177 48v142h103v-140q78 -4 156.5 -27.5t152.5 -66.5v-282l-102 -11l-52 201q-16 29 -55 48.5t-100 23.5v-858q67 2 148 27.5t143 72.5l45 -78q-72 -67 -158 -106t-178 -47
v-140h-103v138zM289 541q0 -97 20.5 -169.5t56.5 -122.5t82 -81t99 -43v842q-122 -19 -190 -121.5t-68 -304.5z" />
    <glyph glyph-name="sterling" unicode="&#xa3;" horiz-adv-x="1209" 
d="M128 741h170q-15 64 -25 126.5t-10 125.5q0 119 38 200t100.5 131t141 71.5t160.5 21.5q101 0 193 -26.5t153 -67.5v-272l-102 -21l-57 227q-27 23 -79 35.5t-97 12.5q-50 0 -95 -16.5t-78.5 -51.5t-54 -89t-20.5 -132q0 -70 9 -138.5t19 -136.5h396v-112h-379
q4 -41 8 -81t4 -81q0 -92 -24.5 -180t-94.5 -174h570l43 178l86 18v-309h-1035v72l195 59q47 72 65.5 143.5t18.5 143.5q0 53 -8 105t-19 106h-192v112z" />
    <glyph glyph-name="currency" unicode="&#xa4;" horiz-adv-x="1145" 
d="M195 635q0 59 18.5 113.5t51.5 101.5l-146 145l92 92l148 -145q45 31 97 48.5t112 17.5q59 0 113.5 -17.5t99.5 -50.5l149 147l92 -92l-149 -149q31 -45 48 -98.5t17 -112.5q0 -123 -69 -217l153 -152l-92 -92l-155 154q-93 -64 -207 -64q-56 0 -108 15.5t-95 44.5
l-154 -150l-92 92l150 148q-35 47 -54.5 102t-19.5 119zM330 635q0 -49 18.5 -92t51.5 -75t76 -50.5t92 -18.5t92 18.5t74.5 50.5t50 75t18.5 92t-18.5 92t-50 76t-74.5 51t-92 18t-92 -18t-76 -51t-51.5 -76t-18.5 -92z" />
    <glyph glyph-name="yen" unicode="&#xa5;" horiz-adv-x="1428" 
d="M632 567v43l-440 693l-140 38l21 93h471v-72l-133 -41l358 -561l344 557l-121 24l21 93h360v-72l-135 -57l-401 -652v-86h297v-82h-297v-102h297v-82h-297v-170l194 -39l-20 -92h-574v72l195 59v170h-295v82h295v102h-295v82h295z" />
    <glyph glyph-name="brokenbar" unicode="&#xa6;" horiz-adv-x="502" 
d="M178 616v789h146v-789h-146zM178 -397v788h146v-788h-146z" />
    <glyph glyph-name="section" unicode="&#xa7;" horiz-adv-x="1029" 
d="M931 539q2 -17 2 -30v-28q0 -98 -35.5 -168.5t-121.5 -138.5q53 -55 88 -120.5t35 -147.5q0 -80 -45 -135.5t-115 -90t-153 -50t-156 -15.5q-88 0 -161 18.5t-104 49.5v245l107 9l55 -197q35 -10 63.5 -15.5t78.5 -5.5q38 0 81 8.5t79 27t59.5 48t23.5 72.5
q0 53 -44 102.5t-109.5 99.5t-143.5 101t-146.5 110.5t-116.5 127t-54 149.5q-2 17 -2 31v29q0 98 35.5 167.5t122.5 137.5q-56 55 -89.5 120.5t-33.5 147.5q0 80 45 135.5t114.5 90t152.5 50t157 15.5q88 0 160.5 -18.5t103.5 -49.5v-245l-107 -9l-55 197q-35 10 -63.5 15
t-77.5 5q-39 0 -82 -8t-79 -26.5t-59.5 -48t-23.5 -72.5q0 -53 44 -102.5t109.5 -99.5t143.5 -101.5t146.5 -110.5t116.5 -126.5t54 -149.5zM776 420q0 69 -44 125.5t-110.5 109t-146.5 102.5t-152 109q-47 -51 -58 -91t-11 -91q0 -70 44 -127t110.5 -108.5t146 -102.5
t151.5 -108q47 49 58.5 89t11.5 93z" />
    <glyph glyph-name="dieresis" unicode="&#xa8;" horiz-adv-x="762" 
d="M471 1348q47 84 133 131q82 -45 127 -127q-49 -84 -133 -131q-84 43 -127 127zM39 1348q47 84 133 131q82 -45 127 -127q-49 -84 -133 -131q-84 43 -127 127z" />
    <glyph glyph-name="copyright" unicode="&#xa9;" horiz-adv-x="1748" 
d="M875 1532q163 0 307.5 -63.5t251 -171t168 -251t61.5 -305.5q0 -161 -61.5 -304.5t-168 -251t-251 -171t-307.5 -63.5q-164 0 -308.5 63.5t-251 171t-168 251t-61.5 304.5q0 162 61.5 305.5t168 251t251 171t308.5 63.5zM875 1425q-142 0 -262.5 -56t-209 -150.5
t-138.5 -218t-50 -259.5q0 -135 50 -259t138.5 -218t209 -150.5t262.5 -56.5q141 0 262 56.5t208 150.5t137 218t50 259q0 136 -50 259.5t-137 218t-208 150.5t-262 56zM1098 623l61 -11l2 -235q-61 -29 -137 -47.5t-141 -18.5q-84 0 -160 28t-133 83t-91 137t-34 191
q0 98 40 180t104.5 140t148.5 90t170 32q59 0 113.5 -14.5t107.5 -38.5l-4 -236l-59 -8l-43 166q-35 14 -63 22.5t-79 8.5q-104 0 -175 -83t-71 -259q0 -97 20.5 -162.5t54.5 -105.5t80 -57t99 -17q48 0 75.5 4t60.5 12z" />
    <glyph glyph-name="ordfeminine" unicode="&#xaa;" horiz-adv-x="792" 
d="M488 807v100q-18 -22 -45.5 -41.5t-59.5 -35t-63.5 -24.5t-58.5 -9q-67 0 -116.5 42t-49.5 122q0 61 32 99t112 60q116 31 249 45v101q0 69 -44 98t-93 29q-59 0 -108 -29l-35 -141l-70 12v160q47 22 98.5 43.5t122.5 21.5q52 0 99 -10t82.5 -32.5t57 -60.5t21.5 -93
v-379l91 -23l-13 -55h-209zM228 969q0 -60 28 -77.5t67 -17.5q22 0 46.5 9.5t47 23t42 30.5t29.5 34v141q-41 -4 -78.5 -10t-78.5 -19q-60 -14 -81.5 -45.5t-21.5 -68.5z" />
    <glyph glyph-name="guillemotleft" unicode="&#xab;" horiz-adv-x="1041" 
d="M263 549q0 -2 3 -2q43 -43 87 -114t80.5 -144.5t62.5 -136t32 -89.5l-58 -24q-41 61 -92 130t-106.5 135.5t-108.5 123.5t-94 96v21q41 39 94 96t108.5 123.5t106.5 135.5t92 130l58 -24q-6 -27 -32 -84.5t-62.5 -123t-80.5 -131t-87 -108.5l-3 -2v-4v-4zM661 549
q0 -2 2 -2q43 -43 87 -114t81 -144.5t62.5 -136t31.5 -89.5l-57 -24q-37 61 -87.5 130t-103.5 135.5t-106.5 123.5t-94.5 96v21q41 39 94.5 96t106.5 123.5t103.5 135.5t87.5 130l57 -24q-6 -27 -31.5 -84.5t-62.5 -123t-81 -131t-87 -108.5l-2 -2v-4v-4z" />
    <glyph glyph-name="logicalnot" unicode="&#xac;" horiz-adv-x="1468" 
d="M136 846h1175v-527h-145v381h-1030v146z" />
    <glyph glyph-name="uni00AD" unicode="&#xad;" horiz-adv-x="751" 
d="M108 625h535v-146h-535v146z" />
    <glyph glyph-name="registered" unicode="&#xae;" horiz-adv-x="1748" 
d="M905 702h-143v-282l113 -35l-9 -59h-362v51l113 43v657l-113 43l16 58h330q55 0 115.5 -8.5t112 -35t85 -75.5t33.5 -131q0 -86 -46 -135.5t-105 -75.5l168 -297l96 -35l-17 -59h-194zM762 1075v-278h88q35 0 68.5 3t60.5 17t43 44t16 83q0 51 -16 78t-43 39t-60.5 13
t-68.5 1h-88zM875 1532q163 0 307.5 -63.5t251 -171t168 -251t61.5 -305.5q0 -161 -61.5 -304.5t-168 -251t-251 -171t-307.5 -63.5q-164 0 -308.5 63.5t-251 171t-168 251t-61.5 304.5q0 162 61.5 305.5t168 251t251 171t308.5 63.5zM875 1425q-142 0 -262.5 -56
t-209 -150.5t-138.5 -218t-50 -259.5q0 -135 50 -259t138.5 -218t209 -150.5t262.5 -56.5q141 0 262 56.5t208 150.5t137 218t50 259q0 136 -50 259.5t-137 218t-208 150.5t-262 56z" />
    <glyph glyph-name="macron" unicode="&#xaf;" horiz-adv-x="1073" 
d="M215 1425h643v-145h-643v145z" />
    <glyph glyph-name="degree" unicode="&#xb0;" horiz-adv-x="728" 
d="M81 1190q0 59 21.5 111.5t60.5 90.5t89.5 60.5t109.5 22.5t111.5 -22.5t90.5 -60.5t60.5 -90.5t22.5 -111.5q0 -60 -22.5 -110t-60.5 -89t-90.5 -60.5t-111.5 -21.5t-109.5 21.5t-89.5 60.5t-60.5 89t-21.5 110zM188 1190q0 -74 50 -124t124 -50q76 0 127 50t51 124
q0 76 -51 127t-127 51q-74 0 -124 -51t-50 -127z" />
    <glyph glyph-name="plusminus" unicode="&#xb1;" horiz-adv-x="1280" 
d="M124 190h1032v-145h-1032v145zM124 965h438v436h156v-436h438v-146h-438v-459h-156v459h-438v146z" />
    <glyph glyph-name="twosuperior" unicode="&#xb2;" horiz-adv-x="750" 
d="M114 791q115 110 186.5 177.5t112.5 116t56.5 90.5t15.5 101q0 61 -42 84.5t-98 23.5q-30 0 -61 -9t-55 -27l-43 -134l-52 9v178q21 14 49.5 28.5t58.5 24.5t59.5 16.5t54.5 6.5q51 0 100 -12.5t88 -37t61.5 -63.5t22.5 -94q0 -49 -19.5 -92t-62.5 -91.5t-109.5 -110
t-158.5 -149.5h268l21 82l53 -8v-176h-506v66z" />
    <glyph glyph-name="threesuperior" unicode="&#xb3;" horiz-adv-x="749" 
d="M651 946q0 -59 -25.5 -102t-66.5 -71t-93.5 -41t-103.5 -13q-65 0 -131.5 14.5t-116.5 32.5v190l62 11l37 -125q24 -17 57 -24t68 -7q82 0 126 33t44 104q0 56 -29 86.5t-94 44.5h-68v72h62q51 10 80.5 43t29.5 84q0 61 -39 83.5t-96 22.5q-35 0 -65.5 -6t-57.5 -22
l-33 -123l-61 10v189q47 18 112.5 31.5t129.5 13.5q45 0 91 -9.5t81.5 -31t58.5 -57.5t23 -89q0 -69 -50.5 -113t-111.5 -61q30 -2 62 -10t58.5 -26.5t43 -51.5t16.5 -82z" />
    <glyph glyph-name="acute" unicode="&#xb4;" horiz-adv-x="434" 
d="M143 1157h-112l178 375h201z" />
    <glyph glyph-name="mu" unicode="&#xb5;" horiz-adv-x="1274" 
d="M387 401q0 -77 12 -125.5t36.5 -76t61.5 -37.5t86 -10q41 0 83 7t80 21.5t69.5 32.5t52.5 43v809h182v-938l166 -37l-22 -90h-326v135q-35 -43 -79 -71.5t-91 -46t-94 -25.5t-90 -8q-35 0 -67 5t-60 15v-463h-185v1524h185v-664z" />
    <glyph glyph-name="paragraph" unicode="&#xb6;" horiz-adv-x="1074" 
d="M977 1346l-166 -62v-1532h-112v1575h-150v-774q-98 0 -186 16.5t-154.5 65.5t-105.5 138t-39 235q0 127 36.5 204.5t100 120.5t147.5 58.5t179 17.5h450v-63z" />
    <glyph glyph-name="periodcentered" unicode="&#xb7;" horiz-adv-x="495" 
d="M99 621q54 96 152 149q94 -51 145 -145q-55 -97 -151 -150q-96 49 -146 146z" />
    <glyph glyph-name="cedilla" unicode="&#xb8;" horiz-adv-x="653" 
d="M260 31h113v-97q82 -10 114.5 -52t32.5 -105q0 -66 -35.5 -114t-91 -81t-121 -51t-125.5 -23l-14 62q33 8 68 18.5t65.5 26.5t53 39.5t26.5 54.5q10 60 -8.5 107t-77.5 59v156z" />
    <glyph glyph-name="onesuperior" unicode="&#xb9;" horiz-adv-x="593" 
d="M512 784l-10 -57h-366v47l124 41v531l-174 -37v57q68 25 129.5 54.5t114.5 56.5h64v-662z" />
    <glyph glyph-name="ordmasculine" unicode="&#xba;" horiz-adv-x="861" 
d="M774 1096q0 -78 -19.5 -144.5t-61.5 -117t-106.5 -79t-152.5 -28.5q-93 0 -158.5 28.5t-107.5 79t-61.5 117t-19.5 144.5q0 80 19.5 149.5t61.5 119.5t106.5 80t157.5 30q90 0 154.5 -30t106.5 -80t61.5 -119.5t19.5 -149.5zM413 1397q-51 0 -85 -21.5t-53.5 -61.5
t-27.5 -95.5t-8 -120.5q0 -62 12.5 -115t39 -93t64.5 -62.5t91 -22.5q92 0 136 81t44 210q0 61 -11 115.5t-37 96.5t-67 65.5t-98 23.5z" />
    <glyph glyph-name="guillemotright" unicode="&#xbb;" horiz-adv-x="1041" 
d="M778 553q0 2 -1 2t-1 2v2q-43 43 -87 108.5t-81 131t-62.5 123t-31.5 84.5l57 24q39 -61 91 -130t107.5 -135.5t109 -123.5t93.5 -96v-21q-40 -39 -93.5 -96t-109 -123.5t-107.5 -135.5t-91 -130l-57 24q6 27 31.5 89.5t62.5 136t81 144.5t87 114v2zM381 553q0 2 -1 2
t-1 2v2q-43 43 -87.5 108.5t-81 131t-62 123t-32.5 84.5l58 24q37 -61 87 -130t103 -135.5t106.5 -123.5t94.5 -96v-21q-41 -39 -94.5 -96t-106.5 -123.5t-103 -135.5t-87 -130l-58 24q7 27 32.5 89.5t62 136t81 144.5t87.5 114v2z" />
    <glyph glyph-name="onequarter" unicode="&#xbc;" horiz-adv-x="1572" 
d="M1283 1391l-791 -1457h-153l790 1457h154zM494 702l-10 -57h-367v47l125 41v531l-174 -37v57q68 25 129.5 54.5t114.5 56.5h63v-662zM1277 78v78h-375v49l422 547h75v-508h101v-88h-101v-78l101 -31l-13 -47h-325v37zM1277 244v288l-224 -288h224z" />
    <glyph glyph-name="onehalf" unicode="&#xbd;" horiz-adv-x="1667" 
d="M1283 1391l-791 -1457h-153l790 1457h154zM494 702l-10 -57h-367v47l125 41v531l-174 -37v57q68 25 129.5 54.5t114.5 56.5l63 -4v-658zM1070 66q114 110 186 177.5t113 116t56 90.5t15 101q0 61 -42 84.5t-97 23.5q-31 0 -61.5 -9t-55.5 -27l-43 -134l-51 9v178
q21 14 49.5 28.5t58 24.5t59.5 16.5t54 6.5q52 0 101 -12.5t88 -37t61.5 -63.5t22.5 -94q0 -49 -19.5 -92t-62.5 -91.5t-109.5 -110t-158.5 -149.5h268l20 82l54 -8v-176h-506v66z" />
    <glyph glyph-name="threequarters" unicode="&#xbe;" horiz-adv-x="1654" 
d="M1275 1391l-790 -1457h-154l791 1457h153zM1062 66q115 110 186.5 177.5t112.5 116t56.5 90.5t15.5 101q0 61 -42 84.5t-97 23.5q-31 0 -62 -9t-55 -27l-43 -134l-51 9v178q20 14 48.5 28.5t58.5 24.5t59.5 16.5t54.5 6.5q51 0 100 -12.5t88 -37t61.5 -63.5t22.5 -94
q0 -49 -19.5 -92t-62.5 -91.5t-109.5 -110t-158.5 -149.5h268l21 82l53 -8v-176h-506v66zM618 874q0 -59 -25.5 -102t-66.5 -70.5t-93.5 -41t-103.5 -13.5q-66 0 -132.5 14.5t-115.5 32.5v191l62 10l37 -125q24 -16 57 -23.5t67 -7.5q82 0 126 33t44 105q0 55 -28.5 85.5
t-93.5 45.5h-68v71h61q52 11 81.5 43.5t29.5 83.5q0 62 -39 84.5t-96 22.5q-35 0 -65.5 -6.5t-57.5 -22.5l-33 -123l-61 10v189q47 18 112.5 31.5t128.5 13.5q45 0 91.5 -9.5t82 -31t58 -57t22.5 -88.5q0 -70 -50 -114t-111 -61q30 -2 62 -10t58.5 -26.5t43 -51t16.5 -82.5z
" />
    <glyph glyph-name="questiondown" unicode="&#xbf;" horiz-adv-x="884" 
d="M292 1323q49 96 145 145q97 -53 152 -149q-51 -94 -145 -145q-99 53 -152 149zM245 125q63 -33 133 -33q82 0 144.5 49t62.5 148q0 71 -52.5 130.5t-114.5 115t-114.5 113t-52.5 124.5q0 111 58.5 170t150.5 59q2 0 24.5 -1t52 -12t60.5 -37.5t49 -80.5l-73 -57
q-27 74 -80 74q-51 0 -70.5 -30t-19.5 -71q0 -43 28.5 -74.5t70.5 -61t92 -61.5t92 -77t71 -106.5t29 -149.5q0 -74 -30 -127t-79 -87t-113.5 -49.5t-134.5 -15.5q-98 0 -193 24t-171 65l63 286l101 -14z" />
    <glyph glyph-name="Agrave" unicode="&#xc0;" 
d="M1400 92l-20 -92h-471v72l145 45l-131 334h-563l-125 -328l166 -31l-21 -92h-411v72l145 51l493 1311h150l500 -1307zM401 563h481l-242 633zM302 1907h201l219 -344h-112z" />
    <glyph glyph-name="Aacute" unicode="&#xc1;" 
d="M1400 92l-20 -92h-471v72l145 45l-131 334h-563l-125 -328l166 -31l-21 -92h-411v72l145 51l493 1311h150l500 -1307zM401 563h481l-242 633zM744 1528h-112l178 375h201z" />
    <glyph glyph-name="Acircumflex" unicode="&#xc2;" 
d="M1400 92l-20 -92h-471v72l145 45l-131 334h-563l-125 -328l166 -31l-21 -92h-411v72l145 51l493 1311h150l500 -1307zM401 563h481l-242 633zM682 1807l-197 -269h-113l238 367v2h145l-2 -2l240 -367h-113z" />
    <glyph glyph-name="Atilde" unicode="&#xc3;" 
d="M1400 92l-20 -92h-471v72l145 45l-131 334h-563l-125 -328l166 -31l-21 -92h-411v72l145 51l493 1311h150l500 -1307zM401 563h481l-242 633zM652 1649l-68 44q-30 19 -52 19q-11 -1 -34 -16t-57 -47l-57 -55l-63 67q4 7 26.5 34t52.5 59t61 61t52 39q25 11 50 11
t49.5 -7.5t47.5 -19t43 -23.5l35 -21q13 -8 29 -19t32 -20.5t31.5 -16t28.5 -6.5q20 0 56.5 31.5t91.5 86.5l63 -68q-2 -4 -13 -17.5t-27.5 -33t-36.5 -41t-41 -42t-40 -36t-34 -22.5q-26 -12 -52 -12q-24 0 -49 7.5t-48 18.5t-42.5 23.5t-34.5 21.5z" />
    <glyph glyph-name="Adieresis" unicode="&#xc4;" 
d="M1400 92l-20 -92h-471v72l145 45l-131 334h-563l-125 -328l166 -31l-21 -92h-411v72l145 51l493 1311h150l500 -1307zM401 563h481l-242 633zM776 1719q47 84 133 131q82 -45 127 -127q-49 -84 -133 -131q-84 43 -127 127zM344 1719q47 84 133 131q82 -45 127 -127
q-49 -84 -133 -131q-84 43 -127 127z" />
    <glyph glyph-name="Aring" unicode="&#xc5;" 
d="M1400 92l-20 -92h-471v72l145 45l-131 334h-563l-125 -328l166 -31l-21 -92h-411v72l145 51l493 1311h150l500 -1307zM401 563h481l-242 633zM443 1748q0 49 18.5 93t50.5 77t76 51.5t93 18.5t93 -18.5t77 -51.5t51.5 -77t18.5 -93t-18.5 -93t-51.5 -75.5t-77 -50
t-93 -18.5t-93 18.5t-76 50t-50.5 75.5t-18.5 93zM544 1748q0 -76 34.5 -116.5t102.5 -40.5q70 0 104.5 40.5t34.5 116.5q0 78 -34.5 119t-104.5 41q-68 0 -102.5 -41t-34.5 -119z" />
    <glyph glyph-name="AE" unicode="&#xc6;" horiz-adv-x="1913" 
d="M377 92l-21 -92h-415v72l135 51l778 1194l-123 24l21 93h1048v-347l-102 -10l-66 244h-438v-520l285 8l55 137h72v-403h-58l-69 135l-285 10v-575h477l66 237l106 -12v-338h-1048v72l194 59v516h-436l-342 -524zM989 760v557l-362 -557h362z" />
    <glyph glyph-name="Ccedilla" unicode="&#xc7;" horiz-adv-x="1353" 
d="M1059 1294q-49 31 -113.5 40t-126.5 9q-98 0 -191 -37.5t-165 -115.5t-115 -197t-43 -278q0 -174 43 -292t117 -190.5t170 -104.5t203 -32q78 0 132 16.5t101 39.5l74 313l104 -21v-346q-88 -43 -199 -80q-107 -35 -253 -36v-48q82 -10 114.5 -52t32.5 -105
q0 -66 -36 -114t-91 -81t-120.5 -51t-125.5 -23l-14 62q33 8 68 18.5t65.5 26.5t53 39.5t26.5 54.5q10 60 -8.5 107t-77.5 59v114q-84 11 -162 40q-127 47 -223 139t-152.5 229.5t-56.5 317.5q0 174 62.5 311t168 232.5t244 146.5t289.5 51q94 0 188.5 -20.5t188.5 -63.5
v-346l-103 -20z" />
    <glyph glyph-name="Egrave" unicode="&#xc8;" horiz-adv-x="1252" 
d="M1077 350l107 -22v-328h-1110v72l194 59v1172l-194 38l20 93h1047v-336l-103 -21l-65 244h-500v-520l346 8l55 137l72 -20v-363l-57 -20l-70 135l-346 10v-575h539zM312 1907h201l219 -344h-112z" />
    <glyph glyph-name="Eacute" unicode="&#xc9;" horiz-adv-x="1252" 
d="M1077 350l107 -22v-328h-1110v72l194 59v1172l-194 38l20 93h1047v-336l-103 -21l-65 244h-500v-520l346 8l55 137l72 -20v-363l-57 -20l-70 135l-346 10v-575h539zM724 1528h-112l178 375h201z" />
    <glyph glyph-name="Ecircumflex" unicode="&#xca;" horiz-adv-x="1252" 
d="M1077 350l107 -22v-328h-1110v72l194 59v1172l-194 38l20 93h1047v-336l-103 -21l-65 244h-500v-520l346 8l55 137l72 -20v-363l-57 -20l-70 135l-346 10v-575h539zM672 1807l-197 -269h-113l238 367v2h145l-2 -2l240 -367h-113z" />
    <glyph glyph-name="Edieresis" unicode="&#xcb;" horiz-adv-x="1252" 
d="M1077 350l107 -22v-328h-1110v72l194 59v1172l-194 38l20 93h1047v-336l-103 -21l-65 244h-500v-520l346 8l55 137l72 -20v-363l-57 -20l-70 135l-346 10v-575h539zM708 1719q47 84 133 131q82 -45 127 -127q-49 -84 -133 -131q-84 43 -127 127zM276 1719q47 84 133 131
q82 -45 127 -127q-49 -84 -133 -131q-84 43 -127 127z" />
    <glyph glyph-name="Igrave" unicode="&#xcc;" horiz-adv-x="741" 
d="M473 1303v-1172l195 -39l-21 -92h-573v72l194 59v1172l-194 38l20 93h574v-72zM6 1907h201l219 -344h-112z" />
    <glyph glyph-name="Iacute" unicode="&#xcd;" horiz-adv-x="741" 
d="M473 1303v-1172l195 -39l-21 -92h-573v72l194 59v1172l-194 38l20 93h574v-72zM433 1528h-112l178 375h201z" />
    <glyph glyph-name="Icircumflex" unicode="&#xce;" horiz-adv-x="741" 
d="M473 1303v-1172l195 -39l-21 -92h-573v72l194 59v1172l-194 38l20 93h574v-72zM381 1807l-197 -269h-113l238 367v2h145l-2 -2l240 -367h-113z" />
    <glyph glyph-name="Idieresis" unicode="&#xcf;" horiz-adv-x="741" 
d="M473 1303v-1172l195 -39l-21 -92h-573v72l194 59v1172l-194 38l20 93h574v-72zM458 1719q47 84 133 131q82 -45 127 -127q-49 -84 -133 -131q-84 43 -127 127zM26 1719q47 84 133 131q82 -45 127 -127q-49 -84 -133 -131q-84 43 -127 127z" />
    <glyph glyph-name="Eth" unicode="&#xd0;" horiz-adv-x="1485" 
d="M77 811h192v492l-194 38l20 93h584q178 0 312 -57.5t223 -156t134.5 -229.5t45.5 -278q0 -148 -47.5 -278t-138.5 -226t-224 -152.5t-305 -56.5h-604v72l194 59v547h-192v133zM474 1321v-510h215v-133h-215v-565h170q127 0 226.5 42t168 119.5t104.5 188t36 250.5
q0 137 -31 249.5t-95.5 192.5t-166 123t-242.5 43h-170z" />
    <glyph glyph-name="Ntilde" unicode="&#xd1;" horiz-adv-x="1602" 
d="M391 1434l838 -1112v981l-193 38l20 93h490v-72l-195 -59v-1303h-122l-838 1114v-983l194 -39l-20 -92h-492v72l195 59v1172l-195 38l21 93h297zM768 1649l-68 44q-30 19 -52 19q-11 -1 -34 -16t-57 -47l-57 -55l-63 67q4 7 26.5 34t52.5 59t61 61t52 39q25 11 50 11
t49.5 -7.5t47.5 -19t43 -23.5l35 -21q13 -8 29 -19t32 -20.5t31.5 -16t28.5 -6.5q20 0 56.5 31.5t91.5 86.5l63 -68q-2 -4 -13 -17.5t-27.5 -33t-36.5 -41t-41 -42t-40 -36t-34 -22.5q-26 -12 -52 -12q-24 0 -49 7.5t-48 18.5t-42.5 23.5t-34.5 21.5z" />
    <glyph glyph-name="Ograve" unicode="&#xd2;" horiz-adv-x="1567" 
d="M807 84q102 0 186 49t143.5 131t92.5 190.5t33 225.5q0 127 -29 248t-90.5 214t-156.5 150.5t-226 57.5q-103 0 -186.5 -49.5t-143 -131.5t-92.5 -190.5t-33 -224.5q0 -127 29 -248t90 -214t156.5 -150.5t226.5 -57.5zM782 1462q170 0 300 -61.5t217.5 -164.5
t132.5 -238.5t45 -282.5q0 -154 -48.5 -290t-137.5 -236.5t-217 -159t-290 -58.5q-170 0 -300 61.5t-218 165t-132 238.5t-44 283q0 153 48 289.5t137.5 237t217.5 158.5t289 58zM450 1907h201l219 -344h-112z" />
    <glyph glyph-name="Oacute" unicode="&#xd3;" horiz-adv-x="1567" 
d="M807 84q102 0 186 49t143.5 131t92.5 190.5t33 225.5q0 127 -29 248t-90.5 214t-156.5 150.5t-226 57.5q-103 0 -186.5 -49.5t-143 -131.5t-92.5 -190.5t-33 -224.5q0 -127 29 -248t90 -214t156.5 -150.5t226.5 -57.5zM782 1462q170 0 300 -61.5t217.5 -164.5
t132.5 -238.5t45 -282.5q0 -154 -48.5 -290t-137.5 -236.5t-217 -159t-290 -58.5q-170 0 -300 61.5t-218 165t-132 238.5t-44 283q0 153 48 289.5t137.5 237t217.5 158.5t289 58zM829 1528h-112l178 375h201z" />
    <glyph glyph-name="Ocircumflex" unicode="&#xd4;" horiz-adv-x="1567" 
d="M807 84q102 0 186 49t143.5 131t92.5 190.5t33 225.5q0 127 -29 248t-90.5 214t-156.5 150.5t-226 57.5q-103 0 -186.5 -49.5t-143 -131.5t-92.5 -190.5t-33 -224.5q0 -127 29 -248t90 -214t156.5 -150.5t226.5 -57.5zM782 1462q170 0 300 -61.5t217.5 -164.5
t132.5 -238.5t45 -282.5q0 -154 -48.5 -290t-137.5 -236.5t-217 -159t-290 -58.5q-170 0 -300 61.5t-218 165t-132 238.5t-44 283q0 153 48 289.5t137.5 237t217.5 158.5t289 58zM772 1806l-197 -269h-113l238 367v2h145l-2 -2l240 -367h-113z" />
    <glyph glyph-name="Otilde" unicode="&#xd5;" horiz-adv-x="1567" 
d="M807 84q102 0 186 49t143.5 131t92.5 190.5t33 225.5q0 127 -29 248t-90.5 214t-156.5 150.5t-226 57.5q-103 0 -186.5 -49.5t-143 -131.5t-92.5 -190.5t-33 -224.5q0 -127 29 -248t90 -214t156.5 -150.5t226.5 -57.5zM782 1462q170 0 300 -61.5t217.5 -164.5
t132.5 -238.5t45 -282.5q0 -154 -48.5 -290t-137.5 -236.5t-217 -159t-290 -58.5q-170 0 -300 61.5t-218 165t-132 238.5t-44 283q0 153 48 289.5t137.5 237t217.5 158.5t289 58zM730 1649l-68 44q-30 19 -52 19q-11 -1 -34 -16t-57 -47l-57 -55l-63 67q4 7 26.5 34t52.5 59
t61 61t52 39q25 11 50 11t49.5 -7.5t47.5 -19t43 -23.5l35 -21q13 -8 29 -19t32 -20.5t31.5 -16t28.5 -6.5q20 0 56.5 31.5t91.5 86.5l63 -68q-2 -4 -13 -17.5t-27.5 -33t-36.5 -41t-41 -42t-40 -36t-34 -22.5q-26 -12 -52 -12q-24 0 -49 7.5t-48 18.5t-42.5 23.5
t-34.5 21.5z" />
    <glyph glyph-name="Odieresis" unicode="&#xd6;" horiz-adv-x="1567" 
d="M807 84q102 0 186 49t143.5 131t92.5 190.5t33 225.5q0 127 -29 248t-90.5 214t-156.5 150.5t-226 57.5q-103 0 -186.5 -49.5t-143 -131.5t-92.5 -190.5t-33 -224.5q0 -127 29 -248t90 -214t156.5 -150.5t226.5 -57.5zM782 1462q170 0 300 -61.5t217.5 -164.5
t132.5 -238.5t45 -282.5q0 -154 -48.5 -290t-137.5 -236.5t-217 -159t-290 -58.5q-170 0 -300 61.5t-218 165t-132 238.5t-44 283q0 153 48 289.5t137.5 237t217.5 158.5t289 58zM860 1719q47 84 133 131q82 -45 127 -127q-49 -84 -133 -131q-84 43 -127 127zM428 1719
q47 84 133 131q82 -45 127 -127q-49 -84 -133 -131q-84 43 -127 127z" />
    <glyph glyph-name="multiply" unicode="&#xd7;" horiz-adv-x="1210" 
d="M106 188l398 412l-430 418l104 106l430 -415l400 413l104 -102l-399 -412l413 -401l-104 -107l-414 400l-399 -412z" />
    <glyph glyph-name="Oslash" unicode="&#xd8;" horiz-adv-x="1565" 
d="M781 1462q88 0 165 -17.5t143 -47.5l88 162l102 -52l-92 -170q143 -104 216 -269t73 -353q0 -154 -48.5 -290t-137.5 -236.5t-217 -159t-290 -58.5q-86 0 -158.5 15.5t-138.5 44.5l-110 -205l-100 59l108 203q-147 105 -221 271.5t-74 359.5q0 153 48 289.5t137.5 237
t217.5 158.5t289 58zM304 754q0 -148 39 -284t121 -232l557 1032q-53 37 -118.5 58.5t-143.5 21.5q-103 0 -186.5 -49.5t-143 -131.5t-92.5 -190.5t-33 -224.5zM806 84q102 0 186 49t143.5 131t92.5 190.5t33 225.5q0 143 -38 276.5t-116 231.5l-553 -1030
q51 -35 113.5 -54.5t138.5 -19.5z" />
    <glyph glyph-name="Ugrave" unicode="&#xd9;" horiz-adv-x="1533" 
d="M436 1303v-837q0 -192 100.5 -287.5t286.5 -95.5q137 0 209.5 44t103.5 113.5t34 153.5t3 162l-4 747l-195 38l21 93h491v-72l-174 -59v-790q0 -90 -17 -186t-69.5 -175t-151 -130t-259.5 -51q-289 0 -436.5 115.5t-147.5 381.5v835l-195 38l21 93h573v-72zM391 1907h201
l219 -344h-112z" />
    <glyph glyph-name="Uacute" unicode="&#xda;" horiz-adv-x="1533" 
d="M436 1303v-837q0 -192 100.5 -287.5t286.5 -95.5q137 0 209.5 44t103.5 113.5t34 153.5t3 162l-4 747l-195 38l21 93h491v-72l-174 -59v-790q0 -90 -17 -186t-69.5 -175t-151 -130t-259.5 -51q-289 0 -436.5 115.5t-147.5 381.5v835l-195 38l21 93h573v-72zM779 1528
h-112l178 375h201z" />
    <glyph glyph-name="Ucircumflex" unicode="&#xdb;" horiz-adv-x="1533" 
d="M436 1303v-837q0 -192 100.5 -287.5t286.5 -95.5q137 0 209.5 44t103.5 113.5t34 153.5t3 162l-4 747l-195 38l21 93h491v-72l-174 -59v-790q0 -90 -17 -186t-69.5 -175t-151 -130t-259.5 -51q-289 0 -436.5 115.5t-147.5 381.5v835l-195 38l21 93h573v-72zM733 1807
l-197 -269h-113l238 367v2h145l-2 -2l240 -367h-113z" />
    <glyph glyph-name="Udieresis" unicode="&#xdc;" horiz-adv-x="1533" 
d="M436 1303v-837q0 -192 100.5 -287.5t286.5 -95.5q137 0 209.5 44t103.5 113.5t34 153.5t3 162l-4 747l-195 38l21 93h491v-72l-174 -59v-790q0 -90 -17 -186t-69.5 -175t-151 -130t-259.5 -51q-289 0 -436.5 115.5t-147.5 381.5v835l-195 38l21 93h573v-72zM832 1719
q47 84 133 131q82 -45 127 -127q-49 -84 -133 -131q-84 43 -127 127zM400 1719q47 84 133 131q82 -45 127 -127q-49 -84 -133 -131q-84 43 -127 127z" />
    <glyph glyph-name="Yacute" unicode="&#xdd;" horiz-adv-x="1304" 
d="M559 131v479l-440 693l-160 38l21 93h502v-72l-144 -41l357 -557l339 553l-151 24l20 93h428v-72l-165 -57l-402 -652v-522l195 -39l-21 -92h-573v72zM749 1528h-112l178 375h201z" />
    <glyph glyph-name="Thorn" unicode="&#xde;" horiz-adv-x="1185" 
d="M709 92l-21 -92h-614v72l194 59v1172l-194 38l20 93h574v-72l-195 -59v-146h152q237 0 372 -104.5t135 -288.5q0 -82 -29.5 -161t-90 -141.5t-152.5 -100t-215 -37.5h-172v-193zM473 1044v-608h90q199 0 282 83t83 243q0 57 -23.5 108.5t-66.5 90t-102.5 61t-131.5 22.5
h-131z" />
    <glyph glyph-name="germandbls" unicode="&#xdf;" horiz-adv-x="1373" 
d="M996 1004q-35 -13 -71.5 -26t-67.5 -34.5t-51.5 -51.5t-20.5 -73q0 -61 41 -101t101.5 -71t132 -58.5t132 -64.5t101.5 -91t41 -136q0 -90 -33.5 -151.5t-91 -98.5t-130.5 -52t-150 -15q-101 0 -195 20t-160 49v275l107 18l55 -203q53 -22 94 -34.5t101 -12.5
q90 0 150.5 41t60.5 133q0 60 -41 97.5t-101.5 67.5t-131 56.5t-131 65.5t-101.5 94t-41 141q0 56 22.5 100t58.5 77.5t80 57.5t87 38q18 24 24 71.5t6 79.5q0 43 -14 85t-43 74t-75 51.5t-109 19.5q-47 0 -90 -13.5t-77 -44t-54.5 -82t-20.5 -124.5v-1178h-363v61l179 62
l2 1057q0 102 35.5 172.5t97 114.5t141.5 63.5t170 19.5q92 0 168 -21.5t130 -64.5t85 -107.5t31 -148.5q0 -53 -20.5 -108.5t-49.5 -95.5z" />
    <glyph glyph-name="agrave" unicode="&#xe0;" horiz-adv-x="1078" 
d="M707 0v166q-31 -37 -75 -70t-93 -58.5t-99 -39.5t-95 -14q-56 0 -105 17t-86 52t-59.5 84t-22.5 115q0 102 52.5 166.5t185.5 99.5q100 27 193 44.5t204 29.5v168q0 57 -16.5 97t-45 65.5t-66.5 37t-81 11.5q-47 0 -96 -6.5t-96 -22.5l-58 -233l-106 18v266
q80 35 171 62.5t195 27.5q80 0 150 -16t122 -54t81.5 -100.5t29.5 -154.5v-629l148 -35l-21 -94h-311zM277 268q0 -49 12.5 -78.5t34 -47t49 -23.5t58.5 -6q36 0 77 15t79 37.5t70 51.5t50 55v234q-65 -8 -131 -17.5t-131 -27.5q-96 -27 -132 -78t-36 -115zM173 1536h201
l219 -344h-112z" />
    <glyph glyph-name="aacute" unicode="&#xe1;" horiz-adv-x="1078" 
d="M707 0v166q-31 -37 -75 -70t-93 -58.5t-99 -39.5t-95 -14q-56 0 -105 17t-86 52t-59.5 84t-22.5 115q0 102 52.5 166.5t185.5 99.5q100 27 193 44.5t204 29.5v168q0 57 -16.5 97t-45 65.5t-66.5 37t-81 11.5q-47 0 -96 -6.5t-96 -22.5l-58 -233l-106 18v266
q80 35 171 62.5t195 27.5q80 0 150 -16t122 -54t81.5 -100.5t29.5 -154.5v-629l148 -35l-21 -94h-311zM277 268q0 -49 12.5 -78.5t34 -47t49 -23.5t58.5 -6q36 0 77 15t79 37.5t70 51.5t50 55v234q-65 -8 -131 -17.5t-131 -27.5q-96 -27 -132 -78t-36 -115zM542 1157h-112
l178 375h201z" />
    <glyph glyph-name="acircumflex" unicode="&#xe2;" horiz-adv-x="1078" 
d="M707 0v166q-31 -37 -75 -70t-93 -58.5t-99 -39.5t-95 -14q-56 0 -105 17t-86 52t-59.5 84t-22.5 115q0 102 52.5 166.5t185.5 99.5q100 27 193 44.5t204 29.5v168q0 57 -16.5 97t-45 65.5t-66.5 37t-81 11.5q-47 0 -96 -6.5t-96 -22.5l-58 -233l-106 18v266
q80 35 171 62.5t195 27.5q80 0 150 -16t122 -54t81.5 -100.5t29.5 -154.5v-629l148 -35l-21 -94h-311zM277 268q0 -49 12.5 -78.5t34 -47t49 -23.5t58.5 -6q36 0 77 15t79 37.5t70 51.5t50 55v234q-65 -8 -131 -17.5t-131 -27.5q-96 -27 -132 -78t-36 -115zM508 1436
l-197 -269h-113l238 367v2h145l-2 -2l240 -367h-113z" />
    <glyph glyph-name="atilde" unicode="&#xe3;" horiz-adv-x="1078" 
d="M707 0v166q-31 -37 -75 -70t-93 -58.5t-99 -39.5t-95 -14q-56 0 -105 17t-86 52t-59.5 84t-22.5 115q0 102 52.5 166.5t185.5 99.5q100 27 193 44.5t204 29.5v168q0 57 -16.5 97t-45 65.5t-66.5 37t-81 11.5q-47 0 -96 -6.5t-96 -22.5l-58 -233l-106 18v266
q80 35 171 62.5t195 27.5q80 0 150 -16t122 -54t81.5 -100.5t29.5 -154.5v-629l148 -35l-21 -94h-311zM277 268q0 -49 12.5 -78.5t34 -47t49 -23.5t58.5 -6q36 0 77 15t79 37.5t70 51.5t50 55v234q-65 -8 -131 -17.5t-131 -27.5q-96 -27 -132 -78t-36 -115zM488 1278l-68 44
q-30 19 -52 19q-11 -1 -34 -16t-57 -47l-57 -55l-63 67q4 7 26.5 34t52.5 59t61 61t52 39q25 11 50 11t49.5 -7.5t47.5 -19t43 -23.5l35 -21q13 -8 29 -19t32 -20.5t31.5 -16t28.5 -6.5q20 0 56.5 31.5t91.5 86.5l63 -68q-2 -4 -13 -17.5t-27.5 -33t-36.5 -41t-41 -42
t-40 -36t-34 -22.5q-26 -12 -52 -12q-24 0 -49 7.5t-48 18.5t-42.5 23.5t-34.5 21.5z" />
    <glyph glyph-name="adieresis" unicode="&#xe4;" horiz-adv-x="1078" 
d="M707 0v166q-31 -37 -75 -70t-93 -58.5t-99 -39.5t-95 -14q-56 0 -105 17t-86 52t-59.5 84t-22.5 115q0 102 52.5 166.5t185.5 99.5q100 27 193 44.5t204 29.5v168q0 57 -16.5 97t-45 65.5t-66.5 37t-81 11.5q-47 0 -96 -6.5t-96 -22.5l-58 -233l-106 18v266
q80 35 171 62.5t195 27.5q80 0 150 -16t122 -54t81.5 -100.5t29.5 -154.5v-629l148 -35l-21 -94h-311zM277 268q0 -49 12.5 -78.5t34 -47t49 -23.5t58.5 -6q36 0 77 15t79 37.5t70 51.5t50 55v234q-65 -8 -131 -17.5t-131 -27.5q-96 -27 -132 -78t-36 -115zM605 1348
q47 84 133 131q82 -45 127 -127q-49 -84 -133 -131q-84 43 -127 127zM173 1348q47 84 133 131q82 -45 127 -127q-49 -84 -133 -131q-84 43 -127 127z" />
    <glyph glyph-name="aring" unicode="&#xe5;" horiz-adv-x="1078" 
d="M707 0v166q-31 -37 -75 -70t-93 -58.5t-99 -39.5t-95 -14q-56 0 -105 17t-86 52t-59.5 84t-22.5 115q0 102 52.5 166.5t185.5 99.5q100 27 193 44.5t204 29.5v168q0 57 -16.5 97t-45 65.5t-66.5 37t-81 11.5q-47 0 -96 -6.5t-96 -22.5l-58 -233l-106 18v266
q80 35 171 62.5t195 27.5q80 0 150 -16t122 -54t81.5 -100.5t29.5 -154.5v-629l148 -35l-21 -94h-311zM277 268q0 -49 12.5 -78.5t34 -47t49 -23.5t58.5 -6q36 0 77 15t79 37.5t70 51.5t50 55v234q-65 -8 -131 -17.5t-131 -27.5q-96 -27 -132 -78t-36 -115zM299 1417
q0 49 18.5 93t50.5 77t76 51.5t93 18.5t93 -18.5t77 -51.5t51.5 -77t18.5 -93t-18.5 -93t-51.5 -75.5t-77 -50t-93 -18.5t-93 18.5t-76 50t-50.5 75.5t-18.5 93zM400 1417q0 -76 34.5 -116.5t102.5 -40.5q70 0 104.5 40.5t34.5 116.5q0 78 -34.5 119t-104.5 41
q-68 0 -102.5 -41t-34.5 -119z" />
    <glyph glyph-name="ae" unicode="&#xe6;" horiz-adv-x="1672" 
d="M865 549q0 -103 27.5 -182.5t76.5 -136t115.5 -86t144.5 -29.5q144 0 301 100l45 -78q-100 -78 -206.5 -116.5t-208.5 -38.5q-146 0 -240 71.5t-143 182.5q-31 -37 -70 -81t-90 -82t-118.5 -63.5t-153.5 -25.5q-56 0 -105 17t-86 52t-59.5 84t-22.5 115q0 102 52.5 166.5
t185.5 99.5q100 27 193 44.5t204 29.5v168q0 57 -16.5 97t-45 65.5t-66.5 37t-81 11.5q-47 0 -96 -6.5t-96 -22.5l-58 -233l-106 18v266q80 35 171 62.5t195 27.5q111 0 189 -31.5t119 -109.5q71 70 159 104.5t179 34.5q137 0 222 -47t133 -122.5t65.5 -171t17.5 -191.5
h-727zM277 268q0 -49 12.5 -78.5t34 -47t49 -23.5t58.5 -6q36 0 77 15t79 37.5t70 51.5t50 55v234q-65 -8 -131 -17.5t-131 -27.5q-96 -27 -132 -78t-36 -115zM1387 659q0 80 -20.5 139.5t-53.5 97.5t-77 56.5t-89 18.5q-49 0 -97 -20.5t-87 -60.5t-64.5 -97.5t-27.5 -133.5
h516z" />
    <glyph glyph-name="ccedilla" unicode="&#xe7;" horiz-adv-x="1059" 
d="M794 936q-88 35 -160 35q-78 0 -141.5 -33t-108.5 -89t-70.5 -134t-25.5 -168q0 -82 20.5 -160t63.5 -139.5t108.5 -98t155.5 -36.5q70 0 152.5 26.5t146.5 73.5l45 -78q-82 -78 -181 -118q-85 -35 -175 -39v-56q82 -10 114.5 -52t32.5 -106q0 -65 -36 -113t-91 -81
t-120.5 -51.5t-125.5 -22.5l-14 62q33 8 67.5 18t65.5 26.5t53.5 40t26.5 54.5q10 59 -8.5 106t-77.5 60v121q-58 9 -112 30q-93 37 -163.5 108t-111.5 174t-41 236q0 132 46 234t122 173t174 107.5t203 36.5q84 0 165.5 -23.5t159.5 -72.5v-272l-102 -21z" />
    <glyph glyph-name="egrave" unicode="&#xe8;" horiz-adv-x="1095" 
d="M288 549q0 -103 27.5 -182.5t76.5 -136t115.5 -86t144.5 -29.5q144 0 301 100l45 -78q-100 -78 -206.5 -116.5t-208.5 -38.5q-103 0 -193 36.5t-158.5 107.5t-108.5 174t-40 237q0 135 44 237.5t114.5 171t158.5 102t176 33.5q138 0 223 -47t133 -122.5t65.5 -171
t17.5 -191.5h-727zM810 659q0 80 -20.5 139.5t-53.5 97.5t-77 56.5t-89 18.5q-49 0 -97 -20.5t-87 -60.5t-64.5 -97.5t-27.5 -133.5h516zM220 1536h201l219 -344h-112z" />
    <glyph glyph-name="eacute" unicode="&#xe9;" horiz-adv-x="1095" 
d="M288 549q0 -103 27.5 -182.5t76.5 -136t115.5 -86t144.5 -29.5q144 0 301 100l45 -78q-100 -78 -206.5 -116.5t-208.5 -38.5q-103 0 -193 36.5t-158.5 107.5t-108.5 174t-40 237q0 135 44 237.5t114.5 171t158.5 102t176 33.5q138 0 223 -47t133 -122.5t65.5 -171
t17.5 -191.5h-727zM810 659q0 80 -20.5 139.5t-53.5 97.5t-77 56.5t-89 18.5q-49 0 -97 -20.5t-87 -60.5t-64.5 -97.5t-27.5 -133.5h516zM624 1157h-112l178 375h201z" />
    <glyph glyph-name="ecircumflex" unicode="&#xea;" horiz-adv-x="1095" 
d="M288 549q0 -103 27.5 -182.5t76.5 -136t115.5 -86t144.5 -29.5q144 0 301 100l45 -78q-100 -78 -206.5 -116.5t-208.5 -38.5q-103 0 -193 36.5t-158.5 107.5t-108.5 174t-40 237q0 135 44 237.5t114.5 171t158.5 102t176 33.5q138 0 223 -47t133 -122.5t65.5 -171
t17.5 -191.5h-727zM810 659q0 80 -20.5 139.5t-53.5 97.5t-77 56.5t-89 18.5q-49 0 -97 -20.5t-87 -60.5t-64.5 -97.5t-27.5 -133.5h516zM587 1436l-197 -269h-113l238 367v2h145l-2 -2l240 -367h-113z" />
    <glyph glyph-name="edieresis" unicode="&#xeb;" horiz-adv-x="1095" 
d="M288 549q0 -103 27.5 -182.5t76.5 -136t115.5 -86t144.5 -29.5q144 0 301 100l45 -78q-100 -78 -206.5 -116.5t-208.5 -38.5q-103 0 -193 36.5t-158.5 107.5t-108.5 174t-40 237q0 135 44 237.5t114.5 171t158.5 102t176 33.5q138 0 223 -47t133 -122.5t65.5 -171
t17.5 -191.5h-727zM810 659q0 80 -20.5 139.5t-53.5 97.5t-77 56.5t-89 18.5q-49 0 -97 -20.5t-87 -60.5t-64.5 -97.5t-27.5 -133.5h516zM661 1348q47 84 133 131q82 -45 127 -127q-49 -84 -133 -131q-84 43 -127 127zM229 1348q47 84 133 131q82 -45 127 -127
q-49 -84 -133 -131q-84 43 -127 127z" />
    <glyph glyph-name="igrave" unicode="&#xec;" horiz-adv-x="624" 
d="M422 127l154 -29l-21 -98h-497v61l180 62v792l-166 31l-10 84l360 49v-952zM-34 1536h201l219 -344h-112z" />
    <glyph glyph-name="iacute" unicode="&#xed;" horiz-adv-x="624" 
d="M422 127l154 -29l-21 -98h-497v61l180 62v792l-166 31l-10 84l360 49v-952zM382 1157h-112l178 375h201z" />
    <glyph glyph-name="icircumflex" unicode="&#xee;" horiz-adv-x="624" 
d="M422 127l154 -29l-21 -98h-497v61l180 62v792l-166 31l-10 84l360 49v-952zM326 1436l-197 -269h-113l238 367v2h145l-2 -2l240 -367h-113z" />
    <glyph glyph-name="idieresis" unicode="&#xef;" horiz-adv-x="624" 
d="M422 127l154 -29l-21 -98h-497v61l180 62v792l-166 31l-10 84l360 49v-952zM413 1348q47 84 133 131q82 -45 127 -127q-49 -84 -133 -131q-84 43 -127 127zM-19 1348q47 84 133 131q82 -45 127 -127q-49 -84 -133 -131q-84 43 -127 127z" />
    <glyph glyph-name="eth" unicode="&#xf0;" horiz-adv-x="1189" 
d="M387 1362l133 111q-41 20 -90 29t-90 14q-49 4 -96 4v94q2 0 15 1t33.5 2t43 1h41.5q137 -6 250 -57l157 133l72 -86l-129 -107q88 -51 154.5 -131t111.5 -182.5t66.5 -223t21.5 -251.5q0 -178 -43 -314.5t-113.5 -228.5t-162.5 -139t-191 -47q-122 0 -214.5 43
t-153 117.5t-91 174t-30.5 209.5q0 107 35 208.5t102.5 178t166.5 123.5t226 47q50 0 107 -12t129 -45q-2 39 -21.5 94.5t-50.5 109.5t-72.5 101t-89.5 72l-155 -129zM864 928q-67 30 -138 37.5t-112 7.5q-86 0 -148.5 -35t-102 -93.5t-58 -134t-18.5 -159.5
q0 -100 17.5 -184t53 -143.5t89 -93.5t126.5 -34q97 0 156 64.5t92 163t44.5 213t11.5 215.5q0 34 -2.5 66t-4.5 56q-4 29 -6 54z" />
    <glyph glyph-name="ntilde" unicode="&#xf1;" horiz-adv-x="1280" 
d="M1088 127l164 -35l-21 -92h-485v61l157 62v543q0 75 -12 124.5t-36.5 77t-61.5 37.5t-86 10q-41 0 -83 -7t-80 -21.5t-69.5 -32.5t-52.5 -43v-684l156 -29l-21 -98h-495v61l178 62v784l-170 33l-10 90l362 49v-168q35 43 79 75t91 53.5t94 32.5t90 11q148 0 228 -90
t84 -286v-580zM620 1278l-68 44q-30 19 -52 19q-11 -1 -34 -16t-57 -47l-57 -55l-63 67q4 7 26.5 34t52.5 59t61 61t52 39q25 11 50 11t49.5 -7.5t47.5 -19t43 -23.5l35 -21q13 -8 29 -19t32 -20.5t31.5 -16t28.5 -6.5q20 0 56.5 31.5t91.5 86.5l63 -68q-2 -4 -13 -17.5
t-27.5 -33t-36.5 -41t-41 -42t-40 -36t-34 -22.5q-26 -12 -52 -12q-24 0 -49 7.5t-48 18.5t-42.5 23.5t-34.5 21.5z" />
    <glyph glyph-name="ograve" unicode="&#xf2;" horiz-adv-x="1214" 
d="M622 96q82 0 140 36t95 95.5t54.5 135t17.5 155.5q0 84 -16.5 166t-55.5 146.5t-103.5 103.5t-160.5 39q-82 0 -140.5 -36t-95 -95.5t-54 -135t-17.5 -155.5q0 -84 16 -166t55 -146.5t103.5 -103.5t161.5 -39zM591 1085q137 0 239.5 -46t170 -122.5t100.5 -175t33 -200.5
q0 -105 -34 -204t-98.5 -178t-159.5 -127t-218 -48q-138 0 -240 46t-170 122.5t-100.5 175t-32.5 200.5q0 105 34 204t98.5 178t159.5 127t218 48zM242 1536h201l219 -344h-112z" />
    <glyph glyph-name="oacute" unicode="&#xf3;" horiz-adv-x="1214" 
d="M622 96q82 0 140 36t95 95.5t54.5 135t17.5 155.5q0 84 -16.5 166t-55.5 146.5t-103.5 103.5t-160.5 39q-82 0 -140.5 -36t-95 -95.5t-54 -135t-17.5 -155.5q0 -84 16 -166t55 -146.5t103.5 -103.5t161.5 -39zM591 1085q137 0 239.5 -46t170 -122.5t100.5 -175t33 -200.5
q0 -105 -34 -204t-98.5 -178t-159.5 -127t-218 -48q-138 0 -240 46t-170 122.5t-100.5 175t-32.5 200.5q0 105 34 204t98.5 178t159.5 127t218 48zM654 1157h-112l178 375h201z" />
    <glyph glyph-name="ocircumflex" unicode="&#xf4;" horiz-adv-x="1214" 
d="M622 96q82 0 140 36t95 95.5t54.5 135t17.5 155.5q0 84 -16.5 166t-55.5 146.5t-103.5 103.5t-160.5 39q-82 0 -140.5 -36t-95 -95.5t-54 -135t-17.5 -155.5q0 -84 16 -166t55 -146.5t103.5 -103.5t161.5 -39zM591 1085q137 0 239.5 -46t170 -122.5t100.5 -175t33 -200.5
q0 -105 -34 -204t-98.5 -178t-159.5 -127t-218 -48q-138 0 -240 46t-170 122.5t-100.5 175t-32.5 200.5q0 105 34 204t98.5 178t159.5 127t218 48zM603 1436l-197 -269h-113l238 367v2h145l-2 -2l240 -367h-113z" />
    <glyph glyph-name="otilde" unicode="&#xf5;" horiz-adv-x="1214" 
d="M622 96q82 0 140 36t95 95.5t54.5 135t17.5 155.5q0 84 -16.5 166t-55.5 146.5t-103.5 103.5t-160.5 39q-82 0 -140.5 -36t-95 -95.5t-54 -135t-17.5 -155.5q0 -84 16 -166t55 -146.5t103.5 -103.5t161.5 -39zM591 1085q137 0 239.5 -46t170 -122.5t100.5 -175t33 -200.5
q0 -105 -34 -204t-98.5 -178t-159.5 -127t-218 -48q-138 0 -240 46t-170 122.5t-100.5 175t-32.5 200.5q0 105 34 204t98.5 178t159.5 127t218 48zM583 1278l-68 44q-30 19 -52 19q-11 -1 -34 -16t-57 -47l-57 -55l-63 67q4 7 26.5 34t52.5 59t61 61t52 39q25 11 50 11
t49.5 -7.5t47.5 -19t43 -23.5l35 -21q13 -8 29 -19t32 -20.5t31.5 -16t28.5 -6.5q20 0 56.5 31.5t91.5 86.5l63 -68q-2 -4 -13 -17.5t-27.5 -33t-36.5 -41t-41 -42t-40 -36t-34 -22.5q-26 -12 -52 -12q-24 0 -49 7.5t-48 18.5t-42.5 23.5t-34.5 21.5z" />
    <glyph glyph-name="odieresis" unicode="&#xf6;" horiz-adv-x="1214" 
d="M622 96q82 0 140 36t95 95.5t54.5 135t17.5 155.5q0 84 -16.5 166t-55.5 146.5t-103.5 103.5t-160.5 39q-82 0 -140.5 -36t-95 -95.5t-54 -135t-17.5 -155.5q0 -84 16 -166t55 -146.5t103.5 -103.5t161.5 -39zM591 1085q137 0 239.5 -46t170 -122.5t100.5 -175t33 -200.5
q0 -105 -34 -204t-98.5 -178t-159.5 -127t-218 -48q-138 0 -240 46t-170 122.5t-100.5 175t-32.5 200.5q0 105 34 204t98.5 178t159.5 127t218 48zM689 1348q47 84 133 131q82 -45 127 -127q-49 -84 -133 -131q-84 43 -127 127zM257 1348q47 84 133 131q82 -45 127 -127
q-49 -84 -133 -131q-84 43 -127 127z" />
    <glyph glyph-name="divide" unicode="&#xf7;" horiz-adv-x="1472" 
d="M117 696h1237v-157h-1237v157zM573 1018q54 96 152 149q94 -51 145 -145q-55 -96 -151 -150q-96 50 -146 146zM573 213q54 96 152 149q94 -51 145 -145q-55 -96 -151 -149q-96 49 -146 145z" />
    <glyph glyph-name="oslash" unicode="&#xf8;" horiz-adv-x="1213" 
d="M591 1085q65 0 121.5 -11t105.5 -32l74 136l90 -41l-76 -142q115 -77 171.5 -198t56.5 -256q0 -105 -34 -204t-98.5 -178t-159.5 -127t-218 -48q-131 0 -238 45l-102 -193l-88 49l102 193q-111 78 -164 197.5t-53 252.5q0 105 34 204t98.5 178t159.5 127t218 48zM622 96
q82 0 140 36t95 95.5t54.5 135t17.5 155.5q0 96 -20.5 187.5t-73.5 156.5l-387 -721q34 -22 77 -33.5t97 -11.5zM286 551q0 -94 19.5 -182t66.5 -154l387 715q-35 20 -76 31.5t-90 11.5q-82 0 -140.5 -36t-95 -95.5t-54 -135t-17.5 -155.5z" />
    <glyph glyph-name="ugrave" unicode="&#xf9;" horiz-adv-x="1243" 
d="M192 938l-164 35l21 92h328v-664q0 -77 12 -125.5t36.5 -76t61.5 -37.5t86 -10q41 0 83 7t80 21.5t69.5 32.5t52.5 43v682l-156 29l21 98h317v-938l166 -37l-22 -90h-326v156q-35 -43 -79 -75t-91 -53.5t-94 -32.5t-90 -11q-148 0 -229 90t-83 286v578zM200 1536h201
l219 -344h-112z" />
    <glyph glyph-name="uacute" unicode="&#xfa;" horiz-adv-x="1243" 
d="M192 938l-164 35l21 92h328v-664q0 -77 12 -125.5t36.5 -76t61.5 -37.5t86 -10q41 0 83 7t80 21.5t69.5 32.5t52.5 43v682l-156 29l21 98h317v-938l166 -37l-22 -90h-326v156q-35 -43 -79 -75t-91 -53.5t-94 -32.5t-90 -11q-148 0 -229 90t-83 286v578zM636 1157h-112
l178 375h201z" />
    <glyph glyph-name="ucircumflex" unicode="&#xfb;" horiz-adv-x="1243" 
d="M192 938l-164 35l21 92h328v-664q0 -77 12 -125.5t36.5 -76t61.5 -37.5t86 -10q41 0 83 7t80 21.5t69.5 32.5t52.5 43v682l-156 29l21 98h317v-938l166 -37l-22 -90h-326v156q-35 -43 -79 -75t-91 -53.5t-94 -32.5t-90 -11q-148 0 -229 90t-83 286v578zM607 1436
l-197 -269h-113l238 367v2h145l-2 -2l240 -367h-113z" />
    <glyph glyph-name="udieresis" unicode="&#xfc;" horiz-adv-x="1243" 
d="M192 938l-164 35l21 92h328v-664q0 -77 12 -125.5t36.5 -76t61.5 -37.5t86 -10q41 0 83 7t80 21.5t69.5 32.5t52.5 43v682l-156 29l21 98h317v-938l166 -37l-22 -90h-326v156q-35 -43 -79 -75t-91 -53.5t-94 -32.5t-90 -11q-148 0 -229 90t-83 286v578zM694 1348
q47 84 133 131q82 -45 127 -127q-49 -84 -133 -131q-84 43 -127 127zM262 1348q47 84 133 131q82 -45 127 -127q-49 -84 -133 -131q-84 43 -127 127z" />
    <glyph glyph-name="yacute" unicode="&#xfd;" horiz-adv-x="1114" 
d="M448 -86q10 27 23 57.5t26 63.5l-369 903l-141 35l20 92h439v-61l-123 -52l254 -628l12 -58l282 680l-124 21l20 98h365v-61l-134 -60q-96 -239 -181 -428.5t-144 -339.5q-55 -139 -100.5 -250.5t-90.5 -189.5q-22 -41 -53 -78t-69.5 -65.5t-87 -46t-109.5 -17.5
q-62 0 -131 20l57 170q66 -14 121 -14t90 15.5t59.5 43t44 65.5t44.5 85zM620 1157h-112l178 375h201z" />
    <glyph glyph-name="thorn" unicode="&#xfe;" horiz-adv-x="1177" 
d="M352 946q80 72 162.5 104.5t160.5 32.5q86 0 162 -37.5t133.5 -105.5t90 -163t32.5 -212q0 -121 -35 -224t-98.5 -180t-154.5 -121t-201 -44q-121 0 -252 53v-383l196 -28l-20 -99h-539v62l178 61v1653l-166 33l-10 90l361 49v-541zM352 203q71 -49 133.5 -71.5
t116.5 -22.5q69 0 122.5 33.5t90 91t56 134t19.5 162.5q0 183 -72.5 290.5t-201.5 107.5q-57 0 -124 -23.5t-140 -77.5v-624z" />
    <glyph glyph-name="ydieresis" unicode="&#xff;" horiz-adv-x="1115" 
d="M448 -86q10 27 23 57.5t26 63.5l-369 903l-141 35l20 92h439v-61l-123 -52l254 -628l12 -58l282 680l-124 21l20 98h365v-61l-134 -60q-96 -239 -181 -428.5t-144 -339.5q-55 -139 -100.5 -250.5t-90.5 -189.5q-22 -41 -53 -78t-69.5 -65.5t-87 -46t-109.5 -17.5
q-62 0 -131 20l57 170q66 -14 121 -14t90 15.5t59.5 43t44 65.5t44.5 85zM668 1348q47 84 133 131q82 -45 127 -127q-49 -84 -133 -131q-84 43 -127 127zM236 1348q47 84 133 131q82 -45 127 -127q-49 -84 -133 -131q-84 43 -127 127z" />
    <glyph glyph-name="dotlessi" unicode="&#x131;" horiz-adv-x="624" 
d="M422 127l154 -29l-21 -98h-497v61l180 62v792l-166 31l-10 84l360 49v-952z" />
    <glyph glyph-name="OE" unicode="&#x152;" horiz-adv-x="1979" 
d="M1804 350l107 -22v-328h-918q-49 -14 -100 -21.5t-109 -7.5q-170 0 -300 61.5t-218 165t-132 238.5t-44 283q0 153 48 289.5t137.5 237t217.5 158.5t289 58q109 0 211 -28h875v-336l-103 -21l-65 244h-500v-512h346l56 137l71 -20v-363l-57 -20l-70 145h-346v-575h539z
M807 84q41 0 94 17.5t92 35.5v1151q-49 29 -107.5 45.5t-125.5 16.5q-103 0 -186.5 -49.5t-143 -131.5t-92.5 -190.5t-33 -224.5q0 -127 29 -248t90 -214t156.5 -150.5t226.5 -57.5z" />
    <glyph glyph-name="oe" unicode="&#x153;" horiz-adv-x="1914" 
d="M591 1085q147 0 251.5 -62t168.5 -161q71 111 176.5 165t208.5 54q137 0 222 -47t133 -122.5t65.5 -171t17.5 -191.5h-727q0 -103 27.5 -182.5t77 -136t116 -86t144.5 -29.5q143 0 301 100l45 -78q-101 -78 -207.5 -116.5t-208.5 -38.5q-119 0 -223.5 56t-169.5 167
q-62 -99 -159 -160t-226 -61q-138 0 -240 46t-170 122.5t-100.5 175t-32.5 200.5q0 105 34 204t98.5 178t159.5 127t218 48zM1629 659q0 80 -20.5 139.5t-53 97.5t-76.5 56.5t-89 18.5q-50 0 -98 -20.5t-87 -60.5t-64.5 -97.5t-27.5 -133.5h516zM622 96q82 0 140 36t95 95.5
t54.5 135t17.5 155.5q0 84 -16.5 166t-55.5 146.5t-103.5 103.5t-160.5 39q-82 0 -140.5 -36t-95 -95.5t-54 -135t-17.5 -155.5q0 -84 16 -166t55 -146.5t103.5 -103.5t161.5 -39z" />
    <glyph glyph-name="circumflex" unicode="&#x2c6;" horiz-adv-x="1071" 
d="M535 1436l-197 -269h-113l238 367v2h145l-2 -2l240 -367h-113z" />
    <glyph glyph-name="caron" unicode="&#x2c7;" horiz-adv-x="1071" 
d="M733 1536h113l-240 -367l2 -2h-145v2l-238 367h113l197 -268z" />
    <glyph glyph-name="breve" unicode="&#x2d8;" horiz-adv-x="1706" 
d="M848 1610q123 0 177 48t54 175h205q0 -90 -35 -153.5t-94 -104.5t-138 -59.5t-169 -18.5t-169 18.5t-138.5 59.5t-94 104.5t-34.5 153.5h204q0 -127 54.5 -175t177.5 -48z" />
    <glyph glyph-name="dotaccent" unicode="&#x2d9;" horiz-adv-x="1145" 
d="M410 1343q59 105 165 164q103 -57 160 -159q-61 -105 -166 -164q-51 26 -93 67t-66 92z" />
    <glyph glyph-name="ring" unicode="&#x2da;" horiz-adv-x="1032" 
d="M276 1417q0 49 18.5 93t50.5 77t76 51.5t93 18.5t93 -18.5t77 -51.5t51.5 -77t18.5 -93t-18.5 -93t-51.5 -75.5t-77 -50t-93 -18.5t-93 18.5t-76 50t-50.5 75.5t-18.5 93zM377 1417q0 -76 34.5 -116.5t102.5 -40.5q70 0 104.5 40.5t34.5 116.5q0 78 -34.5 119t-104.5 41
q-68 0 -102.5 -41t-34.5 -119z" />
    <glyph glyph-name="ogonek" unicode="&#x2db;" horiz-adv-x="664" 
d="M154 -182q0 45 23.5 80.5t61 59.5t85 34t94.5 2q-49 -45 -77 -98.5t-19.5 -103.5t54.5 -91t144 -59l-14 -64q-57 -4 -118.5 13.5t-114 49t-86 77.5t-33.5 100z" />
    <glyph glyph-name="tilde" unicode="&#x2dc;" horiz-adv-x="1706" 
d="M782 1278l-68 44q-30 19 -52 19q-11 -1 -34 -16t-57 -47l-57 -55l-63 67q4 7 26.5 34t52.5 59t61 61t52 39q25 11 50 11t49.5 -7.5t47.5 -19t43 -23.5l35 -21q13 -8 29 -19t32 -20.5t31.5 -16t28.5 -6.5q20 0 56.5 31.5t91.5 86.5l63 -68q-2 -4 -13 -17.5t-27.5 -33
t-36.5 -41t-41 -42t-40 -36t-34 -22.5q-26 -12 -52 -12q-24 0 -49 7.5t-48 18.5t-42.5 23.5t-34.5 21.5z" />
    <glyph glyph-name="hungarumlaut" unicode="&#x2dd;" horiz-adv-x="797" 
d="M256 1219h-113l179 374h200zM561 1217h-112l178 374h200z" />
    <glyph glyph-name="endash" unicode="&#x2013;" horiz-adv-x="1438" 
d="M131 549h1176v-156h-1176v156z" />
    <glyph glyph-name="emdash" unicode="&#x2014;" horiz-adv-x="2400" 
d="M131 549h2138v-156h-2138v156z" />
    <glyph glyph-name="quoteleft" unicode="&#x2018;" horiz-adv-x="453" 
d="M94 1050q-13 52 -1.5 123.5t41 140t73.5 125t98 74.5l41 -51q-37 -24 -59.5 -57t-34 -70t-12.5 -72.5t5 -62.5q97 -49 146 -145q-54 -97 -152 -150q-94 51 -145 145z" />
    <glyph glyph-name="quoteright" unicode="&#x2019;" horiz-adv-x="459" 
d="M377 1368q13 -51 1.5 -122.5t-41 -141.5t-73.5 -125t-98 -74l-41 51q37 25 59.5 58t34 69.5t12.5 71.5t-5 64q-96 49 -146 145q54 96 152 149q94 -51 145 -145z" />
    <glyph glyph-name="quotesinglbase" unicode="&#x201a;" horiz-adv-x="469" 
d="M378 104q12 -51 0.5 -122.5t-41 -141t-73.5 -125t-97 -73.5l-41 51q36 24 59 57t34 70t12 71.5t-5 63.5q-96 49 -145 145q53 97 151 150q94 -51 146 -146z" />
    <glyph glyph-name="quotedblleft" unicode="&#x201c;" horiz-adv-x="897" 
d="M94 1050q-13 52 -1.5 123.5t41 140t73.5 125t98 74.5l41 -51q-37 -24 -59.5 -57t-34 -70t-12.5 -72.5t5 -62.5q96 -49 146 -145q-54 -97 -152 -150q-94 51 -145 145zM536 1050q-12 52 -1 123.5t41 140t74 125t97 74.5l41 -51q-37 -24 -59.5 -57t-33.5 -70t-12.5 -72.5
t5.5 -62.5q96 -49 145 -145q-53 -97 -152 -150q-94 51 -145 145z" />
    <glyph glyph-name="quotedblright" unicode="&#x201d;" horiz-adv-x="893" 
d="M379 1368q13 -51 1.5 -123t-41 -141.5t-73.5 -125t-98 -73.5l-41 51q37 25 59.5 57.5t34 69.5t12.5 72t-5 63q-97 49 -146 146q54 96 152 149q94 -51 145 -145zM809 1368q13 -51 1.5 -123t-41 -141.5t-73.5 -125t-98 -73.5l-41 51q37 25 59.5 57.5t34 69.5t12.5 72t-5 63
q-97 49 -146 146q54 96 152 149q94 -51 145 -145z" />
    <glyph glyph-name="quotedblbase" unicode="&#x201e;" horiz-adv-x="905" 
d="M377 170q13 -51 1.5 -123t-41 -141.5t-73.5 -124.5t-98 -74l-40 51q36 25 58.5 57.5t34 69.5t12.5 72t-5 63q-96 50 -146 146q54 96 152 149q94 -51 145 -145zM805 170q13 -51 1.5 -123t-41 -141.5t-73.5 -124.5t-98 -74l-40 51q36 25 58.5 57.5t34 69.5t12.5 72t-5 63
q-96 50 -146 146q54 96 152 149q94 -51 145 -145z" />
    <glyph glyph-name="bullet" unicode="&#x2022;" horiz-adv-x="826" 
d="M84 807q0 67 25.5 127.5t70.5 105.5t105.5 71t128.5 26q67 0 126.5 -26t104.5 -71t71 -105.5t26 -127.5q0 -68 -26 -127t-71 -104.5t-104.5 -71t-126.5 -25.5q-68 0 -128.5 25.5t-105.5 71t-70.5 104.5t-25.5 127z" />
    <glyph glyph-name="guilsinglleft" unicode="&#x2039;" horiz-adv-x="644" 
d="M263 549q0 -2 3 -2q43 -43 87 -114t80.5 -144.5t62.5 -136t32 -89.5l-58 -24q-41 61 -92 130t-106.5 135.5t-108.5 123.5t-94 96v21q41 39 94 96t108.5 123.5t106.5 135.5t92 130l58 -24q-6 -27 -32 -84.5t-62.5 -123t-80.5 -131t-87 -108.5l-3 -2v-4v-4z" />
    <glyph glyph-name="guilsinglright" unicode="&#x203a;" horiz-adv-x="643" 
d="M380 553q0 2 -1 2t-1 2v2q-43 43 -87 108.5t-81 131t-62.5 123t-31.5 84.5l57 24q39 -61 91 -130t107.5 -135.5t108.5 -123.5t94 -96v-21q-41 -39 -94 -96t-108.5 -123.5t-107.5 -135.5t-91 -130l-57 24q6 27 31.5 89.5t62.5 136t81 144.5t87 114v2z" />
    <glyph glyph-name="fraction" unicode="&#x2044;" horiz-adv-x="769" 
d="M802 1395l-689 -1456h-153l688 1456h154z" />
    <glyph glyph-name="foursuperior" unicode="&#x2074;" horiz-adv-x="745" 
d="M421 803v78h-375v49l422 547h76v-508h100v-88h-100v-78l100 -31l-12 -47h-326v37zM421 969v288l-223 -288h223z" />
    <glyph glyph-name="Euro" unicode="&#x20ac;" horiz-adv-x="1453" 
d="M1319 82q-116 -55 -220.5 -82t-198.5 -27q-222 0 -366 136.5t-189 386.5h-287l61 112h211q-4 25 -4 50.5v54.5v34.5t2 34.5h-188l61 113h137q21 149 75 258t135 178.5t184.5 103t224.5 33.5q108 0 214.5 -31.5t201.5 -93.5l-156 -325l-102 35l26 264q-102 45 -198 45
q-80 0 -143.5 -24.5t-110.5 -80t-78 -144.5t-43 -218h516l-62 -113h-460v-69v-54.5t2 -50.5h424l-62 -112h-350q64 -402 387 -402q141 0 330 80z" />
    <glyph glyph-name="minus" unicode="&#x2212;" horiz-adv-x="1250" 
d="M144 686h962v-156h-962v156z" />
    <glyph glyph-name="uni2215" unicode="&#x2215;" horiz-adv-x="769" 
d="M802 1395l-689 -1456h-153l688 1456h154z" />
    <glyph glyph-name="uniE0FF" unicode="&#xe0ff;" horiz-adv-x="762" 
 />
    <glyph glyph-name="uniEFFD" unicode="&#xeffd;" horiz-adv-x="1182" 
d="M167 1067h848v-1067h-848v1067zM315 147h553v773h-553v-773z" />
    <glyph glyph-name="uniF000" unicode="&#xf000;" horiz-adv-x="461" 
 />
    <glyph glyph-name="noBreak" horiz-adv-x="532" 
 />
    <glyph glyph-name="NULL" horiz-adv-x="0" 
 />
    <glyph glyph-name="nonmarkingreturn" horiz-adv-x="0" 
 />
    <glyph glyph-name="foundryicon" horiz-adv-x="2163" 
d="M2062 514h-32q2 -4 2 -10q0 -29 -22.5 -50.5t-70.5 -21.5q-18 0 -24 2v-31h37q80 0 80 -73q0 -17 -4.5 -28t-8.5 -19h-55v59h-94q-10 8 -15.5 20.5t-5.5 24.5q0 37 29 62q-29 16 -29 57q0 33 23.5 54.5t64.5 21.5q37 0 64 -21q16 21 39 21q8 0 12 -1t10 -3v-64zM502 358
q-13 -45 -36.5 -60t-51.5 -15q-39 0 -54 14v53h35q33 0 43 23h-28l-50 141h-20v64h78l28 -101l11 -49l22 86h-18v64h88v-64zM324 383q-37 -16 -84 -16q-64 0 -100 35.5t-36 99.5q0 65 35 105t105 40q18 0 38.5 -4t41.5 -10v-82h-64v31q-6 2 -18 2q-29 0 -44.5 -20.5
t-15.5 -53.5q0 -76 76 -76h66v-51zM1532 367q-100 0 -100 106q0 51 27.5 80t74.5 29t74.5 -28t27.5 -79t-27.5 -79.5t-76.5 -28.5zM991 567q19 6 36 10.5t38 4.5q94 0 94 -78v-70h23v-55q-17 -10 -41 -10q-33 0 -45 14q-19 -16 -52 -16q-28 0 -48.5 16t-20.5 47
q0 29 18.5 45.5t61.5 16.5h32v2q0 8 -9 14t-36 6h-51v53zM944 434v-53q-16 -8 -36.5 -11t-39.5 -3q-53 0 -80.5 27.5t-27.5 76.5t24.5 80t75.5 31q41 0 65.5 -25t24.5 -61q0 -9 -1 -18t-3 -19h-112q8 -25 51 -25h59zM1661 514v64h70l20 -33q4 10 9 15t12 11q14 11 30 11
q13 0 25 -4v-64h-70v-80h35v-61h-127v61h18v80h-22zM578 514v64h69l21 -33q4 10 9 15l11 11q14 11 31 11q12 0 24 -4v-64h-69v-80h35v-61h-127v61h20v80h-24zM1206 584h-24v63h96v-213h29v-57q-19 -8 -45 -8q-56 0 -56 57v158zM1333 408q0 16 10.5 28.5t30.5 12.5
q23 0 34 -12.5t11 -28.5q0 -17 -11 -28t-34 -11q-20 0 -30.5 11t-10.5 28zM1534 422q29 0 29 53q0 49 -29 49t-29 -49q0 -53 29 -53zM1917 506q0 -31 25 -31q20 0 20 31t-20 31q-25 0 -25 -31zM1065 418q14 0 22 6v31h-16q-27 0 -27 -19q0 -18 21 -18zM858 528
q-20 0 -27 -32h52q0 32 -25 32z" />
    <glyph glyph-name="Acute" horiz-adv-x="1020" 
d="M559 1518h-113l168 309h201z" />
    </font>
</defs>
</svg>
