<?xml version="1.0" standalone="no"?>
<!DOCTYPE svg PUBLIC "-//W3C//DTD SVG 1.1//EN" "http://www.w3.org/Graphics/SVG/1.1/DTD/svg11.dtd" >
<svg xmlns="http://www.w3.org/2000/svg" xmlns:xlink="http://www.w3.org/1999/xlink" version="1.1">
<metadata>
Created by FontForge 20161013 at Wed Nov 16 15:29:56 2011
 By ,,,
Copyright (c) 2011 by Pablo Impallari. www.impallari.com Igino Marini. www.ikern.com. All rights reserved.
</metadata>
<defs>
<font id="Cabin-Regular" horiz-adv-x="616" >
  <font-face 
    font-family="Cabin"
    font-weight="400"
    font-stretch="normal"
    units-per-em="1000"
    panose-1="2 11 8 3 5 2 2 2 0 4"
    ascent="800"
    descent="-200"
    x-height="490"
    cap-height="700"
    bbox="-39 -250 1165 964"
    underline-thickness="50"
    underline-position="-150"
    unicode-range="U+0020-2122"
  />
<missing-glyph horiz-adv-x="250" 
d="M162 250h-90v110h90v-110z" />
    <glyph glyph-name=".notdef" horiz-adv-x="250" 
d="M162 250h-90v110h90v-110z" />
    <glyph glyph-name=".null" horiz-adv-x="0" 
 />
    <glyph glyph-name="nonmarkingreturn" horiz-adv-x="333" 
 />
    <glyph glyph-name="space" unicode=" " horiz-adv-x="225" 
 />
    <glyph glyph-name="exclam" unicode="!" horiz-adv-x="242" 
d="M183 750l-30 -550h-64l-30 550h124zM163 0h-84v86h84v-86z" />
    <glyph glyph-name="quotedbl" unicode="&#x22;" horiz-adv-x="402" 
d="M362 750l-20 -300h-52l-20 300h92zM134 750l-20 -300h-54l-20 300h94z" />
    <glyph glyph-name="numbersign" unicode="#" horiz-adv-x="704" 
d="M672 507l-29 -84h-116l-48 -123h128l-38 -84h-122l-87 -227h-80l87 227h-133l-87 -227h-80l86 227h-120l37 84h115l48 123h-126l29 84h129l74 193h80l-74 -193h133l75 193h80l-74 -193h113zM446 423h-132l-48 -123h132z" />
    <glyph glyph-name="dollar" unicode="$" horiz-adv-x="514" 
d="M285 82l15 -114h-89l17 113q-117 6 -176 38l12 109q70 -58 186 -58q110 0 110 63q0 29 -23.5 47t-59 31t-76.5 25t-76.5 29t-59 43t-23.5 68q0 28 10.5 54.5t33 47t58 34.5t84.5 19l-17 117h90l-16 -117q108 -6 161 -37l-9 -96q-102 48 -167 48q-121 0 -121 -58
q0 -27 24.5 -43t61 -27.5t79 -23.5t79 -31t61 -49.5t24.5 -79.5q0 -22 -7 -46.5t-28 -46t-59 -38t-99 -21.5z" />
    <glyph glyph-name="percent" unicode="%" horiz-adv-x="840" 
d="M237 -12h-75l421 712h74zM181 333q-64 0 -105 47t-41 135q0 46 12 81.5t33 59.5t48.5 36.5t57.5 12.5q31 0 57.5 -12t46 -35t31 -56.5t11.5 -77.5q0 -46 -11.5 -81.5t-31.5 -60t-47.5 -37t-60.5 -12.5zM185 653q-19 0 -36 -9.5t-30 -27.5t-20.5 -44t-7.5 -57
q0 -60 27 -95t64 -35q40 0 67 37.5t27 101.5q0 29 -7 53t-20 41t-29.5 26t-34.5 9zM654 -14q-64 0 -105 47t-41 135q0 46 12 81.5t33 59.5t48.5 36.5t57.5 12.5q31 0 57.5 -12t46 -35t31 -56.5t11.5 -77.5q0 -46 -11.5 -81.5t-31.5 -60t-47.5 -37t-60.5 -12.5zM658 306
q-19 0 -36 -9.5t-30 -27.5t-20.5 -44t-7.5 -57q0 -60 27 -95t64 -35q40 0 67 37.5t27 101.5q0 29 -7 53t-20 41t-29.5 26t-34.5 9z" />
    <glyph glyph-name="ampersand" unicode="&#x26;" horiz-adv-x="611" 
d="M593 0h-92l-44 46q-44 -38 -87 -53.5t-101 -15.5q-60 0 -103.5 13.5t-72.5 38t-43 58.5t-14 75q0 115 126 204q-75 91 -75 170q0 39 15.5 69.5t42 52.5t62 33.5t75.5 11.5q72 0 107.5 -34.5t35.5 -91.5q0 -119 -164 -221l190 -195q32 41 39 190h81q-4 -156 -65 -251z
M270 634q-43 0 -72.5 -26t-29.5 -74q0 -61 55 -128l53 41l20 17q29 25 41 47t12 48q0 36 -21.5 55.5t-57.5 19.5zM412 105l-208 208q-81 -57 -81 -144q0 -55 37.5 -89.5t110.5 -34.5q88 0 141 60z" />
    <glyph glyph-name="quotesingle" unicode="'" horiz-adv-x="182" 
d="M141 750l-18 -300h-64l-18 300h100z" />
    <glyph glyph-name="parenleft" unicode="(" horiz-adv-x="261" 
d="M237 -136h-79q-30 45 -52 91.5t-36 99.5t-21 115t-7 137q0 76 7 138t21.5 115t36.5 99t51 91h79q-123 -200 -123 -443q0 -244 123 -443z" />
    <glyph glyph-name="parenright" unicode=")" horiz-adv-x="261" 
d="M103 -136h-79q123 199 123 443q0 243 -123 443h79q29 -45 51 -91t36.5 -99t21.5 -115t7 -138q0 -75 -7 -137t-21.5 -115t-36 -99.5t-51.5 -91.5z" />
    <glyph glyph-name="asterisk" unicode="*" horiz-adv-x="426" 
d="M315 427l-102 133l-100 -136l-32 32l108 117l-156 65l23 41l148 -86l-13 156h46l-16 -156l149 86l23 -42l-158 -63l113 -115z" />
    <glyph glyph-name="plus" unicode="+" horiz-adv-x="463" 
d="M416 238h-145v-136h-80v136h-145v86h145v128h80v-128h145v-86z" />
    <glyph glyph-name="comma" unicode="," horiz-adv-x="216" 
d="M158 0l-78 -109l-23 13l35 87l-34 9v86h100v-86z" />
    <glyph glyph-name="hyphen" unicode="-" horiz-adv-x="424" 
d="M367 238h-310v86h310v-86z" />
    <glyph glyph-name="period" unicode="." horiz-adv-x="204" 
d="M147 0h-90v86h90v-86z" />
    <glyph glyph-name="slash" unicode="/" horiz-adv-x="532" 
d="M497 700l-378 -785h-100l378 785h100z" />
    <glyph glyph-name="zero" unicode="0" horiz-adv-x="714" 
d="M351 -14q-65 0 -118 25t-90.5 71t-58.5 111t-21 145q0 83 23 152.5t63.5 119t95.5 77t118 27.5q62 0 115 -26.5t91.5 -73.5t60 -113t21.5 -144q0 -84 -21.5 -152.5t-61 -117t-95 -75t-122.5 -26.5zM361 628q-41 0 -77 -19.5t-62.5 -56.5t-42 -91t-15.5 -123
q0 -132 51 -199t138 -67q91 0 145 71.5t54 213.5q0 64 -14.5 114.5t-40 85t-60.5 53t-76 18.5z" />
    <glyph glyph-name="one" unicode="1" horiz-adv-x="355" 
d="M254 0h-100v563q-54 -45 -104 -61l-16 89q21 7 42.5 18.5t41 26t36 31t27.5 33.5h73v-700z" />
    <glyph glyph-name="two" unicode="2" horiz-adv-x="524" 
d="M470 0h-414q91 129 149 218.5t86 141.5q56 104 56 152q0 54 -32.5 83.5t-89.5 29.5q-93 0 -163 -93l-12 85q7 13 24.5 30t43 32t59 25t72.5 10q55 0 92.5 -17.5t60 -45t32 -62t9.5 -67.5q0 -36 -11.5 -77.5t-37 -93t-66.5 -116.5t-100 -149h242v-86z" />
    <glyph glyph-name="three" unicode="3" horiz-adv-x="547" 
d="M230 -14q-30 0 -60.5 5.5t-57 14t-46 17.5t-26.5 16l23 88q28 -15 49 -25t39.5 -17t37.5 -10t42 -3q30 0 57.5 7.5t47.5 24.5t32 44t12 65q0 30 -8.5 54t-28 41t-51 26t-78.5 9h-73l10 76h37q91 0 129 29t38 86q0 94 -119 94q-85 0 -135 -41l-17 81q16 16 57.5 31
t104.5 15q66 0 107.5 -17.5t65 -44t32 -58t8.5 -60.5q0 -42 -20 -76.5t-71 -69.5q116 -39 116 -174q0 -54 -20 -96.5t-54.5 -72t-81 -44.5t-98.5 -15z" />
    <glyph glyph-name="four" unicode="4" horiz-adv-x="559" 
d="M500 190h-85v-190h-100v190h-301l322 510h79v-424h85v-86zM315 276v254l-153 -254h153z" />
    <glyph glyph-name="five" unicode="5" horiz-adv-x="541" 
d="M220 -14q-22 0 -49 3.5t-52 9.5t-43.5 13t-24.5 13l23 89q72 -42 145 -42q35 0 65 12.5t52.5 34t35.5 50.5t13 63q0 63 -49.5 93t-161.5 30h-85l42 345h318l-9 -86h-233l-20 -174q81 0 138.5 -12.5t93.5 -37.5t53 -63.5t17 -90.5q0 -56 -22 -102t-58.5 -79t-85.5 -51
t-103 -18z" />
    <glyph glyph-name="six" unicode="6" horiz-adv-x="568" 
d="M281 -14q-50 0 -90 15t-69 46t-44.5 79t-15.5 114q0 98 30.5 182t76 145.5t98 96.5t95.5 36l65 -38q-40 -18 -78 -41t-71 -57.5t-60.5 -84.5t-46.5 -122q46 63 141 63q45 0 84 -13.5t67.5 -39t44.5 -63.5t16 -86q0 -49 -17.5 -91t-49.5 -73.5t-76.5 -49.5t-99.5 -18z
M303 339q-29 0 -54.5 -10t-44.5 -28t-30.5 -43.5t-11.5 -56.5q0 -33 10 -57.5t28 -41t42 -25t51 -8.5q33 0 58 12t42 32t25.5 46t8.5 55q0 24 -6.5 46.5t-21.5 40t-38.5 28t-57.5 10.5z" />
    <glyph glyph-name="seven" unicode="7" horiz-adv-x="502" 
d="M492 700l-303 -700h-100l265 614h-315v86h453z" />
    <glyph glyph-name="eight" unicode="8" horiz-adv-x="609" 
d="M296 -14q-60 0 -104.5 16.5t-74 44.5t-44 64.5t-14.5 77.5q0 116 134 187q-93 72 -93 164q0 36 12 68t37 55t64 36.5t95 13.5q54 0 92 -12.5t62.5 -34t36 -50.5t11.5 -61q0 -27 -5.5 -47.5t-19 -39.5t-36 -38t-56.5 -43q81 -28 118.5 -72.5t37.5 -116.5q0 -40 -16.5 -78
t-48.5 -68t-79.5 -48t-108.5 -18zM187 534q0 -34 30 -64t81 -49q58 17 87.5 50.5t29.5 73.5q0 39 -29 61t-83 22t-85 -24.5t-31 -69.5zM306 338q-66 -13 -104.5 -49.5t-38.5 -99.5q0 -58 35.5 -87.5t101.5 -29.5q32 0 59 9.5t47 26.5t31 40.5t11 50.5q0 51 -39.5 87.5
t-102.5 51.5z" />
    <glyph glyph-name="nine" unicode="9" horiz-adv-x="570" 
d="M288 714q42 0 81.5 -12t70 -41t49 -77.5t18.5 -121.5q0 -110 -30.5 -196t-75 -145t-95 -90t-90.5 -31l-73 38q41 19 82.5 44.5t76.5 61t60 82.5t34 110q-20 -27 -58 -42t-81 -15q-100 0 -156 51t-56 151q0 51 18 93.5t50 73.5t76.5 48.5t98.5 17.5zM266 361q30 0 55.5 10
t44.5 28.5t30 44t11 57.5q0 31 -10.5 55.5t-28 41t-41.5 25t-51 8.5q-33 0 -58 -12t-42 -32t-25.5 -46.5t-8.5 -54.5q0 -24 6.5 -47t21 -40t38 -27.5t58.5 -10.5z" />
    <glyph glyph-name="colon" unicode=":" horiz-adv-x="204" 
d="M147 354h-90v86h90v-86zM147 0h-90v86h90v-86z" />
    <glyph glyph-name="semicolon" unicode=";" horiz-adv-x="216" 
d="M158 354h-100v86h100v-86zM158 -1l-78 -108l-23 13l35 87l-34 9v86h100v-87z" />
    <glyph glyph-name="less" unicode="&#x3c;" horiz-adv-x="405" 
d="M344 78h-95l-216 206l216 206h95l-216 -206z" />
    <glyph glyph-name="equal" unicode="=" horiz-adv-x="502" 
d="M436 318h-370v76h370v-76zM436 160h-370v76h370v-76z" />
    <glyph glyph-name="greater" unicode="&#x3e;" horiz-adv-x="404" 
d="M371 284l-216 -206h-95l216 206l-216 206h95z" />
    <glyph glyph-name="question" unicode="?" horiz-adv-x="441" 
d="M226 200h-59q-3 40 -3 45q0 31 11 57.5t28 51t36 48t36 48t28 52t11 59.5q0 30 -10.5 53t-28 38.5t-40.5 23.5t-49 8q-22 0 -43.5 -6.5t-39 -16.5t-30.5 -22t-18 -23l-25 67q19 29 62 48t97 19q48 0 86.5 -16.5t65.5 -43.5t41.5 -60.5t14.5 -66.5q0 -35 -17.5 -73
t-42.5 -70l-51 -65q-26 -33 -43.5 -66t-16.5 -62v-27zM244 0h-91v86h91v-86z" />
    <glyph glyph-name="at" unicode="@" horiz-adv-x="722" 
d="M545 379q-51 53 -122 53q-46 0 -91.5 -25t-81.5 -64.5t-58.5 -90t-22.5 -101.5q0 -48 22 -79.5t73 -31.5q21 0 46 8.5t49 24t45.5 36.5t35.5 47q0 -1 -0.5 -5.5t-1 -9.5l-1 -10t-0.5 -6q0 -32 13 -57.5t42 -25.5q15 0 33 5.5t36 14.5t35 20.5t29 23.5q-24 -43 -59 -78.5
t-78 -61t-91.5 -39.5t-99.5 -14q-57 0 -103 17.5t-78.5 50.5t-49.5 81t-17 108q0 80 30 150t82 121.5t120 81.5t145 30q58 0 104.5 -18t78.5 -51t49 -80t17 -105q0 -26 -2.5 -54t-10.5 -53.5t-24.5 -46.5t-44.5 -34q-39 -17 -66 -17q-37 0 -37 53q0 13 5 37t13 54.5
t17.5 66.5t19.5 74zM424 371q47 0 54 -22q-6 -39 -26.5 -81.5t-47.5 -78.5t-56.5 -59.5t-54.5 -23.5q-22 0 -33 18t-11 46q0 39 17 75.5t43.5 64t57 44.5t57.5 17z" />
    <glyph glyph-name="A" unicode="A" 
d="M609 0h-100l-67 189h-268l-67 -189h-100l251 700h100zM412 275l-104 292l-104 -292h208z" />
    <glyph glyph-name="B" unicode="B" horiz-adv-x="597" 
d="M320 0h-240v700h158q65 0 114.5 -7t82.5 -26.5t50 -53t17 -86.5q0 -27 -1.5 -47t-7.5 -37t-17.5 -33.5t-30.5 -36.5q65 -25 91 -65t26 -100q0 -67 -21.5 -108t-56 -63t-78 -29.5t-86.5 -7.5zM265 615h-90v-206h118q24 0 44 3.5t35 14.5t23.5 33t8.5 60q0 33 -11.5 52
t-30.5 28.5t-44 12t-53 2.5zM323 323h-148v-237h98q45 0 80 3.5t59.5 15.5t37.5 34t13 60q0 35 -10 58.5t-28 38t-44 21t-58 6.5z" />
    <glyph glyph-name="C" unicode="C" 
d="M390 -14q-77 0 -141.5 26t-111 74t-72.5 115t-26 149q0 81 26 148t72.5 115t110.5 74.5t141 26.5q107 0 194 -41l-10 -88l-57 20q-57 23 -127 23q-59 0 -104.5 -21t-77 -58t-48 -88t-16.5 -111q0 -59 16 -110t47.5 -88.5t78 -58.5t106.5 -21q15 0 29 1t29 4l25 5
q8 1 27 8l23 7q5 1 26 9l23 8l10 -88q-87 -40 -193 -40z" />
    <glyph glyph-name="D" unicode="D" horiz-adv-x="727" 
d="M339 0h-259v700h259q76 0 140 -24t110.5 -69.5t72 -110.5t25.5 -146t-25.5 -146t-71 -110t-109.5 -69.5t-142 -24.5zM339 614h-164v-528h164q58 0 103.5 18.5t77 53t47.5 83.5t16 109t-16 109t-47.5 83.5t-77 53t-103.5 18.5z" />
    <glyph glyph-name="E" unicode="E" horiz-adv-x="554" 
d="M516 0h-436v700h427v-86h-332v-205h264v-86h-264v-237h341v-86z" />
    <glyph glyph-name="F" unicode="F" horiz-adv-x="523" 
d="M507 614h-332v-205h256v-86h-256v-323h-95v700h427v-86z" />
    <glyph glyph-name="G" unicode="G" horiz-adv-x="672" 
d="M382 -14q-74 0 -137 26.5t-109 74.5t-71.5 115t-25.5 149t26 149t72.5 114.5t111 73.5t141.5 26q118 0 208 -40l-9 -83q-105 37 -196 37q-61 0 -108 -20.5t-78.5 -57t-47.5 -88t-16 -112.5q0 -63 17 -114.5t50.5 -87.5t83 -56t115.5 -20q72 0 117 19v174h-110v86h205
v-312q-20 -11 -49.5 -20.5t-62 -17t-66 -11.5t-61.5 -4z" />
    <glyph glyph-name="H" unicode="H" horiz-adv-x="746" 
d="M666 0h-95v321h-396v-321h-95v700h95v-289h396v289h95v-700z" />
    <glyph glyph-name="I" unicode="I" horiz-adv-x="255" 
d="M175 0h-95v700h95v-700z" />
    <glyph glyph-name="J" unicode="J" horiz-adv-x="255" 
d="M9 -172h-16l-10 56h4q27 0 45 6t28.5 19.5t15 35t4.5 52.5v703h95v-732q0 -140 -166 -140z" />
    <glyph glyph-name="K" unicode="K" horiz-adv-x="577" 
d="M573 0h-100l-259 371l259 329h100l-259 -329zM175 0h-95v700h95v-700z" />
    <glyph glyph-name="L" unicode="L" horiz-adv-x="501" 
d="M496 0h-416v700h95v-614h321v-86z" />
    <glyph glyph-name="M" unicode="M" horiz-adv-x="812" 
d="M764 0h-100l-66 529l-190 -363l-194 363l-66 -529h-100l94 700h81l184 -347l182 347h82z" />
    <glyph glyph-name="N" unicode="N" horiz-adv-x="704" 
d="M624 0h-81l-368 553v-553h-95v700h103l345 -524v524h96v-700z" />
    <glyph glyph-name="O" unicode="O" horiz-adv-x="768" 
d="M632 85q-96 -99 -248 -99q-76 0 -139.5 26t-109 73.5t-71 114.5t-25.5 150t26 150t71.5 114.5t109 73.5t138.5 26t138.5 -26t109.5 -74t71.5 -115t25.5 -149q0 -165 -97 -265zM562 550q-62 78 -178 78q-58 0 -103 -21t-75.5 -58t-46.5 -88t-16 -111t16 -111t46.5 -88
t75.5 -58t103 -21t103 21t76 58.5t46.5 88t15.5 110.5q0 122 -63 200z" />
    <glyph glyph-name="P" unicode="P" horiz-adv-x="572" 
d="M180 245v-245h-100v700h224q49 0 93 -7.5t77.5 -31t53.5 -66.5t20 -113q0 -68 -20.5 -113.5t-52.5 -73t-70 -39t-73 -11.5h-152zM180 615v-285h134q73 0 104 38.5t31 109.5q0 37 -8 63.5t-27 42.5t-50.5 23.5t-77.5 7.5h-106z" />
    <glyph glyph-name="Q" unicode="Q" horiz-adv-x="768" 
d="M715 62l-50 -59l-65 54q-100 -71 -216 -71q-76 0 -139.5 26t-109 73.5t-71 114.5t-25.5 150t26 150t71.5 114.5t109 73.5t138.5 26t138.5 -26t109.5 -74t71.5 -115t25.5 -149q0 -129 -74 -239zM384 628q-59 0 -103.5 -20.5t-75.5 -57.5t-46.5 -88t-15.5 -112
q0 -60 15.5 -111t45.5 -88t75 -58t105 -21q96 0 151 40l-103 84l50 61l105 -93q48 75 48 186q0 60 -17 110.5t-49.5 88t-79 58.5t-105.5 21z" />
    <glyph glyph-name="R" unicode="R" horiz-adv-x="603" 
d="M584 0h-102l-155 273h-147v-273h-100v700h227q58 0 103.5 -11t76 -35.5t46.5 -63.5t16 -95q0 -66 -33.5 -117.5t-94.5 -79.5zM306 623h-126v-258h151q24 0 45.5 8t38 24t26 40.5t9.5 57.5q0 61 -36 94.5t-108 33.5z" />
    <glyph glyph-name="S" unicode="S" horiz-adv-x="584" 
d="M280 -14q-145 0 -229 45l13 111q94 -70 218 -70q36 0 66.5 6.5t53 20t35 34t12.5 47.5q0 28 -13 48.5t-36.5 36.5t-57 29t-74.5 27l-70 23q-85 28 -121.5 69.5t-36.5 98.5q0 30 12 65.5t40.5 66t77 50.5t122.5 20q30 0 62 -4t61.5 -10.5t54.5 -15.5t42 -18l-10 -101
q-126 63 -201 63q-29 0 -57.5 -6t-50.5 -19t-35.5 -32t-13.5 -46q0 -44 37.5 -68.5t113.5 -48.5q21 -7 30.5 -9t18.5 -4.5t24.5 -8t49.5 -20.5l34 -18q13 -7 21.5 -12t13.5 -10l25 -26q23 -24 30.5 -52t10.5 -67q0 -30 -9 -63.5t-38 -62.5t-82.5 -48.5t-143.5 -20.5z" />
    <glyph glyph-name="T" unicode="T" horiz-adv-x="533" 
d="M518 614h-204v-614h-95v614h-204v86h503v-86z" />
    <glyph glyph-name="U" unicode="U" horiz-adv-x="724" 
d="M72 297v403h95v-357q0 -51 7 -99.5t27.5 -87t59 -61.5t101.5 -23t101.5 24t59.5 62t27.5 86.5t6.5 98.5v357h95v-403q0 -148 -72.5 -229.5t-217.5 -81.5t-217.5 81.5t-72.5 229.5z" />
    <glyph glyph-name="V" unicode="V" horiz-adv-x="644" 
d="M640 700l-268 -700h-100l-268 700h100l219 -591l217 591h100z" />
    <glyph glyph-name="W" unicode="W" horiz-adv-x="971" 
d="M961 700l-205 -700h-105l-165 574l-171 -574h-105l-196 700h100l155 -592l175 578h86l177 -577l154 591h100z" />
    <glyph glyph-name="X" unicode="X" horiz-adv-x="599" 
d="M594 0h-100l-202 286l-183 -286h-100l235 349l-235 351h110l180 -273l194 273h100l-250 -339z" />
    <glyph glyph-name="Y" unicode="Y" horiz-adv-x="567" 
d="M569 700l-236 -377v-323h-99v323l-237 377h100l186 -291l186 291h100z" />
    <glyph glyph-name="Z" unicode="Z" horiz-adv-x="549" 
d="M542 700l-377 -614h332v-86h-488l376 614h-331v86h488z" />
    <glyph glyph-name="bracketleft" unicode="[" horiz-adv-x="327" 
d="M327 -135h-257v885h257v-68h-174v-749h174v-68z" />
    <glyph glyph-name="backslash" unicode="\" horiz-adv-x="525" 
d="M506 -85h-93l-378 785h93z" />
    <glyph glyph-name="bracketright" unicode="]" horiz-adv-x="327" 
d="M0 750h257v-885h-257v68h174v749h-174v68z" />
    <glyph glyph-name="asciicircum" unicode="^" horiz-adv-x="511" 
d="M461 437l-206 216l-206 -216v106l206 216l206 -216v-106z" />
    <glyph glyph-name="underscore" unicode="_" horiz-adv-x="566" 
d="M563 -122h-560v86h560v-86z" />
    <glyph glyph-name="grave" unicode="`" horiz-adv-x="303" 
d="M245 596l-187 64v72l187 -95v-41z" />
    <glyph glyph-name="a" unicode="a" horiz-adv-x="480" 
d="M472 62l-14 -72h-7q-30 0 -50 3.5t-34 12t-23.5 22.5t-18.5 34q-62 -72 -150 -72q-69 0 -110 39.5t-41 102.5q0 51 27.5 84t70 53t94.5 28.5t101 9.5q0 66 -25.5 89.5t-81.5 23.5q-64 0 -129 -44l-13 73q66 51 166 51q47 0 80 -12.5t53.5 -40t30 -72.5t9.5 -110v-100
q0 -58 10 -80.5t46 -22.5h9zM317 128v117q-108 -4 -154.5 -28.5t-46.5 -79.5q0 -75 76 -75q36 0 69.5 18t55.5 48z" />
    <glyph glyph-name="b" unicode="b" horiz-adv-x="555" 
d="M301 -10q-18 0 -39 5t-42 14t-39.5 22.5t-30.5 30.5l-10 -62h-80v750h90v-313q52 63 152 63q49 0 90 -20.5t70 -55.5t45 -81.5t16 -97.5q0 -53 -17 -99.5t-47 -81t-70.5 -54.5t-87.5 -20zM291 420q-29 0 -55.5 -11.5t-46.5 -34t-32 -55t-12 -74.5q0 -43 11.5 -76
t31.5 -55t46.5 -33t56.5 -11q32 0 58 14t44 38t28 56t10 67q0 37 -10 69t-28.5 55.5t-44.5 37t-57 13.5z" />
    <glyph glyph-name="c" unicode="c" horiz-adv-x="454" 
d="M277 -10q-59 0 -104 19.5t-76.5 54t-47.5 81t-16 101.5q0 56 16 102.5t46.5 80.5t76 52.5t104.5 18.5q98 0 151 -29l-14 -81q-62 30 -127 30q-81 0 -121 -45t-40 -129t40 -130.5t121 -46.5q66 0 128 30l12 -72q-55 -37 -149 -37z" />
    <glyph glyph-name="d" unicode="d" horiz-adv-x="555" 
d="M495 0h-80l-10 62q-12 -17 -30.5 -30t-39 -22.5t-41.5 -14.5t-39 -5q-47 0 -88 20t-71 54.5t-47 81t-17 99.5q0 51 16 97.5t45.5 81.5t70.5 55.5t91 20.5q99 0 150 -62v312h90v-750zM262 420q-32 0 -57.5 -13t-43.5 -36t-27.5 -55t-9.5 -71q0 -36 9.5 -68t27 -55.5
t43 -37.5t58.5 -14q30 0 57.5 10.5t49 32t34 54t12.5 75.5q0 42 -13 75t-34.5 56t-49 35t-56.5 12z" />
    <glyph glyph-name="e" unicode="e" horiz-adv-x="512" 
d="M478 245h-355q16 -175 184 -175q75 0 141 29l12 -71q-87 -38 -164 -38q-62 0 -111.5 20t-83.5 54.5t-52 82t-18 102.5q0 53 17 99t48 79.5t75.5 53t99.5 19.5q47 0 86 -14t66.5 -41t43 -65.5t15.5 -86.5q0 -28 -4 -48zM269 420q-109 0 -138 -113h258q0 54 -30 83.5
t-90 29.5z" />
    <glyph glyph-name="f" unicode="f" horiz-adv-x="331" 
d="M317 420h-132v-420h-90v420h-85l12 70h73v124q0 61 29.5 98.5t84.5 37.5q64 0 102 -13l-14 -76q-29 9 -60 9q-17 0 -27 -3.5t-15.5 -16t-7.5 -36.5t-2 -64v-60h132v-70z" />
    <glyph glyph-name="g" unicode="g" horiz-adv-x="498" 
d="M255 -250q-58 0 -101 12t-71.5 32.5t-42.5 47.5t-14 56q0 78 87 110q-50 24 -50 62q0 17 13.5 37.5t44.5 35.5q-85 61 -85 160q0 42 13.5 78t39 62.5t63 41.5t84.5 15q66 0 125 -36q52 28 119 28h8l-11 -60h-23q-31 0 -58 -7q45 -54 45 -117q0 -39 -14 -74t-39.5 -62
t-62 -43t-82.5 -16q-39 0 -70 9q-24 -14 -24 -30q0 -9 5.5 -15.5t22 -11.5t46 -10.5t78.5 -14.5q33 -6 68 -15t63.5 -24t47.5 -38.5t21 -58.5q0 -31 -17 -59t-48.5 -49t-77.5 -33.5t-103 -12.5zM237 428q-55 0 -85 -33.5t-30 -88.5q0 -57 32.5 -90.5t84.5 -33.5q54 0 85 36
t31 91q0 57 -32 88t-86 31zM279 -26q-17 0 -89 12q-34 -10 -56 -35t-22 -51q0 -35 39 -57.5t108 -22.5q72 0 111.5 23.5t39.5 54.5q0 52 -131 76z" />
    <glyph glyph-name="h" unicode="h" horiz-adv-x="542" 
d="M486 0h-90v262q0 87 -26 122.5t-91 35.5q-88 0 -128 -64v-356h-91v750h91v-313q49 63 142 63q193 0 193 -238v-262z" />
    <glyph glyph-name="i" unicode="i" horiz-adv-x="212" 
d="M151 600h-90v100h90v-100zM151 0h-90v490h90v-490z" />
    <glyph glyph-name="j" unicode="j" horiz-adv-x="212" 
d="M28 -237l-30 -5l-10 69q22 2 36 7t22 15.5t11.5 29t3.5 48.5v563h90v-597q0 -32 -10 -54.5t-26.5 -38t-39 -24.5t-47.5 -13zM151 600h-90v100h90v-100z" />
    <glyph glyph-name="k" unicode="k" horiz-adv-x="448" 
d="M150 0h-90v750h90v-481l180 221h110l-202 -226l207 -264h-110l-185 249v-249z" />
    <glyph glyph-name="l" unicode="l" horiz-adv-x="236" 
d="M229 62l-13 -72h-29q-66 0 -96.5 33.5t-30.5 84.5v642h90v-590q0 -31 2.5 -50.5t10.5 -30t23.5 -14t42.5 -3.5z" />
    <glyph glyph-name="m" unicode="m" horiz-adv-x="877" 
d="M821 0h-90v288q0 69 -27 100.5t-88 31.5q-130 0 -130 -136v-284h-90v270q0 84 -29.5 117t-85.5 33q-94 0 -130 -64v-356h-90v490h70l10 -52q40 36 73 49t74 13q112 0 166 -98q51 98 179 98q188 0 188 -211v-289z" />
    <glyph glyph-name="n" unicode="n" horiz-adv-x="559" 
d="M503 0h-90v270q0 79 -29.5 114.5t-98.5 35.5q-98 0 -134 -64v-356h-90v490h70l10 -52q70 62 162 62q200 0 200 -230v-270z" />
    <glyph glyph-name="o" unicode="o" horiz-adv-x="550" 
d="M452 62q-65 -72 -177 -72q-57 0 -102 19.5t-76.5 53.5t-48 81t-16.5 101q0 55 17 101.5t48.5 80.5t76.5 53.5t101 19.5t101 -19.5t76.5 -54t48.5 -81t17 -100.5q0 -110 -66 -183zM386 374q-39 46 -111 46t-111.5 -45.5t-39.5 -129.5t39.5 -129.5t111.5 -45.5q73 0 112 47
t39 128q0 83 -40 129z" />
    <glyph glyph-name="p" unicode="p" horiz-adv-x="557" 
d="M305 -10q-18 0 -39.5 5t-42.5 14t-40 22.5t-32 30.5v-304h-90v732h70l10 -70q34 41 71 60.5t94 19.5q50 0 90 -20.5t68.5 -56t44 -81.5t15.5 -97q0 -55 -14.5 -102t-42 -81t-68.5 -53t-94 -19zM295 420q-29 0 -56 -12t-47.5 -34.5t-33 -55t-12.5 -73.5q0 -44 12 -76.5
t32.5 -54.5t47.5 -33t57 -11q31 0 56.5 13.5t43.5 36.5t27.5 55t9.5 70q0 39 -9.5 71t-27.5 55t-43.5 36t-56.5 13z" />
    <glyph glyph-name="q" unicode="q" horiz-adv-x="557" 
d="M252 -10q-53 0 -94 19t-69 53t-42 81t-14 102q0 52 15.5 98t44 81t68.5 55.5t90 20.5q57 0 94 -19.5t71 -60.5l10 70h70v-732h-90v304q-12 -16 -31 -29.5t-40 -23t-42.5 -14.5t-40.5 -5zM262 420q-32 0 -57 -13t-43 -36t-27.5 -55t-9.5 -71q0 -38 9.5 -70t27.5 -55
t43 -36.5t57 -13.5q30 0 57.5 11.5t47.5 33.5t32 55t12 75q0 41 -12.5 73.5t-33 55t-47.5 34.5t-56 12z" />
    <glyph glyph-name="r" unicode="r" horiz-adv-x="321" 
d="M320 508l-20 -99h-31q-15 0 -32 -5.5t-32.5 -14.5t-28.5 -20t-19 -23v-346h-96v490h74l11 -81q46 52 83.5 75.5t82.5 23.5h8z" />
    <glyph glyph-name="s" unicode="s" horiz-adv-x="414" 
d="M200 -10q-107 0 -168 43l11 87q20 -18 61.5 -34t91.5 -16q98 0 98 61q0 55 -98 81q-30 7 -56.5 16.5t-47.5 25t-34.5 39.5t-15.5 60q0 63 45 105t139 42q67 0 133 -32l-11 -82q-52 43 -120 43q-95 0 -95 -66q0 -16 5 -27t18 -19.5t35 -16.5t56 -18q21 -6 45.5 -16.5
t45.5 -27.5t35 -42t14 -60q0 -24 -8 -50t-29 -47t-57.5 -35t-92.5 -14z" />
    <glyph glyph-name="t" unicode="t" horiz-adv-x="337" 
d="M318 62l-7 -72h-81q-65 0 -96.5 34t-31.5 83v313h-84l8 70h76v121l90 9v-130h129v-70h-129v-258q0 -35 2 -55t11.5 -30t30.5 -12.5t59 -2.5h23z" />
    <glyph glyph-name="u" unicode="u" horiz-adv-x="524" 
d="M463 0h-80l-10 54q-46 -64 -136 -64q-181 0 -181 215v285h90v-260q0 -160 114 -160q78 0 113 56v364h90v-490z" />
    <glyph glyph-name="v" unicode="v" horiz-adv-x="492" 
d="M483 490l-186 -490h-101l-187 490h100l137 -391l136 391h101z" />
    <glyph glyph-name="w" unicode="w" horiz-adv-x="725" 
d="M714 490l-148 -490h-101l-102 362l-103 -362h-101l-147 490h106l94 -391l104 376h93l105 -376l94 391h106z" />
    <glyph glyph-name="x" unicode="x" horiz-adv-x="474" 
d="M463 0h-101l-124 193l-126 -193h-101l171 244l-167 246h101l123 -194l113 194h105l-161 -238z" />
    <glyph glyph-name="y" unicode="y" horiz-adv-x="505" 
d="M498 490l-300 -732h-100l113 264l-204 468h100l153 -364l138 364h100z" />
    <glyph glyph-name="z" unicode="z" horiz-adv-x="471" 
d="M446 490l-261 -420h256v-70h-419l261 420h-251v70h414z" />
    <glyph glyph-name="braceleft" unicode="{" horiz-adv-x="299" 
d="M83 14q0 7 1 27t2.5 43t3 44t1.5 31q0 54 -16 88.5t-56 59.5q38 26 55 60.5t17 88.5q0 10 -1.5 31t-3 43.5t-2.5 42.5t-1 27q0 71 48.5 108.5t165.5 41.5v-69q-53 -1 -81.5 -11t-41.5 -30t-15.5 -52t-2.5 -78q0 -5 0.5 -17t1 -25.5t1 -25.5t0.5 -18q0 -18 -3.5 -33.5
t-12.5 -29t-25 -26.5t-42 -28q26 -14 42.5 -26.5t25.5 -25t12 -26.5t3 -30q0 -5 -0.5 -17.5t-1 -27t-1 -28.5t-0.5 -21q0 -54 4 -86t18.5 -50t42.5 -25t76 -10v-69q-115 4 -164.5 40.5t-49.5 108.5z" />
    <glyph glyph-name="bar" unicode="|" horiz-adv-x="229" 
d="M159 -209h-89v959h89v-959z" />
    <glyph glyph-name="braceright" unicode="}" horiz-adv-x="299" 
d="M216 14q0 -72 -49.5 -108.5t-164.5 -40.5v69q54 1 83 11t41.5 31t14.5 53t2 76q0 7 -0.5 20.5t-1 28t-1 27t-0.5 18.5q0 17 3.5 31t12.5 26t25 24.5t42 26.5q-26 15 -42 28t-25 26.5t-12.5 29t-3.5 33.5q0 6 0.5 18t1 25.5t1 25.5t0.5 17q0 54 -4 86t-18.5 50t-42.5 25
t-76 10v69q117 -4 165.5 -41.5t48.5 -108.5q0 -7 -1.5 -27t-3 -42.5t-2.5 -43.5t-1 -31q0 -54 17 -88.5t55 -60.5q-40 -25 -56 -59.5t-16 -88.5q0 -10 1 -31t2.5 -44t3 -43t1.5 -27z" />
    <glyph glyph-name="asciitilde" unicode="~" horiz-adv-x="455" 
d="M293 179q-12 0 -29 8t-39 17.5t-38 17.5t-26 8q-53 0 -71 -49l-36 9q6 22 17 39t25 28.5t30 17t31 5.5q13 0 31 -7.5t41 -17t39 -17t29 -7.5q42 0 69 51l34 -9q-11 -43 -40 -68.5t-67 -25.5z" />
    <glyph glyph-name="Zcaron" horiz-adv-x="549" 
d="M542 700l-377 -614h332v-86h-488l376 614h-331v86h488zM430 908l-147 -99l-147 99v41l147 -76l147 76v-41z" />
    <glyph glyph-name="Zcaron" unicode="&#x17d;" horiz-adv-x="549" 
d="M542 700l-377 -614h332v-86h-488l376 614h-331v86h488zM430 908l-147 -99l-147 99v41l147 -76l147 76v-41z" />
    <glyph glyph-name="zcaron" horiz-adv-x="471" 
d="M446 490l-261 -420h256v-70h-419l261 420h-251v70h414zM384 699l-147 -99l-147 99v41l147 -76l147 76v-41z" />
    <glyph glyph-name="zcaron" unicode="&#x17e;" horiz-adv-x="471" 
d="M446 490l-261 -420h256v-70h-419l261 420h-251v70h414zM384 699l-147 -99l-147 99v41l147 -76l147 76v-41z" />
    <glyph glyph-name="uni00A0" unicode="&#xa0;" horiz-adv-x="225" 
 />
    <glyph glyph-name="exclamdown" unicode="&#xa1;" horiz-adv-x="224" 
d="M50 -250l30 550h64l30 -550h-124zM70 500h84v-86h-84v86z" />
    <glyph glyph-name="cent" unicode="&#xa2;" horiz-adv-x="477" 
d="M319 -31h-90l17 120q-46 6 -85 27t-67 54t-44 77.5t-16 98.5q0 49 14 93.5t41 79t66.5 57.5t90.5 30l-17 142h90l-16 -140q43 -3 71.5 -10.5t51.5 -21.5l-8 -78q-30 16 -61 24.5t-63 8.5q-41 0 -71.5 -14.5t-51 -39.5t-31 -58.5t-10.5 -71.5q0 -82 44 -132t122 -50
q61 0 122 32l8 -78q-17 -11 -41 -20t-81 -12z" />
    <glyph glyph-name="sterling" unicode="&#xa3;" horiz-adv-x="500" 
d="M416 569q-14 29 -36.5 42.5t-49.5 13.5q-31 0 -48.5 -8t-26.5 -25t-11 -42.5t-2 -61.5v-93h192l-15 -86h-183q-3 -38 -5.5 -65t-7.5 -51.5t-13.5 -49t-21.5 -57.5h261v-86h-415q25 35 43 69t30 70.5t20 78t13 91.5h-95l14 86h87v115q0 40 6.5 76.5t25.5 65t53.5 45.5
t89.5 17q69 0 107 -24.5t52 -61.5z" />
    <glyph glyph-name="currency" unicode="&#xa4;" horiz-adv-x="626" 
d="M564 53l-29 -24l-79 103q-70 -38 -143 -38q-74 0 -143 38l-79 -103l-28 24l77 102q-79 82 -79 193q0 110 80 193l-78 102l28 24l78 -103q76 38 144 38q71 0 143 -39l80 104l28 -24l-78 -103q79 -82 79 -192q0 -108 -80 -194zM432 486q-42 54 -119 54q-39 0 -69 -14.5
t-50.5 -40t-31.5 -60.5t-11 -77t11 -77.5t31.5 -61t50.5 -39.5t69 -14t69 14.5t50.5 40.5t31.5 61t11 76q0 85 -43 138z" />
    <glyph glyph-name="yen" unicode="&#xa5;" horiz-adv-x="674" 
d="M646 700l-259 -384h177l-21 -54h-157v-62h178l-21 -54h-157v-146h-96v146h-178l21 54h157v62h-178l21 54h156l-259 384h93l215 -307l215 307h93z" />
    <glyph glyph-name="brokenbar" unicode="&#xa6;" horiz-adv-x="232" 
d="M160 308h-88v442h88v-442zM160 -210h-88v373h88v-373z" />
    <glyph glyph-name="section" unicode="&#xa7;" horiz-adv-x="456" 
d="M315 188q21 -16 32.5 -29t17.5 -26.5t7.5 -28.5t1.5 -35q0 -30 -10 -58t-30.5 -49t-52.5 -33.5t-75 -12.5t-83 11t-60 28l13 63q68 -41 131 -41q48 0 75.5 20.5t27.5 62.5q0 35 -20 54.5t-50.5 31.5t-66 22.5t-66 29t-50.5 49t-20 83.5q0 116 109 149q-39 28 -51.5 53.5
t-12.5 54.5q0 35 9.5 65t30 51.5t51.5 34t74 12.5q86 0 147 -40l-13 -63q-68 43 -130 43q-45 0 -71 -25t-26 -61q0 -31 19.5 -49.5t49 -31.5t64 -25.5t64 -32.5t49 -51.5t19.5 -82.5q0 -99 -104 -143zM204 438q-14 -1 -31.5 -6.5t-32.5 -17t-25 -29.5t-10 -43
q0 -81 162 -123q36 10 57 39t21 66q0 81 -141 114z" />
    <glyph glyph-name="dieresis" unicode="&#xa8;" horiz-adv-x="422" 
d="M335 600h-70v100h70v-100zM157 600h-70v100h70v-100z" />
    <glyph glyph-name="copyright" unicode="&#xa9;" horiz-adv-x="720" 
d="M49 365q0 74 23 134.5t64.5 103.5t98.5 66.5t125 23.5t125 -23.5t98 -67t64 -104t23 -133.5t-23 -133t-64 -103.5t-98 -67.5t-125 -24t-125.5 24t-98.5 67t-64 103.5t-23 133.5zM360 648q-63 0 -111 -20.5t-81 -58t-50 -89.5t-17 -115t16.5 -115t49.5 -89.5t81.5 -58
t111.5 -20.5t111 21t81 58.5t49.5 89.5t16.5 114t-17 114t-49.5 89.5t-80.5 58.5t-111 21zM369 197q-35 0 -64 12t-50 33.5t-32.5 52t-11.5 68.5t11.5 69t32.5 52.5t50 33.5t64 12q48 0 90 -19l-7 -60q-45 19 -83 19q-45 0 -68 -29.5t-23 -77.5t23 -77.5t68 -29.5
q37 0 83 20l7 -59q-38 -20 -90 -20z" />
    <glyph glyph-name="ordfeminine" unicode="&#xaa;" horiz-adv-x="349" 
d="M313 495l-7 -61h-27q-48 0 -67 31q-31 -31 -92 -31q-37 0 -62 23t-25 62q0 29 17.5 48t43.5 30.5t55 16.5t52 6q-2 42 -53 42q-32 0 -83 -20l-6 60q54 23 109 23q109 0 109 -108v-80q0 -30 4.5 -36t21.5 -6h10zM202 507v63q-35 -1 -62.5 -13.5t-27.5 -34.5q0 -32 40 -32
q27 0 50 17z" />
    <glyph glyph-name="guillemotleft" unicode="&#xab;" horiz-adv-x="563" 
d="M523 78h-101l-147 206l147 206h101l-148 -206zM262 78h-100l-147 206l147 206h100l-147 -206z" />
    <glyph glyph-name="logicalnot" unicode="&#xac;" horiz-adv-x="596" 
d="M526 151h-55v195h-405v60h460v-255z" />
    <glyph glyph-name="uni00AD" unicode="&#xad;" horiz-adv-x="424" 
d="M367 230h-310v94h310v-94z" />
    <glyph glyph-name="registered" unicode="&#xae;" horiz-adv-x="720" 
d="M49 365q0 74 23 134.5t64.5 103.5t98.5 66.5t125 23.5t125 -23.5t98 -67t64 -104t23 -133.5t-23 -133t-64 -103.5t-98 -67.5t-125 -24t-125.5 24t-98.5 67t-64 103.5t-23 133.5zM360 649q-63 0 -111.5 -21t-81.5 -58.5t-50 -90t-17 -114.5t16.5 -114.5t49.5 -90.5
t81.5 -58.5t112.5 -20.5q63 0 111.5 20.5t81 58.5t49.5 90.5t17 114.5t-17 114.5t-50 90t-81 58.5t-111 21zM489 210h-63l-65 117h-55v-117h-62v321h118q54 0 82 -22.5t28 -77.5q0 -51 -54 -87zM348 482h-42v-99h40q61 0 61 50q0 24 -13 36.5t-46 12.5z" />
    <glyph glyph-name="degree" unicode="&#xb0;" horiz-adv-x="333" 
d="M263 520q-36 -38 -97 -38q-63 0 -97.5 38.5t-34.5 97.5q0 30 9 55t26.5 43t42 28.5t54.5 10.5t55 -10.5t42 -29t26.5 -43.5t9.5 -54q0 -59 -36 -98zM166 729q-21 0 -37 -9t-27.5 -24t-17.5 -35.5t-6 -42.5q0 -48 24.5 -79t68.5 -31q21 0 36 9.5t25.5 25t15.5 33.5t5 42
q0 22 -5.5 42t-16.5 35.5t-27 24.5t-38 9z" />
    <glyph glyph-name="plusminus" unicode="&#xb1;" horiz-adv-x="498" 
d="M434 327h-153v-144h-64v144h-153v67h153v138h64v-138h153v-67zM434 42h-370v67h370v-67z" />
    <glyph glyph-name="uni00B2" unicode="&#xb2;" horiz-adv-x="304" 
d="M273 320h-248q57 77 90 125.5t49.5 78.5t20.5 45t4 24q0 25 -15 39t-42 14q-51 0 -93 -59l-9 65q11 19 41.5 36.5t75.5 17.5q30 0 51 -8t34.5 -22t20 -32.5t6.5 -39.5q0 -68 -106 -214h120v-70z" />
    <glyph glyph-name="uni00B3" unicode="&#xb3;" horiz-adv-x="310" 
d="M128 312q-17 0 -34.5 3t-32.5 7.5t-26.5 9.5t-15.5 10l18 66q32 -26 88 -26q78 0 78 52q0 30 -15.5 47t-58.5 17h-52l6 55h27q77 0 77 48q0 44 -60 44q-49 0 -71 -17l-11 53q26 25 91 25q36 0 60 -9t38.5 -23t21 -32t6.5 -37q0 -53 -39 -75q54 -32 54 -93q0 -30 -12 -53
t-32.5 -39t-47.5 -24.5t-57 -8.5z" />
    <glyph glyph-name="acute" unicode="&#xb4;" horiz-adv-x="303" 
d="M245 660l-187 -64v41l187 95v-72z" />
    <glyph glyph-name="uni00B5" unicode="&#xb5;" horiz-adv-x="591" 
d="M556 62l-16 -72h-26q-79 0 -107 73q-33 -38 -61.5 -56t-72.5 -18q-32 0 -55.5 7.5t-56.5 30.5v-269h-88v732h89v-258q0 -84 26.5 -123.5t95.5 -39.5q38 0 63 13t53 45v363h87v-320q0 -57 9.5 -82.5t37.5 -25.5h22z" />
    <glyph glyph-name="paragraph" unicode="&#xb6;" horiz-adv-x="622" 
d="M580 633h-75v-633h-48v633h-101v-633h-41v243q-70 4 -122.5 24t-88 51.5t-53.5 71.5t-18 84q0 45 19 86t55.5 72t90.5 49.5t123 18.5h259v-67z" />
    <glyph glyph-name="periodcentered" unicode="&#xb7;" horiz-adv-x="238" 
d="M181 213h-124v130h124v-130z" />
    <glyph glyph-name="cedilla" unicode="&#xb8;" horiz-adv-x="303" 
d="M278 -54l-88 -133l-46 -5l68 132z" />
    <glyph glyph-name="uni00B9" unicode="&#xb9;" horiz-adv-x="216" 
d="M155 320h-75v276q-32 -14 -51 -17l-6 60q9 1 21 7.5t22.5 14.5t19.5 18t12 19h57v-378z" />
    <glyph glyph-name="ordmasculine" unicode="&#xba;" horiz-adv-x="370" 
d="M295 476q-41 -42 -110 -42q-35 0 -63 11.5t-47.5 31t-30.5 46t-11 57.5q0 30 10.5 56.5t30 46t48 31t63.5 11.5t63 -11.5t48 -31t30.5 -46t10.5 -56.5q0 -61 -42 -104zM240 642q-20 24 -55 24t-55 -24.5t-20 -61.5q0 -38 20 -62t55 -24t55 24t20 62q0 37 -20 62z" />
    <glyph glyph-name="guillemotright" unicode="&#xbb;" horiz-adv-x="563" 
d="M548 284l-147 -206h-100l147 206l-147 206h100zM289 284l-147 -206h-101l148 206l-148 206h101z" />
    <glyph glyph-name="onequarter" unicode="&#xbc;" horiz-adv-x="717" 
d="M171 320h-75v276q-32 -14 -51 -17l-6 60q9 1 21 7.5t22.5 14.5t19.5 18t12 19h57v-378zM539 700l-378 -785h-100l378 785h100zM683 104h-49v-103h-74v103h-175l187 275h62v-218h49v-57zM560 161v110l-74 -110h74z" />
    <glyph glyph-name="onehalf" unicode="&#xbd;" horiz-adv-x="729" 
d="M168 320h-75v276q-32 -14 -51 -17l-6 60q9 1 21 7.5t22.5 14.5t19.5 18t12 19h57v-378zM536 700l-378 -785h-100l378 785h100zM694 0h-248q57 77 90 125.5t49.5 78.5t20.5 45t4 24q0 25 -15 39t-42 14q-51 0 -93 -59l-9 65q11 19 41.5 36.5t75.5 17.5q30 0 51 -8
t34.5 -22t20 -32.5t6.5 -39.5q0 -68 -106 -214h120v-70z" />
    <glyph glyph-name="threequarters" unicode="&#xbe;" horiz-adv-x="885" 
d="M141 312q-17 0 -34.5 3t-32.5 7.5t-26.5 9.5t-15.5 10l18 66q32 -26 88 -26q78 0 78 52q0 30 -15.5 47t-58.5 17h-52l6 55h27q77 0 77 48q0 44 -60 44q-49 0 -71 -17l-11 53q26 25 91 25q36 0 60 -9t38.5 -23t21 -32t6.5 -37q0 -53 -39 -75q54 -32 54 -93q0 -30 -12 -53
t-32.5 -39t-47.5 -24.5t-57 -8.5zM709 700l-378 -785h-100l378 785h100zM851 104h-49v-103h-74v103h-175l187 275h62v-218h49v-57zM728 161v110l-74 -110h74z" />
    <glyph glyph-name="questiondown" unicode="&#xbf;" horiz-adv-x="449" 
d="M233 300h59q3 -41 3 -45q0 -31 -11 -57.5t-28 -51t-36 -48t-36 -48t-28 -52t-11 -59.5q0 -30 10.5 -53t28 -38.5t40.5 -23.5t49 -8q22 0 43 6.5t39 16.5t31 22t18 23l25 -67q-19 -29 -62 -48t-97 -19q-47 0 -85.5 16.5t-65.5 42.5t-42 59.5t-15 68.5t17.5 73t42.5 70
l50 65q26 33 44 65.5t17 62.5v27zM215 500h91v-86h-91v86z" />
    <glyph glyph-name="Agrave" unicode="&#xc0;" 
d="M609 0h-100l-67 189h-268l-67 -189h-100l251 700h100zM412 275l-104 292l-104 -292h208zM402 805l-187 64v72l187 -95v-41z" />
    <glyph glyph-name="Aacute" unicode="&#xc1;" 
d="M609 0h-100l-67 189h-268l-67 -189h-100l251 700h100zM412 275l-104 292l-104 -292h208zM402 869l-187 -64v41l187 95v-72z" />
    <glyph glyph-name="Acircumflex" unicode="&#xc2;" 
d="M609 0h-100l-67 189h-268l-67 -189h-100l251 700h100zM412 275l-104 292l-104 -292h208zM456 812l-147 82l-147 -82v36l147 106l147 -106v-36z" />
    <glyph glyph-name="Atilde" unicode="&#xc3;" 
d="M609 0h-100l-67 189h-268l-67 -189h-100l251 700h100zM412 275l-104 292l-104 -292h208zM375 808q-12 0 -30 8t-38.5 17.5t-36.5 17.5t-27 8q-53 0 -71 -49l-36 9q6 22 16 39t25 28.5t31 17t31 5.5q13 0 31 -7.5t41 -17t40.5 -17t27.5 -7.5q42 0 69 51l34 -9
q-11 -43 -40 -68.5t-67 -25.5z" />
    <glyph glyph-name="Adieresis" unicode="&#xc4;" 
d="M609 0h-100l-67 189h-268l-67 -189h-100l251 700h100zM412 275l-104 292l-104 -292h208zM433 809h-70v100h70v-100zM255 809h-70v100h70v-100z" />
    <glyph glyph-name="Aring" unicode="&#xc5;" 
d="M609 0h-100l-67 189h-268l-67 -189h-100l251 700h100zM412 275l-104 292l-104 -292h208zM309 785q-49 0 -76.5 26t-27.5 63q0 39 29 64.5t81 25.5q24 0 42.5 -7.5t30.5 -20.5t18 -29t6 -33q0 -34 -24 -61.5t-72 -27.5h-7zM249 874q0 -27 18 -43.5t42 -16.5t42 16.5
t18 43.5q0 26 -17.5 42.5t-42.5 16.5t-42.5 -16.5t-17.5 -42.5z" />
    <glyph glyph-name="AE" unicode="&#xc6;" horiz-adv-x="865" 
d="M828 0h-436v180h-214l-92 -180h-93l342 700h483v-87h-312v-204h241v-86h-241v-237h322v-86zM392 272v339l-171 -339h171z" />
    <glyph glyph-name="Ccedilla" unicode="&#xc7;" 
d="M390 -14q-77 0 -141.5 26t-111 74t-72.5 115t-26 149q0 81 26 148t72.5 115t110.5 74.5t141 26.5q107 0 194 -41l-10 -88l-57 20q-57 23 -127 23q-59 0 -104.5 -21t-77 -58t-48 -88t-16.5 -111q0 -59 16 -110t47.5 -88.5t78 -58.5t106.5 -21q15 0 29 1t29 4l25 5
q8 1 27 8l23 7q5 1 26 9l23 8l10 -88q-87 -40 -193 -40zM374 -54l-88 -133l-46 -5l68 132z" />
    <glyph glyph-name="Egrave" unicode="&#xc8;" horiz-adv-x="554" 
d="M516 0h-436v700h427v-86h-332v-205h264v-86h-264v-237h341v-86zM371 805l-187 64v72l187 -95v-41z" />
    <glyph glyph-name="Eacute" unicode="&#xc9;" horiz-adv-x="554" 
d="M516 0h-436v700h427v-86h-332v-205h264v-86h-264v-237h341v-86zM370 869l-187 -64v41l187 95v-72z" />
    <glyph glyph-name="Ecircumflex" unicode="&#xca;" horiz-adv-x="554" 
d="M516 0h-436v700h427v-86h-332v-205h264v-86h-264v-237h341v-86zM423 812l-147 82l-147 -82v36l147 106l147 -106v-36z" />
    <glyph glyph-name="Edieresis" unicode="&#xcb;" horiz-adv-x="554" 
d="M516 0h-436v700h427v-86h-332v-205h264v-86h-264v-237h341v-86zM400 809h-70v100h70v-100zM222 809h-70v100h70v-100z" />
    <glyph glyph-name="Igrave" unicode="&#xcc;" horiz-adv-x="255" 
d="M175 0h-95v700h95v-700zM222 805l-187 64v72l187 -95v-41z" />
    <glyph glyph-name="Iacute" unicode="&#xcd;" horiz-adv-x="255" 
d="M175 0h-95v700h95v-700zM223 869l-187 -64v41l187 95v-72z" />
    <glyph glyph-name="Icircumflex" unicode="&#xce;" horiz-adv-x="255" 
d="M175 0h-95v700h95v-700zM278 812l-147 82l-147 -82v36l147 106l147 -106v-36z" />
    <glyph glyph-name="Idieresis" unicode="&#xcf;" horiz-adv-x="255" 
d="M175 0h-95v700h95v-700zM253 809h-70v100h70v-100zM75 809h-70v100h70v-100z" />
    <glyph glyph-name="Eth" unicode="&#xd0;" horiz-adv-x="727" 
d="M342 0h-256v313h-97v64h97v323h256q76 0 139.5 -24.5t109.5 -69.5t71 -110t25 -146t-25 -145.5t-70 -110t-108.5 -70t-141.5 -24.5zM342 614h-166v-237h133v-64h-133v-226h166q118 0 180.5 70t62.5 193q0 61 -16 110t-46.5 83t-76 52.5t-104.5 18.5z" />
    <glyph glyph-name="Ntilde" unicode="&#xd1;" horiz-adv-x="704" 
d="M624 0h-81l-368 553v-553h-95v700h103l345 -524v524h96v-700zM418 808q-12 0 -30 8t-38.5 17.5t-36.5 17.5t-27 8q-53 0 -71 -49l-36 9q6 22 16 39t25 28.5t31 17t31 5.5q13 0 31 -7.5t41 -17t40.5 -17t27.5 -7.5q42 0 69 51l34 -9q-11 -43 -40 -68.5t-67 -25.5z" />
    <glyph glyph-name="Ograve" unicode="&#xd2;" horiz-adv-x="768" 
d="M632 85q-96 -99 -248 -99q-76 0 -139.5 26t-109 73.5t-71 114.5t-25.5 150t26 150t71.5 114.5t109 73.5t138.5 26t138.5 -26t109.5 -74t71.5 -115t25.5 -149q0 -165 -97 -265zM562 550q-62 78 -178 78q-58 0 -103 -21t-75.5 -58t-46.5 -88t-16 -111t16 -111t46.5 -88
t75.5 -58t103 -21t103 21t76 58.5t46.5 88t15.5 110.5q0 122 -63 200zM478 805l-187 64v72l187 -95v-41z" />
    <glyph glyph-name="Oacute" unicode="&#xd3;" horiz-adv-x="768" 
d="M632 85q-96 -99 -248 -99q-76 0 -139.5 26t-109 73.5t-71 114.5t-25.5 150t26 150t71.5 114.5t109 73.5t138.5 26t138.5 -26t109.5 -74t71.5 -115t25.5 -149q0 -165 -97 -265zM562 550q-62 78 -178 78q-58 0 -103 -21t-75.5 -58t-46.5 -88t-16 -111t16 -111t46.5 -88
t75.5 -58t103 -21t103 21t76 58.5t46.5 88t15.5 110.5q0 122 -63 200zM477 869l-187 -64v41l187 95v-72z" />
    <glyph glyph-name="Ocircumflex" unicode="&#xd4;" horiz-adv-x="768" 
d="M632 85q-96 -99 -248 -99q-76 0 -139.5 26t-109 73.5t-71 114.5t-25.5 150t26 150t71.5 114.5t109 73.5t138.5 26t138.5 -26t109.5 -74t71.5 -115t25.5 -149q0 -165 -97 -265zM562 550q-62 78 -178 78q-58 0 -103 -21t-75.5 -58t-46.5 -88t-16 -111t16 -111t46.5 -88
t75.5 -58t103 -21t103 21t76 58.5t46.5 88t15.5 110.5q0 122 -63 200zM531 812l-147 82l-147 -82v36l147 106l147 -106v-36z" />
    <glyph glyph-name="Otilde" unicode="&#xd5;" horiz-adv-x="768" 
d="M632 85q-96 -99 -248 -99q-76 0 -139.5 26t-109 73.5t-71 114.5t-25.5 150t26 150t71.5 114.5t109 73.5t138.5 26t138.5 -26t109.5 -74t71.5 -115t25.5 -149q0 -165 -97 -265zM562 550q-62 78 -178 78q-58 0 -103 -21t-75.5 -58t-46.5 -88t-16 -111t16 -111t46.5 -88
t75.5 -58t103 -21t103 21t76 58.5t46.5 88t15.5 110.5q0 122 -63 200zM450 808q-12 0 -30 8t-38.5 17.5t-36.5 17.5t-27 8q-53 0 -71 -49l-36 9q6 22 16 39t25 28.5t31 17t31 5.5q13 0 31 -7.5t41 -17t40.5 -17t27.5 -7.5q42 0 69 51l34 -9q-11 -43 -40 -68.5t-67 -25.5z
" />
    <glyph glyph-name="Odieresis" unicode="&#xd6;" horiz-adv-x="768" 
d="M632 85q-96 -99 -248 -99q-76 0 -139.5 26t-109 73.5t-71 114.5t-25.5 150t26 150t71.5 114.5t109 73.5t138.5 26t138.5 -26t109.5 -74t71.5 -115t25.5 -149q0 -165 -97 -265zM562 550q-62 78 -178 78q-58 0 -103 -21t-75.5 -58t-46.5 -88t-16 -111t16 -111t46.5 -88
t75.5 -58t103 -21t103 21t76 58.5t46.5 88t15.5 110.5q0 122 -63 200zM508 809h-70v100h70v-100zM330 809h-70v100h70v-100z" />
    <glyph glyph-name="multiply" unicode="&#xd7;" horiz-adv-x="439" 
d="M378 155l-36 -36l-123 123l-122 -123l-36 36l123 122l-123 122l36 36l122 -123l123 123l36 -36l-124 -122z" />
    <glyph glyph-name="Oslash" unicode="&#xd8;" horiz-adv-x="768" 
d="M383 -12q-91 0 -176 43l-42 -61h-93l73 105q-106 113 -106 275q0 83 26 150t71.5 114.5t109 73.5t138.5 26q86 0 172 -42l31 44h92l-61 -89q111 -111 111 -278q0 -81 -25.5 -147.5t-71 -114t-109.5 -73.5t-140 -26zM563 548l-303 -443q69 -29 124 -29q58 0 102.5 20.5
t74.5 57.5t45 87.5t15 110.5q0 126 -58 196zM383 625q-57 0 -101 -20.5t-74 -57.5t-45.5 -87.5t-15.5 -110.5q0 -98 55 -193l301 441q-66 28 -120 28z" />
    <glyph glyph-name="Ugrave" unicode="&#xd9;" horiz-adv-x="726" 
d="M72 297v403h95v-357q0 -51 7 -99.5t27.5 -87t59 -61.5t101.5 -23t101.5 24t59.5 62t27.5 86.5t6.5 98.5v357h95v-403q0 -148 -72.5 -229.5t-217.5 -81.5t-217.5 81.5t-72.5 229.5zM456 805l-187 64v72l187 -95v-41z" />
    <glyph glyph-name="Uacute" unicode="&#xda;" horiz-adv-x="726" 
d="M72 297v403h95v-357q0 -51 7 -99.5t27.5 -87t59 -61.5t101.5 -23t101.5 24t59.5 62t27.5 86.5t6.5 98.5v357h95v-403q0 -148 -72.5 -229.5t-217.5 -81.5t-217.5 81.5t-72.5 229.5zM456 869l-187 -64v41l187 95v-72z" />
    <glyph glyph-name="Ucircumflex" unicode="&#xdb;" horiz-adv-x="726" 
d="M72 297v403h95v-357q0 -51 7 -99.5t27.5 -87t59 -61.5t101.5 -23t101.5 24t59.5 62t27.5 86.5t6.5 98.5v357h95v-403q0 -148 -72.5 -229.5t-217.5 -81.5t-217.5 81.5t-72.5 229.5zM509 812l-147 82l-147 -82v36l147 106l147 -106v-36z" />
    <glyph glyph-name="Udieresis" unicode="&#xdc;" horiz-adv-x="726" 
d="M72 297v403h95v-357q0 -51 7 -99.5t27.5 -87t59 -61.5t101.5 -23t101.5 24t59.5 62t27.5 86.5t6.5 98.5v357h95v-403q0 -148 -72.5 -229.5t-217.5 -81.5t-217.5 81.5t-72.5 229.5zM487 809h-70v100h70v-100zM309 809h-70v100h70v-100z" />
    <glyph glyph-name="Yacute" unicode="&#xdd;" horiz-adv-x="567" 
d="M569 700l-236 -377v-323h-99v323l-237 377h100l186 -291l186 291h100zM389 869l-187 -64v41l187 95v-72z" />
    <glyph glyph-name="Thorn" unicode="&#xde;" horiz-adv-x="570" 
d="M180 125v-125h-100v700h100v-120h124q49 0 93 -7.5t77.5 -31t53.5 -66.5t20 -113q0 -68 -20.5 -113.5t-52.5 -73t-70 -39t-73 -11.5h-152zM180 495v-285h134q73 0 104 38.5t31 109.5q0 37 -8 63.5t-27 42.5t-50.5 23.5t-77.5 7.5h-106z" />
    <glyph glyph-name="germandbls" unicode="&#xdf;" horiz-adv-x="557" 
d="M328 -10q-18 0 -28 1t-22 2v77q42 0 76 1.5t57 8t35.5 21t12.5 41.5q0 28 -12.5 51.5t-31.5 44t-41 38t-41 34t-31.5 31.5t-12.5 30q0 18 16.5 39t37 46.5t37 57t16.5 70.5q0 26 -8 42.5t-21.5 26.5t-31.5 13.5t-38 3.5q-54 0 -80 -25.5t-26 -96.5v-684h-90v556h-85
l12 70h73v87q0 42 15.5 74t42.5 54t63 33.5t77 11.5q35 0 69 -9t60.5 -28.5t42.5 -50.5t16 -76t-15.5 -79.5t-33.5 -59.5t-33.5 -42t-15.5 -27q0 -8 12 -19.5t30 -26t39 -33.5t39 -42.5t30 -51.5t12 -62q0 -42 -19 -71t-50 -47t-71.5 -26.5t-82.5 -8.5z" />
    <glyph glyph-name="agrave" unicode="&#xe0;" horiz-adv-x="480" 
d="M472 62l-14 -72h-7q-30 0 -50 3.5t-34 12t-23.5 22.5t-18.5 34q-62 -72 -150 -72q-69 0 -110 39.5t-41 102.5q0 51 27.5 84t70 53t94.5 28.5t101 9.5q0 66 -25.5 89.5t-81.5 23.5q-64 0 -129 -44l-13 73q66 51 166 51q47 0 80 -12.5t53.5 -40t30 -72.5t9.5 -110v-100
q0 -58 10 -80.5t46 -22.5h9zM317 128v117q-108 -4 -154.5 -28.5t-46.5 -79.5q0 -75 76 -75q36 0 69.5 18t55.5 48zM334 596l-187 64v72l187 -95v-41z" />
    <glyph glyph-name="aacute" unicode="&#xe1;" horiz-adv-x="480" 
d="M472 62l-14 -72h-7q-30 0 -50 3.5t-34 12t-23.5 22.5t-18.5 34q-62 -72 -150 -72q-69 0 -110 39.5t-41 102.5q0 51 27.5 84t70 53t94.5 28.5t101 9.5q0 66 -25.5 89.5t-81.5 23.5q-64 0 -129 -44l-13 73q66 51 166 51q47 0 80 -12.5t53.5 -40t30 -72.5t9.5 -110v-100
q0 -58 10 -80.5t46 -22.5h9zM317 128v117q-108 -4 -154.5 -28.5t-46.5 -79.5q0 -75 76 -75q36 0 69.5 18t55.5 48zM333 660l-187 -64v41l187 95v-72z" />
    <glyph glyph-name="acircumflex" unicode="&#xe2;" horiz-adv-x="480" 
d="M472 62l-14 -72h-7q-30 0 -50 3.5t-34 12t-23.5 22.5t-18.5 34q-62 -72 -150 -72q-69 0 -110 39.5t-41 102.5q0 51 27.5 84t70 53t94.5 28.5t101 9.5q0 66 -25.5 89.5t-81.5 23.5q-64 0 -129 -44l-13 73q66 51 166 51q47 0 80 -12.5t53.5 -40t30 -72.5t9.5 -110v-100
q0 -58 10 -80.5t46 -22.5h9zM317 128v117q-108 -4 -154.5 -28.5t-46.5 -79.5q0 -75 76 -75q36 0 69.5 18t55.5 48zM387 603l-147 82l-147 -82v36l147 106l147 -106v-36z" />
    <glyph glyph-name="atilde" unicode="&#xe3;" horiz-adv-x="480" 
d="M472 62l-14 -72h-7q-30 0 -50 3.5t-34 12t-23.5 22.5t-18.5 34q-62 -72 -150 -72q-69 0 -110 39.5t-41 102.5q0 51 27.5 84t70 53t94.5 28.5t101 9.5q0 66 -25.5 89.5t-81.5 23.5q-64 0 -129 -44l-13 73q66 51 166 51q47 0 80 -12.5t53.5 -40t30 -72.5t9.5 -110v-100
q0 -58 10 -80.5t46 -22.5h9zM317 128v117q-108 -4 -154.5 -28.5t-46.5 -79.5q0 -75 76 -75q36 0 69.5 18t55.5 48zM303 599q-12 0 -30 8t-38.5 17.5t-36.5 17.5t-27 8q-53 0 -71 -49l-36 9q6 22 16 39t25 28.5t31 17t31 5.5q13 0 31 -7.5t41 -17t40.5 -17t27.5 -7.5
q42 0 69 51l34 -9q-11 -43 -40 -68.5t-67 -25.5z" />
    <glyph glyph-name="adieresis" unicode="&#xe4;" horiz-adv-x="480" 
d="M472 62l-14 -72h-7q-30 0 -50 3.5t-34 12t-23.5 22.5t-18.5 34q-62 -72 -150 -72q-69 0 -110 39.5t-41 102.5q0 51 27.5 84t70 53t94.5 28.5t101 9.5q0 66 -25.5 89.5t-81.5 23.5q-64 0 -129 -44l-13 73q66 51 166 51q47 0 80 -12.5t53.5 -40t30 -72.5t9.5 -110v-100
q0 -58 10 -80.5t46 -22.5h9zM317 128v117q-108 -4 -154.5 -28.5t-46.5 -79.5q0 -75 76 -75q36 0 69.5 18t55.5 48zM364 600h-70v100h70v-100zM186 600h-70v100h70v-100z" />
    <glyph glyph-name="aring" unicode="&#xe5;" horiz-adv-x="480" 
d="M472 62l-14 -72h-7q-30 0 -50 3.5t-34 12t-23.5 22.5t-18.5 34q-62 -72 -150 -72q-69 0 -110 39.5t-41 102.5q0 51 27.5 84t70 53t94.5 28.5t101 9.5q0 66 -25.5 89.5t-81.5 23.5q-64 0 -129 -44l-13 73q66 51 166 51q47 0 80 -12.5t53.5 -40t30 -72.5t9.5 -110v-100
q0 -58 10 -80.5t46 -22.5h9zM317 128v117q-108 -4 -154.5 -28.5t-46.5 -79.5q0 -75 76 -75q36 0 69.5 18t55.5 48zM241 576q-49 0 -76.5 26t-27.5 63q0 39 29 64.5t81 25.5q24 0 42.5 -7.5t30.5 -20.5t18 -29t6 -33q0 -34 -24 -61.5t-72 -27.5h-7zM181 665q0 -27 18 -43.5
t42 -16.5t42 16.5t18 43.5q0 26 -17.5 42.5t-42.5 16.5t-42.5 -16.5t-17.5 -42.5z" />
    <glyph glyph-name="ae" unicode="&#xe6;" horiz-adv-x="798" 
d="M764 245h-336q0 -90 45 -136.5t120 -46.5q18 0 31 1.5t27.5 6t32 11.5t43.5 18l17 -69q-87 -40 -163 -40q-148 0 -201 113q-26 -57 -81 -87t-127 -30q-75 0 -112.5 34.5t-37.5 97.5q0 174 301 189q-9 61 -35.5 87t-82.5 26q-53 0 -122 -29l-8 70q84 39 156 39
q20 0 45 -5.5t48.5 -19t41.5 -36.5t24 -59q10 31 28.5 53.5t43 37.5t54 22t61.5 7q88 0 139.5 -52t51.5 -148q0 -11 -1 -25t-3 -30zM573 420q-107 0 -137 -113h246q0 113 -109 113zM331 245q-36 0 -74 -6t-70 -20.5t-52.5 -37t-20.5 -55.5q0 -64 78 -64q28 0 53.5 8.5
t45 25.5t31 42.5t11.5 59.5q0 14 -0.5 26t-1.5 21z" />
    <glyph glyph-name="ccedilla" unicode="&#xe7;" horiz-adv-x="454" 
d="M277 -10q-59 0 -104 19.5t-76.5 54t-47.5 81t-16 101.5q0 56 16 102.5t46.5 80.5t76 52.5t104.5 18.5q98 0 151 -29l-14 -81q-62 30 -127 30q-81 0 -121 -45t-40 -129t40 -130.5t121 -46.5q66 0 128 30l12 -72q-55 -37 -149 -37zM326 -54l-88 -133l-46 -5l68 132z" />
    <glyph glyph-name="egrave" unicode="&#xe8;" horiz-adv-x="512" 
d="M478 245h-355q16 -175 184 -175q75 0 141 29l12 -71q-87 -38 -164 -38q-62 0 -111.5 20t-83.5 54.5t-52 82t-18 102.5q0 53 17 99t48 79.5t75.5 53t99.5 19.5q47 0 86 -14t66.5 -41t43 -65.5t15.5 -86.5q0 -28 -4 -48zM269 420q-109 0 -138 -113h258q0 54 -30 83.5
t-90 29.5zM348 596l-187 64v72l187 -95v-41z" />
    <glyph glyph-name="eacute" unicode="&#xe9;" horiz-adv-x="512" 
d="M478 245h-355q16 -175 184 -175q75 0 141 29l12 -71q-87 -38 -164 -38q-62 0 -111.5 20t-83.5 54.5t-52 82t-18 102.5q0 53 17 99t48 79.5t75.5 53t99.5 19.5q47 0 86 -14t66.5 -41t43 -65.5t15.5 -86.5q0 -28 -4 -48zM269 420q-109 0 -138 -113h258q0 54 -30 83.5
t-90 29.5zM349 660l-187 -64v41l187 95v-72z" />
    <glyph glyph-name="ecircumflex" unicode="&#xea;" horiz-adv-x="512" 
d="M478 245h-355q16 -175 184 -175q75 0 141 29l12 -71q-87 -38 -164 -38q-62 0 -111.5 20t-83.5 54.5t-52 82t-18 102.5q0 53 17 99t48 79.5t75.5 53t99.5 19.5q47 0 86 -14t66.5 -41t43 -65.5t15.5 -86.5q0 -28 -4 -48zM269 420q-109 0 -138 -113h258q0 54 -30 83.5
t-90 29.5zM402 603l-147 82l-147 -82v36l147 106l147 -106v-36z" />
    <glyph glyph-name="edieresis" unicode="&#xeb;" horiz-adv-x="512" 
d="M478 245h-355q16 -175 184 -175q75 0 141 29l12 -71q-87 -38 -164 -38q-62 0 -111.5 20t-83.5 54.5t-52 82t-18 102.5q0 53 17 99t48 79.5t75.5 53t99.5 19.5q47 0 86 -14t66.5 -41t43 -65.5t15.5 -86.5q0 -28 -4 -48zM269 420q-109 0 -138 -113h258q0 54 -30 83.5
t-90 29.5zM379 600h-70v100h70v-100zM201 600h-70v100h70v-100z" />
    <glyph glyph-name="igrave" unicode="&#xec;" horiz-adv-x="212" 
d="M151 0h-90v490h90v-490zM200 596l-187 64v72l187 -95v-41z" />
    <glyph glyph-name="iacute" unicode="&#xed;" horiz-adv-x="212" 
d="M151 0h-90v490h90v-490zM201 660l-187 -64v41l187 95v-72z" />
    <glyph glyph-name="icircumflex" unicode="&#xee;" horiz-adv-x="212" 
d="M151 0h-90v490h90v-490zM255 603l-147 82l-147 -82v36l147 106l147 -106v-36z" />
    <glyph glyph-name="idieresis" unicode="&#xef;" horiz-adv-x="212" 
d="M151 0h-90v490h90v-490zM231 600h-70v100h70v-100zM53 600h-70v100h70v-100z" />
    <glyph glyph-name="eth" unicode="&#xf0;" horiz-adv-x="517" 
d="M249 -12q-48 0 -88.5 16t-70 44.5t-46 67.5t-16.5 85q0 42 14 82.5t40.5 72t66 51t90.5 19.5q86 0 135 -55q-4 24 -12 51.5t-19.5 54t-25.5 49t-29 34.5q-77 -53 -141 -62l-30 55q65 9 128 52q-60 54 -121 54l32 42q72 0 149 -55q31 28 59 64l46 -12q-23 -33 -69 -84
q32 -29 58.5 -69.5t45 -87.5t29 -98t10.5 -102q0 -77 -21.5 -129t-55.5 -83t-76 -44t-82 -13zM254 343q-29 0 -52 -10.5t-39.5 -29t-25.5 -42.5t-9 -51q0 -30 9 -55t25.5 -44t39.5 -29.5t51 -10.5q54 0 87 38.5t33 98.5t-32.5 97.5t-86.5 37.5z" />
    <glyph glyph-name="ntilde" unicode="&#xf1;" horiz-adv-x="559" 
d="M503 0h-90v270q0 79 -29.5 114.5t-98.5 35.5q-98 0 -134 -64v-356h-90v490h70l10 -52q70 62 162 62q200 0 200 -230v-270zM346 599q-12 0 -30 8t-38.5 17.5t-36.5 17.5t-27 8q-53 0 -71 -49l-36 9q6 22 16 39t25 28.5t31 17t31 5.5q13 0 31 -7.5t41 -17t40.5 -17
t27.5 -7.5q42 0 69 51l34 -9q-11 -43 -40 -68.5t-67 -25.5z" />
    <glyph glyph-name="ograve" unicode="&#xf2;" horiz-adv-x="550" 
d="M452 62q-65 -72 -177 -72q-57 0 -102 19.5t-76.5 53.5t-48 81t-16.5 101q0 55 17 101.5t48.5 80.5t76.5 53.5t101 19.5t101 -19.5t76.5 -54t48.5 -81t17 -100.5q0 -110 -66 -183zM386 374q-39 46 -111 46t-111.5 -45.5t-39.5 -129.5t39.5 -129.5t111.5 -45.5q73 0 112 47
t39 128q0 83 -40 129zM368 596l-187 64v72l187 -95v-41z" />
    <glyph glyph-name="oacute" unicode="&#xf3;" horiz-adv-x="550" 
d="M452 62q-65 -72 -177 -72q-57 0 -102 19.5t-76.5 53.5t-48 81t-16.5 101q0 55 17 101.5t48.5 80.5t76.5 53.5t101 19.5t101 -19.5t76.5 -54t48.5 -81t17 -100.5q0 -110 -66 -183zM386 374q-39 46 -111 46t-111.5 -45.5t-39.5 -129.5t39.5 -129.5t111.5 -45.5q73 0 112 47
t39 128q0 83 -40 129zM368 660l-187 -64v41l187 95v-72z" />
    <glyph glyph-name="ocircumflex" unicode="&#xf4;" horiz-adv-x="550" 
d="M452 62q-65 -72 -177 -72q-57 0 -102 19.5t-76.5 53.5t-48 81t-16.5 101q0 55 17 101.5t48.5 80.5t76.5 53.5t101 19.5t101 -19.5t76.5 -54t48.5 -81t17 -100.5q0 -110 -66 -183zM386 374q-39 46 -111 46t-111.5 -45.5t-39.5 -129.5t39.5 -129.5t111.5 -45.5q73 0 112 47
t39 128q0 83 -40 129zM422 603l-147 82l-147 -82v36l147 106l147 -106v-36z" />
    <glyph glyph-name="otilde" unicode="&#xf5;" horiz-adv-x="550" 
d="M452 62q-65 -72 -177 -72q-57 0 -102 19.5t-76.5 53.5t-48 81t-16.5 101q0 55 17 101.5t48.5 80.5t76.5 53.5t101 19.5t101 -19.5t76.5 -54t48.5 -81t17 -100.5q0 -110 -66 -183zM386 374q-39 46 -111 46t-111.5 -45.5t-39.5 -129.5t39.5 -129.5t111.5 -45.5q73 0 112 47
t39 128q0 83 -40 129zM341 599q-12 0 -30 8t-38.5 17.5t-36.5 17.5t-27 8q-53 0 -71 -49l-36 9q6 22 16 39t25 28.5t31 17t31 5.5q13 0 31 -7.5t41 -17t40.5 -17t27.5 -7.5q42 0 69 51l34 -9q-11 -43 -40 -68.5t-67 -25.5z" />
    <glyph glyph-name="odieresis" unicode="&#xf6;" horiz-adv-x="550" 
d="M452 62q-65 -72 -177 -72q-57 0 -102 19.5t-76.5 53.5t-48 81t-16.5 101q0 55 17 101.5t48.5 80.5t76.5 53.5t101 19.5t101 -19.5t76.5 -54t48.5 -81t17 -100.5q0 -110 -66 -183zM386 374q-39 46 -111 46t-111.5 -45.5t-39.5 -129.5t39.5 -129.5t111.5 -45.5q73 0 112 47
t39 128q0 83 -40 129zM399 600h-70v100h70v-100zM221 600h-70v100h70v-100z" />
    <glyph glyph-name="divide" unicode="&#xf7;" horiz-adv-x="592" 
d="M336 440h-89v94h89v-94zM526 245h-460v74h460v-74zM336 20h-89v94h89v-94z" />
    <glyph glyph-name="oslash" unicode="&#xf8;" horiz-adv-x="570" 
d="M286 -13q-33 0 -86 11l-19 -38h-71l32 66q-109 81 -109 218q0 54 17.5 101t50.5 81.5t79.5 54.5t104.5 20q36 0 84 -12l19 40h74l-34 -66q111 -84 111 -220q0 -54 -17.5 -101t-50.5 -81.5t-80 -54t-105 -19.5zM395 393l-163 -330q42 -6 55 -6q37 0 66 14.5t48.5 39.5
t30 59t10.5 73q0 21 -3 44t-9 43.5t-14.5 37t-20.5 25.5zM284 431q-36 0 -64.5 -14t-48.5 -39t-30.5 -59.5t-10.5 -75.5q0 -68 46 -148l161 329q-38 7 -53 7z" />
    <glyph glyph-name="ugrave" unicode="&#xf9;" horiz-adv-x="524" 
d="M463 0h-80l-10 54q-46 -64 -136 -64q-181 0 -181 215v285h90v-260q0 -160 114 -160q78 0 113 56v364h90v-490zM372 596l-187 64v72l187 -95v-41z" />
    <glyph glyph-name="uacute" unicode="&#xfa;" horiz-adv-x="524" 
d="M463 0h-80l-10 54q-46 -64 -136 -64q-181 0 -181 215v285h90v-260q0 -160 114 -160q78 0 113 56v364h90v-490zM372 660l-187 -64v41l187 95v-72z" />
    <glyph glyph-name="ucircumflex" unicode="&#xfb;" horiz-adv-x="524" 
d="M463 0h-80l-10 54q-46 -64 -136 -64q-181 0 -181 215v285h90v-260q0 -160 114 -160q78 0 113 56v364h90v-490zM426 603l-147 82l-147 -82v36l147 106l147 -106v-36z" />
    <glyph glyph-name="udieresis" unicode="&#xfc;" horiz-adv-x="524" 
d="M463 0h-80l-10 54q-46 -64 -136 -64q-181 0 -181 215v285h90v-260q0 -160 114 -160q78 0 113 56v364h90v-490zM403 600h-70v100h70v-100zM225 600h-70v100h70v-100z" />
    <glyph glyph-name="yacute" unicode="&#xfd;" horiz-adv-x="505" 
d="M498 490l-300 -732h-100l113 264l-204 468h100l153 -364l138 364h100zM346 660l-187 -64v41l187 95v-72z" />
    <glyph glyph-name="thorn" unicode="&#xfe;" horiz-adv-x="580" 
d="M302 -10q-103 0 -152 66v-297h-90v991h90v-312q62 62 158 62q55 0 99 -20t75.5 -54.5t48.5 -81t17 -99.5t-16.5 -99.5t-48 -81t-77.5 -54.5t-104 -20zM143 245q0 -82 37 -132.5t114 -50.5q78 0 120.5 50.5t42.5 132.5q0 81 -42.5 128t-120.5 47t-114.5 -47t-36.5 -128z
" />
    <glyph glyph-name="ydieresis" unicode="&#xff;" horiz-adv-x="505" 
d="M498 490l-300 -732h-100l113 264l-204 468h100l153 -364l138 364h100zM375 600h-70v100h70v-100zM197 600h-70v100h70v-100z" />
    <glyph glyph-name="Ccaron" unicode="&#x10c;" 
d="M390 -14q-77 0 -141.5 26t-111 74t-72.5 115t-26 149q0 81 26 148t72.5 115t110.5 74.5t141 26.5q107 0 194 -41l-10 -88l-57 20q-57 23 -127 23q-59 0 -104.5 -21t-77 -58t-48 -88t-16.5 -111q0 -59 16 -110t47.5 -88.5t78 -58.5t106.5 -21q15 0 29 1t29 4l25 5
q8 1 27 8l23 7q5 1 26 9l23 8l10 -88q-87 -40 -193 -40zM548 908l-147 -99l-147 99v41l147 -76l147 76v-41z" />
    <glyph glyph-name="ccaron" unicode="&#x10d;" horiz-adv-x="454" 
d="M277 -10q-59 0 -104 19.5t-76.5 54t-47.5 81t-16 101.5q0 56 16 102.5t46.5 80.5t76 52.5t104.5 18.5q98 0 151 -29l-14 -81q-62 30 -127 30q-81 0 -121 -45t-40 -129t40 -130.5t121 -46.5q66 0 128 30l12 -72q-55 -37 -149 -37zM415 699l-147 -99l-147 99v41l147 -76
l147 76v-41z" />
    <glyph glyph-name="dotlessi" unicode="&#x131;" horiz-adv-x="212" 
d="M151 0h-90v490h90v-490z" />
    <glyph glyph-name="OE" unicode="&#x152;" horiz-adv-x="1071" 
d="M1034 0h-410v83q-69 -53 -126.5 -75t-119.5 -22q-75 0 -137 26t-107 74t-69.5 115t-24.5 149t25 149.5t70 115t107 73.5t136 26q62 0 119.5 -22t126.5 -75v82h401v-85h-310v-205h238v-86h-238v-237h319v-86zM378 628q-58 0 -102.5 -20.5t-74.5 -57.5t-45.5 -88
t-15.5 -112q0 -60 15 -111t45 -88t74.5 -58t103.5 -21q58 0 102.5 21t74.5 58t45 88t15 111q0 61 -15.5 112t-45.5 88t-74.5 57.5t-101.5 20.5z" />
    <glyph glyph-name="oe" unicode="&#x153;" horiz-adv-x="902" 
d="M868 245h-343q0 -57 16 -92.5t40 -56t51.5 -27.5t50.5 -7q84 0 155 37l10 -77q-72 -32 -153 -32q-93 0 -144 26.5t-74 80.5q-22 -51 -77 -79t-122 -28q-57 0 -102.5 20t-77.5 55t-49 82.5t-17 102.5q0 54 17.5 100t50 79t79 52t103.5 19q28 0 57.5 -6.5t56 -19.5
t46.5 -32t31 -44q13 24 34 43t45.5 32t52 20t54.5 7q48 0 87.5 -14t67 -40.5t43 -64t15.5 -85.5q0 -31 -4 -51zM658 420q-107 0 -131 -113h253q-4 54 -36 83.5t-86 29.5zM282 420q-78 0 -118 -45.5t-40 -129.5q0 -85 39.5 -130t117.5 -45q75 0 113.5 49.5t38.5 128.5
q0 78 -39.5 125t-111.5 47z" />
    <glyph glyph-name="Scaron" unicode="&#x160;" horiz-adv-x="584" 
d="M280 -14q-145 0 -229 45l13 111q94 -70 218 -70q36 0 66.5 6.5t53 20t35 34t12.5 47.5q0 28 -13 48.5t-36.5 36.5t-57 29t-74.5 27l-70 23q-85 28 -121.5 69.5t-36.5 98.5q0 30 12 65.5t40.5 66t77 50.5t122.5 20q30 0 62 -4t61.5 -10.5t54.5 -15.5t42 -18l-10 -101
q-126 63 -201 63q-29 0 -57.5 -6t-50.5 -19t-35.5 -32t-13.5 -46q0 -44 37.5 -68.5t113.5 -48.5q21 -7 30.5 -9t18.5 -4.5t24.5 -8t49.5 -20.5l34 -18q13 -7 21.5 -12t13.5 -10l25 -26q23 -24 30.5 -52t10.5 -67q0 -30 -9 -63.5t-38 -62.5t-82.5 -48.5t-143.5 -20.5z
M439 908l-147 -99l-147 99v41l147 -76l147 76v-41z" />
    <glyph glyph-name="scaron" unicode="&#x161;" horiz-adv-x="414" 
d="M200 -10q-107 0 -168 43l11 87q20 -18 61.5 -34t91.5 -16q98 0 98 61q0 55 -98 81q-30 7 -56.5 16.5t-47.5 25t-34.5 39.5t-15.5 60q0 63 45 105t139 42q67 0 133 -32l-11 -82q-52 43 -120 43q-95 0 -95 -66q0 -16 5 -27t18 -19.5t35 -16.5t56 -18q21 -6 45.5 -16.5
t45.5 -27.5t35 -42t14 -60q0 -24 -8 -50t-29 -47t-57.5 -35t-92.5 -14zM346 699l-147 -99l-147 99v41l147 -76l147 76v-41z" />
    <glyph glyph-name="Ydieresis" unicode="&#x178;" horiz-adv-x="567" 
d="M569 700l-236 -377v-323h-99v323l-237 377h100l186 -291l186 291h100zM420 809h-70v100h70v-100zM242 809h-70v100h70v-100z" />
    <glyph glyph-name="florin" unicode="&#x192;" horiz-adv-x="351" 
d="M371 703l-7 -55q-13 8 -32 8q-30 0 -51.5 -8t-36.5 -27.5t-25 -51.5t-18 -79h148l-6 -56h-153l-86 -526q-6 -40 -19.5 -68t-29.5 -46t-33 -26.5t-30 -8.5h-13l-13 63q57 12 71 101l80 511h-94l7 56h96l9 61q6 39 22.5 69t41 51t55 32t65.5 11q17 0 52 -11z" />
    <glyph glyph-name="uni0237" unicode="&#x237;" horiz-adv-x="212" 
d="M28 -237l-30 -5l-10 69q22 2 36 7t22 15.5t11.5 29t3.5 48.5v563h90v-597q0 -32 -10 -54.5t-26.5 -38t-39 -24.5t-47.5 -13z" />
    <glyph glyph-name="circumflex" unicode="&#x2c6;" horiz-adv-x="446" 
d="M370 603l-147 82l-147 -82v36l147 106l147 -106v-36z" />
    <glyph glyph-name="caron" unicode="&#x2c7;" horiz-adv-x="446" 
d="M370 699l-147 -99l-147 99v41l147 -76l147 76v-41z" />
    <glyph glyph-name="ring" unicode="&#x2da;" horiz-adv-x="292" 
d="M146 576q-49 0 -76.5 26t-27.5 63q0 39 29 64.5t81 25.5q24 0 42.5 -7.5t30.5 -20.5t18 -29t6 -33q0 -34 -24 -61.5t-72 -27.5h-7zM86 665q0 -27 18 -43.5t42 -16.5t42 16.5t18 43.5q0 26 -17.5 42.5t-42.5 16.5t-42.5 -16.5t-17.5 -42.5z" />
    <glyph glyph-name="tilde" unicode="&#x2dc;" horiz-adv-x="528" 
d="M331 599q-12 0 -30 8t-38.5 17.5t-36.5 17.5t-27 8q-53 0 -71 -49l-36 9q6 22 16 39t25 28.5t31 17t31 5.5q13 0 31 -7.5t41 -17t40.5 -17t27.5 -7.5q42 0 69 51l34 -9q-11 -43 -40 -68.5t-67 -25.5z" />
    <glyph glyph-name="endash" unicode="&#x2013;" horiz-adv-x="502" 
d="M445 238h-388v86h388v-86z" />
    <glyph glyph-name="emdash" unicode="&#x2014;" horiz-adv-x="594" 
d="M537 238h-480v86h480v-86z" />
    <glyph glyph-name="quoteleft" unicode="&#x2018;" horiz-adv-x="186" 
d="M43 641l78 109l23 -13l-35 -87l34 -9v-86h-100v86z" />
    <glyph glyph-name="quoteright" unicode="&#x2019;" horiz-adv-x="169" 
d="M143 664l-78 -109l-23 13l35 87l-34 9v86h100v-86z" />
    <glyph glyph-name="quotesinglbase" unicode="&#x201a;" horiz-adv-x="216" 
d="M158 0l-78 -109l-23 13l35 87l-34 9v86h100v-86z" />
    <glyph glyph-name="quotedblleft" unicode="&#x201c;" horiz-adv-x="396" 
d="M43 641l78 109l23 -13l-35 -87l34 -9v-86h-100v86zM253 641l78 109l23 -13l-35 -87l34 -9v-86h-100v86z" />
    <glyph glyph-name="quotedblright" unicode="&#x201d;" horiz-adv-x="379" 
d="M353 664l-78 -109l-23 13l35 87l-34 9v86h100v-86zM143 664l-78 -109l-23 13l35 87l-34 9v86h100v-86z" />
    <glyph glyph-name="quotedblbase" unicode="&#x201e;" horiz-adv-x="446" 
d="M158 0l-78 -109l-23 13l35 87l-34 9v86h100v-86zM388 0l-78 -109l-23 13l35 87l-34 9v86h100v-86z" />
    <glyph glyph-name="dagger" unicode="&#x2020;" horiz-adv-x="424" 
d="M389 373l-158 30l41 -151l-31 -252h-58l-31 252l41 151l-158 -30v85l156 -31l-34 180h110l-34 -180l156 31v-85z" />
    <glyph glyph-name="daggerdbl" unicode="&#x2021;" horiz-adv-x="460" 
d="M407 88l-156 30l34 -177h-110l34 177l-156 -30v84l160 -30l-43 132l43 133l-160 -30v84l156 -30l-34 176h110l-34 -176l156 30v-84l-160 30l43 -133l-43 -132l160 30v-84z" />
    <glyph glyph-name="bullet" unicode="&#x2022;" horiz-adv-x="306" 
d="M230 201q-17 -17 -36.5 -24.5t-40.5 -7.5q-22 0 -41.5 9t-34.5 24t-24 34.5t-9 41.5t9 41.5t24 34.5t34.5 24t41.5 9t41.5 -9t34.5 -24t24 -34.5t9 -41.5q0 -21 -8 -41t-24 -36z" />
    <glyph glyph-name="ellipsis" unicode="&#x2026;" horiz-adv-x="676" 
d="M147 0h-90v86h90v-86zM383 0h-90v86h90v-86zM619 0h-90v86h90v-86z" />
    <glyph glyph-name="perthousand" unicode="&#x2030;" horiz-adv-x="1201" 
d="M238 -12h-75l421 712h74zM182 333q-64 0 -105 47t-41 135q0 46 12 81.5t33 59.5t48.5 36.5t57.5 12.5q31 0 57.5 -12t46 -35t31 -56.5t11.5 -77.5q0 -46 -11.5 -81.5t-31.5 -60t-47.5 -37t-60.5 -12.5zM186 653q-19 0 -36 -9.5t-30 -27.5t-20.5 -44t-7.5 -57
q0 -60 27 -95t64 -35q40 0 67 37.5t27 101.5q0 29 -7 53t-20 41t-29.5 26t-34.5 9zM655 -14q-64 0 -105 47t-41 135q0 46 12 81.5t33 59.5t48.5 36.5t57.5 12.5q31 0 57.5 -12t46 -35t31 -56.5t11.5 -77.5q0 -46 -11.5 -81.5t-31.5 -60t-47.5 -37t-60.5 -12.5zM659 306
q-19 0 -36 -9.5t-30 -27.5t-20.5 -44t-7.5 -57q0 -60 27 -95t64 -35q40 0 67 37.5t27 101.5q0 29 -7 53t-20 41t-29.5 26t-34.5 9zM1014 -14q-64 0 -105 47t-41 135q0 46 12 81.5t33 59.5t48.5 36.5t57.5 12.5q31 0 57.5 -12t46 -35t31 -56.5t11.5 -77.5q0 -46 -11.5 -81.5
t-31.5 -60t-47.5 -37t-60.5 -12.5zM1018 306q-19 0 -36 -9.5t-30 -27.5t-20.5 -44t-7.5 -57q0 -60 27 -95t64 -35q40 0 67 37.5t27 101.5q0 29 -7 53t-20 41t-29.5 26t-34.5 9z" />
    <glyph glyph-name="guilsinglleft" unicode="&#x2039;" horiz-adv-x="322" 
d="M282 78h-109l-159 206l159 206h109l-159 -206z" />
    <glyph glyph-name="guilsinglright" unicode="&#x203a;" horiz-adv-x="323" 
d="M309 284l-159 -206h-109l159 206l-159 206h109z" />
    <glyph glyph-name="uni2070" unicode="&#x2070;" horiz-adv-x="407" 
d="M200 312q-38 0 -68.5 13.5t-52.5 38.5t-34 60.5t-12 78.5q0 44 13.5 81t36.5 64t55 42.5t69 15.5q36 0 66.5 -14.5t53 -40.5t35 -61.5t12.5 -77.5q0 -45 -12.5 -82t-35.5 -63t-55 -40.5t-71 -14.5zM107 503q0 -64 26 -95t68 -31q45 0 72.5 33t27.5 102q0 63 -27.5 96.5
t-67.5 33.5t-69.5 -36t-29.5 -103z" />
    <glyph glyph-name="uni2074" unicode="&#x2074;" horiz-adv-x="330" 
d="M303 423h-49v-103h-74v103h-175l187 275h62v-218h49v-57zM180 480v110l-74 -110h74z" />
    <glyph glyph-name="uni2075" unicode="&#x2075;" horiz-adv-x="307" 
d="M130 313q-17 0 -35 3.5t-33.5 8.5t-37.5 20l17 65q35 -29 87 -29q78 0 78 61q0 55 -99 55h-62l25 201h187l-8 -70h-123l-10 -71q85 -1 123.5 -28t38.5 -85q0 -32 -12 -56t-32.5 -41t-47 -25.5t-56.5 -8.5z" />
    <glyph glyph-name="uni2076" unicode="&#x2076;" horiz-adv-x="322" 
d="M158 312q-57 0 -91.5 35.5t-34.5 110.5q0 48 18 91.5t44.5 76.5t57 52.5t54.5 19.5l49 -28q-16 0 -40.5 -14.5t-47 -36t-38.5 -46t-19 -45.5q18 19 68 19q54 0 88 -27.5t34 -81.5q0 -26 -10.5 -48.5t-29 -40t-45 -27.5t-57.5 -10zM173 489q-31 0 -50 -15t-19 -44
q0 -24 19.5 -38.5t42.5 -14.5q29 0 47 18.5t18 44.5q0 19 -15 34t-43 15z" />
    <glyph glyph-name="uni2077" unicode="&#x2077;" horiz-adv-x="290" 
d="M290 698l-170 -378h-77l139 308h-159v70h267z" />
    <glyph glyph-name="uni2078" unicode="&#x2078;" horiz-adv-x="346" 
d="M167 312q-67 0 -101.5 31t-34.5 77q0 60 63 104q-40 28 -40 86q0 42 28.5 69t92.5 27q63 0 90.5 -24.5t27.5 -63.5q0 -54 -50 -90q32 -13 52 -39t20 -58q0 -23 -9.5 -44.5t-28 -38t-46.5 -26.5t-64 -10zM173 650q-54 0 -54 -47q0 -41 51 -53q55 13 55 55q0 45 -52 45z
M175 499q-30 -4 -51.5 -23.5t-21.5 -49.5q0 -27 18 -42t50 -15q34 0 53 16t19 43q0 29 -19 47t-48 24z" />
    <glyph glyph-name="uni2079" unicode="&#x2079;" horiz-adv-x="324" 
d="M164 706q57 0 92 -36t35 -109q0 -47 -15.5 -90.5t-42 -77t-57.5 -53.5t-60 -20l-47 28q16 0 40.5 12.5t47.5 32.5t39.5 45.5t18.5 51.5q-19 -19 -71 -19q-55 0 -88.5 27.5t-33.5 79.5q0 27 10.5 50t29.5 40.5t45 27.5t57 10zM151 529q31 0 50 14.5t19 43.5q0 54 -61 54
q-30 0 -47 -18t-17 -42q0 -22 13.5 -37t42.5 -15z" />
    <glyph glyph-name="uni2080" unicode="&#x2080;" horiz-adv-x="431" 
d="M212 -7q-38 0 -68.5 13.5t-52.5 38.5t-34 60.5t-12 78.5q0 44 13.5 81t36.5 64t55 42.5t69 15.5q36 0 66.5 -14.5t53 -40.5t35 -61.5t12.5 -77.5q0 -45 -12.5 -82t-35.5 -63t-55 -40.5t-71 -14.5zM119 184q0 -64 26 -95t68 -31q45 0 72.5 33t27.5 102q0 63 -27.5 96.5
t-67.5 33.5t-69.5 -36t-29.5 -103z" />
    <glyph glyph-name="uni2081" unicode="&#x2081;" horiz-adv-x="237" 
d="M170 1h-75v276q-32 -14 -51 -17l-6 60q9 1 21 7.5t22.5 14.5t19.5 18t12 19h57v-378z" />
    <glyph glyph-name="uni2082" unicode="&#x2082;" horiz-adv-x="332" 
d="M286 1h-248q57 77 90 125.5t49.5 78.5t20.5 45t4 24q0 25 -15 39t-42 14q-51 0 -93 -59l-9 65q11 19 41.5 36.5t75.5 17.5q30 0 51 -8t34.5 -22t20 -32.5t6.5 -39.5q0 -68 -106 -214h120v-70z" />
    <glyph glyph-name="uni2083" unicode="&#x2083;" horiz-adv-x="337" 
d="M141 -7q-17 0 -34.5 3t-32.5 7.5t-26.5 9.5t-15.5 10l18 66q32 -26 88 -26q78 0 78 52q0 30 -15.5 47t-58.5 17h-52l6 55h27q77 0 77 48q0 44 -60 44q-49 0 -71 -17l-11 53q26 25 91 25q36 0 60 -9t38.5 -23t21 -32t6.5 -37q0 -53 -39 -75q54 -32 54 -93q0 -30 -12 -53
t-32.5 -39t-47.5 -24.5t-57 -8.5z" />
    <glyph glyph-name="uni2084" unicode="&#x2084;" horiz-adv-x="357" 
d="M316 104h-49v-103h-74v103h-175l187 275h62v-218h49v-57zM193 161v110l-74 -110h74z" />
    <glyph glyph-name="uni2085" unicode="&#x2085;" horiz-adv-x="332" 
d="M141 -6q-17 0 -35 3.5t-33.5 8.5t-37.5 20l17 65q35 -29 87 -29q78 0 78 61q0 55 -99 55h-62l25 201h187l-8 -70h-123l-10 -71q85 -1 123.5 -28t38.5 -85q0 -32 -12 -56t-32.5 -41t-47 -25.5t-56.5 -8.5z" />
    <glyph glyph-name="uni2086" unicode="&#x2086;" horiz-adv-x="347" 
d="M171 -7q-57 0 -91.5 35.5t-34.5 110.5q0 48 18 91.5t44.5 76.5t57 52.5t54.5 19.5l49 -28q-16 0 -40.5 -14.5t-47 -36t-38.5 -46t-19 -45.5q18 19 68 19q54 0 88 -27.5t34 -81.5q0 -26 -10.5 -48.5t-29 -40t-45 -27.5t-57.5 -10zM186 170q-31 0 -50 -15t-19 -44
q0 -24 19.5 -38.5t42.5 -14.5q29 0 47 18.5t18 44.5q0 19 -15 34t-43 15z" />
    <glyph glyph-name="uni2087" unicode="&#x2087;" horiz-adv-x="332" 
d="M309 379l-170 -378h-77l139 308h-159v70h267z" />
    <glyph glyph-name="uni2088" unicode="&#x2088;" horiz-adv-x="372" 
d="M180 -7q-67 0 -101.5 31t-34.5 77q0 60 63 104q-40 28 -40 86q0 42 28.5 69t92.5 27q63 0 90.5 -24.5t27.5 -63.5q0 -54 -50 -90q32 -13 52 -39t20 -58q0 -23 -9.5 -44.5t-28 -38t-46.5 -26.5t-64 -10zM186 331q-54 0 -54 -47q0 -41 51 -53q55 13 55 55q0 45 -52 45z
M188 180q-30 -4 -51.5 -23.5t-21.5 -49.5q0 -27 18 -42t50 -15q34 0 53 16t19 43q0 29 -19 47t-48 24z" />
    <glyph glyph-name="uni2089" unicode="&#x2089;" horiz-adv-x="346" 
d="M174 387q57 0 92 -36t35 -109q0 -47 -15.5 -90.5t-42 -77t-57.5 -53.5t-60 -20l-47 28q16 0 40.5 12.5t47.5 32.5t39.5 45.5t18.5 51.5q-19 -19 -71 -19q-55 0 -88.5 27.5t-33.5 79.5q0 27 10.5 50t29.5 40.5t45 27.5t57 10zM161 210q31 0 50 14.5t19 43.5q0 54 -61 54
q-30 0 -47 -18t-17 -42q0 -22 13.5 -37t42.5 -15z" />
    <glyph glyph-name="Euro" unicode="&#x20ac;" horiz-adv-x="703" 
d="M174 215h-141l24 69h99q-2 19 -3 35.5t-1 30.5v19h-89l22 69h76q14 57 42.5 102.5t68.5 77t90.5 48.5t107.5 17q104 0 176 -34l-12 -98q-91 38 -164 38q-146 0 -192 -151h258l-24 -69h-244v-19q0 -17 1.5 -33.5t3.5 -32.5h243l-24 -69h-198q59 -104 176 -104q73 0 164 38
l12 -98q-72 -34 -176 -34q-102 0 -180 52t-116 146z" />
    <glyph glyph-name="trademark" unicode="&#x2122;" horiz-adv-x="727" 
d="M489 443h-6l-92 163l-33 -269h-52l47 363h29l105 -179l104 179h29l48 -363h-54l-31 268zM290 700l-6 -50h-100v-313h-51v313h-102v50h259z" />
    <glyph glyph-name="B.sc" horiz-adv-x="534" 
d="M290 0h-216v560h146q57 0 99.5 -6t70.5 -22t42 -43.5t14 -70.5q0 -80 -49 -119q54 -19 77.5 -50.5t23.5 -83.5q0 -49 -18 -81t-47.5 -50.5t-67 -26t-75.5 -7.5zM253 480h-86v-148h103q85 0 85 74q0 44 -26 59t-76 15zM287 256h-120v-175h95q70 0 104.5 18t34.5 67
q0 90 -114 90z" />
    <glyph glyph-name="C.sc" horiz-adv-x="537" 
d="M335 -11q-65 0 -119.5 21t-93.5 59t-61 92t-22 119t22 118.5t61 92t93.5 59.5t119.5 21q97 0 166 -33l-10 -87q-91 32 -156 32q-47 0 -83 -15t-60.5 -41.5t-37.5 -64t-13 -82.5t13 -82.5t37.5 -64t61 -41.5t83.5 -15q64 0 155 32l10 -88q-73 -32 -166 -32z" />
    <glyph glyph-name="D.sc" horiz-adv-x="629" 
d="M295 0h-221v560h221q64 0 119 -19.5t94 -55.5t60.5 -88t21.5 -117q0 -66 -22 -118t-61 -88t-93.5 -55t-118.5 -19zM295 472h-128v-384h128q94 0 143.5 51t49.5 141t-49.5 141t-143.5 51z" />
    <glyph glyph-name="E.sc" horiz-adv-x="490" 
d="M453 0h-379v560h371v-88h-276v-136h217v-88h-217v-160h284v-88z" />
    <glyph glyph-name="F.sc" horiz-adv-x="459" 
d="M438 472h-271v-136h210v-88h-210v-248h-93v560h364v-88z" />
    <glyph glyph-name="G.sc" horiz-adv-x="583" 
d="M330 -11q-63 0 -116.5 21t-92 59t-60.5 92t-22 120q0 65 21.5 118.5t61 91.5t94.5 59t121 21q102 0 177 -32l-9 -87q-87 31 -166 31q-98 0 -148 -55.5t-50 -145.5q0 -94 52.5 -149.5t155.5 -55.5q49 0 91 11v114h-81v79h175v-250q-17 -8 -41.5 -15.5t-52.5 -13.5
t-56.5 -9.5t-53.5 -3.5z" />
    <glyph glyph-name="H.sc" horiz-adv-x="646" 
d="M572 0h-93v248h-312v-248h-93v560h93v-223h312v223h93v-560z" />
    <glyph glyph-name="I.sc" horiz-adv-x="241" 
d="M167 0h-93v560h93v-560z" />
    <glyph glyph-name="J.sc" horiz-adv-x="241" 
d="M28 -138h-21l-9 66h12q37 0 50.5 17t13.5 56v559h93v-582q0 -116 -139 -116z" />
    <glyph glyph-name="K.sc" horiz-adv-x="525" 
d="M512 0h-102l-215 296l215 264h102l-215 -264zM167 0h-93v560h93v-560z" />
    <glyph glyph-name="A.sc" horiz-adv-x="534" 
d="M526 0h-97l-55 141h-214l-54 -141h-98l213 560h93zM343 229l-76 189l-76 -189h152z" />
    <glyph glyph-name="M.sc" horiz-adv-x="712" 
d="M666 0h-98l-54 392l-157 -269l-159 269l-54 -392h-98l81 560h78l152 -263l150 263h78z" />
    <glyph glyph-name="N.sc" horiz-adv-x="614" 
d="M540 0h-78l-295 405v-405h-93v560h96l276 -382v382h94v-560z" />
    <glyph glyph-name="O.sc" horiz-adv-x="665" 
d="M543 69q-83 -80 -211 -80q-64 0 -118 21t-93 59t-60.5 92t-21.5 119t21.5 118.5t60.5 92t93 59.5t118 21t118 -21t93 -59.5t61 -92t22 -118.5q0 -131 -83 -211zM473 427q-50 56 -141 56q-46 0 -81.5 -14.5t-60 -41.5t-37 -64.5t-12.5 -82.5t12.5 -82.5t37 -64.5t60 -41.5
t81.5 -14.5t81.5 15t60 41.5t37 64t12.5 82.5q0 91 -50 147z" />
    <glyph glyph-name="AE.sc" horiz-adv-x="742" 
d="M705 0h-370v138h-175l-74 -138h-94l290 560h415v-89h-259v-135h200v-88h-200v-160h267v-88zM335 228v241l-132 -241h132z" />
    <glyph glyph-name="P.sc" horiz-adv-x="510" 
d="M289 188h-119v-188h-96v560h180q54 0 97 -7.5t73 -27t44.5 -53.5t14.5 -88q0 -56 -18 -93.5t-46 -60t-62.5 -32.5t-67.5 -10zM260 481h-90v-207h104q60 0 86.5 25.5t26.5 82.5q0 54 -27.5 76.5t-99.5 22.5z" />
    <glyph glyph-name="Q.sc" horiz-adv-x="665" 
d="M619 58l-52 -62l-57 44q-78 -51 -178 -51q-64 0 -118 21t-93 59t-60.5 92t-21.5 119t21.5 118.5t60.5 92t93 59.5t118 21t118 -21t93 -59.5t61 -92t22 -118.5q0 -101 -59 -181zM332 483q-46 0 -81.5 -14.5t-60 -41.5t-37 -64.5t-12.5 -82.5t12.5 -82.5t37 -64.5t60 -41.5
t81.5 -14.5q65 0 109 23l-80 60l51 64l83 -65q33 46 33 121q0 45 -13 82.5t-38.5 64.5t-62 41.5t-82.5 14.5z" />
    <glyph glyph-name="R.sc" horiz-adv-x="537" 
d="M515 0h-99l-128 212h-118v-212h-96v560h204q205 0 205 -162q0 -110 -105 -162zM266 483h-96v-183h106q52 0 81 24t29 69q0 90 -120 90z" />
    <glyph glyph-name="S.sc" horiz-adv-x="511" 
d="M246 -11q-129 0 -196 39l12 107q71 -58 186 -58q126 0 126 70q0 24 -14.5 41t-41 30t-64 24.5t-83.5 25.5l-48 21q-35 15 -58.5 42t-23.5 75q0 31 13 61t39 53t66.5 37t96.5 14q27 0 54.5 -3.5t52 -9t45.5 -13t36 -15.5l-10 -96q-102 50 -172 50q-24 0 -46.5 -4
t-39.5 -12t-27 -21t-10 -31q0 -24 13 -37t39.5 -23t65.5 -21t92 -31q23 -9 46 -21t41 -29.5t29.5 -43t11.5 -61.5q0 -24 -7.5 -52t-32 -52t-70 -40t-121.5 -16z" />
    <glyph glyph-name="T.sc" horiz-adv-x="470" 
d="M453 472h-171v-472h-94v472h-171v88h436v-88z" />
    <glyph glyph-name="U.sc" horiz-adv-x="627" 
d="M314 -11q-123 0 -185 66.5t-62 183.5v321h93v-286q0 -46 7 -82.5t25 -62t47.5 -39t74.5 -13.5q47 0 77 15t47 41.5t23 62.5t6 78v286h93v-321q0 -118 -61.5 -184t-184.5 -66z" />
    <glyph glyph-name="V.sc" horiz-adv-x="561" 
d="M554 560l-220 -560h-106l-222 560h98l177 -442l175 442h98z" />
    <glyph glyph-name="W.sc" horiz-adv-x="835" 
d="M822 560l-174 -560h-93l-136 404l-140 -404h-95l-167 560h98l126 -425l141 421h74l145 -414l123 418h98z" />
    <glyph glyph-name="X.sc" horiz-adv-x="540" 
d="M529 0h-104l-159 214l-149 -214h-103l204 279l-200 281h108l146 -205l148 205h103l-205 -270z" />
    <glyph glyph-name="Y.sc" horiz-adv-x="504" 
d="M503 560l-203 -308v-252h-96v252l-203 308h99l152 -225l152 225h99z" />
    <glyph glyph-name="Z.sc" horiz-adv-x="483" 
d="M468 560l-299 -472h261v-88h-415l299 472h-261v88h415z" />
    <glyph glyph-name="OE.sc" horiz-adv-x="921" 
d="M884 0h-359v52q-98 -63 -196 -63q-64 0 -117 21t-91.5 59t-60 92t-21.5 119t21.5 118.5t60 92t91.5 59.5t117 21q98 0 196 -63v52h351v-88h-258v-136h199v-88h-199v-160h266v-88zM469 427q-48 56 -140 56q-46 0 -81.5 -14.5t-59.5 -41.5t-36.5 -64.5t-12.5 -82.5
t12.5 -82.5t36.5 -64.5t59.5 -41.5t81.5 -14.5t81.5 15t59.5 41.5t36 64t12 82.5q0 92 -49 147z" />
    <glyph glyph-name="L.sc" horiz-adv-x="440" 
d="M428 0h-354v560h93v-472h261v-88z" />
    </font>
</defs>
</svg>
