<?xml version="1.0" standalone="no"?>
<!DOCTYPE svg PUBLIC "-//W3C//DTD SVG 1.1//EN" "http://www.w3.org/Graphics/SVG/1.1/DTD/svg11.dtd" >
<svg xmlns="http://www.w3.org/2000/svg" xmlns:xlink="http://www.w3.org/1999/xlink" version="1.1">
<metadata>
Created by FontForge 20161013 at Thu Jul  9 12:08:31 2009
 By ,,,
Copyright (c) 2009 Dave Crossland &#60;dave@lab6.com&#62;
</metadata>
<defs>
<font id="Cantarell-Regular" horiz-adv-x="1177" >
  <font-face 
    font-family="Cantarell"
    font-weight="500"
    font-stretch="normal"
    units-per-em="2048"
    panose-1="2 0 6 3 0 0 0 0 0 0"
    ascent="1514"
    descent="-534"
    x-height="988"
    cap-height="1421"
    bbox="-123 -555 2105 2137"
    underline-thickness="116"
    underline-position="-465"
    unicode-range="U+0020-FB04"
  />
<missing-glyph horiz-adv-x="748" 
d="M68 0v1365h544v-1365h-544zM136 68h408v1229h-408v-1229z" />
    <glyph glyph-name=".notdef" horiz-adv-x="748" 
d="M68 0v1365h544v-1365h-544zM136 68h408v1229h-408v-1229z" />
    <glyph glyph-name=".null" horiz-adv-x="0" 
 />
    <glyph glyph-name="nonmarkingreturn" horiz-adv-x="682" 
 />
    <glyph glyph-name="space" unicode=" " horiz-adv-x="560" 
 />
    <glyph glyph-name="exclam" unicode="!" horiz-adv-x="650" 
d="M225 200h200v-200h-200v200zM240 1421h170v-963h-170v963z" />
    <glyph glyph-name="quotedbl" unicode="&#x22;" horiz-adv-x="795" 
d="M500 1511h185v-428h-185v428zM110 1511h185v-428h-185v428z" />
    <glyph glyph-name="numbersign" unicode="#" horiz-adv-x="1402" 
d="M363 1421h160v-391h358v391h160v-391h316v-150h-316v-352h316v-150h-316v-408h-160v408h-358v-408h-160v408h-316v150h316v352h-318v150h318v391zM523 880v-352h358v352h-358z" />
    <glyph glyph-name="dollar" unicode="$" horiz-adv-x="1200" 
d="M552 1511h121v-260q87 0 137 -8.5t128 -31.5l-42 -125q-134 37 -236 37q-59 0 -104.5 -11t-70 -27.5t-40 -37.5t-20 -37.5t-4.5 -32.5q0 -41 42.5 -73t106 -52t137.5 -47.5t137.5 -58t106 -85.5t42.5 -127q0 -46 -14.5 -89.5t-48 -88.5t-99.5 -78.5t-158 -45.5v-297h-121
v290q-142 0 -325 75l46 124q95 -40 155 -55t124 -15q79 0 133.5 12.5t91.5 49.5t37 99q0 34 -24 60t-64 42.5t-90.5 34t-103 32.5t-103 39.5t-90.5 54t-64 76.5t-24 106q0 39 14.5 79t47 81t94 73.5t145.5 46.5v271z" />
    <glyph glyph-name="percent" unicode="%" horiz-adv-x="1329" 
d="M326 1268q-54 0 -92 -39.5t-38 -134.5q0 -58 12.5 -99t34 -60.5t41.5 -27t43 -7.5q53 0 91.5 42t38.5 147q0 54 -12.5 91.5t-33.5 55.5t-41.5 25t-43.5 7zM327 1363q29 0 56 -5.5t59.5 -23t56 -45.5t39.5 -79t16 -118q0 -133 -64.5 -209.5t-163.5 -76.5q-98 0 -163 67.5
t-65 219.5q0 130 68 200t161 70zM984 527q-54 0 -92 -39.5t-38 -134.5q0 -58 12.5 -99t34 -60.5t41.5 -27t43 -7.5q53 0 91.5 42t38.5 147q0 54 -12.5 91.5t-33.5 55.5t-41.5 25t-43.5 7zM985 623q37 0 72 -10.5t72.5 -37t60.5 -84t23 -140.5q0 -132 -65 -208.5t-164 -76.5
q-98 0 -162.5 67t-64.5 219q0 130 67.5 200.5t160.5 70.5zM1054 1421h170l-969 -1421h-170z" />
    <glyph glyph-name="ampersand" unicode="&#x26;" horiz-adv-x="1589" 
d="M707 1440q151 0 242 -75.5t91 -189.5q0 -32 -9 -64t-20.5 -57.5t-36 -56.5t-41 -50t-51 -49t-50 -43t-54.5 -43.5t-50 -39.5l348 -371l323 353l93 -94l-322 -359l283 -301h-203l-194 201q-40 -40 -68.5 -65.5t-82 -64t-103 -61.5t-120.5 -40t-146 -17q-166 0 -261 92.5
t-95 236.5q0 38 7 75t17 67.5t28.5 63.5t33.5 56t41 51.5t41 44.5t44 41t41 34t39.5 30.5t31.5 24.5q-93 96 -124 138q-78 106 -78 215q0 140 117 228.5t288 88.5zM690 1297q-90 0 -155.5 -54.5t-65.5 -128.5q0 -27 7.5 -51t27 -49.5t34.5 -42.5t47.5 -49.5t49.5 -50.5
q17 13 52 39.5t48.5 37.5t39 32t36 32.5t26 29.5t21.5 32.5t11 32t5 36.5q0 62 -51.5 108t-132.5 46zM601 671q-8 -6 -24 -19q-56 -44 -85 -69.5t-69 -69.5t-58 -89.5t-18 -96.5q0 -94 70 -160.5t176 -66.5q47 0 94.5 15t82.5 33t76.5 50.5t61.5 50.5t52 50z" />
    <glyph glyph-name="quotesingle" unicode="'" horiz-adv-x="405" 
d="M110 1511h185v-428h-185v428z" />
    <glyph glyph-name="parenleft" unicode="(" horiz-adv-x="742" 
d="M530 1548l132 -69q-115 -192 -191 -424t-76 -481q0 -247 76 -478t191 -420l-129 -84q-56 93 -105.5 193t-99.5 229t-79 275.5t-29 286.5q0 138 29 282.5t78 271.5t98 226.5t105 191.5z" />
    <glyph glyph-name="parenright" unicode=")" horiz-adv-x="742" 
d="M212 1548q56 -92 105 -191.5t98 -226.5t78 -271.5t29 -282.5q0 -139 -29.5 -285.5t-79 -276t-99 -230t-105.5 -192.5l-129 84q115 189 191 420t76 478q0 248 -76.5 480.5t-190.5 424.5z" />
    <glyph glyph-name="asterisk" unicode="*" horiz-adv-x="1196" 
d="M513 1421h170l-18 -319l266 175l85 -148l-284 -141l284 -145l-85 -148l-266 175l18 -318h-170l18 318l-266 -175l-85 148l285 145l-285 141l85 148l266 -175z" />
    <glyph glyph-name="plus" unicode="+" horiz-adv-x="1400" 
d="M626 1233h148v-506h501v-138h-501v-506h-148v506h-501v138h501v506z" />
    <glyph glyph-name="comma" unicode="," horiz-adv-x="570" 
d="M200 170h180l-158 -390h-180z" />
    <glyph glyph-name="hyphen" unicode="-" horiz-adv-x="1210" 
d="M175 728h860v-139h-860v139z" />
    <glyph glyph-name="period" unicode="." horiz-adv-x="570" 
d="M180 210h210v-210h-210v210z" />
    <glyph glyph-name="slash" unicode="/" horiz-adv-x="726" 
d="M536 1421h170l-496 -1511h-170z" />
    <glyph glyph-name="zero" unicode="0" horiz-adv-x="1300" 
d="M649 1287q-48 0 -96 -16t-98 -57t-88.5 -102t-63 -160t-24.5 -222q0 -133 24.5 -239.5t63 -172t89 -109.5t99 -61.5t97.5 -17.5q39 0 79 12.5t82.5 38.5t79 73t65.5 110t46 155t17 203q0 125 -24.5 225.5t-63 162.5t-89.5 103t-99 57.5t-96 16.5zM649 1440
q70 0 139.5 -20t143.5 -71.5t129.5 -129.5t91.5 -205.5t36 -287.5q0 -168 -35.5 -301t-91 -214.5t-129 -135.5t-142.5 -74.5t-139 -20.5q-49 0 -98.5 10.5t-103.5 36t-102 64t-92 98.5t-75.5 135.5t-50.5 179t-19 224.5q0 115 18.5 214t50.5 170.5t75.5 128.5t91.5 93.5
t101.5 61t103 34.5t97.5 10z" />
    <glyph glyph-name="one" unicode="1" horiz-adv-x="1300" 
d="M594 1421h196v-1272h330v-149h-828v149h334v1108l-312 -123l-64 147z" />
    <glyph glyph-name="two" unicode="2" horiz-adv-x="1300" 
d="M188 1334q229 97 454 97q209 0 336.5 -106t127.5 -260q0 -73 -28.5 -137.5t-77 -117t-108.5 -103.5t-127 -108t-128 -118.5t-116.5 -147.5t-88.5 -183h700v-150h-907v93q39 122 99.5 228.5t125 180t133.5 138t130 113.5t110 94t77.5 92t28.5 96q0 102 -94 175.5
t-225 73.5q-143 0 -373 -82z" />
    <glyph glyph-name="three" unicode="3" horiz-adv-x="1300" 
d="M205 1336q206 102 402 102q186 0 307.5 -96t121.5 -241q0 -111 -59.5 -198t-158.5 -125q145 -39 212.5 -128.5t67.5 -213.5q0 -142 -71.5 -252t-196.5 -169.5t-283 -59.5q-186 0 -371 77l48 138q208 -57 325 -57q156 0 266 80t110 206q0 35 -9 68.5t-38 74.5t-76.5 71
t-132.5 50.5t-197 20.5v146q90 0 160.5 16.5t113 41.5t70 58.5t38 64.5t10.5 63q0 87 -76 148.5t-202 61.5q-146 0 -326 -83z" />
    <glyph glyph-name="four" unicode="4" horiz-adv-x="1300" 
d="M694 1421h238v-927h248v-150h-248v-344h-164v344h-648v112zM768 1259l-452 -765h452v765z" />
    <glyph glyph-name="five" unicode="5" horiz-adv-x="1300" 
d="M235 1421h856v-150h-693v-388q104 13 203 13q93 0 171.5 -16.5t132.5 -43t96.5 -64t67.5 -77t41 -84t22 -82.5t6 -75t-6 -75.5t-23 -86t-44 -90t-74 -84.5t-107.5 -71.5t-149 -48t-195.5 -18.5q-185 0 -366 35l32 151q150 -32 321 -32q85 0 154.5 14t115.5 38t79 54
t51 65t26 67t8 65q0 39 -11.5 78t-41 81.5t-74.5 74.5t-119.5 52.5t-168.5 20.5q-105 0 -310 -24v701z" />
    <glyph glyph-name="six" unicode="6" horiz-adv-x="1300" 
d="M906 1432q52 0 124 -7l-12 -148q-54 6 -107 6q-96 0 -175.5 -18t-133.5 -46t-97 -70.5t-68 -83.5t-43 -93.5t-25.5 -91.5t-13.5 -86q56 63 141 100.5t187 37.5q195 0 319.5 -126.5t124.5 -323.5q0 -137 -60.5 -252.5t-174 -185t-257.5 -69.5q-41 0 -81 6t-87.5 23
t-88.5 44t-80.5 74t-67 108t-44.5 150t-17 197q0 196 41 347t108.5 245.5t164.5 155t199.5 84t223.5 23.5zM644 792q-129 0 -218.5 -89t-89.5 -227q0 -141 92.5 -251t225.5 -110q127 0 218 103.5t91 245.5q0 146 -94.5 237t-224.5 91z" />
    <glyph glyph-name="seven" unicode="7" horiz-adv-x="1300" 
d="M131 1421h1038v-107l-663 -1314h-198l652 1261h-829v160z" />
    <glyph glyph-name="eight" unicode="8" horiz-adv-x="1300" 
d="M643 1297q-103 0 -174.5 -60t-71.5 -140q0 -31 11.5 -59.5t27 -49t44 -40.5t50.5 -32t58.5 -26.5t55.5 -20.5t54 -17q54 33 85 55.5t63 52t46 61t14 67.5q0 98 -76 153.5t-187 55.5zM620 726q-138 -41 -217 -131t-79 -190q0 -112 94 -193.5t245 -81.5q140 0 226 77.5
t86 189.5q0 57 -21 105.5t-53 82t-81 61.5t-95.5 46t-104.5 34zM643 1440q209 0 318 -91.5t109 -255.5q0 -87 -49 -157t-152 -144q143 -64 212 -163.5t69 -219.5q0 -81 -33 -157t-93.5 -137t-156.5 -98t-212 -37q-138 0 -253.5 52t-183.5 146.5t-68 211.5q0 121 78 230.5
t206 170.5q-61 31 -104 72.5t-63 85.5t-28.5 79.5t-8.5 69.5q0 144 112.5 243t300.5 99z" />
    <glyph glyph-name="nine" unicode="9" horiz-adv-x="1300" 
d="M666 1441q43 0 84 -6.5t88 -24t87.5 -46t79 -75.5t65.5 -108.5t43 -150t16 -195.5q0 -194 -41 -344t-108.5 -244t-164.5 -154.5t-200 -84t-223 -23.5q-62 0 -124 6l12 148q45 -5 108 -5q78 0 144 11t115.5 29t90 47t68.5 58t50 70t35 74t23 79t14.5 77t9.5 76
q-62 -66 -147 -98.5t-174 -32.5q-190 0 -318 123.5t-128 311.5q0 198 142.5 340t352.5 142zM644 1301q-121 0 -215 -100t-94 -226q0 -129 95.5 -220t223.5 -91q127 0 217.5 88t90.5 211q0 81 -42.5 159t-117 128.5t-158.5 50.5z" />
    <glyph glyph-name="colon" unicode=":" horiz-adv-x="570" 
d="M180 210h210v-210h-210v210zM180 993h210v-210h-210v210z" />
    <glyph glyph-name="semicolon" unicode=";" horiz-adv-x="570" 
d="M200 170h180l-158 -390h-180zM180 993h210v-210h-210v210z" />
    <glyph glyph-name="less" unicode="&#x3c;" horiz-adv-x="1073" 
d="M973 1128v-155l-699 -352l699 -336v-165l-873 413v165z" />
    <glyph glyph-name="equal" unicode="=" horiz-adv-x="1400" 
d="M220 501h960v-150h-960v150zM220 954h960v-150h-960v150z" />
    <glyph glyph-name="greater" unicode="&#x3e;" horiz-adv-x="1073" 
d="M100 1128l873 -430v-165l-873 -413v165l699 336l-699 352v155z" />
    <glyph glyph-name="question" unicode="?" horiz-adv-x="1046" 
d="M311 200h200v-200h-200v200zM423 1437q214 0 333.5 -85.5t119.5 -254.5q0 -82 -21 -146.5t-54.5 -107t-74 -79t-81 -71t-74 -73.5t-54.5 -97t-21 -131h-170q0 86 21 156t55 116t75 84.5t82.5 71.5t75.5 66.5t55 80t21 102.5q0 29 -7 56.5t-28 59.5t-54.5 55t-91.5 38.5
t-134 15.5q-57 0 -127.5 -13.5t-116.5 -33.5l-52 122q139 68 323 68z" />
    <glyph glyph-name="at" unicode="@" horiz-adv-x="2100" 
d="M1054 962q126 0 246 -59l23 65h113v-716q0 -32 1 -50.5t4 -50t11.5 -51t22 -40t36.5 -30.5t54 -10q37 0 75 26t74 80t58.5 154t22.5 230q0 86 -9 161.5t-31.5 150.5t-57.5 136t-90 114t-126 89t-167.5 56.5t-213.5 20.5q-125 0 -230.5 -28t-181.5 -75t-136 -112.5
t-97 -136.5t-61.5 -151.5t-34.5 -152.5t-10 -144q0 -139 37 -257.5t100.5 -203t148.5 -144.5t182 -89t200 -29q154 0 292 67l63 -119q-175 -90 -380 -90q-61 0 -126 8t-146.5 32t-154.5 61.5t-145 102.5t-123.5 149t-83.5 207t-32 271q0 102 12.5 198t44 197t79.5 187.5
t124.5 163.5t174 131.5t232 86t294.5 31.5q148 0 268.5 -28t204.5 -74.5t147.5 -115.5t101 -142t60.5 -164t31 -171.5t8 -173.5q0 -156 -31 -276.5t-76 -188t-105 -110.5t-109 -56.5t-97 -13.5q-88 0 -153.5 47t-92.5 124q-130 -76 -270 -76q-188 0 -308 128t-120 344
q0 226 125 368t328 142zM1077 840q-143 0 -233.5 -96.5t-90.5 -268.5q0 -173 93.5 -269.5t235.5 -96.5q103 0 199 52v633q-103 46 -204 46z" />
    <glyph glyph-name="A" unicode="A" horiz-adv-x="1383" 
d="M635 1421h193l505 -1421h-172l-144 413h-586l-144 -413h-157zM724 1255l-242 -693h483z" />
    <glyph glyph-name="B" unicode="B" horiz-adv-x="1424" 
d="M460 1291v-477q19 1 66 1.5t73 1t73 4t75.5 8t69 14t66 22t54 32t44.5 43.5t26.5 57.5t10.5 73.5q0 30 -6 57t-25 58t-49 53t-82.5 37t-121.5 15h-274zM460 682v-532h265q36 0 60.5 0.5t70.5 6t78.5 15t72.5 29t64.5 46.5t41.5 69.5t17 96.5q0 133 -103 208t-277 75
q-19 0 -290 -14zM290 1421h501q73 0 133.5 -15.5t100 -39.5t70 -57t46.5 -64t26 -66t12.5 -57.5t2.5 -42.5q0 -87 -59 -173.5t-125 -111.5q132 -24 216.5 -127.5t84.5 -235.5q0 -31 -5.5 -65t-21.5 -77t-41 -82t-68 -77.5t-98.5 -66.5t-136 -45.5t-176.5 -17.5h-462v1421z
" />
    <glyph glyph-name="C" unicode="C" horiz-adv-x="1451" 
d="M986 1431q194 0 386 -76l-52 -141q-194 67 -339 67q-120 0 -222.5 -47.5t-170 -127t-105.5 -182t-38 -214.5q0 -116 40.5 -220.5t113.5 -183t181.5 -124.5t237.5 -46q154 0 321 60l52 -126q-209 -90 -416 -90q-128 0 -240 37t-195.5 103.5t-143.5 157.5t-90.5 200.5
t-30.5 230.5q0 205 85.5 368t248.5 258.5t377 95.5z" />
    <glyph glyph-name="D" unicode="D" horiz-adv-x="1606" 
d="M460 1271v-1121h207q45 0 74.5 1t80 6t87 15t83 29t82.5 46t72 69t63 95q66 127 66 309q0 126 -36.5 227.5t-97 165t-129 100.5t-143.5 50q-44 8 -133 8h-276zM730 1421q138 0 251 -27.5t189.5 -77.5t131.5 -113t85.5 -140.5t44.5 -152.5t14 -156q0 -93 -14 -179
t-48.5 -175t-88 -159.5t-138.5 -127t-193 -83.5q-56 -14 -125 -21t-114 -8t-127 -1h-308v1421h440z" />
    <glyph glyph-name="E" unicode="E" horiz-adv-x="1283" 
d="M290 0v1421h833v-150h-663v-464h608v-150h-608v-507h663v-150h-833z" />
    <glyph glyph-name="F" unicode="F" horiz-adv-x="1248" 
d="M460 1271v-464h593v-150h-593v-657h-170v1421h823v-150h-653z" />
    <glyph glyph-name="G" unicode="G" horiz-adv-x="1591" 
d="M919 1432q240 0 457 -121l-67 -127q-76 40 -177 69t-204 29q-105 0 -202.5 -39t-173.5 -109.5t-121.5 -178t-45.5 -235.5q0 -169 75 -304t207 -210t295 -75q193 0 314 116v363h-404v140h569v-558q-27 -31 -62.5 -60t-99 -67t-156.5 -61.5t-201 -23.5q-142 0 -261.5 42.5
t-200.5 113.5t-137 165.5t-82 197.5t-26 210q0 112 28.5 217.5t87.5 197.5t141.5 160.5t197.5 108t249 39.5z" />
    <glyph glyph-name="H" unicode="H" horiz-adv-x="1600" 
d="M1220 1421h170v-1421h-170v658h-760v-658h-170v1421h170v-613h760v613z" />
    <glyph glyph-name="I" unicode="I" horiz-adv-x="730" 
d="M320 1421h170v-1421h-170v1421z" />
    <glyph glyph-name="J" unicode="J" horiz-adv-x="953" 
d="M573 1421h170v-995q0 -111 -20 -185t-78 -135q-117 -123 -339 -123q-100 0 -196 24l27 142q67 -16 141 -16q61 0 109 12.5t78.5 30t52.5 46t32 51t16 55t6.5 48.5t0.5 41v1004z" />
    <glyph glyph-name="K" unicode="K" horiz-adv-x="1417" 
d="M290 1421h170v-1421h-170v1421zM1086 1421h213l-601 -678l639 -743h-219l-634 729z" />
    <glyph glyph-name="L" unicode="L" horiz-adv-x="1133" 
d="M290 1421h170v-1272h638v-149h-808v1421z" />
    <glyph glyph-name="M" unicode="M" horiz-adv-x="1884" 
d="M290 1421h240l456 -862l463 862h225v-1421h-170v1177l-437 -770h-170l-437 770v-1177h-170v1421z" />
    <glyph glyph-name="N" unicode="N" horiz-adv-x="1659" 
d="M290 1421h215l774 -1189v1189h170v-1421h-215l-774 1191v-1191h-170v1421z" />
    <glyph glyph-name="O" unicode="O" horiz-adv-x="1686" 
d="M884 1436q141 0 263.5 -49.5t212 -139.5t140.5 -224.5t51 -295.5q0 -218 -86.5 -387.5t-240 -262t-347.5 -92.5q-128 0 -245 45.5t-211 132.5t-150 227.5t-56 316.5q0 165 51 302t140 230.5t212 145t266 51.5zM875 1287q-91 0 -175 -34t-154.5 -99.5t-113 -176
t-42.5 -249.5q0 -133 39 -245.5t106 -188.5t158.5 -118t196.5 -42q71 0 139.5 21t131.5 66.5t110.5 111.5t76 163t28.5 213q0 118 -30 216t-79.5 164t-115 111.5t-135 66t-141.5 20.5z" />
    <glyph glyph-name="P" unicode="P" horiz-adv-x="1339" 
d="M290 1421h469q33 0 54.5 -0.5t62.5 -4t70 -10t68.5 -20t67.5 -31.5t58.5 -47.5t49 -65.5t30.5 -87t12 -112q0 -88 -20 -158t-51.5 -117t-81.5 -81t-99 -52.5t-115.5 -29t-119 -13.5t-121.5 -3q-68 0 -164 7v-596h-170v1421zM460 746q96 -8 182 -8q49 0 82 1t81 7t80 16.5
t68 31.5t57.5 49.5t35.5 72t14 99.5q0 58 -15 102.5t-43.5 71.5t-60 44.5t-76 25t-78 10t-79.5 2.5h-248v-525z" />
    <glyph glyph-name="Q" unicode="Q" horiz-adv-x="1706" 
d="M886 1436q299 0 482 -198t183 -527q0 -299 -150 -491l181 -179l-92 -97l-187 177q-172 -136 -415 -136q-141 0 -263 49t-213.5 139t-144 227t-52.5 305q0 166 51 303.5t140 231t212.5 145t267.5 51.5zM872 1287q-88 0 -171 -33t-154 -98.5t-114 -177t-43 -254.5
q0 -140 42 -254t114 -186.5t165 -111t197 -38.5q163 0 283 93l-315 298l105 108l306 -301q89 137 89 353q0 135 -33 242.5t-84.5 173.5t-120 109.5t-134 60t-132.5 16.5z" />
    <glyph glyph-name="R" unicode="R" horiz-adv-x="1438" 
d="M1228 1031q0 -71 -17 -135t-53 -122t-99.5 -100.5t-148.5 -62.5l401 -611h-190l-385 592h-275v-592h-171v1421h522q36 0 65 -2t74.5 -10.5t80.5 -23t73.5 -44t64 -69.5t42 -102t16.5 -139zM461 742h245q51 0 90 3.5t91.5 19t87 43t59 80t24.5 124.5q0 51 -13 92t-33 67.5
t-49 46t-56 29.5t-60 16t-54.5 7.5t-45.5 1.5h-286v-530z" />
    <glyph glyph-name="S" unicode="S" horiz-adv-x="1361" 
d="M821 1434q164 0 353 -57l-55 -155q-180 52 -312 52q-148 0 -250.5 -62.5t-102.5 -161.5q0 -55 33 -98t87 -70t123 -53.5t140.5 -48.5t140.5 -56t123 -74.5t87 -105.5t33 -147q0 -57 -18 -113.5t-60 -112t-104 -97.5t-156.5 -68t-210.5 -26t-213.5 24t-218.5 72l58 165
q250 -93 395 -93q152 0 247.5 61t95.5 163q0 68 -42.5 117.5t-110 80t-149.5 57t-163.5 57t-149 70.5t-110 108t-42.5 160q0 82 39.5 157t109.5 131.5t175 90t228 33.5z" />
    <glyph glyph-name="T" unicode="T" horiz-adv-x="1210" 
d="M85 1421h1120v-150h-475v-1271h-170v1271h-475v150z" />
    <glyph glyph-name="U" unicode="U" horiz-adv-x="1582" 
d="M290 1421h170v-921q0 -85 14.5 -146t61.5 -114q100 -113 295 -113q141 0 235.5 61.5t122.5 173.5q13 53 13 138v921h168q0 -321 0.5 -525t0.5 -261.5t0.5 -92t0.5 -57.5q0 -46 -2 -80.5t-13.5 -90.5t-31.5 -97.5t-60.5 -88.5t-96 -77.5t-142 -50.5t-195.5 -20
q-117 0 -210 24.5t-146 58.5t-91.5 82t-53 82.5t-23.5 72.5q-17 66 -17 187v934z" />
    <glyph glyph-name="V" unicode="V" horiz-adv-x="1401" 
d="M140 1421h202l406 -1241l406 1241h187l-495 -1421h-211z" />
    <glyph glyph-name="W" unicode="W" horiz-adv-x="2165" 
d="M140 1421h180l357 -1194l360 1194h171l370 -1194l347 1194h180l-438 -1421h-181l-373 1187l-349 -1187h-181z" />
    <glyph glyph-name="X" unicode="X" horiz-adv-x="1368" 
d="M1087 1421h196l-450 -675l505 -746h-220l-399 599l-399 -599h-210l513 742l-453 679h206l362 -535z" />
    <glyph glyph-name="Y" unicode="Y" horiz-adv-x="1263" 
d="M100 1421h201l362 -587l370 587h190l-484 -748v-673h-170v673z" />
    <glyph glyph-name="Z" unicode="Z" horiz-adv-x="1358" 
d="M185 1421h1086v-109l-890 -1162h917v-150h-1143v111l873 1160h-843v150z" />
    <glyph glyph-name="bracketleft" unicode="[" horiz-adv-x="758" 
d="M250 1511h458v-149h-294v-1623h294v-149h-458v1921z" />
    <glyph glyph-name="backslash" unicode="\" horiz-adv-x="726" 
d="M20 1421h170l496 -1511h-170z" />
    <glyph glyph-name="bracketright" unicode="]" horiz-adv-x="758" 
d="M50 1511h458v-1921h-458v149h294v1623h-294v149z" />
    <glyph glyph-name="asciicircum" unicode="^" horiz-adv-x="1479" 
d="M725 1541l256 -286l-93 -88l-176 196l-181 -196l-88 79z" />
    <glyph glyph-name="underscore" unicode="_" horiz-adv-x="1160" 
d="M150 150h860v-150h-860v150z" />
    <glyph glyph-name="grave" unicode="`" horiz-adv-x="1122" 
d="M345 1586l504 -310l-63 -108l-512 295z" />
    <glyph glyph-name="a" unicode="a" horiz-adv-x="1069" 
d="M507 1007q110 0 186.5 -25.5t118 -74.5t59.5 -109t18 -138v-660h-116l-38 90q-121 -110 -278 -110q-140 0 -237 84.5t-97 197.5q0 60 22 108t63.5 80t94.5 54.5t123.5 34.5t141.5 17t156 5v78q0 34 -2.5 59t-16.5 60t-38 57.5t-72 39t-114 16.5q-102 0 -264 -45l-31 120
q164 61 321 61zM724 437h-61q-57 0 -99 -2t-98.5 -11.5t-92.5 -26.5t-61.5 -49.5t-25.5 -77.5q0 -63 63.5 -112t151.5 -49q129 0 223 101v227z" />
    <glyph glyph-name="b" unicode="b" horiz-adv-x="1183" 
d="M190 1511h164v-570q129 67 264 67q60 0 118 -14.5t116.5 -51t102.5 -91.5t71.5 -144t27.5 -201q0 -244 -129.5 -385t-335.5 -141q-135 0 -265 66l-20 -46h-114v1511zM562 872q-107 0 -208 -53v-664q107 -46 211 -46q46 0 89 10t87.5 36.5t77.5 66.5t54 106t21 149
q0 94 -22 166.5t-56 114.5t-80 69t-88 36t-86 9z" />
    <glyph glyph-name="c" unicode="c" horiz-adv-x="1001" 
d="M130 471q0 117 28 210.5t74.5 153t109.5 99t129 56t138 16.5q142 0 277 -59l-40 -120q-111 38 -217 38q-52 0 -98 -9.5t-91.5 -34.5t-78 -64.5t-52.5 -103.5t-20 -147q0 -91 21 -160.5t55 -112.5t81.5 -70t96 -37.5t104.5 -10.5q94 0 188 33l40 -113q-142 -55 -285 -55
q-66 0 -126.5 13t-123 47.5t-108 87.5t-74 141.5t-28.5 201.5z" />
    <glyph glyph-name="d" unicode="d" horiz-adv-x="1188" 
d="M130 477q0 128 36 230t99 167t147.5 99.5t182.5 34.5q118 0 239 -53v556h164v-1511h-114l-27 62q-139 -82 -290 -82q-62 0 -121 15t-117 52t-101.5 92.5t-70.5 142.5t-27 195zM621 115q109 0 213 56v660q-107 48 -215 48q-46 0 -89 -10t-88 -36t-77.5 -67t-53.5 -108.5
t-21 -154.5q0 -90 22 -160.5t56 -112.5t80 -69t88 -36.5t85 -9.5z" />
    <glyph glyph-name="e" unicode="e" horiz-adv-x="1102" 
d="M605 1007q72 0 129.5 -17.5t95.5 -44.5t65.5 -70.5t42 -84t22.5 -97.5t10 -99t2 -99v-78h-679q0 -54 24.5 -107.5t69 -98t117 -72.5t160.5 -28q104 0 225 36l29 -112q-161 -55 -316 -55q-109 0 -193.5 29t-136 75.5t-84.5 111.5t-45.5 129.5t-12.5 136.5q0 111 27 203
t73 154.5t107.5 105.5t129 62.5t138.5 19.5zM570 865q-88 0 -151.5 -48.5t-92.5 -120.5t-29 -155h516q0 324 -243 324z" />
    <glyph glyph-name="f" unicode="f" horiz-adv-x="820" 
d="M662 1292q-59 0 -102 -16.5t-64.5 -38t-34 -52t-15 -50t-2.5 -40.5v-107h331v-129h-331v-859h-166v859h-143v129h143v100q0 130 39 198q39 69 115 106t176 37q107 0 237 -39l-25 -122q-93 24 -158 24z" />
    <glyph glyph-name="g" unicode="g" horiz-adv-x="1176" 
d="M587 1008q118 0 273 -79l21 59h115v-1050q0 -30 -2 -58t-12 -79t-28 -93t-54.5 -90.5t-86 -81.5t-128 -55t-175.5 -22q-153 0 -306 64l46 119q123 -46 239 -46q343 0 343 379v73q-129 -68 -261 -68q-64 0 -125 16.5t-119.5 55t-102 96t-70 146t-26.5 197.5
q0 115 32 207.5t81 148.5t112.5 94t121.5 52.5t112 14.5zM597 875q-139 0 -224 -100t-85 -265q0 -110 35 -198t111 -142.5t183 -54.5q109 0 215 57v647q-137 56 -235 56z" />
    <glyph glyph-name="h" unicode="h" horiz-adv-x="1191" 
d="M618 860q-117 0 -264 -77v-783h-164v1511h164v-598q175 93 328 93q66 0 118.5 -17t86.5 -42.5t58.5 -66t37 -76t19 -84.5t8 -80t1.5 -73v-567h-168v597q0 263 -225 263z" />
    <glyph glyph-name="i" unicode="i" horiz-adv-x="524" 
d="M165 1421h194v-189h-194v189zM180 988h164v-988h-164v988z" />
    <glyph glyph-name="j" unicode="j" horiz-adv-x="524" 
d="M165 1421h194v-189h-194v189zM180 988h164v-1125q0 -32 -1 -52.5t-6 -57t-14.5 -63.5t-29 -62t-47 -61.5t-70 -53.5t-96.5 -47l-62 124q162 77 162 256v1142z" />
    <glyph glyph-name="k" unicode="k" horiz-adv-x="1073" 
d="M180 1511h164v-1511h-164v1511zM796 1008h181l-430 -445l456 -563h-197l-446 546z" />
    <glyph glyph-name="l" unicode="l" horiz-adv-x="564" 
d="M200 1511h164v-1511h-164v1511z" />
    <glyph glyph-name="m" unicode="m" horiz-adv-x="1734" 
d="M575 856q-86 0 -231 -76v-780h-164v988h115l35 -82q179 101 310 101q151 0 237 -110q196 109 351 109q75 0 132 -20.5t92.5 -56t58 -89t31 -113t8.5 -134.5v-593h-164v604q0 18 -1 33.5t-5 43t-12 49t-23.5 46.5t-37.5 41.5t-56 27.5t-76 11q-92 0 -243 -78
q14 -59 14 -192v-586h-164v608q0 26 -2 49.5t-14 62.5t-32 66.5t-61.5 48.5t-97.5 21z" />
    <glyph glyph-name="n" unicode="n" horiz-adv-x="1176" 
d="M180 988h115l36 -84q191 104 348 104q81 0 141 -25.5t93 -64t52.5 -97t25 -111.5t5.5 -121v-589h-164v600q0 260 -224 260q-116 0 -264 -77v-783h-164v988z" />
    <glyph glyph-name="o" unicode="o" horiz-adv-x="1211" 
d="M611 1007q205 0 337.5 -131t132.5 -362q0 -245 -135.5 -389.5t-350.5 -144.5q-205 0 -335 135.5t-130 367.5q0 239 132.5 381.5t348.5 142.5zM597 867q-123 0 -215 -95t-92 -261q0 -165 90 -278t233 -113q132 0 220 100t88 261q0 92 -28.5 167t-75 122t-103.5 72t-117 25
z" />
    <glyph glyph-name="p" unicode="p" 
d="M612 1007q61 0 119 -14.5t116.5 -51t102 -92t71 -144.5t27.5 -200q0 -243 -129.5 -384t-335.5 -141q-118 0 -239 53v-564h-164v1519h114l27 -63q140 82 291 82zM556 871q-109 0 -212 -55v-659q107 -48 215 -48q46 0 89 10t87.5 36.5t77.5 66.5t54 106t21 149
q0 94 -22 166t-56 114t-80 69t-88 36t-86 9z" />
    <glyph glyph-name="q" unicode="q" horiz-adv-x="1176" 
d="M587 1008q118 0 273 -79l21 59h115v-1519h-164v580q-131 -69 -268 -69q-62 0 -120.5 15t-117 52.5t-101.5 93.5t-70 145.5t-27 201.5q0 128 40 230t106.5 163.5t146.5 94t166 32.5zM597 875q-140 0 -224.5 -100t-84.5 -271q0 -88 21 -157.5t54.5 -112t78.5 -70t88.5 -38
t89.5 -10.5q109 0 212 55v648q-137 56 -235 56z" />
    <glyph glyph-name="r" unicode="r" horiz-adv-x="801" 
d="M326 914q125 93 276 93q104 0 189 -39l-50 -131q-78 30 -162 30q-125 0 -235 -69v-798h-164v988h115z" />
    <glyph glyph-name="s" unicode="s" horiz-adv-x="1016" 
d="M590 1007q21 0 39.5 -0.5t36 -2.5t30 -3t29 -4t24 -4.5t25 -6t21.5 -5.5t23.5 -7t22.5 -7l-42 -125q-134 37 -236 37q-59 0 -104.5 -12t-70 -29t-40 -39.5t-20 -39.5t-4.5 -33q0 -41 42.5 -73t106 -52t137.5 -47.5t137.5 -58t106 -85.5t42.5 -127q0 -41 -10.5 -79.5
t-40 -80.5t-76 -72.5t-124.5 -50.5t-179 -20q-153 0 -336 75l46 124q103 -38 168.5 -54t128.5 -16q244 0 244 155q0 34 -24 60t-64 42.5t-90.5 34t-103 32.5t-103 39.5t-90.5 54t-64 76.5t-24 106q0 36 11.5 73.5t43 79t78.5 73t125.5 52t177.5 20.5z" />
    <glyph glyph-name="t" unicode="t" horiz-adv-x="775" 
d="M705 17q-145 -37 -226 -37t-137 26t-85 74t-41.5 103.5t-12.5 127.5v548h-133v129h133v283h164v-283h301v-129h-301v-546q0 -205 162 -205q29 0 153 21z" />
    <glyph glyph-name="u" unicode="u" 
d="M833 988h164v-988h-115l-35 83q-189 -103 -349 -103q-81 0 -141 25.5t-93 63.5t-53 96.5t-25.5 111.5t-5.5 121v590h164v-602q0 -259 225 -259q116 0 264 77v784z" />
    <glyph glyph-name="v" unicode="v" horiz-adv-x="993" 
d="M928 988l-347 -988h-170l-346 988h180l256 -825l257 825h170z" />
    <glyph glyph-name="w" unicode="w" horiz-adv-x="1685" 
d="M60 988h175l268 -829l254 829h161l264 -828l268 828h175l-361 -988h-165l-263 801l-260 -801h-165z" />
    <glyph glyph-name="x" unicode="x" horiz-adv-x="1048" 
d="M65 988h190l279 -392l269 392h175l-364 -504l345 -484h-190l-265 371l-252 -371h-175l346 485z" />
    <glyph glyph-name="y" unicode="y" horiz-adv-x="1060" 
d="M50 988h180l316 -838l294 838h170l-570 -1519h-175l198 482z" />
    <glyph glyph-name="z" unicode="z" horiz-adv-x="1078" 
d="M150 988h753v-87l-540 -772h565v-129h-778v87l538 772h-538v129z" />
    <glyph glyph-name="braceleft" unicode="{" horiz-adv-x="798" 
d="M90 618q93 16 159 89t84 209q4 32 8.5 91.5t5.5 72.5q10 105 43.5 185.5t73.5 124t91.5 72.5t87 37.5t69.5 11.5l30 -129q-56 -7 -105 -39.5t-81 -80.5q-30 -45 -45.5 -109t-18 -125t-11 -131t-22.5 -130t-53.5 -118.5t-103.5 -99.5q75 -49 116.5 -121t53.5 -150
t16.5 -154.5t19 -155.5t48.5 -131q32 -48 81 -80.5t105 -39.5l-30 -129q-31 2 -65 10.5t-86 36t-93 70t-76 121t-45 180.5q-2 22 -5.5 69.5t-6 78t-11.5 75.5t-22 77t-38 66.5t-60 59.5q-51 37 -114 48v138z" />
    <glyph glyph-name="bar" unicode="|" horiz-adv-x="884" 
d="M360 1601h164v-1909h-164v1909z" />
    <glyph glyph-name="braceright" unicode="}" horiz-adv-x="798" 
d="M86 1511q34 -3 69.5 -11.5t87 -37.5t91.5 -72.5t73.5 -124t43.5 -185.5q1 -13 5.5 -72.5t8.5 -91.5q18 -136 84 -209t159 -89v-138q-63 -11 -114 -48q-35 -25 -60 -59.5t-38 -66.5t-22 -77t-11.5 -75.5t-6 -78t-5.5 -69.5q-10 -102 -45 -180.5t-76 -121t-93 -70t-86 -36
t-65 -10.5l-30 129q56 7 105 39.5t81 80.5q34 52 48.5 131t19 155.5t16.5 154.5t53.5 150t116.5 121q-64 41 -103.5 99.5t-53.5 118.5t-22.5 130t-11 131t-18 125t-45.5 109q-32 48 -81 80.5t-105 39.5z" />
    <glyph glyph-name="asciitilde" unicode="~" horiz-adv-x="1400" 
d="M876 1361q12 0 22.5 3.5t18.5 11t14.5 15t12 21t9 23.5t7.5 27.5t6 27t5.5 28.5t4.5 27l108 -17q-2 -9 -8 -41t-9 -44.5t-10 -42t-14 -43t-18 -36.5t-24 -34.5t-30.5 -24.5t-40 -18t-48.5 -5q-44 0 -85.5 18.5t-72 45.5t-57.5 54t-53.5 45.5t-49.5 18.5q-12 0 -22.5 -3
t-19 -11.5t-14.5 -15t-12 -21t-9 -22.5t-7.5 -27t-6 -26t-5 -28t-4.5 -26l-108 15q2 8 8 40.5t9 44.5t10 42t14 43t18 36t24 34t30.5 24t40 18t48.5 5q44 0 85.5 -18.5t72 -45.5t57.5 -54t53.5 -45.5t49.5 -18.5z" />
    <glyph glyph-name="uni00A0" unicode="&#xa0;" horiz-adv-x="560" 
 />
    <glyph glyph-name="exclamdown" unicode="&#xa1;" horiz-adv-x="650" 
d="M240 863h170v-1273h-170v1273zM225 1321h200v-200h-200v200z" />
    <glyph glyph-name="cent" unicode="&#xa2;" horiz-adv-x="1021" 
d="M150 713q0 217 102 356t291 167v275h121v-270q108 0 242 -58l-40 -120q-111 38 -217 38q-165 0 -252.5 -91.5t-87.5 -262.5q0 -89 22 -158.5t56.5 -111.5t83 -69.5t96.5 -37.5t102 -10q92 0 186 33l40 -113q-130 -51 -231 -51v-294h-121v294q-176 20 -284.5 140.5
t-108.5 343.5z" />
    <glyph glyph-name="sterling" unicode="&#xa3;" horiz-adv-x="1300" 
d="M152 135h244v527h-176v135h176v141q0 114 29.5 202t77 142t113 88.5t130 47.5t136.5 13q116 0 235 -38l-48 -122q-89 24 -165 24q-66 0 -118.5 -13.5t-88 -35.5t-61.5 -54.5t-40.5 -64.5t-22.5 -73t-10.5 -73t-2.5 -70v-114h530v-135h-530v-527h588v-135h-996v135z" />
    <glyph glyph-name="currency" unicode="&#xa4;" horiz-adv-x="1300" 
d="M650 1087q94 0 173 -47l166 165l125 -125l-166 -165q47 -81 47 -173q0 -94 -47 -173l165 -165l-125 -125l-165 165q-81 -48 -174 -48t-172 47l-166 -166l-125 125l166 166q-48 79 -48 173q0 93 48 174l-167 167l125 125l167 -167q81 47 173 47zM650 946q-82 0 -141 -59.5
t-59 -145.5q0 -84 58 -144t141 -60q82 0 141 60t59 144q0 86 -58.5 145.5t-140.5 59.5z" />
    <glyph glyph-name="yen" unicode="&#xa5;" horiz-adv-x="1300" 
d="M143 1421h185l322 -603l332 603h175l-427 -722h282v-125h-289v-200h289v-125h-289v-249h-160v249h-275v125h275v200h-275v125h268z" />
    <glyph glyph-name="brokenbar" unicode="&#xa6;" horiz-adv-x="884" 
d="M360 460h164v-768h-164v768zM360 1601h164v-764h-164v764z" />
    <glyph glyph-name="section" unicode="&#xa7;" horiz-adv-x="1136" 
d="M651 1434q28 0 53 -1t48 -4t38 -5t37.5 -7.5t30.5 -7.5t33 -9t31 -9l-45 -131q-125 39 -251 39q-108 0 -180 -40t-72 -111q0 -42 33 -74t86 -54.5t117 -43.5t128.5 -46t117.5 -56t86 -80t33 -112q0 -123 -84 -208q83 -68 83 -168q0 -43 -11 -84.5t-42.5 -86.5t-79.5 -78
t-130 -55t-187 -22h-13q-186 0 -351 65l46 124q171 -60 304 -60q276 0 276 177q0 43 -32.5 75t-84.5 52t-115 38.5t-126.5 41.5t-115.5 54t-84.5 83.5t-32.5 121.5q0 108 88 192q-88 71 -88 183q0 40 13 79.5t46.5 81.5t83.5 73.5t131 52t182 20.5zM424 870q-50 -40 -50 -99
q0 -35 20.5 -62t63 -48.5t81 -36t103 -35.5t101.5 -35q43 42 43 108q0 30 -16 55t-40 41.5t-63.5 32.5t-74 26t-84.5 25.5t-84 27.5z" />
    <glyph glyph-name="dieresis" unicode="&#xa8;" horiz-adv-x="1200" 
d="M283 1421h185v-186h-185v186zM732 1421h185v-186h-185v186z" />
    <glyph glyph-name="copyright" unicode="&#xa9;" horiz-adv-x="1760" 
d="M906 1055q104 0 201 -43l-30 -87q-79 28 -158 28q-48 0 -88 -12t-77 -39t-58 -80t-21 -128q0 -80 22 -136.5t60.5 -86t81 -42.5t93.5 -13q67 0 137 24l30 -82q-101 -39 -204 -39q-47 0 -91 9.5t-89.5 34t-79 63t-54.5 102.5t-21 145q0 103 30 180t81.5 119.5t110 62.5
t124.5 20zM880 1248q-119 0 -226 -45.5t-184 -122t-122 -180.5t-45 -217t45 -217t122 -180.5t184 -122t226 -45.5t226 45.5t184 122t122 180.5t45 217t-45 217t-122 180.5t-184 122t-226 45.5zM880 1380q146 0 278.5 -56.5t226.5 -151t149.5 -222.5t55.5 -267t-55.5 -267
t-149.5 -222.5t-226.5 -151t-278.5 -56.5t-278.5 56.5t-226.5 151t-149.5 222.5t-55.5 267q0 137 54.5 264.5t147.5 222.5t226 152.5t282 57.5z" />
    <glyph glyph-name="ordfeminine" unicode="&#xaa;" horiz-adv-x="766" 
d="M523 1102v23q0 134 -142 134q-81 0 -170 -27l-18 71q99 36 199 36q64 0 110 -16.5t68.5 -37.5t34.5 -54t14 -52.5t2 -47.5v-371h-70l-22 54q-67 -72 -150 -72q-91 0 -147.5 45.5t-56.5 127.5q0 112 81.5 149.5t266.5 37.5zM523 1019h-28q-44 0 -75 -2.5t-69 -11.5
t-58.5 -31.5t-20.5 -56.5q0 -36 34 -65.5t88 -29.5q76 0 129 80v117z" />
    <glyph glyph-name="guillemotleft" unicode="&#xab;" horiz-adv-x="936" 
d="M701 988h185l-274 -365l274 -365h-185l-255 365zM330 988h185l-274 -365l274 -365h-185l-255 365z" />
    <glyph glyph-name="logicalnot" unicode="&#xac;" horiz-adv-x="1400" 
d="M125 732h1150v-450h-148v301h-1002v149z" />
    <glyph glyph-name="uni00AD" unicode="&#xad;" horiz-adv-x="1074" 
d="M220 728h634v-139h-634v139z" />
    <glyph glyph-name="registered" unicode="&#xae;" horiz-adv-x="1232" 
d="M649 1320q23 0 39 -2t41.5 -8.5t46 -25t34.5 -47.5q16 -34 16 -79q0 -125 -105 -160l112 -222h-100l-101 208h-112v-208h-93v544h222zM616 1561q142 0 263 -69t192 -188.5t71 -260.5q0 -106 -42 -202t-113 -165t-168 -110t-203 -41q-144 0 -265.5 71t-191 190t-69.5 257
q0 106 42 202t113 165t168 110t203 41zM616 1450q-173 0 -294 -120t-121 -287q0 -166 121 -286.5t294 -120.5t294 120.5t121 286.5t-121 286.5t-294 120.5zM616 1240h-96v-179q47 0 63 -0.5t28 -0.5q59 0 93 18.5t34 68.5q0 25 -8.5 43.5t-20.5 27.5t-30.5 14.5t-31.5 6.5
t-31 1z" />
    <glyph glyph-name="macron" unicode="&#xaf;" horiz-adv-x="1400" 
d="M285 1640h830v-149h-830v149z" />
    <glyph glyph-name="degree" unicode="&#xb0;" horiz-adv-x="589" 
d="M295 1368q-55 0 -92.5 -39.5t-37.5 -93.5t36.5 -94t93.5 -40q54 0 90.5 40.5t36.5 93.5t-36.5 93t-90.5 40zM294 1459q90 0 155 -65.5t65 -158.5t-64.5 -159t-154.5 -66t-155 65.5t-65 159.5q0 93 64.5 158.5t154.5 65.5z" />
    <glyph glyph-name="plusminus" unicode="&#xb1;" horiz-adv-x="1400" 
d="M220 287h960v-137h-960v137zM627 1421h146v-412h407v-137h-407v-411h-146v411h-407v137h407v412z" />
    <glyph glyph-name="uni00B2" unicode="&#xb2;" horiz-adv-x="800" 
d="M370 1524q105 0 175.5 -55.5t70.5 -143.5q0 -43 -18.5 -83t-47.5 -69.5t-66.5 -65t-73 -67.5t-70 -79t-54.5 -98h343v-105h-482v65q22 69 58 131t74 104t78 80.5t70.5 65.5t50.5 55t20 52q0 43 -42 76.5t-102 33.5q-58 0 -187 -51l-37 91q126 63 240 63z" />
    <glyph glyph-name="uni00B3" unicode="&#xb3;" horiz-adv-x="800" 
d="M139 1462q123 59 220 59q98 0 163.5 -52t65.5 -131q0 -50 -23 -92t-62 -67q116 -47 116 -174q0 -114 -83 -184.5t-209 -70.5q-95 0 -202 44l33 96q112 -31 172 -31q72 0 122.5 36.5t50.5 92.5q0 41 -21 68t-59 38.5t-70.5 15.5t-75.5 4v103q111 0 153.5 32t42.5 75
q0 37 -33.5 63.5t-91.5 26.5q-70 0 -170 -46z" />
    <glyph glyph-name="acute" unicode="&#xb4;" horiz-adv-x="1122" 
d="M778 1585l70 -123l-512 -295l-62 108z" />
    <glyph glyph-name="uni00B5" unicode="&#xb5;" horiz-adv-x="1187" 
d="M190 988h164v-558q0 -29 2 -54.5t9 -65.5t23.5 -72t42 -62t68.5 -47t98 -17q89 0 246 77v799h164v-988h-115l-29 67q-147 -94 -293 -94q-126 0 -216 80v-463h-164v1398z" />
    <glyph glyph-name="paragraph" unicode="&#xb6;" horiz-adv-x="1338" 
d="M601 1511h547v-1511h-170v1361h-240v-1361h-171v686q-33 0 -67.5 4t-78.5 16.5t-83.5 32.5t-78 55t-66.5 80t-45.5 112t-17.5 147q0 61 12 111.5t30.5 87t48.5 65.5t58 47.5t67.5 32t68.5 20t69.5 10t62.5 4t54 0.5z" />
    <glyph glyph-name="periodcentered" unicode="&#xb7;" horiz-adv-x="590" 
d="M190 838h210v-210h-210v210z" />
    <glyph glyph-name="cedilla" unicode="&#xb8;" horiz-adv-x="1101" 
d="M718 -325q0 15 -4 27.5t-16.5 22.5t-23 17t-35 16t-40.5 14t-52.5 15.5t-57.5 17.5l58 217h127l-40 -157q2 -1 16 -5l21 -6t23 -8t25 -11t24 -13.5t24 -17.5t19.5 -22t17 -26.5t10.5 -31.5t4 -38q0 -71 -55 -127t-149 -56q-21 0 -45.5 3.5t-52.5 10.5t-46 12t-48 14
t-36 11l26 91q157 -47 206 -47q46 0 73 22.5t27 54.5z" />
    <glyph glyph-name="uni00B9" unicode="&#xb9;" horiz-adv-x="543" 
d="M251 1511h92v-751h-113v643l-145 -41l-25 97z" />
    <glyph glyph-name="ordmasculine" unicode="&#xba;" horiz-adv-x="762" 
d="M380 1416q-37 0 -70 -12.5t-63 -41t-48 -83t-18 -130.5q0 -72 13.5 -127t34 -86.5t48.5 -51t53 -26t52 -6.5q36 0 67.5 12.5t63 42t50 90t18.5 145.5q0 67 -13 117.5t-33.5 79.5t-48.5 47t-53 24t-53 6zM382 1519q40 0 77.5 -7.5t82 -32t77 -63.5t54.5 -109t22 -162
q0 -182 -89.5 -287.5t-225.5 -105.5q-63 0 -116.5 19.5t-99 63t-71.5 123t-26 188.5q0 91 27 164t72 117.5t100.5 68t115.5 23.5z" />
    <glyph glyph-name="guillemotright" unicode="&#xbb;" horiz-adv-x="936" 
d="M236 988l254 -365l-255 -365h-185l274 365l-274 365h186zM607 988l254 -365l-255 -365h-185l274 365l-274 365h186z" />
    <glyph glyph-name="onequarter" unicode="&#xbc;" horiz-adv-x="1800" 
d="M1180 1421h175l-820 -1421h-176zM341 1421h112v-803h-133v673l-140 -39l-30 117zM1391 836h157v-531h107v-110h-107v-195h-133v195h-390v89zM1415 688l-241 -383h241v383z" />
    <glyph glyph-name="onehalf" unicode="&#xbd;" horiz-adv-x="1847" 
d="M1180 1421h175l-820 -1421h-176zM341 1421h112v-813h-133v683l-140 -39l-30 117zM1402 842q115 0 193 -60.5t78 -157.5q0 -56 -28 -106t-73 -92t-92.5 -84t-96 -101t-74.5 -125h378v-116h-531v72q28 90 78.5 168.5t102 129t99 92.5t77.5 78.5t30 67.5q0 47 -46 83.5
t-113 36.5q-65 0 -204 -55l-42 100q142 69 264 69z" />
    <glyph glyph-name="threequarters" unicode="&#xbe;" horiz-adv-x="1950" 
d="M1340 1421h175l-820 -1421h-176zM1541 836h157v-531h107v-110h-107v-195h-133v195h-390v89zM1565 688l-241 -383h241v383zM209 1385q132 65 243 65q108 0 179.5 -57.5t71.5 -144.5q0 -55 -25 -101t-68 -74q128 -53 128 -191q0 -125 -91.5 -203t-230.5 -78q-100 0 -222 49
l37 106q128 -35 189 -35q78 0 134 39.5t56 101.5q0 140 -249 140v113q65 0 110.5 11.5t67 30.5t30 37.5t8.5 38.5q0 40 -37 69.5t-100 29.5q-79 0 -187 -51z" />
    <glyph glyph-name="questiondown" unicode="&#xbf;" horiz-adv-x="1047" 
d="M354 988h170q0 -101 21 -178t54.5 -124.5t74 -86t81 -71t74 -68.5t54.5 -91.5t21 -127.5q0 -105 -67.5 -195.5t-161.5 -138.5t-184 -48q-104 0 -187 22t-176 66l52 122q169 -69 285 -69q128 0 201 66.5t73 158.5q0 43 -13 78t-35.5 60.5t-51.5 49.5t-61 50t-63.5 55.5
t-60.5 72.5t-51.5 96t-35.5 130.5t-13 170.5zM339 1421h200v-201h-200v201z" />
    <glyph glyph-name="Agrave" unicode="&#xc0;" horiz-adv-x="1383" 
d="M635 1421h193l505 -1421h-172l-144 413h-586l-144 -413h-157zM724 1255l-242 -693h483zM526 1929l504 -310l-62 -108l-512 295z" />
    <glyph glyph-name="Aacute" unicode="&#xc1;" horiz-adv-x="1383" 
d="M635 1421h193l505 -1421h-172l-144 413h-586l-144 -413h-157zM724 1255l-242 -693h483zM934 1929l70 -123l-512 -295l-62 108z" />
    <glyph glyph-name="Acircumflex" unicode="&#xc2;" horiz-adv-x="1383" 
d="M635 1421h193l505 -1421h-172l-144 413h-586l-144 -413h-157zM724 1255l-242 -693h483zM751 1924l256 -286l-93 -88l-176 196l-181 -195l-88 78z" />
    <glyph glyph-name="Atilde" unicode="&#xc3;" horiz-adv-x="1383" 
d="M1008 1878l108 -17q-2 -11 -7 -37t-7.5 -39.5t-8.5 -38t-11.5 -38.5t-14.5 -35t-18.5 -33t-23.5 -26.5t-29.5 -22t-36 -12.5t-44.5 -5q-44 0 -85.5 18.5t-72 45t-57.5 53t-53.5 45t-49.5 18.5q-12 0 -22.5 -3t-18.5 -10.5t-14.5 -14.5t-12 -20.5t-9 -22.5t-7.5 -26.5
t-6 -26.5t-6 -28.5t-5 -27.5l-108 15q2 8 8 40.5t9 44.5t10 42t14 43t18 36t24 34t30.5 24t40 18t48.5 5q44 0 85.5 -18.5t72 -45t57.5 -53t53.5 -45t49.5 -18.5q14 0 25.5 5t19.5 11.5t15.5 20t11.5 23.5t9 29t7 29.5t6 33t6 30.5zM724 1255l-242 -693h483zM635 1421h193
l505 -1421h-172l-144 413h-586l-144 -413h-157z" />
    <glyph glyph-name="Adieresis" unicode="&#xc4;" horiz-adv-x="1383" 
d="M635 1421h193l505 -1421h-172l-144 413h-586l-144 -413h-157zM724 1255l-242 -693h483zM416 1897h185v-185h-185v185zM864 1897h185v-185h-185v185z" />
    <glyph glyph-name="Aring" unicode="&#xc5;" horiz-adv-x="1383" 
d="M733 1873q108 0 186.5 -74.5t78.5 -180.5q0 -77 -43.5 -140.5t-113.5 -94.5l492 -1383h-172l-144 413h-586l-144 -413h-157l492 1385q-68 31 -110 94t-42 139q0 106 77.5 180.5t185.5 74.5zM735 1769q-67 0 -112 -44.5t-45 -106.5q0 -61 44.5 -107t112.5 -46
q65 0 108.5 46t43.5 107t-43.5 106t-108.5 45zM724 1255l-242 -693h483z" />
    <glyph glyph-name="AE" unicode="&#xc6;" horiz-adv-x="1915" 
d="M510 562h457v709h-183zM685 1421h1070v-150h-618v-464h563v-150h-563v-507h618v-150h-788v414h-515l-160 -414h-162z" />
    <glyph glyph-name="Ccedilla" unicode="&#xc7;" horiz-adv-x="1451" 
d="M1098 -316q0 -76 -59 -133t-153 -57q-37 0 -75 8t-163 45l30 104q164 -50 215 -50q43 0 67.5 21t24.5 50q0 41 -36 60.5t-139 49.5q-39 11 -60 17l55 199q-246 54 -388 249.5t-142 461.5q0 205 85.5 368t248.5 258.5t377 95.5q194 0 386 -76l-52 -141q-194 67 -339 67
q-120 0 -222.5 -47.5t-170 -127t-105.5 -182t-38 -214.5q0 -116 40.5 -220.5t113.5 -183t181.5 -124.5t237.5 -46q154 0 321 60l52 -126q-209 -90 -416 -90h-28l-29 -115l11 -3q11 -3 20 -6t24.5 -8.5t28 -13t28 -17.5t26.5 -23t21 -29t15.5 -37t5.5 -44z" />
    <glyph glyph-name="Egrave" unicode="&#xc8;" horiz-adv-x="1283" 
d="M290 1421h833v-150h-663v-464h608v-150h-608v-507h663v-150h-833v1421zM479 1929l504 -310l-63 -108l-512 295z" />
    <glyph glyph-name="Eacute" unicode="&#xc9;" horiz-adv-x="1283" 
d="M290 1421h833v-150h-663v-464h608v-150h-608v-507h663v-150h-833v1421zM952 1929l70 -123l-512 -295l-62 108z" />
    <glyph glyph-name="Ecircumflex" unicode="&#xca;" horiz-adv-x="1283" 
d="M290 1421h833v-150h-663v-464h608v-150h-608v-507h663v-150h-833v1421zM720 1932l256 -286l-94 -88l-175 196l-181 -195l-88 78z" />
    <glyph glyph-name="Edieresis" unicode="&#xcb;" horiz-adv-x="1283" 
d="M290 1421h833v-150h-663v-464h608v-150h-608v-507h663v-150h-833v1421zM390 1898h185v-185h-185v185zM838 1898h185v-185h-185v185z" />
    <glyph glyph-name="Igrave" unicode="&#xcc;" horiz-adv-x="730" 
d="M320 1421h170v-1421h-170v1421zM207 1927l504 -310l-63 -106l-512 293z" />
    <glyph glyph-name="Iacute" unicode="&#xcd;" horiz-adv-x="730" 
d="M320 1421h170v-1421h-170v1421zM555 1930l70 -123l-512 -296l-62 109z" />
    <glyph glyph-name="Icircumflex" unicode="&#xce;" horiz-adv-x="730" 
d="M320 1421h170v-1421h-170v1421zM392 1924l256 -286l-94 -88l-175 196l-181 -195l-88 78z" />
    <glyph glyph-name="Idieresis" unicode="&#xcf;" horiz-adv-x="670" 
d="M290 1421h170v-1421h-170v1421zM88 1824h185v-185h-185v185zM477 1824h185v-185h-185v185z" />
    <glyph glyph-name="Eth" unicode="&#xd0;" horiz-adv-x="1605" 
d="M335 1421h435q37 0 71 -1.5t90 -9t104 -20t107 -37t106.5 -57.5t94 -84.5t78 -115t51 -151.5t19.5 -191q0 -117 -19.5 -215.5t-51.5 -170.5t-80 -130t-97 -95.5t-111.5 -65.5t-114.5 -42t-115.5 -22.5t-105 -10.5t-90.5 -2h-371v658h-218v150h218v613zM505 1271v-463h256
v-150h-256v-508h207q45 0 82.5 2t87.5 9t91 18.5t87.5 33t82.5 50.5t70.5 72.5t57 97.5t36 127.5t13.5 159.5q0 77 -14 148.5t-52 146.5t-96.5 130.5t-155.5 90.5t-221 35h-276z" />
    <glyph glyph-name="Ntilde" unicode="&#xd1;" horiz-adv-x="1659" 
d="M733 1876q44 0 85.5 -18.5t72 -45t57.5 -53t53.5 -45t49.5 -18.5q12 0 22.5 3t18.5 10.5t14.5 15t12 21t9.5 22.5t7.5 26.5t5.5 27t5.5 29t5.5 27.5l108 -17q-2 -8 -8 -40.5t-9 -44.5t-10 -42t-14 -43t-18 -36t-24 -34t-30.5 -24t-40 -18t-48.5 -5q-44 0 -85.5 18.5
t-72 45t-57.5 53t-53.5 45t-49.5 18.5q-14 0 -25.5 -5t-19.5 -11.5t-15.5 -20t-11.5 -23.5t-9 -29t-7 -29.5t-6 -33t-6 -30.5l-108 17q2 11 7 37t7.5 39.5t8.5 38t11.5 38.5t14.5 35t18.5 33t23.5 26.5t29.5 22t36 12.5t44.5 5zM290 1421h215l774 -1189v1189h170v-1421h-215
l-774 1191v-1191h-170v1421z" />
    <glyph glyph-name="Ograve" unicode="&#xd2;" horiz-adv-x="1686" 
d="M884 1436q141 0 263.5 -49.5t212 -139.5t140.5 -224.5t51 -295.5q0 -218 -86.5 -387.5t-240 -262t-347.5 -92.5q-128 0 -245 45.5t-211 132.5t-150 227.5t-56 316.5q0 165 51 302t140 230.5t212 145t266 51.5zM1376 709q0 118 -30 215.5t-79.5 163.5t-115 112t-136 66.5
t-143.5 20.5q-70 0 -137.5 -20.5t-130.5 -65t-110 -108.5t-75.5 -158t-28.5 -207q0 -133 39 -245.5t106 -188.5t158.5 -118t196.5 -42q71 0 139.5 21t131.5 66.5t110.5 111.5t76 163t28.5 213zM737 1932l504 -310l-63 -108l-512 295z" />
    <glyph glyph-name="Oacute" unicode="&#xd3;" horiz-adv-x="1686" 
d="M884 1436q141 0 263.5 -49.5t212 -139.5t140.5 -224.5t51 -295.5q0 -218 -86.5 -387.5t-240 -262t-347.5 -92.5q-128 0 -245 45.5t-211 132.5t-150 227.5t-56 316.5q0 165 51 302t140 230.5t212 145t266 51.5zM1376 709q0 118 -30 215.5t-79.5 163.5t-115 112t-136 66.5
t-143.5 20.5q-70 0 -137.5 -20.5t-130.5 -65t-110 -108.5t-75.5 -158t-28.5 -207q0 -133 39 -245.5t106 -188.5t158.5 -118t196.5 -42q71 0 139.5 21t131.5 66.5t110.5 111.5t76 163t28.5 213zM1107 1930l70 -123l-512 -296l-62 109z" />
    <glyph glyph-name="Ocircumflex" unicode="&#xd4;" horiz-adv-x="1686" 
d="M884 1436q141 0 263.5 -49.5t212 -139.5t140.5 -224.5t51 -295.5q0 -218 -86.5 -387.5t-240 -262t-347.5 -92.5q-128 0 -245 45.5t-211 132.5t-150 227.5t-56 316.5q0 165 51 302t140 230.5t212 145t266 51.5zM1376 709q0 118 -30 215.5t-79.5 163.5t-115 112t-136 66.5
t-143.5 20.5q-70 0 -137.5 -20.5t-130.5 -65t-110 -108.5t-75.5 -158t-28.5 -207q0 -133 39 -245.5t106 -188.5t158.5 -118t196.5 -42q71 0 139.5 21t131.5 66.5t110.5 111.5t76 163t28.5 213zM912 1924l256 -286l-93 -88l-176 196l-181 -195l-88 78z" />
    <glyph glyph-name="Otilde" unicode="&#xd5;" horiz-adv-x="1686" 
d="M1169 1878l108 -17q-2 -8 -8 -40.5t-9 -44.5t-10 -42t-14 -43t-18 -36t-24 -34t-30.5 -24t-40 -18t-48.5 -5q-44 0 -85.5 18.5t-72 45t-57.5 53t-53.5 45t-49.5 18.5q-14 0 -25.5 -5t-19.5 -11.5t-15.5 -20t-11.5 -23.5t-9 -29t-7 -29.5t-6 -33t-6 -30.5l-108 17
q2 8 8 40.5t9 44.5t10 42t14 43t18 36t24 34t30.5 24t40 18t48.5 5q44 0 85.5 -18.5t72 -45t57.5 -53t53.5 -45t49.5 -18.5q14 0 25.5 5t19.5 11.5t15.5 20t11.5 23.5t9 29t7 29.5t6 33t6 30.5zM1376 709q0 117 -29.5 214.5t-78.5 164t-115 112t-136.5 66.5t-144.5 21
q-70 0 -137.5 -20.5t-130.5 -65t-110 -108.5t-75.5 -158t-28.5 -207q0 -133 39 -245.5t106 -188.5t158.5 -118t196.5 -42q71 0 139.5 21t131.5 66.5t110.5 111.5t76 163t28.5 213zM884 1436q141 0 263.5 -49.5t212 -139.5t140.5 -224.5t51 -295.5q0 -218 -86.5 -387.5
t-240 -262t-347.5 -92.5q-128 0 -245 45.5t-211 132.5t-150 227.5t-56 316.5q0 165 51 302t140 230.5t212 145t266 51.5z" />
    <glyph glyph-name="Odieresis" unicode="&#xd6;" horiz-adv-x="1686" 
d="M884 1436q141 0 263.5 -49.5t212 -139.5t140.5 -224.5t51 -295.5q0 -218 -86.5 -387.5t-240 -262t-347.5 -92.5q-128 0 -245 45.5t-211 132.5t-150 227.5t-56 316.5q0 165 51 302t140 230.5t212 145t266 51.5zM1376 709q0 118 -30 215.5t-79.5 163.5t-115 112t-136 66.5
t-143.5 20.5q-70 0 -137.5 -20.5t-130.5 -65t-110 -108.5t-75.5 -158t-28.5 -207q0 -133 39 -245.5t106 -188.5t158.5 -118t196.5 -42q71 0 139.5 21t131.5 66.5t110.5 111.5t76 163t28.5 213zM576 1898h185v-185h-185v185zM1025 1898h185v-185h-185v185z" />
    <glyph glyph-name="multiply" unicode="&#xd7;" horiz-adv-x="1299" 
d="M288 194l-106 105l355 355l-347 346l105 105l361 -361l354 355l105 -106l-353 -354l346 -347l-105 -105l-361 361z" />
    <glyph glyph-name="Oslash" unicode="&#xd8;" horiz-adv-x="1756" 
d="M884 1436q137 0 265.5 -50.5t222.5 -152.5l184 176l63 -65l-191 -182q123 -182 123 -435q0 -218 -86.5 -387.5t-240 -262t-347.5 -92.5q-82 0 -160 19t-126.5 41.5t-96 57.5t-61.5 48t-31 31l-187 -177l-61 65l191 182q-130 187 -130 455q0 165 51 302t140 230.5t212 145
t266 51.5zM1247 1114q-70 84 -167.5 128.5t-204.5 44.5q-91 0 -175 -34t-154.5 -99.5t-113 -176t-42.5 -249.5q0 -201 86 -351zM890 134q71 0 139.5 21t131.5 66.5t110.5 111.5t76 163t28.5 213q0 190 -77 329l-771 -736q69 -82 163.5 -125t198.5 -43z" />
    <glyph glyph-name="Ugrave" unicode="&#xd9;" horiz-adv-x="1580" 
d="M290 1421h170v-921q0 -32 1.5 -58.5t10 -67t22.5 -72t42 -66t66 -57t96.5 -37.5t131.5 -15q86 0 152 20t106.5 53.5t66 82.5t35.5 101.5t10 115.5v921h170v-938q0 -35 -1 -59.5t-6 -67.5t-14.5 -74.5t-29 -73t-46.5 -71.5t-69 -61.5t-94.5 -51t-126 -32t-160.5 -12.5
q-109 0 -195.5 21t-141.5 51.5t-94.5 79t-58.5 89t-29.5 98t-12 88t-1.5 76.5v938zM624 1927l504 -310l-63 -106l-512 293z" />
    <glyph glyph-name="Uacute" unicode="&#xda;" horiz-adv-x="1580" 
d="M290 1421h170v-921q0 -32 1.5 -58.5t10 -67t22.5 -72t42 -66t66 -57t96.5 -37.5t131.5 -15q86 0 152 20t106.5 53.5t66 82.5t35.5 101.5t10 115.5v921h170v-938q0 -35 -1 -59.5t-6 -67.5t-14.5 -74.5t-29 -73t-46.5 -71.5t-69 -61.5t-94.5 -51t-126 -32t-160.5 -12.5
q-109 0 -195.5 21t-141.5 51.5t-94.5 79t-58.5 89t-29.5 98t-12 88t-1.5 76.5v938zM1064 1930l70 -123l-512 -296l-62 109z" />
    <glyph glyph-name="Ucircumflex" unicode="&#xdb;" horiz-adv-x="1580" 
d="M290 1421h170v-921q0 -32 1.5 -58.5t10 -67t22.5 -72t42 -66t66 -57t96.5 -37.5t131.5 -15q86 0 152 20t106.5 53.5t66 82.5t35.5 101.5t10 115.5v921h170v-938q0 -35 -1 -59.5t-6 -67.5t-14.5 -74.5t-29 -73t-46.5 -71.5t-69 -61.5t-94.5 -51t-126 -32t-160.5 -12.5
q-109 0 -195.5 21t-141.5 51.5t-94.5 79t-58.5 89t-29.5 98t-12 88t-1.5 76.5v938zM844 1924l256 -286l-94 -88l-175 196l-181 -195l-88 78z" />
    <glyph glyph-name="Udieresis" unicode="&#xdc;" horiz-adv-x="1580" 
d="M290 1421h170v-921q0 -32 1.5 -58.5t10 -67t22.5 -72t42 -66t66 -57t96.5 -37.5t131.5 -15q86 0 152 20t106.5 53.5t66 82.5t35.5 101.5t10 115.5v921h170v-938q0 -35 -1 -59.5t-6 -67.5t-14.5 -74.5t-29 -73t-46.5 -71.5t-69 -61.5t-94.5 -51t-126 -32t-160.5 -12.5
q-109 0 -195.5 21t-141.5 51.5t-94.5 79t-58.5 89t-29.5 98t-12 88t-1.5 76.5v938zM513 1898h185v-185h-185v185zM962 1898h185v-185h-185v185z" />
    <glyph glyph-name="Yacute" unicode="&#xdd;" horiz-adv-x="1263" 
d="M100 1421h201l362 -587l370 587h190l-484 -748v-673h-170v673zM871 1930l70 -123l-512 -296l-62 109z" />
    <glyph glyph-name="Thorn" unicode="&#xde;" horiz-adv-x="1326" 
d="M682 1008q-116 0 -222 -10v-515q110 -9 195 -9h28q39 0 66 1t70 7t73 16t65 31t56 49.5t35.5 73t14.5 100.5q0 49 -13 88.5t-33.5 65.5t-52.5 45.5t-63.5 30t-72.5 17t-73.5 8t-72.5 1.5zM290 1421h170v-274q130 13 269 13q89 0 161 -10t138 -35.5t110.5 -66t71 -106
t26.5 -151.5q0 -49 -7.5 -97t-27.5 -101.5t-51 -97.5t-82 -81t-116 -56q-110 -32 -328 -32q-82 0 -164 6v-332h-170v1421z" />
    <glyph glyph-name="germandbls" unicode="&#xdf;" horiz-adv-x="1258" 
d="M594 1430q67 0 125 -20.5t97.5 -54.5t68 -77t42 -88t13.5 -89q0 -65 -27 -117t-65 -85t-76 -61t-65 -59.5t-27 -66.5q0 -38 25.5 -65t65.5 -44t89 -33.5t98 -39t89 -54t65.5 -86.5t25.5 -129q0 -34 -7.5 -68.5t-30.5 -75t-58 -71.5t-96 -51.5t-139 -20.5q-146 0 -305 47
l31 116q157 -31 240 -31q92 0 142 35t50 117q0 44 -19.5 76.5t-50.5 51.5t-71.5 36.5t-82.5 30.5t-82.5 34.5t-71.5 47t-50.5 69.5t-19.5 101q0 52 19.5 94.5t48.5 69.5t63.5 54.5t63.5 49t48.5 52.5t19.5 66q0 81 -63.5 136.5t-140.5 55.5q-19 0 -41 -4t-54 -20.5
t-56.5 -43t-42.5 -76.5t-18 -117v-1022h-164v1023q0 86 24 156t62.5 116t90.5 77t106.5 44.5t110.5 13.5z" />
    <glyph glyph-name="agrave" unicode="&#xe0;" horiz-adv-x="1069" 
d="M507 1006q111 0 187.5 -26t118 -75.5t59 -109.5t17.5 -139v-656h-116l-38 90q-121 -110 -278 -110q-140 0 -237 84.5t-97 197.5q0 72 32.5 126t86 86.5t133.5 52t162.5 26.5t186.5 7v79q0 34 -2.5 59t-16.5 60t-38 57.5t-72 39t-114 16.5q-102 0 -264 -45l-31 120
q161 60 321 60zM724 437h-61q-46 0 -81.5 -1.5t-83 -6.5t-81.5 -16.5t-65.5 -29t-48 -46.5t-16.5 -67q0 -63 63 -112t151 -49q129 0 223 101v227zM445 1539l364 -324l-80 -100l-376 315z" />
    <glyph glyph-name="aacute" unicode="&#xe1;" horiz-adv-x="1069" 
d="M676 1549l92 -109l-376 -315l-80 100zM724 437h-61q-46 0 -81.5 -1.5t-83 -6.5t-81.5 -16.5t-65.5 -29t-48 -46.5t-16.5 -67q0 -63 63 -112t151 -49q129 0 223 101v227zM507 1006q111 0 187.5 -26t118 -75.5t59 -109.5t17.5 -139v-656h-116l-38 90q-121 -110 -278 -110
q-140 0 -237 84.5t-97 197.5q0 72 32.5 126t86 86.5t133.5 52t162.5 26.5t186.5 7v79q0 34 -2.5 59t-16.5 60t-38 57.5t-72 39t-114 16.5q-102 0 -264 -45l-31 120q161 60 321 60z" />
    <glyph glyph-name="acircumflex" unicode="&#xe2;" horiz-adv-x="1069" 
d="M544 1490l256 -286l-93 -88l-175 196l-182 -195l-88 78zM724 437h-61q-46 0 -81.5 -1.5t-83 -6.5t-81.5 -16.5t-65.5 -29t-48 -46.5t-16.5 -67q0 -63 63 -112t151 -49q129 0 223 101v227zM507 1006q111 0 187.5 -26t118 -75.5t59 -109.5t17.5 -139v-656h-116l-38 90
q-121 -110 -278 -110q-140 0 -237 84.5t-97 197.5q0 72 32.5 126t86 86.5t133.5 52t162.5 26.5t186.5 7v79q0 34 -2.5 59t-16.5 60t-38 57.5t-72 39t-114 16.5q-102 0 -264 -45l-31 120q161 60 321 60z" />
    <glyph glyph-name="atilde" unicode="&#xe3;" horiz-adv-x="1069" 
d="M802 1444l108 -17l-17 -85q-20 -96 -55 -141q-48 -61 -130 -61q-44 0 -85.5 18.5t-72 45t-57.5 53t-53.5 45t-49.5 18.5q-13 0 -24.5 -5t-19.5 -11.5t-15 -18t-11.5 -20.5t-8.5 -23t-5.5 -20.5t-3.5 -19.5l-2 -12l-10 -50l-108 15l17 85q4 21 5 26t9 32.5t15 40.5
t22.5 36.5t32.5 35t43.5 21.5t57.5 10q44 0 85.5 -18.5t72 -45t57.5 -53t53.5 -45t49.5 -18.5q13 0 24.5 5t19.5 11.5t15 18t11.5 20.5t8.5 23t5.5 20.5t3.5 19.5l2 12zM724 437h-61q-46 0 -81.5 -1.5t-83 -6.5t-81.5 -16.5t-65.5 -29t-48 -46.5t-16.5 -67q0 -63 63 -112
t151 -49q129 0 223 101v227zM507 1006q111 0 187.5 -26t118 -75.5t59 -109.5t17.5 -139v-656h-116l-38 90q-121 -110 -278 -110q-140 0 -237 84.5t-97 197.5q0 72 32.5 126t86 86.5t133.5 52t162.5 26.5t186.5 7v79q0 34 -2.5 59t-16.5 60t-38 57.5t-72 39t-114 16.5
q-102 0 -264 -45l-31 120q161 60 321 60z" />
    <glyph glyph-name="adieresis" unicode="&#xe4;" horiz-adv-x="1069" 
d="M708 1421h185v-186h-185v186zM259 1421h185v-186h-185v186zM724 437h-61q-46 0 -81.5 -1.5t-83 -6.5t-81.5 -16.5t-65.5 -29t-48 -46.5t-16.5 -67q0 -63 63 -112t151 -49q129 0 223 101v227zM507 1006q111 0 187.5 -26t118 -75.5t59 -109.5t17.5 -139v-656h-116l-38 90
q-121 -110 -278 -110q-140 0 -237 84.5t-97 197.5q0 72 32.5 126t86 86.5t133.5 52t162.5 26.5t186.5 7v79q0 34 -2.5 59t-16.5 60t-38 57.5t-72 39t-114 16.5q-102 0 -264 -45l-31 120q161 60 321 60z" />
    <glyph glyph-name="aring" unicode="&#xe5;" horiz-adv-x="1069" 
d="M551 1482q-55 0 -92.5 -39.5t-37.5 -93.5t36.5 -94t93.5 -40q54 0 90.5 40.5t36.5 93.5t-36.5 93t-90.5 40zM550 1573q90 0 155 -65.5t65 -158.5t-64.5 -159t-154.5 -66t-155 65.5t-65 159.5q0 93 64.5 158.5t154.5 65.5zM724 437h-61q-46 0 -81.5 -1.5t-83 -6.5
t-81.5 -16.5t-65.5 -29t-48 -46.5t-16.5 -67q0 -63 63 -112t151 -49q129 0 223 101v227zM507 1006q111 0 187.5 -26t118 -75.5t59 -109.5t17.5 -139v-656h-116l-38 90q-121 -110 -278 -110q-140 0 -237 84.5t-97 197.5q0 72 32.5 126t86 86.5t133.5 52t162.5 26.5t186.5 7
v79q0 34 -2.5 59t-16.5 60t-38 57.5t-72 39t-114 16.5q-102 0 -264 -45l-31 120q161 60 321 60z" />
    <glyph glyph-name="ae" unicode="&#xe6;" horiz-adv-x="1674" 
d="M286 274q0 -67 67 -115t153 -48q127 0 218 96v229q-133 0 -221.5 -11t-135 -33.5t-64 -50t-17.5 -67.5zM1163 864q-121 0 -193.5 -89.5t-72.5 -214.5h489q0 40 -5 77.5t-20 80.5t-38.5 74t-64.5 51.5t-95 20.5zM186 944q166 62 335 62q118 0 197.5 -46t117.5 -128
q65 79 158.5 126.5t196.5 47.5q88 0 153 -34.5t102.5 -88t60 -132t29.5 -152t7 -163.5h-654q0 -137 104.5 -230.5t259.5 -93.5q84 0 206 36l27 -112q-152 -56 -296 -56q-109 0 -207 37t-162 114q-115 -151 -348 -151q-140 0 -245 82.5t-105 203.5q0 112 92 190.5t268 96.5
q88 9 241 9v51q0 48 -11 90t-37 81.5t-76.5 62.5t-120.5 23q-91 0 -252 -44z" />
    <glyph glyph-name="ccedilla" unicode="&#xe7;" horiz-adv-x="1001" 
d="M679 -326q0 15 -4 27.5t-16.5 22.5t-23 17t-35 16t-40.5 14t-52.5 15.5t-57.5 17.5l47 176q-58 9 -108 28.5t-99 57.5t-83.5 90.5t-55.5 131.5t-21 176q0 117 28 210.5t74.5 153t109.5 99t129 56t138 16.5q142 0 277 -59l-40 -120q-111 38 -217 38q-52 0 -98 -9.5
t-91.5 -34.5t-78 -64.5t-52.5 -103.5t-20 -147q0 -91 21 -160.5t55 -112.5t81.5 -70t96 -37.5t104.5 -10.5q94 0 188 33l40 -113q-129 -49 -252 -54l-28 -110q2 -1 16 -5l21 -6t23 -8t25 -11t24 -13.5t24 -17.5t19.5 -22t17 -26.5t10.5 -31.5t4 -38q0 -71 -55 -127t-149 -56
q-21 0 -45.5 3.5t-52.5 10.5t-46 12t-48 14t-36 11l26 91q157 -47 206 -47q46 0 73 22.5t27 54.5z" />
    <glyph glyph-name="egrave" unicode="&#xe8;" horiz-adv-x="1102" 
d="M605 1007q72 0 129.5 -17.5t95.5 -44.5t65.5 -70.5t42 -84t22.5 -97.5t10 -99t2 -99v-78h-679q0 -54 24.5 -107.5t69 -98t117 -72.5t160.5 -28q104 0 225 36l29 -112q-161 -55 -316 -55q-109 0 -193.5 29t-136 75.5t-84.5 111.5t-45.5 129.5t-12.5 136.5q0 111 27 203
t73 154.5t107.5 105.5t129 62.5t138.5 19.5zM570 865q-88 0 -151.5 -48.5t-92.5 -120.5t-29 -155h516q0 324 -243 324zM460 1549l364 -324l-80 -100l-376 315z" />
    <glyph glyph-name="eacute" unicode="&#xe9;" horiz-adv-x="1102" 
d="M605 1007q72 0 129.5 -17.5t95.5 -44.5t65.5 -70.5t42 -84t22.5 -97.5t10 -99t2 -99v-78h-679q0 -54 24.5 -107.5t69 -98t117 -72.5t160.5 -28q104 0 225 36l29 -112q-161 -55 -316 -55q-109 0 -193.5 29t-136 75.5t-84.5 111.5t-45.5 129.5t-12.5 136.5q0 111 27 203
t73 154.5t107.5 105.5t129 62.5t138.5 19.5zM570 865q-88 0 -151.5 -48.5t-92.5 -120.5t-29 -155h516q0 324 -243 324zM776 1549l92 -109l-376 -315l-80 100z" />
    <glyph glyph-name="ecircumflex" unicode="&#xea;" horiz-adv-x="1102" 
d="M605 1007q72 0 129.5 -17.5t95.5 -44.5t65.5 -70.5t42 -84t22.5 -97.5t10 -99t2 -99v-78h-679q0 -54 24.5 -107.5t69 -98t117 -72.5t160.5 -28q104 0 225 36l29 -112q-161 -55 -316 -55q-109 0 -193.5 29t-136 75.5t-84.5 111.5t-45.5 129.5t-12.5 136.5q0 111 27 203
t73 154.5t107.5 105.5t129 62.5t138.5 19.5zM570 865q-88 0 -151.5 -48.5t-92.5 -120.5t-29 -155h516q0 324 -243 324zM631 1490l256 -286l-93 -88l-176 196l-181 -195l-88 78z" />
    <glyph glyph-name="edieresis" unicode="&#xeb;" horiz-adv-x="1102" 
d="M605 1007q72 0 129.5 -17.5t95.5 -44.5t65.5 -70.5t42 -84t22.5 -97.5t10 -99t2 -99v-78h-677q0 -54 24 -107.5t68.5 -98t116.5 -72.5t160 -28q104 0 225 36l29 -112q-161 -55 -316 -55q-109 0 -193.5 29t-136 75.5t-84.5 111.5t-45.5 129.5t-12.5 136.5q0 111 27 203
t73 154.5t107.5 105.5t129 62.5t138.5 19.5zM570 865q-88 0 -152 -48.5t-93.5 -120.5t-29.5 -155h518q0 324 -243 324zM295 1421h185v-186h-185v186zM744 1421h185v-186h-185v186z" />
    <glyph glyph-name="igrave" unicode="&#xec;" horiz-adv-x="524" 
d="M180 988h164v-988h-164v988zM92 1549l364 -324l-80 -100l-376 315z" />
    <glyph glyph-name="iacute" unicode="&#xed;" horiz-adv-x="524" 
d="M180 988h164v-988h-164v988zM476 1549l92 -109l-376 -315l-80 100z" />
    <glyph glyph-name="icircumflex" unicode="&#xee;" horiz-adv-x="530" 
d="M180 988h164v-988h-164v988zM268 1490l226 -286l-93 -88l-146 186l-151 -185l-87 78z" />
    <glyph glyph-name="idieresis" unicode="&#xef;" horiz-adv-x="524" 
d="M180 988h164v-988h-164v988zM-15 1421h185v-185h-185v185zM354 1421h185v-185h-185v185z" />
    <glyph glyph-name="eth" unicode="&#xf0;" horiz-adv-x="1252" 
d="M289 481q0 -156 92.5 -261.5t223.5 -105.5q32 0 64.5 7.5t71.5 29t70.5 55.5t57 93.5t35.5 136.5t10 193v62q-187 116 -325 116q-129 0 -214.5 -91t-85.5 -235zM513 1458q166 -45 295 -145l182 105l55 -95l-152 -87q101 -108 140 -240t39 -309q0 -83 -5 -153
t-18.5 -144.5t-36 -133t-59.5 -111.5t-86.5 -88.5t-120 -56t-156.5 -20.5q-204 0 -332 120t-128 328q0 140 54 257t155 187.5t229 70.5q145 0 337 -109q-26 192 -157 319l-179 -103l-54 95l142 82q-91 64 -206 103z" />
    <glyph glyph-name="ntilde" unicode="&#xf1;" 
d="M180 988h115l36 -84q191 104 348 104q81 0 141 -25.5t93 -64t53 -97t25.5 -111.5t5.5 -121v-589h-165v600q0 260 -224 260q-116 0 -264 -77v-783h-164v988zM887 1449l108 -17l-17 -85q-19 -95 -54 -139q-48 -64 -131 -64q-44 0 -85.5 18.5t-72 45t-57.5 53t-53.5 45
t-49.5 18.5q-13 0 -24.5 -5t-19.5 -11.5t-15 -18t-11.5 -20t-8.5 -23t-5 -20.5l-3 -18l-3 -13l-10 -51l-108 16l17 85q0 2 1 5q38 196 184 196q44 0 85 -18.5t71.5 -45t57.5 -53t53.5 -45t49.5 -18.5q12 0 22 3.5t18 10.5t14.5 14.5t11.5 18.5t8.5 19t6.5 20l4.5 18t3.5 16
t2 11z" />
    <glyph glyph-name="ograve" unicode="&#xf2;" horiz-adv-x="1211" 
d="M529 1549l364 -324l-80 -100l-376 315zM597 867q-123 0 -215 -95t-92 -261q0 -165 90 -278t233 -113q132 0 220 100t88 261q0 92 -28.5 167t-75 122t-103.5 72t-117 25zM611 1007q205 0 337.5 -131t132.5 -362q0 -245 -135.5 -389.5t-350.5 -144.5q-205 0 -335 135.5
t-130 367.5q0 239 132.5 381.5t348.5 142.5z" />
    <glyph glyph-name="oacute" unicode="&#xf3;" horiz-adv-x="1211" 
d="M611 1007q205 0 337.5 -131t132.5 -362q0 -245 -135.5 -389.5t-350.5 -144.5q-205 0 -335 135.5t-130 367.5q0 239 132.5 381.5t348.5 142.5zM597 867q-123 0 -215 -95t-92 -261q0 -165 90 -278t233 -113q132 0 220 100t88 261q0 92 -28.5 167t-75 122t-103.5 72t-117 25
zM706 1549l92 -109l-376 -315l-80 100z" />
    <glyph glyph-name="ocircumflex" unicode="&#xf4;" horiz-adv-x="1211" 
d="M611 1007q205 0 337.5 -131t132.5 -362q0 -245 -135.5 -389.5t-350.5 -144.5q-205 0 -335 135.5t-130 367.5q0 239 132.5 381.5t348.5 142.5zM597 867q-123 0 -215 -95t-92 -261q0 -165 90 -278t233 -113q132 0 220 100t88 261q0 92 -28.5 167t-75 122t-103.5 72t-117 25
zM624 1490l256 -286l-92 -88l-176 196l-182 -195l-88 78z" />
    <glyph glyph-name="otilde" unicode="&#xf5;" horiz-adv-x="1211" 
d="M867 1448l108 -17q-2 -8 -8 -40.5t-9 -44.5t-10 -42t-14 -43t-18 -36t-24 -34t-30.5 -24t-40 -18t-48.5 -5q-44 0 -85.5 18.5t-72 45t-57.5 53t-53.5 45t-49.5 18.5q-12 0 -22.5 -3t-18.5 -10.5t-14.5 -14.5t-12 -20t-9 -22.5t-7 -26.5t-5.5 -27t-5.5 -28.5t-5.5 -27.5
l-108 15q2 8 8 40.5t9 44.5t10 42t14 43t18 36t24 34t30.5 24t40 18t48.5 5q44 0 85.5 -18.5t72 -45t57.5 -53t53.5 -45t49.5 -18.5q14 0 25.5 5t19.5 11.5t15.5 20t11.5 23.5t9 29t7 29.5t6 33t6 30.5zM597 867q-123 0 -215 -95t-92 -261q0 -165 90 -278t233 -113
q132 0 220 100t88 261q0 92 -28.5 167t-75 122t-103.5 72t-117 25zM611 1007q205 0 337.5 -131t132.5 -362q0 -245 -135.5 -389.5t-350.5 -144.5q-205 0 -335 135.5t-130 367.5q0 239 132.5 381.5t348.5 142.5z" />
    <glyph glyph-name="odieresis" unicode="&#xf6;" horiz-adv-x="1211" 
d="M611 1007q205 0 337.5 -131t132.5 -362q0 -245 -135.5 -389.5t-350.5 -144.5q-205 0 -335 135.5t-130 367.5q0 239 132.5 381.5t348.5 142.5zM597 867q-123 0 -215 -95t-92 -261q0 -165 90 -278t233 -113q132 0 220 100t88 261q0 92 -28.5 167t-75 122t-103.5 72t-117 25
zM319 1421h185v-186h-185v186zM768 1421h185v-186h-185v186z" />
    <glyph glyph-name="divide" unicode="&#xf7;" horiz-adv-x="1400" 
d="M602 1233h195v-195h-195v195zM602 278h195v-195h-195v195zM125 727h1150v-139h-1150v139z" />
    <glyph glyph-name="oslash" unicode="&#xf8;" horiz-adv-x="1211" 
d="M1041 995l58 -56l-109 -112q91 -126 91 -313q0 -245 -135.5 -389.5t-350.5 -144.5q-192 0 -317 117l-110 -112l-58 56l114 117q-94 130 -94 325q0 239 132.5 381.5t348.5 142.5q197 0 325 -119zM597 867q-123 0 -215 -95t-92 -261q0 -128 56 -228l473 485q-93 99 -222 99
zM868 702l-474 -485q89 -97 219 -97q132 0 220 100t88 261q0 128 -53 221z" />
    <glyph glyph-name="ugrave" unicode="&#xf9;" 
d="M833 988h164v-988h-115l-35 83q-189 -103 -349 -103q-81 0 -141 25.5t-93 63.5t-53 96.5t-25.5 111.5t-5.5 121v590h164v-602q0 -259 225 -259q116 0 264 77v784zM477 1549l364 -324l-80 -100l-376 315z" />
    <glyph glyph-name="uacute" unicode="&#xfa;" 
d="M833 988h164v-988h-115l-35 83q-189 -103 -349 -103q-81 0 -141 25.5t-93 63.5t-53 96.5t-25.5 111.5t-5.5 121v590h164v-602q0 -259 225 -259q116 0 264 77v784zM766 1549l92 -109l-376 -315l-80 100z" />
    <glyph glyph-name="ucircumflex" unicode="&#xfb;" 
d="M833 988h164v-988h-115l-35 83q-189 -103 -349 -103q-81 0 -141 25.5t-93 63.5t-53 96.5t-25.5 111.5t-5.5 121v590h164v-602q0 -259 225 -259q116 0 264 77v784zM611 1490l256 -286l-93 -88l-176 196l-181 -195l-88 78z" />
    <glyph glyph-name="udieresis" unicode="&#xfc;" 
d="M833 988h164v-988h-115l-35 83q-189 -103 -349 -103q-81 0 -141 25.5t-93 63.5t-53 96.5t-25.5 111.5t-5.5 121v590h164v-602q0 -259 225 -259q116 0 264 77v784zM276 1421h185v-186h-185v186zM724 1421h185v-186h-185v186z" />
    <glyph glyph-name="yacute" unicode="&#xfd;" horiz-adv-x="1050" 
d="M50 988h170l316 -838l294 838h170l-570 -1519h-175l203 493zM766 1549l92 -109l-376 -315l-80 100z" />
    <glyph glyph-name="thorn" unicode="&#xfe;" horiz-adv-x="1221" 
d="M611 862q-67 0 -116.5 -25t-77.5 -62.5t-45 -92.5t-22 -105t-5 -110q0 -350 270 -350q40 0 81.5 11t84 38.5t75.5 67.5t54 104t21 143q0 91 -28 165t-74.5 120t-102.5 71t-115 25zM639 1003q92 0 174 -34t144 -95.5t98 -155.5t36 -208q0 -231 -131.5 -382t-329.5 -151
q-161 0 -276 107v-615h-164v1952h164v-536q105 118 285 118z" />
    <glyph glyph-name="ydieresis" unicode="&#xff;" horiz-adv-x="1050" 
d="M50 988h170l316 -838l294 838h170l-570 -1519h-175l203 493zM221 1421h185v-186h-185v186zM670 1421h185v-186h-185v186z" />
    <glyph glyph-name="Amacron" unicode="&#x100;" horiz-adv-x="1383" 
d="M635 1421h193l505 -1421h-172l-144 413h-586l-144 -413h-157zM724 1255l-242 -693h483zM364 1697h740v-129h-740v129z" />
    <glyph glyph-name="amacron" unicode="&#x101;" horiz-adv-x="1069" 
d="M265 1333h532v-129h-532v129zM724 437h-61q-57 0 -99 -2t-98.5 -11.5t-92.5 -26.5t-61.5 -49.5t-25.5 -77.5q0 -63 63.5 -112t151.5 -49q129 0 223 101v227zM507 1007q110 0 187 -26t118.5 -75.5t59 -110t17.5 -139.5v-656h-116l-38 90q-121 -110 -278 -110
q-140 0 -237 84.5t-97 197.5q0 60 22 108t63.5 80t94.5 54.5t123.5 34.5t141.5 17t156 5v78q0 34 -2.5 59t-16.5 60t-38 57.5t-72 39t-114 16.5q-102 0 -264 -45l-31 120q164 61 321 61z" />
    <glyph glyph-name="Abreve" unicode="&#x102;" horiz-adv-x="1383" 
d="M358 1816l124 66q36 -75 100 -131t152 -56q81 0 158.5 54.5t136.5 132.5l113 -77q-80 -107 -192.5 -177.5t-231.5 -70.5q-131 0 -226 76.5t-134 182.5zM724 1255l-242 -693h483zM635 1421h193l505 -1421h-172l-144 413h-586l-144 -413h-157z" />
    <glyph glyph-name="abreve" unicode="&#x103;" horiz-adv-x="1069" 
d="M172 1382l123 66q36 -75 100 -131t152 -56q81 0 158.5 54.5t136.5 132.5l113 -77q-80 -107 -192.5 -177.5t-231.5 -70.5q-131 0 -225.5 76.5t-133.5 182.5zM724 437h-61q-46 0 -81.5 -1.5t-83 -6.5t-81.5 -16.5t-65.5 -29t-48 -46.5t-16.5 -67q0 -63 63 -112t151 -49
q129 0 223 101v227zM507 1006q111 0 187.5 -26t118 -75.5t59 -109.5t17.5 -139v-656h-116l-38 90q-121 -110 -278 -110q-140 0 -237 84.5t-97 197.5q0 72 32.5 126t86 86.5t133.5 52t162.5 26.5t186.5 7v79q0 34 -2.5 59t-16.5 60t-38 57.5t-72 39t-114 16.5
q-102 0 -264 -45l-31 120q161 60 321 60z" />
    <glyph glyph-name="Aogonek" unicode="&#x104;" horiz-adv-x="1383" 
d="M635 1421h193l505 -1421q-100 0 -178 -30t-119 -70.5t-67.5 -87.5t-33.5 -75.5t-7 -40.5q0 -42 25.5 -74t78.5 -32q68 0 166 58l48 -90q-139 -102 -260 -102q-88 0 -145.5 56.5t-57.5 146.5q0 126 110 251t241 168l-117 335h-586l-144 -413h-157zM724 1255l-242 -693h483
z" />
    <glyph glyph-name="aogonek" unicode="&#x105;" horiz-adv-x="1069" 
d="M481 859q-102 0 -264 -45l-31 120q161 60 321 60q111 0 188 -26t118 -75.5t58.5 -109.5t17.5 -139v-689q-16 -8 -49.5 -25t-49.5 -25t-45 -24t-43.5 -25t-37.5 -24.5t-35 -27t-27 -27.5t-22 -30t-12 -31.5t-5 -35.5q0 -45 30 -73.5t77 -28.5q61 0 163 56l48 -83
q-144 -94 -261 -94q-89 0 -145 54t-56 137q0 56 28.5 109.5t66.5 90t91.5 71.5t86.5 52t70 34q5 2 7 3l-33 77q-150 -102 -292 -102q-132 0 -226.5 84t-94.5 195q0 38 13 75.5t41 76.5t82 70.5t127 48.5q121 28 338 28v66q0 34 -2.5 59t-16.5 60t-38 57.5t-72 39t-114 16.5z
M490 117q125 0 234 83v237h-40q-151 0 -231.5 -13t-127.5 -62q-38 -40 -38 -93q0 -62 57 -107t146 -45z" />
    <glyph glyph-name="Cacute" unicode="&#x106;" horiz-adv-x="1451" 
d="M1073 1976l70 -123l-512 -295l-62 108zM275 709q0 205 85.5 368t248.5 258.5t377 95.5q194 0 386 -76l-52 -141q-194 67 -339 67q-120 0 -222.5 -47.5t-170 -127t-105.5 -182t-38 -214.5q0 -116 40.5 -220.5t113.5 -183t181.5 -124.5t237.5 -46q154 0 321 60l52 -126
q-209 -90 -416 -90q-128 0 -240 37t-195.5 103.5t-143.5 157.5t-90.5 200.5t-30.5 230.5z" />
    <glyph glyph-name="cacute" unicode="&#x107;" horiz-adv-x="1001" 
d="M130 471q0 117 28 210.5t74.5 153t109.5 99t129 56t138 16.5q142 0 277 -59l-40 -120q-111 38 -217 38q-52 0 -98 -9.5t-91.5 -34.5t-78 -64.5t-52.5 -103.5t-20 -147q0 -91 21 -160.5t55 -112.5t81.5 -70t96 -37.5t104.5 -10.5q94 0 188 33l40 -113q-142 -55 -285 -55
q-66 0 -126.5 13t-123 47.5t-108 87.5t-74 141.5t-28.5 201.5zM686 1549l92 -109l-376 -315l-80 100z" />
    <glyph glyph-name="Ccircumflex" unicode="&#x108;" horiz-adv-x="1451" 
d="M275 709q0 205 85.5 368t248.5 258.5t377 95.5q194 0 386 -76l-52 -141q-194 67 -339 67q-120 0 -222.5 -47.5t-170 -127t-105.5 -182t-38 -214.5q0 -116 40.5 -220.5t113.5 -183t181.5 -124.5t237.5 -46q154 0 321 60l52 -126q-209 -90 -416 -90q-128 0 -240 37
t-195.5 103.5t-143.5 157.5t-90.5 200.5t-30.5 230.5zM846 1932l256 -286l-93 -88l-176 196l-181 -195l-88 78z" />
    <glyph glyph-name="ccircumflex" unicode="&#x109;" horiz-adv-x="1001" 
d="M130 471q0 117 28 210.5t74.5 153t109.5 99t129 56t138 16.5q142 0 277 -59l-40 -120q-111 38 -217 38q-52 0 -98 -9.5t-91.5 -34.5t-78 -64.5t-52.5 -103.5t-20 -147q0 -91 21 -160.5t55 -112.5t81.5 -70t96 -37.5t104.5 -10.5q94 0 188 33l40 -113q-142 -55 -285 -55
q-66 0 -126.5 13t-123 47.5t-108 87.5t-74 141.5t-28.5 201.5zM567 1498l256 -286l-93 -88l-176 196l-181 -195l-88 78z" />
    <glyph glyph-name="Cdotaccent" unicode="&#x10a;" horiz-adv-x="1451" 
d="M754 1829h210v-210h-210v210zM275 709q0 205 85.5 368t248.5 258.5t377 95.5q194 0 386 -76l-52 -141q-194 67 -339 67q-120 0 -222.5 -47.5t-170 -127t-105.5 -182t-38 -214.5q0 -116 40.5 -220.5t113.5 -183t181.5 -124.5t237.5 -46q154 0 321 60l52 -126
q-209 -90 -416 -90q-128 0 -240 37t-195.5 103.5t-143.5 157.5t-90.5 200.5t-30.5 230.5z" />
    <glyph glyph-name="cdotaccent" unicode="&#x10b;" horiz-adv-x="1001" 
d="M130 471q0 117 28 210.5t74.5 153t109.5 99t129 56t138 16.5q142 0 277 -59l-40 -120q-111 38 -217 38q-52 0 -98 -9.5t-91.5 -34.5t-78 -64.5t-52.5 -103.5t-20 -147q0 -91 21 -160.5t55 -112.5t81.5 -70t96 -37.5t104.5 -10.5q94 0 188 33l40 -113q-142 -55 -285 -55
q-66 0 -126.5 13t-123 47.5t-108 87.5t-74 141.5t-28.5 201.5zM505 1421h210v-209h-210v209z" />
    <glyph glyph-name="Ccaron" unicode="&#x10c;" horiz-adv-x="1451" 
d="M275 709q0 205 85.5 368t248.5 258.5t377 95.5q194 0 386 -76l-52 -141q-194 67 -339 67q-120 0 -222.5 -47.5t-170 -127t-105.5 -182t-38 -214.5q0 -116 40.5 -220.5t113.5 -183t181.5 -124.5t237.5 -46q154 0 321 60l52 -126q-209 -90 -416 -90q-128 0 -240 37
t-195.5 103.5t-143.5 157.5t-90.5 200.5t-30.5 230.5zM890 1558l-256 286l93 88l176 -196l181 195l88 -78z" />
    <glyph glyph-name="ccaron" unicode="&#x10d;" horiz-adv-x="1001" 
d="M130 471q0 117 28 210.5t74.5 153t109.5 99t129 56t138 16.5q142 0 277 -59l-40 -120q-111 38 -217 38q-52 0 -98 -9.5t-91.5 -34.5t-78 -64.5t-52.5 -103.5t-20 -147q0 -91 21 -160.5t55 -112.5t81.5 -70t96 -37.5t104.5 -10.5q94 0 188 33l40 -113q-142 -55 -285 -55
q-66 0 -126.5 13t-123 47.5t-108 87.5t-74 141.5t-28.5 201.5zM541 1124l-256 286l93 88l175 -196l182 195l88 -76z" />
    <glyph glyph-name="Dcaron" unicode="&#x10e;" horiz-adv-x="1605" 
d="M731 1421q119 0 219.5 -21t173 -57.5t129 -88t92.5 -109t59 -125.5t32.5 -132.5t9.5 -133.5q0 -93 -14 -179t-48.5 -175t-88 -159.5t-138.5 -127t-193 -83.5q-56 -14 -125 -21t-114 -8t-127 -1h-308v1421h441zM460 1271v-1121h207q45 0 74.5 1t80 6t87 15t83 29t82.5 46
t72 69t63 95q66 127 66 309q0 126 -36.5 227.5t-97 165t-129 100.5t-143.5 50q-44 8 -133 8h-276zM844 1558l-256 286l93 88l176 -196l181 195l88 -78z" />
    <glyph glyph-name="dcaron" unicode="&#x10f;" horiz-adv-x="1424" 
d="M1209 1511h165l-118 -390h-165zM130 477q0 128 36 230t99 167t147.5 99.5t182.5 34.5q118 0 239 -53v556h164v-1511h-114l-27 62q-139 -82 -290 -82q-62 0 -121 15t-117 52t-101.5 92.5t-70.5 142.5t-27 195zM621 115q109 0 213 56v660q-107 48 -215 48q-46 0 -89 -10
t-88 -36t-77.5 -67t-53.5 -108.5t-21 -154.5q0 -90 22 -160.5t56 -112.5t80 -69t88 -36.5t85 -9.5z" />
    <glyph glyph-name="Dcroat" unicode="&#x110;" horiz-adv-x="1605" 
d="M776 1421q119 0 219.5 -21t173 -57.5t129 -88t92.5 -109t59 -125.5t32.5 -132.5t9.5 -133.5q0 -93 -14 -179t-48.5 -175t-88 -159.5t-138.5 -127t-193 -83.5q-56 -14 -125 -21t-114 -8t-127 -1h-308v658h-218v150h218v613h441zM505 658v-508h207q45 0 74.5 1t80 6t87 15
t83 29t82.5 46t72 69t63 95q66 127 66 309q0 126 -36.5 227.5t-97 165t-129 100.5t-143.5 50q-44 8 -133 8h-276v-463h256v-150h-256z" />
    <glyph glyph-name="dcroat" unicode="&#x111;" horiz-adv-x="1238" 
d="M619 879q-46 0 -89 -10t-88 -36t-77.5 -67t-53.5 -108.5t-21 -154.5q0 -90 22 -160.5t56 -112.5t80 -69t88 -36.5t85 -9.5q109 0 213 56v660q-107 48 -215 48zM595 1008q118 0 239 -53v222h-268v129h268v205h164v-205h135v-129h-135v-1177h-114l-27 62q-139 -82 -290 -82
q-62 0 -121 15t-117 52t-101.5 92.5t-70.5 142.5t-27 195q0 128 36 230t99 167t147.5 99.5t182.5 34.5z" />
    <glyph glyph-name="Emacron" unicode="&#x112;" horiz-adv-x="1283" 
d="M290 0v1421h833v-150h-663v-464h608v-150h-608v-507h663v-150h-833zM360 1697h733v-129h-733v129z" />
    <glyph glyph-name="emacron" unicode="&#x113;" horiz-adv-x="1102" 
d="M130 462q0 111 27 203t73 154.5t107.5 105.5t129 62.5t138.5 19.5q72 0 129.5 -17.5t95.5 -44.5t65.5 -70.5t42 -84t22.5 -97.5t10 -99t2 -99v-78h-679q0 -54 24.5 -107.5t69 -98t117 -72.5t160.5 -28q104 0 225 36l29 -112q-161 -55 -316 -55q-109 0 -193.5 29
t-136 75.5t-84.5 111.5t-45.5 129.5t-12.5 136.5zM570 865q-88 0 -151.5 -48.5t-92.5 -120.5t-29 -155h516q0 324 -243 324zM266 1333h592v-149h-592v149z" />
    <glyph glyph-name="Ebreve" unicode="&#x114;" horiz-adv-x="1283" 
d="M1003 1882l113 -77q-94 -124 -205 -185t-221 -61q-121 0 -218 69t-140 188l124 66q41 -86 107.5 -136.5t145.5 -50.5q153 0 294 187zM290 0v1421h833v-150h-663v-464h608v-150h-608v-507h663v-150h-833z" />
    <glyph glyph-name="ebreve" unicode="&#x115;" horiz-adv-x="1102" 
d="M130 462q0 111 27 203t73 154.5t107.5 105.5t129 62.5t138.5 19.5q72 0 129.5 -17.5t95.5 -44.5t65.5 -70.5t42 -84t22.5 -97.5t10 -99t2 -99v-78h-679q0 -54 24.5 -107.5t69 -98t117 -72.5t160.5 -28q104 0 225 36l29 -112q-161 -55 -316 -55q-109 0 -193.5 29
t-136 75.5t-84.5 111.5t-45.5 129.5t-12.5 136.5zM570 865q-88 0 -151.5 -48.5t-92.5 -120.5t-29 -155h516q0 324 -243 324zM232 1382l123 66q36 -75 100 -131t152 -56q81 0 158.5 54.5t136.5 132.5l113 -77q-80 -107 -192.5 -177.5t-231.5 -70.5q-131 0 -225.5 76.5
t-133.5 182.5z" />
    <glyph glyph-name="Edotaccent" unicode="&#x116;" horiz-adv-x="1283" 
d="M290 0v1421h833v-150h-663v-464h608v-150h-608v-507h663v-150h-833zM592 1829h210v-210h-210v210z" />
    <glyph glyph-name="edotaccent" unicode="&#x117;" horiz-adv-x="1102" 
d="M130 462q0 111 27 203t73 154.5t107.5 105.5t129 62.5t138.5 19.5q72 0 129.5 -17.5t95.5 -44.5t65.5 -70.5t42 -84t22.5 -97.5t10 -99t2 -99v-78h-679q0 -54 24.5 -107.5t69 -98t117 -72.5t160.5 -28q104 0 225 36l29 -112q-161 -55 -316 -55q-109 0 -193.5 29
t-136 75.5t-84.5 111.5t-45.5 129.5t-12.5 136.5zM570 865q-88 0 -151.5 -48.5t-92.5 -120.5t-29 -155h516q0 324 -243 324zM498 1421h210v-209h-210v209z" />
    <glyph glyph-name="Eogonek" unicode="&#x118;" horiz-adv-x="1283" 
d="M290 1421h833v-150h-663v-464h608v-150h-608v-507h663v-122q-23 -16 -65 -45.5t-62 -44t-53 -39t-49 -40t-37 -37.5t-30.5 -40.5t-16.5 -40.5t-7 -45q0 -47 30 -76.5t77 -29.5q70 0 163 59l48 -90q-138 -102 -259 -102q-91 0 -147 56.5t-56 146.5q0 59 20.5 111.5
t58.5 95.5t71.5 71.5t80.5 61.5h-600v1421z" />
    <glyph glyph-name="eogonek" unicode="&#x119;" horiz-adv-x="1102" 
d="M130 446q0 119 29.5 215.5t77 157.5t111 102.5t127.5 58.5t131 17q72 0 129.5 -17.5t95 -44t65 -69.5t42 -83.5t22.5 -97.5t10 -99t2 -100v-79h-679q0 -124 105.5 -211.5t266.5 -87.5q107 0 224 36l29 -112q-140 -48 -232.5 -153.5t-92.5 -192.5q0 -49 29.5 -79t77.5 -30
q61 0 164 56l48 -83q-141 -94 -262 -94q-90 0 -145 54.5t-55 142.5q0 89 52 173t126 151q-235 0 -366.5 116.5t-131.5 352.5zM570 855q-88 0 -151.5 -48.5t-92.5 -120.5t-29 -155h516q0 324 -243 324z" />
    <glyph glyph-name="Ecaron" unicode="&#x11a;" horiz-adv-x="1283" 
d="M290 0v1421h833v-150h-663v-464h608v-150h-608v-507h663v-150h-833zM694 1558l-256 286l92 88l176 -196l182 195l88 -78z" />
    <glyph glyph-name="ecaron" unicode="&#x11b;" horiz-adv-x="1102" 
d="M130 462q0 111 27 203t73 154.5t107.5 105.5t129 62.5t138.5 19.5q72 0 129.5 -17.5t95.5 -44.5t65.5 -70.5t42 -84t22.5 -97.5t10 -99t2 -99v-78h-679q0 -54 24.5 -107.5t69 -98t117 -72.5t160.5 -28q104 0 225 36l29 -112q-161 -55 -316 -55q-109 0 -193.5 29
t-136 75.5t-84.5 111.5t-45.5 129.5t-12.5 136.5zM570 865q-88 0 -151.5 -48.5t-92.5 -120.5t-29 -155h516q0 324 -243 324zM603 1124l-256 286l93 88l175 -196l182 195l88 -76z" />
    <glyph glyph-name="Gcircumflex" unicode="&#x11c;" horiz-adv-x="1591" 
d="M215 709q0 141 46.5 269.5t132.5 230.5t222 162.5t303 60.5q240 0 457 -121l-67 -127q-76 40 -177 69t-204 29q-105 0 -202.5 -39t-173.5 -109.5t-121.5 -178t-45.5 -235.5q0 -169 75 -304t207 -210t295 -75q193 0 314 116v363h-404v140h569v-558q-27 -31 -62.5 -60
t-99 -67t-156.5 -61.5t-201 -23.5q-142 0 -261.5 42.5t-200.5 113.5t-137 165.5t-82 197.5t-26 210zM874 1932l256 -286l-93 -88l-175 196l-182 -195l-88 78z" />
    <glyph glyph-name="gcircumflex" unicode="&#x11d;" horiz-adv-x="1176" 
d="M617 115q109 0 215 57v647q-137 56 -235 56q-139 0 -224 -100t-85 -265q0 -110 35 -198t111 -142.5t183 -54.5zM587 1008q118 0 273 -79l21 59h115v-1050q0 -30 -2 -58t-12 -79t-28 -93t-54.5 -90.5t-86 -81.5t-128 -55t-175.5 -22q-153 0 -306 64l46 119
q126 -46 239 -46q29 0 57.5 3.5t67 13.5t71.5 30.5t63.5 50.5t51 78.5t27.5 109.5q5 41 5 130v36q-129 -68 -261 -68q-64 0 -125 16.5t-119.5 55t-102 96t-70 146t-26.5 197.5q0 115 32 207.5t81 148.5t112.5 94t121.5 52.5t112 14.5zM610 1498l256 -286l-93 -88l-176 196
l-181 -195l-88 78z" />
    <glyph glyph-name="Gbreve" unicode="&#x11e;" horiz-adv-x="1591" 
d="M507 1816l123 66q36 -75 100.5 -131t152.5 -56q81 0 158.5 54.5t136.5 132.5l112 -77q-80 -107 -192 -177.5t-231 -70.5q-131 0 -226 76.5t-134 182.5zM919 1432q240 0 457 -121l-67 -127q-76 40 -177 69t-204 29q-105 0 -202.5 -39t-173.5 -109.5t-121.5 -178
t-45.5 -235.5q0 -169 75 -304t207 -210t295 -75q193 0 314 116v363h-404v140h569v-558q-27 -31 -62.5 -60t-99 -67t-156.5 -61.5t-201 -23.5q-138 0 -255 40t-199 108.5t-139.5 160.5t-85 195t-27.5 213q0 111 28 217t86.5 200t140.5 164.5t197.5 112t250.5 41.5z" />
    <glyph glyph-name="gbreve" unicode="&#x11f;" horiz-adv-x="1176" 
d="M243 1382l123 66q36 -75 100 -131t152 -56q81 0 159 54.5t137 132.5l112 -77q-80 -107 -192.5 -177.5t-231.5 -70.5q-131 0 -225.5 76.5t-133.5 182.5zM617 115q109 0 215 57v647q-137 56 -235 56q-139 0 -224 -100t-85 -265q0 -110 35 -198t111 -142.5t183 -54.5z
M510 -541q-153 0 -306 64l46 119q126 -46 239 -46q29 0 57.5 3.5t67 13.5t71.5 30.5t63.5 50.5t51 78.5t27.5 109.5q5 41 5 130v36q-129 -68 -261 -68q-64 0 -125 16.5t-119.5 55t-102 96t-70 146t-26.5 197.5q0 115 32 207.5t81 148.5t112.5 94t121.5 52.5t112 14.5
q118 0 273 -79l21 59h115v-1036q0 -114 -29.5 -202.5t-76.5 -142t-112.5 -88t-130.5 -47.5t-137 -13z" />
    <glyph glyph-name="Gdotaccent" unicode="&#x120;" horiz-adv-x="1591" 
d="M797 1829h210v-210h-210v210zM215 709q0 141 46.5 269.5t132.5 230.5t222 162.5t303 60.5q240 0 457 -121l-67 -127q-76 40 -177 69t-204 29q-105 0 -202.5 -39t-173.5 -109.5t-121.5 -178t-45.5 -235.5q0 -169 75 -304t207 -210t295 -75q193 0 314 116v363h-404v140h569
v-558q-27 -31 -62.5 -60t-99 -67t-156.5 -61.5t-201 -23.5q-142 0 -261.5 42.5t-200.5 113.5t-137 165.5t-82 197.5t-26 210z" />
    <glyph glyph-name="gdotaccent" unicode="&#x121;" horiz-adv-x="1176" 
d="M587 1008q118 0 273 -79l21 59h115v-1050q0 -30 -2 -58t-12 -79t-28 -93t-54.5 -90.5t-86 -81.5t-128 -55t-175.5 -22q-153 0 -306 64l46 119q123 -46 239 -46q29 0 57.5 3.5t67 13.5t71.5 30.5t63.5 50.5t51 78.5t27.5 109.5q5 41 5 130v36q-129 -68 -261 -68
q-64 0 -125 16.5t-119.5 55t-102 96t-70 146t-26.5 197.5q0 115 32 207.5t81 148.5t112.5 94t121.5 52.5t112 14.5zM617 115q109 0 215 57v647q-137 56 -235 56q-139 0 -224 -100t-85 -265q0 -110 35 -198t111 -142.5t183 -54.5zM482 1421h210v-209h-210v209z" />
    <glyph glyph-name="Gcommaaccent" unicode="&#x122;" horiz-adv-x="1591" 
d="M215 709q0 112 28.5 217.5t87.5 197.5t141.5 160.5t197.5 108t249 39.5q240 0 457 -121l-67 -127q-76 40 -177 69t-204 29q-105 0 -202.5 -39t-173.5 -109.5t-121.5 -178t-45.5 -235.5q0 -169 75 -304t207 -210t295 -75q193 0 314 116v363h-404v140h569v-558
q-27 -31 -62.5 -60t-99 -67t-156.5 -61.5t-201 -23.5q-142 0 -261.5 42.5t-200.5 113.5t-137 165.5t-82 197.5t-26 210zM886 -141h180l-158 -390h-180z" />
    <glyph glyph-name="gcommaaccent" unicode="&#x123;" horiz-adv-x="1176" 
d="M587 1006q118 0 273 -79l21 61h115v-1052q0 -30 -2 -58t-12 -79t-28 -93t-54.5 -90.5t-86 -81.5t-128 -55t-175.5 -22q-153 0 -306 64l46 119q123 -46 239 -46q29 0 57.5 3.5t67 13.5t71.5 30.5t63.5 50.5t51 78.5t27.5 109.5q5 41 5 130v36q-125 -66 -261 -66
q-64 0 -125 16t-119.5 54.5t-102 95.5t-70 145.5t-26.5 197.5q0 115 32 207.5t81 148.5t112.5 94t121.5 52.5t112 14.5zM617 113q109 0 215 57v647q-137 56 -235 56q-139 0 -224 -100t-85 -265q0 -110 35 -198t111 -142.5t183 -54.5zM605 1547h180l-158 -390h-180z" />
    <glyph glyph-name="Hcircumflex" unicode="&#x124;" horiz-adv-x="1600" 
d="M1220 1421h170v-1421h-170v658h-760v-658h-170v1421h170v-613h760v613zM833 1937l256 -286l-93 -88l-176 196l-181 -195l-88 78z" />
    <glyph glyph-name="hcircumflex" unicode="&#x125;" horiz-adv-x="1191" 
d="M618 860q-117 0 -264 -77v-783h-164v1511h164v-598q175 93 328 93q66 0 118.5 -17t86.5 -42.5t58.5 -66t37 -76t19 -84.5t8 -80t1.5 -73v-567h-168v597q0 263 -225 263zM595 1937l256 -286l-93 -88l-175 196l-182 -195l-88 78z" />
    <glyph glyph-name="Hbar" unicode="&#x126;" horiz-adv-x="1600" 
d="M1220 1421h170v-150h150v-138h-150v-1133h-170v658h-760v-658h-170v1133h-150v138h150v150h170v-150h760v150zM1220 1133h-760v-325h760v325z" />
    <glyph glyph-name="hbar" unicode="&#x127;" horiz-adv-x="1191" 
d="M190 1511h164v-205h323v-129h-323v-264q175 93 328 93q95 0 162 -32.5t102 -92t50 -129t15 -159.5v-593h-168v601q0 259 -225 259q-117 0 -264 -77v-783h-164v1177h-135v129h135v205z" />
    <glyph glyph-name="Itilde" unicode="&#x128;" horiz-adv-x="730" 
d="M320 1421h170v-1421h-170v1421zM188 1584l-104 28l26 98q25 91 80 128q41 28 99 28q35 0 64.5 -16t39.5 -27.5t24 -30.5l48 -64q39 -51 68 -51q16 0 28.5 12t19.5 31.5t9.5 28.5t4.5 17l27 98l104 -29l-26 -97q-49 -188 -182 -188q-70 0 -122 72q-2 3 -3 4l-48 64
q-39 54 -77 54q-36 0 -53 -62z" />
    <glyph glyph-name="itilde" unicode="&#x129;" horiz-adv-x="524" 
d="M45 1149l-104 28l26 98q25 91 80 128q41 28 99 28q35 0 64.5 -16t39.5 -27.5t24 -30.5l48 -64q39 -51 68 -51q16 0 28.5 12t19.5 31.5t9.5 28.5t4.5 17l27 97l104 -28l-26 -97q-49 -188 -182 -188q-70 0 -122 72q-2 3 -3 4l-48 64q-39 54 -77 54q-36 0 -53 -62zM180 988
h164v-989h-164v989z" />
    <glyph glyph-name="Imacron" unicode="&#x12a;" horiz-adv-x="730" 
d="M200 1697h410v-129h-410v129zM320 1421h170v-1421h-170v1421z" />
    <glyph glyph-name="imacron" unicode="&#x12b;" horiz-adv-x="524" 
d="M180 988h164v-988h-164v988zM80 1333h364v-129h-364v129z" />
    <glyph glyph-name="Ibreve" unicode="&#x12c;" horiz-adv-x="730" 
d="M83 1808l123 66q30 -79 83 -124t112 -45q64 0 118.5 44t113.5 123l93 -77q-63 -108 -157.5 -173t-198.5 -65q-60 0 -110 22.5t-84 61t-56 79.5t-37 88zM320 1421h170v-1421h-170v1421z" />
    <glyph glyph-name="ibreve" unicode="&#x12d;" horiz-adv-x="524" 
d="M180 988h164v-988h-164v988zM-46 1369l123 66q30 -79 83 -124t112 -45q64 0 118.5 44t113.5 123l93 -77q-63 -108 -157.5 -173t-198.5 -65q-60 0 -110 22.5t-84 61t-56 79.5t-37 88z" />
    <glyph glyph-name="Iogonek" unicode="&#x12e;" horiz-adv-x="730" 
d="M30 -339q0 112 83 218t207 170v1372h170v-1391q-94 -51 -160.5 -102.5t-98 -94.5t-44 -75t-12.5 -61q0 -47 29.5 -78t78.5 -31q61 0 162 60l48 -90q-142 -102 -260 -102q-89 0 -146 57t-57 148z" />
    <glyph glyph-name="iogonek" unicode="&#x12f;" horiz-adv-x="524" 
d="M-123 -345q0 122 89 240.5t214 185.5v907h164v-966q-133 -48 -228 -145t-95 -188q0 -49 30 -80t77 -31q59 0 163 59l48 -88q-140 -104 -260 -104q-90 0 -146 58.5t-56 151.5zM165 1421h194v-189h-194v189z" />
    <glyph glyph-name="Idotaccent" unicode="&#x130;" horiz-adv-x="730" 
d="M298 1829h210v-210h-210v210zM320 1421h170v-1421h-170v1421z" />
    <glyph glyph-name="dotlessi" unicode="&#x131;" horiz-adv-x="524" 
d="M180 988h164v-988h-164v988z" />
    <glyph glyph-name="IJ" unicode="&#x132;" horiz-adv-x="1683" 
d="M1303 1421h170v-995q0 -111 -20 -185t-78 -135q-117 -123 -339 -123q-100 0 -196 24l27 142q67 -16 141 -16q61 0 109 12.5t78.5 30t52.5 46t32 51t16 55t6.5 48.5t0.5 41v1004zM320 1421h170v-1421h-170v1421z" />
    <glyph glyph-name="ij" unicode="&#x133;" horiz-adv-x="1048" 
d="M700 988h164v-1125q0 -33 -0.5 -52.5t-5.5 -57t-14.5 -63.5t-29 -61.5t-46.5 -62t-69.5 -53.5t-96.5 -47l-62 124q160 75 160 253v1145zM689 1421h194v-189h-194v189zM180 988h164v-988h-164v988zM165 1421h194v-189h-194v189z" />
    <glyph glyph-name="Jcircumflex" unicode="&#x134;" horiz-adv-x="953" 
d="M664 1932l256 -286l-93 -88l-176 196l-181 -195l-88 78zM573 1421h170v-995q0 -111 -20 -185t-78 -135q-117 -123 -339 -123q-100 0 -196 24l27 142q67 -16 141 -16q61 0 109 12.5t78.5 30t52.5 46t32 51t16 55t6.5 48.5t0.5 41v1004z" />
    <glyph glyph-name="jcircumflex" unicode="&#x135;" horiz-adv-x="524" 
d="M268 1490l226 -286l-93 -88l-146 186l-151 -185l-87 78zM180 988h164v-1125q0 -32 -1 -52.5t-6 -57t-14.5 -63.5t-29 -62t-47 -61.5t-70 -53.5t-96.5 -47l-62 124q162 77 162 256v1142z" />
    <glyph glyph-name="Kcommaaccent" unicode="&#x136;" horiz-adv-x="1417" 
d="M648 -122h180l-158 -390h-180zM1086 1421h213l-601 -678l639 -743h-219l-634 729zM290 1421h170v-1421h-170v1421z" />
    <glyph glyph-name="kcommaaccent" unicode="&#x137;" horiz-adv-x="1073" 
d="M473 -122h180l-158 -390h-180zM796 1008h181l-430 -445l456 -563h-197l-446 546zM180 1511h164v-1511h-164v1511z" />
    <glyph glyph-name="kgreenlandic" unicode="&#x138;" horiz-adv-x="1072" 
d="M180 988h164v-988h-164v988zM779 988h170l-403 -461l456 -527h-201l-441 506z" />
    <glyph glyph-name="Lacute" unicode="&#x139;" horiz-adv-x="1133" 
d="M290 1421h170v-1272h638v-149h-808v1421zM787 1976l70 -123l-512 -295l-62 108z" />
    <glyph glyph-name="lacute" unicode="&#x13a;" horiz-adv-x="564" 
d="M200 1511h164v-1511h-164v1511zM664 2051l70 -123l-512 -295l-62 108z" />
    <glyph glyph-name="Lcommaaccent" unicode="&#x13b;" horiz-adv-x="1133" 
d="M290 1421h170v-1272h638v-149h-808v1421zM446 -122h180l-158 -390h-180z" />
    <glyph glyph-name="lcommaaccent" unicode="&#x13c;" horiz-adv-x="564" 
d="M200 1511h164v-1511h-164v1511zM228 -122h180l-158 -390h-180z" />
    <glyph glyph-name="Lcaron" unicode="&#x13d;" horiz-adv-x="1133" 
d="M290 1421h170v-1272h638v-149h-808v1421zM834 1421h180l-158 -390h-180z" />
    <glyph glyph-name="lcaron" unicode="&#x13e;" horiz-adv-x="805" 
d="M200 1511h164v-1511h-164v1511zM590 1511h165l-118 -390h-165z" />
    <glyph glyph-name="Ldot" unicode="&#x13f;" horiz-adv-x="1133" 
d="M290 1421h170v-1272h638v-149h-808v1421zM679 823h210v-210h-210v210z" />
    <glyph glyph-name="ldot" unicode="&#x140;" horiz-adv-x="824" 
d="M200 1511h164v-1511h-164v1511zM534 838h210v-210h-210v210z" />
    <glyph glyph-name="Lslash" unicode="&#x141;" horiz-adv-x="1133" 
d="M290 1421h170v-595l260 150v-172l-260 -150v-505h638v-149h-808v555l-144 -83v172l144 83v694z" />
    <glyph glyph-name="lslash" unicode="&#x142;" horiz-adv-x="687" 
d="M230 1511h164v-663l213 123v-150l-213 -123v-698h-164v604l-140 -81v149l140 81v758z" />
    <glyph glyph-name="Nacute" unicode="&#x143;" horiz-adv-x="1659" 
d="M290 1421h215l774 -1189v1189h170v-1421h-215l-774 1191v-1191h-170v1421zM1092 1976l70 -123l-512 -295l-62 108z" />
    <glyph glyph-name="nacute" unicode="&#x144;" 
d="M180 988h115l36 -84q191 104 348 104q81 0 141 -25.5t93 -64t53 -97t25.5 -111.5t5.5 -121v-589h-165v600q0 260 -224 260q-116 0 -264 -77v-783h-164v988zM853 1546l70 -125l-512 -293l-62 108z" />
    <glyph glyph-name="Ncommaaccent" unicode="&#x145;" horiz-adv-x="1659" 
d="M761 -122h180l-158 -390h-180zM290 1421h215l774 -1189v1189h170v-1421h-215l-774 1191v-1191h-170v1421z" />
    <glyph glyph-name="ncommaaccent" unicode="&#x146;" 
d="M180 988h115l36 -84q191 104 348 104q81 0 141 -25.5t93 -64t53 -97t25.5 -111.5t5.5 -121v-589h-165v600q0 260 -224 260q-116 0 -264 -77v-783h-164v988zM500 -122h180l-158 -390h-180z" />
    <glyph glyph-name="Ncaron" unicode="&#x147;" horiz-adv-x="1659" 
d="M290 1421h215l774 -1189v1189h170v-1421h-215l-774 1191v-1191h-170v1421zM906 1558l-256 286l94 88l175 -196l181 195l88 -78z" />
    <glyph glyph-name="ncaron" unicode="&#x148;" 
d="M180 988h115l36 -84q191 104 348 104q81 0 141 -25.5t93 -64t53 -97t25.5 -111.5t5.5 -121v-589h-165v600q0 260 -224 260q-116 0 -264 -77v-783h-164v988zM598 1128l-256 286l93 88l175 -195l182 194l88 -80z" />
    <glyph glyph-name="napostrophe" unicode="&#x149;" horiz-adv-x="1347" 
d="M350 988h115l36 -84q191 104 348 104q81 0 141 -25.5t93 -64t53 -97t25.5 -111.5t5.5 -121v-589h-165v600q0 260 -224 260q-116 0 -264 -77v-783h-164v988zM140 1421h150v-433h-150v433z" />
    <glyph glyph-name="Eng" unicode="&#x14a;" horiz-adv-x="1648" 
d="M1438 -35q0 -76 -19 -135.5t-50 -95.5t-74 -59t-86 -31.5t-91 -8.5q-94 0 -227 35l25 122q101 -20 155 -20q79 0 129 38t63 106q5 24 5 74v867q0 38 -0.5 61.5t-5 67t-12.5 73.5t-24 69.5t-38.5 67.5t-58 54.5t-80.5 42.5q-59 21 -133 21q-170 0 -456 -136v-1178h-170
v1421h111l45 -93q342 155 538 155q192 0 308 -110t139 -288q7 -57 7 -173v-947z" />
    <glyph glyph-name="eng" unicode="&#x14b;" horiz-adv-x="1176" 
d="M608 860q-117 0 -264 -77v-783h-164v988h115l35 -83q186 102 344 102q322 0 322 -403v-620q0 -74 -12.5 -130t-42 -103.5t-85 -72.5t-135.5 -25q-81 0 -226 37l25 122q124 -21 153 -21q159 0 159 193v616q0 260 -224 260z" />
    <glyph glyph-name="Omacron" unicode="&#x14c;" horiz-adv-x="1686" 
d="M1376 709q0 117 -29.5 214.5t-78.5 164t-115 112t-136.5 66.5t-144.5 21q-70 0 -137.5 -20.5t-130.5 -65t-110 -108.5t-75.5 -158t-28.5 -207q0 -133 39 -245.5t106 -188.5t158.5 -118t196.5 -42q71 0 139.5 21t131.5 66.5t110.5 111.5t76 163t28.5 213zM884 1436
q141 0 263.5 -49.5t212 -139.5t140.5 -224.5t51 -295.5q0 -218 -86.5 -387.5t-240 -262t-347.5 -92.5q-128 0 -245 45.5t-211 132.5t-150 227.5t-56 316.5q0 165 51 302t140 230.5t212 145t266 51.5zM532 1697h740v-129h-740v129z" />
    <glyph glyph-name="omacron" unicode="&#x14d;" horiz-adv-x="1211" 
d="M611 1007q205 0 337.5 -131t132.5 -362q0 -245 -135.5 -389.5t-350.5 -144.5q-205 0 -335 135.5t-130 367.5q0 239 132.5 381.5t348.5 142.5zM597 867q-123 0 -215 -95t-92 -261q0 -165 90 -278t233 -113q132 0 220 100t88 261q0 92 -28.5 167t-75 122t-103.5 72t-117 25
zM251 1333h740v-129h-740v129z" />
    <glyph glyph-name="Obreve" unicode="&#x14e;" horiz-adv-x="1686" 
d="M523 1816l123 66q36 -75 100 -131t152 -56q81 0 158.5 54.5t136.5 132.5l113 -77q-80 -107 -192.5 -177.5t-231.5 -70.5q-131 0 -225.5 76.5t-133.5 182.5zM1376 709q0 117 -29.5 214.5t-78.5 164t-115 112t-136.5 66.5t-144.5 21q-70 0 -137.5 -20.5t-130.5 -65
t-110 -108.5t-75.5 -158t-28.5 -207q0 -133 39 -245.5t106 -188.5t158.5 -118t196.5 -42q71 0 139.5 21t131.5 66.5t110.5 111.5t76 163t28.5 213zM884 1436q141 0 263.5 -49.5t212 -139.5t140.5 -224.5t51 -295.5q0 -218 -86.5 -387.5t-240 -262t-347.5 -92.5
q-128 0 -245 45.5t-211 132.5t-150 227.5t-56 316.5q0 165 51 302t140 230.5t212 145t266 51.5z" />
    <glyph glyph-name="obreve" unicode="&#x14f;" horiz-adv-x="1211" 
d="M267 1382l123 66q36 -75 100 -131t152 -56q81 0 159 54.5t137 132.5l112 -77q-80 -107 -192.5 -177.5t-231.5 -70.5q-131 0 -225.5 76.5t-133.5 182.5zM597 867q-123 0 -215 -95t-92 -261q0 -165 90 -278t233 -113q132 0 220 100t88 261q0 92 -28.5 167t-75 122
t-103.5 72t-117 25zM611 1007q205 0 337.5 -131t132.5 -362q0 -245 -135.5 -389.5t-350.5 -144.5q-205 0 -335 135.5t-130 367.5q0 239 132.5 381.5t348.5 142.5z" />
    <glyph glyph-name="Ohungarumlaut" unicode="&#x150;" horiz-adv-x="1686" 
d="M1444 1994l81 -116l-484 -339l-72 102zM924 1994l81 -116l-484 -339l-72 102zM1376 709q0 117 -29.5 214.5t-78.5 164t-115 112t-136.5 66.5t-144.5 21q-70 0 -137.5 -20.5t-130.5 -65t-110 -108.5t-75.5 -158t-28.5 -207q0 -133 39 -245.5t106 -188.5t158.5 -118
t196.5 -42q71 0 139.5 21t131.5 66.5t110.5 111.5t76 163t28.5 213zM884 1436q141 0 263.5 -49.5t212 -139.5t140.5 -224.5t51 -295.5q0 -218 -86.5 -387.5t-240 -262t-347.5 -92.5q-128 0 -245 45.5t-211 132.5t-150 227.5t-56 316.5q0 165 51 302t140 230.5t212 145
t266 51.5z" />
    <glyph glyph-name="ohungarumlaut" unicode="&#x151;" horiz-adv-x="1211" 
d="M611 1007q205 0 337.5 -131t132.5 -362q0 -245 -135.5 -389.5t-350.5 -144.5q-205 0 -335 135.5t-130 367.5q0 239 132.5 381.5t348.5 142.5zM597 867q-123 0 -215 -95t-92 -261q0 -165 90 -278t233 -113q132 0 220 100t88 261q0 92 -28.5 167t-75 122t-103.5 72t-117 25
zM1069 1549l92 -109l-376 -315l-80 100zM630 1549l92 -109l-376 -315l-80 100z" />
    <glyph glyph-name="OE" unicode="&#x152;" horiz-adv-x="1998" 
d="M1050 1271h-57q-126 0 -188 -10q-199 -31 -309.5 -179.5t-110.5 -380.5q0 -107 25.5 -195.5t69.5 -147.5t89 -96.5t96 -62.5q62 -31 120 -40t139 -9h126v1121zM391 1224q52 54 118.5 92.5t127.5 58.5t143 30.5t139.5 13t142.5 2.5h776v-150h-618v-464h563v-150h-563v-507
h618v-150h-865q-122 0 -216 11.5t-178 46.5q-170 72 -267 234t-97 411q0 337 176 521z" />
    <glyph glyph-name="oe" unicode="&#x153;" horiz-adv-x="1803" 
d="M871 474q0 99 -26 176t-69 121.5t-93.5 67.5t-105.5 23q-128 0 -207.5 -102t-79.5 -258q0 -162 85 -273t219 -111q118 0 197.5 94t79.5 262zM1287 855q-83 0 -143.5 -48t-89 -120t-28.5 -156h490q0 324 -229 324zM1321 997q69 0 124.5 -18t91.5 -45t62.5 -71t40.5 -85
t21.5 -98.5t9.5 -99t2 -97.5v-76h-651q0 -51 22 -102.5t64.5 -96t113 -72.5t158.5 -28q89 0 209 36l27 -112q-147 -55 -300 -55q-265 0 -379 183q-60 -87 -152.5 -133.5t-208.5 -46.5q-202 0 -324 137t-122 369q0 237 127 376.5t337 139.5q125 0 218.5 -51.5t147.5 -145.5
q39 60 91 101.5t104.5 59.5t90.5 24.5t75 6.5z" />
    <glyph glyph-name="Racute" unicode="&#x154;" horiz-adv-x="1438" 
d="M1228 1031q0 -71 -17 -135t-53 -122t-99.5 -100.5t-148.5 -62.5l401 -611h-190l-385 593q-11 0 -32.5 -0.5t-32.5 -0.5h-210v-592h-171v1421h522q103 0 179 -19.5t138 -85.5q99 -105 99 -285zM461 742h245q125 0 206 29.5t122 120.5q24 53 24 120q0 88 -48.5 158.5
t-149.5 91.5q-46 10 -140 10h-259v-530zM934 1976l70 -123l-512 -295l-62 108z" />
    <glyph glyph-name="racute" unicode="&#x155;" horiz-adv-x="801" 
d="M326 914q125 93 276 93q102 0 189 -40l-50 -130q-77 30 -160 30h-2q-125 0 -235 -69v-798h-164v988h115zM606 1549l92 -109l-376 -315l-80 100z" />
    <glyph glyph-name="Rcommaaccent" unicode="&#x156;" horiz-adv-x="1438" 
d="M464 -122h180l-158 -390h-180zM461 742h245q125 0 206 29.5t122 120.5q24 53 24 120q0 88 -48.5 158.5t-149.5 91.5q-46 10 -140 10h-259v-530zM1228 1031q0 -71 -17 -135t-53 -122t-99.5 -100.5t-148.5 -62.5l401 -611h-190l-385 593q-11 0 -32.5 -0.5t-32.5 -0.5h-210
v-592h-171v1421h522q103 0 179 -19.5t138 -85.5q99 -105 99 -285z" />
    <glyph glyph-name="rcommaaccent" unicode="&#x157;" horiz-adv-x="801" 
d="M326 914q125 93 276 93q102 0 189 -40l-50 -130q-77 30 -160 30h-2q-125 0 -235 -69v-798h-164v988h115zM184 -122h180l-158 -390h-180z" />
    <glyph glyph-name="Rcaron" unicode="&#x158;" horiz-adv-x="1438" 
d="M1228 1031q0 -71 -17 -135t-53 -122t-99.5 -100.5t-148.5 -62.5l401 -611h-190l-385 593q-11 0 -32.5 -0.5t-32.5 -0.5h-210v-592h-171v1421h522q103 0 179 -19.5t138 -85.5q99 -105 99 -285zM461 742h245q125 0 206 29.5t122 120.5q24 53 24 120q0 88 -48.5 158.5
t-149.5 91.5q-46 10 -140 10h-259v-530zM699 1558l-256 286l93 88l176 -196l181 195l88 -78z" />
    <glyph glyph-name="rcaron" unicode="&#x159;" horiz-adv-x="801" 
d="M326 914q125 93 276 93q102 0 189 -40l-50 -130q-77 30 -160 30h-2q-125 0 -235 -69v-798h-164v988h115zM492 1124l-256 286l94 88l175 -196l181 195l88 -76z" />
    <glyph glyph-name="Sacute" unicode="&#x15a;" horiz-adv-x="1361" 
d="M934 1976l70 -123l-512 -295l-62 108zM821 1434q164 0 353 -57l-55 -155q-180 52 -312 52q-148 0 -250.5 -62.5t-102.5 -161.5q0 -55 33 -98t87 -70t123 -53.5t140.5 -48.5t140.5 -56t123 -74.5t87 -105.5t33 -147q0 -57 -18 -113.5t-60 -112t-104 -97.5t-156.5 -68
t-210.5 -26t-213.5 24t-218.5 72l58 165q250 -93 395 -93q152 0 247.5 61t95.5 163q0 68 -42.5 117.5t-110 80t-149.5 57t-163.5 57t-149 70.5t-110 108t-42.5 160q0 82 39.5 157t109.5 131.5t175 90t228 33.5z" />
    <glyph glyph-name="sacute" unicode="&#x15b;" horiz-adv-x="1016" 
d="M590 1007q21 0 39.5 -0.5t36 -2.5t30 -3t29 -4t24 -4.5t25 -6t21.5 -5.5t23.5 -7t22.5 -7l-42 -125q-134 37 -236 37q-59 0 -104.5 -12t-70 -29t-40 -39.5t-20 -39.5t-4.5 -33q0 -41 42.5 -73t106 -52t137.5 -47.5t137.5 -58t106 -85.5t42.5 -127q0 -41 -10.5 -79.5
t-40 -80.5t-76 -72.5t-124.5 -50.5t-179 -20q-153 0 -336 75l46 124q103 -38 168.5 -54t128.5 -16q244 0 244 155q0 34 -24 60t-64 42.5t-90.5 34t-103 32.5t-103 39.5t-90.5 54t-64 76.5t-24 106q0 36 11.5 73.5t43 79t78.5 73t125.5 52t177.5 20.5zM676 1549l92 -109
l-376 -315l-80 100z" />
    <glyph glyph-name="Scircumflex" unicode="&#x15c;" horiz-adv-x="1361" 
d="M821 1434q164 0 353 -57l-55 -155q-180 52 -312 52q-148 0 -250.5 -62.5t-102.5 -161.5q0 -55 33 -98t87 -70t123 -53.5t140.5 -48.5t140.5 -56t123 -74.5t87 -105.5t33 -147q0 -57 -18 -113.5t-60 -112t-104 -97.5t-156.5 -68t-210.5 -26t-213.5 24t-218.5 72l58 165
q250 -93 395 -93q152 0 247.5 61t95.5 163q0 68 -42.5 117.5t-110 80t-149.5 57t-163.5 57t-149 70.5t-110 108t-42.5 160q0 82 39.5 157t109.5 131.5t175 90t228 33.5zM715 1932l256 -286l-93 -88l-176 196l-181 -195l-88 78z" />
    <glyph glyph-name="scircumflex" unicode="&#x15d;" horiz-adv-x="1016" 
d="M590 1007q21 0 39.5 -0.5t36 -2.5t30 -3t29 -4t24 -4.5t25 -6t21.5 -5.5t23.5 -7t22.5 -7l-42 -125q-134 37 -236 37q-59 0 -104.5 -12t-70 -29t-40 -39.5t-20 -39.5t-4.5 -33q0 -41 42.5 -73t106 -52t137.5 -47.5t137.5 -58t106 -85.5t42.5 -127q0 -41 -10.5 -79.5
t-40 -80.5t-76 -72.5t-124.5 -50.5t-179 -20q-153 0 -336 75l46 124q103 -38 168.5 -54t128.5 -16q244 0 244 155q0 34 -24 60t-64 42.5t-90.5 34t-103 32.5t-103 39.5t-90.5 54t-64 76.5t-24 106q0 36 11.5 73.5t43 79t78.5 73t125.5 52t177.5 20.5zM556 1498l256 -286
l-93 -88l-176 196l-181 -195l-88 78z" />
    <glyph glyph-name="Scedilla" unicode="&#x15e;" horiz-adv-x="1361" 
d="M947 -316q0 -76 -59 -133t-153 -57q-37 0 -74 8t-163 45l30 104q164 -50 214 -50q43 0 67.5 21t24.5 50q0 41 -35 60t-141 50q-37 11 -58 17l49 181q-107 0 -197.5 24t-211.5 72l58 165q250 -93 395 -93q152 0 247.5 61t95.5 163q0 68 -42.5 117.5t-110 80t-149.5 57
t-163.5 57t-149 70.5t-110 108t-42.5 160q0 82 39.5 157t109.5 131.5t175 90t228 33.5q164 0 353 -57l-55 -155q-180 52 -312 52q-148 0 -250.5 -62.5t-102.5 -161.5q0 -55 33 -98t87 -70t123 -53.5t140.5 -48.5t140.5 -56t123 -74.5t87 -105.5t33 -147q0 -64 -24 -127
t-72 -121.5t-132.5 -102t-194.5 -58.5l-31 -123l11 -3q11 -3 20 -6t24.5 -8.5t28 -13t28 -17.5t26.5 -23t21 -29t15.5 -37t5.5 -44z" />
    <glyph glyph-name="scedilla" unicode="&#x15f;" horiz-adv-x="1016" 
d="M626 -326q0 12 -2.5 22t-9.5 18.5t-14 15.5t-21 13.5t-25.5 11.5t-32 11.5t-35.5 11t-42 12.5t-46 14l47 176q-148 6 -315 75l46 124q103 -38 168.5 -54t128.5 -16q244 0 244 155q0 34 -24 60t-64 42.5t-90.5 34t-103 32.5t-103 39.5t-90.5 54t-64 76.5t-24 106
q0 36 11.5 73.5t43 79t78.5 73t125.5 52t177.5 20.5q21 0 39.5 -0.5t36 -2.5t30 -3t29 -4t24 -4.5t25 -6t21.5 -5.5t23.5 -7t22.5 -7l-42 -125q-134 37 -236 37q-59 0 -104.5 -12t-70 -29t-40 -39.5t-20 -39.5t-4.5 -33q0 -41 42.5 -73t106 -52t137.5 -47.5t137.5 -58
t106 -85.5t42.5 -127q0 -36 -8 -70.5t-30.5 -72t-57.5 -67.5t-93 -54t-133 -33l-32 -122q2 -1 16 -5l21 -6t23 -8t25 -11t24 -13.5t24 -17.5t19.5 -22t17 -26.5t10.5 -31.5t4 -38q0 -71 -55 -127t-149 -56q-21 0 -45.5 3.5t-52.5 10.5t-46 12t-48 14t-36 11l26 91
q157 -47 206 -47q46 0 73 22.5t27 54.5z" />
    <glyph glyph-name="Scaron" unicode="&#x160;" horiz-adv-x="1361" 
d="M739 1558l-256 286l93 88l176 -196l181 195l88 -78zM821 1434q164 0 353 -57l-55 -155q-180 52 -312 52q-148 0 -250.5 -62.5t-102.5 -161.5q0 -55 33 -98t87 -70t123 -53.5t140.5 -48.5t140.5 -56t123 -74.5t87 -105.5t33 -147q0 -57 -18 -113.5t-60 -112t-104 -97.5
t-156.5 -68t-210.5 -26t-213.5 24t-218.5 72l58 165q250 -93 395 -93q152 0 247.5 61t95.5 163q0 68 -42.5 117.5t-110 80t-149.5 57t-163.5 57t-149 70.5t-110 108t-42.5 160q0 82 39.5 157t109.5 131.5t175 90t228 33.5z" />
    <glyph glyph-name="scaron" unicode="&#x161;" horiz-adv-x="1016" 
d="M530 1124l-256 286l93 88l176 -196l181 195l88 -76zM590 1007q21 0 39.5 -0.5t36 -2.5t30 -3t29 -4t24 -4.5t25 -6t21.5 -5.5t23.5 -7t22.5 -7l-42 -125q-134 37 -236 37q-59 0 -104.5 -12t-70 -29t-40 -39.5t-20 -39.5t-4.5 -33q0 -41 42.5 -73t106 -52t137.5 -47.5
t137.5 -58t106 -85.5t42.5 -127q0 -41 -10.5 -79.5t-40 -80.5t-76 -72.5t-124.5 -50.5t-179 -20q-153 0 -336 75l46 124q103 -38 168.5 -54t128.5 -16q244 0 244 155q0 34 -24 60t-64 42.5t-90.5 34t-103 32.5t-103 39.5t-90.5 54t-64 76.5t-24 106q0 36 11.5 73.5t43 79
t78.5 73t125.5 52t177.5 20.5z" />
    <glyph glyph-name="Tcommaaccent" unicode="&#x162;" horiz-adv-x="1210" 
d="M647 -398q51 0 71 23.5t20 49.5q0 14 -6.5 25.5t-21 22t-28.5 18t-39 16t-43 14t-49 14.5t-48 14q7 24 19.5 69.5t15 54.5t9.5 39.5t7.5 39t3 36.5t2.5 50v62v1121h-475v150h1120v-150h-475v-1111q0 -106 -7 -164t-31 -134q158 -47 158 -178q0 -74 -58 -132t-156 -58
q-20 0 -39 2t-46 8.5t-40 10t-55 16t-56 16.5l31 104q163 -49 216 -49z" />
    <glyph glyph-name="tcommaaccent" unicode="&#x163;" horiz-adv-x="755" 
d="M203 1271h164v-283h301v-129h-301v-546q0 -205 162 -205q29 0 153 21l23 -112q-115 -30 -181 -37l-30 -117q1 0 18 -5t24 -7.5t25.5 -9.5t28.5 -13.5t25.5 -16.5t24.5 -22.5t18.5 -27.5t14 -34.5t4.5 -41.5q0 -71 -55 -127t-149 -56q-21 0 -45 3t-53.5 10.5t-45 11.5
t-48.5 14t-35 11l26 91q153 -46 206 -46q46 0 73 22t27 54q0 12 -2.5 22t-9.5 18.5t-13.5 15t-21 13.5t-25.5 11.5t-32 11.5t-36 11.5t-43 12.5t-47 14l50 185q-195 44 -195 307v564h-133v129h133v283z" />
    <glyph glyph-name="Tcaron" unicode="&#x164;" horiz-adv-x="1210" 
d="M658 1558l-256 286l93 88l176 -196l181 195l88 -78zM85 1421h1120v-150h-475v-1271h-170v1271h-475v150z" />
    <glyph glyph-name="tcaron" unicode="&#x165;" horiz-adv-x="755" 
d="M637 1527h180l-158 -390h-180zM203 1271h164v-283h301v-129h-301v-546q0 -205 162 -205q29 0 153 21l23 -112q-145 -37 -226 -37t-137 26t-85 74t-41.5 103.5t-12.5 127.5v548h-133v129h133v283z" />
    <glyph glyph-name="Tbar" unicode="&#x166;" horiz-adv-x="1210" 
d="M85 1421h1120v-150h-475v-518h357v-150h-357v-603h-170v603h-306v150h306v518h-475v150z" />
    <glyph glyph-name="tbar" unicode="&#x167;" horiz-adv-x="755" 
d="M705 17q-145 -37 -226 -37q-65 0 -114 18t-79.5 47.5t-49.5 73.5t-26 90t-7 102v168h-133v109h133v271h-133v129h133v283h164v-283h301v-129h-301v-271h301v-109h-301v-166q0 -205 162 -205q29 0 153 21z" />
    <glyph glyph-name="Utilde" unicode="&#x168;" horiz-adv-x="1580" 
d="M290 1421h170v-921q0 -86 14 -146.5t61 -113.5q100 -113 295 -113q141 0 235.5 61.5t122.5 173.5q12 49 12 138v921h170v-801q0 -22 1 -67t1 -68q0 -35 -1 -61t-7 -68.5t-15.5 -75t-29.5 -73t-46.5 -71t-68 -61.5t-93.5 -50.5t-124 -32t-157 -12.5q-117 0 -210 24.5
t-146 58.5t-91.5 82t-53 82.5t-23.5 72.5q-18 70 -18 187q0 27 1 72t1 61v801zM970 1682q17 0 32.5 7.5t26 17t24 31t20.5 35t22.5 45t23.5 46.5l105 -47q-4 -8 -15.5 -32.5t-17 -35.5t-18 -34t-20.5 -35t-21.5 -31t-25 -29.5t-28 -23.5t-32 -20t-35.5 -11.5t-41 -4.5
q-44 0 -84.5 18.5t-70.5 45t-57.5 53t-55 45t-52.5 18.5q-15 0 -28 -4.5t-24.5 -15.5t-20 -20.5t-20 -29.5t-18 -32.5t-19 -39t-19.5 -40.5l-105 47q4 8 15.5 32.5t17 35.5t18 34t20.5 35t21.5 31t25 29.5t28 23.5t32 20t35.5 11.5t41 4.5q44 0 84.5 -18.5t70.5 -45
t57.5 -53t55 -45t52.5 -18.5z" />
    <glyph glyph-name="utilde" unicode="&#x169;" horiz-adv-x="1181" 
d="M833 988h164v-988h-115l-35 83q-189 -103 -349 -103q-81 0 -141 25.5t-93 63.5t-53 96.5t-25.5 111.5t-5.5 121v590h164v-602q0 -259 225 -259q116 0 264 77v784zM752 1248q15 0 28 4.5t24.5 15.5t20.5 20.5t20 29.5t17.5 32.5t19.5 39.5t20 40l104 -47
q-4 -8 -15.5 -32.5t-17 -35.5t-18 -34t-20.5 -35t-21.5 -31t-25 -29.5t-28 -23.5t-32 -20t-35.5 -11.5t-41 -4.5q-44 0 -84.5 18.5t-70.5 45t-57 53t-54.5 45t-52.5 18.5q-15 0 -28 -4.5t-24.5 -15.5t-20 -20.5t-20 -29.5t-18 -32.5t-19 -39t-19.5 -40.5l-106 47
q3 7 15.5 32.5t17.5 35.5t17.5 34t20.5 35t22 31t25 30t28 23.5t32.5 19.5t35.5 11t41 5q44 0 84.5 -18.5t70.5 -45t57 -53t54.5 -45t52.5 -18.5z" />
    <glyph glyph-name="Umacron" unicode="&#x16a;" horiz-adv-x="1580" 
d="M290 1421h170v-921q0 -86 14 -146.5t61 -113.5q100 -113 295 -113q141 0 235.5 61.5t122.5 173.5q12 49 12 138v921h170v-801q0 -22 1 -67t1 -68q0 -35 -1 -61t-7 -68.5t-15.5 -75t-29.5 -73t-46.5 -71t-68 -61.5t-93.5 -50.5t-124 -32t-157 -12.5q-117 0 -210 24.5
t-146 58.5t-91.5 82t-53 82.5t-23.5 72.5q-18 70 -18 187q0 27 1 72t1 61v801zM395 1697h830v-129h-830v129z" />
    <glyph glyph-name="umacron" unicode="&#x16b;" 
d="M833 988h164v-988h-115l-35 83q-189 -103 -349 -103q-81 0 -141 25.5t-93 63.5t-53 96.5t-25.5 111.5t-5.5 121v590h164v-602q0 -259 225 -259q116 0 264 77v784zM293 1333h598v-129h-598v129z" />
    <glyph glyph-name="Ubreve" unicode="&#x16c;" horiz-adv-x="1580" 
d="M376 1816l123 66q36 -75 100 -131t152 -56q81 0 158.5 54.5t136.5 132.5l113 -77q-80 -107 -192.5 -177.5t-231.5 -70.5q-131 0 -225.5 76.5t-133.5 182.5zM290 1421h170v-921q0 -86 14 -146.5t61 -113.5q100 -113 295 -113q141 0 235.5 61.5t122.5 173.5q12 49 12 138
v921h170v-801q0 -22 1 -67t1 -68q0 -35 -1 -61t-7 -68.5t-15.5 -75t-29.5 -73t-46.5 -71t-68 -61.5t-93.5 -50.5t-124 -32t-157 -12.5q-117 0 -210 24.5t-146 58.5t-91.5 82t-53 82.5t-23.5 72.5q-18 72 -18 185q0 23 1 68t1 67v801z" />
    <glyph glyph-name="ubreve" unicode="&#x16d;" 
d="M833 988h164v-988h-115l-35 83q-189 -103 -349 -103q-81 0 -141 25.5t-93 63.5t-53 96.5t-25.5 111.5t-5.5 121v590h164v-602q0 -259 225 -259q116 0 264 77v784zM208 1382l124 66q36 -75 100 -131t152 -56q81 0 158.5 54.5t136.5 132.5l113 -77q-80 -107 -192.5 -177.5
t-231.5 -70.5q-131 0 -226 76.5t-134 182.5z" />
    <glyph glyph-name="Uring" unicode="&#x16e;" horiz-adv-x="1580" 
d="M810 2007q90 0 155 -65.5t65 -158.5t-65 -159t-155 -66t-155 65.5t-65 159.5q0 93 65 158.5t155 65.5zM810 1916q-55 0 -92.5 -39.5t-37.5 -93.5t36.5 -94t93.5 -40q54 0 91 40.5t37 93.5t-37 93t-91 40zM290 1421h170v-921q0 -86 14 -146.5t61 -113.5q100 -113 295 -113
q141 0 235.5 61.5t122.5 173.5q12 49 12 138v921h170v-801q0 -22 1 -67t1 -68q0 -35 -1 -61t-7 -68.5t-15.5 -75t-29.5 -73t-46.5 -71t-68 -61.5t-93.5 -50.5t-124 -32t-157 -12.5q-117 0 -210 24.5t-146 58.5t-91.5 82t-53 82.5t-23.5 72.5q-18 72 -18 185q0 23 1 68t1 67
v801z" />
    <glyph glyph-name="uring" unicode="&#x16f;" 
d="M833 988h164v-988h-115l-35 83q-189 -103 -349 -103q-81 0 -141 25.5t-93 63.5t-53 96.5t-25.5 111.5t-5.5 121v590h164v-602q0 -259 225 -259q116 0 264 77v784zM592 1573q90 0 155 -65.5t65 -158.5t-64.5 -159t-154.5 -66t-155 65.5t-65 159.5q0 93 64.5 158.5
t154.5 65.5zM593 1482q-55 0 -92.5 -39.5t-37.5 -93.5t36.5 -94t93.5 -40q54 0 90.5 40.5t36.5 93.5t-36.5 93t-90.5 40z" />
    <glyph glyph-name="Uhungarumlaut" unicode="&#x170;" horiz-adv-x="1580" 
d="M290 1421h170v-921q0 -86 14 -146.5t61 -113.5q100 -113 295 -113q141 0 235.5 61.5t122.5 173.5q12 49 12 138v921h170v-801q0 -22 1 -67t1 -68q0 -35 -1 -61t-7 -68.5t-15.5 -75t-29.5 -73t-46.5 -71t-68 -61.5t-93.5 -50.5t-124 -32t-157 -12.5q-117 0 -210 24.5
t-146 58.5t-91.5 82t-53 82.5t-23.5 72.5q-18 72 -18 185q0 23 1 68t1 67v801zM868 1984l80 -116l-484 -339l-71 102zM1388 1984l80 -116l-484 -339l-71 102z" />
    <glyph glyph-name="uhungarumlaut" unicode="&#x171;" horiz-adv-x="1181" 
d="M833 988h164v-988h-115l-35 83q-189 -103 -349 -103q-81 0 -141 25.5t-93 63.5t-53 96.5t-25.5 111.5t-5.5 121v590h164v-602q0 -259 225 -259q116 0 264 77v784zM620 1549l92 -109l-376 -315l-80 100zM1079 1549l92 -109l-376 -315l-80 100z" />
    <glyph glyph-name="Uogonek" unicode="&#x172;" horiz-adv-x="1580" 
d="M288 485q0 23 1 68t1 67v801h170v-921q0 -86 14 -146.5t61 -113.5q100 -113 295 -113q141 0 235.5 61.5t122.5 173.5q12 49 12 138v921h170v-801q0 -21 0.5 -63t0.5 -63q0 -79 -7 -139t-25 -106.5t-38.5 -79.5t-57 -61.5t-71.5 -49t-90 -46.5q-65 -31 -116.5 -68t-81 -71
t-49 -68.5t-26.5 -60t-7 -46.5q0 -49 30 -79.5t78 -30.5q70 0 161 61l49 -92q-133 -102 -262 -102q-90 0 -145 56.5t-55 149.5t47.5 178t115.5 141q-107 0 -192 20.5t-140 51.5t-94.5 79t-59.5 90t-31.5 97.5t-13.5 89t-2 77.5z" />
    <glyph glyph-name="uogonek" unicode="&#x173;" horiz-adv-x="1181" 
d="M535 -354q0 108 90 195.5t258 165.5l-32 74q-184 -101 -342 -101q-71 0 -130 23q-54 21 -92 55t-58.5 71t-31.5 89.5t-14 94.5t-3 102q0 7 2 22t2 23v528h164v-596q0 -24 1 -39t4.5 -44.5t13 -51t24.5 -46t41 -43t61 -29.5q37 -12 80 -12q119 0 264 77v784h164v-1033
q-16 -8 -52 -26.5t-53.5 -28t-48.5 -26.5t-47 -28t-39 -28t-35 -31t-25 -31.5t-18 -36t-5 -38.5q0 -47 27 -73.5t76 -26.5q71 0 167 52l48 -82q-142 -94 -260 -94q-92 0 -146.5 54t-54.5 135z" />
    <glyph glyph-name="Wcircumflex" unicode="&#x174;" horiz-adv-x="2155" 
d="M140 1421h182l357 -1194l360 1194h171l370 -1194l347 1194h168l-426 -1421h-181l-373 1187l-349 -1187h-181zM1130 1936l256 -286l-92 -88l-176 196l-182 -195l-88 78z" />
    <glyph glyph-name="wcircumflex" unicode="&#x175;" horiz-adv-x="1685" 
d="M60 988h175l268 -829l254 829h161l264 -828l268 828h175l-361 -988h-165l-263 801l-260 -801h-165zM843 1503l256 -286l-92 -88l-176 196l-182 -195l-88 78z" />
    <glyph glyph-name="Ycircumflex" unicode="&#x176;" horiz-adv-x="1263" 
d="M100 1421h201l362 -587l370 587h190l-484 -748v-673h-170v673zM678 1932l256 -286l-92 -88l-176 196l-182 -195l-88 78z" />
    <glyph glyph-name="ycircumflex" unicode="&#x177;" horiz-adv-x="1050" 
d="M50 988h170l316 -838l294 838h170l-570 -1519h-175l203 493zM542 1498l256 -286l-93 -88l-176 196l-181 -195l-88 78z" />
    <glyph glyph-name="Ydieresis" unicode="&#x178;" horiz-adv-x="1263" 
d="M100 1421h201l362 -587l370 587h190l-484 -748v-673h-170v673zM793 1898h185v-185h-185v185zM343 1898h185v-185h-185v185z" />
    <glyph glyph-name="Zacute" unicode="&#x179;" horiz-adv-x="1358" 
d="M185 1421h1086v-109l-890 -1162h917v-150h-1143v111l873 1160h-843v150zM961 1976l70 -123l-512 -295l-62 108z" />
    <glyph glyph-name="zacute" unicode="&#x17a;" horiz-adv-x="1078" 
d="M150 988h753v-87l-540 -772h565v-129h-778v87l538 772h-538v129zM686 1549l92 -109l-376 -315l-80 100z" />
    <glyph glyph-name="Zdotaccent" unicode="&#x17b;" horiz-adv-x="1358" 
d="M185 1421h1086v-109l-890 -1162h917v-150h-1143v111l873 1160h-843v150zM606 1829h210v-210h-210v210z" />
    <glyph glyph-name="zdotaccent" unicode="&#x17c;" horiz-adv-x="1078" 
d="M150 988h753v-87l-540 -772h565v-129h-778v87l538 772h-538v129zM433 1421h194v-189h-194v189z" />
    <glyph glyph-name="Zcaron" unicode="&#x17d;" horiz-adv-x="1358" 
d="M185 1421h1086v-109l-890 -1162h917v-150h-1143v111l873 1160h-843v150zM717 1558l-256 286l93 88l176 -196l181 195l88 -78z" />
    <glyph glyph-name="zcaron" unicode="&#x17e;" horiz-adv-x="1078" 
d="M150 988h753v-87l-540 -772h565v-129h-778v87l538 772h-538v129zM519 1124l-256 286l93 88l176 -196l181 195l88 -76z" />
    <glyph glyph-name="uni0191" unicode="&#x191;" horiz-adv-x="1248" 
d="M-107 -503l25 122q88 -24 158 -24q105 0 159.5 54t54.5 156v1616h823v-150h-653v-464h593v-150h-593v-858q0 -176 -91.5 -258t-243.5 -82q-107 0 -232 38z" />
    <glyph glyph-name="florin" unicode="&#x192;" horiz-adv-x="821" 
d="M108 988h170v107q0 124 39 191q39 69 115 106t176 37q108 0 238 -39l-25 -122q-93 24 -159 24q-44 0 -79.5 -9.5t-58 -23t-39 -34.5t-24 -38.5t-12 -41t-5 -35.5t-0.5 -28v-94h331v-129h-331v-1076q0 -27 -1.5 -48t-8 -56.5t-19 -63t-37 -58t-57.5 -51t-85.5 -34
t-117.5 -13.5q-107 0 -237 39l25 122q93 -24 158 -24q60 0 103 16.5t64 37.5t32.5 53.5t13 51.5t1.5 46v1058h-170v129z" />
    <glyph glyph-name="uni022C" unicode="&#x22c;" horiz-adv-x="1686" 
d="M532 2137h740v-129h-740v129zM1169 1878l108 -17q-2 -8 -8 -40.5t-9 -44.5t-10 -42t-14 -43t-18 -36t-24 -34t-30.5 -24t-40 -18t-48.5 -5q-44 0 -85.5 18.5t-72 45t-57.5 53t-53.5 45t-49.5 18.5q-14 0 -25.5 -5t-19.5 -11.5t-15.5 -20t-11.5 -23.5t-9 -29t-7 -29.5
t-6 -33t-6 -30.5l-108 17q2 8 8 40.5t9 44.5t10 42t14 43t18 36t24 34t30.5 24t40 18t48.5 5q44 0 85.5 -18.5t72 -45t57.5 -53t53.5 -45t49.5 -18.5q14 0 25.5 5t19.5 11.5t15.5 20t11.5 23.5t9 29t7 29.5t6 33t6 30.5zM1376 709q0 118 -30 216t-79.5 164t-115 111.5
t-135 66t-141.5 20.5h-3q-70 0 -137.5 -20.5t-130.5 -65t-110 -108.5t-75.5 -158t-28.5 -207q0 -133 39 -245.5t106 -188.5t158.5 -118t196.5 -42q71 0 139.5 21t131.5 66.5t110.5 111.5t76 163t28.5 213zM884 1436q141 0 263.5 -49.5t212 -139.5t140.5 -224.5t51 -295.5
q0 -218 -86.5 -387.5t-240 -262t-347.5 -92.5q-128 0 -245 45.5t-211 132.5t-150 227.5t-56 316.5q0 165 51 302t140 230.5t212 145t266 51.5z" />
    <glyph glyph-name="uni022D" unicode="&#x22d;" horiz-adv-x="1211" 
d="M867 1448l108 -17q-2 -8 -8 -40.5t-9 -44.5t-10 -42t-14 -43t-18 -36t-24 -34t-30.5 -24t-40 -18t-48.5 -5q-44 0 -85.5 18.5t-72 45t-57.5 53t-53.5 45t-49.5 18.5q-12 0 -22.5 -3t-18.5 -10.5t-14.5 -14.5t-12 -20t-9 -22.5t-7 -26.5t-5.5 -27t-5.5 -28.5t-5.5 -27.5
l-108 15q2 8 8 40.5t9 44.5t10 42t14 43t18 36t24 34t30.5 24t40 18t48.5 5q44 0 85.5 -18.5t72 -45t57.5 -53t53.5 -45t49.5 -18.5q14 0 25.5 5t19.5 11.5t15.5 20t11.5 23.5t9 29t7 29.5t6 33t6 30.5zM251 1689h740v-129h-740v129zM611 1007q205 0 337.5 -131t132.5 -362
q0 -245 -135.5 -389.5t-350.5 -144.5q-205 0 -335 135.5t-130 367.5q0 239 132.5 381.5t348.5 142.5zM597 867q-123 0 -215 -95t-92 -261q0 -165 90 -278t233 -113q132 0 220 100t88 261q0 92 -28.5 167t-75 122t-103.5 72t-117 25z" />
    <glyph glyph-name="uni0237" unicode="&#x237;" horiz-adv-x="524" 
d="M180 988h164v-1125q0 -32 -1 -52.5t-6 -57t-14.5 -63.5t-29 -62t-47 -61.5t-70 -53.5t-96.5 -47l-62 124q162 77 162 256v1142z" />
    <glyph glyph-name="circumflex" unicode="&#x2c6;" horiz-adv-x="1479" 
d="M725 1541l256 -286l-93 -88l-176 196l-181 -195l-88 78z" />
    <glyph glyph-name="caron" unicode="&#x2c7;" horiz-adv-x="1078" 
d="M519 1124l-256 286l93 88l176 -196l181 195l88 -76z" />
    <glyph glyph-name="breve" unicode="&#x2d8;" horiz-adv-x="1078" 
d="M147 1382l123 66q36 -75 100 -131t152 -56q81 0 159 54.5t137 132.5l112 -77q-80 -107 -192.5 -177.5t-231.5 -70.5q-131 0 -225.5 76.5t-133.5 182.5z" />
    <glyph glyph-name="dotaccent" unicode="&#x2d9;" horiz-adv-x="1200" 
d="M485 1442h210v-210h-210v210z" />
    <glyph glyph-name="ring" unicode="&#x2da;" horiz-adv-x="1084" 
d="M581 1482q-55 0 -92.5 -39.5t-37.5 -93.5t36.5 -94t93.5 -40q54 0 90.5 40.5t36.5 93.5t-36.5 93t-90.5 40zM580 1573q90 0 155 -65.5t65 -158.5t-64.5 -159t-154.5 -66t-155 65.5t-65 159.5q0 93 64.5 158.5t154.5 65.5z" />
    <glyph glyph-name="ogonek" unicode="&#x2db;" horiz-adv-x="1084" 
d="M662 -544q-90 0 -146 58.5t-56 150.5q0 146 127.5 287.5t310.5 191.5l29 -112q-142 -52 -232.5 -150.5t-90.5 -183.5q0 -49 30 -79.5t77 -30.5q62 0 163 60l48 -90q-143 -102 -260 -102z" />
    <glyph glyph-name="tilde" unicode="&#x2dc;" horiz-adv-x="1400" 
d="M880 1361q15 0 28 4.5t24.5 15.5t20 20.5t20 29.5t18 32.5t19 39t19.5 40.5l105 -47q-4 -8 -15.5 -32.5t-17 -35.5t-18 -34t-20.5 -35t-21.5 -31t-25 -29.5t-28 -23.5t-32 -20t-35.5 -11.5t-41 -4.5q-44 0 -84.5 18.5t-70.5 45.5t-57.5 54t-55 45.5t-52.5 18.5
q-15 0 -28 -4.5t-24.5 -15.5t-20 -21t-19.5 -30t-18 -33t-19.5 -39.5t-19.5 -40.5l-105 47q2 4 19.5 40.5t22.5 46t23 41t28 43t30.5 33.5t38 30.5t42 16.5t50.5 8q44 0 84.5 -18.5t70.5 -45.5t57.5 -54t55 -45.5t52.5 -18.5z" />
    <glyph glyph-name="hungarumlaut" unicode="&#x2dd;" horiz-adv-x="1652" 
d="M1279 1603l80 -116l-484 -339l-71 102zM759 1603l80 -116l-484 -339l-71 102z" />
    <glyph glyph-name="uni02EE" unicode="&#x2ee;" horiz-adv-x="835" 
d="M500 1511h185v-428h-185v428zM110 1511h185v-428h-185v428z" />
    <glyph glyph-name="uni0302" unicode="&#x302;" horiz-adv-x="1479" 
d="M725 1541l256 -286l-93 -88l-176 196l-181 -195l-88 78z" />
    <glyph glyph-name="uni1E02" unicode="&#x1e02;" horiz-adv-x="1424" 
d="M460 1291v-477q19 1 66 1.5t73 1t73 4t75.5 8t69 14t66 22t54 32t44.5 43.5t26.5 57.5t10.5 73.5q0 30 -6 57t-25 58t-49 53t-82.5 37t-121.5 15h-274zM460 682v-532h265q36 0 60.5 0.5t70.5 6t78.5 15t72.5 29t64.5 46.5t41.5 69.5t17 96.5q0 133 -103 208t-277 75
q-19 0 -290 -14zM290 1421h501q73 0 133.5 -15.5t100 -39.5t70 -57t46.5 -64t26 -66t12.5 -57.5t2.5 -42.5q0 -87 -59 -173.5t-125 -111.5q132 -24 216.5 -127.5t84.5 -235.5q0 -31 -5.5 -65t-21.5 -77t-41 -82t-68 -77.5t-98.5 -66.5t-136 -45.5t-176.5 -17.5h-462v1421z
M680 1898h210v-210h-210v210z" />
    <glyph glyph-name="uni1E03" unicode="&#x1e03;" horiz-adv-x="1183" 
d="M354 941q129 67 264 67q60 0 118 -14.5t116.5 -50.5t102.5 -91t71.5 -144.5t27.5 -201.5q0 -244 -129.5 -385t-335.5 -141q-135 0 -265 66l-20 -46h-114v1511h164v-570zM562 872q-107 0 -208 -53v-664q107 -46 211 -46q46 0 89 10t87.5 36.5t77.5 66.5t54 106t21 149
q0 94 -22 166.5t-56 114.5t-80 69t-88 36t-86 9zM527 1898h210v-210h-210v210z" />
    <glyph glyph-name="uni1E0A" unicode="&#x1e0a;" horiz-adv-x="1606" 
d="M742 1898h210v-210h-210v210zM460 1271v-1121h207q45 0 74.5 1t80 6t87 15t83 29t82.5 46t72 69t63 95q66 127 66 309q0 126 -36.5 227.5t-97 165t-129 100.5t-143.5 50q-44 8 -133 8h-276zM730 1421q138 0 251 -27.5t189.5 -77.5t131.5 -113t85.5 -140.5t44.5 -152.5
t14 -156q0 -93 -14 -179t-48.5 -175t-88 -159.5t-138.5 -127t-193 -83.5q-56 -14 -125 -21t-114 -8t-127 -1h-308v1421h440z" />
    <glyph glyph-name="uni1E0B" unicode="&#x1e0b;" horiz-adv-x="1188" 
d="M469 1898h210v-210h-210v210zM621 115q109 0 213 56v660q-107 48 -215 48q-46 0 -89 -10t-88 -36t-77.5 -67t-53.5 -108.5t-21 -154.5q0 -90 22 -160.5t56 -112.5t80 -69t88 -36.5t85 -9.5zM130 477q0 128 36 230t99 167t147.5 99.5t182.5 34.5q109 0 220 -45l19 -8v556
h164v-1511h-114l-27 62q-139 -82 -290 -82q-62 0 -121 15t-117 52t-101.5 92.5t-70.5 142.5t-27 195z" />
    <glyph glyph-name="uni1E1E" unicode="&#x1e1e;" horiz-adv-x="1248" 
d="M460 1271v-464h593v-150h-593v-657h-170v1421h823v-150h-653zM586 1898h210v-210h-210v210z" />
    <glyph glyph-name="uni1E1F" unicode="&#x1e1f;" horiz-adv-x="820" 
d="M662 1292q-59 0 -102 -16.5t-64.5 -38t-34 -52t-15 -50t-2.5 -40.5v-107h331v-129h-331v-859h-166v859h-143v129h143v100q0 130 39 198q39 69 115 106t176 37q107 0 237 -39l-25 -122q-93 24 -158 24zM422 1829h210v-210h-210v210z" />
    <glyph glyph-name="uni1E40" unicode="&#x1e40;" horiz-adv-x="1884" 
d="M290 1421h240l456 -862l463 862h225v-1421h-170v1177l-437 -770h-170l-437 770v-1177h-170v1421zM867 1898h210v-210h-210v210z" />
    <glyph glyph-name="uni1E41" unicode="&#x1e41;" horiz-adv-x="1730" 
d="M575 856q-86 0 -231 -76v-780h-164v988h115l35 -82q179 101 310 101q151 0 237 -110q196 109 351 109q75 0 132 -20.5t92.5 -56t58 -89t31 -113t8.5 -134.5v-593h-165v605q0 22 -1.5 41t-7 51.5t-20 57.5t-36 49.5t-59 38t-86.5 13.5q-92 0 -243 -78q15 -63 15 -192v-586
h-165v608q0 26 -2 49.5t-14 62.5t-32 66.5t-61.5 48.5t-97.5 21zM771 1421h210v-209h-210v209z" />
    <glyph glyph-name="uni1E56" unicode="&#x1e56;" horiz-adv-x="1339" 
d="M290 1421h469q33 0 54.5 -0.5t62.5 -4t70 -10t68.5 -20t67.5 -31.5t58.5 -47.5t49 -65.5t30.5 -87t12 -112q0 -88 -20 -158t-51.5 -117t-81.5 -81t-99 -52.5t-115.5 -29t-119 -13.5t-121.5 -3q-68 0 -164 7v-596h-170v1421zM460 746q96 -8 182 -8q49 0 82 1t81 7t80 16.5
t68 31.5t57.5 49.5t35.5 72t14 99.5q0 58 -15 102.5t-43.5 71.5t-60 44.5t-76 25t-78 10t-79.5 2.5h-248v-525zM607 1898h210v-210h-210v210z" />
    <glyph glyph-name="uni1E57" unicode="&#x1e57;" 
d="M321 925q140 82 291 82q61 0 119 -14.5t116.5 -51t102 -92t71 -144.5t27.5 -200q0 -243 -129.5 -384t-335.5 -141q-109 0 -220 45l-19 8v-564h-164v1519h114zM556 871q-109 0 -212 -55v-659q107 -48 215 -48q46 0 89 10t87.5 36.5t77.5 66.5t54 106t21 149q0 94 -22 166
t-56 114t-80 69t-88 36t-86 9zM537 1421h210v-209h-210v209z" />
    <glyph glyph-name="uni1E60" unicode="&#x1e60;" horiz-adv-x="1361" 
d="M647 1898h210v-210h-210v210zM821 1434q164 0 353 -57l-55 -155q-180 52 -312 52q-148 0 -250.5 -62.5t-102.5 -161.5q0 -55 33 -98t87 -70t123 -53.5t140.5 -48.5t140.5 -56t123 -74.5t87 -105.5t33 -147q0 -57 -18 -113.5t-60 -112t-104 -97.5t-156.5 -68t-210.5 -26
t-213.5 24t-218.5 72l58 165q250 -93 395 -93q152 0 247.5 61t95.5 163q0 68 -42.5 117.5t-110 80t-149.5 57t-163.5 57t-149 70.5t-110 108t-42.5 160q0 82 39.5 157t109.5 131.5t175 90t228 33.5z" />
    <glyph glyph-name="uni1E61" unicode="&#x1e61;" horiz-adv-x="1016" 
d="M590 1007q21 0 39.5 -0.5t36 -2.5t30 -3t29 -4t24 -4.5t25 -6t21.5 -5.5t23.5 -7t22.5 -7l-42 -125q-134 37 -236 37q-59 0 -104.5 -12t-70 -29t-40 -39.5t-20 -39.5t-4.5 -33q0 -41 42.5 -73t106 -52t137.5 -47.5t137.5 -58t106 -85.5t42.5 -127q0 -41 -10.5 -79.5
t-40 -80.5t-76 -72.5t-124.5 -50.5t-179 -20q-153 0 -336 75l46 124q103 -38 168.5 -54t128.5 -16q244 0 244 155q0 34 -24 60t-64 42.5t-90.5 34t-103 32.5t-103 39.5t-90.5 54t-64 76.5t-24 106q0 36 11.5 73.5t43 79t78.5 73t125.5 52t177.5 20.5zM428 1421h210v-209
h-210v209z" />
    <glyph glyph-name="uni1E6A" unicode="&#x1e6a;" horiz-adv-x="1210" 
d="M85 1421h1120v-150h-475v-1271h-170v1271h-475v150zM556 1898h210v-210h-210v210z" />
    <glyph glyph-name="uni1E6B" unicode="&#x1e6b;" horiz-adv-x="755" 
d="M705 17q-145 -37 -226 -37t-137 26t-85 74t-41.5 103.5t-12.5 127.5v548h-133v129h133v283h164v-283h301v-129h-301v-546q0 -205 162 -205q29 0 153 21zM196 1621h210v-210h-210v210z" />
    <glyph glyph-name="Wgrave" unicode="&#x1e80;" horiz-adv-x="2155" 
d="M140 1421h182l357 -1194l360 1194h171l370 -1194l347 1194h168l-426 -1421h-181l-373 1187l-349 -1187h-181zM966 1928l504 -310l-62 -107l-512 294z" />
    <glyph glyph-name="wgrave" unicode="&#x1e81;" horiz-adv-x="1685" 
d="M60 988h175l268 -829l254 829h161l264 -828l268 828h175l-361 -988h-165l-263 801l-260 -801h-165zM705 1549l364 -324l-80 -100l-376 315z" />
    <glyph glyph-name="Wacute" unicode="&#x1e82;" horiz-adv-x="2155" 
d="M140 1421h182l357 -1194l360 1194h171l370 -1194l347 1194h168l-426 -1421h-181l-373 1187l-349 -1187h-181zM1320 1928l70 -123l-512 -294l-62 107z" />
    <glyph glyph-name="wacute" unicode="&#x1e83;" horiz-adv-x="1685" 
d="M60 988h175l268 -829l254 829h161l264 -828l268 828h175l-361 -988h-165l-263 801l-260 -801h-165zM1006 1549l92 -109l-376 -315l-80 100z" />
    <glyph glyph-name="Wdieresis" unicode="&#x1e84;" horiz-adv-x="2155" 
d="M140 1421h182l357 -1194l360 1194h171l370 -1194l347 1194h168l-426 -1421h-181l-373 1187l-349 -1187h-181zM800 1898h185v-185h-185v185zM1250 1898h185v-185h-185v185z" />
    <glyph glyph-name="wdieresis" unicode="&#x1e85;" horiz-adv-x="1685" 
d="M60 988h175l268 -829l254 829h161l264 -828l268 828h175l-361 -988h-165l-263 801l-260 -801h-165zM520 1421h185v-184h-185v184zM970 1421h185v-184h-185v184z" />
    <glyph glyph-name="Ygrave" unicode="&#x1ef2;" horiz-adv-x="1263" 
d="M100 1421h201l362 -587l370 587h190l-484 -748v-673h-170v673zM460 1928l504 -310l-62 -107l-512 294z" />
    <glyph glyph-name="ygrave" unicode="&#x1ef3;" horiz-adv-x="1050" 
d="M50 988h170l316 -838l294 838h170l-570 -1519h-175l203 493zM375 1549l364 -324l-80 -100l-376 315z" />
    <glyph glyph-name="endash" unicode="&#x2013;" horiz-adv-x="1159" 
d="M0 728h1159v-139h-1159v139z" />
    <glyph glyph-name="emdash" unicode="&#x2014;" horiz-adv-x="1384" 
d="M0 728h1384v-139h-1384v139z" />
    <glyph glyph-name="afii00208" unicode="&#x2015;" horiz-adv-x="1600" 
d="M0 728h1600v-139h-1600v139z" />
    <glyph glyph-name="quoteleft" unicode="&#x2018;" horiz-adv-x="450" 
d="M90 1511h195l125 -433h-195z" />
    <glyph glyph-name="quoteright" unicode="&#x2019;" horiz-adv-x="450" 
d="M165 1511h195l-125 -433h-195z" />
    <glyph glyph-name="quotesinglbase" unicode="&#x201a;" horiz-adv-x="450" 
d="M165 217h195l-125 -433h-195z" />
    <glyph glyph-name="quotereversed" unicode="&#x201b;" horiz-adv-x="450" 
d="M285 1511l125 -433h-195l-125 433h195z" />
    <glyph glyph-name="quotedblleft" unicode="&#x201c;" horiz-adv-x="830" 
d="M740 1511l-125 -433h-195l125 433h195zM360 1511l-125 -433h-195l125 433h195z" />
    <glyph glyph-name="quotedblright" unicode="&#x201d;" horiz-adv-x="830" 
d="M545 1511h195l-125 -433h-195zM165 1511h195l-125 -433h-195z" />
    <glyph glyph-name="quotedblbase" unicode="&#x201e;" horiz-adv-x="830" 
d="M545 214h195l-125 -433h-195zM165 214h195l-125 -433h-195z" />
    <glyph glyph-name="uni201F" unicode="&#x201f;" horiz-adv-x="830" 
d="M285 1511l125 -433h-195l-125 433h195zM665 1511l125 -433h-195l-125 433h195z" />
    <glyph glyph-name="dagger" unicode="&#x2020;" horiz-adv-x="942" 
d="M399 148v1028l-229 -10v110l229 -10v245h143v-245l230 10v-110l-230 10v-1028h-143z" />
    <glyph glyph-name="daggerdbl" unicode="&#x2021;" horiz-adv-x="942" 
d="M399 95v1081l-229 -10v110l229 -10v245h143v-245l230 10v-110l-230 10v-1081l230 10v-110l-230 10v-245h-143v245l-229 -10v110z" />
    <glyph glyph-name="bullet" unicode="&#x2022;" horiz-adv-x="640" 
d="M190 863h260v-260h-260v260z" />
    <glyph glyph-name="ellipsis" unicode="&#x2026;" horiz-adv-x="1720" 
d="M180 210h210v-210h-210v210zM745 210h210v-210h-210v210zM1310 210h210v-210h-210v210z" />
    <glyph glyph-name="perthousand" unicode="&#x2030;" horiz-adv-x="1920" 
d="M1054 1421h170l-969 -1421h-170zM1582 623q37 0 72 -10.5t72.5 -37t60.5 -84t23 -140.5q0 -132 -65 -208.5t-164 -76.5q-98 0 -162.5 67t-64.5 219q0 130 67.5 200.5t160.5 70.5zM1581 527q-54 0 -92 -39.5t-38 -134.5q0 -58 12.5 -99t34 -60.5t41.5 -27t43 -7.5
q53 0 91.5 42t38.5 147q0 54 -12.5 91.5t-33.5 55.5t-41.5 25t-43.5 7zM975 623q37 0 72 -10.5t72.5 -37t60.5 -84t23 -140.5q0 -132 -65 -208.5t-164 -76.5q-98 0 -162.5 67t-64.5 219q0 130 67.5 200.5t160.5 70.5zM974 527q-54 0 -92 -39.5t-38 -134.5q0 -58 12.5 -99
t34 -60.5t41.5 -27t43 -7.5q53 0 91.5 42t38.5 147q0 54 -12.5 91.5t-33.5 55.5t-41.5 25t-43.5 7zM327 1363q29 0 56 -5.5t59.5 -23t56 -45.5t39.5 -79t16 -118q0 -133 -64.5 -209.5t-163.5 -76.5q-98 0 -163 67.5t-65 219.5q0 130 68 200t161 70zM326 1268
q-54 0 -92 -39.5t-38 -134.5q0 -58 12.5 -99t34 -60.5t41.5 -27t43 -7.5q53 0 91.5 42t38.5 147q0 54 -12.5 91.5t-33.5 55.5t-41.5 25t-43.5 7z" />
    <glyph glyph-name="minute" unicode="&#x2032;" horiz-adv-x="405" 
d="M110 1511h185v-428h-185v428z" />
    <glyph glyph-name="second" unicode="&#x2033;" horiz-adv-x="810" 
d="M110 1511h185v-428h-185v428zM515 1511h185v-428h-185v428z" />
    <glyph glyph-name="uni2034" unicode="&#x2034;" horiz-adv-x="1215" 
d="M110 1511h185v-428h-185v428zM515 1511h185v-428h-185v428zM920 1511h185v-428h-185v428z" />
    <glyph glyph-name="uni2035" unicode="&#x2035;" horiz-adv-x="405" 
d="M70 1511h195l70 -433h-195z" />
    <glyph glyph-name="guilsinglleft" unicode="&#x2039;" horiz-adv-x="565" 
d="M329 988h186l-274 -365l274 -365h-185l-255 365z" />
    <glyph glyph-name="guilsinglright" unicode="&#x203a;" horiz-adv-x="565" 
d="M50 988h185l255 -365l-254 -365h-186l274 365z" />
    <glyph glyph-name="exclamdbl" unicode="&#x203c;" horiz-adv-x="1300" 
d="M225 200h200v-200h-200v200zM240 1421h170v-963h-170v963zM875 200h200v-200h-200v200zM890 1421h170v-963h-170v963z" />
    <glyph glyph-name="interrobang" unicode="&#x203d;" horiz-adv-x="1046" 
d="M311 200h200v-200h-200v200zM423 1437q70 0 130.5 -9t121.5 -32.5t104 -61t70 -99t27 -141.5q0 -78 -21.5 -142t-56 -108t-76 -82.5t-83 -75t-76 -76t-56 -95t-21.5 -123.5h-150v688h150v-325q11 10 42.5 36t51 43t47 47t44 56t28.5 61.5t12 72.5q0 39 -15 75.5t-48 71
t-95 55.5t-146 21q-137 0 -255 -47l-52 122q141 68 323 68z" />
    <glyph glyph-name="fraction" unicode="&#x2044;" horiz-adv-x="1036" 
d="M841 1421h175l-820 -1421h-176z" />
    <glyph glyph-name="uni204B" unicode="&#x204b;" horiz-adv-x="1338" 
d="M1208 1133q0 -210 -123 -328.5t-313 -118.5v-686h-172v1361h-240v-1361h-170v1511h538q134 0 222.5 -20t155.5 -85q102 -100 102 -273z" />
    <glyph glyph-name="Euro" unicode="&#x20ac;" horiz-adv-x="1335" 
d="M272 504h-222v130h204q0 12 -1.5 36.5t-1.5 37.5q0 76 10 140h-147v130h176q65 209 223.5 331t376.5 122q172 0 348 -76l-47 -141q-176 67 -304 67q-146 0 -258.5 -82.5t-171.5 -220.5h451v-130h-491q-13 -65 -13 -140q0 -42 4 -74h436v-130h-408q52 -163 178 -265.5
t304 -102.5q138 0 290 60l47 -126q-186 -90 -375 -90q-231 0 -393.5 143.5t-214.5 380.5z" />
    <glyph glyph-name="trademark" unicode="&#x2122;" horiz-adv-x="1424" 
d="M383 943h-98v488h-175v80h448v-80h-175v-488zM690 1511h116l172 -317l166 317h120v-568h-98v446l-160 -294h-68l-150 298v-450h-98v568z" />
    <glyph glyph-name="uniFB00" unicode="&#xfb00;" horiz-adv-x="1640" 
d="M1482 1292q-59 0 -102 -16.5t-64.5 -38t-34 -52t-15 -50t-2.5 -40.5v-107h331v-129h-331v-859h-166v859h-143v129h143v100q0 130 39 198q39 69 115 106t176 37q107 0 237 -39l-25 -122q-93 24 -158 24zM662 1292q-59 0 -102 -16.5t-64.5 -38t-34 -52t-15 -50t-2.5 -40.5
v-107h331v-129h-331v-859h-166v859h-143v129h143v100q0 130 39 198q39 69 115 106t176 37q107 0 237 -39l-25 -122q-93 24 -158 24z" />
    <glyph glyph-name="uniFB01" unicode="&#xfb01;" horiz-adv-x="1344" 
d="M985 1421h194v-189h-194v189zM1000 988h164v-988h-164v988zM662 1292q-59 0 -102 -16.5t-64.5 -38t-34 -52t-15 -50t-2.5 -40.5v-107h331v-129h-331v-859h-166v859h-143v129h143v100q0 130 39 198q39 69 115 106t176 37q107 0 237 -39l-25 -122q-93 24 -158 24z" />
    <glyph glyph-name="uniFB02" unicode="&#xfb02;" horiz-adv-x="1384" 
d="M1020 1511h164v-1511h-164v1511zM662 1292q-59 0 -102 -16.5t-64.5 -38t-34 -52t-15 -50t-2.5 -40.5v-107h331v-129h-331v-859h-166v859h-143v129h143v100q0 130 39 198q39 69 115 106t176 37q107 0 237 -39l-25 -122q-93 24 -158 24z" />
    <glyph glyph-name="uniFB03" unicode="&#xfb03;" horiz-adv-x="2164" 
d="M1805 1421h194v-189h-194v189zM1820 988h164v-988h-164v988zM1482 1292q-59 0 -102 -16.5t-64.5 -38t-34 -52t-15 -50t-2.5 -40.5v-107h331v-129h-331v-859h-166v859h-143v129h143v100q0 130 39 198q39 69 115 106t176 37q107 0 237 -39l-25 -122q-93 24 -158 24z
M662 1292q-59 0 -102 -16.5t-64.5 -38t-34 -52t-15 -50t-2.5 -40.5v-107h331v-129h-331v-859h-166v859h-143v129h143v100q0 130 39 198q39 69 115 106t176 37q107 0 237 -39l-25 -122q-93 24 -158 24z" />
    <glyph glyph-name="uniFB04" unicode="&#xfb04;" horiz-adv-x="2204" 
d="M1840 1511h164v-1511h-164v1511zM1482 1292q-59 0 -102 -16.5t-64.5 -38t-34 -52t-15 -50t-2.5 -40.5v-107h331v-129h-331v-859h-166v859h-143v129h143v100q0 130 39 198q39 69 115 106t176 37q107 0 237 -39l-25 -122q-93 24 -158 24zM662 1292q-59 0 -102 -16.5
t-64.5 -38t-34 -52t-15 -50t-2.5 -40.5v-107h331v-129h-331v-859h-166v859h-143v129h143v100q0 130 39 198q39 69 115 106t176 37q107 0 237 -39l-25 -122q-93 24 -158 24z" />
  </font>
</defs>
</svg>
