<?xml version="1.0" standalone="no"?>
<!DOCTYPE svg PUBLIC "-//W3C//DTD SVG 1.1//EN" "http://www.w3.org/Graphics/SVG/1.1/DTD/svg11.dtd" >
<svg xmlns="http://www.w3.org/2000/svg" xmlns:xlink="http://www.w3.org/1999/xlink" version="1.1">
<metadata>
Created by FontForge 20161013 at Thu May 12 22:55:53 2011
 By ,,,
Copyright (c) 2011 Hjort Nidudsson
</metadata>
<defs>
<font id="Caudex" horiz-adv-x="0" >
  <font-face 
    font-family="Caudex"
    font-weight="400"
    font-stretch="normal"
    units-per-em="2048"
    panose-1="2 4 5 2 5 5 5 3 3 4"
    ascent="1638"
    descent="-410"
    x-height="937"
    cap-height="1404"
    bbox="-1612 -606 2897 2034"
    underline-thickness="30"
    underline-position="-160"
    unicode-range="U+0020-FEFF"
  />
<missing-glyph horiz-adv-x="772" 
d="M0 1404h772v-1404h-772v1404zM272 244v-69q0 -73 92 -73t92 73v69q0 73 -92 73t-92 -73zM399 504l3 149q1 60 18 91q16 29 67 61q21 14 37 24q144 88 144 230q0 113 -75 178q-76 65 -210 65q-130 0 -204 -67q-75 -66 -75 -181q0 -26 14 -38q14 -11 44 -11q26 0 44 11
q15 10 17 30q9 116 41 158q31 44 99 44q77 0 117 -47q38 -47 38 -142q0 -88 -40 -151q-42 -64 -147 -137v-266q0 -41 10 -69q8 -25 23 -25q17 0 26 22t9 71z" />
    <glyph glyph-name=".notdef" horiz-adv-x="772" 
d="M0 1404h772v-1404h-772v1404zM272 244v-69q0 -73 92 -73t92 73v69q0 73 -92 73t-92 -73zM399 504l3 149q1 60 18 91q16 29 67 61q21 14 37 24q144 88 144 230q0 113 -75 178q-76 65 -210 65q-130 0 -204 -67q-75 -66 -75 -181q0 -26 14 -38q14 -11 44 -11q26 0 44 11
q15 10 17 30q9 116 41 158q31 44 99 44q77 0 117 -47q38 -47 38 -142q0 -88 -40 -151q-42 -64 -147 -137v-266q0 -41 10 -69q8 -25 23 -25q17 0 26 22t9 71z" />
    <glyph glyph-name=".null" 
 />
    <glyph glyph-name="nonmarkingreturn" horiz-adv-x="550" 
 />
    <glyph glyph-name="space" unicode=" " horiz-adv-x="550" 
 />
    <glyph glyph-name="excl" unicode="!" horiz-adv-x="498" 
d="M294 375q0 -24 -25 -24h-21q-24 0 -24 24l-70 955v10q0 64 73 64h63q74 0 74 -65v-9zM259 230q110 0 110 -87v-82q0 -86 -110 -86t-110 86v82q0 87 110 87z" />
    <glyph glyph-name="quot" unicode="&#x22;" horiz-adv-x="834" 
d="M222 969q0 -12 -19 -12h-15q-18 0 -18 12l-52 440v4q0 30 54 30h47q54 0 54 -29v-5zM594 969q0 -12 -18 -12h-15q-18 0 -18 12l-52 440v4q0 30 54 30h47q54 0 54 -31v-3z" />
    <glyph glyph-name="numbersign" unicode="#" horiz-adv-x="1128" 
d="M383 18v363h-279q-14 0 -14 10v85q0 10 14 10h279v275h-279q-14 0 -14 10v85q0 10 14 10h279v363q0 17 10 17h85q10 0 10 -17v-363h187v363q0 17 11 17h84q11 0 11 -17v-363h278q15 0 15 -10v-85q0 -10 -15 -10h-278v-275h278q15 0 15 -10v-85q0 -10 -15 -10h-278v-363
q0 -18 -11 -18h-84q-11 0 -11 18v363h-187v-363q0 -18 -10 -18h-85q-10 0 -10 18zM488 761v-275h187v275h-187z" />
    <glyph glyph-name="dollar" unicode="$" horiz-adv-x="1024" 
d="M467 1504h46q23 0 23 -23v-124q202 0 363 -104l-23 -197q-2 -18 -15 -18q-3 0 -6 1q-12 1 -24 26q-40 84 -117 144t-165 63q-4 0 -7 0.5t-6 0.5v-503q51 -9 106.5 -17.5t107.5 -24.5q92 -28 140 -79q36 -40 55 -85q26 -60 26 -136q0 -201 -163 -334q-85 -70 -187 -102
q-40 -13 -85 -21v-184q0 -23 -23 -23h-46q-23 0 -23 23v174h-28q-142 0 -261 37l-89 247l2 23q3 17 20 17h2q11 -2 24 -27q54 -117 131 -164t199 -47v566q-53 9 -104 21t-99 36q-83 39 -124 116t-41 167q0 175 122 288q95 88 246 110v130q0 23 23 23zM536 598v-546
q154 22 228 140q44 72 44 172v9q-2 105 -80 161q-37 26 -87 41q-44 12 -105 23zM444 785v478q-35 -8 -65 -22q-43 -20 -70 -50q-24 -24 -43 -64q-16 -35 -24 -72q-6 -30 -6 -57q0 -36 11 -68q19 -61 67 -97q37 -27 80 -37q6 -2 50 -11z" />
    <glyph glyph-name="percnt" unicode="%" horiz-adv-x="1024" 
d="M763 601q-96 -1 -112.5 -77t-16.5 -128v-194q0 -53 18 -129t111 -76q64 0 96.5 60t32.5 145v194q0 84 -29.5 144.5t-99.5 60.5zM763 638q111 0 170 -68.5t59 -162.5v-217q0 -96 -67.5 -162.5t-161.5 -66.5q-120 0 -175 67t-55 162v217q0 95 60.5 163t169.5 68zM274 1321
q-96 -2 -112.5 -78t-16.5 -128v-194q0 -53 18 -129t111 -76q64 0 96.5 60t32.5 145v194q0 84 -29 145t-100 61zM274 1357q112 0 171 -68t59 -162v-218q0 -95 -68 -162.5t-162 -67.5q-119 0 -174 68t-55 162v218q0 95 60 162.5t169 67.5zM929 1400h88l-909 -1400h-88z" />
    <glyph glyph-name="amp" unicode="&#x26;" horiz-adv-x="1292" 
d="M877 302l119 -147q49 -64 156 -114q27 -12 34 -24q2 -6 2 -9q-2 -4 -2 -5q-5 -5 -14 -5h-244q-35 0 -78 68q-33 51 -68 92q-81 -99 -172 -145q-92 -45 -207 -45q-136 0 -217 81q-73 75 -73 191q0 12 1 24q6 120 73 214q63 92 216 194q-61 82 -95 163q-30 69 -30 147
q0 13 1 27q5 132 87 214q80 79 209 79q127 0 194 -64q63 -60 63 -159v-17q-7 -105 -68 -187q-65 -86 -198 -169l268 -351l112 209q8 16 10 33q1 6 1 11q0 10 -3 19q-4 12 -10.5 20t-9.5 17q-1 4 -1 7v3q0 1 2 7q7 19 21 19h258q10 0 15 -6q1 -1 1 -4v-2q0 -3 -1 -7
q-6 -11 -34 -25q-15 -7 -33 -15t-35 -19q-74 -48 -126 -126t-124 -194zM527 759q91 54 133 122q41 67 48 170v15q0 68 -25 117q-28 53 -115 53q-68 0 -107 -45q-40 -48 -44 -129q-1 -11 -1 -21q0 -141 111 -282zM741 214l-303 401q-157 -114 -165 -278q-1 -10 -1 -21
q0 -102 56 -174q61 -80 156 -80q81 0 144.5 44t112.5 108z" />
    <glyph glyph-name="apos" unicode="'" horiz-adv-x="426" 
d="M222 969q0 -12 -19 -12h-15q-18 0 -18 12l-52 440v4q0 30 54 30h47q54 0 54 -29v-5z" />
    <glyph glyph-name="lpar" unicode="(" horiz-adv-x="682" 
d="M139 757q0 138 18 264t80 222q32 50 63.5 90.5t82.5 71.5q100 62 197 62q22 0 22 -30q0 -20 -2 -22q-5 -8 -59.5 -21t-117.5 -76q-70 -70 -100 -202q-28 -129 -28 -476v-143q0 -349 28 -478q30 -130 100 -200q37 -35 68 -53q32 -19 82 -34q26 -9 28 -12q0 -1 1 -20v-5
q0 -15 -5 -21q-6 -6 -21 -6q-71 0 -147 37q-80 39 -151.5 130.5t-100.5 187.5q-38 129 -38 354v380z" />
    <glyph glyph-name="rpar" unicode=")" horiz-adv-x="682" 
d="M602 757v-380q0 -230 -38 -354q-30 -96 -101 -187.5t-150 -130.5q-77 -37 -147 -37q-15 0 -21 6q-7 6 -7 22v4q1 19 3 20q1 3 27 12q48 14 82 34t68 53q71 70 100 200q29 134 29 478v143q0 343 -29 476q-29 131 -100 202q-64 63 -118.5 76t-58.5 21q-2 4 -2 22
q0 30 22 30q96 0 197 -62q51 -31 82.5 -71.5t64.5 -90.5q60 -96 78.5 -222t18.5 -264z" />
    <glyph glyph-name="ast" unicode="*" horiz-adv-x="1024" 
d="M271 843l208 -120v240q0 37 27 37h52q27 0 27 -37v-240l208 120q14 8 25 8q13 0 20 -12l27 -46q3 -6 3 -12q0 -16 -22 -29l-209 -120l209 -121q22 -14 22 -29q0 -6 -3 -12l-27 -46q-7 -12 -20 -12q-11 0 -25 8l-208 120v-240q0 -37 -27 -37h-52q-27 0 -27 37v240
l-208 -120q-14 -9 -25 -9q-13 0 -20 13l-26 46q-4 7 -4 13q0 15 22 28l209 121l-209 120q-22 12 -22 27q0 7 4 14l26 46q7 12 20 12q11 0 25 -8z" />
    <glyph glyph-name="plus" unicode="+" horiz-adv-x="1024" 
d="M200 684h279v279q0 37 27 37h52q27 0 27 -37v-279h279q37 0 37 -26v-53q0 -26 -37 -26h-279v-279q0 -37 -27 -37h-52q-27 0 -27 37v279h-279q-37 0 -37 26v53q0 26 37 26z" />
    <glyph glyph-name="comma" unicode="," horiz-adv-x="480" 
d="M251 230q110 0 110 -87v-82q0 -21 -9.5 -49t-15.5 -48q-41 -112 -153 -189q-37 -23 -60 -23q-15 0 -24 9q-7 7 -7 15q0 9 8 18q16 18 41 32q93 57 111 149h-1q-110 0 -110 86v82q0 87 110 87z" />
    <glyph glyph-name="hyphen" unicode="-" horiz-adv-x="1024" 
d="M200 684h664q37 0 37 -26v-53q0 -26 -37 -26h-664q-37 0 -37 26v53q0 26 37 26z" />
    <glyph glyph-name="period" unicode="." horiz-adv-x="480" 
d="M257 230q110 0 110 -87v-82q0 -86 -110 -86t-110 86v82q0 87 110 87z" />
    <glyph glyph-name="sol" unicode="/" horiz-adv-x="1024" 
d="M0 -70l843 1544h140l-842 -1544h-141z" />
    <glyph glyph-name="zero" unicode="0" horiz-adv-x="1100" 
d="M565 1374q-188 -3 -221 -154t-33 -254v-512q0 -104 35.5 -256t218.5 -152q126 0 190 120t64 288v512q0 168 -58 289q-58 119 -194 119h-2zM565 1446q219 0 335 -135t116 -322v-558q0 -189 -132.5 -322.5t-318.5 -133.5q-234 0 -342.5 134t-108.5 322v558
q0 188 118.5 322.5t332.5 134.5z" />
    <glyph glyph-name="one" unicode="1" horiz-adv-x="1100" 
d="M386 0q-21 0 -21 21q0 24 50 42t50 83v1106h-203v47l384 164v-1317q0 -66 49 -83q50 -17 50 -42q0 -21 -20 -21h-339z" />
    <glyph glyph-name="two" unicode="2" horiz-adv-x="1100" 
d="M167 0v78q0 87 51 152t163 185q66 63 130.5 135.5t124.5 142.5q86 103 126 206q28 72 28 135q0 59 -25 107q-53 99 -153 138q-58 22 -121 22q-48 0 -99 -12q-119 -30 -195 -142q-24 -36 -35 -67h-4v130q10 28 20 47q42 68 115.5 120.5t178.5 68.5q42 6 83 6
q133 0 253 -67q157 -89 160 -295v-4q0 -137 -73 -258q-74 -123 -175 -235t-205 -229.5t-161 -213.5h370q129 0 246 42l2 -150q-57 -35 -123 -38.5t-123 -3.5h-559z" />
    <glyph glyph-name="three" unicode="3" horiz-adv-x="1100" 
d="M725 65q-108 -77 -268 -93q-25 -3 -49 -3q-128 0 -222 73l-5 167h6q62 -104 203 -136q51 -12 97 -12q82 0 151 36q103 54 140 156q20 55 20 110q0 47 -14 93q-32 102 -133 177.5t-272 78.5l-2 28q69 22 158 61.5t137 120.5q38 65 38 131q0 19 -3 39q-15 84 -70 141
q-74 76 -175 76q-9 0 -17 -1q-113 -7 -185 -94q-33 -40 -46 -86h-4v155q84 92 174 127.5t173 35.5q228 -3 304 -184q21 -53 21 -105q0 -128 -133 -254q-28 -27 -66 -55q144 -71 209 -184q57 -99 57 -206q0 -15 -1 -30q-18 -216 -223 -363z" />
    <glyph glyph-name="four" unicode="4" horiz-adv-x="1100" 
d="M844 146q0 -65 71.5 -82.5t71.5 -42.5q0 -21 -21 -21h-423q-21 0 -21 21q0 25 71 42.5t71 82.5v269h-581v114l581 875h180v-848h202v-141h-202v-269zM664 556v690l-453 -690h453z" />
    <glyph glyph-name="five" unicode="5" horiz-adv-x="1100" 
d="M241 762q47 27 87.5 50.5t86.5 40.5q85 31 165 31q45 0 90 -10q121 -28 207 -107q81 -78 112 -175q22 -69 22 -138q0 -29 -4 -58q-24 -168 -145 -284q-66 -64 -157.5 -96.5t-190.5 -38.5q-22 -1 -43 -1q-202 0 -348 94l-5 189h2q51 -90 170 -139q96 -40 181 -40
q20 0 40 2q116 12 197.5 100t101.5 209q5 30 5 59q0 71 -28 141q-39 97 -140 150q-68 35 -149 35q-14 0 -29 -1q-98 -8 -185 -87q-29 -27 -49 -31q-13 -3 -30 -3q-9 0 -18 1q-15 0 -28.5 1t-13.5 31v684q0 26 4 29q4 4 42 4h494q55 0 119 -3.5t119 -37.5v-174
q-110 41 -238 41h-444v-468z" />
    <glyph glyph-name="six" unicode="6" horiz-adv-x="1100" 
d="M551 907q-125 -7 -212.5 -138.5t-87.5 -309.5q0 -179 89 -300q84 -116 201 -116h12q124 6 212 137.5t88 310.5t-88 301q-85 115 -202 115h-12zM316 914q99 57 225 57q32 0 66 -4q166 -18 273 -117q164 -150 166 -375q0 -206 -145 -356q-139 -145 -332 -145h-15
q-208 6 -340 150q-130 140 -130 342v9q3 321 141.5 548t386.5 397q27 18 29 19q23 12 55 12h3q34 -1 66 -1q43 0 43 -9q0 -5 -16 -13q-168 -117 -277 -230.5t-199 -283.5z" />
    <glyph glyph-name="seven" unicode="7" horiz-adv-x="1100" 
d="M399 153q-38 -74 -57 -153l-170 1q-1 12 -1 24q0 50 21 98q25 59 51 109q128 237 295.5 524t278.5 474h-399q-129 0 -237 -41v174q54 34 117.5 37.5t119.5 3.5h494q37 0 41.5 -4t4.5 -42q0 -67 -30 -130q-133 -269 -265 -537.5t-264 -537.5z" />
    <glyph glyph-name="eight" unicode="8" horiz-adv-x="1100" 
d="M574 756q-126 0 -214 -81t-88 -270q0 -190 77.5 -270.5t224.5 -80.5q146 0 223 78t77 273t-87.5 273t-212.5 78zM607 1448q210 -3 310 -102q95 -94 95 -243v-15q-6 -236 -267 -292q139 -35 226 -131.5t93 -261.5v-20q0 -199 -136 -297q-144 -103 -372 -106h-8
q-222 0 -351 108q-132 109 -132 314q0 161 92 260t239 135q-253 60 -253 305v4q1 171 128 258q122 84 322 84h14zM579 1383q-133 0 -191 -82t-58 -197q0 -116 49.5 -197.5t199.5 -81.5q149 0 199 81.5t50 197.5q0 115 -58.5 197t-190.5 82z" />
    <glyph glyph-name="nine" unicode="9" horiz-adv-x="1100" 
d="M578 517q124 6 212 137.5t88 310.5q0 178 -88 300q-85 116 -201 116h-12q-126 -7 -213.5 -138.5t-87.5 -309.5q0 -179 89 -300q84 -116 201 -116h12zM814 510q-99 -57 -225 -57q-33 0 -67 4q-167 18 -273 117q-164 152 -165 376v3q0 203 144 353q139 145 332 145h15
q207 -6 340 -150q131 -142 131 -345v-6q-4 -322 -142.5 -549t-385.5 -396q-27 -18 -29 -19q-24 -12 -56 -12q-2 0 -3 1h-65q-44 0 -44 9q0 5 16 13q168 117 277.5 229.5t199.5 283.5z" />
    <glyph glyph-name="colon" unicode=":" horiz-adv-x="512" 
d="M257 948q110 0 110 -87v-82q0 -87 -110 -87t-110 87v82q0 87 110 87zM257 230q110 0 110 -87v-82q0 -86 -110 -86t-110 86v82q0 87 110 87z" />
    <glyph glyph-name="semi" unicode=";" horiz-adv-x="512" 
d="M257 948q110 0 110 -87v-82q0 -87 -110 -87t-110 87v82q0 87 110 87zM257 230q110 0 110 -87v-82q0 -21 -9.5 -49t-16.5 -48q-39 -112 -152 -189q-37 -24 -60 -24q-15 0 -24 10q-7 7 -7 15q0 9 8 18q16 18 41 32q93 57 111 149h-1q-110 2 -110 86v82q0 87 110 87z" />
    <glyph glyph-name="lt" unicode="&#x3c;" horiz-adv-x="1024" 
d="M188 607q-10 10 -10 22q0 16 21 36l617 603q20 19 36 19q12 0 22 -10l48 -49q9 -10 9 -22q0 -17 -19 -36l-551 -539l551 -538q19 -20 19 -37q0 -11 -9 -21l-48 -48q-10 -10 -22 -10q-16 0 -36 19z" />
    <glyph glyph-name="equals" unicode="=" horiz-adv-x="1024" 
d="M204 537h663q37 0 37 -27v-52q0 -27 -37 -27h-663q-37 0 -37 27v52q0 27 37 27zM204 832h663q37 0 37 -27v-52q0 -27 -37 -27h-663q-37 0 -37 27v52q0 27 37 27z" />
    <glyph glyph-name="gt" unicode="&#x3e;" horiz-adv-x="1024" 
d="M922 656q10 -10 10 -22q0 -16 -20 -36l-618 -602q-20 -19 -37 -19q-11 0 -21 10l-48 48q-10 10 -10 22q0 16 21 36l551 539l-551 538q-21 19 -21 36q0 11 10 22l48 49q10 10 21 10q17 0 37 -19z" />
    <glyph glyph-name="quest" unicode="?" horiz-adv-x="784" 
d="M419 441q0 -53 -10 -83q-11 -26 -30 -26q-17 0 -27 30q-11 29 -11 80v307q124 88 170 160q47 74 47 174q0 109 -45 165q-45 54 -135 54q-79 0 -116 -50q-37 -52 -47 -183q-2 -23 -20 -35q-18 -13 -51 -13q-34 0 -51 13q-15 13 -15 43q0 133 87 211q87 77 236 77
q154 0 243 -75q87 -75 87 -206q0 -164 -167 -268q-18 -11 -43 -26q-61 -39 -77 -72q-18 -31 -21 -105zM379 223q107 0 107 -84v-80q0 -83 -107 -83q-106 0 -106 83v80q0 84 106 84z" />
    <glyph glyph-name="commat" unicode="@" horiz-adv-x="2119" 
d="M1839 178q-51 -66 -117.5 -122t-143.5 -87q-89 -38 -175 -38q-64 0 -126 21q-95 33 -95 135v4l-308 -105q-33 -11 -55 -11h-41q-142 7 -218 116q-61 85 -61 209q0 111 45 223t110 188q37 44 111 92q24 15 55 27q87 30 174.5 60t175.5 60q18 6 34 6h5q63 -3 147 -32
q6 -2 9 -4q20 -9 50 -20q12 -4 22 -4q16 0 30 9q26 18 37 30q6 7 15 7q4 0 9 -2q18 -8 18 -18v-2l-167 -721q-9 -40 -9 -71q0 -88 72 -106q18 -5 37 -5q38 0 82 18q68 26 123 77q90 82 150 238q60 158 60 349q0 343 -212 507t-516 164q-227 0 -447 -113q-221 -112 -359 -345
q-138 -231 -138 -525q0 -229 92 -416q91 -186 269 -291q175 -104 422 -104q208 0 393 73q168 67 298 175q4 4 9 4q6 0 13 -7t7 -17q0 -9 -5 -19q-11 -24 -25 -37q-147 -136 -334.5 -195.5t-400.5 -59.5q-400 0 -656 252q-256 253 -256 643q0 444 321 750q321 304 788 304
q374 0 618 -202q244 -204 244 -538q0 -289 -180 -524zM1187 145l143 624q-32 38 -91.5 70.5t-111.5 34.5h-4q-20 0 -41 -8q-39 -13 -78 -26.5t-78 -26.5q-26 -9 -46 -26q-77 -66 -120.5 -160t-57.5 -186q-8 -47 -8 -89q0 -85 32 -145q47 -93 140 -121q37 -11 75 -11
q12 0 25 1q23 2 56 13q22 7 75 25.5t90 30.5z" />
    <glyph glyph-name="A" unicode="A" horiz-adv-x="1593" 
d="M838 1427q50 -118 123.5 -289t152 -352t152 -352t124.5 -288q15 -37 59 -67q23 -15 45.5 -25t36.5 -19q10 -7 13 -14q2 -4 2 -8q0 -3 -2 -7q-3 -6 -12 -6h-338q-9 0 -18 6q-10 7 -12 15q-2 3 -2 6q0 9 12 19q9 9 22 19t19 27q3 8 3 18q0 17 -8 37l-148 342h-583
q-36 -86 -71.5 -171.5t-71.5 -170.5q-9 -20 -10 -36q-1 -7 -1 -14q0 -10 3 -19q3 -13 10 -21.5t10 -17.5q1 -8 1 -11t-2 -7q-7 -21 -22 -21h-258q-10 0 -14 6q0 1 -2 5q0 2 2 10q6 13 34 26q15 7 32.5 15.5t35.5 20.5q37 26 54 63l567 1281h62zM1027 570l-261 609
q-64 -153 -127.5 -305t-126.5 -304h515z" />
    <glyph glyph-name="B" unicode="B" horiz-adv-x="1240" 
d="M704 1404q98 0 204.5 -34.5t163.5 -134.5q46 -80 46 -194q-2 -108 -62 -192q-43 -63 -133 -104q142 -46 208 -159q50 -89 50 -214q-2 -119 -68 -212q-57 -81 -161 -120.5t-191 -39.5h-627q-21 0 -21 21q0 25 50 43t50 82v1112q0 63 -50 81t-50 44q0 21 21 21h570z
M393 687v-614h226q73 0 147.5 21.5t128.5 74.5q83 81 83 214q0 128 -87 214q-94 90 -251 90h-247zM393 774h276q118 13 190 82q75 73 75 194q0 118 -79 194q-85 81 -226 81h-236v-551z" />
    <glyph glyph-name="C" unicode="C" horiz-adv-x="1405" 
d="M848 -37q-307 0 -544 196t-237 542q0 337 230.5 540.5t550.5 203.5q115 0 244.5 -25.5t246.5 -100.5l-24 -210q-4 -18 -20 -18h-3q-12 1 -26 28q-58 125 -174 184q-108 53 -230 53h-21q-270 -12 -422 -216q-137 -183 -137 -405q0 -25 2 -50q14 -230 162 -419t402 -201
q24 -1 46 -1q128 0 211 39q96 46 161 185q13 28 32 28q4 0 8 -1q16 -6 16 -23q0 -8 -4 -18l-87 -243q-96 -40 -195 -54t-188 -14z" />
    <glyph glyph-name="D" unicode="D" horiz-adv-x="1585" 
d="M1500 791q2 -33 2 -64q0 -166 -61 -298q-74 -158 -206 -260q-224 -172 -546 -176h-80q-58 0 -109 1h-117q-83 0 -126 3h-24q-40 0 -104 -6q-21 0 -21 22q0 25 50 43t50 83v1123q0 64 -50 81.5t-50 43.5q0 21 21 21q42 -1 85 -1q42 0 86 1q86 3 168 5h59q153 0 308 -8
q183 -11 330 -74q138 -61 229 -187.5t106 -352.5zM399 1313v-1213q124 -23 238 -23q44 0 86 3q153 12 271 74q141 74 222 226q74 140 74 356v33q-4 162 -57.5 271.5t-141.5 175.5q-129 96 -313 113q-63 5 -127 5q-123 0 -252 -21z" />
    <glyph glyph-name="E" unicode="E" horiz-adv-x="1251" 
d="M436 94h427q93 0 157.5 71.5t97.5 111.5q18 22 28 22q21 0 21 -21q0 -13 -2 -21l-73 -257h-919q-18 0 -18 21q0 25 50 42.5t50 82.5v1111q0 65 -50 82.5t-50 43.5q0 21 21 21h928v-257q0 -21 -21 -21q-10 0 -37 40q-50 69 -86.5 107t-96.5 38h-427v-543h229q64 0 84 51.5
t46 51.5q20 0 20 -21v-254q0 -21 -20 -21q-26 0 -49 51t-87 51h-223v-583z" />
    <glyph glyph-name="F" unicode="F" horiz-adv-x="1139" 
d="M174 0q-19 0 -19 21q0 12 21 25q15 10 35.5 23t33.5 35q10 20 10 42v1111q0 65 -50 82.5t-50 43.5q0 21 21 21h928v-257q0 -21 -21 -21q-10 0 -37 40q-50 69 -86.5 107t-96.5 38h-427v-543h229q42 0 74 37q18 22 29 44t27 22q20 0 20 -21v-254q0 -21 -20 -21
q-18 0 -30.5 25.5t-33.5 49.5q-28 28 -66 28h-229v-532q0 -28 13 -49q12 -18 30 -29.5t33 -20.5q23 -14 23 -26q0 -6 -1 -9q-7 -12 -19 -12h-341z" />
    <glyph glyph-name="G" unicode="G" horiz-adv-x="1563" 
d="M848 -37q-307 0 -544 196t-237 542q0 337 230.5 540.5t550.5 203.5q115 0 244.5 -25.5t246.5 -100.5l-24 -210q-4 -18 -20 -18h-3q-12 1 -26 28q-65 139 -161.5 185t-256.5 46q-223 0 -397 -155t-174 -494q0 -218 162.5 -421t408.5 -215q24 -1 46 -1q114 0 192 30
q93 36 156 146v188q-2 31 -32 48q-27 14 -79 35.5t-52 42.5t21 21h401q21 0 21 -21q0 -26 -50 -44t-50 -82v-389q-154 -7 -297 -43q-72 -19 -142 -26t-135 -7z" />
    <glyph glyph-name="H" unicode="H" horiz-adv-x="1638" 
d="M435 1257v-468h845v468q0 64 -50 82t-50 44q0 21 21 21h339q21 0 21 -21q0 -26 -50.5 -44t-50.5 -82v-1111q0 -65 50.5 -82.5t50.5 -42.5q0 -21 -21 -21h-339q-21 0 -21 21q0 25 50 42.5t50 82.5v551h-845v-551q0 -65 50 -82.5t50 -42.5q0 -21 -20 -21h-339q-21 0 -21 21
q0 25 50 42.5t50 82.5v1111q0 64 -50 82t-50 44q0 21 21 21h339q20 0 20 -21q0 -26 -50 -44t-50 -82z" />
    <glyph glyph-name="I" unicode="I" horiz-adv-x="690" 
d="M435 1257v-1110q0 -66 50 -83.5t50 -42.5q0 -21 -21 -21h-339q-20 0 -20 21q0 25 50 42.5t50 82.5v1111q0 65 -50 82.5t-50 43.5q0 21 21 21h338q21 0 21 -21q0 -26 -50 -43.5t-50 -82.5z" />
    <glyph glyph-name="J" unicode="J" horiz-adv-x="682" 
d="M430 180q0 -197 -26.5 -293t-91.5 -164q-90 -92 -202 -122v50q39 24 73 61.5t53 98.5q12 41 12.5 115t0.5 248v1084q0 64 -50 82t-50 44q0 20 21 20h339q21 0 21 -20q0 -26 -50 -44t-50 -82v-1078z" />
    <glyph glyph-name="K" unicode="K" horiz-adv-x="1487" 
d="M435 746l523 495q78 73 132 126q36 36 72 36q18 0 36 -9l106 -52q17 -10 17 -24q0 -6 -3 -13l-52 -146l-69 29q-39 16 -72 16q-52 0 -91 -39l-403 -393l752 -694q21 -21 44.5 -31.5t23.5 -25.5q0 -21 -20 -21h-339q-21 0 -21 21q0 8 11 18q18 15 20 27v1q0 13 -36 44
l-631 582v-547q0 -65 50 -82.5t50 -42.5q0 -21 -20 -21h-339q-21 0 -21 21q0 25 50 42.5t50 82.5v1111q0 64 -50 82t-50 44q0 21 21 21h339q20 0 20 -21q0 -26 -50 -44t-50 -82v-511z" />
    <glyph glyph-name="L" unicode="L" horiz-adv-x="1251" 
d="M436 94h427q93 0 157.5 71.5t97.5 111.5q18 22 28 22q21 0 21 -21q0 -13 -2 -21l-73 -257h-916q-21 0 -21 21q0 25 50 42.5t50 82.5v1111q0 64 -50 82t-50 44q0 21 21 21h339q20 0 20 -21q0 -26 -50 -44t-50 -82z" />
    <glyph glyph-name="M" unicode="M" horiz-adv-x="1908" 
d="M1697 1257v-1111q0 -65 50.5 -82.5t50.5 -42.5q0 -21 -21 -21h-339q-21 0 -21 21q0 25 50 42.5t50 82.5v1071l-577 -1247h-39l-571 1200v-1024q0 -65 50 -82.5t50 -42.5q0 -21 -21 -21h-254q-21 0 -21 21q0 25 50 42.5t50 82.5v1111q0 64 -50 82t-50 44q0 21 21 21h266
l547 -1122l530 1122h279q21 0 21 -21q0 -26 -50.5 -44t-50.5 -82z" />
    <glyph glyph-name="N" unicode="N" horiz-adv-x="1644" 
d="M1369 203v1054q0 64 -49.5 82t-49.5 44q0 21 20 21h255q21 0 21 -21q0 -26 -50 -44t-50 -82l-1 -1300l-177 43l-958 1189v-1043q0 -65 50 -82.5t50 -42.5q0 -21 -21 -21h-254q-21 0 -21 21q0 25 50 42.5t50 82.5v1111q0 64 -50 82t-50 44q0 21 21 21h257z" />
    <glyph glyph-name="O" unicode="O" horiz-adv-x="1610" 
d="M808 1358q-307 -1 -429 -193.5t-122 -462.5q0 -271 153 -462.5t398 -193.5h5q239 0 393 204q152 202 152 446v6q-2 249 -130 452.5t-420 203.5zM808 1446h10q323 0 545 -198q207 -185 207 -488q0 -27 -2 -55q-21 -344 -238.5 -533.5t-523.5 -206.5q-23 -1 -46 -1
q-278 0 -492 192q-220 196 -220 513q0 18 1 36q12 341 220.5 539t538.5 202z" />
    <glyph glyph-name="P" unicode="P" horiz-adv-x="1237" 
d="M414 146q0 -65 50 -82.5t50 -42.5q0 -21 -20 -21h-339q-21 0 -21 21q0 25 49 42.5t49 82.5l2 1111q0 64 -50 82t-50 44q0 21 21 21h590q103 0 215 -36.5t173 -141.5q48 -85 48 -204q-2 -113 -65 -203q-54 -77 -153.5 -114.5t-181.5 -37.5h-367v-521zM414 1321v-584h232
q69 0 140 20t122 71q80 77 80 204q0 122 -83 204q-89 85 -239 85h-252z" />
    <glyph glyph-name="Q" unicode="Q" horiz-adv-x="1610" 
d="M808 1358q-307 -1 -429 -193.5t-122 -462.5q0 -271 153 -462.5t398 -193.5h5q239 0 393 204q152 202 152 446v6q-2 249 -130 452.5t-420 203.5zM690 -33q-270 27 -461 228q-181 189 -181 474q0 18 1 36q12 341 220.5 539t538.5 202h10q323 0 545 -198q207 -185 207 -488
q0 -27 -2 -55q-20 -329 -221 -517.5t-488 -218.5q68 -25 125 -52q218 -101 320 -101q34 0 100 19v-50q-97 -56 -142 -105q-69 9 -134 28q-66 20 -182 68q-204 83 -271 83q-17 0 -42 -10q-28 -11 -108 -64v63q106 82 165 119z" />
    <glyph glyph-name="R" unicode="R" horiz-adv-x="1368" 
d="M1263 72q28 -23 73 -27q28 -3 28 -21v-3q-3 -21 -21 -21h-267q-9 0 -68 78t-137 186t-160 221t-137 182h-160v-521q0 -65 50 -82.5t50 -42.5q0 -21 -20 -21h-339q-21 0 -21 21q0 25 50 42.5t50 82.5v1111q0 64 -50 82t-50 44q0 21 21 21h590q103 0 215 -36.5t173 -141.5
q48 -85 48 -204q-2 -113 -65 -203q-50 -71 -139 -108.5t-169 -42.5zM414 1321v-584h232q69 0 140 20t122 71q80 77 80 204q0 122 -83 204q-89 85 -239 85h-252z" />
    <glyph glyph-name="S" unicode="S" horiz-adv-x="1075" 
d="M535 55q81 5 155.5 42.5t119.5 109.5q47 75 47 181v11q-3 113 -86 173q-38 28 -92 44q-106 29 -216.5 41t-209.5 60q-89 42 -133 123.5t-44 177.5q0 188 131 307q134 124 338 124h30q223 -10 379 -111l-24 -210q-2 -18 -19 -18h-4q-13 1 -25 28q-43 90 -125 153.5
t-177 67.5h-16q-92 0 -164 -33q-47 -24 -75 -53q-26 -28 -46 -69q-16 -33 -25 -77q-7 -32 -7 -61q0 -39 12 -72q21 -67 72 -103q39 -29 85 -40q25 -7 61 -13.5t75 -12.5q57 -9 120.5 -18.5t123.5 -27.5q100 -32 149 -85q36 -41 59 -90q27 -66 27 -145q0 -214 -174 -356
q-90 -74 -199 -109q-88 -28 -188 -32q-22 -1 -43 -1q-139 0 -266 39l-95 264q-2 5 -2 10q0 10 7 20q8 13 21 13q12 -3 25 -29q64 -139 161 -186q80 -39 203 -39q26 0 54 2z" />
    <glyph glyph-name="T" unicode="T" horiz-adv-x="1255" 
d="M1215 1147q0 -21 -21 -21q-9 0 -38 40q-51 69 -87.5 107t-96.5 38h-251v-1165q0 -65 50 -83t50 -43q0 -20 -20 -20h-339q-21 0 -21 20q0 25 50 43t50 83v1165h-255q-60 0 -97.5 -38t-87.5 -107q-28 -40 -37 -40q-21 0 -21 21v185q0 54 18.5 65.5t95.5 11.5h944
q83 0 98.5 -10t15.5 -67v-185z" />
    <glyph glyph-name="U" unicode="U" horiz-adv-x="1554" 
d="M234 588v670q0 64 -50 81.5t-50 43.5q0 21 21 21h339q20 0 20 -21q0 -26 -49 -42.5t-49 -80.5v-539q0 -153 10 -271t52 -199q41 -81 126 -123t235 -42q264 0 358 208q67 146 67 427v536q0 64 -50 82t-50 44q0 21 21 21h255q20 0 20 -21q0 -26 -49.5 -44t-49.5 -82v-669
q-1 -149 -27.5 -272.5t-97.5 -207.5q-127 -147 -397 -147q-171 0 -291 32t-192 116q-122 141 -122 479z" />
    <glyph glyph-name="V" unicode="V" horiz-adv-x="1479" 
d="M392 1263l424 -1086l454 930q13 26 13 47q0 18 -9 32q-19 30 -59 78l-49 57l124 94q8 7 17 7q10 0 22 -10l82 -84q26 -27 26 -66q0 -22 -8 -47q-24 -71 -71 -167l-490 -1016q-7 -17 -14 -26q-8 -6 -16 -6h-151q-10 0 -16 8q-3 3 -10.5 23t-10.5 29l-378 1050
q-40 106 -58 148q-18 37 -59 67q-24 15 -46.5 24.5t-36.5 19.5q-9 5 -12 14q-3 4 -3 9q0 3 2 6q4 6 12 6h339q9 0 18 -6q9 -8 12 -15q1 -3 1 -5q0 -10 -11 -20q-10 -9 -22.5 -19.5t-18.5 -25.5q-4 -10 -4 -21q0 -14 7 -29z" />
    <glyph glyph-name="W" unicode="W" horiz-adv-x="2048" 
d="M350 1263l424 -1086l244 499l-157 434q-18 51 -32.5 87t-24.5 61q-18 37 -59 67q-24 15 -46.5 24.5t-36.5 19.5q-8 5 -13 14q-1 5 -1 8q0 4 1 7q3 6 12 6h339q9 0 17 -6q10 -7 13 -15q1 -3 1 -5q0 -10 -11 -20q-10 -9 -22.5 -19.5t-18.5 -25.5q-4 -10 -4 -21q0 -14 7 -29
l143 -366l103 210q12 26 12 47q0 18 -8 32q-20 30 -59 78l-50 57l125 94q8 7 17 7q10 0 22 -10l82 -84q26 -27 26 -66q0 -22 -8 -47q-24 -71 -71 -167l-138 -286l228 -585l454 930q12 26 12 47q0 18 -8 32q-20 30 -60 78l-49 57l124 94q8 7 17 7q11 0 23 -10l82 -84
q26 -27 26 -66q0 -22 -8 -47q-24 -71 -71 -167l-490 -1016q-7 -18 -15 -26q-6 -6 -16 -6h-150q-11 0 -16 8q-4 3 -11 23t-10 29l-171 475l-243 -503q-7 -18 -15 -26q-6 -6 -16 -6h-150q-11 0 -16 8q-4 3 -11 23t-10 29l-436 1198q-14 35 -59 67q-24 15 -46.5 24.5
t-36.5 19.5q-8 5 -13 14q-1 5 -1 8q0 4 1 7q3 6 12 6h339q9 0 18 -6q9 -8 12 -15q1 -3 1 -5q0 -10 -11 -20q-10 -9 -22.5 -19.5t-18.5 -25.5q-4 -10 -4 -21q0 -14 7 -29z" />
    <glyph glyph-name="X" unicode="X" horiz-adv-x="1366" 
d="M332 78l9 -39q0 -12 -10 -25.5t-24 -13.5h-258q-12 0 -13 6v5q0 16 32 30l52 21q75 32 113 84l394 552l-363 560q-39 58 -130 92q-25 8 -39 16q-24 14 -24 28v4q1 6 10 6h339q17 0 28 -13t11 -19t-7 -14.5t-17 -19t-11 -25.5v-5q0 -23 16 -45l281 -432l267 373
q69 96 117 151t90 55q10 0 20 -3l99 -31q17 -7 17 -17q0 -11 -2 -18l-42 -170l-65 15q-54 12 -87 14h-3q-32 0 -64 -47l-289 -411l387 -596q32 -51 130 -92q24 -10 38 -18q26 -15 26 -25q0 -11 -11 -11h-339q-9 0 -20 6q-19 10 -19 21t16.5 31t18.5 33v7q0 20 -13 43
l-308 468l-324 -462q-29 -41 -29 -69z" />
    <glyph glyph-name="Y" unicode="Y" horiz-adv-x="1366" 
d="M589 677l-349 581q-23 34 -77 67q-28 15 -53.5 24.5t-41.5 19.5q-11 6 -17 14q-4 6 -4 11v4q1 6 10 6h339q10 0 19 -6q11 -7 17 -15q3 -5 3 -10q0 -7 -7 -15q-7 -9 -17 -19.5t-11 -25.5v-5q0 -22 16 -45l337 -534l259 395q29 44 34 76q1 5 1 10q0 30 -24 78l-34 68
l143 62q7 3 13 3q13 0 24 -16l60 -101q11 -19 11 -38q0 -34 -34 -69q-53 -56 -113 -143l-266 -388q-18 -27 -23.5 -76t-5.5 -93v-351q0 -65 50 -82.5t50 -42.5q0 -21 -21 -21h-339q-21 0 -21 21q0 25 50 42.5t50 82.5v427q0 58 -28 104z" />
    <glyph glyph-name="Z" unicode="Z" horiz-adv-x="1366" 
d="M48 61l972 1251l-608 -1q-60 0 -97 -38t-87 -107q-28 -40 -38 -40q-21 0 -21 21v185q0 54 19 65.5t95 11.5h924q82 0 100 -17q7 -7 7 -18q0 -17 -15 -42l-982 -1234l781 1q60 0 97 37.5t88 107.5q28 39 37 39q21 0 21 -21v-185q0 -58 -15.5 -67.5t-97.5 -9.5h-1071
q-84 0 -113 9q-14 4 -14 16q0 13 18 36z" />
    <glyph glyph-name="lsqb" unicode="[" horiz-adv-x="682" 
d="M483 -367q17 0 17 -27q0 -26 -12 -26h-247q-21 0 -21 20v1836q0 30 21 30h247q12 0 12 -28q0 -29 -17 -29h-145v-1776h145z" />
    <glyph glyph-name="bsol" unicode="\" horiz-adv-x="1024" 
d="M989 -70h-141l-843 1544h141z" />
    <glyph glyph-name="rsqb" unicode="]" horiz-adv-x="682" 
d="M237 -367h146v1776h-146q-17 0 -17 29q0 28 13 28h247q21 0 21 -30q0 -170 -0.5 -414.5t-0.5 -504.5v-504q0 -244 1 -413q0 -20 -21 -20h-247q-13 0 -13 26q0 27 17 27z" />
    <glyph glyph-name="circ" unicode="^" horiz-adv-x="1024" 
d="M479 1430h107l313 -518h-56l-311 400l-312 -400h-54z" />
    <glyph glyph-name="lowbar" unicode="_" horiz-adv-x="1024" 
d="M0 -218h1021v-118h-1021v118z" />
    <glyph glyph-name="grave" unicode="`" horiz-adv-x="1024" 
d="M650 1108l-426 159q-47 17 -47 69q0 74 74 74q24 0 42 -13l374 -258q8 -7 8 -15q0 -17 -18 -17q-5 0 -7 1z" />
    <glyph glyph-name="a" unicode="a" horiz-adv-x="1155" 
d="M797 87l-275 -101q-32 -11 -53 -11h-41q-142 7 -245 116t-117 268q-4 42 -4 81q0 52 7 101q12 85 66 170q26 44 89 92q22 15 49 27q80 30 160.5 60t161.5 60q17 6 32 6h5q64 -3 155 -32q8 -3 10 -4q22 -9 54 -20q13 -4 24 -4q16 0 28 9q21 18 30 30q5 7 13 7q5 0 10 -2
q22 -8 22 -20v-774q0 -65 50 -82.5t50 -42.5q0 -21 -21 -21h-243q-17 0 -17 13v74zM797 769q-41 38 -108 70.5t-119 34.5h-4q-20 0 -40 -8q-36 -13 -71.5 -26.5t-71.5 -26.5q-25 -10 -40 -26q-62 -66 -83 -160q-17 -71 -17 -141q0 -22 2 -45q11 -144 78 -234
q67 -93 168 -121q38 -11 77 -11q12 0 25 1q22 2 52 13q23 8 72 26.5t80 30.5v623z" />
    <glyph glyph-name="b" unicode="b" horiz-adv-x="1139" 
d="M343 161q40 -39 106.5 -71.5t120.5 -33.5h6q16 0 37 8l72 26t72 27q22 8 40 26q61 65 83 159q16 73 16 146q0 21 -1 41q-11 143 -78 234t-168 121q-41 11 -81 11q-11 0 -22 -1q-23 -3 -52 -13q-23 -9 -72 -27t-79 -29v-624zM343 10q-23 9 -55 20q-14 4 -25 4
q-15 0 -26 -9q-22 -19 -30 -29q-5 -7 -13 -7q-5 0 -10 2q-22 8 -22 20v1246q0 64 -50 82t-50 44q0 21 21 21q66 3 130.5 20t129.5 39v-620l275 102q29 10 52 12q9 0 19.5 -0.5t22.5 -0.5q142 -7 244 -116q102 -111 117 -269q4 -42 4 -82q0 -52 -7 -101q-12 -85 -65 -169
q-29 -47 -89 -92q-23 -17 -50 -27q-81 -30 -161 -60t-160 -59q-19 -6 -34 -6h-4q-63 3 -155 31q-6 2 -9 4z" />
    <glyph glyph-name="c" unicode="c" horiz-adv-x="925" 
d="M555 956h21q163 0 300 -88l-17 -169q-2 -13 -13 -13h-3q-10 1 -18 20q-40 87 -105 126q-64 38 -156 38h-24q-109 -6 -169 -63q-53 -52 -78 -125q-26 -73 -26 -163q0 -30 3 -61q10 -149 81 -244q93 -125 208 -142q19 -3 39 -3q90 0 199 60q57 31 77 31q5 0 8 -2q2 -2 2 -8
q0 -12 -12 -38q-15 -30 -34 -47q-57 -51 -140 -70.5t-158 -19.5q-186 1 -312.5 103.5t-143.5 293.5q-4 44 -4 86q0 54 7 105q13 88 68 176q58 93 161.5 152t238.5 65z" />
    <glyph glyph-name="d" unicode="d" horiz-adv-x="1231" 
d="M817 87l-275 -101q-32 -11 -53 -11h-41q-142 7 -245 116t-117 268q-4 42 -4 81q0 52 7 101q12 85 66 170q26 44 89 92q22 15 49 27q80 30 160.5 60t161.5 60q17 6 32 6h5q64 -3 155 -32q8 -3 10 -4v337q0 64 -50 82t-50 44q0 21 21 21q66 3 130.5 20t129.5 39v-1317
q0 -65 50 -82.5t50 -42.5q0 -21 -21 -21h-243q-17 0 -17 13v74zM817 770q-45 41 -110.5 71.5t-116.5 32.5h-4q-20 0 -40 -8q-36 -13 -71.5 -26.5t-71.5 -26.5q-25 -10 -40 -26q-62 -66 -83 -160q-17 -71 -17 -141q0 -22 2 -45q11 -144 78 -234q67 -93 168 -121
q38 -11 77 -11q12 0 25 1q22 2 52 13q23 8 72 26.5t80 30.5v624z" />
    <glyph glyph-name="e" unicode="e" horiz-adv-x="1004" 
d="M71 551q28 185 147.5 296t314.5 113h4q197 0 301 -112q104 -114 104 -297q-1 -40 -3 -56.5t-41 -16.5h-637q3 -162 82 -268.5t199 -130.5q35 -8 71 -8q95 0 197 55q57 31 77 31q5 0 8 -2q3 -3 3 -9q0 -13 -13 -37q-12 -24 -19.5 -32t-13.5 -14q-109 -94 -296 -94
q-262 2 -393 168q-101 128 -101 304q0 53 9 110zM261 551h527q0 122 -55 224q-53 97 -194 97h-11q-141 -4 -202 -102t-65 -219z" />
    <glyph glyph-name="f" unicode="f" horiz-adv-x="683" 
d="M388 1027v-79l238 5h1q15 0 15 -26q0 -14 -4 -34q-10 -47 -45 -47l-205 1v-701q0 -65 50 -82.5t50 -42.5q0 -21 -21 -21h-339q-21 0 -21 21q0 25 50 42.5t50 82.5v699q-38 -1 -114 -5h-5q-19 0 -20 20v2q0 16 19 25q20 9 83 43q15 8 29 14q3 1 8 1v82q0 127 23 207
q15 51 43 85q13 17 38 26l255 95q9 3 34 5h4q22 0 41 -12q27 -19 35 -33q6 -12 6 -32q0 -8 -1 -17q-2 -47 -13 -50h-3q-11 0 -32 15q-48 31 -95 31q-28 0 -55 -11q-84 -36 -94 -137q-4 -38 -4.5 -82t-0.5 -90z" />
    <glyph glyph-name="g" unicode="g" horiz-adv-x="1103" 
d="M797 199v570q-41 38 -108 70.5t-119 34.5h-4q-20 0 -40 -8q-36 -13 -71.5 -26.5t-71.5 -26.5q-25 -10 -40 -26q-62 -66 -83 -160q-17 -71 -17 -141q0 -22 2 -45q11 -144 78 -234q67 -93 168 -121q38 -11 77 -11q12 0 25 1q22 2 52 13q23 8 71.5 26t79.5 30v54h1zM796 87
l-274 -101q-32 -11 -53 -11h-41q-142 7 -245 116t-117 268q-4 42 -4 81q0 52 7 101q12 85 66 170q26 44 89 92q22 15 49 27q80 30 160.5 60t161.5 60q17 6 32 6h5q64 -3 155 -32q8 -3 10 -4q22 -9 54 -20q13 -4 24 -4q16 0 28 9q21 18 30 30q5 7 13 7q5 0 10 -2
q22 -8 22 -20v-1100q0 -165 -47 -206t-134 -73l-275 -103q-32 -11 -53 -11q-26 0 -41 1q-141 5 -245 116q-54 59 -86 141q87 34 178 67q18 -51 48 -92q68 -92 168 -121q38 -10 75 -10q14 0 27 1q22 2 52 12q12 5 31 12t41 15q48 24 64 97t16 97z" />
    <glyph glyph-name="h" unicode="h" horiz-adv-x="1207" 
d="M362 146q0 -65 50 -82.5t50 -42.5q0 -21 -20 -21h-339q-21 0 -21 21q0 25 50 42.5t50 82.5v1111q0 64 -50 82t-50 44q0 21 21 21q66 3 130.5 20t128.5 39v-610q55 21 97 37t80 29q92 32 191 42q12 1 25 1q84 0 160 -57q121 -93 121 -399v-360q0 -65 50 -82.5t50 -42.5
q0 -21 -20 -21h-243q-17 0 -17 13v493q0 219 -91 308q-58 57 -142 57q-48 0 -105 -19q-22 -8 -55.5 -20.5t-57.5 -21.5t-43 -16v-648z" />
    <glyph glyph-name="i" unicode="i" horiz-adv-x="593" 
d="M302 1400q109 0 109 -110q0 -111 -109 -111t-109 111q0 110 109 110zM392 146q0 -65 50 -82.5t50 -42.5q0 -21 -20 -21h-339q-21 0 -21 21q0 25 50 42.5t50 82.5v640q0 63 -50 81t-50 44q0 21 21 21q66 3 130.5 20.5t128.5 39.5v-846z" />
    <glyph glyph-name="j" unicode="j" horiz-adv-x="487" 
d="M252 1400q110 0 110 -110q0 -111 -110 -111q-109 0 -109 111q0 110 109 110zM343 12q-1 -197 -27 -293t-91 -164q-93 -95 -203 -122v50q95 57 127 160q12 41 12.5 115t0.5 248v780q0 63 -50 81t-50 44q0 21 21 21q66 3 130.5 20.5t129.5 39.5v-980z" />
    <glyph glyph-name="k" unicode="k" horiz-adv-x="1163" 
d="M382 443v-297q0 -65 50 -82.5t50 -42.5q0 -21 -20 -21h-339q-21 0 -21 21q0 25 50 42.5t50 82.5v1111q0 64 -50 82t-50 44q0 21 21 21q66 3 130.5 20t128.5 39v-912l354 283q61 50 108 79q27 16 51 16q18 0 35 -9l74 -46q12 -8 12 -18q0 -5 -3 -10l-47 -105l-50 26
q-30 15 -58 15q-34 0 -64 -22q-145 -109 -256 -195l348 -340q108 -105 140 -119q23 -11 47 -11q10 0 21 2q8 2 15 2q20 0 27 -15q2 -6 2 -10q0 -10 -10 -14l-64 -31q-52 -23 -97 -23q-29 0 -55 11q-65 26 -119 79l-381 371q-8 -8 -30 -24z" />
    <glyph glyph-name="l" unicode="l" horiz-adv-x="597" 
d="M382 146q0 -65 50 -82.5t50 -42.5q0 -21 -20 -21h-339q-21 0 -21 21q0 25 50 42.5t50 82.5v1111q0 64 -50 82t-50 44q0 21 21 21q66 3 130.5 20t128.5 39v-1317z" />
    <glyph glyph-name="m" unicode="m" horiz-adv-x="1797" 
d="M379 861q47 18 84.5 32t71.5 26q92 32 191 42q12 1 25 1q84 0 160 -57q26 -21 42 -42q45 17 81.5 30.5t69.5 25.5q92 32 190 42q13 1 26 1q83 0 159 -57q122 -93 122 -399v-360q0 -65 50 -82.5t50 -42.5q0 -21 -21 -21h-243q-16 0 -16 13v493q0 219 -91 308
q-58 57 -142 57q-48 0 -105 -19q-20 -7 -48.5 -17.5t-52.5 -19.5q50 -103 50 -309v-360q0 -65 50 -82.5t50 -42.5q0 -21 -20 -21h-339q-21 0 -21 21q0 25 50 42.5t50 82.5v360q0 219 -91 308q-58 57 -142 57q-48 0 -105 -19q-35 -12 -68.5 -25t-66.5 -25v-656
q0 -65 50 -82.5t50 -42.5q0 -21 -20 -21h-339q-21 0 -21 21q0 25 50 42.5t50 82.5v640q0 63 -50 81t-50 44q0 21 21 21q66 3 130.5 20.5t128.5 39.5v-131z" />
    <glyph glyph-name="n" unicode="n" horiz-adv-x="1191" 
d="M362 853q55 21 97 37t80 29q92 32 191 42q12 1 25 1q84 0 160 -57q121 -93 121 -399v-360q0 -65 50 -82.5t50 -42.5q0 -21 -20 -21h-243q-17 0 -17 13v493q0 219 -91 308q-58 57 -142 57q-48 0 -105 -19q-22 -8 -55.5 -20.5t-57.5 -21.5t-43 -16v-648q0 -65 50 -82.5
t50 -42.5q0 -21 -20 -21h-339q-21 0 -21 21q0 25 50 42.5t50 82.5v640q0 63 -50 81t-50 44q0 21 21 21q66 3 130.5 20.5t128.5 39.5v-139z" />
    <glyph glyph-name="o" unicode="o" horiz-adv-x="1107" 
d="M577 956q195 -8 330 -150.5t138 -340.5v-6q0 -200 -141 -338q-144 -140 -351 -146h-16q-192 0 -331 142q-144 146 -144 345v3q1 219 165 368q19 18 56.5 31t111.5 40q44 16 97 35q50 17 82 17h3zM556 889h-12q-117 0 -201 -113q-89 -120 -89 -295t87.5 -303.5
t212.5 -134.5h14q116 0 200 113q88 119 88 294t-88 303.5t-212 135.5z" />
    <glyph glyph-name="p" unicode="p" horiz-adv-x="1197" 
d="M392 848l263 97q29 10 52 12q9 0 19 -0.5t22 -0.5q141 -6 245 -116q102 -111 117 -269q4 -41 4 -80q0 -54 -7 -103q-13 -85 -65 -169q-28 -45 -90 -92q-22 -16 -49 -27q-175 -66 -322 -119q-17 -6 -33 -6h-4q-59 3 -152 30v-446q0 -64 50 -82t50 -44q0 -20 -20 -20h-339
q-21 0 -21 20q0 26 50 44t50 82v1227q0 63 -50 81t-50 44q0 21 21 21q66 3 130.5 20.5t128.5 39.5v-144zM392 150q42 -36 103.5 -64.5t111.5 -29.5h6q16 0 37 8q36 13 71.5 26t71.5 27q23 8 41 26q60 65 82 159q17 71 17 142q0 23 -2 45q-11 143 -78 234q-68 92 -168 121
q-40 11 -79 11q-12 0 -23 -1q-23 -3 -52 -13q-21 -8 -63.5 -23.5t-75.5 -27.5v-640z" />
    <glyph glyph-name="q" unicode="q" horiz-adv-x="1173" 
d="M813 86l-272 -100q-30 -11 -52 -11h-42q-143 7 -244 116q-103 109 -117 268q-4 43 -4 83q0 51 7 99q11 85 65 170q28 46 89 92q22 16 50 27l160 60t161 60q18 6 34 6h4q65 -3 155 -32l5 -2.5t6 -1.5v-2q23 -9 53 -18q12 -4 21 -4q16 0 27 9q21 18 30 30q5 7 13 7
q5 0 10 -2q22 -8 22 -20v-1361q0 -64 50 -82t50 -44q0 -20 -21 -20h-339q-21 0 -21 20q0 26 50 44t50 82v527zM813 772q-42 37 -107.5 68.5t-116.5 33.5h-4q-20 0 -39 -8q-36 -13 -72 -26.5t-72 -26.5q-23 -9 -40 -26q-62 -66 -83 -160q-17 -71 -17 -141q0 -22 2 -45
q11 -144 78 -234q66 -92 168 -121q39 -11 77 -11q13 0 25 1q23 2 53 13q21 8 68.5 25.5t79.5 29.5v628z" />
    <glyph glyph-name="r" unicode="r" horiz-adv-x="831" 
d="M403 595v-449q0 -65 49.5 -82.5t49.5 -42.5q0 -21 -20 -21h-339q-21 0 -21 21q0 25 50 42.5t50 82.5v640q0 63 -50 81t-50 44q0 21 21 21q66 3 130.5 20.5t129.5 39.5v-132l139 53q77 29 120 43q13 4 31 4q37 0 94 -20l-22 -251h-46q-39 146 -150 146q-11 0 -22 -1
q-76 -9 -108.5 -77.5t-35.5 -161.5z" />
    <glyph glyph-name="s" unicode="s" horiz-adv-x="884" 
d="M490 958q147 -8 278 -89l-21 -175q-2 -15 -16 -15h-3q-12 1 -22 24q-36 75 -105 125.5t-149 53.5h-4q-62 0 -121 -31q-62 -32 -76 -98q-5 -22 -5 -40q0 -63 56 -90q71 -36 165 -57q129 -29 234.5 -78t115.5 -205v-10q0 -74 -57 -148q-62 -80 -179 -121q-73 -24 -162 -27
h-27q-123 0 -235 32l-81 220l3 20q1 15 18 15h2q10 -2 21 -24q46 -99 112.5 -140.5t168.5 -44.5h12q71 0 156 33q92 36 96 130v6q0 108 -102 137q-106 30 -186 53q-99 27 -186 86q-86 58 -86 172v5q1 155 120 221q109 61 241 61q12 0 24 -1z" />
    <glyph glyph-name="t" unicode="t" horiz-adv-x="682" 
d="M207 845q-38 -1 -114 -5h-5q-19 0 -20 20v2q0 16 19 25q20 9 83 43q15 8 29 14q3 1 8 1v171q0 50 20.5 69.5t94.5 54.5q27 13 43 13q23 0 23 -26v-279l238 5h1q15 0 15 -26q0 -14 -4 -34q-10 -47 -45 -47l-205 1v-627q0 -91 63.5 -136t108.5 -51v-32q-149 0 -251 28
t-102 221v595z" />
    <glyph glyph-name="u" unicode="u" horiz-adv-x="1239" 
d="M1040 146q0 -65 50 -82.5t50 -42.5q0 -21 -21 -21h-243q-17 0 -17 13v65q-55 -21 -97.5 -37.5t-78.5 -28.5q-93 -31 -191 -41q-14 -1 -27 -1q-83 0 -158 56q-122 92 -122 399v361q0 63 -50 81t-50 44q0 21 21 21q66 3 130.5 20.5t129.5 39.5v-567q0 -220 91 -308
q58 -57 142 -57q48 0 105 19q21 7 55 20t58 22q5 2 16.5 6t25.5 10v649q0 63 -50 81t-50 44q0 21 21 21q66 3 130.5 20.5t129.5 39.5v-846z" />
    <glyph glyph-name="v" unicode="v" horiz-adv-x="1036" 
d="M355 805l262 -639l230 551q9 21 9 41q0 35 -28 68l-33 39l90 71q6 6 11 6q7 0 15 -8l56 -57q17 -18 17 -44q0 -15 -6 -33q-16 -48 -47 -112l-307 -686q-5 -10 -10 -16q-5 -5 -11 -5h-84q-7 0 -11 6q-3 3 -7.5 15.5t-6.5 18.5l-327 779q-17 38 -49 60q-21 13 -41.5 22
t-32.5 18q-7 4 -12 13q-1 4 -1 7t1 6q3 5 11 5h328q7 0 16 -5q8 -7 11 -13q1 -3 1 -5q0 -9 -10 -18q-34 -31 -37 -41q-3 -9 -3 -19q0 -12 6 -25z" />
    <glyph glyph-name="w" unicode="w" horiz-adv-x="1647" 
d="M966 805l262 -639l230 551q9 21 9 41q0 35 -28 68l-33 39l89 71q5 5 12 5t15 -7l56 -57q17 -18 17 -44q0 -15 -6 -33q-16 -48 -47 -112l-307 -686q-5 -10 -10 -16q-5 -5 -11 -5h-84q-7 0 -11 6q-3 3 -7.5 15.5t-7.5 18.5l-228 544l-252 -563q-5 -10 -10 -16q-5 -5 -11 -5
h-84q-7 0 -11 6q-3 3 -7.5 15.5t-6.5 18.5l-327 779q-17 38 -49 60q-21 13 -41.5 22t-32.5 18q-7 4 -12 13q-1 4 -1 7t1 6q3 5 11 5h328q7 0 16 -5q8 -7 11 -13q1 -3 1 -5q0 -9 -10 -18q-34 -31 -37 -41q-3 -9 -3 -19q0 -12 6 -25l262 -639l213 510l-52 124q-17 38 -49 60
q-21 13 -41.5 22t-32.5 18q-10 6 -12 13q-1 4 -1 7t1 6q3 5 11 5h328q7 0 16 -5q8 -7 11 -13q1 -3 1 -5q0 -9 -10 -18q-34 -31 -37 -41q-3 -9 -3 -19q0 -12 6 -25z" />
    <glyph glyph-name="x" unicode="x" horiz-adv-x="1098" 
d="M163 97l286 350l-265 385q-16 24 -54 44q-19 10 -37 16.5t-29 13.5q-23 13 -23 18t15 5h322q15 0 25 -14q3 -4 3 -9q0 -6 -9 -11q-15 -9 -16 -27q0 -15 12 -32l171 -249l170 209q91 111 116 133q9 8 25 8q24 0 62 -20l64 -34q9 -5 9 -14q0 -5 -3 -11l-51 -104
q-37 20 -68 35q-8 4 -16 4q-24 0 -52 -35l-203 -248l285 -413q18 -29 59 -46q15 -7 30.5 -13.5t30.5 -14.5q23 -13 23 -18t-15 -5h-322q-15 0 -25 13q-3 5 -3 9q0 6 9 12q14 8 16 26v2q0 14 -12 31l-190 277l-224 -273q-19 -26 -19 -42v-3q0 -13 5 -20q1 -3 1 -6
q0 -6 -5 -12q-9 -14 -19 -14h-208q-10 0 -10 5q0 4 4 9q13 16 56 27t79 56z" />
    <glyph glyph-name="y" unicode="y" horiz-adv-x="1036" 
d="M167 800q-17 38 -49 60q-26 16 -53 27t-33 26q-2 5 -2 9q0 9 13 9h328q19 0 27 -18q2 -4 2 -8q0 -12 -17 -20q-22 -12 -31 -36q-3 -9 -3 -19q0 -12 6 -25l262 -639l230 551q9 21 9 41q0 35 -28 68l-33 39l90 71q6 6 11 6q7 0 15 -8l56 -57q17 -18 17 -44q0 -15 -6 -33
q-16 -48 -47 -112l-495 -1102q-30 -66 -54 -110q-24 -42 -61 -42h-3l-80 3q-19 3 -19 19l-6 114l51 1q67 2 95 59l169 351q-15 0 -20 6q-3 3 -7.5 15.5t-6.5 18.5z" />
    <glyph glyph-name="z" unicode="z" horiz-adv-x="1019" 
d="M932 880l-638 -801h434q51 2 86 35t78 93q25 34 32 34q18 0 18 -18v-158q0 -49 -13 -57t-84 -8l-685 -1q-72 1 -97 9q-12 3 -12 13q0 11 16 30l632 810h-352q-52 0 -84 -33t-74 -92q-25 -33 -32 -33q-19 0 -19 17v159q0 45 16 55.5t82 10.5h622q89 0 89 -32
q0 -14 -15 -33z" />
    <glyph glyph-name="lcub" unicode="{" horiz-adv-x="1024" 
d="M158 613q-16 1 -22 11q-6 7 -6 19q0 4 1 9q3 18 27 21q152 13 208 73q33 36 43.5 97t10.5 118v212q0 72 14.5 148.5t61.5 121.5q74 73 278 73q20 0 28 -9q10 -15 10 -25q0 -16 -30 -16q-133 -2 -180 -55q-31 -33 -39.5 -93.5t-8.5 -113.5v-143q0 -77 -10.5 -165.5
t-46.5 -140.5q-57 -82 -211 -113q153 -31 211 -113q36 -52 46.5 -140t10.5 -166v-143q0 -153 48 -206q48 -52 180 -54q16 0 22 -15q2 -6 2 -12q0 -8 -6 -16q-7 -8 -26 -8q-202 0 -278 73q-47 45 -61.5 121t-14.5 149v211q0 57 -11 118.5t-44 99.5q-35 36 -93.5 52t-113.5 20
z" />
    <glyph glyph-name="verbar" unicode="|" horiz-adv-x="1024" 
d="M450 1490h141v-1717h-141v1717z" />
    <glyph glyph-name="rcub" unicode="}" horiz-adv-x="1024" 
d="M779 613q-56 -4 -115 -20t-93 -52q-34 -38 -44.5 -99.5t-10.5 -118.5v-211q0 -73 -15 -149t-60 -121q-78 -73 -279 -73q-19 0 -26 8t-7 17q0 5 2 11q6 15 23 15q133 2 181 54q48 53 48 206v143q0 78 10.5 166t46.5 140q57 83 211 113q-155 31 -211 113q-37 52 -47 140.5
t-10 165.5v143q0 53 -9.5 113.5t-39.5 93.5q-48 53 -180 55q-30 0 -30 16q0 10 11 25q6 9 27 9q203 0 279 -73q46 -45 60.5 -121.5t14.5 -148.5v-212q0 -57 10.5 -118t43.5 -97q54 -60 209 -73q23 -3 27 -21v-9q0 -12 -6 -19q-7 -10 -21 -11z" />
    <glyph glyph-name="tld" unicode="~" horiz-adv-x="1024" 
d="M963 729q-61 -113 -116 -164q-60 -55 -125 -55q-113 0 -248 84q-75 46 -142 46q-52 0 -99 -29q-12 -8 -29 -18.5t-37 -28.5q-35 -33 -61 -73q-7 -10 -17 -10q-8 0 -18 6q-13 7 -13 19q0 10 8 23q47 72 95.5 148t150.5 76q126 0 255 -87q69 -47 137 -47q59 0 117 35
q55 32 96 107q7 12 21 12q3 0 6 -1q19 -3 22 -21q1 -3 1 -6q0 -7 -4 -16z" />
    <glyph glyph-name="nbsp" unicode="&#xa0;" horiz-adv-x="550" 
 />
    <glyph glyph-name="iexcl" unicode="&#xa1;" horiz-adv-x="569" 
d="M294 518l70 -954v-8q0 -65 -74 -65h-63q-73 0 -73 63v10l70 954q0 25 24 25h21q25 0 25 -25zM259 664q-110 0 -110 87v82q0 87 110 87t110 -87v-82q0 -87 -110 -87z" />
    <glyph glyph-name="cent" unicode="&#xa2;" horiz-adv-x="1024" 
d="M622 956h4q164 0 300 -88l-17 -168q-2 -13 -13 -13h-3q-10 1 -18 20q-40 85 -105 126q-58 34 -148 38v-798q13 -1 26 -1q89 0 199 59q58 32 78 32q5 0 7 -2q3 -4 3 -10q0 -13 -13 -37q-16 -31 -34 -47q-51 -46 -123.5 -66t-142.5 -23v-190h-84v192q-166 15 -277 116
t-127 278q-4 44 -4 86q0 54 7 104q13 88 68 176q110 175 333 209v166h84v-159zM538 863q-74 -15 -117 -56q-54 -53 -78 -124q-26 -73 -26 -164q0 -29 3 -60q10 -148 81 -243q62 -84 137 -120v767z" />
    <glyph glyph-name="pound" unicode="&#xa3;" horiz-adv-x="1024" 
d="M72 108q0 -79 63 -79q56 0 78.5 45.5t36.5 89.5q-37 37 -76 37q-102 0 -102 -93zM64 784h176q-8 78 -8 144q0 57 6 105q13 119 57 205q107 205 343 205q70 0 136 -35t99 -100q15 -32 18 -71v-7q0 -35 -25 -60q-27 -27 -55 -27q-25 0 -52 22q-26 19 -32 63.5t-10 73.5
q-12 69 -90 81q-18 2 -34 2q-55 0 -90 -30q-63 -54 -79.5 -126t-16.5 -150q0 -75 6.5 -148.5t12.5 -146.5h261q15 0 15 -15v-70q0 -15 -15 -15h-255q2 -34 2 -69t-2 -70q-6 -82 -25 -156t-35 -152q54 -19 108 -37.5t110 -32.5q61 -15 113 -15q42 0 79 10q76 21 120 87
q14 21 17 43t31 22q20 0 20 -23q0 -33 -11.5 -62.5t-22.5 -58.5q-37 -95 -118 -153q-72 -48 -151 -48q-11 0 -21 1q-91 7 -168 59q-19 13 -73.5 47.5t-75.5 52.5q-56 -86 -124 -139q-30 -22 -65 -22q-20 0 -41 7q-59 20 -81 70q-9 20 -9 45q0 24 9 53q17 58 50 85
q48 38 89 38h6q42 -3 99 -7q6 50 6 98v30q-3 62 -5 124q-4 74 -14 173h-185q-15 0 -15 15v70q0 15 15 15z" />
    <glyph glyph-name="curren" unicode="&#xa4;" horiz-adv-x="1024" 
d="M513 732q-107 0 -182 -75.5t-75 -181.5t75 -181t182 -75q105 0 180.5 75t75.5 181t-75.5 181.5t-180.5 75.5zM513 822q116 0 210 -71l144 144q6 6 11 6t9 -5l47 -46q4 -5 4 -10t-5 -10l-145 -145q71 -92 71 -209q0 -118 -71 -209l145 -144q5 -6 5 -11t-4 -10l-47 -46
q-5 -5 -10 -5t-10 6l-144 144q-93 -70 -210 -70t-209 70l-144 -144q-6 -6 -11 -6t-10 5l-46 46q-5 5 -5 10t6 11l144 144q-70 92 -70 209q0 116 70 209l-144 145q-6 5 -6 10t5 10l46 46q5 5 10 5t11 -6l144 -144q93 71 209 71z" />
    <glyph glyph-name="yen" unicode="&#xa5;" horiz-adv-x="1366" 
d="M562 721l-322 537q-23 34 -77 67q-28 15 -53.5 24.5t-41.5 19.5q-11 6 -17 14q-4 6 -4 11v4q1 6 10 6h339q10 0 19 -6q11 -7 17 -15q3 -5 3 -10q0 -7 -7 -15q-7 -9 -17 -19.5t-11 -25.5v-5q0 -22 16 -45l337 -534q65 89 133 195.5t126 199.5q28 45 34 77v10q0 30 -23 77
l-34 68l143 62q7 3 13 3q13 0 24 -16l60 -101q11 -19 11 -39q0 -34 -32 -69q-52 -57 -115 -142q-55 -74 -112 -161t-115 -172h273v-79h-323q-11 -28 -14.5 -67t-3.5 -75h341v-79h-341v-275q0 -65 50 -82.5t50 -42.5q0 -21 -21 -21h-339q-21 0 -21 21q0 25 50 42.5t50 82.5
q0 178 0.5 190.5t0.5 84.5h-303v79h303q0 15 -0.5 33.5t-0.5 39.5q0 47 -9 69h-293v79h247z" />
    <glyph glyph-name="brvbar" unicode="&#xa6;" horiz-adv-x="1024" 
d="M340 1490h132v-677h-132v677zM340 -223v676h132v-676h-132z" />
    <glyph glyph-name="sect" unicode="&#xa7;" horiz-adv-x="1024" 
d="M499 -365q75 6 144 40t111 101q43 70 43 166v11q-3 103 -79 158q-36 26 -86 41q-98 27 -199.5 38t-193.5 56q-82 39 -122.5 114t-40.5 164q0 168 114 278q-114 87 -114 249q0 173 120 284q125 115 312 115q14 0 28 -1q206 -9 351 -102l-23 -194q-2 -18 -15 -18q-3 0 -6 1
q-13 1 -23 26q-39 83 -115.5 141.5t-163.5 62.5h-15q-85 0 -151 -31q-42 -20 -70 -49q-25 -25 -42 -64q-16 -34 -23 -70q-6 -30 -6 -58q0 -35 10 -65q19 -62 67 -96q32 -25 78 -37q24 -6 57 -11.5l69 -11.5q52 -9 111 -18t114 -25q94 -31 138 -79q33 -35 55 -83
q25 -61 25 -134q0 -163 -110 -282q16 -12 30 -27q34 -38 55 -84q25 -61 25 -134q0 -195 -161 -328q-82 -66 -184 -101q-76 -25 -173 -31q-19 -1 -38 -1q-130 0 -249 37l-87 245q-2 5 -2 9q0 10 7 19q6 11 16 11h3q10 -1 23 -26q60 -128 150 -171q74 -37 187 -37q24 0 49 2z
M752 299l2 2q43 69 43 167v11q-3 104 -79 159q-39 27 -86 41q-83 22 -169 32.5t-167 37.5q-20 -22 -33 -53q-16 -33 -23 -71q-6 -30 -6 -58q0 -35 10 -65q20 -63 67 -95q31 -26 78 -37q36 -9 126 -24q52 -9 111 -18t114 -25q3 -1 6 -2.5t6 -1.5z" />
    <glyph glyph-name="uml" unicode="&#xa8;" horiz-adv-x="682" 
d="M554 1165q-47 0 -77 32q-32 30 -32 77q0 109 109 109q47 0 78 -31q32 -32 32 -78q0 -45 -32 -77t-78 -32zM130 1165q-46 0 -78 32q-38 38 -38 77q0 38 38 77q32 32 78 32t77 -31q32 -31 32 -78q0 -45 -32 -77t-77 -32z" />
    <glyph glyph-name="copy" unicode="&#xa9;" horiz-adv-x="1532" 
d="M767 1452q309 0 528 -218t219 -526q0 -309 -219 -526.5t-528 -217.5t-528 217.5t-219 526.5q0 308 219 526t528 218zM767 1372q-276 0 -471 -194.5t-195 -469.5q0 -276 195 -470t471 -194t471.5 194t195.5 470q0 275 -195.5 469.5t-471.5 194.5zM830 1128h14
q142 0 261 -75l-15 -144q0 -11 -11 -11h-3q-7 0 -15 17q-34 73 -90 108q-54 32 -134 32h-20q-94 -5 -145 -54q-44 -42 -67 -107q-22 -63 -22 -141q0 -25 2 -51q9 -128 69 -209q81 -107 179 -121q16 -3 34 -3q76 0 170 51q50 28 67 28q4 0 6 -2q3 -3 3 -8q0 -12 -12 -32
q-13 -27 -28 -40q-50 -45 -120 -62q-67 -16 -129 -16h-7q-160 0 -268.5 88.5t-123.5 252.5q-4 39 -4 76q0 45 6 87q11 75 59 151q111 177 344 185z" />
    <glyph glyph-name="ordf" unicode="&#xaa;" horiz-adv-x="686" 
d="M486 900l-164 -62q-20 -7 -31 -7q-16 0 -25 1q-86 3 -146 69q-61 65 -70 160q-2 23 -2 45q0 97 43 165q17 27 53 55q12 10 30 16l96 36l96 36q10 4 22 4q40 -3 93 -20q11 -4 32 -13q9 -4 16 -4q9 0 16 6q23 22 34 22q2 0 3 -1q12 -6 12 -12q0 -36 -3 -61t-4 -61
q-1 -18 -1 -64l1 -284q0 -36 29 -45t29 -23q0 -12 -12 -12l-136 1q-9 0 -9 7zM76 731h541q11 0 11 -11v-53q0 -12 -11 -12h-541q-12 0 -12 12v53q0 11 12 11zM365 893q15 1 31 7q42 16 91 34l-1 372q-64 59 -135 63q-14 0 -26 -5q-22 -8 -43.5 -16t-42.5 -16q-13 -5 -24 -15
q-37 -39 -50 -96q-9 -41 -9 -81q0 -15 1 -30q6 -84 46 -140q41 -55 101 -72q22 -6 44 -6q9 0 17 1z" />
    <glyph glyph-name="laquo" unicode="&#xab;" horiz-adv-x="1024" 
d="M103 616q-6 5 -6 11t6 13q60 72 167 171t182 177q3 3 7 3q2 0 5 -1l37 -26q3 -4 3 -7q0 -2 -1 -4l-255 -324l256 -327q2 -2 2 -5t-5 -6l-37 -26q-3 -2 -5 -2q-4 0 -7 4q-86 84 -175 172t-174 177zM524 616q-5 4 -5 10t5 14q60 72 167 171t182 177q4 4 7 4t5 -2l37 -26
q4 -4 4 -7q0 -2 -2 -4l-254 -324l256 -327q1 -2 1 -3q0 -5 -5 -8l-37 -26q-2 -2 -5 -2t-7 4q-85 84 -174.5 172t-174.5 177z" />
    <glyph glyph-name="not" unicode="&#xac;" horiz-adv-x="1024" 
d="M998 341h-117v434h-851v112h968v-546z" />
    <glyph glyph-name="shy" unicode="&#xad;" horiz-adv-x="670" 
d="M156 409q-40 0 -40 28v83q0 29 41 29h356q41 0 41 -29v-83q0 -28 -40 -28h-358z" />
    <glyph glyph-name="reg" unicode="&#xae;" horiz-adv-x="1530" 
d="M844 688l267 -350q17 -14 43 -16q17 -3 17 -14v-1q-1 -12 -12 -12h-157q-11 0 -121 155.5t-174 237.5h-94v-307q0 -38 29.5 -48.5t29.5 -24.5q0 -13 -13 -13h-199q-12 0 -12 13q0 14 29.5 24.5t29.5 48.5v653q0 38 -29.5 48.5t-29.5 25.5q0 12 12 12l347 1
q61 0 126.5 -21.5t101.5 -83.5q27 -48 29 -120q-2 -67 -39 -119q-29 -42 -81.5 -64t-99.5 -25zM767 1452q309 0 528 -218t219 -526q0 -309 -219 -526.5t-528 -217.5t-528 217.5t-219 526.5q0 308 219 526t528 218zM613 1072v-343h136q99 0 154 53q47 45 47 120q0 72 -49 120
q-52 50 -140 50h-148zM767 1372q-276 0 -471 -194.5t-195 -469.5q0 -276 195 -470t471 -194t471.5 194t195.5 470q0 275 -195.5 469.5t-471.5 194.5z" />
    <glyph glyph-name="macr" unicode="&#xaf;" horiz-adv-x="680" 
d="M51 1347h599q11 0 11 -10v-86q0 -11 -11 -11h-599q-11 0 -11 11v86q0 10 11 10z" />
    <glyph glyph-name="deg" unicode="&#xb0;" horiz-adv-x="819" 
d="M406 1387q128 0 218.5 -90.5t90.5 -218.5t-90.5 -218.5t-218.5 -90.5q-129 0 -219 90.5t-90 218.5t90 218.5t219 90.5zM406 1305q-94 0 -160 -67t-66 -160q0 -94 66 -160t160 -66q93 0 159.5 66t66.5 160q0 93 -66.5 160t-159.5 67z" />
    <glyph glyph-name="plusmn" unicode="&#xb1;" horiz-adv-x="1024" 
d="M200 806h279v280q0 36 27 36h52q27 0 27 -36v-280h279q37 0 37 -26v-53q0 -26 -37 -26h-279v-279q0 -37 -27 -37h-52q-27 0 -27 37v279h-279q-37 0 -37 26v53q0 26 37 26zM200 238h664q37 0 37 -27v-52q0 -27 -37 -27h-664q-37 0 -37 27v52q0 27 37 27z" />
    <glyph glyph-name="sup2" unicode="&#xb2;" horiz-adv-x="735" 
d="M108 451v51q0 55 33 96q33 42 105 120q42 41 83.5 87.5t80.5 91.5q53 62 81 133q19 47 19 87q0 38 -17 69q-34 64 -99 89q-37 14 -78 14q-30 0 -63 -8q-77 -19 -126 -91q-20 -28 -25 -53v93q4 15 13 31q62 102 189 122q26 4 52 4q86 0 165 -44q101 -58 103 -190v-4
q0 -177 -159 -316q-162 -142 -235 -266h238q87 0 159 27v-116q-37 -24 -79.5 -25.5t-79.5 -1.5h-360z" />
    <glyph glyph-name="sup3" unicode="&#xb3;" horiz-adv-x="735" 
d="M473 483q-71 -51 -175 -61q-17 -2 -32 -2q-84 0 -145 48l-3 117q38 -72 132 -95q35 -9 68 -9q53 0 98 23q67 35 92 102q13 36 13 72q0 31 -10 61q-21 66 -86.5 115t-177.5 51l-1 19q45 14 102.5 39.5t89.5 79.5q25 42 25 84q0 13 -2 26q-10 55 -45 92q-42 43 -107 50h-14
q-58 0 -115 -51q-33 -30 -43 -78v112q98 106 226 106q149 -2 199 -120q14 -35 14 -68q0 -84 -88 -166q-15 -15 -43 -36q95 -47 137 -120q37 -65 37 -134q0 -10 -1 -20q-12 -140 -145 -237z" />
    <glyph glyph-name="acute" unicode="&#xb4;" horiz-adv-x="732" 
d="M152 1161q-3 -1 -7 -1q-18 0 -18 17q0 8 7 15l375 258q18 13 41 13q74 0 74 -74q0 -52 -47 -69z" />
    <glyph glyph-name="micro" unicode="&#xb5;" horiz-adv-x="1325" 
d="M890 752q0 63 -51 81t-51 44q0 21 21 21q55 2 115 17q69 15 146 43v-816q0 -65 51.5 -80.5t51.5 -40.5q0 -21 -21 -21h-263v87l-207 -81q-60 -23 -119 -23q-16 0 -32 2q-75 8 -131 39q-89 49 -125 115q0 -54 5 -117l47 -554v-2q0 -19 -20 -19h-92q-20 0 -20 21v1343
q-24 24 -53 36t-29 30q0 21 21 21q59 3 116 18q36 7 69 18.5t69 23.5v-534q0 -178 80 -275q67 -82 165 -82q51 0 111 22l146 54v609z" />
    <glyph glyph-name="para" unicode="&#xb6;" horiz-adv-x="1266" 
d="M677 1337v-1571h260v1571h-260zM529 797q-48 -16 -96 -16q-124 0 -211 91.5t-87 220.5q0 128 87 219t210 92h749q26 0 26 -25q0 -31 -61 -53t-61 -100v-1348q0 -78 61 -100t61 -53q0 -25 -26 -25h-748q-26 0 -26 25q0 31 61 53t61 100v919z" />
    <glyph glyph-name="middot" unicode="&#xb7;" horiz-adv-x="512" 
d="M255 496q-51 0 -86.5 35.5t-35.5 86.5q0 50 35.5 86t86.5 36t86.5 -36t35.5 -86q0 -51 -35.5 -86.5t-86.5 -35.5z" />
    <glyph glyph-name="cedil" unicode="&#xb8;" horiz-adv-x="1011" 
d="M385 -5h57q-7 -22 -7 -41q0 -32 22 -53q35 -33 75 -67q57 -48 57 -123v-9q-4 -82 -123 -91h-15q-58 0 -138 27l-15 68q49 -34 93 -34q34 0 65 21q30 20 30 49q0 37 -51 87q-32 30 -58 72q-11 17 -11 38q0 26 19 56z" />
    <glyph glyph-name="sup1" unicode="&#xb9;" horiz-adv-x="668" 
d="M231 448q-14 0 -14 13q0 16 33 28t33 56v738h-135v32l256 110v-880q0 -44 33.5 -56t33.5 -28q0 -13 -14 -13h-226z" />
    <glyph glyph-name="ordm" unicode="&#xba;" horiz-adv-x="682" 
d="M338 1429q125 0 214 -91t89 -219q0 -129 -89 -220t-214 -91q-126 0 -215 91t-89 220q0 128 89 219t215 91zM77 730h523q12 0 12 -12v-58q0 -13 -12 -13h-523q-12 0 -12 13v58q0 12 12 12zM325 1385q-78 0 -128 -78q-45 -70 -45 -165q0 -11 1 -23q5 -111 63.5 -188.5
t136.5 -77.5q76 0 127 78q46 69 46 165q0 11 -1 23q-6 110 -64.5 188t-135.5 78z" />
    <glyph glyph-name="raquo" unicode="&#xbb;" horiz-adv-x="1024" 
d="M922 616q-86 -89 -175 -177t-174 -172q-4 -4 -7 -4t-5 2l-37 26q-5 3 -5 6t2 5l256 327l-255 324q-2 2 -2 4q0 3 4 7l37 26q2 1 5 1t7 -3q75 -78 181.5 -177t167.5 -171q6 -7 6 -13t-6 -11zM501 616q-86 -89 -175 -177t-174 -172q-4 -4 -7 -4t-5 2l-37 26q-5 3 -5 7
q0 2 1 4l257 327l-255 324q-2 2 -2 4q0 3 4 7l37 26q2 2 5 2t7 -4q75 -78 181.5 -177t167.5 -171q5 -8 5 -14t-5 -10z" />
    <glyph glyph-name="frac14" unicode="&#xbc;" horiz-adv-x="1350" 
d="M1175 1400h111l-1154 -1400h-112zM1191 663v-401h94v-67h-94v-109q0 -34 47.5 -48.5t47.5 -27.5q0 -10 -11 -10h-260q-10 0 -10 10q0 13 48 27t48 47l1 111h-271v55l271 413h89zM1104 262v326h-2l-208 -321v-5h210zM392 1400v-586q0 -34 47 -48.5t47 -27.5q0 -11 -11 -11
h-260q-10 0 -10 11q0 13 47 27.5t47 47.5v480q0 25 -62 32q-43 3 -43 10q0 12 10 14z" />
    <glyph glyph-name="frac12" unicode="&#xbd;" horiz-adv-x="1312" 
d="M392 1400v-586q0 -34 47 -48.5t47 -27.5q0 -11 -11 -11h-260q-10 0 -10 11q0 13 47 27.5t47 47.5v480q0 25 -62 32q-43 3 -43 10q0 12 10 14zM1142 1362h108l-1122 -1362h-109zM865 6v34q0 41 24 71t76 86q55 55 117 129q37 43 58 95q15 39 15 71q0 74 -84 105
q-36 12 -67 12q-75 0 -125 -73q-15 -24 -18 -38v63l-1 1q1 0 10 24q44 73 136 88q19 3 37 3q62 0 119 -32q72 -41 73 -136v-2q0 -127 -114 -227q-116 -102 -168 -191h171q61 0 113 20v-84q-26 -17 -56.5 -18t-56.5 -1h-259z" />
    <glyph glyph-name="frac34" unicode="&#xbe;" horiz-adv-x="1312" 
d="M1142 1362h108l-1122 -1362h-109zM394 734q-52 -37 -128 -44q-12 -2 -22 -2q-62 0 -107 36l-2 84q27 -52 96 -69q25 -6 49 -6q39 0 72 17q49 25 67 74q9 26 9 52q0 22 -7 44q-15 48 -63 84t-129 38v13q32 10 74 29t65 58q21 35 21 67q0 42 -37 80q-31 31 -79 36
q-5 1 -10 1q-43 0 -83 -38q-24 -23 -31 -56v81q71 77 165 77q108 -2 144 -88q10 -25 10 -49q0 -61 -63 -121q-8 -6 -15.5 -13t-15.5 -13q126 -63 126 -180q0 -9 -1 -19q-9 -102 -105 -173zM1158 644v-389h92v-65h-92v-107q0 -33 46 -47t46 -26q0 -10 -10 -10h-253
q-10 0 -10 10q0 12 47 25.5t47 46.5v108h-263v53l263 401h87zM1073 255v317h-2l-202 -312v-5h204z" />
    <glyph glyph-name="iquest" unicode="&#xbf;" horiz-adv-x="800" 
d="M411 395l3 -166q1 -69 20 -102q16 -33 75 -69q7 -6 17.5 -12t23.5 -14q162 -99 162 -257q0 -128 -85 -200q-84 -73 -234 -73q-145 0 -229 75t-84 204q0 29 15 42q15 12 49 12q32 0 50 -12q17 -12 19 -34q10 -127 45 -177q36 -48 112 -48q87 0 131 52q43 52 43 159
q0 97 -45 169q-45 69 -164 153v297q0 50 10 78t27 28q19 0 28 -25q9 -28 11 -80zM357 624q-74 0 -74 74v63q0 74 74 74h63q74 0 74 -74v-63q0 -74 -74 -74h-63z" />
    <glyph glyph-name="Agrave" unicode="&#xc0;" horiz-adv-x="1593" 
d="M1041 1616l-426 159q-47 17 -47 69q0 74 74 74q24 0 42 -13l374 -258q8 -7 8 -15q0 -17 -18 -17q-5 0 -7 1zM838 1427q50 -118 123.5 -289t152 -352t152 -352t124.5 -288q15 -37 59 -67q23 -15 45.5 -25t36.5 -19q10 -7 13 -14q2 -4 2 -8q0 -3 -2 -7q-3 -6 -12 -6h-338
q-9 0 -18 6q-10 7 -12 15q-2 3 -2 6q0 9 12 19q9 9 22 19t19 27q3 8 3 18q0 17 -8 37l-148 342h-583q-36 -86 -71.5 -171.5t-71.5 -170.5q-9 -20 -10 -36q-1 -7 -1 -14q0 -10 3 -19q3 -13 10 -21.5t10 -17.5q1 -8 1 -11t-2 -7q-7 -21 -22 -21h-258q-10 0 -14 6q0 1 -2 5
q0 2 2 10q6 13 34 26q15 7 32.5 15.5t35.5 20.5q37 26 54 63l567 1281h62zM1027 570l-261 609q-64 -153 -127.5 -305t-126.5 -304h515z" />
    <glyph glyph-name="Aacute" unicode="&#xc1;" horiz-adv-x="1593" 
d="M591 1612q-4 -2 -7 -2q-17 0 -17 18q0 8 7 15l375 258q19 13 41 13q74 0 74 -74q0 -53 -47 -70zM838 1427q50 -118 123.5 -289t152 -352t152 -352t124.5 -288q15 -37 59 -67q23 -15 45.5 -25t36.5 -19q10 -7 13 -14q2 -4 2 -8q0 -3 -2 -7q-3 -6 -12 -6h-338q-9 0 -18 6
q-10 7 -12 15q-2 3 -2 6q0 9 12 19q9 9 22 19t19 27q3 8 3 18q0 17 -8 37l-148 342h-583q-36 -86 -71.5 -171.5t-71.5 -170.5q-9 -20 -10 -36q-1 -7 -1 -14q0 -10 3 -19q3 -13 10 -21.5t10 -17.5q1 -8 1 -11t-2 -7q-7 -21 -22 -21h-258q-10 0 -14 6q0 1 -2 5q0 2 2 10
q6 13 34 26q15 7 32.5 15.5t35.5 20.5q37 26 54 63l567 1281h62zM1027 570l-261 609q-64 -153 -127.5 -305t-126.5 -304h515z" />
    <glyph glyph-name="Acirc" unicode="&#xc2;" horiz-adv-x="1593" 
d="M838 1427q50 -118 123.5 -289t152 -352t152 -352t124.5 -288q15 -37 59 -67q23 -15 45.5 -25t36.5 -19q10 -7 13 -14q2 -4 2 -8q0 -3 -2 -7q-3 -6 -12 -6h-338q-9 0 -18 6q-10 7 -12 15q-2 3 -2 6q0 9 12 19q9 9 22 19t19 27q3 8 3 18q0 17 -8 37l-148 342h-583
q-36 -86 -71.5 -171.5t-71.5 -170.5q-9 -20 -10 -36q-1 -7 -1 -14q0 -10 3 -19q3 -13 10 -21.5t10 -17.5q1 -8 1 -11t-2 -7q-7 -21 -22 -21h-258q-10 0 -14 6q0 1 -2 5q0 2 2 10q6 13 34 26q15 7 32.5 15.5t35.5 20.5q37 26 54 63l567 1281h62zM526 1556l229 347h116
l230 -347h-57l-230 208l-231 -208h-57zM1027 570l-261 609q-64 -153 -127.5 -305t-126.5 -304h515z" />
    <glyph glyph-name="Atilde" unicode="&#xc3;" horiz-adv-x="1593" 
d="M838 1427q50 -118 123.5 -289t152 -352t152 -352t124.5 -288q15 -37 59 -67q23 -15 45.5 -25t36.5 -19q10 -7 13 -14q2 -4 2 -8q0 -3 -2 -7q-3 -6 -12 -6h-338q-9 0 -18 6q-10 7 -12 15q-2 3 -2 6q0 9 12 19q9 9 22 19t19 27q3 8 3 18q0 17 -8 37l-148 342h-583
q-36 -86 -71.5 -171.5t-71.5 -170.5q-9 -20 -10 -36q-1 -7 -1 -14q0 -10 3 -19q3 -13 10 -21.5t10 -17.5q1 -8 1 -11t-2 -7q-7 -21 -22 -21h-258q-10 0 -14 6q0 1 -2 5q0 2 2 10q6 13 34 26q15 7 32.5 15.5t35.5 20.5q37 26 54 63l567 1281h62zM1113 1810q-43 -114 -81 -165
q-42 -54 -88 -54q-78 0 -172 84q-53 46 -99 46q-37 0 -70 -29q-9 -8 -20.5 -18.5t-25.5 -28.5q-26 -35 -43 -73q-5 -10 -13 -10q-5 0 -12 6q-9 7 -9 19q0 10 6 23q33 72 67 148t106 76q87 0 177 -87q48 -47 96 -47q41 0 81 35q39 31 68 107q5 12 14 12q2 0 5 -1
q12 -3 15 -21v-5q0 -8 -2 -17zM1027 570l-261 609q-64 -153 -127.5 -305t-126.5 -304h515z" />
    <glyph glyph-name="Auml" unicode="&#xc4;" horiz-adv-x="1593" 
d="M838 1427q50 -118 123.5 -289t152 -352t152 -352t124.5 -288q15 -37 59 -67q23 -15 45.5 -25t36.5 -19q10 -7 13 -14q2 -4 2 -8q0 -3 -2 -7q-3 -6 -12 -6h-338q-9 0 -18 6q-10 7 -12 15q-2 3 -2 6q0 9 12 19q9 9 22 19t19 27q3 8 3 18q0 17 -8 37l-148 342h-583
q-36 -86 -71.5 -171.5t-71.5 -170.5q-9 -20 -10 -36q-1 -7 -1 -14q0 -10 3 -19q3 -13 10 -21.5t10 -17.5q1 -8 1 -11t-2 -7q-7 -21 -22 -21h-258q-10 0 -14 6q0 1 -2 5q0 2 2 10q6 13 34 26q15 7 32.5 15.5t35.5 20.5q37 26 54 63l567 1281h62zM891 1708q0 39 29 69.5
t69 30.5q66 0 93 -62q9 -23 9 -44q0 -36 -30 -66q-29 -29 -71 -29q-1 -1 -2 -1q-41 0 -69 30q-28 28 -28 72zM537 1708q0 66 61 92q21 9 40 9q37 0 68 -31t31 -68q0 -20 -8 -41q-26 -62 -93 -62q-99 0 -99 101zM1027 570l-261 609q-64 -153 -127.5 -305t-126.5 -304h515z
" />
    <glyph glyph-name="Aring" unicode="&#xc5;" horiz-adv-x="1593" 
d="M838 1427q50 -118 123.5 -289t152 -352t152 -352t124.5 -288q15 -37 59 -67q23 -15 45.5 -25t36.5 -19q10 -7 13 -14q2 -4 2 -8q0 -3 -2 -7q-3 -6 -12 -6h-338q-9 0 -18 6q-10 7 -12 15q-2 3 -2 6q0 9 12 19q9 9 22 19t19 27q3 8 3 18q0 17 -8 37l-148 342h-583
q-36 -86 -71.5 -171.5t-71.5 -170.5q-9 -20 -10 -36q-1 -7 -1 -14q0 -10 3 -19q3 -13 10 -21.5t10 -17.5q1 -8 1 -11t-2 -7q-7 -21 -22 -21h-258q-10 0 -14 6q0 1 -2 5q0 2 2 10q6 13 34 26q15 7 32.5 15.5t35.5 20.5q37 26 54 63l567 1281h62zM799 1920q80 0 137.5 -59
t57.5 -141q0 -83 -57.5 -141t-137.5 -58q-81 0 -138.5 58t-57.5 141q0 82 57.5 141t138.5 59zM791 1892q-51 0 -83 -50q-28 -45 -28 -106v-16q3 -71 40.5 -121t87.5 -50q49 0 82 50q29 46 29 109v12q-4 71 -41.5 121.5t-86.5 50.5zM1027 570l-261 609q-64 -153 -127.5 -305
t-126.5 -304h515z" />
    <glyph glyph-name="AElig" unicode="&#xc6;" horiz-adv-x="1933" 
d="M1089 94h428q92 0 156.5 71.5t97.5 111.5q18 22 28 22q21 0 21 -21q0 -13 -2 -21l-73 -257h-919q-18 0 -18 21q0 25 50 42.5t50 82.5v343h-505q-48 -86 -96.5 -171.5t-96.5 -170.5q-9 -16 -15 -36q-4 -11 -4 -23q0 -5 1 -10q2 -13 7 -21.5t7 -17.5q1 -3 1 -6q0 -2 -1 -5
l-2 -4t-1 -3q-11 -21 -25 -21h-257q-11 0 -14 6v5q0 4 3 10q8 11 37 26q17 7 35.5 15.5t37.5 20.5q40 26 63 63l701 1190q-39 9 -71 19t-32 28q0 21 21 21h1055v-257q0 -21 -21 -21q-10 0 -37 40q-50 69 -86.5 107t-95.5 38h-428v-543h229q64 0 84 51.5t46 51.5q20 0 20 -21
v-254q0 -21 -20 -21q-26 0 -49 51t-87 51h-223v-583zM911 570l-2 755h-29q-86 -152 -216 -377.5t-215 -377.5h462z" />
    <glyph glyph-name="Ccedil" unicode="&#xc7;" horiz-adv-x="1400" 
d="M848 -37q-307 0 -544 196t-237 542q0 337 230.5 540.5t550.5 203.5q115 0 244.5 -25.5t246.5 -100.5l-24 -210q-4 -18 -20 -18h-3q-12 1 -26 28q-58 125 -174 184q-108 53 -230 53h-21q-270 -12 -422 -216q-137 -183 -137 -405q0 -25 2 -50q14 -230 162 -419t402 -201
q24 -1 46 -1q128 0 211 39q96 46 161 185q13 28 32 28q4 0 8 -1q16 -6 16 -23q0 -8 -4 -18l-87 -243q-96 -40 -195 -54t-188 -14zM827 -88h57q-7 -22 -7 -41q0 -32 22 -53q35 -33 75 -67q57 -48 57 -123v-9q-4 -82 -123 -91h-15q-58 0 -138 27l-15 68q49 -34 93 -34
q34 0 65 21q30 20 30 49q0 37 -51 87q-32 30 -58 72q-11 17 -11 38q0 26 19 56z" />
    <glyph glyph-name="Egrave" unicode="&#xc8;" horiz-adv-x="1251" 
d="M869 1608l-426 159q-47 17 -47 69q0 74 74 74q24 0 42 -13l374 -258q8 -7 8 -15q0 -17 -18 -17q-5 0 -7 1zM436 94h427q93 0 157.5 71.5t97.5 111.5q18 22 28 22q21 0 21 -21q0 -13 -2 -21l-73 -257h-919q-18 0 -18 21q0 25 50 42.5t50 82.5v1111q0 65 -50 82.5t-50 43.5
q0 21 21 21h928v-257q0 -21 -21 -21q-10 0 -37 40q-50 69 -86.5 107t-96.5 38h-427v-543h229q64 0 84 51.5t46 51.5q20 0 20 -21v-254q0 -21 -20 -21q-26 0 -49 51t-87 51h-223v-583z" />
    <glyph glyph-name="Eacute" unicode="&#xc9;" horiz-adv-x="1251" 
d="M447 1612q-4 -2 -7 -2q-17 0 -17 18q0 8 7 15l375 258q19 13 41 13q74 0 74 -74q0 -53 -47 -70zM436 94h427q93 0 157.5 71.5t97.5 111.5q18 22 28 22q21 0 21 -21q0 -13 -2 -21l-73 -257h-919q-18 0 -18 21q0 25 50 42.5t50 82.5v1111q0 65 -50 82.5t-50 43.5
q0 21 21 21h928v-257q0 -21 -21 -21q-10 0 -37 40q-50 69 -86.5 107t-96.5 38h-427v-543h229q64 0 84 51.5t46 51.5q20 0 20 -21v-254q0 -21 -20 -21q-26 0 -49 51t-87 51h-223v-583z" />
    <glyph glyph-name="Ecirc" unicode="&#xca;" horiz-adv-x="1251" 
d="M436 94h427q93 0 157.5 71.5t97.5 111.5q18 22 28 22q21 0 21 -21q0 -13 -2 -21l-73 -257h-919q-18 0 -18 21q0 25 50 42.5t50 82.5v1111q0 65 -50 82.5t-50 43.5q0 21 21 21h928v-257q0 -21 -21 -21q-10 0 -37 40q-50 69 -86.5 107t-96.5 38h-427v-543h229q64 0 84 51.5
t46 51.5q20 0 20 -21v-254q0 -21 -20 -21q-26 0 -49 51t-87 51h-223v-583zM373 1556l230 347h116l229 -347h-57l-230 208l-230 -208h-58z" />
    <glyph glyph-name="Euml" unicode="&#xcb;" horiz-adv-x="1251" 
d="M436 94h427q93 0 157.5 71.5t97.5 111.5q18 22 28 22q21 0 21 -21q0 -13 -2 -21l-73 -257h-919q-18 0 -18 21q0 25 50 42.5t50 82.5v1111q0 65 -50 82.5t-50 43.5q0 21 21 21h928v-257q0 -21 -21 -21q-10 0 -37 40q-50 69 -86.5 107t-96.5 38h-427v-543h229q64 0 84 51.5
t46 51.5q20 0 20 -21v-254q0 -21 -20 -21q-26 0 -49 51t-87 51h-223v-583zM738 1708q0 39 29 69.5t70 30.5q66 0 92 -62q9 -23 9 -44q0 -36 -29 -66q-36 -35 -72 -35t-71 35q-28 28 -28 72zM384 1708q0 66 61 92q21 9 41 9q37 0 68 -31t31 -68q0 -20 -9 -41q-25 -62 -93 -62
q-99 0 -99 101z" />
    <glyph glyph-name="Igrave" unicode="&#xcc;" horiz-adv-x="690" 
d="M585 1616l-426 159q-47 17 -47 69q0 74 74 74q24 0 42 -13l374 -258q8 -7 8 -15q0 -17 -18 -17q-5 0 -7 1zM435 1257v-1110q0 -66 50 -83.5t50 -42.5q0 -21 -21 -21h-339q-20 0 -20 21q0 25 50 42.5t50 82.5v1111q0 65 -50 82.5t-50 43.5q0 21 21 21h338q21 0 21 -21
q0 -26 -50 -43.5t-50 -82.5z" />
    <glyph glyph-name="Iacute" unicode="&#xcd;" horiz-adv-x="690" 
d="M119 1612q-4 -2 -7 -2q-17 0 -17 18q0 8 7 15l375 258q19 13 41 13q74 0 74 -74q0 -53 -47 -70zM435 1257v-1110q0 -66 50 -83.5t50 -42.5q0 -21 -21 -21h-339q-20 0 -20 21q0 25 50 42.5t50 82.5v1111q0 65 -50 82.5t-50 43.5q0 21 21 21h338q21 0 21 -21
q0 -26 -50 -43.5t-50 -82.5z" />
    <glyph glyph-name="Icirc" unicode="&#xce;" horiz-adv-x="690" 
d="M435 1257v-1110q0 -66 50 -83.5t50 -42.5q0 -21 -21 -21h-339q-20 0 -20 21q0 25 50 42.5t50 82.5v1111q0 65 -50 82.5t-50 43.5q0 21 21 21h338q21 0 21 -21q0 -26 -50 -43.5t-50 -82.5zM58 1556l229 347h116l229 -347h-57l-230 208l-230 -208h-57z" />
    <glyph glyph-name="Iuml" unicode="&#xcf;" horiz-adv-x="690" 
d="M435 1257v-1110q0 -66 50 -83.5t50 -42.5q0 -21 -21 -21h-339q-20 0 -20 21q0 25 50 42.5t50 82.5v1111q0 65 -50 82.5t-50 43.5q0 21 21 21h338q21 0 21 -21q0 -26 -50 -43.5t-50 -82.5zM422 1708q0 39 29 69.5t70 30.5q66 0 92 -62q9 -23 9 -43q0 -37 -30 -67
q-35 -35 -71 -35q-35 0 -71 35q-28 28 -28 72zM68 1708q0 66 61 92q21 9 41 9q37 0 68 -31t31 -68q0 -20 -9 -41q-25 -62 -93 -62q-99 0 -99 101z" />
    <glyph glyph-name="ETH" unicode="&#xd0;" horiz-adv-x="1585" 
d="M1500 791q2 -33 2 -64q0 -166 -61 -298q-74 -158 -206 -260q-224 -172 -546 -176h-80q-58 0 -109 1h-117q-83 0 -126 3h-24q-40 0 -104 -6q-21 0 -21 22q0 25 50 43t50 83v546h-162q-21 0 -21 19v39q0 20 21 20h162v499q0 64 -50 81.5t-50 43.5q0 21 21 21q42 -1 85 -1
q42 0 86 1q86 3 168 5h59q153 0 308 -8q183 -11 330 -74q138 -61 229 -187.5t106 -352.5zM401 763h315q20 0 20 -20v-39q0 -19 -20 -19h-315l3 -586q127 -24 238 -24q202 0 352 79q141 74 222 226q74 140 74 356v33q-4 162 -57.5 271.5t-141.5 175.5q-129 96 -313 113
q-63 5 -127 5q-123 0 -252 -21z" />
    <glyph glyph-name="Ntilde" unicode="&#xd1;" horiz-adv-x="1644" 
d="M1369 203v1054q0 64 -49.5 82t-49.5 44q0 21 20 21h255q21 0 21 -21q0 -26 -50 -44t-50 -82l-1 -1300l-177 43l-958 1189v-1043q0 -65 50 -82.5t50 -42.5q0 -21 -21 -21h-254q-21 0 -21 21q0 25 50 42.5t50 82.5v1111q0 64 -50 82t-50 44q0 21 21 21h257zM1164 1810
q-43 -114 -81 -165q-42 -54 -87 -54q-79 0 -173 84q-53 46 -99 46q-36 0 -69 -29q-9 -8 -21 -18.5t-25 -28.5q-25 -32 -44 -73q-5 -10 -13 -10q-5 0 -12 6q-9 7 -9 19q0 10 6 23q33 72 67 148t106 76q88 0 178 -87q48 -47 95 -47q41 0 82 35q38 32 67 107q5 12 15 12
q2 0 4 -1q13 -3 16 -21v-5q0 -9 -3 -17z" />
    <glyph glyph-name="Ograve" unicode="&#xd2;" horiz-adv-x="1610" 
d="M1041 1616l-426 159q-47 17 -47 69q0 74 74 74q24 0 42 -13l374 -258q8 -7 8 -15q0 -17 -18 -17q-5 0 -7 1zM808 1358q-307 -1 -429 -193.5t-122 -462.5q0 -271 153 -462.5t398 -193.5h5q239 0 393 204q152 202 152 446v6q-2 249 -130 452.5t-420 203.5zM808 1446h10
q323 0 545 -198q207 -185 207 -488q0 -27 -2 -55q-21 -344 -238.5 -533.5t-523.5 -206.5q-23 -1 -46 -1q-278 0 -492 192q-220 196 -220 513q0 18 1 36q12 341 220.5 539t538.5 202z" />
    <glyph glyph-name="Oacute" unicode="&#xd3;" horiz-adv-x="1610" 
d="M591 1612q-4 -2 -7 -2q-17 0 -17 18q0 8 7 15l375 258q19 13 41 13q74 0 74 -74q0 -53 -47 -70zM808 1358q-307 -1 -429 -193.5t-122 -462.5q0 -271 153 -462.5t398 -193.5h5q239 0 393 204q152 202 152 446v6q-2 249 -130 452.5t-420 203.5zM808 1446h10q323 0 545 -198
q207 -185 207 -488q0 -27 -2 -55q-21 -344 -238.5 -533.5t-523.5 -206.5q-23 -1 -46 -1q-278 0 -492 192q-220 196 -220 513q0 18 1 36q12 341 220.5 539t538.5 202z" />
    <glyph glyph-name="Ocirc" unicode="&#xd4;" horiz-adv-x="1610" 
d="M808 1358q-307 -1 -429 -193.5t-122 -462.5q0 -271 153 -462.5t398 -193.5h5q239 0 393 204q152 202 152 446v6q-2 249 -130 452.5t-420 203.5zM522 1556l229 347h116l229 -347h-57l-230 208l-230 -208h-57zM808 1446h10q323 0 545 -198q207 -185 207 -488q0 -27 -2 -55
q-21 -344 -238.5 -533.5t-523.5 -206.5q-23 -1 -46 -1q-278 0 -492 192q-220 196 -220 513q0 18 1 36q12 341 220.5 539t538.5 202z" />
    <glyph glyph-name="Otilde" unicode="&#xd5;" horiz-adv-x="1610" 
d="M808 1358q-307 -1 -429 -193.5t-122 -462.5q0 -271 153 -462.5t398 -193.5h5q239 0 393 204q152 202 152 446v6q-2 249 -130 452.5t-420 203.5zM1123 1810q-40 -110 -81 -165q-42 -54 -87 -54q-79 0 -173 84q-53 46 -99 46q-36 0 -69 -29q-9 -8 -21 -18.5t-25 -28.5
q-26 -33 -43 -73q-5 -10 -13 -10q-5 0 -12 6q-9 7 -9 19q0 10 6 23q33 72 66.5 148t105.5 76q88 0 178 -87q48 -47 95 -47q41 0 82 35q38 31 68 107q4 12 14 12q2 0 4 -1q13 -3 16 -21v-5q0 -9 -3 -17zM808 1446h10q323 0 545 -198q207 -185 207 -488q0 -27 -2 -55
q-21 -344 -238.5 -533.5t-523.5 -206.5q-23 -1 -46 -1q-278 0 -492 192q-220 196 -220 513q0 18 1 36q12 341 220.5 539t538.5 202z" />
    <glyph glyph-name="Ouml" unicode="&#xd6;" horiz-adv-x="1610" 
d="M808 1358q-307 -1 -429 -193.5t-122 -462.5q0 -271 153 -462.5t398 -193.5h5q239 0 393 204q152 202 152 446v6q-2 249 -130 452.5t-420 203.5zM886 1708q0 39 29 69.5t70 30.5q66 0 92 -62q9 -23 9 -43q0 -37 -30 -67q-35 -35 -71 -35q-35 0 -71 35q-28 28 -28 72z
M533 1708q0 66 61 92q21 9 40 9q37 0 68 -31t31 -68q0 -20 -9 -41q-25 -62 -93 -62q-98 0 -98 101zM808 1446h10q323 0 545 -198q207 -185 207 -488q0 -27 -2 -55q-21 -344 -238.5 -533.5t-523.5 -206.5q-23 -1 -46 -1q-278 0 -492 192q-220 196 -220 513q0 18 1 36
q12 341 220.5 539t538.5 202z" />
    <glyph glyph-name="times" unicode="&#xd7;" horiz-adv-x="1024" 
d="M335 904l197 -198l198 198q15 15 27 15q9 0 17 -8l37 -37q8 -8 8 -17q0 -13 -15 -28l-197 -197l197 -198q15 -16 15 -28q0 -9 -8 -16l-37 -38q-8 -8 -17 -8q-12 0 -27 16l-198 197l-197 -197q-16 -16 -29 -16q-9 0 -16 8l-37 38q-8 8 -8 17q0 12 15 27l198 198l-198 197
q-15 14 -15 27q0 10 8 18l37 37q8 8 17 8q12 0 28 -15z" />
    <glyph glyph-name="Oslash" unicode="&#xd8;" horiz-adv-x="1610" 
d="M808 1358q-307 -1 -429 -193.5t-122 -462.5q0 -228 110 -402l878 831q-66 102 -173.5 164.5t-263.5 62.5zM1289 1050l-869 -822q156 -181 388 -182h5q239 0 393 204q152 202 152 446v6q-2 197 -69 348zM1622 1365l-195 -184q142 -182 142 -428q0 -24 -1 -48
q-21 -344 -238.5 -533.5t-523.5 -206.5q-24 -1 -48 -1q-253 0 -450 157l-158 -148q-7 -6 -13 -6q-7 0 -13 7l-35 36q-6 7 -6 13q0 7 6 13l153 145q-94 97 -146 230q-48 119 -48 261q0 16 1 33q12 341 220.5 539t538.5 202h10q334 0 549 -200l194 184q6 5 12 5q7 0 14 -6
l35 -38q7 -6 7 -13q0 -6 -7 -13z" />
    <glyph glyph-name="Ugrave" unicode="&#xd9;" horiz-adv-x="1554" 
d="M1041 1616l-426 159q-47 17 -47 69q0 74 74 74q24 0 42 -13l374 -258q8 -7 8 -15q0 -17 -18 -17q-5 0 -7 1zM234 588v670q0 64 -50 81.5t-50 43.5q0 21 21 21h339q20 0 20 -21q0 -26 -49 -42.5t-49 -80.5v-539q0 -153 10 -271t52 -199q41 -81 126 -123t235 -42
q264 0 358 208q67 146 67 427v536q0 64 -50 82t-50 44q0 21 21 21h255q20 0 20 -21q0 -26 -49.5 -44t-49.5 -82v-669q-1 -149 -27.5 -272.5t-97.5 -207.5q-127 -147 -397 -147q-171 0 -291 32t-192 116q-122 141 -122 479z" />
    <glyph glyph-name="Uacute" unicode="&#xda;" horiz-adv-x="1554" 
d="M591 1612q-4 -2 -7 -2q-17 0 -17 18q0 8 7 15l375 258q19 13 41 13q74 0 74 -74q0 -53 -47 -70zM234 588v670q0 64 -50 81.5t-50 43.5q0 21 21 21h339q20 0 20 -21q0 -26 -49 -42.5t-49 -80.5v-539q0 -153 10 -271t52 -199q41 -81 126 -123t235 -42q264 0 358 208
q67 146 67 427v536q0 64 -50 82t-50 44q0 21 21 21h255q20 0 20 -21q0 -26 -49.5 -44t-49.5 -82v-669q-1 -149 -27.5 -272.5t-97.5 -207.5q-127 -147 -397 -147q-171 0 -291 32t-192 116q-122 141 -122 479z" />
    <glyph glyph-name="Ucirc" unicode="&#xdb;" horiz-adv-x="1554" 
d="M234 588v670q0 64 -50 81.5t-50 43.5q0 21 21 21h339q20 0 20 -21q0 -26 -49 -42.5t-49 -80.5v-539q0 -153 10 -271t52 -199q41 -81 126 -123t235 -42q264 0 358 208q67 146 67 427v536q0 64 -50 82t-50 44q0 21 21 21h255q20 0 20 -21q0 -26 -49.5 -44t-49.5 -82v-669
q-1 -149 -27.5 -272.5t-97.5 -207.5q-127 -147 -397 -147q-171 0 -291 32t-192 116q-122 141 -122 479zM510 1556l229 347h116l230 -347h-58l-230 208l-230 -208h-57z" />
    <glyph glyph-name="Uuml" unicode="&#xdc;" horiz-adv-x="1554" 
d="M234 588v670q0 64 -50 81.5t-50 43.5q0 21 21 21h339q20 0 20 -21q0 -26 -49 -42.5t-49 -80.5v-539q0 -153 10 -271t52 -199q41 -81 126 -123t235 -42q264 0 358 208q67 146 67 427v536q0 64 -50 82t-50 44q0 21 21 21h255q20 0 20 -21q0 -26 -49.5 -44t-49.5 -82v-669
q-1 -149 -27.5 -272.5t-97.5 -207.5q-127 -147 -397 -147q-171 0 -291 32t-192 116q-122 141 -122 479zM874 1708q0 39 29 69.5t70 30.5q66 0 92 -62q9 -23 9 -44q0 -36 -29 -66q-36 -35 -72 -35t-71 35q-28 28 -28 72zM521 1708q0 66 61 92q21 9 40 9q37 0 68 -31t31 -68
q0 -20 -8 -41q-26 -62 -93 -62q-99 0 -99 101z" />
    <glyph glyph-name="Yacute" unicode="&#xdd;" horiz-adv-x="1366" 
d="M495 1612q-4 -2 -7 -2q-17 0 -17 18q0 8 7 15l375 258q19 13 41 13q74 0 74 -74q0 -53 -47 -70zM589 677l-349 581q-23 34 -77 67q-28 15 -53.5 24.5t-41.5 19.5q-11 6 -17 14q-4 6 -4 11v4q1 6 10 6h339q10 0 19 -6q11 -7 17 -15q3 -5 3 -10q0 -7 -7 -15
q-7 -9 -17 -19.5t-11 -25.5v-5q0 -22 16 -45l337 -534l259 395q29 44 34 76q1 5 1 10q0 30 -24 78l-34 68l143 62q7 3 13 3q13 0 24 -16l60 -101q11 -19 11 -38q0 -34 -34 -69q-53 -56 -113 -143l-266 -388q-18 -27 -23.5 -76t-5.5 -93v-351q0 -65 50 -82.5t50 -42.5
q0 -21 -21 -21h-339q-21 0 -21 21q0 25 50 42.5t50 82.5v427q0 58 -28 104z" />
    <glyph glyph-name="THORN" unicode="&#xde;" horiz-adv-x="1151" 
d="M351 1257v-169h310q103 0 215 -36.5t173 -141.5q48 -85 48 -204q-2 -113 -65 -203q-54 -77 -153.5 -114.5t-181.5 -37.5h-346v-205q0 -65 50 -82.5t50 -42.5q0 -21 -21 -21h-339q-20 0 -20 21q0 25 50 42.5t50 82.5v1111q0 64 -50 82t-50 44q0 21 21 21h338q21 0 21 -21
q0 -26 -50 -44t-50 -82zM351 421h211q69 0 140 20t122 71q80 77 80 204q-2 123 -83 204q-89 85 -239 85h-231v-584z" />
    <glyph glyph-name="szlig" unicode="&#xdf;" horiz-adv-x="1269" 
d="M432 1278q-35 -46 -39.5 -115t-4.5 -136v-881q0 -65 50 -82.5t50 -42.5q0 -21 -21 -21h-339q-21 0 -21 21q0 25 50 42.5t50 82.5v881q0 90 22.5 175.5t78.5 148.5q101 115 247 115q32 0 67 -6q174 -30 258 -195q32 -65 32 -125q0 -94 -79 -178q-54 -58 -117.5 -102.5
t-77.5 -108.5q-5 -22 -5 -40q0 -63 56 -90q71 -36 165 -57q129 -29 235 -78t115 -205v-12q0 -73 -57 -146q-62 -80 -179 -121q-73 -24 -162 -27h-27q-122 0 -235 32l-80 220l2 20q1 15 18 15h2q10 -2 21 -24q46 -99 112.5 -140.5t168.5 -44.5h12q72 0 157 33q92 36 95 130v6
q0 108 -102 137q-106 30 -186 53q-99 27 -186 86q-86 58 -86 174v3q0 99 66 149.5t129 109.5q65 60 78 159q2 20 2 40q0 73 -38 128q-47 65 -146 75q-13 1 -25 1q-82 0 -126 -59z" />
    <glyph glyph-name="agrave" unicode="&#xe0;" horiz-adv-x="1155" 
d="M746 1122l-426 159q-47 17 -47 69q0 74 74 74q24 0 42 -13l374 -258q8 -7 8 -15q0 -17 -18 -17q-5 0 -7 1zM797 87l-275 -101q-32 -11 -53 -11h-41q-142 7 -245 116t-117 268q-4 42 -4 81q0 52 7 101q12 85 66 170q26 44 89 92q22 15 49 27q80 30 160.5 60t161.5 60
q17 6 32 6h5q64 -3 155 -32q8 -3 10 -4q22 -9 54 -20q13 -4 24 -4q16 0 28 9q21 18 30 30q5 7 13 7q5 0 10 -2q22 -8 22 -20v-774q0 -65 50 -82.5t50 -42.5q0 -21 -21 -21h-243q-17 0 -17 13v74zM797 769q-41 38 -108 70.5t-119 34.5h-4q-20 0 -40 -8q-36 -13 -71.5 -26.5
t-71.5 -26.5q-25 -10 -40 -26q-62 -66 -83 -160q-17 -71 -17 -141q0 -22 2 -45q11 -144 78 -234q67 -93 168 -121q38 -11 77 -11q12 0 25 1q22 2 52 13q23 8 72 26.5t80 30.5v623z" />
    <glyph glyph-name="aacute" unicode="&#xe1;" horiz-adv-x="1155" 
d="M316 1150q-3 -1 -7 -1q-18 0 -18 17q0 8 7 15l375 258q18 13 41 13q74 0 74 -74q0 -52 -47 -69zM797 87l-275 -101q-32 -11 -53 -11h-41q-142 7 -245 116t-117 268q-4 42 -4 81q0 52 7 101q12 85 66 170q26 44 89 92q22 15 49 27q80 30 160.5 60t161.5 60q17 6 32 6h5
q64 -3 155 -32q8 -3 10 -4q22 -9 54 -20q13 -4 24 -4q16 0 28 9q21 18 30 30q5 7 13 7q5 0 10 -2q22 -8 22 -20v-774q0 -65 50 -82.5t50 -42.5q0 -21 -21 -21h-243q-17 0 -17 13v74zM797 769q-41 38 -108 70.5t-119 34.5h-4q-20 0 -40 -8q-36 -13 -71.5 -26.5t-71.5 -26.5
q-25 -10 -40 -26q-62 -66 -83 -160q-17 -71 -17 -141q0 -22 2 -45q11 -144 78 -234q67 -93 168 -121q38 -11 77 -11q12 0 25 1q22 2 52 13q23 8 72 26.5t80 30.5v623z" />
    <glyph glyph-name="acirc" unicode="&#xe2;" horiz-adv-x="1155" 
d="M797 87l-275 -101q-32 -11 -53 -11h-41q-142 7 -245 116t-117 268q-4 42 -4 81q0 52 7 101q12 85 66 170q26 44 89 92q22 15 49 27q80 30 160.5 60t161.5 60q17 6 32 6h5q64 -3 155 -32q8 -3 10 -4q22 -9 54 -20q13 -4 24 -4q16 0 28 9q21 18 30 30q5 7 13 7q5 0 10 -2
q22 -8 22 -20v-774q0 -65 50 -82.5t50 -42.5q0 -21 -21 -21h-243q-17 0 -17 13v74zM797 769q-41 38 -108 70.5t-119 34.5h-4q-20 0 -40 -8q-36 -13 -71.5 -26.5t-71.5 -26.5q-25 -10 -40 -26q-62 -66 -83 -160q-17 -71 -17 -141q0 -22 2 -45q11 -144 78 -234
q67 -93 168 -121q38 -11 77 -11q12 0 25 1q22 2 52 13q23 8 72 26.5t80 30.5v623zM245 1096l229 347h117l229 -347h-57l-230 209l-231 -209h-57z" />
    <glyph glyph-name="atilde" unicode="&#xe3;" horiz-adv-x="1155" 
d="M797 87l-275 -101q-32 -11 -53 -11h-41q-142 7 -245 116t-117 268q-4 42 -4 81q0 52 7 101q12 85 66 170q26 44 89 92q22 15 49 27q80 30 160.5 60t161.5 60q17 6 32 6h5q64 -3 155 -32q8 -3 10 -4q22 -9 54 -20q13 -4 24 -4q16 0 28 9q21 18 30 30q5 7 13 7q5 0 10 -2
q22 -8 22 -20v-774q0 -65 50 -82.5t50 -42.5q0 -21 -21 -21h-243q-17 0 -17 13v74zM797 769q-41 38 -108 70.5t-119 34.5h-4q-20 0 -40 -8q-36 -13 -71.5 -26.5t-71.5 -26.5q-25 -10 -40 -26q-62 -66 -83 -160q-17 -71 -17 -141q0 -22 2 -45q11 -144 78 -234
q67 -93 168 -121q38 -11 77 -11q12 0 25 1q22 2 52 13q23 8 72 26.5t80 30.5v623zM893 1358q-42 -113 -81 -165q-42 -54 -88 -54q-78 0 -172 84q-53 46 -99 46q-37 0 -70 -29q-9 -8 -20.5 -18.5t-25.5 -28.5q-20 -27 -43 -73q-5 -10 -13 -10q-5 0 -12 6q-9 7 -9 19
q0 10 6 23q33 72 66.5 148t105.5 76q89 0 179 -87q48 -47 95 -47q41 0 82 35q35 30 67 106q5 12 15 12h4q13 -3 16 -21v-5q0 -9 -3 -17z" />
    <glyph glyph-name="auml" unicode="&#xe4;" horiz-adv-x="1155" 
d="M797 87l-275 -101q-32 -11 -53 -11h-41q-142 7 -245 116t-117 268q-4 42 -4 81q0 52 7 101q12 85 66 170q26 44 89 92q22 15 49 27q80 30 160.5 60t161.5 60q17 6 32 6h5q64 -3 155 -32q8 -3 10 -4q22 -9 54 -20q13 -4 24 -4q16 0 28 9q21 18 30 30q5 7 13 7q5 0 10 -2
q22 -8 22 -20v-774q0 -65 50 -82.5t50 -42.5q0 -21 -21 -21h-243q-17 0 -17 13v74zM797 769q-41 38 -108 70.5t-119 34.5h-4q-20 0 -40 -8q-36 -13 -71.5 -26.5t-71.5 -26.5q-25 -10 -40 -26q-62 -66 -83 -160q-17 -71 -17 -141q0 -22 2 -45q11 -144 78 -234
q67 -93 168 -121q38 -11 77 -11q12 0 25 1q22 2 52 13q23 8 72 26.5t80 30.5v623zM656 1261q0 39 29 69.5t70 30.5q68 0 92 -62q9 -23 9 -43q0 -37 -30 -67q-29 -29 -71 -29q-1 -1 -2 -1q-41 0 -69 30q-28 28 -28 72zM302 1261q0 69 61 92q21 8 40 8q37 0 68 -30
q32 -32 32 -69q0 -19 -9 -40q-25 -62 -93 -62q-99 0 -99 101z" />
    <glyph glyph-name="aring" unicode="&#xe5;" horiz-adv-x="1155" 
d="M797 87l-275 -101q-32 -11 -53 -11h-41q-142 7 -245 116t-117 268q-4 42 -4 81q0 52 7 101q12 85 66 170q26 44 89 92q22 15 49 27q80 30 160.5 60t161.5 60q17 6 32 6h5q64 -3 155 -32q8 -3 10 -4q22 -9 54 -20q13 -4 24 -4q16 0 28 9q21 18 30 30q5 7 13 7q5 0 10 -2
q22 -8 22 -20v-774q0 -65 50 -82.5t50 -42.5q0 -21 -21 -21h-243q-17 0 -17 13v74zM797 769q-41 38 -108 70.5t-119 34.5h-4q-20 0 -40 -8q-36 -13 -71.5 -26.5t-71.5 -26.5q-25 -10 -40 -26q-62 -66 -83 -160q-17 -71 -17 -141q0 -22 2 -45q11 -144 78 -234
q67 -93 168 -121q38 -11 77 -11q12 0 25 1q22 2 52 13q23 8 72 26.5t80 30.5v623zM585 1517q80 0 137.5 -59t57.5 -141q0 -83 -57.5 -141t-137.5 -58q-81 0 -138.5 58t-57.5 141q0 82 57.5 141t138.5 59zM577 1489q-51 0 -83 -50q-28 -45 -28 -106v-15q3 -72 40.5 -122
t87.5 -50q49 0 82 50q29 46 29 110v12q-4 70 -41.5 120.5t-86.5 50.5z" />
    <glyph glyph-name="aelig" unicode="&#xe6;" horiz-adv-x="1762" 
d="M962 852q120 106 308 108h4q197 0 301 -112q104 -114 104 -297q0 -40 -2.5 -56.5t-40.5 -16.5h-638q4 -162 83 -268.5t198 -130.5q35 -8 71 -8q96 0 198 55q58 31 77 31q5 0 7 -2q3 -3 3 -9q0 -13 -13 -37q-16 -31 -33 -46q-109 -94 -295 -94q-247 2 -382 154l-390 -137
q-32 -11 -53 -11h-41q-142 7 -245 116t-117 268q-4 42 -4 81q0 52 7 101q12 85 66 170q26 44 89 92q22 15 49 27q80 30 160.5 60t161.5 60q17 6 32 6h5q64 -3 155 -32q110 -41 175 -72zM797 769q-41 38 -108 70.5t-119 34.5h-4q-20 0 -40 -8q-36 -13 -71.5 -26.5
t-71.5 -26.5q-25 -10 -40 -26q-62 -66 -83 -160q-17 -71 -17 -141q0 -22 2 -45q11 -144 78 -234q67 -93 168 -121q38 -11 77 -11q12 0 25 1q22 2 52 13q23 8 72 26.5t80 30.5v623zM998 551h528q0 122 -55 224q-54 97 -195 97h-11q-141 -4 -202 -102t-65 -219z" />
    <glyph glyph-name="ccedil" unicode="&#xe7;" horiz-adv-x="925" 
d="M414 -40h57q-7 -22 -7 -41q0 -32 22 -53q35 -33 75 -67q57 -48 57 -123v-9q-4 -82 -123 -91h-15q-58 0 -138 27l-15 68q49 -34 93 -34q34 0 65 21q30 20 30 49q0 37 -51 87q-32 30 -58 72q-11 17 -11 38q0 26 19 56zM555 956h21q163 0 300 -88l-17 -169q-2 -13 -13 -13
h-3q-10 1 -18 20q-40 87 -105 126q-64 38 -156 38h-24q-109 -6 -169 -63q-53 -52 -78 -125q-26 -73 -26 -163q0 -30 3 -61q10 -149 81 -244q93 -125 208 -142q19 -3 39 -3q90 0 199 60q57 31 77 31q5 0 8 -2q2 -2 2 -8q0 -12 -12 -38q-15 -30 -34 -47q-57 -51 -140 -70.5
t-158 -19.5q-186 1 -312.5 103.5t-143.5 293.5q-4 44 -4 86q0 54 7 105q13 88 68 176q58 93 161.5 152t238.5 65z" />
    <glyph glyph-name="egrave" unicode="&#xe8;" horiz-adv-x="1004" 
d="M746 1122l-426 159q-47 17 -47 69q0 74 74 74q24 0 42 -13l374 -258q8 -7 8 -15q0 -17 -18 -17q-5 0 -7 1zM71 551q28 185 147.5 296t314.5 113h4q197 0 301 -112q104 -114 104 -297q-1 -40 -3 -56.5t-41 -16.5h-637q3 -162 82 -268.5t199 -130.5q35 -8 71 -8
q95 0 197 55q57 31 77 31q5 0 8 -2q3 -3 3 -9q0 -13 -13 -37q-12 -24 -19.5 -32t-13.5 -14q-109 -94 -296 -94q-262 2 -393 168q-101 128 -101 304q0 53 9 110zM261 551h527q0 122 -55 224q-53 97 -194 97h-11q-141 -4 -202 -102t-65 -219z" />
    <glyph glyph-name="eacute" unicode="&#xe9;" horiz-adv-x="1004" 
d="M316 1150q-3 -1 -7 -1q-18 0 -18 17q0 8 7 15l375 258q18 13 41 13q74 0 74 -74q0 -52 -47 -69zM71 551q28 185 147.5 296t314.5 113h4q197 0 301 -112q104 -114 104 -297q-1 -40 -3 -56.5t-41 -16.5h-637q3 -162 82 -268.5t199 -130.5q35 -8 71 -8q95 0 197 55
q57 31 77 31q5 0 8 -2q3 -3 3 -9q0 -13 -13 -37q-12 -24 -19.5 -32t-13.5 -14q-109 -94 -296 -94q-262 2 -393 168q-101 128 -101 304q0 53 9 110zM261 551h527q0 122 -55 224q-53 97 -194 97h-11q-141 -4 -202 -102t-65 -219z" />
    <glyph glyph-name="ecirc" unicode="&#xea;" horiz-adv-x="1004" 
d="M71 551q28 185 147.5 296t314.5 113h4q197 0 301 -112q104 -114 104 -297q-1 -40 -3 -56.5t-41 -16.5h-637q3 -162 82 -268.5t199 -130.5q35 -8 71 -8q95 0 197 55q57 31 77 31q5 0 8 -2q3 -3 3 -9q0 -13 -13 -37q-12 -24 -19.5 -32t-13.5 -14q-109 -94 -296 -94
q-262 2 -393 168q-101 128 -101 304q0 53 9 110zM261 551h527q0 122 -55 224q-53 97 -194 97h-11q-141 -4 -202 -102t-65 -219zM200 1096l230 347h116l229 -347h-57l-230 209l-231 -209h-57z" />
    <glyph glyph-name="euml" unicode="&#xeb;" horiz-adv-x="1004" 
d="M71 551q28 185 147.5 296t314.5 113h4q197 0 301 -112q104 -114 104 -297q-1 -40 -3 -56.5t-41 -16.5h-637q3 -162 82 -268.5t199 -130.5q35 -8 71 -8q95 0 197 55q57 31 77 31q5 0 8 -2q3 -3 3 -9q0 -13 -13 -37q-12 -24 -19.5 -32t-13.5 -14q-109 -94 -296 -94
q-262 2 -393 168q-101 128 -101 304q0 53 9 110zM261 551h527q0 122 -55 224q-53 97 -194 97h-11q-141 -4 -202 -102t-65 -219zM565 1263q0 39 29 69.5t70 30.5q66 0 92 -62q9 -23 9 -43q0 -37 -30 -67q-29 -29 -71 -29q-1 -1 -2 -1q-41 0 -69 30q-28 28 -28 72zM211 1263
q0 66 61 92q21 8 40 8q37 0 68 -30q31 -31 31 -68q0 -20 -8 -41q-26 -62 -93 -62q-99 0 -99 101z" />
    <glyph glyph-name="igrave" unicode="&#xec;" horiz-adv-x="596" 
d="M527 1128l-426 159q-47 17 -47 69q0 74 74 74q24 0 42 -13l374 -258q8 -7 8 -15q0 -17 -18 -17q-5 0 -7 1zM393 958v-812q0 -65 50 -82.5t50 -42.5q0 -21 -20 -21h-339q-21 0 -21 21q0 25 50 42.5t50 82.5v606q0 64 -50 81.5t-50 43.5q0 21 21 21q66 3 130.5 20.5
t128.5 39.5z" />
    <glyph glyph-name="iacute" unicode="&#xed;" horiz-adv-x="596" 
d="M68 1144q-3 -1 -7 -1q-18 0 -18 17q0 8 7 15l375 258q18 13 41 13q74 0 74 -74q0 -52 -47 -69zM393 958v-812q0 -65 50 -82.5t50 -42.5q0 -21 -20 -21h-339q-21 0 -21 21q0 25 50 42.5t50 82.5v606q0 64 -50 81.5t-50 43.5q0 21 21 21q66 3 130.5 20.5t128.5 39.5z" />
    <glyph glyph-name="icirc" unicode="&#xee;" horiz-adv-x="596" 
d="M393 958v-812q0 -65 50 -82.5t50 -42.5q0 -21 -20 -21h-339q-21 0 -21 21q0 25 50 42.5t50 82.5v606q0 64 -50 81.5t-50 43.5q0 21 21 21q66 3 130.5 20.5t128.5 39.5zM16 1096l229 347h116l229 -347h-57l-230 209l-230 -209h-57z" />
    <glyph glyph-name="iuml" unicode="&#xef;" horiz-adv-x="596" 
d="M393 958v-812q0 -65 50 -82.5t50 -42.5q0 -21 -20 -21h-339q-21 0 -21 21q0 25 50 42.5t50 82.5v606q0 64 -50 81.5t-50 43.5q0 21 21 21q66 3 130.5 20.5t128.5 39.5zM380 1263q0 39 29 69.5t70 30.5q66 0 92 -62q9 -23 9 -43q0 -37 -30 -67q-29 -29 -71 -29l-1 -1
q-41 0 -70 30q-28 28 -28 72zM27 1263q0 66 61 92q21 8 40 8q37 0 68 -30q31 -31 31 -68q0 -20 -9 -41q-25 -62 -93 -62q-98 0 -98 101z" />
    <glyph glyph-name="eth" unicode="&#xf0;" horiz-adv-x="1105" 
d="M562 893h-12q-117 0 -201 -115q-88 -122 -88 -300v-4q0 -177 87 -307q88 -131 213 -137h13q116 0 200 115q88 121 89 301q0 178 -88 309.5t-213 137.5zM303 1077l-18 28t-18 29q139 54 271 131q-91 81 -216 149q-20 11 -20 21q0 3 2 6q8 13 20 35q10 18 27 18q9 0 20 -5
q150 -89 253 -172q128 85 237 182q12 -13 23.5 -26t23.5 -25q-104 -101 -225 -181q170 -154 267.5 -350.5t100.5 -455.5v-6q0 -204 -141 -345q-143 -144 -350 -150h-13q-195 0 -335 145q-144 149 -144 353v3q1 224 166 376q19 18 56.5 31t111.5 42q44 16 97 35q50 18 81 18
h3q115 -5 215 -62q-48 91 -96.5 167t-108.5 142q-133 -77 -290 -133z" />
    <glyph glyph-name="ntilde" unicode="&#xf1;" horiz-adv-x="1191" 
d="M362 853q55 21 97 37t80 29q92 32 191 42q12 1 25 1q84 0 160 -57q121 -93 121 -399v-360q0 -65 50 -82.5t50 -42.5q0 -21 -20 -21h-243q-17 0 -17 13v493q0 219 -91 308q-58 57 -142 57q-48 0 -105 -19q-22 -8 -55.5 -20.5t-57.5 -21.5t-43 -16v-648q0 -65 50 -82.5
t50 -42.5q0 -21 -20 -21h-339q-21 0 -21 21q0 25 50 42.5t50 82.5v640q0 63 -50 81t-50 44q0 21 21 21q66 3 130.5 20.5t128.5 39.5v-139zM914 1356q-42 -113 -81 -165q-43 -54 -88 -54q-78 0 -172 84q-53 46 -100 46q-36 0 -69 -29q-9 -8 -20.5 -18.5t-25.5 -28.5
q-23 -29 -43 -73q-5 -10 -13 -10q-5 0 -12 6q-9 7 -9 19q0 10 6 23q33 72 66.5 148t105.5 76q88 0 178 -87q48 -47 95 -47q41 0 82 35q39 31 68 106q4 12 14 12h4q13 -3 16 -21v-5q0 -8 -2 -17z" />
    <glyph glyph-name="ograve" unicode="&#xf2;" horiz-adv-x="1107" 
d="M746 1122l-426 159q-47 17 -47 69q0 74 74 74q24 0 42 -13l374 -258q8 -7 8 -15q0 -17 -18 -17q-5 0 -7 1zM577 956q195 -8 330 -150.5t138 -340.5v-6q0 -200 -141 -338q-144 -140 -351 -146h-16q-192 0 -331 142q-144 146 -144 345v3q1 219 165 368q19 18 56.5 31
t111.5 40q44 16 97 35q50 17 82 17h3zM556 889h-12q-117 0 -201 -113q-89 -120 -89 -295t87.5 -303.5t212.5 -134.5h14q116 0 200 113q88 119 88 294t-88 303.5t-212 135.5z" />
    <glyph glyph-name="oacute" unicode="&#xf3;" horiz-adv-x="1107" 
d="M316 1150q-3 -1 -7 -1q-18 0 -18 17q0 8 7 15l375 258q18 13 41 13q74 0 74 -74q0 -52 -47 -69zM577 956q195 -8 330 -150.5t138 -340.5v-6q0 -200 -141 -338q-144 -140 -351 -146h-16q-192 0 -331 142q-144 146 -144 345v3q1 219 165 368q19 18 56.5 31t111.5 40
q44 16 97 35q50 17 82 17h3zM556 889h-12q-117 0 -201 -113q-89 -120 -89 -295t87.5 -303.5t212.5 -134.5h14q116 0 200 113q88 119 88 294t-88 303.5t-212 135.5z" />
    <glyph glyph-name="ocirc" unicode="&#xf4;" horiz-adv-x="1107" 
d="M577 956q195 -8 330 -150.5t138 -340.5v-6q0 -200 -141 -338q-144 -140 -351 -146h-16q-192 0 -331 142q-144 146 -144 345v3q1 219 165 368q19 18 56.5 31t111.5 40q44 16 97 35q50 17 82 17h3zM556 889h-12q-117 0 -201 -113q-89 -120 -89 -295t87.5 -303.5
t212.5 -134.5h14q116 0 200 113q88 119 88 294t-88 303.5t-212 135.5zM253 1096l229 347h117l229 -347h-57l-230 209l-231 -209h-57z" />
    <glyph glyph-name="otilde" unicode="&#xf5;" horiz-adv-x="1107" 
d="M577 956q195 -8 330 -150.5t138 -340.5v-6q0 -200 -141 -338q-144 -140 -351 -146h-16q-192 0 -331 142q-144 146 -144 345v3q1 219 165 368q19 18 56.5 31t111.5 40q44 16 97 35q50 17 82 17h3zM556 889h-12q-117 0 -201 -113q-89 -120 -89 -295t87.5 -303.5
t212.5 -134.5h14q116 0 200 113q88 119 88 294t-88 303.5t-212 135.5zM874 1356q-42 -113 -81 -165q-42 -54 -87 -54q-79 0 -173 84q-53 46 -99 46q-36 0 -69 -29q-9 -8 -21 -18.5t-25 -28.5q-25 -32 -44 -73q-5 -10 -13 -10q-5 0 -12 6q-9 7 -9 19q0 10 6 23q33 72 67 148
t106 76q88 0 178 -87q48 -47 95 -47q41 0 82 35q38 32 67 106q5 12 15 12h4q13 -3 16 -21v-5q0 -9 -3 -17z" />
    <glyph glyph-name="ouml" unicode="&#xf6;" horiz-adv-x="1107" 
d="M577 956q195 -8 330 -150.5t138 -340.5v-6q0 -200 -141 -338q-144 -140 -351 -146h-16q-192 0 -331 142q-144 146 -144 345v3q1 219 165 368q19 18 56.5 31t111.5 40q44 16 97 35q50 17 82 17h3zM556 889h-12q-117 0 -201 -113q-89 -120 -89 -295t87.5 -303.5
t212.5 -134.5h14q116 0 200 113q88 119 88 294t-88 303.5t-212 135.5zM637 1263q0 39 29 69.5t70 30.5q66 0 92 -62q9 -23 9 -43q0 -37 -30 -67q-29 -29 -71 -29q-1 -1 -2 -1q-41 0 -69 30q-28 28 -28 72zM283 1263q0 66 61 92q21 8 40 8q37 0 68 -30q32 -32 32 -69
q0 -19 -9 -40q-25 -62 -93 -62q-99 0 -99 101z" />
    <glyph glyph-name="divide" unicode="&#xf7;" horiz-adv-x="1024" 
d="M200 684h664q37 0 37 -26v-53q0 -26 -37 -26h-664q-37 0 -37 26v53q0 26 37 26zM532 831q-42 0 -70 30q-29 27 -29 70q0 41 29 69q27 29 70 29q42 0 70 -29q30 -29 30 -69q0 -42 -30 -70q-29 -30 -70 -30zM532 232q-41 0 -70 29t-29 71q0 41 29 69q29 29 70 29t70 -29
q30 -29 30 -69q0 -41 -30 -71q-29 -29 -70 -29z" />
    <glyph glyph-name="oslash" unicode="&#xf8;" horiz-adv-x="1107" 
d="M45 16l133 131q-116 136 -116 312v6q1 219 165 368q19 18 56.5 31t111.5 40q44 16 97 35q50 17 82 17h3q172 -6 301 -122l138 135q4 3 8 3q5 0 9 -3l37 -39q5 -4 5 -8t-5 -8l-138 -136q110 -136 113 -313v-6q0 -200 -141 -338q-144 -140 -351 -146h-14q-172 0 -307 116
l-133 -129q-4 -4 -8 -4t-8 4l-38 38q-4 4 -4 8t4 8zM296 262l484 475q-90 144 -224 152h-12q-117 0 -201 -113q-89 -120 -89 -295q0 -118 42 -219zM816 664l-483 -473q88 -141 221 -148h14q116 0 200 113q88 119 88 294q0 117 -40 214z" />
    <glyph glyph-name="ugrave" unicode="&#xf9;" horiz-adv-x="1239" 
d="M746 1122l-426 159q-47 17 -47 69q0 74 74 74q24 0 42 -13l374 -258q8 -7 8 -15q0 -17 -18 -17q-5 0 -7 1zM1040 146q0 -65 50 -82.5t50 -42.5q0 -21 -21 -21h-243q-17 0 -17 13v65q-55 -21 -97.5 -37.5t-78.5 -28.5q-93 -31 -191 -41q-14 -1 -27 -1q-83 0 -158 56
q-122 92 -122 399v361q0 63 -50 81t-50 44q0 21 21 21q66 3 130.5 20.5t129.5 39.5v-567q0 -220 91 -308q58 -57 142 -57q48 0 105 19q21 7 55 20t58 22q5 2 16.5 6t25.5 10v649q0 63 -50 81t-50 44q0 21 21 21q66 3 130.5 20.5t129.5 39.5v-846z" />
    <glyph glyph-name="uacute" unicode="&#xfa;" horiz-adv-x="1239" 
d="M380 1148q-3 -1 -7 -1q-18 0 -18 17q0 8 7 15l375 258q18 13 41 13q74 0 74 -74q0 -52 -47 -69zM1040 146q0 -65 50 -82.5t50 -42.5q0 -21 -21 -21h-243q-17 0 -17 13v65q-55 -21 -97.5 -37.5t-78.5 -28.5q-93 -31 -191 -41q-14 -1 -27 -1q-83 0 -158 56
q-122 92 -122 399v361q0 63 -50 81t-50 44q0 21 21 21q66 3 130.5 20.5t129.5 39.5v-567q0 -220 91 -308q58 -57 142 -57q48 0 105 19q21 7 55 20t58 22q5 2 16.5 6t25.5 10v649q0 63 -50 81t-50 44q0 21 21 21q66 3 130.5 20.5t129.5 39.5v-846z" />
    <glyph glyph-name="ucirc" unicode="&#xfb;" horiz-adv-x="1239" 
d="M1040 146q0 -65 50 -82.5t50 -42.5q0 -21 -21 -21h-243q-17 0 -17 13v65q-55 -21 -97.5 -37.5t-78.5 -28.5q-93 -31 -191 -41q-14 -1 -27 -1q-83 0 -158 56q-122 92 -122 399v361q0 63 -50 81t-50 44q0 21 21 21q66 3 130.5 20.5t129.5 39.5v-567q0 -220 91 -308
q58 -57 142 -57q48 0 105 19q21 7 55 20t58 22q5 2 16.5 6t25.5 10v649q0 63 -50 81t-50 44q0 21 21 21q66 3 130.5 20.5t129.5 39.5v-846zM313 1096l229 347h117l229 -347h-57l-230 209l-231 -209h-57z" />
    <glyph glyph-name="uuml" unicode="&#xfc;" horiz-adv-x="1239" 
d="M1040 146q0 -65 50 -82.5t50 -42.5q0 -21 -21 -21h-243q-17 0 -17 13v65q-55 -21 -97.5 -37.5t-78.5 -28.5q-93 -31 -191 -41q-14 -1 -27 -1q-83 0 -158 56q-122 92 -122 399v361q0 63 -50 81t-50 44q0 21 21 21q66 3 130.5 20.5t129.5 39.5v-567q0 -220 91 -308
q58 -57 142 -57q48 0 105 19q21 7 55 20t58 22q5 2 16.5 6t25.5 10v649q0 63 -50 81t-50 44q0 21 21 21q66 3 130.5 20.5t129.5 39.5v-846zM678 1263q0 39 29 69.5t69 30.5q66 0 93 -62q9 -23 9 -44q0 -36 -30 -66q-29 -29 -71 -29q-1 -1 -2 -1q-41 0 -69 30q-28 28 -28 72z
M324 1263q0 66 61 92q21 8 40 8q37 0 68 -30q31 -31 31 -68q0 -20 -8 -41q-26 -62 -93 -62q-99 0 -99 101z" />
    <glyph glyph-name="yacute" unicode="&#xfd;" horiz-adv-x="1139" 
d="M316 1150q-3 -1 -7 -1q-18 0 -18 17q0 8 7 15l375 258q18 13 41 13q74 0 74 -74q0 -52 -47 -69zM167 800q-17 38 -49 60q-26 16 -53 27t-33 26q-2 5 -2 9q0 9 13 9h328q19 0 27 -18q2 -4 2 -8q0 -12 -17 -20q-22 -12 -31 -36q-3 -9 -3 -19q0 -12 6 -25l262 -639l230 551
q9 21 9 41q0 35 -28 68l-33 39l90 71q6 6 11 6q7 0 15 -8l56 -57q17 -18 17 -44q0 -15 -6 -33q-16 -48 -47 -112l-495 -1102q-30 -66 -54 -110q-24 -42 -61 -42h-3l-80 3q-19 3 -19 19l-6 114l51 1q67 2 95 59l169 351q-15 0 -20 6q-3 3 -7.5 15.5t-6.5 18.5z" />
    <glyph glyph-name="thorn" unicode="&#xfe;" horiz-adv-x="1180" 
d="M393 1463v-618l266 100q31 10 52 12q9 0 19.5 -0.5t22.5 -0.5q142 -7 244 -116q103 -113 118 -269q4 -41 4 -80q0 -54 -7 -103q-13 -85 -66 -169q-29 -47 -89 -92q-23 -16 -49 -27q-81 -30 -161.5 -60t-160.5 -59q-17 -6 -33 -6h-5q-64 3 -154 31h-1v-532
q-64 22 -128.5 39.5t-130.5 20.5q-22 0 -22 20q0 26 50.5 44t50.5 82v1577q0 64 -50.5 82t-50.5 44q0 21 22 21q66 3 130.5 20t128.5 39zM393 155q41 -38 103.5 -68t114.5 -31h6q16 0 38 8q35 13 71 26t72 27q24 9 40 26q61 65 83 159q16 73 16 146q0 21 -1 41
q-11 143 -78 234q-97 132 -243 132q-13 0 -27 -1q-25 -3 -53 -13q-23 -9 -67 -28t-75 -31v-627z" />
    <glyph glyph-name="yuml" unicode="&#xff;" horiz-adv-x="1139" 
d="M167 800q-17 38 -49 60q-26 16 -53 27t-33 26q-2 5 -2 9q0 9 13 9h328q19 0 27 -18q2 -4 2 -8q0 -12 -17 -20q-22 -12 -31 -36q-3 -9 -3 -19q0 -12 6 -25l262 -639l230 551q9 21 9 41q0 35 -28 68l-33 39l90 71q6 6 11 6q7 0 15 -8l56 -57q17 -18 17 -44q0 -15 -6 -33
q-16 -48 -47 -112l-495 -1102q-30 -66 -54 -110q-24 -42 -61 -42h-3l-80 3q-19 3 -19 19l-6 114l51 1q67 2 95 59l169 351q-15 0 -20 6q-3 3 -7.5 15.5t-6.5 18.5zM621 1263q0 39 29 69.5t70 30.5q66 0 92 -63q9 -23 9 -43q0 -37 -29 -66q-36 -36 -72 -36t-71 35
q-28 29 -28 73zM268 1263q0 66 61 92q21 8 40 8q37 0 68 -30q31 -31 31 -68q0 -20 -8 -41q-26 -62 -93 -62q-99 0 -99 101z" />
    <glyph glyph-name="Amacr" unicode="&#x100;" horiz-adv-x="1593" 
d="M838 1427q50 -118 123.5 -289t152 -352t152 -352t124.5 -288q15 -37 59 -67q23 -15 45.5 -25t36.5 -19q10 -7 13 -14q2 -4 2 -8q0 -3 -2 -7q-3 -6 -12 -6h-338q-9 0 -18 6q-10 7 -12 15q-2 3 -2 6q0 9 12 19q9 9 22 19t19 27q3 8 3 18q0 17 -8 37l-148 342h-583
q-36 -86 -71.5 -171.5t-71.5 -170.5q-9 -20 -10 -36q-1 -7 -1 -14q0 -10 3 -19q3 -13 10 -21.5t10 -17.5q1 -8 1 -11t-2 -7q-7 -21 -22 -21h-258q-10 0 -14 6q0 1 -2 5q0 2 2 10q6 13 34 26q15 7 32.5 15.5t35.5 20.5q37 26 54 63l567 1281h62zM499 1704h599q11 0 11 -11
v-86q0 -10 -11 -10h-599q-11 0 -11 10v86q0 11 11 11zM1027 570l-261 609q-64 -153 -127.5 -305t-126.5 -304h515z" />
    <glyph glyph-name="amacr" unicode="&#x101;" horiz-adv-x="1155" 
d="M797 87l-275 -101q-32 -11 -53 -11h-41q-142 7 -245 116t-117 268q-4 42 -4 81q0 52 7 101q12 85 66 170q26 44 89 92q22 15 49 27q80 30 160.5 60t161.5 60q17 6 32 6h5q64 -3 155 -32q8 -3 10 -4q22 -9 54 -20q13 -4 24 -4q16 0 28 9q21 18 30 30q5 7 13 7q5 0 10 -2
q22 -8 22 -20v-774q0 -65 50 -82.5t50 -42.5q0 -21 -21 -21h-243q-17 0 -17 13v74zM797 769q-41 38 -108 70.5t-119 34.5h-4q-20 0 -40 -8q-36 -13 -71.5 -26.5t-71.5 -26.5q-25 -10 -40 -26q-62 -66 -83 -160q-17 -71 -17 -141q0 -22 2 -45q11 -144 78 -234
q67 -93 168 -121q38 -11 77 -11q12 0 25 1q22 2 52 13q23 8 72 26.5t80 30.5v623zM238 1344h600q10 0 10 -10v-86q0 -11 -10 -11h-600q-10 0 -10 11v86q0 10 10 10z" />
    <glyph glyph-name="Abreve" unicode="&#x102;" horiz-adv-x="1593" 
d="M838 1427q50 -118 123.5 -289t152 -352t152 -352t124.5 -288q15 -37 59 -67q23 -15 45.5 -25t36.5 -19q10 -7 13 -14q2 -4 2 -8q0 -3 -2 -7q-3 -6 -12 -6h-338q-9 0 -18 6q-10 7 -12 15q-2 3 -2 6q0 9 12 19q9 9 22 19t19 27q3 8 3 18q0 17 -8 37l-148 342h-583
q-36 -86 -71.5 -171.5t-71.5 -170.5q-9 -20 -10 -36q-1 -7 -1 -14q0 -10 3 -19q3 -13 10 -21.5t10 -17.5q1 -8 1 -11t-2 -7q-7 -21 -22 -21h-258q-10 0 -14 6q0 1 -2 5q0 2 2 10q6 13 34 26q15 7 32.5 15.5t35.5 20.5q37 26 54 63l567 1281h62zM809 1523q-159 0 -241 112
q-57 76 -63 185v3q0 24 27 24q20 0 26 -27q43 -164 250 -167h5q203 0 246 167q7 27 27 27q27 0 27 -25v-2q-7 -109 -63 -185q-83 -112 -241 -112zM1027 570l-261 609q-64 -153 -127.5 -305t-126.5 -304h515z" />
    <glyph glyph-name="abreve" unicode="&#x103;" horiz-adv-x="1155" 
d="M797 87l-275 -101q-32 -11 -53 -11h-41q-142 7 -245 116t-117 268q-4 42 -4 81q0 52 7 101q12 85 66 170q26 44 89 92q22 15 49 27q80 30 160.5 60t161.5 60q17 6 32 6h5q64 -3 155 -32q8 -3 10 -4q22 -9 54 -20q13 -4 24 -4q16 0 28 9q21 18 30 30q5 7 13 7q5 0 10 -2
q22 -8 22 -20v-774q0 -65 50 -82.5t50 -42.5q0 -21 -21 -21h-243q-17 0 -17 13v74zM797 769q-41 38 -108 70.5t-119 34.5h-4q-20 0 -40 -8q-36 -13 -71.5 -26.5t-71.5 -26.5q-25 -10 -40 -26q-62 -66 -83 -160q-17 -71 -17 -141q0 -22 2 -45q11 -144 78 -234
q67 -93 168 -121q38 -11 77 -11q12 0 25 1q22 2 52 13q23 8 72 26.5t80 30.5v623zM578 1119q-161 0 -241 112q-57 76 -63 185v3q0 24 26 24q19 0 27 -27q43 -165 249 -166h5q204 0 247 166q7 27 27 27q26 0 26 -22v-5q-5 -106 -62 -185q-83 -112 -241 -112z" />
    <glyph glyph-name="Aogon" unicode="&#x104;" horiz-adv-x="1593" 
d="M794 -17q19 -30 19 -56q0 -21 -11 -38q-26 -42 -57 -72q-52 -51 -52 -88q0 -28 30 -48q31 -21 65 -21q44 0 94 34l-15 -68q-81 -27 -138 -27h-15q-120 9 -124 91v9q0 75 57 123q40 34 75 67q23 21 23 55q0 18 -7 39h56zM838 1427q50 -118 123.5 -289t152 -352t152 -352
t124.5 -288q15 -37 59 -67q23 -15 45.5 -25t36.5 -19q10 -7 13 -14q2 -4 2 -8q0 -3 -2 -7q-3 -6 -12 -6h-338q-9 0 -18 6q-10 7 -12 15q-2 3 -2 6q0 9 12 19q9 9 22 19t19 27q3 8 3 18q0 17 -8 37l-148 342h-583q-36 -86 -71.5 -171.5t-71.5 -170.5q-9 -20 -10 -36
q-1 -7 -1 -14q0 -10 3 -19q3 -13 10 -21.5t10 -17.5q1 -8 1 -11t-2 -7q-7 -21 -22 -21h-258q-10 0 -14 6q0 1 -2 5q0 2 2 10q6 13 34 26q15 7 32.5 15.5t35.5 20.5q37 26 54 63l567 1281h62zM1027 570l-261 609q-64 -153 -127.5 -305t-126.5 -304h515z" />
    <glyph glyph-name="aogon" unicode="&#x105;" horiz-adv-x="1155" 
d="M626 -20q19 -30 19 -56q0 -21 -11 -38q-26 -42 -57 -72q-52 -51 -52 -88q0 -28 30 -48q31 -21 65 -21q44 0 94 34l-15 -68q-81 -27 -138 -27h-15q-120 9 -124 91v9q0 75 57 123q40 34 75 67q23 21 23 55q0 18 -7 39h56zM797 87l-275 -101q-32 -11 -53 -11h-41
q-142 7 -245 116t-117 268q-4 42 -4 81q0 52 7 101q12 85 66 170q26 44 89 92q22 15 49 27q80 30 160.5 60t161.5 60q17 6 32 6h5q64 -3 155 -32q8 -3 10 -4q22 -9 54 -20q13 -4 24 -4q16 0 28 9q21 18 30 30q5 7 13 7q5 0 10 -2q22 -8 22 -20v-774q0 -65 50 -82.5t50 -42.5
q0 -21 -21 -21h-243q-17 0 -17 13v74zM797 769q-41 38 -108 70.5t-119 34.5h-4q-20 0 -40 -8q-36 -13 -71.5 -26.5t-71.5 -26.5q-25 -10 -40 -26q-62 -66 -83 -160q-17 -71 -17 -141q0 -22 2 -45q11 -144 78 -234q67 -93 168 -121q38 -11 77 -11q12 0 25 1q22 2 52 13
q23 8 72 26.5t80 30.5v623z" />
    <glyph glyph-name="Cacute" unicode="&#x106;" horiz-adv-x="1400" 
d="M541 1617q-4 -2 -7 -2q-17 0 -17 18q0 8 7 15l375 258q19 13 41 13q74 0 74 -74q0 -53 -47 -70zM848 -37q-307 0 -544 196t-237 542q0 337 230.5 540.5t550.5 203.5q115 0 244.5 -25.5t246.5 -100.5l-24 -210q-4 -18 -20 -18h-3q-12 1 -26 28q-58 125 -174 184
q-108 53 -230 53h-21q-270 -12 -422 -216q-137 -183 -137 -405q0 -25 2 -50q14 -230 162 -419t402 -201q24 -1 46 -1q128 0 211 39q96 46 161 185q13 28 32 28q4 0 8 -1q16 -6 16 -23q0 -8 -4 -18l-87 -243q-96 -40 -195 -54t-188 -14z" />
    <glyph glyph-name="cacute" unicode="&#x107;" horiz-adv-x="925" 
d="M316 1150q-3 -1 -7 -1q-18 0 -18 17q0 8 7 15l375 258q18 13 41 13q74 0 74 -74q0 -52 -47 -69zM555 956h21q163 0 300 -88l-17 -169q-2 -13 -13 -13h-3q-10 1 -18 20q-40 87 -105 126q-64 38 -156 38h-24q-109 -6 -169 -63q-53 -52 -78 -125q-26 -73 -26 -163
q0 -30 3 -61q10 -149 81 -244q93 -125 208 -142q19 -3 39 -3q90 0 199 60q57 31 77 31q5 0 8 -2q2 -2 2 -8q0 -12 -12 -38q-15 -30 -34 -47q-57 -51 -140 -70.5t-158 -19.5q-186 1 -312.5 103.5t-143.5 293.5q-4 44 -4 86q0 54 7 105q13 88 68 176q58 93 161.5 152t238.5 65
z" />
    <glyph glyph-name="Ccircumflex" unicode="&#x108;" horiz-adv-x="1400" 
d="M848 -37q-307 0 -544 196t-237 542q0 337 230.5 540.5t550.5 203.5q115 0 244.5 -25.5t246.5 -100.5l-24 -210q-4 -18 -20 -18h-3q-12 1 -26 28q-58 125 -174 184q-108 53 -230 53h-21q-270 -12 -422 -216q-137 -183 -137 -405q0 -25 2 -50q14 -230 162 -419t402 -201
q24 -1 46 -1q128 0 211 39q96 46 161 185q13 28 32 28q4 0 8 -1q16 -6 16 -23q0 -8 -4 -18l-87 -243q-96 -40 -195 -54t-188 -14zM526 1556l229 347h116l230 -347h-57l-230 208l-231 -208h-57z" />
    <glyph glyph-name="ccircumflex" unicode="&#x109;" horiz-adv-x="925" 
d="M555 956h21q163 0 300 -88l-17 -169q-2 -13 -13 -13h-3q-10 1 -18 20q-40 87 -105 126q-64 38 -156 38h-24q-109 -6 -169 -63q-53 -52 -78 -125q-26 -73 -26 -163q0 -30 3 -61q10 -149 81 -244q93 -125 208 -142q19 -3 39 -3q90 0 199 60q57 31 77 31q5 0 8 -2q2 -2 2 -8
q0 -12 -12 -38q-15 -30 -34 -47q-57 -51 -140 -70.5t-158 -19.5q-186 1 -312.5 103.5t-143.5 293.5q-4 44 -4 86q0 54 7 105q13 88 68 176q58 93 161.5 152t238.5 65zM198 1089l229 347h116l230 -347h-58l-230 209l-230 -209h-57z" />
    <glyph glyph-name="Cdot" unicode="&#x10a;" horiz-adv-x="1400" 
d="M848 -37q-307 0 -544 196t-237 542q0 337 230.5 540.5t550.5 203.5q115 0 244.5 -25.5t246.5 -100.5l-24 -210q-4 -18 -20 -18h-3q-12 1 -26 28q-58 125 -174 184q-108 53 -230 53h-21q-270 -12 -422 -216q-137 -183 -137 -405q0 -25 2 -50q14 -230 162 -419t402 -201
q24 -1 46 -1q128 0 211 39q96 46 161 185q13 28 32 28q4 0 8 -1q16 -6 16 -23q0 -8 -4 -18l-87 -243q-96 -40 -195 -54t-188 -14zM823 1677q-25 0 -47 9q-27 12 -40 26q-18 17 -26 39q-10 23 -10 47q0 23 10 48q8 22 26 40q15 15 40 27q25 10 47 10q24 0 49 -10
q22 -11 39 -27q16 -16 26 -40q9 -23 9 -48q0 -26 -9 -47q-10 -24 -26 -39q-15 -15 -39 -26q-23 -9 -49 -9z" />
    <glyph glyph-name="cdot" unicode="&#x10b;" horiz-adv-x="925" 
d="M555 956h21q163 0 300 -88l-17 -169q-2 -13 -13 -13h-3q-10 1 -18 20q-40 87 -105 126q-64 38 -156 38h-24q-109 -6 -169 -63q-53 -52 -78 -125q-26 -73 -26 -163q0 -30 3 -61q10 -149 81 -244q93 -125 208 -142q19 -3 39 -3q90 0 199 60q57 31 77 31q5 0 8 -2q2 -2 2 -8
q0 -12 -12 -38q-15 -30 -34 -47q-57 -51 -140 -70.5t-158 -19.5q-186 1 -312.5 103.5t-143.5 293.5q-4 44 -4 86q0 54 7 105q13 88 68 176q58 93 161.5 152t238.5 65zM562 1158q-22 0 -47 10q-23 8 -40 25q-19 20 -26 39q-10 23 -10 47t10 49q8 21 26 39q13 14 40 27
q25 10 47 10q24 0 49 -10q24 -12 39 -27q16 -16 26 -39q9 -23 9 -49t-9 -47q-9 -22 -26 -39q-19 -17 -39 -25q-25 -10 -49 -10z" />
    <glyph glyph-name="Ccaron" unicode="&#x10c;" horiz-adv-x="1400" 
d="M848 -37q-307 0 -544 196t-237 542q0 337 230.5 540.5t550.5 203.5q115 0 244.5 -25.5t246.5 -100.5l-24 -210q-4 -18 -20 -18h-3q-12 1 -26 28q-58 125 -174 184q-108 53 -230 53h-21q-270 -12 -422 -216q-137 -183 -137 -405q0 -25 2 -50q14 -230 162 -419t402 -201
q24 -1 46 -1q128 0 211 39q96 46 161 185q13 28 32 28q4 0 8 -1q16 -6 16 -23q0 -8 -4 -18l-87 -243q-96 -40 -195 -54t-188 -14zM526 1903h57l231 -209l230 209h57l-230 -347h-116z" />
    <glyph glyph-name="ccaron" unicode="&#x10d;" horiz-adv-x="925" 
d="M555 956h21q163 0 300 -88l-17 -169q-2 -13 -13 -13h-3q-10 1 -18 20q-40 87 -105 126q-64 38 -156 38h-24q-109 -6 -169 -63q-53 -52 -78 -125q-26 -73 -26 -163q0 -30 3 -61q10 -149 81 -244q93 -125 208 -142q19 -3 39 -3q90 0 199 60q57 31 77 31q5 0 8 -2q2 -2 2 -8
q0 -12 -12 -38q-15 -30 -34 -47q-57 -51 -140 -70.5t-158 -19.5q-186 1 -312.5 103.5t-143.5 293.5q-4 44 -4 86q0 54 7 105q13 88 68 176q58 93 161.5 152t238.5 65zM182 1443h57l230 -209l230 209h58l-230 -347h-116z" />
    <glyph glyph-name="Dcaron" unicode="&#x10e;" horiz-adv-x="1585" 
d="M1500 791q2 -33 2 -64q0 -166 -61 -298q-74 -158 -206 -260q-224 -172 -546 -176h-80q-58 0 -109 1h-117q-83 0 -126 3h-24q-40 0 -104 -6q-21 0 -21 22q0 25 50 43t50 83v1123q0 64 -50 81.5t-50 43.5q0 21 21 21q42 -1 85 -1q42 0 86 1q86 3 168 5h59q153 0 308 -8
q183 -11 330 -74q138 -61 229 -187.5t106 -352.5zM526 1903h57l231 -209l230 209h57l-230 -347h-116zM399 1313l5 -1214q127 -24 238 -24q202 0 352 79q141 74 222 226q74 140 74 356v33q-4 162 -57.5 271.5t-141.5 175.5q-129 96 -313 113q-63 5 -127 5q-123 0 -252 -21z
" />
    <glyph glyph-name="dcaron" unicode="&#x10f;" horiz-adv-x="1400" 
d="M817 87l-275 -101q-32 -11 -53 -11h-41q-142 7 -245 116t-117 268q-4 42 -4 81q0 52 7 101q12 85 66 170q26 44 89 92q22 15 49 27q80 30 160.5 60t161.5 60q17 6 32 6h5q64 -3 155 -32q8 -3 10 -4v337q0 64 -50 82t-50 44q0 21 21 21q66 3 130.5 20t129.5 39v-1317
q0 -65 50 -82.5t50 -42.5q0 -21 -21 -21h-243q-17 0 -17 13v74zM817 770q-45 41 -110.5 71.5t-116.5 32.5h-4q-20 0 -40 -8q-36 -13 -71.5 -26.5t-71.5 -26.5q-25 -10 -40 -26q-62 -66 -83 -160q-17 -71 -17 -141q0 -22 2 -45q11 -144 78 -234q67 -93 168 -121
q38 -11 77 -11q12 0 25 1q22 2 52 13q23 8 72 26.5t80 30.5v624zM1125 1014q-29 -49 -53 -58q-3 -2 -5 -2q-9 0 -9 16t10 50l46 166q9 33 33.5 123t39.5 114q21 36 64 40h7q37 0 59 -38q8 -15 8 -31q0 -10 -3 -21q-9 -29 -21 -50z" />
    <glyph glyph-name="Dstrok" unicode="&#x110;" horiz-adv-x="1585" 
d="M1500 791q2 -33 2 -64q0 -166 -61 -298q-74 -158 -206 -260q-224 -172 -546 -176h-80q-58 0 -109 1h-117q-83 0 -126 3h-24q-40 0 -104 -6q-21 0 -21 22q0 25 50 43t50 83v546h-162q-21 0 -21 19v39q0 20 21 20h162v499q0 64 -50 81.5t-50 43.5q0 21 21 21q42 -1 85 -1
q42 0 86 1q86 3 168 5h59q153 0 308 -8q183 -11 330 -74q138 -61 229 -187.5t106 -352.5zM401 763h315q20 0 20 -20v-39q0 -19 -20 -19h-315l3 -586q127 -24 238 -24q202 0 352 79q141 74 222 226q74 140 74 356v33q-4 162 -57.5 271.5t-141.5 175.5q-129 96 -313 113
q-63 5 -127 5q-123 0 -252 -21z" />
    <glyph glyph-name="dstrok" unicode="&#x111;" horiz-adv-x="1158" 
d="M471 1134h304v289q62 -22 124.5 -38.5t127.5 -19.5q21 0 21 -21q0 -24 -49 -41.5t-49 -80.5v-88h141q12 0 12 -13v-62q0 -13 -12 -13h-141v-904q0 -63 49 -80.5t49 -41.5q0 -20 -21 -20h-236q-16 0 -16 12v73l-268 -99q-27 -9 -51 -11q-25 0 -40 1q-138 5 -238 112
q-101 108 -113 261q-4 42 -4 81q0 50 7 96q11 82 63 165q25 42 86 89q22 17 49 27l156 58l156 58q16 7 37 7q63 -3 150 -32l10 -3v151h-304q-13 0 -13 13v62q0 13 13 13zM775 749q-41 36 -106 67.5t-115 33.5q-21 0 -42 -8q-36 -13 -70.5 -26t-69.5 -25q-25 -10 -39 -26
q-60 -64 -81 -155q-16 -69 -16 -137q0 -22 2 -45q11 -139 76 -227q66 -90 163 -117q38 -11 75 -11q13 0 25 1q22 2 51 13q21 7 68.5 25t78.5 30v607z" />
    <glyph glyph-name="Emacr" unicode="&#x112;" horiz-adv-x="1251" 
d="M436 94h427q93 0 157.5 71.5t97.5 111.5q18 22 28 22q21 0 21 -21q0 -13 -2 -21l-73 -257h-919q-18 0 -18 21q0 25 50 42.5t50 82.5v1111q0 65 -50 82.5t-50 43.5q0 21 21 21h928v-257q0 -21 -21 -21q-10 0 -37 40q-50 69 -86.5 107t-96.5 38h-427v-543h229q64 0 84 51.5
t46 51.5q20 0 20 -21v-254q0 -21 -20 -21q-26 0 -49 51t-87 51h-223v-583zM361 1704h600q10 0 10 -11v-86q0 -10 -10 -10h-600q-10 0 -10 10v86q0 11 10 11z" />
    <glyph glyph-name="emacr" unicode="&#x113;" horiz-adv-x="1004" 
d="M71 551q28 185 147.5 296t314.5 113h4q197 0 301 -112q104 -114 104 -297q-1 -40 -3 -56.5t-41 -16.5h-637q3 -162 82 -268.5t199 -130.5q35 -8 71 -8q95 0 197 55q57 31 77 31q5 0 8 -2q3 -3 3 -9q0 -13 -13 -37q-12 -24 -19.5 -32t-13.5 -14q-109 -94 -296 -94
q-262 2 -393 168q-101 128 -101 304q0 53 9 110zM261 551h527q0 122 -55 224q-53 97 -194 97h-11q-141 -4 -202 -102t-65 -219zM188 1347h599q11 0 11 -10v-86q0 -11 -11 -11h-599q-11 0 -11 11v86q0 10 11 10z" />
    <glyph glyph-name="Ebreve" unicode="&#x114;" horiz-adv-x="1251" 
d="M436 94h427q93 0 157.5 71.5t97.5 111.5q18 22 28 22q21 0 21 -21q0 -13 -2 -21l-73 -257h-919q-18 0 -18 21q0 25 50 42.5t50 82.5v1111q0 65 -50 82.5t-50 43.5q0 21 21 21h928v-257q0 -21 -21 -21q-10 0 -37 40q-50 69 -86.5 107t-96.5 38h-427v-543h229q64 0 84 51.5
t46 51.5q20 0 20 -21v-254q0 -21 -20 -21q-26 0 -49 51t-87 51h-223v-583zM661 1523q-159 0 -241 112q-57 76 -63 185v3q0 24 27 24q19 0 27 -27q42 -164 249 -167h5q203 0 246 167q7 27 27 27q27 0 27 -25v-2q-7 -109 -63 -185q-83 -112 -241 -112z" />
    <glyph glyph-name="ebreve" unicode="&#x115;" horiz-adv-x="1004" 
d="M71 551q28 185 147.5 296t314.5 113h4q197 0 301 -112q104 -114 104 -297q-1 -40 -3 -56.5t-41 -16.5h-637q3 -162 82 -268.5t199 -130.5q35 -8 71 -8q95 0 197 55q57 31 77 31q5 0 8 -2q3 -3 3 -9q0 -13 -13 -37q-12 -24 -19.5 -32t-13.5 -14q-109 -94 -296 -94
q-262 2 -393 168q-101 128 -101 304q0 53 9 110zM261 551h527q0 122 -55 224q-53 97 -194 97h-11q-141 -4 -202 -102t-65 -219zM488 1115q-160 0 -242 112q-58 79 -62 185v3q0 24 26 24q21 0 27 -27q43 -165 249 -166h5q204 0 247 166q7 27 27 27q27 0 27 -27
q-7 -107 -63 -185q-83 -112 -241 -112z" />
    <glyph glyph-name="Edot" unicode="&#x116;" horiz-adv-x="1251" 
d="M436 94h427q93 0 157.5 71.5t97.5 111.5q18 22 28 22q21 0 21 -21q0 -13 -2 -21l-73 -257h-919q-18 0 -18 21q0 25 50 42.5t50 82.5v1111q0 65 -50 82.5t-50 43.5q0 21 21 21h928v-257q0 -21 -21 -21q-10 0 -37 40q-50 69 -86.5 107t-96.5 38h-427v-543h229q64 0 84 51.5
t46 51.5q20 0 20 -21v-254q0 -21 -20 -21q-26 0 -49 51t-87 51h-223v-583zM661 1562q-26 0 -48 9t-39 26q-16 14 -27 39q-9 21 -9 47t9 49q11 24 27 39q16 16 39 27q21 10 48 10t49 -10q22 -11 39 -27q17 -18 26 -39q9 -23 9 -49t-9 -47q-9 -22 -26 -39q-18 -17 -39 -26
q-23 -9 -49 -9z" />
    <glyph glyph-name="edot" unicode="&#x117;" horiz-adv-x="1004" 
d="M71 551q28 185 147.5 296t314.5 113h4q197 0 301 -112q104 -114 104 -297q-1 -40 -3 -56.5t-41 -16.5h-637q3 -162 82 -268.5t199 -130.5q35 -8 71 -8q95 0 197 55q57 31 77 31q5 0 8 -2q3 -3 3 -9q0 -13 -13 -37q-12 -24 -19.5 -32t-13.5 -14q-109 -94 -296 -94
q-262 2 -393 168q-101 128 -101 304q0 53 9 110zM261 551h527q0 122 -55 224q-53 97 -194 97h-11q-141 -4 -202 -102t-65 -219zM488 1392q109 0 109 -111t-109 -111q-110 0 -110 111t110 111z" />
    <glyph glyph-name="Eogon" unicode="&#x118;" horiz-adv-x="1251" 
d="M664 -22q19 -30 19 -56q0 -21 -11 -38q-26 -42 -57 -72q-52 -51 -52 -88q0 -28 30 -48q31 -21 65 -21q44 0 94 34l-15 -68q-81 -27 -138 -27h-15q-120 9 -124 91v9q0 75 57 123q40 34 75 67q23 21 23 55q0 18 -7 39h56zM436 94h427q93 0 157.5 71.5t97.5 111.5
q18 22 28 22q21 0 21 -21q0 -13 -2 -21l-73 -257h-919q-18 0 -18 21q0 25 50 42.5t50 82.5v1111q0 65 -50 82.5t-50 43.5q0 21 21 21h928v-257q0 -21 -21 -21q-10 0 -37 40q-50 69 -86.5 107t-96.5 38h-427v-543h229q64 0 84 51.5t46 51.5q20 0 20 -21v-254q0 -21 -20 -21
q-26 0 -49 51t-87 51h-223v-583z" />
    <glyph glyph-name="eogon" unicode="&#x119;" horiz-adv-x="1004" 
d="M71 551q28 185 147.5 296t314.5 113h4q197 0 301 -112q104 -114 104 -297q-1 -40 -3 -56.5t-41 -16.5h-637q3 -162 82 -268.5t199 -130.5q35 -8 71 -8q95 0 197 55q57 31 77 31q5 0 8 -2q3 -3 3 -9q0 -13 -13 -37q-12 -24 -19.5 -32t-13.5 -14q-109 -94 -296 -94
q-262 2 -393 168q-101 128 -101 304q0 53 9 110zM261 551h527q0 122 -55 224q-53 97 -194 97h-11q-141 -4 -202 -102t-65 -219zM500 -35q19 -30 19 -56q0 -21 -11 -38q-26 -42 -57 -72q-52 -51 -52 -88q0 -28 30 -48q31 -21 65 -21q44 0 94 34l-15 -68q-81 -27 -138 -27h-15
q-120 9 -124 91v9q0 75 57 123q40 34 75 67q23 21 23 55q0 18 -7 39h56z" />
    <glyph glyph-name="Ecaron" unicode="&#x11a;" horiz-adv-x="1251" 
d="M436 94h427q93 0 157.5 71.5t97.5 111.5q18 22 28 22q21 0 21 -21q0 -13 -2 -21l-73 -257h-919q-18 0 -18 21q0 25 50 42.5t50 82.5v1111q0 65 -50 82.5t-50 43.5q0 21 21 21h928v-257q0 -21 -21 -21q-10 0 -37 40q-50 69 -86.5 107t-96.5 38h-427v-543h229q64 0 84 51.5
t46 51.5q20 0 20 -21v-254q0 -21 -20 -21q-26 0 -49 51t-87 51h-223v-583zM373 1903h58l230 -209l230 209h57l-229 -347h-116z" />
    <glyph glyph-name="ecaron" unicode="&#x11b;" horiz-adv-x="1004" 
d="M71 551q28 185 147.5 296t314.5 113h4q197 0 301 -112q104 -114 104 -297q-1 -40 -3 -56.5t-41 -16.5h-637q3 -162 82 -268.5t199 -130.5q35 -8 71 -8q95 0 197 55q57 31 77 31q5 0 8 -2q3 -3 3 -9q0 -13 -13 -37q-12 -24 -19.5 -32t-13.5 -14q-109 -94 -296 -94
q-262 2 -393 168q-101 128 -101 304q0 53 9 110zM261 551h527q0 122 -55 224q-53 97 -194 97h-11q-141 -4 -202 -102t-65 -219zM200 1443h57l231 -209l230 209h57l-229 -347h-116z" />
    <glyph glyph-name="Gcircumflex" unicode="&#x11c;" horiz-adv-x="1563" 
d="M848 -37q-307 0 -544 196t-237 542q0 337 230.5 540.5t550.5 203.5q115 0 244.5 -25.5t246.5 -100.5l-24 -210q-4 -18 -20 -18h-3q-12 1 -26 28q-65 139 -161.5 185t-256.5 46q-223 0 -397 -155t-174 -494q0 -218 162.5 -421t408.5 -215q24 -1 46 -1q114 0 192 30
q93 36 156 146v188q-2 31 -32 48q-27 14 -79 35.5t-52 42.5t21 21h401q21 0 21 -21q0 -26 -50 -44t-50 -82v-389q-154 -7 -297 -43q-72 -19 -142 -26t-135 -7zM507 1556l230 347h116l229 -347h-57l-230 208l-230 -208h-58z" />
    <glyph glyph-name="gcircumflex" unicode="&#x11d;" horiz-adv-x="1103" 
d="M797 199v570q-41 38 -108 70.5t-119 34.5h-4q-20 0 -40 -8q-36 -13 -71.5 -26.5t-71.5 -26.5q-25 -10 -40 -26q-62 -66 -83 -160q-17 -71 -17 -141q0 -22 2 -45q11 -144 78 -234q67 -93 168 -121q38 -11 77 -11q12 0 25 1q22 2 52 13q23 8 71.5 26t79.5 30v54h1zM796 87
l-274 -101q-32 -11 -53 -11h-41q-142 7 -245 116t-117 268q-4 42 -4 81q0 52 7 101q12 85 66 170q26 44 89 92q22 15 49 27q80 30 160.5 60t161.5 60q17 6 32 6h5q64 -3 155 -32q8 -3 10 -4q22 -9 54 -20q13 -4 24 -4q16 0 28 9q21 18 30 30q5 7 13 7q5 0 10 -2
q22 -8 22 -20v-1100q0 -165 -47 -206t-134 -73l-275 -103q-32 -11 -53 -11q-26 0 -41 1q-141 5 -245 116q-54 59 -86 141q87 34 178 67q18 -51 48 -92q68 -92 168 -121q38 -10 75 -10q14 0 27 1q22 2 52 12q12 5 31 12t41 15q48 24 64 97t16 97zM232 1096l229 347h116
l230 -347h-58l-230 209l-230 -209h-57z" />
    <glyph glyph-name="Gbreve" unicode="&#x11e;" horiz-adv-x="1563" 
d="M848 -37q-307 0 -544 196t-237 542q0 337 230.5 540.5t550.5 203.5q115 0 244.5 -25.5t246.5 -100.5l-24 -210q-4 -18 -20 -18h-3q-12 1 -26 28q-65 139 -161.5 185t-256.5 46q-223 0 -397 -155t-174 -494q0 -218 162.5 -421t408.5 -215q24 -1 46 -1q114 0 192 30
q93 36 156 146v188q-2 31 -32 48q-27 14 -79 35.5t-52 42.5t21 21h401q21 0 21 -21q0 -26 -50 -44t-50 -82v-389q-154 -7 -297 -43q-72 -19 -142 -26t-135 -7zM795 1523q-159 0 -241 112q-57 76 -63 185v3q0 24 27 24q20 0 26 -27q43 -164 250 -167h5q203 0 246 167
q7 27 27 27q27 0 27 -25v-2q-7 -107 -63 -185q-83 -112 -241 -112z" />
    <glyph glyph-name="gbreve" unicode="&#x11f;" horiz-adv-x="1103" 
d="M797 199v570q-41 38 -108 70.5t-119 34.5h-4q-20 0 -40 -8q-36 -13 -71.5 -26.5t-71.5 -26.5q-25 -10 -40 -26q-62 -66 -83 -160q-17 -71 -17 -141q0 -22 2 -45q11 -144 78 -234q67 -93 168 -121q38 -11 77 -11q12 0 25 1q22 2 52 13q23 8 71.5 26t79.5 30v54h1zM796 87
l-274 -101q-32 -11 -53 -11h-41q-142 7 -245 116t-117 268q-4 42 -4 81q0 52 7 101q12 85 66 170q26 44 89 92q22 15 49 27q80 30 160.5 60t161.5 60q17 6 32 6h5q64 -3 155 -32q8 -3 10 -4q22 -9 54 -20q13 -4 24 -4q16 0 28 9q21 18 30 30q5 7 13 7q5 0 10 -2
q22 -8 22 -20v-1100q0 -165 -47 -206t-134 -73l-275 -103q-32 -11 -53 -11q-26 0 -41 1q-141 5 -245 116q-54 59 -86 141q87 34 178 67q18 -51 48 -92q68 -92 168 -121q38 -10 75 -10q14 0 27 1q22 2 52 12q12 5 31 12t41 15q48 24 64 97t16 97zM519 1115q-159 0 -241 112
q-57 76 -63 185v3q0 24 27 24q19 0 27 -27q43 -165 249 -166h5q202 0 247 166q5 27 26 27q27 0 27 -25v-2q-7 -109 -63 -185q-83 -112 -241 -112z" />
    <glyph glyph-name="Gdot" unicode="&#x120;" horiz-adv-x="1563" 
d="M848 -37q-307 0 -544 196t-237 542q0 337 230.5 540.5t550.5 203.5q115 0 244.5 -25.5t246.5 -100.5l-24 -210q-4 -18 -20 -18h-3q-12 1 -26 28q-65 139 -161.5 185t-256.5 46q-223 0 -397 -155t-174 -494q0 -218 162.5 -421t408.5 -215q24 -1 46 -1q114 0 192 30
q93 36 156 146v188q-2 31 -32 48q-27 14 -79 35.5t-52 42.5t21 21h401q21 0 21 -21q0 -26 -50 -44t-50 -82v-389q-154 -7 -297 -43q-72 -19 -142 -26t-135 -7zM787 1677q-25 0 -47 9q-27 12 -40 26q-18 17 -26 39q-10 23 -10 47q0 23 10 48q8 22 26 40q15 15 40 27
q25 10 47 10q24 0 49 -10q22 -11 39 -27q16 -16 26 -40q9 -23 9 -48q0 -26 -9 -47q-10 -24 -26 -39q-15 -15 -39 -26q-23 -9 -49 -9z" />
    <glyph glyph-name="gdot" unicode="&#x121;" horiz-adv-x="1103" 
d="M797 199v570q-41 38 -108 70.5t-119 34.5h-4q-20 0 -40 -8q-36 -13 -71.5 -26.5t-71.5 -26.5q-25 -10 -40 -26q-62 -66 -83 -160q-17 -71 -17 -141q0 -22 2 -45q11 -144 78 -234q67 -93 168 -121q38 -11 77 -11q12 0 25 1q22 2 52 13q23 8 71.5 26t79.5 30v54h1zM796 87
l-274 -101q-32 -11 -53 -11h-41q-142 7 -245 116t-117 268q-4 42 -4 81q0 52 7 101q12 85 66 170q26 44 89 92q22 15 49 27q80 30 160.5 60t161.5 60q17 6 32 6h5q64 -3 155 -32q8 -3 10 -4q22 -9 54 -20q13 -4 24 -4q16 0 28 9q21 18 30 30q5 7 13 7q5 0 10 -2
q22 -8 22 -20v-1100q0 -165 -47 -206t-134 -73l-275 -103q-32 -11 -53 -11q-26 0 -41 1q-141 5 -245 116q-54 59 -86 141q87 34 178 67q18 -51 48 -92q68 -92 168 -121q38 -10 75 -10q14 0 27 1q22 2 52 12q12 5 31 12t41 15q48 24 64 97t16 97zM519 1158q-22 0 -47 10
q-22 7 -40 25q-19 20 -26 39q-10 23 -10 47t10 49q8 21 26 39q14 15 40 27q25 10 47 10q24 0 49 -10q24 -12 39 -27q16 -16 26 -39q9 -23 9 -49t-9 -47q-9 -22 -26 -39q-19 -17 -39 -25q-25 -10 -49 -10z" />
    <glyph glyph-name="Gcommaaccent" unicode="&#x122;" horiz-adv-x="1563" 
d="M711 -51h57q-7 -22 -7 -41q0 -32 22 -53q35 -33 75 -67q57 -48 57 -123v-9q-4 -82 -123 -91h-15q-58 0 -138 27l-15 68q49 -34 93 -34q34 0 65 21q30 20 30 49q0 37 -51 87q-32 30 -58 72q-11 17 -11 38q0 26 19 56zM848 -37q-307 0 -544 196t-237 542q0 337 230.5 540.5
t550.5 203.5q115 0 244.5 -25.5t246.5 -100.5l-24 -210q-4 -18 -20 -18h-3q-12 1 -26 28q-65 139 -161.5 185t-256.5 46q-223 0 -397 -155t-174 -494q0 -218 162.5 -421t408.5 -215q24 -1 46 -1q114 0 192 30q93 36 156 146v188q-2 31 -32 48q-27 14 -79 35.5t-52 42.5
t21 21h401q21 0 21 -21q0 -26 -50 -44t-50 -82v-389q-154 -7 -297 -43q-72 -19 -142 -26t-135 -7z" />
    <glyph glyph-name="gcommaaccent" unicode="&#x123;" horiz-adv-x="1103" 
d="M797 199v570q-41 38 -108 70.5t-119 34.5h-4q-20 0 -40 -8q-36 -13 -71.5 -26.5t-71.5 -26.5q-25 -10 -40 -26q-62 -66 -83 -160q-17 -71 -17 -141q0 -22 2 -45q11 -144 78 -234q67 -93 168 -121q38 -11 77 -11q12 0 25 1q22 2 52 13q23 8 71.5 26t79.5 30v54h1zM796 87
l-274 -101q-32 -11 -53 -11h-41q-142 7 -245 116t-117 268q-4 42 -4 81q0 52 7 101q12 85 66 170q26 44 89 92q22 15 49 27q80 30 160.5 60t161.5 60q17 6 32 6h5q64 -3 155 -32q8 -3 10 -4q22 -9 54 -20q13 -4 24 -4q16 0 28 9q21 18 30 30q5 7 13 7q5 0 10 -2
q22 -8 22 -20v-1100q0 -165 -47 -206t-134 -73l-275 -103q-32 -11 -53 -11q-26 0 -41 1q-141 5 -245 116q-54 59 -86 141q87 34 178 67q18 -51 48 -92q68 -92 168 -121q38 -10 75 -10q14 0 27 1q22 2 52 12q12 5 31 12t41 15q48 24 64 97t16 97zM493 1163q-89 21 -89 83
q0 13 4 28l20 79q5 20 21 45t28 43q66 99 194 146q29 11 49 11q26 0 36 -18q3 -6 3 -12q0 -11 -13 -20q-20 -14 -46 -20q-106 -32 -145 -118h1q88 -24 88 -86q0 -12 -3 -25l-21 -79q-9 -36 -46 -52q-22 -10 -46 -10q-17 0 -35 5z" />
    <glyph glyph-name="Hcircumflex" unicode="&#x124;" horiz-adv-x="1638" 
d="M435 1257v-468h845v468q0 64 -50 82t-50 44q0 21 21 21h339q21 0 21 -21q0 -26 -50.5 -44t-50.5 -82v-1111q0 -65 50.5 -82.5t50.5 -42.5q0 -21 -21 -21h-339q-21 0 -21 21q0 25 50 42.5t50 82.5v551h-845v-551q0 -65 50 -82.5t50 -42.5q0 -21 -20 -21h-339q-21 0 -21 21
q0 25 50 42.5t50 82.5v1111q0 64 -50 82t-50 44q0 21 21 21h339q20 0 20 -21q0 -26 -50 -44t-50 -82zM570 1556l230 347h116l229 -347h-57l-230 208l-230 -208h-58z" />
    <glyph glyph-name="hcircumflex" unicode="&#x125;" horiz-adv-x="1207" 
d="M362 146q0 -65 50 -82.5t50 -42.5q0 -21 -20 -21h-339q-21 0 -21 21q0 25 50 42.5t50 82.5v1111q0 64 -50 82t-50 44q0 21 21 21q66 3 130.5 20t128.5 39v-610q55 21 97 37t80 29q92 32 191 42q12 1 25 1q84 0 160 -57q121 -93 121 -399v-360q0 -65 50 -82.5t50 -42.5
q0 -21 -20 -21h-243q-17 0 -17 13v493q0 219 -91 308q-58 57 -142 57q-48 0 -105 -19q-22 -8 -55.5 -20.5t-57.5 -21.5t-43 -16v-648zM400 1096l230 347h116l229 -347h-57l-230 209l-230 -209h-58z" />
    <glyph glyph-name="Hbar" unicode="&#x126;" horiz-adv-x="1638" 
d="M435 1257v-90h845v90q0 64 -50 82t-50 44q0 21 21 21h339q21 0 21 -21q0 -26 -50.5 -44t-50.5 -82v-90h65q27 0 27 -14v-64q0 -14 -27 -14h-65v-929q0 -65 50.5 -82.5t50.5 -42.5q0 -21 -21 -21h-339q-21 0 -21 21q0 25 50 42.5t50 82.5v551h-845v-551q0 -65 50 -82.5
t50 -42.5q0 -21 -20 -21h-339q-21 0 -21 21q0 25 50 42.5t50 82.5v929h-65q-26 0 -26 14v64q0 14 26 14h65v90q0 64 -50 82t-50 44q0 21 21 21h339q20 0 20 -21q0 -26 -50 -44t-50 -82zM1280 1075h-845v-286h845v286z" />
    <glyph glyph-name="hstrok" unicode="&#x127;" horiz-adv-x="1192" 
d="M351 1463v-296h300q12 0 12 -14v-64q0 -14 -12 -14h-300v-216l207 79q60 23 119 23q16 0 32 -2q75 -8 132 -39q104 -59 142.5 -152.5t38.5 -339.5v-283q1 -65 53.5 -83t52.5 -43q0 -19 -21 -19h-242q-12 0 -12 19v501q0 198 -100 295q-63 61 -148 61q-50 0 -108 -21
l-146 -54v-655q0 -65 50 -82.5t50 -42.5q0 -21 -21 -21h-339q-20 0 -20 21q0 25 50 42.5t50 82.5v929h-158q-13 0 -13 14v64q0 14 13 14h158v90q0 64 -50 82t-50 44q0 21 21 21q66 3 130.5 20t128.5 39z" />
    <glyph glyph-name="Itilde" unicode="&#x128;" horiz-adv-x="690" 
d="M435 1257v-1110q0 -66 50 -83.5t50 -42.5q0 -21 -21 -21h-339q-20 0 -20 21q0 25 50 42.5t50 82.5v1111q0 65 -50 82.5t-50 43.5q0 21 21 21h338q21 0 21 -21q0 -26 -50 -43.5t-50 -82.5zM659 1810q-43 -114 -81 -165q-42 -54 -87 -54q-79 0 -173 84q-53 46 -99 46
q-36 0 -69 -29q-9 -8 -21 -18.5t-25 -28.5q-25 -32 -44 -73q-5 -10 -12 -10q-5 0 -12 6q-10 7 -10 19q0 10 6 23q33 72 67 148t106 76q88 0 178 -87q48 -47 95 -47q41 0 82 35q38 31 68 107q4 12 14 12q2 0 4 -1q13 -3 16 -21v-5q0 -9 -3 -17z" />
    <glyph glyph-name="itilde" unicode="&#x129;" horiz-adv-x="593" 
d="M392 146q0 -65 50 -82.5t50 -42.5q0 -21 -20 -21h-339q-21 0 -21 21q0 25 50 42.5t50 82.5v640q0 63 -50 81t-50 44q0 21 21 21q66 3 130.5 20.5t128.5 39.5v-846zM617 1356q-39 -108 -81 -165q-42 -54 -87 -54q-79 0 -173 84q-53 46 -99 46q-36 0 -69 -29
q-9 -8 -21 -18.5t-25 -28.5q-26 -33 -43 -73q-5 -10 -12 -10q-6 0 -12 6q-9 7 -9 19q0 10 6 23q32 72 65.5 148t105.5 76q88 0 178 -87q48 -47 95 -47q41 0 82 35q37 31 68 106q4 12 14 12h4q13 -3 16 -21v-5q0 -9 -3 -17z" />
    <glyph glyph-name="Imacr" unicode="&#x12a;" horiz-adv-x="690" 
d="M435 1257v-1110q0 -66 50 -83.5t50 -42.5q0 -21 -21 -21h-339q-20 0 -20 21q0 25 50 42.5t50 82.5v1111q0 65 -50 82.5t-50 43.5q0 21 21 21h338q21 0 21 -21q0 -26 -50 -43.5t-50 -82.5zM45 1704h600q10 0 10 -11v-86q0 -10 -10 -10h-600q-10 0 -10 10v86q0 11 10 11z
" />
    <glyph glyph-name="imacr" unicode="&#x12b;" horiz-adv-x="593" 
d="M392 146q0 -65 50 -82.5t50 -42.5q0 -21 -20 -21h-339q-21 0 -21 21q0 25 50 42.5t50 82.5v640q0 63 -50 81t-50 44q0 21 21 21q66 3 130.5 20.5t128.5 39.5v-846zM3 1347h600q10 0 10 -10v-86q0 -11 -10 -11h-600q-9 0 -9 11v86q0 10 9 10z" />
    <glyph glyph-name="Ibreve" unicode="&#x12c;" horiz-adv-x="690" 
d="M435 1257v-1110q0 -66 50 -83.5t50 -42.5q0 -21 -21 -21h-339q-20 0 -20 21q0 25 50 42.5t50 82.5v1111q0 65 -50 82.5t-50 43.5q0 21 21 21h338q21 0 21 -21q0 -26 -50 -43.5t-50 -82.5zM345 1523q-159 0 -241 112q-57 76 -63 185v3q0 24 27 24q19 0 27 -27
q42 -164 249 -167h5q203 0 246 167q7 27 27 27q27 0 27 -25v-2q-7 -109 -63 -185q-83 -112 -241 -112z" />
    <glyph glyph-name="ibreve" unicode="&#x12d;" horiz-adv-x="593" 
d="M392 146q0 -65 50 -82.5t50 -42.5q0 -21 -20 -21h-339q-21 0 -21 21q0 25 50 42.5t50 82.5v640q0 63 -50 81t-50 44q0 21 21 21q66 3 130.5 20.5t128.5 39.5v-846zM303 1115q-159 0 -241 112q-58 77 -62 185v2q0 25 26 25q19 0 27 -27q43 -165 249 -166h5q203 0 246 166
q7 27 27 27q27 0 27 -25v-2q-7 -109 -63 -185q-83 -112 -241 -112z" />
    <glyph glyph-name="Iogon" unicode="&#x12e;" horiz-adv-x="690" 
d="M370 -21q19 -30 19 -56q0 -21 -11 -38q-26 -42 -57 -72q-52 -51 -52 -88q0 -28 30 -48q31 -21 65 -21q44 0 94 34l-15 -68q-81 -27 -138 -27h-15q-120 9 -124 91v9q0 75 57 123q40 34 75 67q23 21 23 55q0 18 -7 39h56zM435 1257v-1110q0 -66 50 -83.5t50 -42.5
q0 -21 -21 -21h-339q-20 0 -20 21q0 25 50 42.5t50 82.5v1111q0 65 -50 82.5t-50 43.5q0 21 21 21h338q21 0 21 -21q0 -26 -50 -43.5t-50 -82.5z" />
    <glyph glyph-name="iogon" unicode="&#x12f;" horiz-adv-x="593" 
d="M324 -12q19 -30 19 -56q0 -21 -11 -38q-26 -42 -57 -72q-52 -51 -52 -88q0 -28 30 -48q31 -21 65 -21q44 0 94 34l-15 -68q-81 -27 -138 -27h-15q-120 9 -124 91v9q0 75 57 123q40 34 75 67q23 21 23 55q0 18 -7 39h56zM392 146q0 -65 50 -82.5t50 -42.5q0 -21 -20 -21
h-339q-21 0 -21 21q0 25 50 42.5t50 82.5v640q0 63 -50 81t-50 44q0 21 21 21q66 3 130.5 20.5t128.5 39.5v-846z" />
    <glyph glyph-name="Idot" unicode="&#x130;" horiz-adv-x="690" 
d="M435 1257v-1110q0 -66 50 -83.5t50 -42.5q0 -21 -21 -21h-339q-20 0 -20 21q0 25 50 42.5t50 82.5v1111q0 65 -50 82.5t-50 43.5q0 21 21 21h338q21 0 21 -21q0 -26 -50 -43.5t-50 -82.5zM345 1677q-27 0 -48 10q-21 8 -39 25q-16 14 -27 39q-9 21 -9 47t9 49
q11 24 27 39q16 16 39 27q21 10 48 10t49 -10q22 -11 39 -27q17 -18 26 -39q9 -23 9 -49t-9 -47q-9 -22 -26 -39q-19 -17 -39 -25q-22 -10 -49 -10z" />
    <glyph glyph-name="inodot" unicode="&#x131;" horiz-adv-x="593" 
d="M392 146q0 -65 50 -82.5t50 -42.5q0 -21 -20 -21h-339q-21 0 -21 21q0 25 50 42.5t50 82.5v640q0 63 -50 81t-50 44q0 21 21 21q66 3 130.5 20.5t128.5 39.5v-846z" />
    <glyph glyph-name="IJlig" unicode="&#x132;" horiz-adv-x="1372" 
d="M435 1257v-1110q0 -66 50 -83.5t50 -42.5q0 -21 -21 -21h-339q-20 0 -20 21q0 25 50 42.5t50 82.5v1111q0 65 -50 82.5t-50 43.5q0 21 21 21h338q21 0 21 -21q0 -26 -50 -43.5t-50 -82.5zM1109 1257v-1405q-6 -89 -37 -147q-36 -61 -114 -88q-54 -17 -128 -19
q-25 -1 -52 -1q-54 0 -118 3q-21 0 -21 21q0 30 45.5 34t99.5 20.5t99.5 64.5t45.5 165v1352q0 64 -50 82t-50 44q0 21 21 21h339q20 0 20 -21q0 -26 -50 -44t-50 -82z" />
    <glyph glyph-name="ijlig" unicode="&#x133;" horiz-adv-x="1037" 
d="M392 146q0 -65 50 -82.5t50 -42.5q0 -21 -20 -21h-339q-21 0 -21 21q0 25 50 42.5t50 82.5v640q0 63 -50 81t-50 44q0 21 21 21q66 3 130.5 20.5t128.5 39.5v-846zM882 1400q109 0 109 -110q0 -111 -109 -111q-110 0 -110 111q0 110 110 110zM292 1400q109 0 109 -110
q0 -111 -109 -111t-109 111q0 110 109 110zM987 11q0 -191 -25.5 -284.5t-88.5 -159.5q-91 -92 -197 -119v49q38 24 71 60t52 96q12 39 12.5 111.5t0.5 241.5v758q0 62 -49 79.5t-49 42.5q0 20 21 20q64 3 126.5 20t125.5 38v-953z" />
    <glyph glyph-name="Jcircumflex" unicode="&#x134;" horiz-adv-x="682" 
d="M58 1556l229 347h116l229 -347h-57l-230 208l-230 -208h-57zM430 180q0 -197 -26.5 -293t-91.5 -164q-90 -92 -202 -122v50q39 24 73 61.5t53 98.5q12 41 12.5 115t0.5 248v1084q0 64 -50 82t-50 44q0 20 21 20h339q21 0 21 -20q0 -26 -50 -44t-50 -82v-1078z" />
    <glyph glyph-name="jcircumflex" unicode="&#x135;" horiz-adv-x="479" 
d="M-62 1096l229 347h116l229 -347h-57l-230 209l-229 -209h-58zM377 11q0 -191 -25.5 -284.5t-88.5 -159.5q-91 -92 -197 -119v49q38 24 71 60t52 96q12 39 12.5 111.5t0.5 241.5v758q0 62 -49 79.5t-49 42.5q0 20 21 20q64 3 126.5 20t125.5 38v-953z" />
    <glyph glyph-name="Kcommaaccent" unicode="&#x136;" horiz-adv-x="1487" 
d="M660 -16h57q-7 -22 -7 -41q0 -32 22 -53q35 -33 75 -67q57 -48 57 -123v-9q-4 -82 -123 -91h-15q-58 0 -138 27l-15 68q49 -34 93 -34q34 0 65 21q30 20 30 49q0 37 -51 87q-32 30 -58 72q-11 17 -11 38q0 26 19 56zM435 746l523 495q78 73 132 126q36 36 72 36
q18 0 36 -9l106 -52q17 -10 17 -24q0 -6 -3 -13l-52 -146l-69 29q-39 16 -72 16q-52 0 -91 -39l-403 -393l752 -694q21 -21 44.5 -31.5t23.5 -25.5q0 -21 -20 -21h-339q-21 0 -21 21q0 8 11 18q18 15 20 27v1q0 13 -36 44l-631 582v-547q0 -65 50 -82.5t50 -42.5
q0 -21 -20 -21h-339q-21 0 -21 21q0 25 50 42.5t50 82.5v1111q0 64 -50 82t-50 44q0 21 21 21h339q20 0 20 -21q0 -26 -50 -44t-50 -82v-511z" />
    <glyph glyph-name="kcommaaccent" unicode="&#x137;" horiz-adv-x="1163" 
d="M564 -8h57q-7 -22 -7 -41q0 -32 22 -53q35 -33 75 -67q57 -48 57 -123v-9q-4 -82 -123 -91h-15q-58 0 -138 27l-15 68q49 -34 93 -34q34 0 65 21q30 20 30 49q0 37 -51 87q-32 30 -58 72q-11 17 -11 38q0 26 19 56zM382 443v-297q0 -65 50 -82.5t50 -42.5q0 -21 -20 -21
h-339q-21 0 -21 21q0 25 50 42.5t50 82.5v1111q0 64 -50 82t-50 44q0 21 21 21q66 3 130.5 20t128.5 39v-912l354 283q61 50 108 79q27 16 51 16q18 0 35 -9l74 -46q12 -8 12 -18q0 -5 -3 -10l-47 -105l-50 26q-30 15 -58 15q-34 0 -64 -22q-145 -109 -256 -195l348 -340
q108 -105 140 -119q23 -11 47 -11q10 0 21 2q8 2 15 2q20 0 27 -15q2 -6 2 -10q0 -10 -10 -14l-64 -31q-52 -23 -97 -23q-29 0 -55 11q-65 26 -119 79l-381 371q-8 -8 -30 -24z" />
    <glyph glyph-name="kgreenlandic" unicode="&#x138;" horiz-adv-x="1150" 
d="M393 1011v-456l348 279q67 54 108 79q26 16 51 16q18 0 35 -9l75 -46q12 -9 12 -19q0 -2 -3 -9l-48 -105l-49 26q-28 15 -58 15q-34 0 -64 -22q-136 -100 -257 -195l349 -340q108 -106 140 -119q22 -11 47 -11q7 0 21 2q7 1 14 1q22 0 28 -14q2 -5 2 -9q0 -10 -11 -15
l-63 -31q-53 -23 -97 -23q-30 0 -56 11q-63 25 -118 79l-381 371q-6 -5 -25 -20v-301q0 -65 50 -82.5t50 -42.5q0 -21 -20 -21h-339q-21 0 -21 21q0 25 50 43q50 17 50 82v653q0 64 -50 84.5t-50 46.5q0 21 21 21q66 3 130.5 20t128.5 40z" />
    <glyph glyph-name="Lacute" unicode="&#x139;" horiz-adv-x="1251" 
d="M283 1617q-4 -2 -7 -2q-17 0 -17 18q0 8 7 15l375 258q19 13 41 13q74 0 74 -74q0 -53 -47 -70zM436 94h427q93 0 157.5 71.5t97.5 111.5q18 22 28 22q21 0 21 -21q0 -13 -2 -21l-73 -257h-916q-21 0 -21 21q0 25 50 42.5t50 82.5v1111q0 64 -50 82t-50 44q0 21 21 21
h339q20 0 20 -21q0 -26 -50 -44t-50 -82z" />
    <glyph glyph-name="lacute" unicode="&#x13a;" horiz-adv-x="596" 
d="M87 1616q-4 -2 -7 -2q-17 0 -17 18q0 8 7 15l375 258q19 13 41 13q74 0 74 -74q0 -53 -47 -70zM393 1463v-1317q0 -65 50 -82.5t50 -42.5q0 -21 -20 -21h-339q-21 0 -21 21q0 25 50 42.5t50 82.5v1111q0 64 -50 82t-50 44q0 21 21 21q66 3 130.5 20t128.5 39z" />
    <glyph glyph-name="Lcommaaccent" unicode="&#x13b;" horiz-adv-x="1251" 
d="M564 -20h57q-7 -22 -7 -41q0 -32 22 -53q35 -33 75 -67q57 -48 57 -123v-9q-4 -82 -123 -91h-15q-58 0 -138 27l-15 68q49 -34 93 -34q34 0 65 21q30 20 30 49q0 37 -51 87q-32 30 -58 72q-11 17 -11 38q0 26 19 56zM436 94h427q93 0 157.5 71.5t97.5 111.5q18 22 28 22
q21 0 21 -21q0 -13 -2 -21l-73 -257h-916q-21 0 -21 21q0 25 50 42.5t50 82.5v1111q0 64 -50 82t-50 44q0 21 21 21h339q20 0 20 -21q0 -26 -50 -44t-50 -82z" />
    <glyph glyph-name="lcommaaccent" unicode="&#x13c;" horiz-adv-x="596" 
d="M264 -21h57q-7 -22 -7 -41q0 -32 22 -53q35 -33 75 -67q57 -48 57 -123v-9q-4 -82 -123 -91h-15q-58 0 -138 27l-15 68q49 -34 93 -34q34 0 65 21q30 20 30 49q0 37 -51 87q-32 30 -58 72q-11 17 -11 38q0 26 19 56zM393 1463v-1317q0 -65 50 -82.5t50 -42.5
q0 -21 -20 -21h-339q-21 0 -21 21q0 25 50 42.5t50 82.5v1111q0 64 -50 82t-50 44q0 21 21 21q66 3 130.5 20t128.5 39z" />
    <glyph glyph-name="Lcaron" unicode="&#x13d;" horiz-adv-x="1251" 
d="M436 94h427q93 0 157.5 71.5t97.5 111.5q18 22 28 22q21 0 21 -21q0 -13 -2 -21l-73 -257h-916q-21 0 -21 21q0 25 50 42.5t50 82.5v1111q0 64 -50 82t-50 44q0 21 21 21h339q20 0 20 -21q0 -26 -50 -44t-50 -82zM678 1610h7q101 0 105 -84l1 -82q0 -21 -8.5 -50
t-14.5 -48q-37 -113 -148 -193q-36 -26 -59 -26q-14 0 -24 10q-7 7 -7 15t8 18q15 18 39 33q92 57 107 152h-10q-101 0 -102 84l-2 82v3q0 84 108 86z" />
    <glyph glyph-name="lcaron" unicode="&#x13e;" horiz-adv-x="665" 
d="M463 1463v-392q182 129 233 183.5t58 100.5h-10q-101 0 -102 84l-2 82v3q0 84 108 86h7q101 0 105 -84l1 -82q0 -21 -8.5 -50t-14.5 -48q-19 -59 -80.5 -131t-277.5 -220q-5 -3 -9 -5.5t-8 -5.5v-838q0 -65 50 -82.5t50 -42.5q0 -21 -20 -21h-339q-21 0 -21 21
q0 25 50 42.5t50 82.5v706q-114 -91 -114 -114q0 -6 8 -8q26 -6 50 -21.5t25 -44.5l1 -66v-2q0 -67 -86 -70h-5q-83 0 -84 68l-1 65v5q0 15 6 35q6 23 12 39q12 36 47 77.5t141 123.5v318q0 64 -50 82t-50 44q0 21 21 21q66 3 130.5 20t128.5 39z" />
    <glyph glyph-name="Ldot" unicode="&#x13f;" horiz-adv-x="1251" 
d="M436 94h427q93 0 157.5 71.5t97.5 111.5q18 22 28 22q21 0 21 -21q0 -13 -2 -21l-73 -257h-916q-21 0 -21 21q0 25 50 42.5t50 82.5v1111q0 64 -50 82t-50 44q0 21 21 21h339q20 0 20 -21q0 -26 -50 -44t-50 -82zM667 579q-26 0 -48 9q-25 11 -39 26q-15 13 -27 38
q-9 22 -9 48q0 25 9 48q12 26 27 40q16 16 39 27q25 10 48 10t48 -10q23 -11 40 -27q16 -17 26 -40q9 -23 9 -48q0 -26 -9 -48q-9 -21 -26 -38q-16 -16 -40 -26q-23 -9 -48 -9z" />
    <glyph glyph-name="ldot" unicode="&#x140;" horiz-adv-x="752" 
d="M393 1463v-1317q0 -65 50 -82.5t50 -42.5q0 -21 -20 -21h-339q-21 0 -21 21q0 25 50 42.5t50 82.5v1111q0 64 -50 82t-50 44q0 21 21 21q66 3 130.5 20t128.5 39zM667 579q-26 0 -48 9q-25 11 -39 26q-15 13 -27 38q-9 22 -9 48q0 25 9 48q12 26 27 40q16 16 39 27
q25 10 48 10t48 -10q23 -11 40 -27q16 -17 26 -40q9 -23 9 -48q0 -26 -9 -48q-9 -21 -26 -38q-16 -16 -40 -26q-23 -9 -48 -9z" />
    <glyph glyph-name="Lstrok" unicode="&#x141;" horiz-adv-x="1251" 
d="M436 94h427q93 0 157.5 71.5t97.5 111.5q18 22 28 22q21 0 21 -21q0 -13 -2 -21l-73 -257h-916q-21 0 -21 21q0 25 50 42.5t50 82.5v692l-209 -56q-5 -1 -9 -1q-12 0 -16 14l-10 38q-1 4 -1 7q0 12 16 17l229 61v339q0 64 -50 82t-50 44q0 21 21 21h339q20 0 20 -21
q0 -26 -50 -44t-50 -82v-290l238 64h5q15 0 20 -14l10 -38q1 -4 1 -7q0 -13 -16 -17l-258 -69z" />
    <glyph glyph-name="lstrok" unicode="&#x142;" horiz-adv-x="752" 
d="M393 1463v-508l280 76h5q15 0 20 -14l10 -38q1 -4 1 -7q0 -13 -16 -17l-300 -80v-729q0 -65 50 -82.5t50 -42.5q0 -21 -20 -21h-339q-21 0 -21 21q0 25 50 42.5t50 82.5v680l-167 -44q-5 -1 -9 -1q-12 0 -16 14l-10 38q-1 4 -1 7q0 12 16 17l187 50v350q0 64 -50 82
t-50 44q0 21 21 21q66 3 130.5 20t128.5 39z" />
    <glyph glyph-name="Nacute" unicode="&#x143;" horiz-adv-x="1644" 
d="M663 1616q-4 -2 -7 -2q-17 0 -17 18q0 8 7 15l375 258q19 13 41 13q74 0 74 -74q0 -53 -47 -70zM1369 203v1054q0 64 -49.5 82t-49.5 44q0 21 20 21h255q21 0 21 -21q0 -26 -50 -44t-50 -82l-1 -1300l-177 43l-958 1189v-1043q0 -65 50 -82.5t50 -42.5q0 -21 -21 -21
h-254q-21 0 -21 21q0 25 50 42.5t50 82.5v1111q0 64 -50 82t-50 44q0 21 21 21h257z" />
    <glyph glyph-name="nacute" unicode="&#x144;" horiz-adv-x="1192" 
d="M316 1150q-3 -1 -7 -1q-18 0 -18 17q0 8 7 15l375 258q18 13 41 13q74 0 74 -74q0 -52 -47 -69zM351 958v-99l207 79q60 23 119 23q16 0 32 -2q75 -8 132 -39q104 -59 142.5 -152.5t38.5 -339.5v-283q1 -65 53.5 -83t52.5 -43q0 -19 -21 -19h-242q-12 0 -12 19v501
q0 198 -100 295q-63 61 -148 61q-50 0 -108 -21l-146 -54v-655q0 -65 50 -82.5t50 -42.5q0 -21 -21 -21h-339q-20 0 -20 21q0 25 50 42.5t50 82.5v606q0 64 -50 81.5t-50 43.5q0 21 21 21q66 3 130.5 20.5t128.5 39.5z" />
    <glyph glyph-name="Ncommaaccent" unicode="&#x145;" horiz-adv-x="1644" 
d="M720 -7h57q-7 -22 -7 -41q0 -32 22 -53q35 -33 75 -67q57 -48 57 -123v-9q-4 -82 -123 -91h-15q-58 0 -138 27l-15 68q49 -34 93 -34q34 0 65 21q30 20 30 49q0 37 -51 87q-32 30 -58 72q-11 17 -11 38q0 26 19 56zM1369 203v1054q0 64 -49.5 82t-49.5 44q0 21 20 21h255
q21 0 21 -21q0 -26 -50 -44t-50 -82l-1 -1300l-177 43l-958 1189v-1043q0 -65 50 -82.5t50 -42.5q0 -21 -21 -21h-254q-21 0 -21 21q0 25 50 42.5t50 82.5v1111q0 64 -50 82t-50 44q0 21 21 21h257z" />
    <glyph glyph-name="ncommaaccent" unicode="&#x146;" horiz-adv-x="1192" 
d="M546 -7h57q-7 -22 -7 -41q0 -32 22 -53q35 -33 75 -67q57 -48 57 -123v-9q-4 -82 -123 -91h-15q-58 0 -138 27l-15 68q49 -34 93 -34q34 0 65 21q30 20 30 49q0 37 -51 87q-32 30 -58 72q-11 17 -11 38q0 26 19 56zM351 958v-99l207 79q60 23 119 23q16 0 32 -2
q75 -8 132 -39q104 -59 142.5 -152.5t38.5 -339.5v-283q1 -65 53.5 -83t52.5 -43q0 -19 -21 -19h-242q-12 0 -12 19v501q0 198 -100 295q-63 61 -148 61q-50 0 -108 -21l-146 -54v-655q0 -65 50 -82.5t50 -42.5q0 -21 -21 -21h-339q-20 0 -20 21q0 25 50 42.5t50 82.5v606
q0 64 -50 81.5t-50 43.5q0 21 21 21q66 3 130.5 20.5t128.5 39.5z" />
    <glyph glyph-name="Ncaron" unicode="&#x147;" horiz-adv-x="1644" 
d="M1369 203v1054q0 64 -49.5 82t-49.5 44q0 21 20 21h255q21 0 21 -21q0 -26 -50 -44t-50 -82l-1 -1300l-177 43l-958 1189v-1043q0 -65 50 -82.5t50 -42.5q0 -21 -21 -21h-254q-21 0 -21 21q0 25 50 42.5t50 82.5v1111q0 64 -50 82t-50 44q0 21 21 21h257zM562 1903h58
l230 -209l230 209h57l-229 -347h-116z" />
    <glyph glyph-name="ncaron" unicode="&#x148;" horiz-adv-x="1192" 
d="M351 958v-99l207 79q60 23 119 23q16 0 32 -2q75 -8 132 -39q104 -59 142.5 -152.5t38.5 -339.5v-283q1 -65 53.5 -83t52.5 -43q0 -19 -21 -19h-242q-12 0 -12 19v501q0 198 -100 295q-63 61 -148 61q-50 0 -108 -21l-146 -54v-655q0 -65 50 -82.5t50 -42.5
q0 -21 -21 -21h-339q-20 0 -20 21q0 25 50 42.5t50 82.5v606q0 64 -50 81.5t-50 43.5q0 21 21 21q66 3 130.5 20.5t128.5 39.5zM312 1443h57l230 -209l230 209h58l-230 -347h-116z" />
    <glyph glyph-name="napostrophe" unicode="&#x149;" horiz-adv-x="1477" 
d="M667 958v-99l207 79q60 23 119 23q16 0 32 -2q75 -8 132 -39q104 -59 142.5 -152.5t38.5 -339.5v-283q1 -65 53.5 -83t52.5 -43q0 -19 -21 -19h-242q-12 0 -12 19v501q0 198 -100 295q-63 61 -148 61q-50 0 -108 -21l-146 -54v-655q0 -65 50 -82.5t50 -42.5
q0 -21 -21 -21h-339q-20 0 -20 21q0 25 50 42.5t50 82.5v606q0 64 -50 81.5t-50 43.5q0 21 21 21q66 3 130.5 20.5t128.5 39.5zM222 969q0 -12 -19 -12h-15q-18 0 -18 12l-52 440v4q0 30 54 30h47q54 0 54 -29v-5z" />
    <glyph glyph-name="ENG" unicode="&#x14a;" horiz-adv-x="1644" 
d="M1303 287v971q0 64 -50 82t-50 44q0 20 20 20h339q21 0 21 -20q0 -26 -50 -44t-50 -82v-1078q0 -197 -26.5 -293t-91.5 -164q-91 -93 -202 -122v50q39 24 73 61.5t53 98.5q14 44 14 186l-15 3l-958 1189v-1043q0 -65 50 -82.5t50 -42.5q0 -21 -21 -21h-254q-21 0 -21 21
q0 25 50 42.5t50 82.5v1111q0 64 -50 82t-50 44q0 21 21 21h257z" />
    <glyph glyph-name="eng" unicode="&#x14b;" horiz-adv-x="1195" 
d="M1036 12q0 -197 -26 -293t-91 -164q-91 -94 -203 -122v50q95 57 127 160q12 41 12.5 115t0.5 248v500q0 219 -91 308q-58 57 -142 57q-48 0 -105 -19q-22 -8 -55.5 -20.5t-57.5 -21.5t-43 -16v-648q0 -65 50 -82.5t50 -42.5q0 -21 -20 -21h-339q-21 0 -21 21
q0 25 50 42.5t50 82.5v640q0 63 -50 81t-50 44q0 21 21 21q66 3 130.5 20.5t128.5 39.5v-139q55 21 97 37t80 29q92 32 191 42q12 1 25 1q84 0 160 -57q121 -93 121 -399v-494z" />
    <glyph glyph-name="Omacr" unicode="&#x14c;" horiz-adv-x="1610" 
d="M808 1358q-307 -1 -429 -193.5t-122 -462.5q0 -271 153 -462.5t398 -193.5h5q239 0 393 204q152 202 152 446v6q-2 249 -130 452.5t-420 203.5zM509 1704h600q10 0 10 -11v-86q0 -10 -10 -10h-600q-10 0 -10 10v86q0 11 10 11zM808 1446h10q323 0 545 -198
q207 -185 207 -488q0 -27 -2 -55q-21 -344 -238.5 -533.5t-523.5 -206.5q-23 -1 -46 -1q-278 0 -492 192q-220 196 -220 513q0 18 1 36q12 341 220.5 539t538.5 202z" />
    <glyph glyph-name="omacr" unicode="&#x14d;" horiz-adv-x="1107" 
d="M577 956q195 -8 330 -150.5t138 -340.5v-6q0 -200 -141 -338q-144 -140 -351 -146h-16q-192 0 -331 142q-144 146 -144 345v3q1 219 165 368q19 18 56.5 31t111.5 40q44 16 97 35q50 17 82 17h3zM556 889h-12q-117 0 -201 -113q-89 -120 -89 -295t87.5 -303.5
t212.5 -134.5h14q116 0 200 113q88 119 88 294t-88 303.5t-212 135.5zM260 1347h599q11 0 11 -10v-86q0 -11 -11 -11h-599q-10 0 -10 11v86q0 10 10 10z" />
    <glyph glyph-name="Obreve" unicode="&#x14e;" horiz-adv-x="1610" 
d="M808 1358q-307 -1 -429 -193.5t-122 -462.5q0 -271 153 -462.5t398 -193.5h5q239 0 393 204q152 202 152 446v6q-2 249 -130 452.5t-420 203.5zM809 1523q-159 0 -241 112q-57 76 -63 185v3q0 24 27 24q19 0 27 -27q42 -164 249 -167h5q203 0 246 167q7 27 27 27
q27 0 27 -25v-2q-7 -109 -63 -185q-83 -112 -241 -112zM808 1446h10q323 0 545 -198q207 -185 207 -488q0 -27 -2 -55q-21 -344 -238.5 -533.5t-523.5 -206.5q-23 -1 -46 -1q-278 0 -492 192q-220 196 -220 513q0 18 1 36q12 341 220.5 539t538.5 202z" />
    <glyph glyph-name="obreve" unicode="&#x14f;" horiz-adv-x="1107" 
d="M577 956q195 -8 330 -150.5t138 -340.5v-6q0 -200 -141 -338q-144 -140 -351 -146h-16q-192 0 -331 142q-144 146 -144 345v3q1 219 165 368q19 18 56.5 31t111.5 40q44 16 97 35q50 17 82 17h3zM556 889h-12q-117 0 -201 -113q-89 -120 -89 -295t87.5 -303.5
t212.5 -134.5h14q116 0 200 113q88 119 88 294t-88 303.5t-212 135.5zM560 1115q-161 0 -241 112q-57 76 -63 185v3q0 24 26 24q21 0 27 -27q43 -165 249 -166h5q204 0 247 166q7 27 27 27q27 0 27 -25v-2q-7 -109 -63 -185q-83 -112 -241 -112z" />
    <glyph glyph-name="Odblac" unicode="&#x150;" horiz-adv-x="1610" 
d="M447 1620q-4 -2 -7 -2q-17 0 -17 18q0 8 7 15l375 258q19 13 41 13q74 0 74 -74q0 -53 -47 -70zM763 1620q-4 -2 -7 -2q-17 0 -17 18q0 8 7 15l375 258q18 13 41 13q74 0 74 -74q0 -53 -47 -70zM808 1358q-307 -1 -429 -193.5t-122 -462.5q0 -271 153 -462.5t398 -193.5
h5q239 0 393 204q152 202 152 446v6q-2 249 -130 452.5t-420 203.5zM808 1446h10q323 0 545 -198q207 -185 207 -488q0 -27 -2 -55q-21 -344 -238.5 -533.5t-523.5 -206.5q-23 -1 -46 -1q-278 0 -492 192q-220 196 -220 513q0 18 1 36q12 341 220.5 539t538.5 202z" />
    <glyph glyph-name="odblac" unicode="&#x151;" horiz-adv-x="1107" 
d="M159 1146q-4 -2 -7 -2q-17 0 -17 18q0 8 7 15l375 258q19 13 41 13q74 0 74 -74q0 -53 -47 -70zM475 1146q-4 -2 -7 -2q-17 0 -17 18q0 8 7 15l375 258q18 13 41 13q74 0 74 -74q0 -53 -47 -70zM577 956q195 -8 330 -150.5t138 -340.5v-6q0 -200 -141 -338
q-144 -140 -351 -146h-16q-192 0 -331 142q-144 146 -144 345v3q1 219 165 368q19 18 56.5 31t111.5 40q44 16 97 35q50 17 82 17h3zM556 889h-12q-117 0 -201 -113q-89 -120 -89 -295t87.5 -303.5t212.5 -134.5h14q116 0 200 113q88 119 88 294t-88 303.5t-212 135.5z" />
    <glyph glyph-name="OElig" unicode="&#x152;" horiz-adv-x="2044" 
d="M1312 94h428q92 0 157 71.5t98 111.5q18 22 28 22q21 0 21 -21q0 -13 -2 -21l-73 -257h-926q-106 -29 -216 -35q-23 -1 -46 -1q-278 0 -492 192q-220 196 -220 513q0 18 1 36q12 341 220.5 539t539.5 202h8q168 0 287 -42h856v-257q0 -21 -21 -21q-10 0 -37 40
q-50 69 -87 107t-96 38h-428v-543h230q64 0 83.5 51.5t45.5 51.5q21 0 21 -21v-254q0 -21 -21 -21q-26 0 -49 51t-87 51h-223v-583zM1130 1272q-126 86 -301 86q-307 -1 -429 -193.5t-122 -462.5q0 -271 153 -462.5t398 -193.5h6q162 0 296 107v1104q0 11 -1 15z" />
    <glyph glyph-name="oelig" unicode="&#x153;" horiz-adv-x="1830" 
d="M577 956q227 -10 367 -194q119 194 383 194q414 0 416 -405q-1 -40 -3.5 -56.5t-40.5 -16.5h-633q0 -179 88.5 -294t249.5 -115q41 0 89.5 10.5t117.5 46.5q58 31 78 31q5 0 7 -2q2 -3 2 -8q0 -13 -13 -38q-14 -29 -33 -46q-66 -57 -153.5 -72.5t-171.5 -15.5
q-268 0 -387 185q-146 -178 -387 -185h-16q-192 0 -331 142q-144 146 -144 345v3q1 219 165 368q19 18 56.5 31t111.5 40q44 16 97 35q50 17 82 17h3zM1066 551h523q0 170 -63.5 244.5t-198.5 74.5t-198 -91t-63 -228zM556 889h-12q-117 0 -201 -113q-89 -120 -89 -295
t87.5 -303.5t212.5 -134.5h14q116 0 200 113q88 119 88 294t-88 303.5t-212 135.5z" />
    <glyph glyph-name="Racute" unicode="&#x154;" horiz-adv-x="1368" 
d="M415 1616q-4 -2 -7 -2q-17 0 -17 18q0 8 7 15l375 258q19 13 41 13q74 0 74 -74q0 -53 -47 -70zM1263 72q28 -23 73 -27q28 -3 28 -21v-3q-3 -21 -21 -21h-267q-9 0 -68 78t-137 186t-160 221t-137 182h-160v-521q0 -65 50 -82.5t50 -42.5q0 -21 -20 -21h-339
q-21 0 -21 21q0 25 50 42.5t50 82.5v1111q0 64 -50 82t-50 44q0 21 21 21h590q103 0 215 -36.5t173 -141.5q48 -85 48 -204q-2 -113 -65 -203q-50 -71 -139 -108.5t-169 -42.5zM414 1321v-584h232q69 0 140 20t122 71q80 77 80 204q0 122 -83 204q-89 85 -239 85h-252z" />
    <glyph glyph-name="racute" unicode="&#x155;" horiz-adv-x="831" 
d="M180 1148q-3 -1 -7 -1q-18 0 -18 17q0 8 7 15l375 258q18 13 41 13q74 0 74 -74q0 -52 -47 -69zM403 595v-449q0 -65 49.5 -82.5t49.5 -42.5q0 -21 -20 -21h-339q-21 0 -21 21q0 25 50 42.5t50 82.5v640q0 63 -50 81t-50 44q0 21 21 21q66 3 130.5 20.5t129.5 39.5v-132
l139 53q77 29 120 43q13 4 31 4q37 0 94 -20l-22 -251h-46q-39 146 -150 146q-11 0 -22 -1q-76 -9 -108.5 -77.5t-35.5 -161.5z" />
    <glyph glyph-name="Rcommaaccent" unicode="&#x156;" horiz-adv-x="1368" 
d="M636 -16h57q-7 -22 -7 -41q0 -32 22 -53q35 -33 75 -67q57 -48 57 -123v-9q-4 -82 -123 -91h-15q-58 0 -138 27l-15 68q49 -34 93 -34q34 0 65 21q30 20 30 49q0 37 -51 87q-32 30 -58 72q-11 17 -11 38q0 26 19 56zM1263 72q28 -23 73 -27q28 -3 28 -21v-3
q-3 -21 -21 -21h-267q-9 0 -68 78t-137 186t-160 221t-137 182h-160v-521q0 -65 50 -82.5t50 -42.5q0 -21 -20 -21h-339q-21 0 -21 21q0 25 50 42.5t50 82.5v1111q0 64 -50 82t-50 44q0 21 21 21h590q103 0 215 -36.5t173 -141.5q48 -85 48 -204q-2 -113 -65 -203
q-50 -71 -139 -108.5t-169 -42.5zM414 1321v-584h232q69 0 140 20t122 71q80 77 80 204q0 122 -83 204q-89 85 -239 85h-252z" />
    <glyph glyph-name="rcommaaccent" unicode="&#x157;" horiz-adv-x="831" 
d="M284 -32h57q-7 -22 -7 -41q0 -32 22 -53q35 -33 75 -67q57 -48 57 -123v-9q-4 -82 -123 -91h-15q-58 0 -138 27l-15 68q49 -34 93 -34q34 0 65 21q30 20 30 49q0 37 -51 87q-32 30 -58 72q-11 17 -11 38q0 26 19 56zM403 595v-449q0 -65 49.5 -82.5t49.5 -42.5
q0 -21 -20 -21h-339q-21 0 -21 21q0 25 50 42.5t50 82.5v640q0 63 -50 81t-50 44q0 21 21 21q66 3 130.5 20.5t129.5 39.5v-132l139 53q77 29 120 43q13 4 31 4q37 0 94 -20l-22 -251h-46q-39 146 -150 146q-11 0 -22 -1q-76 -9 -108.5 -77.5t-35.5 -161.5z" />
    <glyph glyph-name="Rcaron" unicode="&#x158;" horiz-adv-x="1368" 
d="M1263 72q28 -23 73 -27q28 -3 28 -21v-3q-3 -21 -21 -21h-267q-9 0 -68 78t-137 186t-160 221t-137 182h-160v-521q0 -65 50 -82.5t50 -42.5q0 -21 -20 -21h-339q-21 0 -21 21q0 25 50 42.5t50 82.5v1111q0 64 -50 82t-50 44q0 21 21 21h590q103 0 215 -36.5t173 -141.5
q48 -85 48 -204q-2 -113 -65 -203q-50 -71 -139 -108.5t-169 -42.5zM462 1903h57l230 -209l230 209h57l-229 -347h-116zM414 1321v-584h232q69 0 140 20t122 71q80 77 80 204q0 122 -83 204q-89 85 -239 85h-252z" />
    <glyph glyph-name="rcaron" unicode="&#x159;" horiz-adv-x="831" 
d="M403 595v-449q0 -65 49.5 -82.5t49.5 -42.5q0 -21 -20 -21h-339q-21 0 -21 21q0 25 50 42.5t50 82.5v640q0 63 -50 81t-50 44q0 21 21 21q66 3 130.5 20.5t129.5 39.5v-132l139 53q77 29 120 43q13 4 31 4q37 0 94 -20l-22 -251h-46q-39 146 -150 146q-11 0 -22 -1
q-76 -9 -108.5 -77.5t-35.5 -161.5zM158 1443h57l231 -209l230 209h57l-230 -347h-116z" />
    <glyph glyph-name="Sacute" unicode="&#x15a;" horiz-adv-x="1075" 
d="M283 1617q-4 -2 -7 -2q-17 0 -17 18q0 8 7 15l375 258q19 13 41 13q74 0 74 -74q0 -53 -47 -70zM535 55q81 5 155.5 42.5t119.5 109.5q47 75 47 181v11q-3 113 -86 173q-38 28 -92 44q-106 29 -216.5 41t-209.5 60q-89 42 -133 123.5t-44 177.5q0 188 131 307
q134 124 338 124h30q223 -10 379 -111l-24 -210q-2 -18 -19 -18h-4q-13 1 -25 28q-43 90 -125 153.5t-177 67.5h-16q-92 0 -164 -33q-47 -24 -75 -53q-26 -28 -46 -69q-16 -33 -25 -77q-7 -32 -7 -61q0 -39 12 -72q21 -67 72 -103q39 -29 85 -40q25 -7 61 -13.5t75 -12.5
q57 -9 120.5 -18.5t123.5 -27.5q100 -32 149 -85q36 -41 59 -90q27 -66 27 -145q0 -214 -174 -356q-90 -74 -199 -109q-88 -28 -188 -32q-22 -1 -43 -1q-139 0 -266 39l-95 264q-2 5 -2 10q0 10 7 20q8 13 21 13q12 -3 25 -29q64 -139 161 -186q80 -39 203 -39q26 0 54 2z
" />
    <glyph glyph-name="sacute" unicode="&#x15b;" horiz-adv-x="884" 
d="M216 1148q-3 -1 -7 -1q-18 0 -18 17q0 8 7 15l375 258q18 13 41 13q74 0 74 -74q0 -52 -47 -69zM490 958q147 -8 278 -89l-21 -175q-2 -15 -16 -15h-3q-12 1 -22 24q-36 75 -105 125.5t-149 53.5h-4q-62 0 -121 -31q-62 -32 -76 -98q-5 -22 -5 -40q0 -63 56 -90
q71 -36 165 -57q129 -29 234.5 -78t115.5 -205v-10q0 -74 -57 -148q-62 -80 -179 -121q-73 -24 -162 -27h-27q-123 0 -235 32l-81 220l3 20q1 15 18 15h2q10 -2 21 -24q46 -99 112.5 -140.5t168.5 -44.5h12q71 0 156 33q92 36 96 130v6q0 108 -102 137q-106 30 -186 53
q-99 27 -186 86q-86 58 -86 172v5q1 155 120 221q109 61 241 61q12 0 24 -1z" />
    <glyph glyph-name="Scircumflex" unicode="&#x15c;" horiz-adv-x="1075" 
d="M535 55q81 5 155.5 42.5t119.5 109.5q47 75 47 181v11q-3 113 -86 173q-38 28 -92 44q-106 29 -216.5 41t-209.5 60q-89 42 -133 123.5t-44 177.5q0 188 131 307q134 124 338 124h30q223 -10 379 -111l-24 -210q-2 -18 -19 -18h-4q-13 1 -25 28q-43 90 -125 153.5
t-177 67.5h-16q-92 0 -164 -33q-47 -24 -75 -53q-26 -28 -46 -69q-16 -33 -25 -77q-7 -32 -7 -61q0 -39 12 -72q21 -67 72 -103q39 -29 85 -40q25 -7 61 -13.5t75 -12.5q57 -9 120.5 -18.5t123.5 -27.5q100 -32 149 -85q36 -41 59 -90q27 -66 27 -145q0 -214 -174 -356
q-90 -74 -199 -109q-88 -28 -188 -32q-22 -1 -43 -1q-139 0 -266 39l-95 264q-2 5 -2 10q0 10 7 20q8 13 21 13q12 -3 25 -29q64 -139 161 -186q80 -39 203 -39q26 0 54 2zM260 1556l230 347h116l229 -347h-57l-230 208l-230 -208h-58z" />
    <glyph glyph-name="scircumflex" unicode="&#x15d;" horiz-adv-x="884" 
d="M490 958q147 -8 278 -89l-21 -175q-2 -15 -16 -15h-3q-12 1 -22 24q-36 75 -105 125.5t-149 53.5h-4q-62 0 -121 -31q-62 -32 -76 -98q-5 -22 -5 -40q0 -63 56 -90q71 -36 165 -57q129 -29 234.5 -78t115.5 -205v-10q0 -74 -57 -148q-62 -80 -179 -121q-73 -24 -162 -27
h-27q-123 0 -235 32l-81 220l3 20q1 15 18 15h2q10 -2 21 -24q46 -99 112.5 -140.5t168.5 -44.5h12q71 0 156 33q92 36 96 130v6q0 108 -102 137q-106 30 -186 53q-99 27 -186 86q-86 58 -86 172v5q1 155 120 221q109 61 241 61q12 0 24 -1zM154 1066l222 336h113l223 -336
h-55l-224 202l-224 -202h-55z" />
    <glyph glyph-name="Scedilla" unicode="&#x15e;" horiz-adv-x="1075" 
d="M426 -66h57q-7 -22 -7 -41q0 -32 22 -53q35 -33 75 -67q57 -48 57 -123v-9q-4 -82 -123 -91h-15q-58 0 -138 27l-15 68q49 -34 93 -34q34 0 65 21q30 20 30 49q0 37 -51 87q-32 30 -58 72q-11 17 -11 38q0 26 19 56zM535 55q81 5 155.5 42.5t119.5 109.5q47 75 47 181v11
q-3 113 -86 173q-38 28 -92 44q-106 29 -216.5 41t-209.5 60q-89 42 -133 123.5t-44 177.5q0 188 131 307q134 124 338 124h30q223 -10 379 -111l-24 -210q-2 -18 -19 -18h-4q-13 1 -25 28q-43 90 -125 153.5t-177 67.5h-16q-92 0 -164 -33q-47 -24 -75 -53q-26 -28 -46 -69
q-16 -33 -25 -77q-7 -32 -7 -61q0 -39 12 -72q21 -67 72 -103q39 -29 85 -40q25 -7 61 -13.5t75 -12.5q57 -9 120.5 -18.5t123.5 -27.5q100 -32 149 -85q36 -41 59 -90q27 -66 27 -145q0 -214 -174 -356q-90 -74 -199 -109q-88 -28 -188 -32q-22 -1 -43 -1q-139 0 -266 39
l-95 264q-2 5 -2 10q0 10 7 20q8 13 21 13q12 -3 25 -29q64 -139 161 -186q80 -39 203 -39q26 0 54 2z" />
    <glyph glyph-name="scedilla" unicode="&#x15f;" horiz-adv-x="884" 
d="M490 958q147 -8 278 -89l-21 -175q-2 -15 -16 -15h-3q-12 1 -22 24q-36 75 -105 125.5t-149 53.5h-4q-62 0 -121 -31q-62 -32 -76 -98q-5 -22 -5 -40q0 -63 56 -90q71 -36 165 -57q129 -29 234.5 -78t115.5 -205v-10q0 -74 -57 -148q-62 -80 -179 -121q-73 -24 -162 -27
h-27q-123 0 -235 32l-81 220l3 20q1 15 18 15h2q10 -2 21 -24q46 -99 112.5 -140.5t168.5 -44.5h12q71 0 156 33q92 36 96 130v6q0 108 -102 137q-106 30 -186 53q-99 27 -186 86q-86 58 -86 172v5q1 155 120 221q109 61 241 61q12 0 24 -1zM381 -66h57q-7 -22 -7 -41
q0 -32 22 -53q35 -33 75 -67q57 -48 57 -123v-9q-4 -82 -123 -91h-15q-58 0 -138 27l-15 68q49 -34 93 -34q34 0 65 21q30 20 30 49q0 37 -51 87q-32 30 -58 72q-11 17 -11 38q0 26 19 56z" />
    <glyph glyph-name="Scaron" unicode="&#x160;" horiz-adv-x="1075" 
d="M535 55q81 5 155.5 42.5t119.5 109.5q47 75 47 181v11q-3 113 -86 173q-38 28 -92 44q-106 29 -216.5 41t-209.5 60q-89 42 -133 123.5t-44 177.5q0 188 131 307q134 124 338 124h30q223 -10 379 -111l-24 -210q-2 -18 -19 -18h-4q-13 1 -25 28q-43 90 -125 153.5
t-177 67.5h-16q-92 0 -164 -33q-47 -24 -75 -53q-26 -28 -46 -69q-16 -33 -25 -77q-7 -32 -7 -61q0 -39 12 -72q21 -67 72 -103q39 -29 85 -40q25 -7 61 -13.5t75 -12.5q57 -9 120.5 -18.5t123.5 -27.5q100 -32 149 -85q36 -41 59 -90q27 -66 27 -145q0 -214 -174 -356
q-90 -74 -199 -109q-88 -28 -188 -32q-22 -1 -43 -1q-139 0 -266 39l-95 264q-2 5 -2 10q0 10 7 20q8 13 21 13q12 -3 25 -29q64 -139 161 -186q80 -39 203 -39q26 0 54 2zM260 1903h58l230 -209l230 209h57l-229 -347h-116z" />
    <glyph glyph-name="scaron" unicode="&#x161;" horiz-adv-x="884" 
d="M490 958q147 -8 278 -89l-21 -175q-2 -15 -16 -15h-3q-12 1 -22 24q-36 75 -105 125.5t-149 53.5h-4q-62 0 -121 -31q-62 -32 -76 -98q-5 -22 -5 -40q0 -63 56 -90q71 -36 165 -57q129 -29 234.5 -78t115.5 -205v-10q0 -74 -57 -148q-62 -80 -179 -121q-73 -24 -162 -27
h-27q-123 0 -235 32l-81 220l3 20q1 15 18 15h2q10 -2 21 -24q46 -99 112.5 -140.5t168.5 -44.5h12q71 0 156 33q92 36 96 130v6q0 108 -102 137q-106 30 -186 53q-99 27 -186 86q-86 58 -86 172v5q1 155 120 221q109 61 241 61q12 0 24 -1zM145 1416h57l231 -209l230 209
h57l-230 -347h-116z" />
    <glyph glyph-name="Tcommaaccent" unicode="&#x162;" horiz-adv-x="1255" 
d="M576 -16h57q-7 -22 -7 -41q0 -32 22 -53q35 -33 75 -67q57 -48 57 -123v-9q-4 -82 -123 -91h-15q-58 0 -138 27l-15 68q49 -34 93 -34q34 0 65 21q30 20 30 49q0 37 -51 87q-32 30 -58 72q-11 17 -11 38q0 26 19 56zM1215 1147q0 -21 -21 -21q-9 0 -38 40
q-51 69 -87.5 107t-96.5 38h-251v-1165q0 -65 50 -83t50 -43q0 -20 -20 -20h-339q-21 0 -21 20q0 25 50 43t50 83v1165h-255q-60 0 -97.5 -38t-87.5 -107q-28 -40 -37 -40q-21 0 -21 21v185q0 54 18.5 65.5t95.5 11.5h944q83 0 98.5 -10t15.5 -67v-185z" />
    <glyph glyph-name="tcommaaccent" unicode="&#x163;" horiz-adv-x="648" 
d="M207 845q-38 -1 -114 -5h-5q-19 0 -20 20v2q0 16 19 25q20 9 83 43q15 8 29 14q3 1 8 1v171q0 50 20.5 69.5t94.5 54.5q27 13 43 13q23 0 23 -26v-279l238 5h1q15 0 15 -26q0 -14 -4 -34q-10 -47 -45 -47l-205 1v-627q0 -91 63.5 -136t108.5 -51v-32q-149 0 -251 28
t-102 221v595zM297 -28h57q-7 -22 -7 -41q0 -32 22 -53q35 -33 75 -67q57 -48 57 -123v-9q-4 -82 -123 -91h-15q-58 0 -138 27l-15 68q49 -34 93 -34q34 0 65 21q30 20 30 49q0 37 -51 87q-32 30 -58 72q-11 17 -11 38q0 26 19 56z" />
    <glyph glyph-name="Tcaron" unicode="&#x164;" horiz-adv-x="1255" 
d="M1215 1147q0 -21 -21 -21q-9 0 -38 40q-51 69 -87.5 107t-96.5 38h-251v-1165q0 -65 50 -83t50 -43q0 -20 -20 -20h-339q-21 0 -21 20q0 25 50 43t50 83v1165h-255q-60 0 -97.5 -38t-87.5 -107q-28 -40 -37 -40q-21 0 -21 21v185q0 54 18.5 65.5t95.5 11.5h944
q83 0 98.5 -10t15.5 -67v-185zM341 1903h58l230 -209l230 209h57l-229 -347h-116z" />
    <glyph glyph-name="tcaron" unicode="&#x165;" horiz-adv-x="648" 
d="M197 845q-38 -1 -114 -5h-5q-19 0 -20 20v2q0 16 19 25q20 9 83 43q22 12 29 14q3 1 8 1l165 3l254 5h1q15 0 15 -26q0 -14 -4 -34q-10 -47 -45 -47l-205 1v-630q0 -90 63.5 -135t108.5 -50v-32q-149 0 -251 27.5t-102 220.5v597zM48 1443h57l231 -209l230 209h57
l-230 -347h-116z" />
    <glyph glyph-name="Tbar" unicode="&#x166;" horiz-adv-x="1255" 
d="M1215 1147q0 -21 -21 -21q-9 0 -38 40q-51 69 -87.5 107t-96.5 38h-251v-370h434q32 0 32 -20v-39q0 -19 -32 -19h-434v-717q0 -65 50 -83t50 -43q0 -20 -20 -20h-339q-21 0 -21 20q0 25 50 43t50 83v717h-438q-33 0 -33 19v39q0 20 33 20h438v370h-255q-60 0 -97.5 -38
t-87.5 -107q-28 -40 -37 -40q-21 0 -21 21v185q0 54 18.5 65.5t95.5 11.5h944q83 0 98.5 -10t15.5 -67v-185z" />
    <glyph glyph-name="tbar" unicode="&#x167;" horiz-adv-x="663" 
d="M388 605l207 -1q16 0 16 -19v-38q0 -19 -16 -19l-207 -1v-307q0 -94 64 -136q69 -46 108 -51v-32q-149 0 -251 28t-102 221v279h-119q-16 0 -16 18v38q0 19 15 19h96l24 1v240q-38 -1 -114 -5h-5q-19 0 -20 20v2q0 16 19 25q20 9 83 43q22 12 29 14q3 1 8 1v171
q0 50 20.5 69.5t94.5 54.5q27 13 43 13q23 0 23 -26v-279l238 5h1q15 0 15 -26q0 -14 -4 -34q-10 -47 -45 -47l-205 1v-242z" />
    <glyph glyph-name="Utilde" unicode="&#x168;" horiz-adv-x="1554" 
d="M234 588v670q0 64 -50 81.5t-50 43.5q0 21 21 21h339q20 0 20 -21q0 -26 -49 -42.5t-49 -80.5v-539q0 -153 10 -271t52 -199q41 -81 126 -123t235 -42q264 0 358 208q67 146 67 427v536q0 64 -50 82t-50 44q0 21 21 21h255q20 0 20 -21q0 -26 -49.5 -44t-49.5 -82v-669
q-1 -149 -27.5 -272.5t-97.5 -207.5q-127 -147 -397 -147q-171 0 -291 32t-192 116q-122 141 -122 479zM1123 1810q-40 -110 -81 -165q-42 -54 -87 -54q-79 0 -173 84q-53 46 -99 46q-36 0 -69 -29q-9 -8 -21 -18.5t-25 -28.5q-26 -33 -43 -73q-5 -10 -13 -10q-5 0 -12 6
q-9 7 -9 19q0 10 6 23q33 72 66.5 148t105.5 76q88 0 178 -87q48 -47 95 -47q41 0 82 35q38 31 68 107q4 12 14 12q2 0 4 -1q13 -3 16 -21v-5q0 -9 -3 -17z" />
    <glyph glyph-name="utilde" unicode="&#x169;" horiz-adv-x="1239" 
d="M1040 146q0 -65 50 -82.5t50 -42.5q0 -21 -21 -21h-243q-17 0 -17 13v65q-55 -21 -97.5 -37.5t-78.5 -28.5q-93 -31 -191 -41q-14 -1 -27 -1q-83 0 -158 56q-122 92 -122 399v361q0 63 -50 81t-50 44q0 21 21 21q66 3 130.5 20.5t129.5 39.5v-567q0 -220 91 -308
q58 -57 142 -57q48 0 105 19q21 7 55 20t58 22q5 2 16.5 6t25.5 10v649q0 63 -50 81t-50 44q0 21 21 21q66 3 130.5 20.5t129.5 39.5v-846zM915 1356q-42 -113 -81 -165q-42 -54 -88 -54q-78 0 -172 84q-53 46 -99 46q-37 0 -70 -29q-9 -8 -20.5 -18.5t-25.5 -28.5
q-26 -35 -43 -73q-5 -10 -13 -10q-5 0 -12 6q-9 7 -9 19q0 10 6 23q33 72 66.5 148t105.5 76q88 0 178 -87q48 -47 96 -47q41 0 81 35q39 31 68 106q5 12 15 12h4q12 -3 15 -21v-5q0 -8 -2 -17z" />
    <glyph glyph-name="Umacr" unicode="&#x16a;" horiz-adv-x="1554" 
d="M234 588v670q0 64 -50 81.5t-50 43.5q0 21 21 21h339q20 0 20 -21q0 -26 -49 -42.5t-49 -80.5v-539q0 -153 10 -271t52 -199q41 -81 126 -123t235 -42q264 0 358 208q67 146 67 427v536q0 64 -50 82t-50 44q0 21 21 21h255q20 0 20 -21q0 -26 -49.5 -44t-49.5 -82v-669
q-1 -149 -27.5 -272.5t-97.5 -207.5q-127 -147 -397 -147q-171 0 -291 32t-192 116q-122 141 -122 479zM497 1704h600q10 0 10 -11v-86q0 -10 -10 -10h-600q-10 0 -10 10v86q0 11 10 11z" />
    <glyph glyph-name="umacr" unicode="&#x16b;" horiz-adv-x="1239" 
d="M1040 146q0 -65 50 -82.5t50 -42.5q0 -21 -21 -21h-243q-17 0 -17 13v65q-55 -21 -97.5 -37.5t-78.5 -28.5q-93 -31 -191 -41q-14 -1 -27 -1q-83 0 -158 56q-122 92 -122 399v361q0 63 -50 81t-50 44q0 21 21 21q66 3 130.5 20.5t129.5 39.5v-567q0 -220 91 -308
q58 -57 142 -57q48 0 105 19q21 7 55 20t58 22q5 2 16.5 6t25.5 10v649q0 63 -50 81t-50 44q0 21 21 21q66 3 130.5 20.5t129.5 39.5v-846zM301 1347h599q11 0 11 -10v-86q0 -11 -11 -11h-599q-11 0 -11 11v86q0 10 11 10z" />
    <glyph glyph-name="Ubreve" unicode="&#x16c;" horiz-adv-x="1554" 
d="M234 588v670q0 64 -50 81.5t-50 43.5q0 21 21 21h339q20 0 20 -21q0 -26 -49 -42.5t-49 -80.5v-539q0 -153 10 -271t52 -199q41 -81 126 -123t235 -42q264 0 358 208q67 146 67 427v536q0 64 -50 82t-50 44q0 21 21 21h255q20 0 20 -21q0 -26 -49.5 -44t-49.5 -82v-669
q-1 -149 -27.5 -272.5t-97.5 -207.5q-127 -147 -397 -147q-171 0 -291 32t-192 116q-122 141 -122 479zM797 1523q-159 0 -241 112q-57 76 -63 185v3q0 24 27 24q19 0 27 -27q42 -164 249 -167h5q203 0 246 167q7 27 27 27q27 0 27 -25v-2q-7 -109 -63 -185
q-83 -112 -241 -112z" />
    <glyph glyph-name="ubreve" unicode="&#x16d;" horiz-adv-x="1239" 
d="M1040 146q0 -65 50 -82.5t50 -42.5q0 -21 -21 -21h-243q-17 0 -17 13v65q-55 -21 -97.5 -37.5t-78.5 -28.5q-93 -31 -191 -41q-14 -1 -27 -1q-83 0 -158 56q-122 92 -122 399v361q0 63 -50 81t-50 44q0 21 21 21q66 3 130.5 20.5t129.5 39.5v-567q0 -220 91 -308
q58 -57 142 -57q48 0 105 19q21 7 55 20t58 22q5 2 16.5 6t25.5 10v649q0 63 -50 81t-50 44q0 21 21 21q66 3 130.5 20.5t129.5 39.5v-846zM601 1115q-160 0 -242 112q-58 79 -62 185v3q0 24 26 24q21 0 27 -27q43 -165 249 -166h5q204 0 247 166q7 27 27 27q27 0 27 -27
q-7 -107 -63 -185q-83 -112 -241 -112z" />
    <glyph glyph-name="Uring" unicode="&#x16e;" horiz-adv-x="1554" 
d="M234 588v670q0 64 -50 81.5t-50 43.5q0 21 21 21h339q20 0 20 -21q0 -26 -49 -42.5t-49 -80.5v-539q0 -153 10 -271t52 -199q41 -81 126 -123t235 -42q264 0 358 208q67 146 67 427v536q0 64 -50 82t-50 44q0 21 21 21h255q20 0 20 -21q0 -26 -49.5 -44t-49.5 -82v-669
q-1 -149 -27.5 -272.5t-97.5 -207.5q-127 -147 -397 -147q-171 0 -291 32t-192 116q-122 141 -122 479zM799 1920q80 0 137.5 -59t57.5 -141q0 -83 -57.5 -141t-137.5 -58q-81 0 -138.5 58t-57.5 141q0 82 57.5 141t138.5 59zM791 1892q-51 0 -83 -50q-28 -45 -28 -106v-16
q3 -71 40.5 -121t87.5 -50q49 0 82 50q29 46 29 109v12q-4 71 -41.5 121.5t-86.5 50.5z" />
    <glyph glyph-name="uring" unicode="&#x16f;" horiz-adv-x="1239" 
d="M1040 146q0 -65 50 -82.5t50 -42.5q0 -21 -21 -21h-243q-17 0 -17 13v65q-55 -21 -97.5 -37.5t-78.5 -28.5q-93 -31 -191 -41q-14 -1 -27 -1q-83 0 -158 56q-122 92 -122 399v361q0 63 -50 81t-50 44q0 21 21 21q66 3 130.5 20.5t129.5 39.5v-567q0 -220 91 -308
q58 -57 142 -57q48 0 105 19q21 7 55 20t58 22q5 2 16.5 6t25.5 10v649q0 63 -50 81t-50 44q0 21 21 21q66 3 130.5 20.5t129.5 39.5v-846zM601 1514q80 0 137.5 -59t57.5 -141q0 -83 -57.5 -141t-137.5 -58q-81 0 -138.5 58t-57.5 141q0 82 57.5 141t138.5 59zM593 1486
q-51 0 -83 -50q-28 -45 -28 -106v-15q3 -72 40.5 -122t87.5 -50q49 0 82 50q29 46 29 110v12q-4 70 -41.5 120.5t-86.5 50.5z" />
    <glyph glyph-name="Udblac" unicode="&#x170;" horiz-adv-x="1554" 
d="M447 1620q-4 -2 -7 -2q-17 0 -17 18q0 8 7 15l375 258q19 13 41 13q74 0 74 -74q0 -53 -47 -70zM763 1620q-4 -2 -7 -2q-17 0 -17 18q0 8 7 15l375 258q18 13 41 13q74 0 74 -74q0 -53 -47 -70zM234 588v670q0 64 -50 81.5t-50 43.5q0 21 21 21h339q20 0 20 -21
q0 -26 -49 -42.5t-49 -80.5v-539q0 -153 10 -271t52 -199q41 -81 126 -123t235 -42q264 0 358 208q67 146 67 427v536q0 64 -50 82t-50 44q0 21 21 21h255q20 0 20 -21q0 -26 -49.5 -44t-49.5 -82v-669q-1 -149 -27.5 -272.5t-97.5 -207.5q-127 -147 -397 -147
q-171 0 -291 32t-192 116q-122 141 -122 479z" />
    <glyph glyph-name="udblac" unicode="&#x171;" horiz-adv-x="1239" 
d="M222 1146q-4 -2 -7 -2q-17 0 -17 18q0 8 7 15l375 258q19 13 41 13q74 0 74 -74q0 -53 -47 -70zM538 1146q-4 -2 -7 -2q-17 0 -17 18q0 8 7 15l375 258q18 13 41 13q74 0 74 -74q0 -53 -47 -70zM1040 146q0 -65 50 -82.5t50 -42.5q0 -21 -21 -21h-243q-17 0 -17 13v65
q-55 -21 -97.5 -37.5t-78.5 -28.5q-93 -31 -191 -41q-14 -1 -27 -1q-83 0 -158 56q-122 92 -122 399v361q0 63 -50 81t-50 44q0 21 21 21q66 3 130.5 20.5t129.5 39.5v-567q0 -220 91 -308q58 -57 142 -57q48 0 105 19q21 7 55 20t58 22q5 2 16.5 6t25.5 10v649q0 63 -50 81
t-50 44q0 21 21 21q66 3 130.5 20.5t129.5 39.5v-846z" />
    <glyph glyph-name="Uogon" unicode="&#x172;" horiz-adv-x="1554" 
d="M857 -67q31 -38 31 -70q0 -18 -9 -34q-27 -45 -60 -78q-52 -51 -52 -88q0 -28 30 -48q31 -21 65 -21q44 0 94 34l-15 -68q-78 -27 -135 -27q-9 0 -18 1q-120 9 -124 90v10q0 74 58 122q39 35 74 68q23 21 23 54q0 18 -7 39zM234 588v670q0 64 -50 81.5t-50 43.5
q0 21 21 21h339q20 0 20 -21q0 -26 -49 -42.5t-49 -80.5v-539q0 -153 10 -271t52 -199q41 -81 126 -123t235 -42q264 0 358 208q67 146 67 427v536q0 64 -50 82t-50 44q0 21 21 21h255q20 0 20 -21q0 -26 -49.5 -44t-49.5 -82v-669q-1 -149 -27.5 -272.5t-97.5 -207.5
q-127 -147 -397 -147q-171 0 -291 32t-192 116q-122 141 -122 479z" />
    <glyph glyph-name="uogon" unicode="&#x173;" horiz-adv-x="1239" 
d="M654 -20q31 -38 31 -70q0 -18 -9 -34q-27 -45 -60 -78q-52 -51 -52 -88q0 -28 30 -48q31 -21 65 -21q44 0 94 34l-15 -68q-78 -27 -135 -27q-9 0 -18 1q-120 9 -124 90v10q0 74 58 122q39 35 74 68q23 21 23 54q0 18 -7 39zM1040 146q0 -65 50 -82.5t50 -42.5
q0 -21 -21 -21h-243q-17 0 -17 13v65q-55 -21 -97.5 -37.5t-78.5 -28.5q-93 -31 -191 -41q-14 -1 -27 -1q-83 0 -158 56q-122 92 -122 399v361q0 63 -50 81t-50 44q0 21 21 21q66 3 130.5 20.5t129.5 39.5v-567q0 -220 91 -308q58 -57 142 -57q48 0 105 19q21 7 55 20t58 22
q5 2 16.5 6t25.5 10v649q0 63 -50 81t-50 44q0 21 21 21q66 3 130.5 20.5t129.5 39.5v-846z" />
    <glyph glyph-name="Wcirc" unicode="&#x174;" horiz-adv-x="2048" 
d="M350 1263l424 -1086l244 499l-157 434q-18 51 -32.5 87t-24.5 61q-18 37 -59 67q-24 15 -46.5 24.5t-36.5 19.5q-8 5 -13 14q-1 5 -1 8q0 4 1 7q3 6 12 6h339q9 0 17 -6q10 -7 13 -15q1 -3 1 -5q0 -10 -11 -20q-10 -9 -22.5 -19.5t-18.5 -25.5q-4 -10 -4 -21q0 -14 7 -29
l143 -366l103 210q12 26 12 47q0 18 -8 32q-20 30 -59 78l-50 57l125 94q8 7 17 7q10 0 22 -10l82 -84q26 -27 26 -66q0 -22 -8 -47q-24 -71 -71 -167l-138 -286l228 -585l454 930q12 26 12 47q0 18 -8 32q-20 30 -60 78l-49 57l124 94q8 7 17 7q11 0 23 -10l82 -84
q26 -27 26 -66q0 -22 -8 -47q-24 -71 -71 -167l-490 -1016q-7 -18 -15 -26q-6 -6 -16 -6h-150q-11 0 -16 8q-4 3 -11 23t-10 29l-171 475l-243 -503q-7 -18 -15 -26q-6 -6 -16 -6h-150q-11 0 -16 8q-4 3 -11 23t-10 29l-436 1198q-14 35 -59 67q-24 15 -46.5 24.5
t-36.5 19.5q-8 5 -13 14q-1 5 -1 8q0 4 1 7q3 6 12 6h339q9 0 18 -6q9 -8 12 -15q1 -3 1 -5q0 -10 -11 -20q-10 -9 -22.5 -19.5t-18.5 -25.5q-4 -10 -4 -21q0 -14 7 -29zM733 1556l229 347h117l229 -347h-57l-230 208l-230 -208h-58z" />
    <glyph glyph-name="wcirc" unicode="&#x175;" horiz-adv-x="1647" 
d="M966 805l262 -639l230 551q9 21 9 41q0 35 -28 68l-33 39l89 71q5 5 12 5t15 -7l56 -57q17 -18 17 -44q0 -15 -6 -33q-16 -48 -47 -112l-307 -686q-5 -10 -10 -16q-5 -5 -11 -5h-84q-7 0 -11 6q-3 3 -7.5 15.5t-7.5 18.5l-228 544l-252 -563q-5 -10 -10 -16q-5 -5 -11 -5
h-84q-7 0 -11 6q-3 3 -7.5 15.5t-6.5 18.5l-327 779q-17 38 -49 60q-21 13 -41.5 22t-32.5 18q-7 4 -12 13q-1 4 -1 7t1 6q3 5 11 5h328q7 0 16 -5q8 -7 11 -13q1 -3 1 -5q0 -9 -10 -18q-34 -31 -37 -41q-3 -9 -3 -19q0 -12 6 -25l262 -639l213 510l-52 124q-17 38 -49 60
q-21 13 -41.5 22t-32.5 18q-10 6 -12 13q-1 4 -1 7t1 6q3 5 11 5h328q7 0 16 -5q8 -7 11 -13q1 -3 1 -5q0 -9 -10 -18q-34 -31 -37 -41q-3 -9 -3 -19q0 -12 6 -25zM525 1096l229 347h117l229 -347h-57l-230 209l-231 -209h-57z" />
    <glyph glyph-name="Ycirc" unicode="&#x176;" horiz-adv-x="1366" 
d="M589 677l-349 581q-23 34 -77 67q-28 15 -53.5 24.5t-41.5 19.5q-11 6 -17 14q-4 6 -4 11v4q1 6 10 6h339q10 0 19 -6q11 -7 17 -15q3 -5 3 -10q0 -7 -7 -15q-7 -9 -17 -19.5t-11 -25.5v-5q0 -22 16 -45l337 -534l259 395q29 44 34 76q1 5 1 10q0 30 -24 78l-34 68
l143 62q7 3 13 3q13 0 24 -16l60 -101q11 -19 11 -38q0 -34 -34 -69q-53 -56 -113 -143l-266 -388q-18 -27 -23.5 -76t-5.5 -93v-351q0 -65 50 -82.5t50 -42.5q0 -21 -21 -21h-339q-21 0 -21 21q0 25 50 42.5t50 82.5v427q0 58 -28 104zM355 1556l229 347h117l229 -347h-57
l-230 208l-231 -208h-57z" />
    <glyph glyph-name="ycirc" unicode="&#x177;" horiz-adv-x="1036" 
d="M167 800q-17 38 -49 60q-26 16 -53 27t-33 26q-2 5 -2 9q0 9 13 9h328q19 0 27 -18q2 -4 2 -8q0 -12 -17 -20q-22 -12 -31 -36q-3 -9 -3 -19q0 -12 6 -25l262 -639l230 551q9 21 9 41q0 35 -28 68l-33 39l90 71q6 6 11 6q7 0 15 -8l56 -57q17 -18 17 -44q0 -15 -6 -33
q-16 -48 -47 -112l-495 -1102q-30 -66 -54 -110q-24 -42 -61 -42h-3l-80 3q-19 3 -19 19l-6 114l51 1q67 2 95 59l169 351q-15 0 -20 6q-3 3 -7.5 15.5t-6.5 18.5zM249 1096l229 347h116l229 -347h-57l-230 209l-230 -209h-57z" />
    <glyph glyph-name="Yuml" unicode="&#x178;" horiz-adv-x="1366" 
d="M589 677l-349 581q-23 34 -77 67q-28 15 -53.5 24.5t-41.5 19.5q-11 6 -17 14q-4 6 -4 11v4q1 6 10 6h339q10 0 19 -6q11 -7 17 -15q3 -5 3 -10q0 -7 -7 -15q-7 -9 -17 -19.5t-11 -25.5v-5q0 -22 16 -45l337 -534l259 395q29 44 34 76q1 5 1 10q0 30 -24 78l-34 68
l143 62q7 3 13 3q13 0 24 -16l60 -101q11 -19 11 -38q0 -34 -34 -69q-53 -56 -113 -143l-266 -388q-18 -27 -23.5 -76t-5.5 -93v-351q0 -65 50 -82.5t50 -42.5q0 -21 -21 -21h-339q-21 0 -21 21q0 25 50 42.5t50 82.5v427q0 58 -28 104zM874 1708q0 39 29 69.5t70 30.5
q66 0 92 -62q9 -23 9 -44q0 -36 -29 -66q-36 -35 -72 -35t-71 35q-28 28 -28 72zM521 1708q0 66 61 92q21 9 40 9q37 0 68 -31t31 -68q0 -20 -8 -41q-26 -62 -93 -62q-99 0 -99 101z" />
    <glyph glyph-name="Zacute" unicode="&#x179;" horiz-adv-x="1366" 
d="M479 1612q-4 -2 -7 -2q-17 0 -17 18q0 8 7 15l375 258q19 13 41 13q74 0 74 -74q0 -53 -47 -70zM48 61l972 1251l-608 -1q-60 0 -97 -38t-87 -107q-28 -40 -38 -40q-21 0 -21 21v185q0 54 19 65.5t95 11.5h924q82 0 100 -17q7 -7 7 -18q0 -17 -15 -42l-982 -1234l781 1
q60 0 97 37.5t88 107.5q28 39 37 39q21 0 21 -21v-185q0 -58 -15.5 -67.5t-97.5 -9.5h-1071q-84 0 -113 9q-14 4 -14 16q0 13 18 36z" />
    <glyph glyph-name="zacute" unicode="&#x17a;" horiz-adv-x="1019" 
d="M316 1150q-3 -1 -7 -1q-18 0 -18 17q0 8 7 15l375 258q18 13 41 13q74 0 74 -74q0 -52 -47 -69zM932 880l-638 -801h434q51 2 86 35t78 93q25 34 32 34q18 0 18 -18v-158q0 -49 -13 -57t-84 -8l-685 -1q-72 1 -97 9q-12 3 -12 13q0 11 16 30l632 810h-352q-52 0 -84 -33
t-74 -92q-25 -33 -32 -33q-19 0 -19 17v159q0 45 16 55.5t82 10.5h622q89 0 89 -32q0 -14 -15 -33z" />
    <glyph glyph-name="Zdot" unicode="&#x17b;" horiz-adv-x="1366" 
d="M48 61l972 1251l-608 -1q-60 0 -97 -38t-87 -107q-28 -40 -38 -40q-21 0 -21 21v185q0 54 19 65.5t95 11.5h924q82 0 100 -17q7 -7 7 -18q0 -17 -15 -42l-982 -1234l781 1q60 0 97 37.5t88 107.5q28 39 37 39q21 0 21 -21v-185q0 -58 -15.5 -67.5t-97.5 -9.5h-1071
q-84 0 -113 9q-14 4 -14 16q0 13 18 36zM586 1708q0 39 29 69.5t70 30.5q66 0 92 -62q9 -23 9 -43q0 -37 -30 -67q-35 -35 -71 -35q-35 0 -71 35q-28 29 -28 72z" />
    <glyph glyph-name="zdot" unicode="&#x17c;" horiz-adv-x="1019" 
d="M932 880l-638 -801h434q51 2 86 35t78 93q25 34 32 34q18 0 18 -18v-158q0 -49 -13 -57t-84 -8l-685 -1q-72 1 -97 9q-12 3 -12 13q0 11 16 30l632 810h-352q-52 0 -84 -33t-74 -92q-25 -33 -32 -33q-19 0 -19 17v159q0 45 16 55.5t82 10.5h622q89 0 89 -32
q0 -14 -15 -33zM501 1400q109 0 109 -110q0 -111 -109 -111q-110 0 -110 111q0 110 110 110z" />
    <glyph glyph-name="Zcaron" unicode="&#x17d;" horiz-adv-x="1366" 
d="M48 61l972 1251l-608 -1q-60 0 -97 -38t-87 -107q-28 -40 -38 -40q-21 0 -21 21v185q0 54 19 65.5t95 11.5h924q82 0 100 -17q7 -7 7 -18q0 -17 -15 -42l-982 -1234l781 1q60 0 97 37.5t88 107.5q28 39 37 39q21 0 21 -21v-185q0 -58 -15.5 -67.5t-97.5 -9.5h-1071
q-84 0 -113 9q-14 4 -14 16q0 13 18 36zM460 1903h58l230 -209l230 209h57l-229 -347h-116z" />
    <glyph glyph-name="zcaron" unicode="&#x17e;" horiz-adv-x="1019" 
d="M932 880l-638 -801h434q51 2 86 35t78 93q25 34 32 34q18 0 18 -18v-158q0 -49 -13 -57t-84 -8l-685 -1q-72 1 -97 9q-12 3 -12 13q0 11 16 30l632 810h-352q-52 0 -84 -33t-74 -92q-25 -33 -32 -33q-19 0 -19 17v159q0 45 16 55.5t82 10.5h622q89 0 89 -32
q0 -14 -15 -33zM298 1443h57l230 -209l230 209h58l-230 -347h-116z" />
    <glyph glyph-name="slong" unicode="&#x17f;" horiz-adv-x="625" 
d="M207 845q-38 -1 -114 -5h-5q-19 0 -20 20v2q0 16 19 25q20 9 83 43q15 8 29 14q3 1 8 1v82q0 127 23 207q15 51 43 85q13 17 38 26l255 95q9 3 34 5h4q22 0 41 -12q27 -19 35 -33q6 -12 6 -32q0 -8 -1 -17q-2 -47 -13 -50h-3q-11 0 -32 15q-48 31 -95 31q-28 0 -55 -11
q-84 -36 -94 -137q-4 -38 -4.5 -82t-0.5 -90v-881q0 -65 50 -82.5t50 -42.5q0 -21 -21 -21h-339q-21 0 -21 21q0 25 50 42.5t50 82.5v699z" />
    <glyph glyph-name="bstrok" unicode="&#x180;" horiz-adv-x="1133" 
d="M303 157q39 -38 104 -69.5t117 -33.5q20 0 42 8q80 29 139 52q22 7 39 25q60 63 81 155q16 69 16 137q0 23 -2 45q-10 139 -75 227q-66 89 -164 118q-36 10 -75 10q-12 0 -24 -1q-20 -2 -51 -12q-22 -9 -69.5 -26.5t-77.5 -28.5v-606zM20 1134h120v104q0 59 -47.5 72
t-47.5 37q0 14 19 18l223 40h4q12 0 12 -12v-259h337q13 0 13 -13v-62q0 -13 -13 -13h-337v-227l268 100q28 11 50 11q26 0 41 -1q137 -5 237 -113q99 -108 114 -261q4 -41 4 -79q0 -51 -7 -98q-12 -83 -63 -165q-27 -44 -87 -89q-19 -16 -48 -26q-78 -30 -156.5 -59
t-156.5 -57q-20 -7 -36 -7q-38 2 -74.5 10.5t-76.5 20.5q-21 6 -53 21q-15 7 -26 7q-15 0 -25 -10q-21 -18 -28 -28q-5 -7 -12 -7q-4 0 -8 2q-20 8 -20 19v1036h-120q-12 0 -12 13v62q0 13 12 13z" />
    <glyph glyph-name="uni0181" unicode="&#x181;" horiz-adv-x="1366" 
d="M580 93q93 -12 174 -12q127 0 225 31q158 50 158 295q0 122 -59 191.5t-144.5 100.5t-181.5 31q-97 0 -172 -16v-621zM233 1284q-83 -12 -90 -48.5t-38 -39.5h-4q-30 0 -76 48q-50 51 -51 66l-1 16q0 18 19 20l399 23q34 2 80.5 4.5t80.5 3.5q66 2 132 2h67
q99 -2 198 -14q123 -17 217 -95t94 -201t-91.5 -209.5t-219.5 -86.5q155 0 265 -113.5t110 -272.5q0 -161 -111 -265t-264 -122q-132 -15 -272 -15h-32q-157 2 -318 15q-20 0 -20 20q0 24 48.5 41.5t48.5 80.5v1080q0 73 -57 73h-3q-61 -3 -111 -11zM580 838q72 -11 142 -11
q101 0 198 24q164 40 170 198v9q0 150 -172 208q-100 34 -195 34q-73 0 -143 -20v-442z" />
    <glyph glyph-name="uni0182" unicode="&#x182;" horiz-adv-x="1208" 
d="M375 93q93 -12 174 -12q127 0 225 31q158 50 158 295q0 122 -59 191.5t-144.5 100.5t-181.5 31q-97 0 -172 -16v-621zM20 1290q-20 0 -20 19v38q0 19 20 19h877q19 0 19 -19v-16q0 -15 -48 -70q-46 -52 -74 -52h-3q-31 2 -62 41.5t-70 39.5h-284v-452q151 -24 254 -24
q15 0 29 1h9q107 0 266 -95q83 -51 134.5 -139t51.5 -194q0 -161 -110.5 -265t-264.5 -122q-132 -15 -272 -15h-32q-157 2 -317 15q-21 0 -21 20q0 24 49 41.5t49 80.5v1080q0 39 -32 68h-148z" />
    <glyph glyph-name="uni0183" unicode="&#x183;" horiz-adv-x="1094" 
d="M314 152q39 -37 100.5 -66.5t112.5 -31.5q20 0 42 8q34 12 69 25t70 27q22 7 40 25q59 63 80 155q16 72 16 142q0 20 -1 40q-11 137 -76 227q-96 128 -237 128q-13 0 -26 -1q-22 -3 -51 -12q-22 -9 -65.5 -28t-73.5 -30v-608zM314 1290v-469l259 98q29 11 51 11
q26 0 41 -1q137 -5 237 -113q99 -106 114 -261q4 -41 4 -79q0 -51 -7 -98q-12 -83 -63 -165q-30 -46 -87 -89q-19 -16 -48 -26q-170 -64 -313 -116q-20 -7 -36 -7q-73 3 -151 31q-138 51 -158 95.5t-20 62.5v1202h760q19 0 19 -19v-16q0 -15 -48 -70q-46 -52 -74 -52h-3
q-31 2 -62 41.5t-70 39.5h-345z" />
    <glyph glyph-name="uni0184" unicode="&#x184;" horiz-adv-x="1192" 
d="M375 93q93 -12 174 -12q127 0 225 31q158 50 158 295q0 122 -59 191.5t-144.5 100.5t-181.5 31q-97 0 -172 -16v-621zM200 1010l-186 178l361 178v-528q151 -24 254 -24q15 0 29 1h9q107 0 266 -95q83 -51 134.5 -139t51.5 -194q0 -161 -110.5 -265t-264.5 -122
q-132 -15 -272 -15h-32q-157 2 -317 15q-21 0 -21 20q0 24 49 41.5t49 80.5v868z" />
    <glyph glyph-name="uni0185" unicode="&#x185;" horiz-adv-x="1164" 
d="M396 152q39 -37 100.5 -66.5t112.5 -31.5q20 0 42 8q34 12 69 25t70 27q22 7 39 25q60 63 81 155q16 69 16 137q0 23 -2 45q-10 136 -75 227q-96 128 -237 128q-13 0 -26 -1q-22 -3 -51 -12q-22 -9 -65.5 -28t-73.5 -30v-608zM396 1366v-545l259 98q29 11 51 11
q26 0 40 -1q138 -5 238 -113q99 -108 114 -261q4 -41 4 -79q0 -51 -7 -98q-12 -83 -63 -165q-30 -46 -87 -89q-19 -16 -48 -26q-170 -64 -313 -116q-20 -7 -36 -7q-73 3 -151 31q-138 51 -158 95.5t-20 62.5v85l1 761l-185 178z" />
    <glyph glyph-name="uni0186" unicode="&#x186;" horiz-adv-x="1371" 
d="M543 1405q297 0 528 -191t231 -527q0 -329 -224.5 -526t-534.5 -197q-112 0 -238 24t-239 98l23 204q3 18 21 18h2q12 -3 24 -28q63 -135 157 -179.5t250 -44.5q216 0 385.5 150t169.5 481q0 211 -158.5 408.5t-396.5 209.5q-21 1 -41 1q-128 0 -209 -38
q-94 -45 -157 -180q-13 -26 -24 -27q-3 -1 -6 -1q-14 0 -17 18l-3 24l85 236q93 39 189 53t183 14z" />
    <glyph glyph-name="uni0187" unicode="&#x187;" horiz-adv-x="1540" 
d="M825 -36q-299 0 -529 190.5t-230 526.5q0 328 223.5 526t535.5 198q101 0 214 -20t219 -77q22 85 81 141q12 10 29 25t32 21l57 25q15 6 28 6q40 0 65 -57q11 -27 11 -48q0 -38 -38 -54l-57 -25q-16 -7 -29 -7q-41 0 -65 58q-60 -40 -71 -122q-1 -3 -1.5 -6t-0.5 -6
l-21 -181q-2 -18 -16 -18q-3 0 -6 1q-13 1 -25 27q-63 135 -157 180t-249 45q-217 0 -386.5 -151t-169.5 -481q0 -212 158 -409t398 -209q23 -1 45 -1q124 0 204 38q94 45 157 180q11 25 25 28h2q18 0 20 -18l3 -24l-85 -236q-93 -39 -189 -52.5t-182 -13.5z" />
    <glyph glyph-name="uni0188" unicode="&#x188;" horiz-adv-x="1132" 
d="M548 929h17q133 0 252 -60q21 89 82 144q11 10 28 25.5t32 21.5l57 25q15 6 29 6q40 0 65 -57q11 -27 11 -47q0 -39 -39 -55l-57 -25q-15 -7 -29 -7q-40 0 -64 58h-1q-61 -40 -70 -122q-2 -10 -5 -23l-13 -133q-2 -12 -13 -12h-3q-9 1 -17 19q-41 85 -103 122
q-61 37 -150 37h-24q-106 -6 -165 -61q-51 -49 -76 -121q-25 -71 -25 -158q0 -29 3 -60q10 -145 79 -236q89 -121 203 -138q17 -3 36 -3q86 0 195 58q55 31 74 31q5 0 8 -2q3 -4 3 -9q0 -13 -13 -36q-15 -30 -32 -45q-56 -50 -136.5 -69t-154.5 -19q-180 1 -303 100.5
t-140 285.5q-4 42 -4 82q0 53 7 102q12 85 66 171q57 90 157.5 147.5t232.5 62.5z" />
    <glyph glyph-name="uni0189" unicode="&#x189;" horiz-adv-x="1524" 
d="M1459 769q2 -29 2 -57q0 -164 -61 -295q-71 -153 -200 -252q-217 -168 -530 -172h-79q-56 0 -106 1q-83 1 -113 1q-81 0 -123 2h-18q-40 0 -106 -6q-20 0 -20 22q0 24 48.5 41.5t48.5 80.5v531h-158q-19 0 -19 19v38q0 18 19 18h158v486q0 62 -48.5 79.5t-48.5 42.5
q0 20 20 20q41 -1 83 -1q41 0 83 1q84 3 164 4h62q147 0 294 -7q178 -10 321 -72q134 -60 223 -182.5t104 -342.5zM390 741h306q20 0 20 -18v-38q0 -19 -20 -19h-306l2 -570q123 -23 231 -23q198 0 343 77q137 72 216 219q72 137 72 347v32q-8 295 -193 434
q-126 93 -305 110q-62 5 -125 5q-120 0 -243 -20z" />
    <glyph glyph-name="uni018A" unicode="&#x18a;" horiz-adv-x="1658" 
d="M1581 769q2 -31 2 -60q0 -163 -60 -292q-72 -153 -200 -252q-217 -168 -530 -172h-79q-56 0 -106 1q-83 1 -113 1q-81 0 -123 2h-18q-40 0 -106 -6q-20 0 -20 22q0 24 48.5 41.5t48.5 80.5v1092q0 39 -22.5 58t-43.5 32h-4q-32 0 -62 -14h1q22 -32 22 -58q0 -28 -27 -48
l-51 -37q-19 -14 -38 -14q-33 0 -64 43q-23 32 -23 58q0 28 28 49l50 36q13 9 35 16t37 11q35 11 74 11q9 0 18 -1q36 -1 72 -1q45 0 91 2q82 2 160 3h62q147 0 294 -7q178 -10 321 -72q134 -60 222.5 -182.5t103.5 -342.5zM511 1277l4 -1181q123 -23 231 -23q198 0 343 77
q137 72 215 219q73 138 73 351v28q-8 295 -193 434q-126 93 -305 110q-62 5 -125 5q-120 0 -243 -20z" />
    <glyph glyph-name="uni018B" unicode="&#x18b;" horiz-adv-x="1165" 
d="M744 93v621q-76 16 -172 16q-97 0 -182.5 -31t-144 -100.5t-58.5 -191.5q0 -245 159 -295q97 -31 224 -31q81 0 174 12zM1099 1290h-147q-32 -27 -32 -68v-1080q0 -63 48.5 -80.5t48.5 -41.5q0 -20 -20 -20q-162 -13 -318 -15h-33q-139 0 -271 15q-154 18 -264.5 122
t-110.5 265q0 106 51 194t135 139q158 95 266 95h9q14 -1 29 -1q103 0 254 24v452h-283q-41 0 -72 -39.5t-61 -41.5h-3q-29 0 -74 52q-48 55 -48 70v16q0 19 20 19h876q20 0 20 -19v-38q0 -19 -20 -19z" />
    <glyph glyph-name="uni018C" unicode="&#x18c;" horiz-adv-x="995" 
d="M762 152v608q-30 11 -74 30t-65 28q-32 9 -51 12q-14 1 -27 1q-141 0 -236 -128q-65 -87 -76 -227q-2 -22 -2 -45q0 -68 16 -137q21 -92 81 -155q16 -18 39 -25q35 -14 69.5 -27t69.5 -25q21 -8 43 -8q50 2 111.5 31.5t101.5 66.5zM762 1290h-345q-41 0 -71.5 -39.5
t-61.5 -41.5h-3q-29 0 -74 52q-48 55 -48 70v16q0 19 20 19h759v-1202q0 -18 -20.5 -62.5t-157.5 -95.5q-77 -28 -150 -31q-18 0 -37 7q-78 28 -156 57t-156 59q-29 9 -48 26q-61 45 -87 89q-52 82 -64 165q-7 47 -7 98q0 38 4 79q14 153 114 261q101 108 238 113q15 1 40 1
q21 0 51 -11l260 -98v469z" />
    <glyph glyph-name="uni018E" unicode="&#x18e;" horiz-adv-x="1060" 
d="M739 91v568h-217q-63 0 -85.5 -50t-46.5 -50q-21 0 -21 20v248q0 20 21 20q24 0 43.5 -50.5t82.5 -50.5h223v528h-416q-58 0 -94 -37t-84 -104q-26 -38 -36 -38q-20 0 -20 20v250h903q20 0 20 -20q0 -25 -48.5 -42.5t-48.5 -80.5v-1080q0 -63 48.5 -80.5t48.5 -41.5
q0 -20 -18 -20h-894l-71 250q-2 8 -2 20q0 21 21 21q10 0 27 -22q31 -39 94.5 -108.5t153.5 -69.5h416z" />
    <glyph glyph-name="uni018F" unicode="&#x18f;" horiz-adv-x="1396" 
d="M678 1446q402 0 527 -263q88 -185 88 -407q0 -94 -16 -195q-45 -288 -175.5 -447t-423.5 -159q-305 0 -463.5 144t-158.5 462q0 59 3.5 83t62.5 27h948q0 267 -133.5 460.5t-373.5 193.5q-62 0 -135 -15.5t-175 -69.5q-50 -27 -80 -64q-22 -27 -36 -27q-6 0 -11 5
q-4 4 -4 12q0 18 19 57q18 34 28.5 46t21.5 22q98 87 229.5 111t257.5 24zM1070 581h-847q0 -520 413 -520q201 0 317.5 156.5t116.5 363.5z" />
    <glyph glyph-name="uni0190" unicode="&#x190;" horiz-adv-x="904" 
d="M523 -19h-3q-182 0 -318 113q-164 136 -165 332v12q0 149 75 238q78 92 238 94q-116 42 -185 118t-70 196v6q0 189 122 263q104 63 250 63q27 0 56 -2q108 -9 175.5 -26t141.5 -48q42 -18 45 -53q1 -17 1 -33q0 -43 -10 -72q-16 -41 -31 -41q-7 0 -13 7q-8 9 -16.5 18.5
t-17.5 20.5q-42 44 -106.5 84.5t-169.5 43.5h-9q-109 0 -163 -67q-51 -60 -51 -160v-8q0 -74 34 -120q35 -50 94 -92q107 -76 254 -83l19 -84q-75 13 -160 15h-10q-80 0 -143 -33q-112 -59 -146 -168q-14 -47 -14 -93q0 -63 26 -125q59 -141 193 -193q58 -22 106 -23h16
q113 0 177 55q68 58 110 106q2 2 6 2q7 0 17 -5q17 -10 26 -50q4 -24 4 -52q0 -17 -1 -34q-3 -36 -44 -53q-74 -33 -144 -50.5t-196 -18.5z" />
    <glyph glyph-name="uni0191" unicode="&#x191;" horiz-adv-x="1159" 
d="M249 1257q0 65 -47 82.5t-47 43.5q0 21 21 21h928v-257q0 -21 -21 -21q-10 0 -37 40q-50 69 -86.5 107t-96.5 38h-433v-543h235q42 0 74 37q18 22 29 44t27 22q20 0 20 -21v-254q0 -21 -20 -21q-18 0 -30.5 25.5t-33.5 49.5q-28 28 -66 28h-235v-498q0 -197 -26.5 -293
t-91.5 -164q-90 -92 -202 -122v50q39 24 73 61.5t53 98.5q12 41 12.5 115t0.5 248v1083z" />
    <glyph glyph-name="florin" unicode="&#x192;" horiz-adv-x="722" 
d="M388 12q0 -197 -26.5 -293t-91.5 -164q-91 -94 -203 -122v50q95 57 127 160q12 41 12.5 115t0.5 248v839q-38 -1 -114 -5h-5q-19 0 -20 20v2q0 16 19 25q20 9 83 43q15 8 29 14q3 1 8 1v82q0 141 22 203t44 89q13 17 38 26l255 95q9 3 34 5h4q22 0 41 -12q40 -28 40 -75
v-7q-3 -47 -23 -47q-10 0 -25 12q-39 29 -91 29h-8q-57 -3 -87 -15q-47 -20 -55 -107.5t-8 -195.5v-79l238 5h1q15 0 15 -26q0 -14 -4 -34q-10 -47 -45 -47l-205 1v-835z" />
    <glyph glyph-name="uni0193" unicode="&#x193;" horiz-adv-x="1557" 
d="M1298 1251l-20 -173q-2 -18 -16 -18q-3 0 -6 1q-13 1 -25 27q-63 135 -157 180t-249 45q-217 0 -386.5 -151t-169.5 -481q0 -212 158 -409t398 -209q23 -1 45 -1q111 0 186 30q89 35 151 142v182q0 31 -30 46q-27 14 -77.5 35t-50.5 42q0 20 20 20h391q20 0 20 -20
q0 -25 -48.5 -42.5t-48.5 -80.5v-378q-149 -7 -290 -42q-69 -18 -137 -25t-131 -7q-299 0 -529 190.5t-230 526.5q0 328 223.5 526t535.5 198q111 0 237 -24q103 -20 197 -73q23 81 79 132q12 11 29 26t32 21l57 25q15 6 28 6q40 0 65 -57q11 -27 11 -47q0 -39 -39 -55
l-57 -25q-15 -7 -29 -7q-40 0 -64 58q-60 -40 -71 -122z" />
    <glyph glyph-name="uni0194" unicode="&#x194;" horiz-adv-x="1251" 
d="M787 626q66 -90 113.5 -146.5t75.5 -128.5q17 -47 17 -91q0 -66 -37 -128q-63 -103 -174 -136q-58 -17 -102 -17q-54 2 -97 21q-127 63 -127 186q0 24 5 49q28 160 105 262q9 12 24 30.5t35 42.5l-392 653q-24 36 -75 65q-27 15 -52 24t-40 19q-12 6 -16 14q-4 5 -4 11v3
q1 6 10 6h329q8 0 19 -6q10 -7 16 -14q3 -5 3 -10q0 -7 -6 -15q-27 -30 -28 -44v-5q0 -21 16 -43l327 -519l252 384q28 42 33 74q1 4 1 10q0 29 -23 75l-33 66l138 60q6 4 13 4q13 0 24 -16l58 -98q10 -18 10 -37q0 -33 -32 -68q-52 -54 -110 -138zM682 489
q-103 -124 -103 -265q0 -24 3 -48q15 -129 119 -129q30 0 69 11q95 28 102 86q1 10 1 20q0 49 -28 103q-35 64 -87.5 125t-75.5 97z" />
    <glyph glyph-name="hwair" unicode="&#x195;" horiz-adv-x="1771" 
d="M1647 412q1 -13 1 -26q0 -119 -51 -201q-56 -91 -265 -160q-93 -30 -171 -35q-9 -1 -18 -1q-69 0 -140 34q-95 46 -133 136q-42 94 -42 324v21q0 193 -96 288q-61 60 -144 60q-49 0 -105 -21l-142 -52v-637q0 -63 48.5 -80.5t48.5 -41.5q0 -20 -20 -20h-329q-20 0 -20 20
q0 24 48.5 41.5t48.5 80.5v1080q0 63 -48.5 80.5t-48.5 41.5q0 21 20 21q64 3 126.5 19.5t125.5 38.5v-588l202 77q58 22 116 22q15 0 31 -1q72 -8 127 -38q102 -58 139 -149q36 -90 36 -319v-13q0 -88 19.5 -163t57.5 -106q39 -33 97 -63q27 -14 63 -14q43 0 100 19
q142 49 148 143q7 110 7 222v28q-1 125 -1 251q0 62 -52 79.5t-52 42.5q0 20 21 20q55 2 113 17q35 8 67 18.5t67 22.5v-519z" />
    <glyph glyph-name="uni0196" unicode="&#x196;" horiz-adv-x="553" 
d="M388 6q0 -174 0.5 -248t12.5 -115q18 -61 52 -98.5t74 -61.5v-50q-112 28 -202 122q-66 68 -92 164t-26 293v1245q0 64 -50 82t-50 44q0 21 21 21q66 3 131 20t129 39v-1457z" />
    <glyph glyph-name="uni0197" unicode="&#x197;" horiz-adv-x="742" 
d="M423 1222v-481h273q20 0 20 -18v-38q0 -19 -20 -19h-273v-523q0 -63 48.5 -81t48.5 -42q0 -20 -20 -20h-329q-21 0 -21 20q0 24 49 41.5t49 80.5v524h-204q-19 0 -19 19v38q0 18 19 18h204v481q0 63 -49 80.5t-49 42.5q0 20 21 20h329q20 0 20 -20q0 -25 -48.5 -42.5
t-48.5 -80.5z" />
    <glyph glyph-name="uni0198" unicode="&#x198;" horiz-adv-x="1420" 
d="M423 725l509 481q75 72 128 124q35 34 70 34q18 0 35 -9l102 -50q17 -11 17 -25q0 -5 -2 -11l-51 -143l-68 29q-37 15 -69 15q-51 0 -89 -37l-392 -382l732 -675q21 -20 43.5 -30.5t22.5 -25.5q0 -20 -20 -20h-330q-20 0 -20 20q0 8 11 18q18 15 20 26v1q0 11 -36 43
l-613 566v-532q0 -63 48.5 -80.5t48.5 -41.5q0 -20 -20 -20h-329q-20 0 -20 20q0 24 48.5 41.5t48.5 80.5v1080q0 63 -48.5 80.5t-48.5 41.5q0 21 20 21h329q20 0 20 -21q0 -24 -48.5 -41.5t-48.5 -80.5v-497z" />
    <glyph glyph-name="khook" unicode="&#x199;" horiz-adv-x="1150" 
d="M373 427q0 -83 3 -155t6 -130q3 -63 50 -80.5t47 -41.5q0 -20 -20 -20h-329q-20 0 -20 20q0 24 48.5 41.5t48.5 80.5v768q0 78 6 197.5t40 175.5q8 15 36 25l273 102q13 4 25 4q49 0 88 -68q-1 -54 -8 -73q-3 -9 -11 -9q-10 0 -29 15q-39 29 -92 29h-5q-56 -2 -84 -15
q-57 -27 -65.5 -94.5t-9.5 -138.5q-1 -74 -1 -149q0 -74 1 -149q0 -59 0.5 -117t1.5 -113l348 279q59 48 105 76q26 16 50 16q17 0 33 -9l73 -44q11 -8 11 -17q0 -5 -3 -10l-46 -103l-48 25q-30 15 -57 15q-33 0 -62 -21q-133 -99 -249 -190l339 -330q104 -102 136 -116
q22 -11 46 -11q10 0 20 2q8 2 15 2q19 0 26 -14q2 -5 2 -10q0 -9 -10 -14l-62 -30q-52 -23 -95 -23q-29 0 -54 11q-63 26 -115 77l-370 361q-3 -3 -13 -10.5t-20 -16.5z" />
    <glyph glyph-name="lbar" unicode="&#x19a;" horiz-adv-x="772" 
d="M388 763h328q20 0 20 -20v-39q0 -19 -20 -19h-328v-539q0 -65 50 -82.5t50 -42.5q0 -21 -21 -21h-339q-21 0 -21 21q0 25 50 42.5t50 82.5v539h-161q-21 0 -21 19v39q0 20 21 20h161v494q0 64 -50 82t-50 44q0 21 21 21q66 3 131 20t129 39v-700z" />
    <glyph glyph-name="uni019B" unicode="&#x19b;" horiz-adv-x="1125" 
d="M171 848l280 279l-50 104q-27 54 -90 56l-48 1l6 108v3q0 11 18 14l75 3h2q37 0 59 -40q22 -42 51 -104l37 -84l160 159v-83l-134 -134l405 -899q19 -41 36 -67.5t71 -26.5l49 -1l-5 -108q0 -16 -18 -18l-75 -4h-4q-52 0 -83 76q-32 78 -50 121l-218 521l-247 -604
q-6 -14 -6 -26q0 -8 3 -16q8 -23 29 -34q15 -9 15 -19q0 -4 -1 -7q-8 -18 -25 -18h-311q-12 0 -12 8q0 4 3 10q5 13 30.5 23.5t49.5 26.5q32 21 47 57l308 735q11 30 14 34q4 5 19 5l-83 172l-307 -307v84z" />
    <glyph glyph-name="uni019C" unicode="&#x19c;" horiz-adv-x="1774" 
d="M1408 51q-33 -12 -60.5 -22.5t-53.5 -19.5q-92 -31 -190 -41q-14 -1 -27 -1q-83 0 -158 56q-30 22 -52 55q-58 -22 -101.5 -39t-81.5 -30q-93 -31 -191 -41q-14 -1 -27 -1q-83 0 -158 56q-122 92 -122 399l2 783v53q0 64 -50 82t-50 44q0 20 21 20h243q16 0 16 -12v-187
l-1 -783q0 -220 91 -308q57 -56 140 -56q49 0 107 19q21 6 63 27t63 49q-34 100 -34 269l2 783v53q0 64 -50 82t-50 44q0 20 21 20h338q21 0 21 -20q0 -26 -50 -44t-50 -82v-53l-1 -783q0 -220 91 -308q57 -56 140 -56q49 0 107 19q17 5 42.5 15t49.5 19v86l2 1008v53
q0 64 -50 82t-50 44q0 20 21 20h338q21 0 21 -20q0 -26 -50 -44t-50 -82v-53l-1 -1008v-54q0 -65 49.5 -83t49.5 -43q0 -20 -20 -20q-67 -3 -132 -20t-128 -39v113z" />
    <glyph glyph-name="uni019D" unicode="&#x19d;" horiz-adv-x="1672" 
d="M443 0q-6 -199 -51.5 -364.5t-228.5 -192.5q-10 -4 -14 -4l-64 -13q-8 -1 -16 -1q-53 0 -67 73q-3 15 -3 28q0 59 53 69l64 13q9 2 17 2q51 0 66 -74q12 5 15 7q93 78 110 159t26 318v1202q0 63 -48.5 80.5t-48.5 41.5q0 21 20 21h250l931 -1168v1025q0 63 -48.5 80.5
t-48.5 41.5q0 21 20 21h248q20 0 20 -21q0 -24 -48.5 -41.5t-48.5 -80.5l-1 -1264l-172 42l-931 1156z" />
    <glyph glyph-name="nlrleg" unicode="&#x19e;" horiz-adv-x="1147" 
d="M332 128q0 -60 47.5 -73.5t47.5 -36.5q0 -18 -19 -18h-314q-20 0 -20 18q0 23 47.5 36.5t47.5 73.5v643q0 60 -47.5 73t-47.5 37q0 14 20 18l222 40h4q12 0 12 -12v-103l41 14l201 77q59 23 116 23q64 0 126 -29q116 -54 152 -185q24 -86 26 -232v-916q0 -60 47.5 -73
t47.5 -37q0 -18 -19 -18h-223q-16 0 -16 12v1032q0 148 -50 244q-46 86 -127 107q-25 7 -52 7q-23 0 -47 -5q-27 -5 -51.5 -14.5t-51.5 -19.5l-78 -29l-42 -15v-639z" />
    <glyph glyph-name="uni019F" unicode="&#x19f;" horiz-adv-x="1568" 
d="M785 1320q-285 -1 -405.5 -173t-128.5 -419h1068q-12 229 -137.5 410.5t-396.5 181.5zM1320 641h-1069q12 -249 159 -422t375 -174h5q224 0 370 182q148 184 160 414zM786 1405h10q314 0 530 -192q200 -179 200 -473q0 -27 -2 -55q-20 -334 -231.5 -518.5t-508.5 -200.5
q-22 -1 -43 -1q-272 0 -480 187q-214 190 -214 497q0 18 1 36q12 331 214.5 524t523.5 196z" />
    <glyph glyph-name="Ohorn" unicode="&#x1a0;" horiz-adv-x="1574" 
d="M785 1320q-299 -1 -417 -187.5t-118 -449.5q0 -264 149 -450.5t386 -187.5h5q233 0 382 198t149 437v3q-3 241 -127 439t-409 198zM1549 1461q11 -27 11 -47q0 -39 -39 -55l-57 -25q-15 -7 -29 -7q-40 0 -64 58q-60 -40 -71 -122q-2 -10 -5 -23q114 -94 177 -235
q53 -122 53 -271q0 -24 -1 -49q-20 -334 -231.5 -518.5t-508.5 -200.5q-22 -1 -43 -1q-272 0 -480 187q-214 190 -214 497q0 18 1 36q12 331 214.5 524t523.5 196h12q260 0 453 -131l1 1v2q20 102 86 163q12 11 29 26t32 21l57 25q15 6 28 6q40 0 65 -57z" />
    <glyph glyph-name="ohorn" unicode="&#x1a1;" horiz-adv-x="1158" 
d="M567 936q151 -6 270 -101q22 85 81 139q11 11 28 26t32 21l57 25q15 6 29 6q40 0 65 -57q11 -27 11 -47q0 -39 -39 -55l-57 -25q-15 -7 -29 -7q-40 0 -64 58h-1q-61 -41 -70 -122q142 -146 142 -348q0 -197 -132 -337q-38 -41 -91 -60.5t-105 -39.5q-55 -19 -104 -36
q-36 -14 -72 -14q-13 0 -25 2q-180 23 -303.5 159.5t-123.5 325.5q0 215 161 365q19 17 55.5 30t108.5 40q42 16 94 35q49 17 79 17h3zM588 859q-11 3 -24 3q-18 0 -38 -6q-36 -10 -68 -22q-31 -12 -67.5 -30.5t-45.5 -29.5q-93 -112 -93 -287q0 -19 1 -38q7 -140 70 -249
t153 -150q29 -14 54 -14q11 0 21 3q33 9 78 25q38 14 76.5 32.5t61.5 54.5q73 112 73 267q0 15 -1 31q-8 150 -79.5 265t-171.5 145z" />
    <glyph glyph-name="uni01A2" unicode="&#x1a2;" horiz-adv-x="1734" 
d="M1146 146q0 -65 50 -82.5t50 -42.5q0 -21 -21 -21h-243q-16 0 -16 13v108l-341 -127q-33 -12 -64 -14q-33 0 -51 1q-88 3 -167.5 42.5t-134.5 99.5q-128 137 -145 332q-5 53 -5 104q0 62 8 121q15 104 81 209q34 55 111 114q25 20 61 33q99 37 198.5 74t198.5 75
q24 8 42 8h4q77 -4 179 -36q19 -5 78 -22q18 -6 49.5 -9.5t58.5 -9.5q48 -12 73 -12q12 0 19 3q22 8 73 23q60 17 128 27.5t132 32.5v-1611q0 -65 50 -82.5t50 -43.5q0 -21 -21 -21h-339q-21 0 -21 21q0 26 50 43.5t50 81.5v1363q0 37 -98 83q-44 21 -72 21q-35 0 -45 -31
q-9 -26 -9 -37q0 -2 1 -3v-14q0 -13 -1 -35q0 -12 -0.5 -25t-0.5 -28v-726zM966 960q-51 47 -144 87.5t-158 43.5h-5q-24 0 -49 -9q-45 -17 -89 -33.5t-88 -32.5q-31 -13 -50 -33q-76 -81 -102 -197q-20 -87 -20 -172q0 -29 2 -58q12 -176 96 -289q82 -113 208 -149
q48 -13 95 -13q16 0 31 1q29 2 64 16q15 5 77 25.5t132 43.5v769z" />
    <glyph glyph-name="uni01A3" unicode="&#x1a3;" horiz-adv-x="1399" 
d="M1031 894q59 16 124.5 26t127.5 32v-1362q0 -62 49 -79.5t49 -42.5q0 -20 -21 -20h-329q-20 0 -20 20q0 25 48.5 42.5t48.5 79.5v1120q0 36 -71 81q-33 20 -54 20q-26 0 -36 -30q-9 -25 -9 -36q0 -1 1 -2v-48q-2 -29 -2 -104l1 -462v-129h-147q-14 0 -14 12l-3 74
l-267 -100q-27 -9 -51 -11q-25 0 -40 1q-138 5 -238 112q-101 108 -113 261q-4 42 -4 81q0 50 7 96q11 82 63 165q25 42 86 89q22 17 49 27l156 58l156 58q16 7 37 7q63 -3 150 -32q18 -6 48.5 -9t56.5 -9q47 -12 72 -12q11 0 18 3q21 8 71 23zM577 74q22 2 51 13
q21 7 69 25t78 30l-1 606q-40 36 -104.5 67.5t-115.5 34.5q-21 0 -42 -8q-36 -13 -70.5 -26t-69.5 -25q-25 -10 -39 -26q-60 -64 -81 -155q-16 -69 -16 -137q0 -22 2 -45q11 -139 76 -227q66 -90 163 -117q38 -11 75 -11q13 0 25 1z" />
    <glyph glyph-name="YR" unicode="&#x1a6;" horiz-adv-x="1278" 
d="M361 1222h302q179 0 256 -89q72 -86 72 -186v-11q-4 -107 -76.5 -196.5t-190.5 -90.5l565 -762q28 -22 71 -27q27 -3 27 -21v-2q-2 -21 -20 -21h-259q-9 0 -85.5 104.5t-175.5 244t-198 278t-153 206.5h-135v-506q0 -63 49 -81t49 -42q0 -20 -20 -20h-330q-20 0 -20 20
q0 24 48.5 41.5t48.5 80.5v1080q0 63 -48.5 80.5t-48.5 42.5q0 20 20 20h330q20 0 20 -20q0 -25 -49 -42.5t-49 -80.5zM362 1141l-1 -424h206q112 0 181.5 66t80.5 146q1 12 1 24q0 65 -48 122q-57 66 -196 66h-224z" />
    <glyph glyph-name="Uhorn" unicode="&#x1af;" horiz-adv-x="1706" 
d="M1441 1404q19 -1 19 -21q0 -26 -49.5 -44t-49.5 -82v-669q-1 -149 -27.5 -272.5t-97.5 -207.5q-127 -147 -397 -147q-171 0 -291 32t-192 116q-122 141 -122 479v670q0 64 -50 81.5t-50 43.5q0 21 21 21h339q20 0 20 -21q0 -26 -49 -42.5t-49 -80.5v-539q0 -153 10 -271
t52 -199q41 -81 126 -123t235 -42q264 0 358 208q67 146 67 427v536q0 64 -50 82t-50 44q0 21 21 21h205q23 82 80 134q11 11 28 26t32 21l57 25q15 6 29 6q40 0 65 -57q11 -27 11 -47q0 -39 -39 -55l-57 -25q-15 -7 -29 -7q-40 0 -64 58h-1q-44 -29 -61 -79z" />
    <glyph glyph-name="uhorn" unicode="&#x1b0;" horiz-adv-x="1322" 
d="M1040 932v-786q0 -65 50 -82.5t50 -42.5q0 -21 -21 -21h-243q-17 0 -17 13v65q-55 -21 -97.5 -37.5t-78.5 -28.5q-93 -31 -191 -41q-14 -1 -27 -1q-83 0 -158 56q-122 92 -122 399v361q0 63 -50 81t-50 44q0 21 21 21q66 3 130.5 20.5t129.5 39.5v-567q0 -220 91 -308
q58 -57 142 -57q48 0 105 19q21 7 55 20t58 22q5 2 16.5 6t25.5 10v649q0 63 -50 81t-50 44q0 21 21 21q66 3 131 21q48 13 96 28q23 48 61 83q11 11 28 26t32 21l57 25q15 6 29 6q40 0 65 -57q11 -27 11 -47q0 -39 -39 -55l-57 -25q-15 -7 -29 -7q-40 0 -64 58h-1
q-43 -29 -60 -77z" />
    <glyph glyph-name="Zstrok" unicode="&#x1b5;" horiz-adv-x="1366" 
d="M774 672l-457 -574l781 1q60 0 97 37.5t88 107.5q28 39 37 39q21 0 21 -21v-185q0 -58 -15.5 -67.5t-97.5 -9.5h-1071q-84 0 -113 9q-14 4 -14 16q0 13 18 36l475 611h-377v83h441l433 557l-608 -1q-60 0 -97 -38t-87 -107q-28 -40 -38 -40q-21 0 -21 21v185
q0 54 19 65.5t95 11.5h924q82 0 100 -17q7 -7 7 -18q0 -17 -15 -42l-459 -577h366v-83h-432z" />
    <glyph glyph-name="zstrok" unicode="&#x1b6;" horiz-adv-x="1024" 
d="M442 532l257 329h-352q-52 0 -84 -33t-74 -92q-25 -33 -32 -33q-19 0 -19 17v159q0 45 16 55.5t82 10.5h622q89 0 89 -32q0 -14 -15 -33l-277 -348h354v-83h-420l-295 -370h434q51 2 86 35t78 93q25 34 32 34q18 0 18 -18v-158q0 -49 -13 -57t-84 -8l-685 -1q-72 1 -97 9
q-12 3 -12 13q0 11 16 30l311 398h-378v83h442z" />
    <glyph glyph-name="EZH" unicode="&#x1b7;" horiz-adv-x="1131" 
d="M425 1295q-58 0 -93.5 -37t-83.5 -104q-28 -38 -36 -38q-21 0 -21 20v250h293q257 0 377 -65q118 -64 118 -250v-6q-2 -119 -69.5 -193.5t-181.5 -114.5q157 -3 234 -93q75 -90 75 -242v-4q-4 -192 -163 -326q-133 -111 -313 -111h-3q-123 1 -192 18.5t-141 49.5
q-42 18 -44 52q-1 18 -1 33q0 31 5 51q9 39 26 49q9 6 15 6q5 0 7 -3q41 -47 108 -104q62 -54 173 -54h16q46 1 105 23q130 51 189 189q26 61 26 122q0 46 -14 92q-34 108 -143 166q-62 32 -142 32h-9q-85 -2 -157 -15l19 83q145 7 249 81q57 41 92 90q34 48 34 122v4
q0 99 -50 158q-54 64 -141.5 66.5t-162.5 2.5z" />
    <glyph glyph-name="wynn" unicode="&#x1bf;" horiz-adv-x="1092" 
d="M140 768q0 59 -47.5 72t-47.5 37q0 14 19 18l223 40h4q12 0 12 -12v-104l268 100q28 11 50 11q26 0 41 -1q137 -5 237 -113q99 -108 114 -261q4 -41 4 -79q0 -51 -7 -98q-12 -83 -63 -165q-27 -44 -87 -89q-19 -16 -48 -26q-78 -30 -156.5 -59t-156.5 -57q-20 -7 -36 -7
q-38 2 -74.5 10.5t-76.5 20.5q-6 2 -9 4v-503q0 -13 -10 -13q-3 0 -6 1l-223 40q-19 4 -19 18q0 24 47.5 37t47.5 72v1106zM303 763v-607q39 -37 104.5 -68.5t116.5 -33.5q20 0 42 8q80 29 139 52q22 7 39 25q60 63 81 155q16 69 16 137q0 23 -2 45q-10 139 -75 227
q-66 89 -164 118q-36 10 -75 10q-12 0 -24 -1q-20 -2 -51 -12q-22 -9 -69.5 -26.5t-77.5 -28.5z" />
    <glyph glyph-name="uni01C4" unicode="&#x1c4;" horiz-adv-x="2927" 
d="M1548 61l972 1251l-608 -1q-60 0 -97 -38t-87 -107q-28 -40 -38 -40q-21 0 -21 21v185q0 54 19 65.5t95 11.5h924q82 0 100 -17q7 -7 7 -18q0 -17 -15 -42l-982 -1234l781 1q60 0 97 37.5t88 107.5q28 39 37 39q21 0 21 -21v-185q0 -58 -15.5 -67.5t-97.5 -9.5h-1071
q-84 0 -113 9q-14 4 -14 16q0 13 18 36zM1960 1903h58l230 -209l230 209h57l-229 -347h-116zM1500 791q2 -33 2 -64q0 -166 -61 -298q-74 -158 -206 -260q-224 -172 -546 -176h-80q-58 0 -109 1h-117q-83 0 -126 3h-24q-40 0 -104 -6q-21 0 -21 22q0 25 50 43t50 83v1123
q0 64 -50 81.5t-50 43.5q0 21 21 21q42 -1 85 -1q42 0 86 1q86 3 168 5h59q153 0 308 -8q183 -11 330 -74q138 -61 229 -187.5t106 -352.5zM399 1313v-1213q124 -23 238 -23q44 0 86 3q153 12 271 74q141 74 222 226q74 140 74 356v33q-4 162 -57.5 271.5t-141.5 175.5
q-129 96 -313 113q-63 5 -127 5q-123 0 -252 -21z" />
    <glyph glyph-name="uni01C5" unicode="&#x1c5;" horiz-adv-x="2576" 
d="M2482 880l-638 -801h434q51 2 86 35t78 93q25 34 32 34q18 0 18 -18v-158q0 -49 -13 -57t-84 -8l-685 -1q-72 1 -97 9q-12 3 -12 13q0 11 16 30l632 810h-352q-52 0 -84 -33t-74 -92q-25 -33 -32 -33q-19 0 -19 17v159q0 45 16 55.5t82 10.5h622q89 0 89 -32
q0 -14 -15 -33zM1848 1443h57l230 -209l230 209h58l-230 -347h-116zM1500 791q2 -33 2 -64q0 -166 -61 -298q-74 -158 -206 -260q-224 -172 -546 -176h-80q-58 0 -109 1h-117q-83 0 -126 3h-24q-40 0 -104 -6q-21 0 -21 22q0 25 50 43t50 83v1123q0 64 -50 81.5t-50 43.5
q0 21 21 21q42 -1 85 -1q42 0 86 1q86 3 168 5h59q153 0 308 -8q183 -11 330 -74q138 -61 229 -187.5t106 -352.5zM399 1313v-1213q124 -23 238 -23q44 0 86 3q153 12 271 74q141 74 222 226q74 140 74 356v33q-4 162 -57.5 271.5t-141.5 175.5q-129 96 -313 113
q-63 5 -127 5q-123 0 -252 -21z" />
    <glyph glyph-name="uni01C6" unicode="&#x1c6;" horiz-adv-x="2214" 
d="M2112 880l-638 -801h434q51 2 86 35t78 93q25 34 32 34q18 0 18 -18v-158q0 -49 -13 -57t-84 -8l-685 -1q-72 1 -97 9q-12 3 -12 13q0 11 16 30l632 810h-352q-52 0 -84 -33t-74 -92q-25 -33 -32 -33q-19 0 -19 17v159q0 45 16 55.5t82 10.5h622q89 0 89 -32
q0 -14 -15 -33zM1478 1443h57l230 -209l230 209h58l-230 -347h-116zM817 87l-275 -101q-32 -11 -53 -11h-41q-142 7 -245 116t-117 268q-4 42 -4 81q0 52 7 101q12 85 66 170q26 44 89 92q22 15 49 27q80 30 160.5 60t161.5 60q17 6 32 6h5q64 -3 155 -32q8 -3 10 -4v337
q0 64 -50 82t-50 44q0 21 21 21q66 3 130.5 20t129.5 39v-1317q0 -65 50 -82.5t50 -42.5q0 -21 -21 -21h-243q-17 0 -17 13v74zM817 770q-45 41 -110.5 71.5t-116.5 32.5h-4q-20 0 -40 -8q-36 -13 -71.5 -26.5t-71.5 -26.5q-25 -10 -40 -26q-62 -66 -83 -160
q-17 -71 -17 -141q0 -22 2 -45q11 -144 78 -234q67 -93 168 -121q38 -11 77 -11q12 0 25 1q22 2 52 13q23 8 72 26.5t80 30.5v624z" />
    <glyph glyph-name="uni01C7" unicode="&#x1c7;" horiz-adv-x="1762" 
d="M436 94h427q93 0 157.5 71.5t97.5 111.5q18 22 28 22q21 0 21 -21q0 -13 -2 -21l-73 -257h-916q-21 0 -21 21q0 25 50 42.5t50 82.5v1111q0 64 -50 82t-50 44q0 21 21 21h339q20 0 20 -21q0 -26 -50 -44t-50 -82zM1550 180q0 -197 -26.5 -293t-91.5 -164
q-90 -92 -202 -122v50q39 24 73 61.5t53 98.5q12 41 12.5 115t0.5 248v1084q0 64 -50 82t-50 44q0 20 21 20h339q21 0 21 -20q0 -26 -50 -44t-50 -82v-1078z" />
    <glyph glyph-name="uni01C8" unicode="&#x1c8;" horiz-adv-x="1678" 
d="M1432 1400q110 0 110 -110q0 -111 -110 -111q-109 0 -109 111q0 110 109 110zM1523 12q-1 -197 -27 -293t-91 -164q-93 -95 -203 -122v50q95 57 127 160q12 41 12.5 115t0.5 248v780q0 63 -50 81t-50 44q0 21 21 21q66 3 130.5 20.5t129.5 39.5v-980zM436 94h427
q93 0 157.5 71.5t97.5 111.5q18 22 28 22q21 0 21 -21q0 -13 -2 -21l-73 -257h-916q-21 0 -21 21q0 25 50 42.5t50 82.5v1111q0 64 -50 82t-50 44q0 21 21 21h339q20 0 20 -21q0 -26 -50 -44t-50 -82z" />
    <glyph glyph-name="uni01C9" unicode="&#x1c9;" horiz-adv-x="1163" 
d="M382 146q0 -65 50 -82.5t50 -42.5q0 -21 -20 -21h-339q-21 0 -21 21q0 25 50 42.5t50 82.5v1111q0 64 -50 82t-50 44q0 21 21 21q66 3 130.5 20t128.5 39v-1317zM872 1400q110 0 110 -110q0 -111 -110 -111q-109 0 -109 111q0 110 109 110zM963 12q-1 -197 -27 -293
t-91 -164q-93 -95 -203 -122v50q95 57 127 160q12 41 12.5 115t0.5 248v780q0 63 -50 81t-50 44q0 21 21 21q66 3 130.5 20.5t129.5 39.5v-980z" />
    <glyph glyph-name="uni01CA" unicode="&#x1ca;" horiz-adv-x="2236" 
d="M1369 203v1054q0 64 -49.5 82t-49.5 44q0 21 20 21h255q21 0 21 -21q0 -26 -50 -44t-50 -82l-1 -1300l-177 43l-958 1189v-1043q0 -65 50 -82.5t50 -42.5q0 -21 -21 -21h-254q-21 0 -21 21q0 25 50 42.5t50 82.5v1111q0 64 -50 82t-50 44q0 21 21 21h257zM2030 180
q0 -197 -26.5 -293t-91.5 -164q-90 -92 -202 -122v50q39 24 73 61.5t53 98.5q12 41 12.5 115t0.5 248v1084q0 64 -50 82t-50 44q0 20 21 20h339q21 0 21 -20q0 -26 -50 -44t-50 -82v-1078z" />
    <glyph glyph-name="uni01CB" unicode="&#x1cb;" horiz-adv-x="2236" 
d="M1369 203v1054q0 64 -49.5 82t-49.5 44q0 21 20 21h255q21 0 21 -21q0 -26 -50 -44t-50 -82l-1 -1300l-177 43l-958 1189v-1043q0 -65 50 -82.5t50 -42.5q0 -21 -21 -21h-254q-21 0 -21 21q0 25 50 42.5t50 82.5v1111q0 64 -50 82t-50 44q0 21 21 21h257zM1932 1400
q110 0 110 -110q0 -111 -110 -111q-109 0 -109 111q0 110 109 110zM2023 12q-1 -197 -27 -293t-91 -164q-93 -95 -203 -122v50q95 57 127 160q12 41 12.5 115t0.5 248v780q0 63 -50 81t-50 44q0 21 21 21q66 3 130.5 20.5t129.5 39.5v-980z" />
    <glyph glyph-name="uni01CC" unicode="&#x1cc;" horiz-adv-x="1646" 
d="M362 853q55 21 97 37t80 29q92 32 191 42q12 1 25 1q84 0 160 -57q121 -93 121 -399v-360q0 -65 50 -82.5t50 -42.5q0 -21 -20 -21h-243q-17 0 -17 13v493q0 219 -91 308q-58 57 -142 57q-48 0 -105 -19q-22 -8 -55.5 -20.5t-57.5 -21.5t-43 -16v-648q0 -65 50 -82.5
t50 -42.5q0 -21 -20 -21h-339q-21 0 -21 21q0 25 50 42.5t50 82.5v640q0 63 -50 81t-50 44q0 21 21 21q66 3 130.5 20.5t128.5 39.5v-139zM1392 1400q110 0 110 -110q0 -111 -110 -111q-109 0 -109 111q0 110 109 110zM1483 12q-1 -197 -27 -293t-91 -164q-93 -95 -203 -122
v50q95 57 127 160q12 41 12.5 115t0.5 248v780q0 63 -50 81t-50 44q0 21 21 21q66 3 130.5 20.5t129.5 39.5v-980z" />
    <glyph glyph-name="Ocar" unicode="&#x1d1;" horiz-adv-x="1610" 
d="M808 1358q-307 -1 -429 -193.5t-122 -462.5q0 -271 153 -462.5t398 -193.5h5q239 0 393 204q152 202 152 446v6q-2 249 -130 452.5t-420 203.5zM808 1446h10q323 0 545 -198q207 -185 207 -488q0 -27 -2 -55q-21 -344 -238.5 -533.5t-523.5 -206.5q-23 -1 -46 -1
q-278 0 -492 192q-220 196 -220 513q0 18 1 36q12 341 220.5 539t538.5 202zM562 1903h58l230 -209l230 209h57l-229 -347h-116z" />
    <glyph glyph-name="ocar" unicode="&#x1d2;" horiz-adv-x="1107" 
d="M577 956q195 -8 330 -150.5t138 -340.5v-6q0 -200 -141 -338q-144 -140 -351 -146h-16q-192 0 -331 142q-144 146 -144 345v3q1 219 165 368q19 18 56.5 31t111.5 40q44 16 97 35q50 17 82 17h3zM556 889h-12q-117 0 -201 -113q-89 -120 -89 -295t87.5 -303.5
t212.5 -134.5h14q116 0 200 113q88 119 88 294t-88 303.5t-212 135.5zM268 1443h57l231 -209l230 209h57l-230 -347h-116z" />
    <glyph glyph-name="Ucar" unicode="&#x1d3;" horiz-adv-x="1554" 
d="M234 588v670q0 64 -50 81.5t-50 43.5q0 21 21 21h339q20 0 20 -21q0 -26 -49 -42.5t-49 -80.5v-539q0 -153 10 -271t52 -199q41 -81 126 -123t235 -42q264 0 358 208q67 146 67 427v536q0 64 -50 82t-50 44q0 21 21 21h255q20 0 20 -21q0 -26 -49.5 -44t-49.5 -82v-669
q-1 -149 -27.5 -272.5t-97.5 -207.5q-127 -147 -397 -147q-171 0 -291 32t-192 116q-122 141 -122 479zM562 1903h58l230 -209l230 209h57l-229 -347h-116z" />
    <glyph glyph-name="ucar" unicode="&#x1d4;" horiz-adv-x="1235" 
d="M308 1443h57l231 -209l230 209h57l-230 -347h-116zM985 128q0 -60 48 -73.5t48 -36.5q0 -18 -20 -18h-223q-16 0 -16 12v77l-29 -11l-201 -76q-59 -22 -116 -22q-65 0 -126 28q-117 53 -153 185q-24 88 -25 232v346q0 60 -48 73t-48 37q0 14 20 18l222 40h4q12 0 12 -12
v-502q0 -147 51 -244q43 -86 126 -108q25 -6 51 -6q24 0 49 5q26 4 50.5 13.5t52.5 20.5l78 29l30 11v625q0 60 -47.5 73t-47.5 37q0 14 19 18l223 40h4q12 0 12 -12v-799z" />
    <glyph glyph-name="Uumlmacr" unicode="&#x1d5;" horiz-adv-x="1554" 
d="M234 588v670q0 64 -50 81.5t-50 43.5q0 21 21 21h339q20 0 20 -21q0 -26 -49 -42.5t-49 -80.5v-539q0 -153 10 -271t52 -199q41 -81 126 -123t235 -42q264 0 358 208q67 146 67 427v536q0 64 -50 82t-50 44q0 21 21 21h255q20 0 20 -21q0 -26 -49.5 -44t-49.5 -82v-669
q-1 -149 -27.5 -272.5t-97.5 -207.5q-127 -147 -397 -147q-171 0 -291 32t-192 116q-122 141 -122 479zM497 1704h600q10 0 10 -11v-86q0 -10 -10 -10h-600q-10 0 -10 10v86q0 11 10 11z" />
    <glyph glyph-name="uumlmacr" unicode="&#x1d6;" horiz-adv-x="1235" 
d="M301 1347h599q11 0 11 -10v-86q0 -11 -11 -11h-599q-11 0 -11 11v86q0 10 11 10zM985 128q0 -60 48 -73.5t48 -36.5q0 -18 -20 -18h-223q-16 0 -16 12v77l-29 -11l-201 -76q-59 -22 -116 -22q-65 0 -126 28q-117 53 -153 185q-24 88 -25 232v346q0 60 -48 73t-48 37
q0 14 20 18l222 40h4q12 0 12 -12v-502q0 -147 51 -244q43 -86 126 -108q25 -6 51 -6q24 0 49 5q26 4 50.5 13.5t52.5 20.5l78 29l30 11v625q0 60 -47.5 73t-47.5 37q0 14 19 18l223 40h4q12 0 12 -12v-799z" />
    <glyph glyph-name="AEligmacr" unicode="&#x1e2;" horiz-adv-x="1933" 
d="M1089 94h428q92 0 156.5 71.5t97.5 111.5q18 22 28 22q21 0 21 -21q0 -13 -2 -21l-73 -257h-919q-18 0 -18 21q0 25 50 42.5t50 82.5v343h-505q-48 -86 -96.5 -171.5t-96.5 -170.5q-9 -16 -15 -36q-4 -11 -4 -23q0 -5 1 -10q2 -13 7 -21.5t7 -17.5q1 -3 1 -6q0 -2 -1 -5
l-2 -4t-1 -3q-11 -21 -25 -21h-257q-11 0 -14 6v5q0 4 3 10q8 11 37 26q17 7 35.5 15.5t37.5 20.5q40 26 63 63l701 1190q-39 9 -71 19t-32 28q0 21 21 21h1055v-257q0 -21 -21 -21q-10 0 -37 40q-50 69 -86.5 107t-95.5 38h-428v-543h229q64 0 84 51.5t46 51.5q20 0 20 -21
v-254q0 -21 -20 -21q-26 0 -49 51t-87 51h-223v-583zM911 570l-2 755h-29q-86 -152 -216 -377.5t-215 -377.5h462zM713 1671h600q10 0 10 -10v-86q0 -11 -10 -11h-600q-10 0 -10 11v86q0 10 10 10z" />
    <glyph glyph-name="aeligmacr" unicode="&#x1e3;" horiz-adv-x="1743" 
d="M962 852q120 106 308 108h4q197 0 301 -112q104 -114 104 -297q0 -40 -2.5 -56.5t-40.5 -16.5h-638q4 -162 83 -268.5t198 -130.5q35 -8 71 -8q96 0 198 55q58 31 77 31q5 0 7 -2q3 -3 3 -9q0 -13 -13 -37q-16 -31 -33 -46q-109 -94 -295 -94q-247 2 -382 154l-390 -137
q-32 -11 -53 -11h-41q-142 7 -245 116t-117 268q-4 42 -4 81q0 52 7 101q12 85 66 170q26 44 89 92q22 15 49 27q80 30 160.5 60t161.5 60q17 6 32 6h5q64 -3 155 -32q110 -41 175 -72zM797 769q-41 38 -108 70.5t-119 34.5h-4q-20 0 -40 -8q-36 -13 -71.5 -26.5
t-71.5 -26.5q-25 -10 -40 -26q-62 -66 -83 -160q-17 -71 -17 -141q0 -22 2 -45q11 -144 78 -234q67 -93 168 -121q38 -11 77 -11q12 0 25 1q22 2 52 13q23 8 72 26.5t80 30.5v623zM998 551h528q0 122 -55 224q-54 97 -195 97h-11q-141 -4 -202 -102t-65 -219zM585 1288h600
q10 0 10 -10v-86q0 -11 -10 -11h-600q-10 0 -10 11v86q0 10 10 10z" />
    <glyph glyph-name="Gstrok" unicode="&#x1e4;" horiz-adv-x="1563" 
d="M848 -37q-307 0 -544 196t-237 542q0 337 230.5 540.5t550.5 203.5q115 0 244.5 -25.5t246.5 -100.5l-24 -210q-4 -18 -20 -18h-3q-12 1 -26 28q-65 139 -161.5 185t-256.5 46q-223 0 -397 -155t-174 -494q0 -218 162.5 -421t408.5 -215q24 -1 46 -1q114 0 192 30
q93 36 156 146v49h-267v87h267v52q-2 31 -32 48q-27 14 -79 35.5t-52 42.5t21 21h401q21 0 21 -21q0 -26 -50 -44t-50 -82v-52h258v-87h-258v-250q-154 -7 -297 -43q-72 -19 -142 -26t-135 -7z" />
    <glyph glyph-name="gstrok" unicode="&#x1e5;" horiz-adv-x="1214" 
d="M950 -114h195q12 0 12 -13v-62q0 -14 -12 -14h-195q-4 -141 -49 -177t-126 -66l-268 -100q-30 -11 -51 -11q-25 0 -40 1q-137 5 -238 113q-51 54 -84 137q47 18 89 34t84 31q17 -49 47 -89q65 -89 163 -118q36 -10 75 -10q13 0 25 1q25 3 51 12q19 9 69 26q47 24 62.5 95
t15.5 93v28h-251q-12 0 -12 14v62q0 13 12 13h251l-1 199l-267 -99q-27 -9 -51 -11q-25 0 -40 1q-138 5 -238 112q-101 108 -113 261q-4 42 -4 81q0 50 7 96q11 82 63 165q25 42 86 89q22 17 49 27l156 58l156 58q16 7 37 7q63 -3 150 -32q6 -2 10 -3q21 -9 53 -20
q12 -4 23 -4q16 0 27 9q21 18 29 29q5 7 13 7q4 0 9 -2q21 -8 21 -20v-1008zM774 141v53h1v554q-40 36 -105 67.5t-116 34.5q-21 0 -42 -8q-36 -13 -70.5 -26t-69.5 -25q-25 -10 -39 -26q-60 -64 -81 -155q-16 -69 -16 -137q0 -22 2 -45q11 -139 76 -227q66 -90 163 -117
q38 -11 75 -11q13 0 25 1q22 2 51 13q21 7 68.5 24.5t77.5 29.5z" />
    <glyph glyph-name="Gcaron" unicode="&#x1e6;" horiz-adv-x="1563" 
d="M562 1903h58l230 -209l230 209h57l-229 -347h-116zM848 -37q-307 0 -544 196t-237 542q0 337 230.5 540.5t550.5 203.5q115 0 244.5 -25.5t246.5 -100.5l-24 -210q-4 -18 -20 -18h-3q-12 1 -26 28q-65 139 -161.5 185t-256.5 46q-223 0 -397 -155t-174 -494
q0 -218 162.5 -421t408.5 -215q24 -1 46 -1q114 0 192 30q93 36 156 146v188q-2 31 -32 48q-27 14 -79 35.5t-52 42.5t21 21h401q21 0 21 -21q0 -26 -50 -44t-50 -82v-389q-154 -7 -297 -43q-72 -19 -142 -26t-135 -7z" />
    </font>
</defs>
</svg>
