<?xml version="1.0" standalone="no"?>
<!DOCTYPE svg PUBLIC "-//W3C//DTD SVG 1.1//EN" "http://www.w3.org/Graphics/SVG/1.1/DTD/svg11.dtd" >
<svg xmlns="http://www.w3.org/2000/svg" xmlns:xlink="http://www.w3.org/1999/xlink" version="1.1">
<metadata>
Created by FontForge 20161013 at Sat Sep 17 15:07:10 2011
 By ,,,
Copyright (c) 2010 by Font Diner, Inc DBA Sideshow. All rights reserved.
</metadata>
<defs>
<font id="Chewy" horiz-adv-x="538" >
  <font-face 
    font-family="Chewy"
    font-weight="400"
    font-stretch="normal"
    units-per-em="1024"
    panose-1="2 0 0 0 0 0 0 0 0 0"
    ascent="819"
    descent="-205"
    x-height="555"
    cap-height="742"
    bbox="-169 -310 1143 1003"
    underline-thickness="51"
    underline-position="-152"
    unicode-range="U+0020-FB02"
  />
<missing-glyph horiz-adv-x="0" 
 />
    <glyph glyph-name=".notdef" horiz-adv-x="0" 
 />
    <glyph glyph-name=".null" horiz-adv-x="0" 
 />
    <glyph glyph-name="nonmarkingreturn" horiz-adv-x="341" 
 />
    <glyph glyph-name="space" unicode=" " horiz-adv-x="241" 
 />
    <glyph glyph-name="exclam" unicode="!" horiz-adv-x="248" 
d="M217 419q0 -16 -2 -43.5t-6 -59t-11.5 -64t-17.5 -59t-24 -43t-32 -16.5q-22 0 -37.5 21.5t-26 55t-16.5 74.5t-9 80.5t-3.5 73t-0.5 51.5v45.5t2.5 58.5t8 61.5t16.5 55.5t29 40.5t45 15.5q24 0 39.5 -20.5t25 -53t14 -72.5t6 -78.5t1 -71.5t-0.5 -52zM198 39
q0 -17 -8 -29.5t-21 -21t-28 -12.5t-30 -4q-22 0 -42 11.5t-20 36.5q0 15 8.5 27.5t21.5 21.5t28.5 14t29.5 5q23 0 42 -11.5t19 -37.5z" />
    <glyph glyph-name="quotedbl" unicode="&#x22;" horiz-adv-x="291" 
d="M260 647q0 -15 -2 -46.5t-7 -63t-15 -55t-25 -23.5q-9 0 -16 12t-12.5 30t-9.5 40t-6.5 43t-3.5 37.5t-1 24.5q0 10 1 27t5.5 33.5t13 28t24.5 11.5q18 0 28.5 -10.5t16.5 -26t7.5 -32.5t1.5 -30zM129 647q0 -15 -2 -46.5t-7 -63t-15 -55t-25 -23.5q-9 0 -16 12t-12.5 30
t-9.5 40t-6.5 43t-3.5 37.5t-1 24.5q0 10 1 27t5.5 33.5t13 28t24.5 11.5q18 0 28.5 -10.5t16.5 -26t7.5 -32.5t1.5 -30z" />
    <glyph glyph-name="numbersign" unicode="#" horiz-adv-x="530" 
d="M530 489q0 -8 -15 -14t-34.5 -10t-37 -6t-23.5 -3q-8 -36 -17 -72.5t-17 -72.5q5 -1 20 -4.5t31 -8.5t28.5 -12t12.5 -15t-15 -14t-34.5 -10t-37.5 -6t-24 -3q-3 -11 -12 -42.5t-21 -66t-25.5 -61t-26.5 -26.5q-9 0 -14 7.5t-8 18t-3.5 21t-0.5 16.5q0 32 4.5 63.5
t9.5 63.5q-16 -1 -32 -1h-32q-3 -10 -11.5 -40.5t-20.5 -63.5t-25.5 -59t-26.5 -26q-9 0 -14 7.5t-8 18t-3.5 21t-0.5 16.5q0 34 4.5 66t11.5 63q-7 1 -25.5 3t-37.5 6t-34 10.5t-15 17.5q0 14 16.5 22.5t38 13.5t42.5 6.5t31 2.5q8 35 15 69.5t16 68.5q-7 0 -24.5 2t-36 6
t-32.5 10.5t-14 16.5q0 14 16.5 22.5t38 13.5t43 7t30.5 3q2 7 6.5 23t11 36t15 41t17 38.5t18 29t18.5 11.5t13.5 -7t7 -17t3 -19.5t0.5 -15.5q0 -29 -4 -57t-10 -57q17 1 32.5 0.5t32.5 -1.5q3 10 11.5 38.5t20.5 58.5t26 53.5t27 23.5q9 0 13.5 -7t7 -17t3 -19.5
t0.5 -15.5q0 -32 -5 -63t-11 -63q6 -1 21.5 -4t32 -8.5t29.5 -12.5t13 -15zM317 451q-14 -1 -28.5 -0.5t-29.5 0.5q-8 -32 -15.5 -64t-15.5 -64h31t30 -1q7 32 13.5 64.5t14.5 64.5z" />
    <glyph glyph-name="dollar" unicode="$" horiz-adv-x="486" 
d="M461 554q0 -14 -7.5 -23.5t-19 -16t-24.5 -9.5t-24 -3q-17 0 -33 5.5t-32.5 11.5t-35.5 11.5t-42 5.5q-9 0 -21.5 -2t-23.5 -7t-18.5 -13t-7.5 -20q0 -18 21 -32.5t53 -30t68.5 -34t68.5 -42.5t53 -55.5t21 -74.5q0 -37 -13 -59t-34 -35.5t-48 -21t-54 -14.5
q-5 -1 -5.5 -11.5t-0.5 -25t-0.5 -31t-5.5 -30.5t-16 -23.5t-32 -9.5q-19 0 -35.5 12.5t-16.5 32.5q0 8 0.5 15.5t0.5 15.5v11t-1 17t-3 16t-5 8q-19 5 -47 11t-53.5 16.5t-43.5 26.5t-18 41q0 23 17.5 38t39.5 15q19 0 37.5 -6t38 -13t40 -13t42.5 -6q8 0 20 1.5t23 6
t19 12t8 19.5q0 11 -10 20t-23.5 16t-27.5 12.5t-22 8.5q-32 13 -67 30.5t-64.5 41t-49 54.5t-19.5 72q0 36 14.5 65.5t39 50.5t56 33.5t66.5 14.5q4 23 7 46.5t9 46.5q9 31 44 31q14 0 27 -7.5t13 -22.5q0 -20 -3 -43t-5 -43q21 -5 44 -12.5t44.5 -18t40 -25.5t29.5 -35
q3 -6 5 -11.5t2 -11.5z" />
    <glyph glyph-name="percent" unicode="%" horiz-adv-x="825" 
d="M626 -3q-39 0 -67.5 22.5t-47 56t-27.5 71t-9 67.5q0 31 11.5 73t33.5 79t53.5 63t71.5 26q45 0 74 -22.5t46 -56.5t23.5 -73t6.5 -72q0 -35 -9.5 -76t-30 -76t-52.5 -58.5t-77 -23.5zM585 537q-18 -29 -36.5 -57t-35 -53t-30 -44.5t-21.5 -31.5q-7 -10 -21 -30.5
t-32.5 -47.5t-41 -58.5t-45.5 -62.5q-23 -30 -45.5 -59.5t-43.5 -52.5t-38 -37t-27 -14q-14 0 -17.5 10.5t-3.5 15.5q0 19 13.5 50.5t34 69t46.5 78.5t50.5 78.5t46 69t33.5 49.5q8 12 28.5 42t47.5 68t57.5 79t59.5 74.5t53 55.5t38 22q13 0 16.5 -9t3.5 -15
q0 -13 -7.5 -33.5t-20 -46t-29 -54t-33.5 -56.5zM172 290q-39 0 -67.5 23t-47 56t-28 70.5t-9.5 67.5q0 32 11.5 73.5t34 79t54 63t72.5 25.5q45 0 73.5 -22.5t45.5 -56t23.5 -73t6.5 -72.5q0 -35 -9.5 -76t-30 -76t-52.5 -58.5t-77 -23.5zM651 340q-18 0 -32.5 -14
t-24.5 -34t-15 -42.5t-5 -40.5q0 -14 3 -32t10 -34t17.5 -27.5t24.5 -11.5q18 0 32 14t24 34t15 42.5t5 39.5q0 13 -3.5 31.5t-10 35t-17 28t-23.5 11.5zM197 634q-18 0 -32.5 -14t-24.5 -34t-15 -42.5t-5 -40.5q0 -14 3.5 -32t10 -34.5t17 -28t25.5 -11.5q18 0 32 14
t23.5 34t14.5 42.5t5 39.5q0 14 -3 32.5t-10 35t-17 28t-24 11.5z" />
    <glyph glyph-name="ampersand" unicode="&#x26;" horiz-adv-x="712" 
d="M584 141q9 -12 22 -30t25 -38.5t20.5 -40t8.5 -32.5q0 -24 -17 -38.5t-38 -14.5q-15 0 -35 12.5t-40 29.5t-38.5 34.5t-28.5 28.5q-46 -30 -106 -46t-114 -16q-47 0 -85.5 14t-67 40.5t-44 65t-15.5 86.5q0 38 15.5 72.5t39.5 64t53 54t57 44.5q-14 18 -25 39.5
t-18.5 44.5t-11.5 46.5t-4 44.5q0 36 13 67.5t35.5 55t54 36.5t68.5 13q34 0 66 -14t57 -37.5t40.5 -55t15.5 -67.5q0 -28 -9.5 -52.5t-25 -46.5t-34 -42t-36.5 -38q29 -44 59.5 -86t61.5 -85q12 12 27 25.5t32 25t35 19t36 7.5q25 0 36.5 -13.5t11.5 -36.5q0 -21 -10 -41.5
t-24.5 -38.5t-31.5 -33.5t-31 -26.5zM301 642q-20 0 -28 -13t-8 -35q0 -25 10.5 -45.5t29.5 -36.5q20 17 35.5 40t15.5 48q0 17 -18.5 29.5t-36.5 12.5zM268 323q-32 -23 -50.5 -54.5t-18.5 -70.5q0 -66 68 -66q28 0 58.5 10.5t55.5 26.5q-16 21 -30 39t-27 36t-26.5 37
t-29.5 42z" />
    <glyph glyph-name="quotesingle" unicode="'" horiz-adv-x="160" 
d="M129 647q0 -15 -2 -46.5t-7 -63t-15 -55t-25 -23.5q-9 0 -16 12t-12.5 30t-9.5 40t-6.5 43t-3.5 37.5t-1 24.5q0 10 1 27t5.5 33.5t13 28t24.5 11.5q18 0 28.5 -10.5t16.5 -26t7.5 -32.5t1.5 -30z" />
    <glyph glyph-name="parenleft" unicode="(" horiz-adv-x="272" 
d="M252 746q0 -14 -11 -33.5t-17 -33.5q-32 -75 -55 -157.5t-23 -165.5t23.5 -169t58.5 -161q7 -14 15.5 -27.5t8.5 -28.5q0 -14 -9.5 -22t-23.5 -8q-18 0 -33.5 10t-28.5 25t-23.5 32t-17.5 31q-37 72 -56 154t-19 163q0 40 7 82t19 83.5t27.5 80.5t33.5 75q6 12 15 29
t21 32.5t26 26.5t30 11q13 0 22.5 -8t9.5 -21z" />
    <glyph glyph-name="parenright" unicode=")" horiz-adv-x="275" 
d="M234 365v-6q0 -39 -7 -81t-19.5 -83t-28.5 -81t-34 -74q-6 -12 -15.5 -29t-21.5 -32t-26 -26t-30 -11q-11 0 -21.5 8t-10.5 20q0 15 11 34t17 34q32 75 56.5 158.5t24.5 167.5q0 83 -22 167t-57 160q-6 14 -14.5 27.5t-8.5 27.5t9.5 22.5t22.5 8.5q18 0 34 -10t29 -25
t23 -32t17 -31q35 -72 53.5 -153t18.5 -161z" />
    <glyph glyph-name="asterisk" unicode="*" horiz-adv-x="470" 
d="M439 631q0 -11 -15 -26.5t-35 -31.5t-39 -29t-27 -19q9 -6 28 -21t38.5 -32.5t34.5 -35t15 -29.5q0 -8 -5 -10t-11 -2q-13 0 -33 6t-40.5 15t-39.5 18t-31 15q0 -9 -1.5 -34.5t-5.5 -53t-11.5 -49t-20.5 -21.5q-16 0 -25.5 20.5t-14.5 47t-7 52t-3 36.5
q-12 -6 -29.5 -15.5t-36.5 -17.5t-37.5 -14t-32.5 -6q-9 0 -16 4.5t-7 15.5q0 13 14.5 29.5t33.5 32t38 28.5t29 19q-9 6 -28 18.5t-37.5 27.5t-33 30.5t-14.5 27.5q0 11 8.5 15t17.5 4q13 0 31 -5t36 -12t34.5 -15t28.5 -14q1 8 4.5 34t10 53.5t15.5 49t21 21.5
q10 0 17 -21.5t11 -49.5t6.5 -53.5t3.5 -33.5q13 6 30.5 13.5t37 13.5t38 10.5t33.5 4.5q5 0 13.5 -1.5t8.5 -9.5z" />
    <glyph glyph-name="plus" unicode="+" horiz-adv-x="481" 
d="M461 265q0 -12 -12 -18.5t-28 -10t-32 -4.5t-23 -1q-20 -1 -39.5 -1.5t-38.5 -0.5q-1 -7 -1.5 -21.5t-2 -33t-4 -38t-7.5 -35.5t-11.5 -27t-16.5 -12q-14 -1 -23.5 21t-15.5 50.5t-9 55.5l-4 36q-11 0 -39 0.5t-58 3t-53 9t-23 19.5q0 18 24 27t55 12.5t60.5 3t40.5 -0.5
v19q0 10 1.5 35t7 51t15 45.5t26.5 19.5q14 0 22 -23t11.5 -52t4 -56.5t0.5 -36.5q19 -1 38 -1.5t38 -1.5q7 0 23 -1t32.5 -4.5t29 -10t12.5 -17.5z" />
    <glyph glyph-name="comma" unicode="," horiz-adv-x="184" 
d="M174 53q0 -16 -8.5 -41t-21 -49t-28.5 -41t-31 -17q-20 0 -20 20q0 12 5 23t11 21.5t11 21t5 20.5q-15 -10 -32 -10q-23 0 -39 18t-16 40q0 32 21 51.5t53 19.5q36 0 63 -19t27 -58z" />
    <glyph glyph-name="hyphen" unicode="-" horiz-adv-x="460" 
d="M439 255q0 -9 -14.5 -14.5t-37.5 -9.5t-50.5 -6.5t-52.5 -3.5t-45 -1.5t-28 -0.5q-10 0 -41 0.5t-64.5 3.5t-59.5 10.5t-26 21.5q0 17 28.5 27t66 14.5t74 5.5t53.5 1q10 0 28.5 -1t40 -3.5t44.5 -6.5t41.5 -9t30.5 -12t12 -16z" />
    <glyph glyph-name="period" unicode="." horiz-adv-x="185" 
d="M175 48q0 -13 -6 -23.5t-15.5 -17.5t-21 -11t-23.5 -4q-15 0 -32.5 5.5t-32 15.5t-24.5 23.5t-10 30.5q0 27 23 40.5t47 13.5q15 0 31.5 -5t31 -14.5t23.5 -23t9 -30.5z" />
    <glyph glyph-name="slash" unicode="/" horiz-adv-x="391" 
d="M381 716q0 -30 -15 -77.5t-36 -98.5t-43 -98t-36 -76q-7 -14 -22 -45.5t-35 -71.5t-42.5 -82.5t-44.5 -77.5t-41.5 -57.5t-32.5 -22.5q-14 0 -18.5 15t-4.5 25q0 32 16 81t38 102t45 102.5t37 81.5q6 14 20.5 44t33.5 67t41 76.5t43.5 72t41.5 53.5t34 21t17.5 -12.5
t3.5 -21.5z" />
    <glyph glyph-name="zero" unicode="0" horiz-adv-x="632" 
d="M611 347q0 -68 -20.5 -136.5t-60 -124t-98.5 -90t-136 -34.5q-65 0 -117 34t-88.5 86.5t-56 115t-19.5 120.5q0 41 11 86t31.5 89t49 84.5t64 71t77 48.5t86.5 18q77 0 130 -33t85.5 -85.5t47 -118t14.5 -131.5zM466 352q0 25 -7 59t-21.5 64t-37.5 51t-55 21
q-39 0 -69.5 -24.5t-51.5 -60.5t-32.5 -77t-11.5 -74q0 -26 7 -59t22 -62.5t38.5 -50t55.5 -20.5q39 0 69.5 24.5t51 60t31.5 76t11 72.5z" />
    <glyph glyph-name="one" unicode="1" horiz-adv-x="276" 
d="M220 493q0 -31 -1 -62l-2 -62q-2 -51 -2 -101.5t-3 -101.5q-1 -17 -2 -45.5t-7.5 -56t-20.5 -48t-39 -20.5q-24 0 -39 16.5t-23.5 42t-11.5 57t-3.5 62t0.5 56.5t1 40q0 68 0.5 136t1.5 136q-20 17 -31.5 41.5t-11.5 50.5q0 41 24.5 70t67.5 29q37 0 58 -28t30.5 -67
t11.5 -79.5t2 -65.5z" />
    <glyph glyph-name="two" unicode="2" horiz-adv-x="519" 
d="M499 92q0 -29 -19 -47t-46 -23q-30 -7 -68 -12.5t-77.5 -9.5t-77.5 -6t-69 -2q-8 0 -22.5 0.5t-30 2t-29 4.5t-20.5 8q-7 6 -12.5 16.5t-9.5 23t-6 24.5t-2 21q0 14 3.5 25.5t13.5 21.5q12 13 25 25.5t25 24.5q14 15 37 39.5t49.5 55t53 64t48.5 65.5t35.5 60t13.5 48
q0 19 -11 31.5t-30 12.5q-21 0 -39 -15t-36 -32.5t-38.5 -32.5t-46.5 -15q-31 0 -48.5 18t-17.5 48q0 44 19.5 81.5t51.5 64.5t72 42.5t82 15.5q43 0 80 -10t64 -31t42.5 -53.5t15.5 -78.5q0 -36 -12.5 -75.5t-33 -79.5t-47 -79.5t-54.5 -75.5t-56 -67t-51 -54q49 6 103 12
t104 6q29 0 50.5 -15.5t21.5 -46.5z" />
    <glyph glyph-name="three" unicode="3" horiz-adv-x="499" 
d="M468 232q0 -56 -22 -103t-59 -81.5t-86 -54t-102 -19.5q-20 0 -49.5 3.5t-56.5 13.5t-46 27t-19 44q0 29 15.5 45t44.5 16t56.5 -5.5t56.5 -5.5q22 0 44 7t39.5 20.5t28.5 32t11 42.5q0 13 -5 32t-14 35.5t-22 28.5t-29 12q-15 0 -29.5 -5t-30 -10.5t-31.5 -10.5t-33 -5
q-22 0 -32.5 18.5t-10.5 36.5q0 42 38 57q20 8 50.5 21.5t59.5 31.5t50 40.5t21 48.5q0 20 -16 39t-38 19t-41 -12t-37.5 -26.5t-38 -26.5t-41.5 -12q-11 0 -23 4.5t-22 12t-16.5 18.5t-6.5 23q0 14 6 29t14 26q34 52 90.5 78t116.5 26q92 0 146.5 -50t54.5 -141
q0 -54 -22.5 -95t-76.5 -59q29 -6 50.5 -22.5t35.5 -39.5t20.5 -50t6.5 -54z" />
    <glyph glyph-name="four" unicode="4" horiz-adv-x="544" 
d="M564 403q0 -26 -14 -41t-38 -20q-47 -11 -92 -15q-4 -39 -7 -77.5t-6 -76.5q-2 -18 -4 -49.5t-9.5 -61.5t-22 -52.5t-39.5 -22.5q-24 0 -37.5 21t-20.5 49t-9 56.5t-2 44.5q0 41 2.5 80.5t4.5 79.5q-26 -2 -52 -2.5t-52 -0.5q-12 0 -30 0.5t-36 2.5t-33.5 7.5t-22.5 16.5
q-5 7 -7.5 24.5t-4 38t-1.5 39.5v28v45t2 45q1 22 2.5 52.5t10 58.5t25 48t47.5 20q19 0 30.5 -18t18 -42t8.5 -48.5t2 -37.5q0 -30 -2.5 -60t-7.5 -59q29 2 57.5 3.5t57.5 3.5q1 10 3.5 40.5t6.5 65t8 64.5t8 39q8 19 25 31.5t39 12.5q26 0 37 -16t15 -38q5 -28 6 -58
t1 -59q0 -43 -3 -86q22 -2 43 -5t43 -8q24 -5 37 -22t13 -41z" />
    <glyph glyph-name="five" unicode="5" horiz-adv-x="526" 
d="M506 234q0 -59 -18.5 -105t-52 -78t-80 -49t-103.5 -17q-31 0 -68.5 11t-70.5 32t-55 50.5t-22 65.5q0 26 16 42t42 16q25 0 42 -10t33.5 -22.5t37.5 -22.5t54 -10q40 0 65 28t25 67q0 37 -17 64t-56 27q-18 0 -32.5 -4t-28 -9t-27 -9.5t-27.5 -6.5q-11 -2 -28 1.5
t-34.5 10.5t-31.5 16.5t-18 20.5q-3 9 -5.5 39t-4 65t-2 66.5t-0.5 43.5v26t1.5 37.5t3.5 36.5t7 23q6 9 29.5 17t55 15t68.5 12.5t70.5 9.5t61 6t39.5 2q14 0 29.5 -3.5t28 -11t20.5 -19.5t8 -29q0 -27 -19 -43t-42 -24q-18 -6 -44 -10t-53 -7.5t-52.5 -5.5t-44.5 -3
l2 -145q20 4 40 6.5t41 2.5q106 0 161.5 -55t55.5 -161z" />
    <glyph glyph-name="six" unicode="6" horiz-adv-x="541" 
d="M515 218q0 -58 -20.5 -102t-55.5 -73t-82.5 -44t-102.5 -15q-62 0 -107.5 25t-74.5 66.5t-43 94t-14 108.5q0 40 14 90t39 101.5t58 100t71 86.5t79.5 61t81.5 23q23 0 41.5 -12.5t18.5 -37.5q0 -14 -12 -30t-28.5 -31.5t-34 -30t-27.5 -26.5q-23 -26 -42.5 -55.5
t-33.5 -61.5q15 5 31 7.5t32 2.5q51 0 90.5 -21t66.5 -55.5t41 -79t14 -91.5zM375 217q0 53 -32.5 81.5t-83.5 28.5q-17 0 -39 -5t-38 -15q-6 -4 -7 -15t-1 -18q0 -23 6.5 -48.5t19.5 -47.5t33 -36t47 -14q41 0 68 23t27 66z" />
    <glyph glyph-name="seven" unicode="7" horiz-adv-x="535" 
d="M524 660q0 -14 -7.5 -39t-19 -56.5t-26 -66t-28.5 -66l-26 -58.5t-19 -42q-13 -30 -33 -75.5t-43 -93t-47.5 -89t-45.5 -64.5t-50 -23q-22 0 -37 14t-15 37q0 31 13.5 74t32 87.5t38.5 86.5t34 72q26 59 52 116.5t52 116.5q-14 2 -29.5 3t-29.5 1q-51 0 -104.5 -7.5
t-103.5 -17.5q-5 -1 -15 -1q-23 0 -37.5 14t-14.5 37q0 24 16.5 42t43 30.5t59 20.5t64 13t58.5 6.5t43 1.5q17 0 49.5 -2.5t67 -8t63.5 -15t39 -24.5q5 -6 5.5 -11.5t0.5 -12.5z" />
    <glyph glyph-name="eight" unicode="8" horiz-adv-x="606" 
d="M586 185q0 -62 -30 -107t-76.5 -74t-103 -43t-110.5 -14q-40 0 -85 11.5t-83 35t-63 59.5t-25 84q0 39 13 73.5t35.5 64t52 52.5t62.5 40q-25 8 -48.5 23t-41.5 35t-29 45t-11 53q0 55 29.5 95.5t74.5 66.5t97.5 38.5t98.5 12.5q35 0 71 -8t65.5 -26t48.5 -47t19 -70
q0 -64 -36.5 -112.5t-90.5 -78.5q35 -9 65.5 -29t53 -47.5t35 -61.5t12.5 -71zM395 562q0 12 -7.5 19t-18 11.5t-22 6t-19.5 1.5q-12 0 -31 -3t-37 -10t-31 -18.5t-13 -27.5q0 -17 9 -29.5t22.5 -21.5t29 -13.5t29.5 -5.5q10 6 25 15.5t29.5 22t24.5 26t10 27.5zM422 179
q0 24 -11 43.5t-28.5 33.5t-39 23.5t-42.5 13.5q-20 -9 -42 -22.5t-40.5 -31.5t-30.5 -39.5t-12 -46.5q0 -18 13 -30t31 -19t37.5 -10t32.5 -3q20 0 43.5 4.5t43 15t32.5 27.5t13 41z" />
    <glyph glyph-name="nine" unicode="9" horiz-adv-x="532" 
d="M517 462q0 -40 -13.5 -92t-37 -106t-55 -106t-69 -93t-78 -66t-81.5 -25q-22 0 -39.5 13.5t-17.5 37.5q0 11 3.5 18.5t9.5 15.5q22 28 45 51.5t45.5 47t43.5 49.5t38 60q-33 -9 -68 -9q-50 0 -90.5 15.5t-68.5 44.5t-43 69.5t-15 90.5q0 56 17.5 103t50 81.5t78 54
t102.5 19.5q60 0 105.5 -21.5t76 -59t46 -87.5t15.5 -106zM384 480q0 24 -6.5 47t-19.5 41t-32.5 29t-46.5 11q-54 0 -85.5 -33.5t-31.5 -87.5q0 -52 28.5 -79.5t79.5 -27.5q53 0 83.5 23t30.5 77z" />
    <glyph glyph-name="colon" unicode=":" horiz-adv-x="196" 
d="M175 293q0 -13 -6 -23.5t-15.5 -17.5t-21 -11t-23.5 -4q-15 0 -32.5 5.5t-32 15t-24.5 23t-10 30.5q0 28 23 41.5t47 13.5q15 0 31.5 -5t31 -14.5t23.5 -23t9 -30.5zM175 48q0 -13 -6 -23.5t-15.5 -17.5t-21 -11t-23.5 -4q-15 0 -32.5 5.5t-32 15.5t-24.5 23.5t-10 30.5
q0 27 23 40.5t47 13.5q15 0 31.5 -5t31 -14.5t23.5 -23t9 -30.5z" />
    <glyph glyph-name="semicolon" unicode=";" horiz-adv-x="196" 
d="M175 293q0 -13 -6 -23.5t-15.5 -17.5t-21 -11t-23.5 -4q-15 0 -32.5 5.5t-32 15t-24.5 23t-10 30.5q0 28 23 41.5t47 13.5q15 0 31.5 -5t31 -14.5t23.5 -23t9 -30.5zM175 53q0 -16 -8 -41t-21 -49t-28.5 -41t-30.5 -17q-20 0 -20 20q0 12 5 23t11 21.5t11 21t4 20.5
q-6 -5 -14.5 -7.5t-16.5 -2.5q-23 0 -39 18t-16 40q0 32 21 51.5t52 19.5q36 0 63 -19t27 -58z" />
    <glyph glyph-name="less" unicode="&#x3c;" horiz-adv-x="332" 
d="M301 59q0 -11 -4 -19.5t-18 -8.5q-16 0 -42 11t-56 29.5t-60.5 41.5t-55 47t-40 46.5t-15.5 39.5q0 14 15.5 37t40 49t54.5 52.5t59 48t54 35t39 13.5t20.5 -9t6.5 -20q0 -12 -11.5 -30t-30 -38t-41 -41.5t-44.5 -41t-40.5 -35.5t-28.5 -25l31.5 -21t41.5 -28.5
t44.5 -32.5t40 -34.5t29 -34.5t11.5 -31z" />
    <glyph glyph-name="equal" unicode="=" horiz-adv-x="492" 
d="M450 330q0 -9 -15 -14.5t-37.5 -9.5t-50 -6.5t-53 -3.5t-45.5 -1.5t-28 -0.5h-23.5t-37.5 1t-44 3t-41.5 6t-31 10t-12.5 16q0 11 13.5 19t34 13t46.5 8t50.5 4.5t45 2t31.5 0.5q15 0 47.5 -2.5t66 -8t59 -14.5t25.5 -22zM461 184q0 -8 -15 -14t-37.5 -10t-50 -6.5
t-53 -3.5t-45.5 -1.5t-28 -0.5h-23.5t-37.5 1t-44 3t-41.5 6t-31 10.5t-12.5 15.5q0 11 13.5 19t34 13t46.5 8t50.5 4.5t45 2t31.5 0.5q15 0 47.5 -2.5t66 -8t59 -14.5t25.5 -22z" />
    <glyph glyph-name="greater" unicode="&#x3e;" horiz-adv-x="323" 
d="M312 259q0 -14 -15.5 -37t-39.5 -49.5t-54 -53t-59 -48t-54.5 -35t-39.5 -13.5q-13 0 -19 9t-6 20q0 18 24.5 48t57 61.5t64.5 59.5l48 42q-18 12 -51.5 34.5t-66 48t-57 51.5t-24.5 47q0 12 4.5 21t18.5 9q16 0 42 -11t56 -29.5t60.5 -41.5t55 -47t40 -46.5t15.5 -39.5z
" />
    <glyph glyph-name="question" unicode="?" horiz-adv-x="500" 
d="M479 538q0 -32 -16.5 -59.5t-41 -51t-54 -41t-54.5 -27.5q6 -48 6 -99q0 -17 -0.5 -38t-6 -39.5t-18 -31.5t-35.5 -13q-40 0 -54 40q-5 15 -8 40.5t-4.5 53t-1.5 53.5v43q0 14 1.5 33t9.5 31q9 13 30 25.5t43.5 26.5t39.5 31t17 40q0 17 -8 31t-20.5 23.5t-28 15
t-31.5 5.5q-38 0 -60 -12.5t-37.5 -27t-29 -27t-34.5 -12.5q-24 0 -43.5 17t-19.5 41q0 39 23 66.5t57 44t72 24t68 7.5q40 0 82.5 -17.5t77 -46.5t57 -68t22.5 -81zM331 52q0 -17 -8.5 -29t-21 -20t-28 -12t-29.5 -4q-23 0 -42.5 11t-19.5 36q0 16 8.5 28.5t21.5 21.5
t28.5 13.5t29.5 4.5q23 0 42 -12t19 -38z" />
    <glyph glyph-name="at" unicode="@" horiz-adv-x="724" 
d="M709 417q0 -44 -12 -89.5t-36 -82t-61 -60t-87 -23.5q-38 0 -65.5 27t-32.5 64q-1 -20 -10.5 -35t-24 -24.5t-32.5 -14.5t-36 -5q-32 0 -57.5 14t-43.5 37t-28 52t-10 58q0 46 18 88t48.5 74.5t71.5 52t88 19.5q21 0 46.5 -4.5t43.5 -13.5q14 -7 16.5 -24.5t2.5 -29.5
q0 -29 -5 -59t-11 -59q-5 -21 -9.5 -41.5t-4.5 -41.5q0 -17 6 -30.5t26 -13.5q25 0 44 20.5t31.5 49.5t18.5 60t6 52q0 50 -19 87.5t-51 62t-74.5 37t-90.5 12.5q-60 0 -107.5 -21.5t-80.5 -58.5t-51 -87.5t-18 -107.5q0 -59 18 -108t51.5 -84.5t81.5 -55.5t108 -20
q31 0 59.5 6t55 13.5t51 13.5t48.5 6q13 0 29.5 -6t16.5 -23q0 -19 -17 -34t-43 -26.5t-58 -19t-63 -12.5t-56 -7.5t-38 -2.5q-30 0 -64.5 3.5t-63.5 14.5q-56 21 -97 56.5t-68 81t-40.5 99.5t-13.5 112q0 76 27.5 144t76.5 119.5t116 81.5t146 30q72 0 132 -23t103.5 -65.5
t68 -102t24.5 -132.5zM428 474q-5 1 -10.5 1h-10.5q-18 0 -37 -4t-36 -12t-31 -20t-22 -28q-9 -18 -15 -37t-6 -38q0 -12 4 -25.5t11.5 -24.5t18 -18t24.5 -7q12 0 26 8t26.5 19t21.5 24t11 23q8 35 13.5 69.5t11.5 69.5z" />
    <glyph glyph-name="A" unicode="A" horiz-adv-x="570" 
d="M535 148q0 -20 -3.5 -48t-13.5 -53.5t-27 -43t-45 -17.5q-37 0 -55.5 27t-26.5 64.5t-9.5 76.5t-2.5 62q-72 -12 -142 -21q-2 -23 -8.5 -57t-20 -65.5t-35 -54.5t-52.5 -23q-24 0 -37.5 17.5t-20.5 41.5t-8.5 49.5t-1.5 42.5q0 57 9 112.5t21 110.5q6 29 16 68t24.5 80.5
t34 82t44.5 72.5t57 52t71 20q38 0 66 -17t49 -45t35 -63.5t23.5 -72t16 -71.5t11.5 -62q13 -65 22 -131.5t9 -133.5zM342 391q0 12 -1.5 39.5t-6.5 55t-15.5 49t-28.5 21.5q-10 0 -19 -13.5t-16 -34t-12.5 -45.5t-9.5 -48t-6 -41.5t-3 -26.5q60 5 118 15v29z" />
    <glyph glyph-name="B" unicode="B" horiz-adv-x="487" 
d="M472 591q0 -69 -34 -125.5t-91 -94.5q30 -6 52 -20.5t36.5 -35.5t22 -47.5t7.5 -55.5q0 -57 -26.5 -99.5t-68.5 -70t-93.5 -41t-102.5 -13.5q-28 0 -56 4t-53 14q-9 3 -15 24.5t-9.5 52.5t-5.5 67t-3 69t-1 58v35v70.5t2 70.5q0 9 0.5 28t1 42.5t2 49.5t4 48.5t7 38.5
t10.5 20q23 15 51 28.5t58 23.5t60 16t57 6q37 0 71.5 -10.5t60 -31.5t41 -51.5t15.5 -69.5zM306 538q0 17 -10.5 25t-27.5 8q-14 0 -29.5 -6t-26.5 -16q-3 -3 -5.5 -17t-4 -31.5t-2 -33t-0.5 -20.5v-6.5t0.5 -9.5t1.5 -9t3 -4q17 0 35 12.5t32.5 31t24 39.5t9.5 37z
M302 249q0 17 -12 24t-27 7q-14 0 -29.5 -6.5t-25.5 -15.5q-3 -2 -4.5 -10t-2 -17.5t-1 -18t-0.5 -11.5v-8t0.5 -12.5t2 -12t3.5 -5.5q14 0 31 8t31.5 20t24 27.5t9.5 30.5z" />
    <glyph glyph-name="C" unicode="C" horiz-adv-x="482" 
d="M472 509q0 -19 -4.5 -40t-14.5 -39t-26 -30t-39 -12q-35 0 -52 12.5t-24 31.5t-7.5 40.5t-1.5 40.5t-6.5 31.5t-23.5 12.5q-20 0 -35 -14.5t-26 -37.5t-18.5 -52t-12 -57.5t-6.5 -54t-2 -41.5q0 -21 1.5 -50t9.5 -55.5t24 -45t46 -18.5q20 0 39 5t38 11.5t38.5 11.5
t39.5 5q23 0 38 -18.5t15 -41.5q0 -32 -20 -59.5t-49.5 -48.5t-64 -33t-62.5 -12q-72 0 -122 32.5t-81 84t-44.5 115t-13.5 126.5q0 42 8 92t24 100.5t40.5 97.5t57.5 83t74.5 58t91.5 22q49 0 82 -24.5t53 -62t28 -82t8 -84.5z" />
    <glyph glyph-name="D" unicode="D" horiz-adv-x="560" 
d="M545 450q0 -88 -36 -169.5t-96.5 -144.5t-141 -100.5t-169.5 -37.5h-2q-18 0 -29.5 16.5t-19.5 41.5t-12 56t-6 60.5t-2 53v35.5q0 34 1 67.5t3 67.5q0 11 1.5 32.5t3.5 48.5t5 56.5t6.5 55t7 45t8.5 26.5q13 22 40 39t58.5 28t64 16.5t56.5 5.5q66 0 114.5 -24.5t81 -66
t48 -95.5t15.5 -113zM377 421q0 22 -8 45t-22.5 42t-35 30.5t-45.5 11.5q-21 0 -43 -10q-5 -3 -9 -18.5t-6.5 -37.5t-4.5 -48t-2.5 -49.5t-1 -41.5t-0.5 -24v-29.5t1.5 -38.5t3.5 -33t7 -14q30 0 59.5 23.5t53.5 57.5t38.5 71t14.5 63z" />
    <glyph glyph-name="E" unicode="E" horiz-adv-x="481" 
d="M466 157q0 -19 -10 -37q-10 -17 -47 -40t-82 -43.5t-87 -35t-62 -14.5q-14 0 -33 6.5t-38 16.5t-34.5 23t-22.5 25q-4 7 -7.5 28t-6 49t-4.5 59.5t-3.5 60t-2 50.5t-0.5 32q0 37 2.5 85t9.5 96.5t20.5 93t36.5 75.5q7 9 28 19t49.5 19t61.5 17t63.5 13.5t55.5 9t38 3.5
q15 0 28.5 -6.5t23 -17.5t15 -24.5t5.5 -28.5q0 -13 -3.5 -22t-10.5 -20q-10 -13 -42 -31t-69.5 -35.5t-72 -31.5t-48.5 -20q-4 -23 -8.5 -46.5t-6.5 -47.5q31 16 70 30t74 14q71 0 71 -70q0 -17 -6.5 -30t-17 -23t-24 -17.5t-26.5 -14.5q-32 -17 -67 -29.5t-70 -24.5
q-2 -8 -4 -17.5t-2 -18.5q0 -14 2 -28l4 -28q12 4 38.5 13t55.5 18t56 15.5t40 6.5q15 0 28 -6.5t22 -17t14.5 -24.5t5.5 -28z" />
    <glyph glyph-name="F" unicode="F" horiz-adv-x="413" 
d="M438 722q0 -38 -26 -69t-63.5 -55.5t-78.5 -42.5t-71 -30q0 -21 -1 -43t-3 -44q32 16 72 30t76 14q29 0 47.5 -12t18.5 -42q0 -33 -23.5 -59t-56.5 -46t-69 -34t-61 -22q0 -33 -1 -65.5t-3 -64.5q-1 -16 -3.5 -40t-10 -46.5t-21.5 -39t-36 -16.5q-21 0 -36 20.5
t-25.5 52.5t-17 71.5t-10 77.5t-4 70t-0.5 49q0 13 0.5 38.5t1 56.5t2 65t3.5 64.5t5.5 54t8.5 34.5q11 22 52.5 43.5t92.5 38t99.5 27t74.5 10.5q12 0 23.5 -1.5t21.5 -6.5t16 -14t6 -24z" />
    <glyph glyph-name="G" unicode="G" horiz-adv-x="533" 
d="M478 240q-9 -45 -28.5 -93.5t-50 -88.5t-72.5 -65.5t-96 -25.5q-40 0 -72 16t-58 43t-45 62t-31.5 72.5t-18.5 74.5t-6 69q0 45 8.5 96.5t25.5 102t43 97t61.5 82t80 57t99.5 21.5q35 0 65 -13.5t52 -36t34.5 -53.5t12.5 -65v-9q0 -18 -1.5 -44.5t-9.5 -50.5t-24 -41.5
t-45 -17.5q-35 0 -53 16t-18 53q0 14 1 28t1 28q0 21 -7 32.5t-29 11.5q-25 0 -45 -16t-35 -42t-26 -59t-18 -66.5t-10 -64.5t-3 -53q0 -18 2 -41.5t8.5 -45t19.5 -36.5t34 -15q36 0 58 22.5t30 57.5q-14 2 -27.5 6.5t-25 13t-18.5 21t-7 29.5q0 31 21 48.5t49.5 26.5
t58.5 11.5t48 2.5q13 0 38 -2t49.5 -8.5t42.5 -18.5t18 -31q0 -38 -20.5 -65.5t-60.5 -32.5z" />
    <glyph glyph-name="H" unicode="H" horiz-adv-x="546" 
d="M510 572q0 -83 -4 -166.5t-10 -166.5q-1 -15 -2 -40.5t-4 -55t-8 -59.5t-15.5 -54.5t-27 -40t-40.5 -15.5q-21 0 -37.5 9t-27.5 23.5t-17 33t-6 38.5q0 33 2 66.5t6 66.5l-99 -10q-3 -26 -6.5 -62.5t-14 -70t-31.5 -57.5t-58 -24q-23 0 -38 10.5t-24 27t-13 36.5t-4 38
q0 60 5 119.5t7 119.5q2 63 1.5 126.5t1.5 127.5q1 21 1.5 49t7 52.5t22 41.5t46.5 17q43 0 65 -22.5t31 -56t9 -71v-67.5q0 -40 -2 -78.5t-4 -77.5l107 16q1 49 2 97t4 96q1 23 2 49t8 48t23.5 36.5t49.5 14.5q28 0 45.5 -16t28 -39t14.5 -49t4 -47v-13z" />
    <glyph glyph-name="I" unicode="I" horiz-adv-x="360" 
d="M376 679q0 -19 -8.5 -34t-22.5 -25.5t-31 -17.5t-33 -10q-2 -113 -8.5 -218t-20.5 -217h6q16 0 31.5 -3.5t28 -12t20 -21t7.5 -30.5q0 -23 -14.5 -40t-38 -29t-52.5 -20t-58 -12.5t-55 -6.5t-42 -2q-12 0 -29.5 1t-33 6t-26.5 15t-11 27q0 21 8.5 37.5t22.5 29.5t31.5 21
t35.5 12q7 55 13 109.5t8 110.5q2 57 4 112.5t4 111.5q-7 -1 -13 -1.5t-11 -0.5q-14 0 -30 3t-30 10.5t-23.5 18.5t-9.5 28q0 34 28.5 56t68 34t80.5 16.5t66 4.5q14 0 37 -2t45.5 -9t39 -19t16.5 -33z" />
    <glyph glyph-name="J" unicode="J" horiz-adv-x="436" 
d="M406 372v-25q-1 -37 -4 -79t-10 -83t-21 -78.5t-38 -66.5t-59 -46t-85 -17q-54 0 -94.5 23t-67.5 60.5t-40 84t-13 94.5q0 21 4.5 47t15.5 48.5t28.5 38t44.5 15.5q29 0 43.5 -16t21 -39.5t8.5 -51t5 -51t10.5 -39.5t25.5 -16q21 0 33 18t17.5 42.5t7 49.5t1.5 39
q0 56 -9.5 109.5t-23.5 108.5q-7 28 -15 57t-8 58q0 34 18 55.5t53 21.5q26 0 41 -10.5t30 -30.5q23 -31 38.5 -71t24.5 -83t13 -86.5t4 -80.5z" />
    <glyph glyph-name="K" unicode="K" 
d="M532 44q0 -28 -14 -45.5t-43 -17.5q-23 0 -42.5 14t-36 34.5t-29 43.5t-20.5 40q-21 42 -41.5 84t-40.5 85l-60 -37q1 -29 -3 -58t-6 -58q-2 -20 -6.5 -43.5t-14.5 -44t-27 -34.5t-42 -14q-23 0 -38 9.5t-24.5 24.5t-13.5 34t-4 39v8q0 59 6.5 118.5t8.5 119.5
q2 79 5 158t8 158q1 18 6 35t15 30.5t24.5 21.5t34.5 8q31 0 46.5 -22t21.5 -53t5.5 -64t-0.5 -55q0 -63 -3 -126q29 24 56.5 55t48.5 63q13 19 30 52.5t37 65t44 55t51 23.5q29 0 42.5 -16.5t13.5 -43.5q0 -40 -12.5 -82t-33.5 -82.5t-47.5 -77t-53.5 -63.5
q28 -47 53 -94.5t50 -95.5q9 -16 17.5 -35t15.5 -39t11.5 -40t4.5 -38z" />
    <glyph glyph-name="L" unicode="L" horiz-adv-x="502" 
d="M507 138q0 -25 -20.5 -47t-53 -40t-72.5 -31.5t-79 -23t-73.5 -14.5t-54.5 -5q-19 0 -40.5 3.5t-35.5 15.5q-8 6 -14 27t-11.5 50t-9.5 62.5t-6.5 65.5t-4 59t-1.5 42q0 25 1.5 60.5t4.5 76t8 82.5t11.5 79.5t16 67.5t20.5 47q19 27 48 27q20 0 34 -13.5t22.5 -35t13 -48
t6.5 -52.5t2 -48v-35q0 -78 -3.5 -154.5t-3.5 -154.5v-39q45 14 98 26.5t101 12.5q17 0 34.5 -2t31 -8.5t22 -19t8.5 -33.5z" />
    <glyph glyph-name="M" unicode="M" horiz-adv-x="763" 
d="M714 109q-3 -26 -8.5 -51t-13.5 -44.5t-20.5 -31t-28.5 -11.5t-29 24.5t-24.5 65t-21 91.5t-17 103.5t-12.5 102.5t-8 87q-6 -38 -14 -85t-19 -95.5t-24 -95t-28 -83t-32 -58.5t-36 -22q-17 0 -34 23t-33 60.5t-30 83.5t-26 92.5t-21 88t-14 69.5q0 -21 -0.5 -46.5
t-0.5 -36.5q0 -5 -0.5 -33t-3.5 -67t-9 -83.5t-17.5 -82.5t-28.5 -64t-42 -28q-20 9 -33.5 30.5t-22.5 50.5t-14 62t-8 64.5t-3.5 58.5t-0.5 44q0 30 3.5 75.5t11.5 95.5t21 100t31.5 89.5t43 64.5t56.5 25q15 0 32 -17t34 -44.5t33 -61.5t30.5 -68.5t25.5 -66t18 -53.5
q8 24 20 56t26.5 66.5t32 68t36.5 60t38.5 43t39.5 16.5q35 0 60 -26t42 -67.5t27 -93t15.5 -102t7 -94.5t1.5 -71v-30t-0.5 -43t-2.5 -51t-5 -54z" />
    <glyph glyph-name="N" unicode="N" horiz-adv-x="648" 
d="M612 429q0 -22 -2 -62.5t-7.5 -89t-15.5 -99t-26 -91.5t-39 -67.5t-55 -26.5q-30 0 -55 17.5t-45 43t-35 54.5t-25 53q-21 51 -42 100.5t-40 100.5v-28q0 -43 -0.5 -85.5t-6.5 -84.5q-2 -17 -4.5 -39.5t-7.5 -44.5t-14.5 -41t-25.5 -28q-9 -5 -16.5 -6t-16.5 -3h-3
q-23 0 -39 15.5t-27 40t-17.5 55t-10 60t-4.5 54.5t-1 40q0 23 2 67.5t8.5 98.5t17 111t27.5 103.5t41 76t56 29.5q31 0 55.5 -24t43.5 -57t32 -69t22 -60q17 -47 33 -93.5t31 -94.5q1 -2 4 -11t7 -20q4 -12 10 -27q0 13 -0.5 18.5t-0.5 10v11.5v22q-1 33 -1.5 66t-0.5 65
q0 14 0.5 39t3 53.5t7.5 57.5t14.5 52.5t24 38.5t35.5 15q25 0 43 -19t30 -48.5t19 -66t11 -71.5t5 -65t1 -47z" />
    <glyph glyph-name="O" unicode="O" 
d="M259 -33q-61 0 -106 30.5t-74.5 82t-44 119.5t-14.5 143q0 70 15.5 142t47.5 130t81 95t117 37q66 0 110.5 -35.5t71 -92t38 -126.5t11.5 -140q0 -78 -15.5 -147.5t-47 -122.5t-79 -84t-111.5 -31zM271 525q-19 0 -32.5 -15t-22.5 -39.5t-13 -55t-4 -61.5q0 -35 4.5 -70
t13.5 -63t22.5 -45t32.5 -17q22 0 35 22t20.5 53t10 64t2.5 55q0 27 -3.5 57t-11.5 55.5t-21 42.5t-33 17z" />
    <glyph glyph-name="P" unicode="P" horiz-adv-x="488" 
d="M494 536q0 -54 -23.5 -106t-62.5 -93.5t-89 -68t-103 -29.5q-1 -18 -1.5 -45.5t-3.5 -57.5t-8.5 -60t-16 -54t-27 -39t-40.5 -15q-28 0 -44.5 18.5t-25 44.5t-11.5 54.5t-4 48.5q-2 29 -2.5 57t-0.5 57v48.5t0.5 81t1.5 95t3 92t4.5 72.5t6.5 35q1 1 6 4.5t11 7t11 6.5
t7 4q46 26 101 45t109 19q46 0 83.5 -18.5t64 -49t40.5 -71t14 -83.5zM321 513q0 20 -9.5 35t-31.5 15q-19 0 -38 -7.5t-35 -15.5q3 -35 5.5 -68t0.5 -68q16 8 35 18.5t35 23.5t27 29.5t11 37.5z" />
    <glyph glyph-name="Q" unicode="Q" horiz-adv-x="545" 
d="M286 162q-10 17 -17 35t-9 34.5t2.5 31t18.5 24.5q11 8 25 6t30 -12q2 20 3 39t1 33q0 27 -3.5 57t-11.5 55.5t-21 42.5t-33 17q-19 0 -32.5 -15t-22.5 -39.5t-13 -55t-4 -61.5q0 -35 4.5 -70t13.5 -63t22.5 -45t32.5 -17q8 0 14 3zM478 121q10 -14 22 -35.5t18.5 -44
t5.5 -42.5t-17 -32q-12 -9 -26 -7.5t-28.5 9t-29.5 20t-29 27.5q-27 -23 -60.5 -36t-74.5 -13q-61 0 -106 30.5t-74.5 82t-44 119.5t-14.5 143q0 70 15.5 142t47.5 130t81 95t117 37q66 0 110.5 -35.5t71 -92t38 -126.5t11.5 -140q0 -62 -10 -118.5t-30 -104.5z" />
    <glyph glyph-name="R" unicode="R" horiz-adv-x="523" 
d="M518 526q0 -69 -32 -124t-85 -97q16 -24 33 -56t30.5 -67.5t22 -71t8.5 -65.5q0 -32 -15.5 -57.5t-52.5 -25.5q-31 0 -53.5 30t-40 71.5t-32 84.5t-27.5 69q-18 -6 -35 -13.5t-35 -14.5q-1 -22 -3.5 -60.5t-11 -76.5t-25.5 -66t-47 -28q-33 0 -51 27t-25.5 64t-8.5 75.5
t-1 60.5q0 47 2 92.5t2 92.5q0 43 -1.5 86t-1.5 87v25.5t1.5 32t3.5 31.5t7 24q10 21 45.5 40t78 33.5t83 23t60.5 8.5q51 0 90 -19t65 -51.5t39 -75t13 -89.5zM333 512q0 26 -12 39.5t-39 13.5q-20 0 -40.5 -7t-37.5 -16q4 -79 3 -157q21 7 43 18t40.5 27t30.5 36t12 46z
" />
    <glyph glyph-name="S" unicode="S" horiz-adv-x="362" 
d="M357 702q0 -23 -14.5 -40t-34.5 -28q-18 -11 -37 -23.5t-35 -28t-26 -34.5t-10 -43q0 -21 10 -38t24.5 -33.5t32 -34t32 -39t24.5 -48.5t10 -63q0 -25 -10.5 -56.5t-28.5 -63.5t-42.5 -62t-52 -53.5t-57.5 -38t-58 -14.5q-31 0 -55 17t-24 51q0 23 11 42.5t27 37.5
t35.5 35t35.5 34t27 35.5t11 39.5q0 29 -20.5 59.5t-45.5 63t-45.5 66.5t-20.5 69q0 43 23 90.5t59 87t81 65.5t89 26q35 0 60 -21t25 -57z" />
    <glyph glyph-name="T" unicode="T" horiz-adv-x="381" 
d="M463 683q0 -25 -19.5 -45.5t-47 -36t-56.5 -25.5t-48 -14q-8 -77 -12.5 -153.5t-4.5 -153.5q0 -41 2 -81t2 -80q0 -18 -3.5 -39.5t-12 -40.5t-23.5 -32t-37 -13q-26 0 -41.5 14.5t-24 35.5t-11.5 44.5t-3 42.5q-2 60 -3 120.5t-1 121.5q0 51 0.5 100t0.5 100
q-14 -2 -28.5 -3t-29.5 -1q-12 0 -31.5 2.5t-37.5 9t-31 18t-13 29.5q0 30 23.5 52.5t60 39t81 28t88 18t80 9.5t56.5 3q19 0 40.5 -1.5t40.5 -8.5t31.5 -21t12.5 -39z" />
    <glyph glyph-name="U" unicode="U" horiz-adv-x="602" 
d="M566 351q0 -41 -4 -84.5t-14 -84.5t-27.5 -77.5t-44.5 -64t-65 -43.5t-89 -16q-75 0 -130.5 35t-92.5 89.5t-55 122t-18 133.5v13t1 11q1 21 3.5 57t8.5 77t15.5 84t25 77t37.5 56t52 22q22 0 37 -13t24.5 -32.5t13.5 -41t4 -39.5q0 -27 -5.5 -54.5t-10.5 -54.5
q-8 -43 -13 -86t-5 -88q0 -23 2.5 -56t12.5 -63.5t28.5 -52t50.5 -21.5q31 0 49.5 21t27.5 50t11.5 61t2.5 55q0 66 -11 130.5t-29 128.5q-5 17 -8.5 34t-3.5 34q0 28 16.5 49t46.5 21q25 0 46.5 -19.5t38.5 -51t29.5 -70.5t21.5 -77.5t13.5 -73.5t5.5 -57q1 -10 1 -19.5
v-20.5z" />
    <glyph glyph-name="V" unicode="V" horiz-adv-x="497" 
d="M512 662q0 -36 -9 -80.5t-22.5 -90.5t-29 -89.5t-27.5 -78.5q-8 -22 -17.5 -54.5t-22 -68.5t-27.5 -72t-33 -64.5t-39.5 -46.5t-46.5 -18q-21 0 -40.5 19t-37 48.5t-33 66t-28 71.5t-21 65t-12.5 46q-20 78 -38 157.5t-18 159.5q0 20 2 41.5t10 39.5t22.5 29.5t40.5 11.5
q22 0 40.5 -24.5t33.5 -63.5t27.5 -87t23.5 -94.5t21 -87t20 -64.5q6 20 17.5 58.5t27 84.5t34 94.5t39 88t42.5 64.5t45 25q17 0 28 -8t17 -21t8.5 -28t2.5 -29z" />
    <glyph glyph-name="W" unicode="W" horiz-adv-x="655" 
d="M645 587q0 -60 -8 -118.5t-19 -115.5q-3 -15 -9 -48.5t-14.5 -74.5t-20.5 -85t-26.5 -80t-32 -59.5t-37.5 -23.5t-38.5 20t-34 50.5t-28.5 68.5t-22.5 73.5t-16 65t-9.5 44.5q-4 -13 -12.5 -41.5t-21.5 -64t-29 -72.5t-33.5 -68t-36.5 -51t-38 -20q-25 0 -44 22t-32 56.5
t-22 77t-14 84t-8 77.5t-4 57q-3 48 -5.5 94t-2.5 94q0 17 1 46.5t7.5 58t20 50t39.5 23.5q22 1 38 -18t27 -50.5t17.5 -70t10 -74.5t4.5 -66t0 -44l-1 -26q3 13 10.5 41t18.5 63.5t23.5 73t26.5 68.5t28 51.5t27 21.5q17 1 32.5 -20t28 -54.5t22.5 -74.5t17.5 -79.5
t11.5 -69.5t6 -44q1 16 5 50.5t11 77t17.5 87t24.5 81.5t32 60.5t40 23.5q25 0 40 -16.5t22 -40t9 -49t2 -42.5z" />
    <glyph glyph-name="X" unicode="X" horiz-adv-x="490" 
d="M521 703q0 -22 -8 -47t-20 -50.5t-25.5 -49.5t-24.5 -43q-23 -43 -46 -86.5t-49 -86.5q13 -22 33.5 -60t40 -80t34 -82t14.5 -66q0 -20 -11 -37.5t-34 -17.5q-27 0 -54.5 22.5t-52 53.5t-45 63.5t-32.5 52.5q-17 -22 -34.5 -43t-34.5 -43q-11 -14 -26.5 -33.5t-34 -38.5
t-38 -32t-37.5 -13q-13 0 -21.5 5.5t-14 14.5t-8 20t-2.5 22q0 31 10.5 62.5t24.5 58.5q49 104 103 206q-11 23 -27.5 64t-32.5 86t-27.5 87.5t-11.5 68.5q0 29 14 51.5t46 22.5q18 0 33.5 -9.5t28.5 -24t23 -31t16 -30.5q17 -36 34 -71.5t32 -73.5q8 14 22 38t32 51t39 55
t43 50.5t44.5 37t42.5 14.5q22 0 32 -20t10 -38z" />
    <glyph glyph-name="Y" unicode="Y" horiz-adv-x="445" 
d="M481 688q0 -44 -11.5 -97t-29.5 -107t-39 -105t-39 -90q-10 -22 -24.5 -55.5t-32.5 -71.5t-38.5 -76.5t-42.5 -69t-45 -50t-46 -19.5q-32 0 -45.5 23.5t-13.5 52.5q0 28 9.5 59.5t24 62.5t32 60t32.5 52q-20 5 -39 18t-28 31q-16 35 -33 79t-30.5 89.5t-22.5 91t-9 83.5
q0 18 4 39.5t13.5 40t25 31t38.5 12.5q26 0 46 -19.5t35.5 -49.5t26.5 -67t19 -73t13 -66t9 -47q4 15 13.5 45.5t23 67.5t31 76t37 71t41.5 52.5t45 20.5q15 0 25 -11t15.5 -26t7.5 -31t2 -27z" />
    <glyph glyph-name="Z" unicode="Z" horiz-adv-x="439" 
d="M450 662q0 -5 -9.5 -29t-25.5 -59t-36.5 -78.5t-42.5 -89t-43 -89.5t-38.5 -79.5t-29.5 -60t-15 -30.5q31 10 63.5 16.5t65.5 6.5q16 0 34 -2.5t33.5 -10t26 -20t10.5 -33.5q0 -22 -15 -39.5t-38.5 -30.5t-53.5 -22t-60 -15t-57 -8.5t-45 -2.5q-23 0 -50.5 2t-52.5 11
t-41.5 26.5t-16.5 49.5q0 22 12.5 59.5t29.5 77t35.5 76t29.5 57.5q34 63 68.5 125.5t67.5 126.5q-35 -20 -80 -36.5t-85 -16.5q-14 0 -29.5 4t-28 11.5t-20.5 19.5t-8 28q0 26 17 48t44.5 40t62 32t69.5 23t66.5 14t53.5 5q58 0 95 -23t37 -84z" />
    <glyph glyph-name="bracketleft" unicode="[" horiz-adv-x="273" 
d="M263 5q0 -17 -14 -27.5t-33.5 -17t-39 -9t-31.5 -2.5q-8 0 -18.5 1t-20 3.5t-18 7.5t-12.5 13q-6 10 -10.5 49.5t-8.5 95.5t-7 120.5t-5 124t-3 107.5t-1 70v27t0.5 45t2 53t4 52t6 41t8.5 21q12 8 31.5 11t33.5 3q13 0 32.5 -2.5t37.5 -9t30.5 -18.5t12.5 -30
q0 -14 -7 -24.5t-17.5 -17.5t-23.5 -10.5t-25 -3.5q-8 0 -12 1l2 -152t1 -151q0 -77 3.5 -152.5t6.5 -150.5q27 -1 51.5 -11.5t37.5 -34.5q2 -4 4 -11t2 -11z" />
    <glyph glyph-name="backslash" unicode="\" horiz-adv-x="346" 
d="M336 17q0 -10 -4 -25t-18 -15q-15 0 -33 22t-38 56t-39.5 75t-36 80t-28.5 70t-17 45q-13 34 -32 83t-37 100.5t-30.5 100t-12.5 82.5q0 6 1 14t3.5 15.5t7.5 12.5t13 5q13 0 31 -23.5t37.5 -60t39.5 -81t37.5 -85.5t30.5 -73.5t18 -46.5q13 -32 31 -78.5t35 -96.5
t29 -97t12 -79z" />
    <glyph glyph-name="bracketright" unicode="]" horiz-adv-x="258" 
d="M217 208v-27.5t-0.5 -45.5t-2 -54t-4 -52t-6 -41.5t-8.5 -21.5q-12 -8 -31.5 -10.5t-33.5 -2.5t-33 2.5t-37 9t-30.5 18t-12.5 30.5q0 14 7 24.5t17.5 17.5t23.5 10.5t25 3.5h12q-2 76 -3 151.5t-1 151.5q0 155 3 310q-15 0 -31.5 3t-30 9.5t-22 18.5t-8.5 30
q0 16 11 27.5t26.5 18.5t32.5 10t29 3q18 0 41 -5.5t32 -23.5q5 -11 10 -50.5t9 -94.5t7 -118.5t5 -122.5t3 -107.5t1 -71.5z" />
    <glyph glyph-name="asciicircum" unicode="^" horiz-adv-x="460" 
d="M444 509q0 -12 -8.5 -18.5t-19.5 -6.5q-17 0 -45.5 23.5t-58.5 54.5t-57 61.5t-40 45.5q-12 -17 -33 -48.5t-45 -63t-49 -55t-45 -23.5q-11 0 -19.5 4t-8.5 18q0 15 10.5 39.5t28 53t39 58t44 53t44 38.5t37.5 15q14 0 36 -14.5t47 -37.5t50.5 -51.5t46 -56.5t33.5 -51.5
t13 -37.5z" />
    <glyph glyph-name="underscore" unicode="_" horiz-adv-x="501" 
d="M501 25q0 -20 -19 -26q-24 -7 -55.5 -10.5t-65 -5t-66.5 -1.5h-59h-49.5t-58 0.5t-57.5 2.5t-48 6q-13 2 -18 10.5t-5 20.5q0 11 4.5 19.5t15.5 11.5q5 2 24.5 3.5t46 3.5t57 3.5t58 2.5t49.5 1.5t31 0.5h43t55 -1t54 -3t41 -6q12 -3 17 -12.5t5 -20.5z" />
    <glyph glyph-name="grave" unicode="`" horiz-adv-x="216" 
d="M185 646q0 -8 -6.5 -12.5t-14.5 -4.5q-18 0 -37.5 11.5t-33.5 19.5l-19.5 13t-20 16t-16 19.5t-6.5 21.5q0 15 11 26.5t26 11.5t35 -13.5t38.5 -32.5t31 -40t12.5 -36z" />
    <glyph glyph-name="a" unicode="a" horiz-adv-x="485" 
d="M455 141q0 -18 -1.5 -47t-8.5 -56.5t-22 -47.5t-42 -20q-37 0 -57 24t-19 60q-32 -28 -72.5 -44t-82.5 -16q-29 0 -55 14t-46 36t-32 49.5t-12 54.5q0 48 29.5 84t72.5 61.5t91.5 40.5t86.5 20q0 5 0.5 9t0.5 9q0 31 -17 50t-48 19q-25 0 -43 -8.5t-34 -19t-32 -19
t-36 -8.5q-22 0 -37.5 14t-15.5 36q0 33 19.5 60t49 45.5t64 29t63.5 10.5q27 0 54 -6.5t51 -20t43.5 -33t31.5 -45.5q18 -37 29 -78.5t17 -85t8 -87t2 -84.5zM295 173l-3 68q-2 0 -4 0.5t-4 0.5q-13 0 -32.5 -6.5t-37.5 -18t-30.5 -25.5t-12.5 -29q0 -14 10 -19t23 -5
q22 0 47 11.5t44 22.5z" />
    <glyph glyph-name="b" unicode="b" horiz-adv-x="534" 
d="M503 330q0 -29 -4.5 -65.5t-14 -74.5t-25 -74t-38 -64.5t-52 -45.5t-68.5 -17q-41 0 -74.5 19t-57.5 52q-3 -27 -22 -47.5t-48 -20.5q-17 0 -28.5 17t-18.5 43.5t-10.5 58.5t-4.5 62t-1 54v34q0 34 0.5 68t1.5 69q0 17 -0.5 51t0.5 75.5t4.5 85t12.5 79.5t25 59t41 24
q20 0 34 -14t23.5 -37t15 -51.5t8 -57t3 -54t0.5 -41.5q0 -3 -0.5 -13.5t-0.5 -22.5v-21.5v-10.5q9 19 26 37t38 32t44 23t44 9q42 0 70.5 -21.5t45.5 -54.5t24 -71.5t7 -72.5zM356 300q0 12 -1.5 26t-7 26t-15 20t-24.5 8q-16 0 -31.5 -7t-29.5 -18t-26 -23.5t-21 -24.5
l-10 -89q16 -23 39 -36.5t52 -13.5q22 0 36.5 14t23 34.5t12 43.5t3.5 40z" />
    <glyph glyph-name="c" unicode="c" horiz-adv-x="427" 
d="M401 384q0 -5 -1 -10.5t-3 -10.5q-9 -23 -28 -38.5t-45 -15.5q-39 0 -53 39q-2 5 -2 11.5t-1 13.5v29q-2 14 -7 22t-17 8q-17 0 -32.5 -21.5t-27 -51t-18.5 -60.5t-7 -50q0 -15 2 -36.5t8 -41.5t16.5 -34.5t27.5 -14.5t31.5 10.5t28.5 24.5q13 12 28.5 25t35.5 13
q25 0 39.5 -18t14.5 -41q0 -34 -18 -63.5t-45 -51t-60 -34t-63 -12.5q-54 0 -91.5 27t-60.5 68.5t-33 90.5t-10 93q0 51 14 110.5t43 110.5t74.5 85t108.5 34q39 0 67.5 -17t47 -44.5t28 -61.5t9.5 -67v-10t-1 -10z" />
    <glyph glyph-name="d" unicode="d" horiz-adv-x="497" 
d="M461 658q0 -73 -5.5 -145t-5.5 -145q0 -59 3.5 -117t3.5 -117q0 -16 -1 -38.5t-6.5 -43.5t-18 -36t-35.5 -15q-30 0 -49.5 22.5t-24.5 50.5q-19 -36 -55 -61t-78 -25q-45 0 -77.5 31t-54 75t-32 92t-10.5 83q0 25 3 57t10.5 65t19.5 64.5t30.5 56.5t44 40t58.5 15
q36 0 69 -21t50 -52l9 159q1 19 3 44.5t8.5 48.5t20.5 39t41 16q29 0 45 -14t23.5 -35.5t9 -46.5t1.5 -47zM298 214q0 23 -1 45t0 45q-6 13 -14 28.5t-19.5 29t-25.5 22.5t-30 9q-18 0 -29 -11t-16 -26.5t-6.5 -33.5t-1.5 -31q0 -12 2 -35.5t7.5 -47.5t15.5 -42t27 -18
q13 0 26 5.5t24.5 14t22 19t18.5 19.5v8z" />
    <glyph glyph-name="e" unicode="e" horiz-adv-x="459" 
d="M449 178q0 -34 -21.5 -66.5t-54 -58t-69.5 -41t-68 -15.5q-53 0 -94.5 26.5t-69.5 67.5t-42.5 90.5t-14.5 96.5q0 50 14 107t42.5 105t72 80t103.5 32q34 0 65 -11.5t54 -32.5t37 -50t14 -65q0 -47 -20 -88t-53 -71t-76 -48.5t-88 -20.5q4 -29 23.5 -42t46.5 -13
q20 0 39 10t37 22.5t35.5 22.5t35.5 10q20 0 36 -13t16 -34zM287 423q0 13 -7 27t-22 14q-22 0 -37 -11.5t-25 -29t-15.5 -37.5t-6.5 -37q14 3 33.5 8t37 13.5t30 21.5t12.5 31z" />
    <glyph glyph-name="f" unicode="f" horiz-adv-x="382" 
d="M449 598q0 -19 -3.5 -36.5t-12.5 -30.5t-24 -20.5t-37 -7.5q-25 0 -37 10t-16.5 24.5t-4.5 31.5t-1.5 31.5t-7.5 24.5t-22 10q-15 0 -24.5 -23t-15.5 -53t-8 -58.5t-2 -38.5q13 2 25 3.5t26 1.5t29 -3t28 -9.5t21 -18t8 -28.5q0 -18 -15.5 -32t-37 -23.5t-43.5 -15.5
t-35 -8q3 -69 3 -139q0 -66 -3 -130q-2 -31 -21.5 -51t-50.5 -20q-17 0 -29 6.5t-20 17.5t-12.5 25t-5.5 29q-5 60 -8 120.5t-2 121.5q-7 -1 -13.5 -1h-13.5q-12 0 -29 3t-32.5 10.5t-26.5 18.5t-11 28q0 22 14.5 37t35 24.5t43 13.5t39.5 6v16q0 49 9 105t32 104t63 79.5
t102 31.5q39 0 67 -16.5t46 -43t26 -60t8 -67.5z" />
    <glyph glyph-name="g" unicode="g" horiz-adv-x="524" 
d="M483 341q0 -51 -1.5 -102t-5.5 -102q-3 -44 -8 -94t-16 -99.5t-29 -95t-47.5 -80.5t-71.5 -56t-100 -21q-27 0 -60.5 8.5t-63 24.5t-50 39.5t-20.5 54.5q0 23 16.5 42.5t42.5 19.5q16 0 30.5 -5.5t29 -12.5t28 -12.5t27.5 -5.5q37 0 62 18.5t40 47t22.5 62t10.5 63.5
q-20 -23 -46.5 -31.5t-55.5 -8.5q-53 0 -90 18.5t-60 51t-34 75.5t-11 93q0 31 6.5 70t19.5 79t32.5 78t45.5 67t58.5 47t71.5 18q38 0 67.5 -22t34.5 -62q11 21 29 41.5t44 20.5q14 0 23.5 -14t15 -36.5t8.5 -49t4 -52t1 -46.5v-31zM331 276q0 15 -4.5 39t-13 46t-21.5 38
t-31 16q-23 0 -40.5 -16t-29.5 -38.5t-18.5 -48t-6.5 -43.5q0 -13 2 -35t8.5 -43t17.5 -36t29 -15q27 0 47 13t33.5 33t20.5 44t7 46z" />
    <glyph glyph-name="h" unicode="h" horiz-adv-x="525" 
d="M484 259q0 -17 -0.5 -50.5t-3 -70t-6.5 -69t-10 -47.5q-8 -19 -21 -33t-35 -14q-34 0 -49 27t-20 67t-4 87t-1 87t-11 67t-33 27q-33 0 -50.5 -10.5t-25 -27.5t-9 -39t-3.5 -46q-2 -23 -3 -62t-9 -77t-26.5 -65.5t-54.5 -27.5q-22 0 -35.5 17t-21.5 44t-11.5 60t-4 64.5
t0 57.5t0.5 39q0 20 1.5 66t6.5 102.5t13 116.5t21 109.5t31.5 80.5t43.5 30q16 -1 27.5 -14t19 -33.5t12.5 -44.5t7.5 -47.5t3 -43.5t0.5 -31q0 -26 -1 -52t-3 -52q23 31 61.5 51t77.5 20q50 0 75.5 -27.5t36.5 -68t12 -86t1 -81.5z" />
    <glyph glyph-name="i" unicode="i" horiz-adv-x="244" 
d="M195 698q0 -14 -7.5 -25t-19.5 -19.5t-26 -13t-26 -4.5q-20 0 -35 10t-15 31q0 15 7.5 26.5t18.5 19t25 11.5t27 4q19 0 35 -9t16 -31zM203 358v-29.5t-1 -29.5q-1 -17 -1 -45.5t-2 -61.5t-6.5 -67t-14.5 -62t-26.5 -45.5t-41.5 -18.5q-19 -1 -32 15t-21.5 41.5t-12.5 57
t-6 61t-2 54.5v37v45.5t2 63.5t7.5 69t16 64t27.5 47t43 18q27 0 41 -27t21 -63t8 -71.5t1 -52.5z" />
    <glyph glyph-name="j" unicode="j" horiz-adv-x="270" 
d="M200 688q0 -14 -8 -25.5t-20 -19.5t-26 -12.5t-26 -4.5q-20 0 -35 10t-15 31q0 15 7.5 26.5t19 19t25 11.5t26.5 4q19 0 35.5 -9.5t16.5 -30.5zM219 254q0 -47 -2.5 -104.5t-12 -115.5t-29.5 -110t-56 -87q-20 -19 -47 -40t-57.5 -39t-61.5 -29.5t-59 -11.5
q-32 0 -47.5 17.5t-15.5 48.5q0 32 17 48t42 28t54.5 26.5t54.5 43.5t42 78.5t17 130.5q0 51 -2 100t-6 100q-2 29 -4 58.5t-2 58.5q0 18 5 38t15 36.5t25.5 27t37.5 10.5q25 0 41.5 -19t27 -48.5t15 -66t6.5 -71t2 -63.5v-45z" />
    <glyph glyph-name="k" unicode="k" horiz-adv-x="479" 
d="M474 538q0 -28 -14.5 -57t-35 -57.5t-43 -54t-39.5 -46.5q14 -22 35 -58.5t40 -77.5t32.5 -80t13.5 -65q0 -21 -13 -38.5t-36 -17.5q-17 0 -34.5 14.5t-35 38t-33.5 52.5t-29.5 57t-24 52.5t-16.5 39.5q-13 -13 -27.5 -21.5t-28.5 -19.5q0 -21 -1.5 -59t-9 -75
t-24.5 -64.5t-50 -27.5q-26 0 -40 23.5t-20.5 55t-7.5 64t-1 49.5q0 74 4 148t5 148q0 17 0.5 44.5t3.5 59.5t9 65t17 59.5t28.5 43t42.5 16.5q18 0 30.5 -13.5t20 -34.5t11 -47t5 -51.5t1.5 -47.5v-35q0 -9 -0.5 -26.5t-1 -36.5t-0.5 -35t2 -23q7 0 21 13.5t32.5 34.5
t40 44.5t44 44.5t44.5 34.5t41 13.5q20 0 31 -14t11 -32z" />
    <glyph glyph-name="l" unicode="l" horiz-adv-x="263" 
d="M217 606q0 -54 -4.5 -108.5t-4.5 -109.5q0 -71 4.5 -142t4.5 -143q0 -18 -2 -40.5t-9.5 -41.5t-22.5 -32t-40 -13q-24 0 -41.5 23.5t-29 60t-19 81.5t-11 87.5t-5 78t-1.5 52.5q0 19 1.5 55t6.5 78t13.5 85.5t22.5 79t33.5 58t46.5 22.5q22 0 33.5 -14.5t16.5 -35t6 -43
t1 -38.5z" />
    <glyph glyph-name="m" unicode="m" horiz-adv-x="673" 
d="M637 330v-51.5t-1.5 -70.5t-6.5 -76.5t-15.5 -69.5t-26.5 -51t-41 -20q-22 0 -33.5 18.5t-16.5 43.5t-5.5 51t-0.5 41q0 45 3 88t3 88v18t-2 26t-6.5 23t-13.5 10q-18 0 -29 -18.5t-18 -43.5t-10 -49.5t-4 -36.5q-2 -13 -3.5 -39t-4 -57t-8 -63.5t-14 -59t-21.5 -43.5
t-32 -17q-24 0 -37 21t-19 49t-7.5 57t-1.5 45q0 17 0.5 33t0.5 33v23t-0.5 35.5t-2 40.5t-4.5 38.5t-9 28.5t-14 11q-13 0 -24 -16.5t-19 -39t-12.5 -44.5t-4.5 -32v-6q0 -48 6 -94t6 -94q0 -28 -18 -51.5t-50 -23.5q-23 0 -38 17.5t-25 45.5t-15.5 61.5t-7.5 66t-2.5 59
t-0.5 39.5q0 15 -0.5 44t1 63t5.5 69.5t13 64.5t23.5 47.5t37.5 18.5q26 0 42.5 -14t16.5 -42q0 -6 -0.5 -12t-1.5 -11q11 16 27 32.5t34.5 30t39.5 22t42 8.5q20 0 36 -11t28 -27.5t20 -35.5t11 -36q10 18 24.5 36.5t31.5 32.5t37.5 23t42.5 9q21 0 36 -15t26 -38.5t17 -53
t10 -58t5 -53t1 -38.5z" />
    <glyph glyph-name="n" unicode="n" horiz-adv-x="478" 
d="M314 -28q-17 0 -27 15.5t-15 35.5t-6.5 40.5t-1.5 31.5q0 30 3.5 60t8 60t8 60t3.5 60q0 12 -1 26t-4.5 26.5t-11.5 20.5t-21 8q-9 0 -20 -14.5t-20.5 -33t-16 -37t-6.5 -27.5q0 -22 0.5 -44.5t0.5 -45.5v-58q-1 -18 -3 -37t-6 -37q-3 -18 -9 -34.5t-15.5 -29
t-22.5 -20.5t-31 -8q-20 0 -33 13t-21 33.5t-11.5 46t-5 50t-1 45t0.5 32.5v47q0 38 -1.5 75t-1.5 74q0 20 0.5 51t7.5 60.5t23 50.5t47 21q14 0 25 -9t19.5 -22t14 -28t8.5 -26q10 14 23.5 27t30.5 23t38 16t48 6q51 0 79.5 -24.5t42 -61t16.5 -78.5t3 -76q0 -17 -3 -50.5
t-9.5 -74t-17.5 -83t-26 -77.5t-35.5 -57t-46.5 -22z" />
    <glyph glyph-name="o" unicode="o" horiz-adv-x="458" 
d="M220 -29q-51 0 -89 27t-64 69t-39 93.5t-13 101.5q0 53 13 109.5t40 103t69 76t100 29.5q56 0 95.5 -30.5t63.5 -76t34 -99.5t7 -102q-3 -53 -16.5 -107t-39.5 -97t-66 -70t-95 -27zM230 423q-15 0 -26.5 -16t-19 -39t-11.5 -48.5t-4 -44.5q0 -24 4.5 -52t12.5 -51.5
t19.5 -39t26.5 -15.5q16 0 27.5 15t18.5 38t10 50.5t3 51.5q0 22 -4 48.5t-11.5 49.5t-19 38t-26.5 15z" />
    <glyph glyph-name="p" unicode="p" horiz-adv-x="519" 
d="M488 298q0 -44 -9.5 -96.5t-32 -97.5t-59 -75t-91.5 -30q-14 0 -29 2t-28.5 7t-24.5 13.5t-17 22.5l-9 -144q-1 -23 -1.5 -55t-8 -61t-25 -49.5t-50.5 -20.5q-19 0 -32 19.5t-20.5 49.5t-11.5 67t-5 71t-1 62v41q0 67 -1 133.5t-1 133.5v37.5t2 55.5t6.5 62t13.5 58.5
t23 43t34 16.5q13 0 23.5 -7.5t18 -19t12.5 -24.5t8 -24q31 35 71.5 53t86.5 18q48 0 78.5 -27t48 -67t24.5 -85.5t7 -82.5zM345 306q0 15 -2.5 30.5t-9 29t-18.5 22t-30 8.5q-24 0 -50.5 -15.5t-39.5 -35.5q-5 -8 -6 -26t-1 -27q0 -7 0.5 -18.5t1.5 -23.5t2.5 -23t4.5 -17
q3 -9 13 -16.5t22 -13.5t24.5 -9t21.5 -3q21 0 34 16t20.5 38t10 45.5t2.5 38.5z" />
    <glyph glyph-name="q" unicode="q" horiz-adv-x="513" 
d="M495 465q-8 -73 -16 -145t-11 -144q-5 -83 -4 -157t1 -157q0 -20 -0.5 -49t-7.5 -56t-22.5 -46t-46.5 -19q-15 0 -25.5 9t-18 23.5t-12 32.5t-7.5 37q-5 39 -5.5 77.5t-0.5 56.5v78v56q-23 -30 -59.5 -45.5t-72.5 -15.5q-45 0 -77.5 21.5t-53.5 55t-31 73.5t-10 78v6
q0 52 16 112.5t47.5 112.5t79 86.5t110.5 34.5q34 0 62.5 -14t40.5 -46q8 23 24.5 37.5t42.5 14.5q33 0 46.5 -21.5t13.5 -47.5q0 -11 -1 -20t-2 -19zM265 441q-23 0 -43 -18.5t-35 -45t-23.5 -56.5t-8.5 -53q0 -14 2.5 -30t8 -30.5t15 -24t24.5 -9.5q13 0 30.5 6.5t34.5 17
t30 23.5t18 25q3 7 5 21t3.5 29.5t2.5 30.5t1 23q0 12 -5.5 27.5t-14.5 30t-21 24t-24 9.5z" />
    <glyph glyph-name="r" unicode="r" horiz-adv-x="432" 
d="M377 374q-14 -1 -24 2.5t-20 7.5q-9 4 -18 7.5t-20 2.5q-20 -1 -35.5 -11t-28 -25t-21.5 -33.5t-14 -36.5q-3 -12 -4.5 -36.5t-1.5 -52.5q-1 -29 -1 -55t-2 -41q-1 -16 -5 -37.5t-12.5 -40.5t-22.5 -32t-36 -13q-17 0 -29.5 10t-21 26.5t-14 38.5t-8.5 45q-3 24 -4.5 48
t-2 45.5t0 39.5t0.5 29q-1 35 -3.5 70.5t-2.5 70.5q0 22 2 49t11 50.5t26.5 39.5t48.5 16q17 0 29 -11t19.5 -27t11.5 -34t5 -33q24 39 54 63.5t78 26.5q24 1 47.5 -4.5t43 -18t32 -32.5t13.5 -47q2 -32 -19 -49t-51 -18z" />
    <glyph glyph-name="s" unicode="s" horiz-adv-x="333" 
d="M323 550q0 -29 -19.5 -43t-43.5 -26.5t-43.5 -29.5t-19.5 -51q0 -18 8.5 -31t21 -23.5t27.5 -21.5t27.5 -25t21 -34t8.5 -49q0 -42 -21.5 -82.5t-55 -72t-75.5 -50.5t-83 -19q-17 0 -34 2.5t-30.5 9.5t-22.5 19.5t-9 32.5q0 28 11 43.5t28 24.5t36.5 14t36.5 12.5
t28 19.5t11 34q0 21 -16.5 43.5t-36.5 48t-36.5 54.5t-16.5 64q0 43 17.5 79.5t47 63.5t67.5 42.5t80 15.5q16 0 31.5 -3t27.5 -10.5t19.5 -20t7.5 -31.5z" />
    <glyph glyph-name="t" unicode="t" horiz-adv-x="384" 
d="M263 -36q-71 0 -110.5 18.5t-59 52.5t-23.5 82t-4 107q0 47 3 94.5t9 101.5q-14 0 -22 -0.5t-13 -0.5q-32 0 -55.5 14t-23.5 43q0 18 13.5 32t34.5 24t45.5 16t46.5 8q0 28 4 62t14.5 63.5t28.5 49.5t46 20q16 0 28.5 -9.5t20.5 -24t12 -32.5t4 -35q0 -20 -3 -41t-11 -52
q17 2 23 2.5t11 0.5q17 0 35.5 -3t34 -10t25.5 -18.5t10 -27.5q0 -18 -14.5 -32t-36.5 -24t-47 -15.5t-47 -7.5q-6 -41 -8.5 -75.5t-5.5 -69.5q-2 -17 -3.5 -34.5t-1.5 -35.5q0 -13 1 -30.5t7 -33.5t19 -27.5t36 -11.5q14 0 29 2.5t30 2.5q26 0 37.5 -18t11.5 -46
q0 -21 -12.5 -36.5t-31.5 -25t-42.5 -14.5t-44.5 -5z" />
    <glyph glyph-name="u" unicode="u" horiz-adv-x="499" 
d="M468 286q0 -55 -11 -109t-37 -96.5t-69.5 -68.5t-108.5 -26q-64 0 -107 25.5t-68.5 67.5t-36 95t-10.5 108q0 60 14 119q3 16 11.5 44.5t22 56t31 47.5t38.5 20q20 0 32 -11t19 -27.5t9 -35t2 -33.5q0 -23 -3.5 -45t-7.5 -44q-4 -30 -7.5 -60t-3.5 -60q0 -15 1.5 -33.5
t7.5 -35.5t17 -28.5t31 -11.5q26 0 41.5 14t23 35t9.5 45t2 44q0 44 -6 86.5t-11 86.5q-1 5 -1 14q0 15 5 30t14 27t22 19.5t29 7.5q22 0 39 -15.5t28.5 -40t19 -55t12 -60t6 -55.5t1.5 -41z" />
    <glyph glyph-name="v" unicode="v" horiz-adv-x="498" 
d="M461 358q-26 -69 -57 -144t-67 -140q-22 -40 -49 -66.5t-62 -26.5q-28 0 -54.5 28.5t-49 68t-39 80t-24.5 64.5q-8 27 -18 58t-18 63t-13 63.5t-5 59.5q0 39 14 64t55 25q16 0 29 -9.5t24 -26.5t21 -39.5t19 -49.5q9 -26 17 -54t16 -54t16.5 -50.5t22.5 -48.5q7 18 16 41
t19.5 49t22.5 53.5t26 53.5q27 54 57.5 92t60.5 38q28 0 40 -17t12 -44t-9 -61t-23 -70z" />
    <glyph glyph-name="w" unicode="w" horiz-adv-x="740" 
d="M528 -13q-32 0 -57.5 34t-44.5 81.5t-31.5 97.5t-18.5 83q-8 -20 -21.5 -49t-31 -61t-37.5 -64.5t-41.5 -58.5t-43 -42t-41.5 -16q-27 0 -47.5 26t-34.5 68t-23.5 93t-14.5 102t-7 95t-2 71q0 25 2.5 48t10 41t22 28.5t38.5 10.5q23 0 39.5 -17t27.5 -44.5t18 -62t11 -70
t5.5 -69t2.5 -57.5q6 21 17 51.5t24 65t28.5 68.5t31 61t30.5 44t29 17h1q18 0 35 -17t33 -44t30 -61.5t26 -70t21 -69t15 -57.5q1 29 3 65.5t7.5 73.5t15 72t23.5 62.5t34.5 44t47.5 16.5q28 0 41.5 -19.5t13.5 -47.5q0 -30 -7.5 -80t-20.5 -108.5t-30.5 -118t-38.5 -107.5
t-44 -78.5t-46 -30.5z" />
    <glyph glyph-name="x" unicode="x" horiz-adv-x="452" 
d="M452 516q0 -16 -6 -33.5t-15 -35.5t-19 -34.5t-18 -30.5q-20 -32 -39.5 -65t-39.5 -65q9 -14 25 -39t31.5 -52.5t26.5 -54.5t11 -46q0 -18 -14 -35t-34 -17q-21 0 -42.5 15t-42 35.5t-37.5 43t-29 37.5q-13 -14 -33.5 -38t-44 -47t-46.5 -39.5t-41 -16.5q-21 0 -33 15
t-12 35t13.5 51t32 64t37 63t28.5 47q-10 18 -25 47.5t-28.5 62t-23 64t-9.5 52.5q0 23 14 37t37 14q25 0 47 -19.5t41 -47t33.5 -57t23.5 -48.5q12 18 33.5 49t48.5 61t56 52t55 22q17 0 27.5 -14.5t10.5 -31.5z" />
    <glyph glyph-name="y" unicode="y" horiz-adv-x="530" 
d="M247 -291q-24 0 -54.5 7.5t-57.5 21.5t-45.5 34t-18.5 46q0 10 5 20t13.5 17.5t18.5 12t21 4.5q12 0 23.5 -3.5t23.5 -8.5q13 -5 25.5 -9t26.5 -4q25 0 43.5 17t31.5 44.5t21 61t12.5 66.5t6.5 62t3 47q-35 -53 -69.5 -81.5t-84.5 -28.5q-38 0 -66.5 16t-48.5 42
t-33 59.5t-19.5 69.5t-8.5 70.5t0 63.5q1 22 5.5 57.5t14.5 69.5t28 57.5t47 21.5q19 -1 31 -16.5t19.5 -38.5t11 -50.5t4.5 -54.5t0.5 -49.5t-0.5 -34.5q0 -17 1 -34t7 -30.5t18.5 -21.5t35.5 -8q26 0 41.5 13t23 32.5t9.5 42t2 42.5v34t0.5 42t4 43.5t11 39t20 28.5
t32.5 11q25 0 43 -19.5t30.5 -51t20 -69.5t11.5 -75.5t5.5 -69t1.5 -49.5q0 -42 -3 -95.5t-11.5 -110t-25.5 -111t-44.5 -97.5t-67.5 -69t-96 -26z" />
    <glyph glyph-name="z" unicode="z" horiz-adv-x="469" 
d="M479 94q0 -20 -16.5 -35t-42 -27t-58 -20t-64 -13t-59.5 -7.5t-45 -2.5t-47.5 1t-60.5 7.5t-52 21t-22 40.5q0 20 14 49t36 63t49 69.5t53 68.5t49 60.5t36 45.5q-14 -3 -35.5 -8.5t-44.5 -10.5t-44.5 -8.5t-36.5 -3.5q-12 0 -27 4.5t-28.5 12.5t-23 19t-9.5 25
q0 18 16 33.5t42 28t58 22t63 16t59 9.5t45 3q19 0 46 -4t52.5 -14t43.5 -27t18 -43q0 -8 -1.5 -14.5t-3.5 -14.5q-2 -7 -17.5 -31.5t-38 -58t-49 -72t-50.5 -72.5t-42 -60t-24 -35q41 11 83.5 18.5t84.5 7.5q10 0 26 -1t31 -5.5t26 -13t11 -23.5z" />
    <glyph glyph-name="braceleft" unicode="{" horiz-adv-x="298" 
d="M298 8q0 -19 -8.5 -32t-22 -20.5t-30 -11t-32.5 -3.5q-64 0 -91 36.5t-27 96.5q0 37 9.5 69t9.5 65q0 38 -11.5 56t-26 30t-26 25.5t-11.5 42.5q0 17 6 30.5t22 21.5q9 4 17.5 17t14.5 28t10 30t4 24q0 38 -8.5 75.5t-8.5 75.5q0 27 8 53t24 45.5t38.5 31.5t52.5 12
q31 0 52 -14.5t21 -48.5q0 -26 -16.5 -43.5t-40.5 -26.5q-14 -5 -17.5 -17.5t-3.5 -26.5q0 -26 6 -52.5t6 -52.5q0 -15 -3 -38t-10 -46.5t-17.5 -42.5t-26.5 -27q14 -5 28.5 -15.5t26 -24.5t18.5 -30.5t7 -31.5q0 -18 -4.5 -37.5t-10.5 -39t-10.5 -40.5t-4.5 -42
q0 -20 10 -35.5t33 -15.5q18 0 31 -16.5t13 -33.5z" />
    <glyph glyph-name="bar" unicode="|" horiz-adv-x="221" 
d="M170 272q0 -11 -0.5 -39t-2 -64t-5 -75t-10 -71.5t-16.5 -53.5t-25 -21t-25 25.5t-16.5 65.5t-10 87.5t-5 92t-1.5 79v48.5q0 38 -1 75.5t-1 75.5v32.5t1 53.5t4.5 62t9.5 58.5t16.5 43.5t25.5 17q13 0 22.5 -26.5t16.5 -67.5t11 -90.5t6.5 -95.5t3.5 -83t1 -52
q1 -19 1 -38v-39z" />
    <glyph glyph-name="braceright" unicode="}" horiz-adv-x="293" 
d="M262 366q0 -17 -6 -30.5t-23 -21.5q-9 -5 -16.5 -15.5t-13 -23.5t-9 -26.5t-3.5 -22.5q0 -38 9 -75.5t9 -75.5q0 -27 -8 -53t-23.5 -45.5t-38 -31.5t-52.5 -12q-31 0 -52 14.5t-21 48.5q0 27 16 44t40 27q14 5 18 17.5t4 26.5q0 26 -6.5 52.5t-6.5 53.5q0 15 2.5 36
t8.5 42t16.5 38t25.5 25q-14 4 -27 17t-24 29.5t-17.5 34.5t-6.5 32q0 18 4.5 37.5t10.5 39.5t10.5 40.5t4.5 42.5q0 19 -10 34.5t-33 15.5q-18 0 -31 16.5t-13 33.5q0 19 8.5 32t22 21t30 11.5t32.5 3.5q63 0 90 -37t27 -96q0 -38 -9.5 -70t-9.5 -65q0 -38 13 -62.5
t39 -49.5q10 -10 14.5 -24.5t4.5 -28.5z" />
    <glyph glyph-name="asciitilde" unicode="~" horiz-adv-x="523" 
d="M508 287q0 -10 -4.5 -17t-11.5 -12q-11 -8 -30.5 -17.5t-42 -17.5t-44 -13.5t-34.5 -5.5q-28 0 -52 10t-45.5 22t-41.5 22t-39 10q-18 0 -32.5 -6.5t-27 -14.5t-23.5 -14.5t-22 -6.5q-16 0 -29.5 11t-13.5 28q0 19 16 34.5t38 25.5t46 15.5t39 5.5q23 0 46 -9.5t47 -21
t49.5 -21t54.5 -9.5q23 0 41.5 6t33.5 13.5t26 13.5t19 6q14 0 25.5 -11.5t11.5 -25.5z" />
    <glyph glyph-name="uni00A0" unicode="&#xa0;" horiz-adv-x="241" 
 />
    <glyph glyph-name="exclamdown" unicode="&#xa1;" horiz-adv-x="249" 
d="M203 713q0 -16 -8.5 -28.5t-21.5 -21.5t-28.5 -13.5t-29.5 -4.5q-22 0 -41 11.5t-19 37.5q0 17 8 29.5t20.5 21t28 12.5t29.5 4q23 0 42.5 -11.5t19.5 -36.5zM218 298q0 -19 0.5 -51t-1.5 -69t-7 -75t-16.5 -68.5t-31 -49.5t-49.5 -19q-24 0 -39 20t-24 51t-13 69.5
t-5.5 76.5t-1 70t0.5 51q0 17 2 45t6.5 61t12 66.5t18.5 61t25.5 44.5t32.5 17q20 0 34 -18.5t24 -47t16.5 -63.5t10 -68.5t4.5 -61.5t1 -42z" />
    <glyph glyph-name="cent" unicode="&#xa2;" horiz-adv-x="434" 
d="M409 449q0 -28 -20 -49t-49 -21q-17 0 -30 8.5t-18 25.5q-3 10 -2.5 24.5t-1 28t-8 23t-24.5 9.5q-26 0 -47.5 -18t-36.5 -44.5t-23.5 -55.5t-8.5 -50q0 -19 5.5 -44t17 -47t28.5 -37.5t41 -15.5q18 0 33 11t28.5 24.5t27.5 25t31 11.5q22 0 34.5 -16.5t12.5 -36.5
q0 -27 -15.5 -54.5t-39.5 -49.5t-52.5 -35.5t-54.5 -13.5q-2 0 -3 -5.5t-1 -6.5q-1 -8 -1.5 -18.5t-4.5 -18.5q-5 -11 -16.5 -15.5t-23.5 -4.5q-11 0 -23 6t-12 20q0 12 2 24t2 25v6.5t-2 6.5q-70 46 -104.5 103.5t-34.5 146.5q0 108 51 185t148 126q1 1 3 9.5t4.5 19
t4.5 20.5t3 13q13 32 43 32q13 0 23.5 -6.5t10.5 -20.5t-4.5 -30.5t-4.5 -26.5v-1q30 -6 51 -27t34.5 -48.5t20 -58.5t6.5 -58z" />
    <glyph glyph-name="sterling" unicode="&#xa3;" horiz-adv-x="536" 
d="M515 520q0 -10 -5 -19.5t-13.5 -17t-18.5 -12t-20 -4.5q-19 0 -29 10t-21 24q-20 24 -46 41t-58 17q-23 0 -38.5 -11.5t-25 -29.5t-14 -39t-4.5 -40v-16q13 -1 41.5 -3t57 -7.5t50 -16t21.5 -28.5q0 -12 -7 -21t-18 -15.5t-25 -10t-29 -5.5q-35 -5 -79 -3q1 -15 2 -28
q1 -11 1.5 -23.5t1.5 -19.5q1 -17 1.5 -33t2.5 -33q14 -3 32 -6t37 -6t37 -5t32 -2q20 0 39.5 4t39.5 4t37 -11.5t17 -35.5q0 -19 -19 -32t-44.5 -20.5t-52 -10.5t-40.5 -3q-18 0 -33.5 4t-30 8.5t-29 8.5t-31.5 4q-20 0 -38.5 -4.5t-36 -9.5t-34 -9.5t-30.5 -4.5
q-29 0 -45 21t-16 49q0 12 8 22t20 17t25.5 11.5t23.5 7.5q6 18 7 34t1 34q0 34 -8 69q-12 0 -32.5 2.5t-40 9t-34 17t-14.5 27.5q0 20 11 30t27 14.5t34 5.5t32 1q1 56 12.5 102t37 79t66.5 51.5t101 18.5q30 0 66 -10.5t66.5 -30t51 -47.5t20.5 -64z" />
    <glyph glyph-name="currency" unicode="&#xa4;" horiz-adv-x="444" 
d="M455 477q0 -28 -14.5 -55t-33.5 -51l-19 -26q8 -39 5 -71q-1 -45 -17 -92q19 -26 33 -53t14 -45q0 -17 -14.5 -31.5t-37.5 -14.5q-20 0 -40 10t-40 24q-16 -8 -34 -13t-39 -5q-26 0 -48.5 8.5t-41.5 23.5q-27 -23 -47 -32.5t-42 -9.5q-23 0 -36 13.5t-13 31.5
q0 25 19 59.5t47 72.5q-2 11 -3 23t-1 23q0 34 7 65q-22 37 -40 77t-18 66q0 21 15 33t41 12q24 0 46 -13.5t41 -34.5q37 26 87 26q26 0 46.5 -7t37.5 -19q28 25 49.5 35.5t48.5 10.5q20 0 31 -13.5t11 -27.5zM225 377q-15 0 -26.5 -11t-19 -26.5t-11.5 -33.5t-4 -31
q0 -17 4.5 -35.5t12.5 -34.5t19.5 -26.5t26.5 -10.5q16 0 27 10t18 26t10 34t3 35q0 16 -4 34t-11.5 33.5t-18.5 26t-26 10.5z" />
    <glyph glyph-name="yen" unicode="&#xa5;" horiz-adv-x="543" 
d="M543 653q0 -18 -12 -39.5t-31 -45t-42.5 -47t-46.5 -44t-43.5 -37.5t-32.5 -26v-55q8 0 24 -0.5t32 -3.5t28 -10.5t12 -20.5q0 -11 -8 -16t-19 -7q-34 -7 -67 -8l-2 -45q13 -2 34.5 -3.5t34.5 -6.5q20 -7 20 -24q0 -12 -7.5 -19.5t-19.5 -9.5q-15 -3 -31 -4t-31 -2
q-1 -22 -1 -49t-6.5 -50.5t-22.5 -39.5t-47 -16q-23 0 -37 11t-21.5 27.5t-10 36.5t-2.5 38q0 21 3 41q-16 1 -36.5 3t-35.5 7q-22 8 -22 28q0 12 8 18t20 8q16 2 33.5 2.5t33.5 0.5l4 48l-40.5 4.5t-39.5 7.5q-10 3 -16 9t-6 17q0 13 10 18t21 7q17 2 36.5 2.5t38.5 1.5
l2 43q-24 20 -58.5 48t-66 60.5t-54 67.5t-22.5 68q0 19 11.5 29.5t30.5 10.5q23 0 54.5 -19t64 -45.5t61.5 -53t47 -41.5q17 14 49 42t67 55.5t67.5 48.5t50.5 21q17 0 28.5 -12.5t11.5 -29.5z" />
    <glyph glyph-name="brokenbar" unicode="&#xa6;" horiz-adv-x="215" 
d="M163 585q0 -8 -1 -26.5t-2.5 -38.5t-3.5 -37.5t-4 -23.5q-4 -8 -20.5 -11t-23.5 -3q-9 0 -20 2t-15 11q-4 7 -8 29.5t-7 48t-5 48.5t-2 32t1 29t2.5 42t3.5 41t4 27q4 10 18.5 12.5t22.5 2.5q9 0 23 -2.5t18 -10.5q2 -5 5.5 -29.5t6.5 -53.5t5 -55t2 -34zM164 121
q0 -8 -1 -28t-2.5 -42.5t-3.5 -41.5t-4 -25q-2 -5 -7.5 -7.5t-12.5 -4.5t-14 -2.5t-11 -0.5q-8 0 -19 2.5t-15 11.5q-4 7 -8 31.5t-7 52t-5 53t-2 35.5t1 31.5t2.5 44.5t3.5 44t4 29q3 11 17.5 13t23.5 2t23 -2.5t18 -11.5q2 -5 5.5 -31t6.5 -57.5t5 -59.5t2 -36z" />
    <glyph glyph-name="section" unicode="&#xa7;" horiz-adv-x="415" 
d="M394 420q0 -29 -11 -57t-29 -52t-41 -44t-47 -33q21 -11 38 -28.5t29 -39t18.5 -45t6.5 -46.5q0 -44 -28 -70.5t-68 -40.5t-84 -19t-76 -5h-8q-8 0 -18 1.5t-19 5.5t-15.5 10.5t-6.5 17.5q0 17 13.5 27t27.5 15q13 5 38.5 11t51 15t44 22.5t18.5 32.5q0 24 -15.5 41.5
t-38.5 32.5t-50 31t-50 36.5t-38.5 49t-15.5 68.5q0 56 32 97.5t86 54.5q-45 22 -73 64t-28 93q0 44 23.5 71t58 41.5t75 19.5t74.5 5h33t33 -2q13 -2 23 -8t10 -22q0 -11 -6 -17.5t-15 -10.5t-19.5 -5.5t-19.5 -3.5q-13 -3 -34.5 -8t-42.5 -14t-36 -22.5t-15 -32.5
q0 -14 16 -30t40 -34t51.5 -37.5t51.5 -41t40 -45t16 -49.5zM264 382q0 23 -18 42t-37 25q-11 -5 -23 -12t-21.5 -16.5t-15.5 -21.5t-6 -25q0 -25 17 -48.5t39 -33.5q22 14 43.5 37.5t21.5 52.5z" />
    <glyph glyph-name="dieresis" unicode="&#xa8;" horiz-adv-x="391" 
d="M360 658q0 -29 -19 -46t-48 -17q-28 0 -48.5 16.5t-20.5 45.5q0 30 18.5 51t49.5 21q30 0 49 -20.5t19 -50.5zM167 653q0 -29 -19.5 -46t-48.5 -17q-28 0 -48 16.5t-20 45.5q0 30 18 51t49 21q30 0 49.5 -20.5t19.5 -50.5z" />
    <glyph glyph-name="copyright" unicode="&#xa9;" horiz-adv-x="586" 
d="M565 481q0 -59 -21.5 -116t-60 -101t-91 -71t-114.5 -27q-58 0 -105.5 23t-81.5 62t-52.5 89.5t-18.5 105.5q0 60 21.5 116.5t60 101t91.5 71.5t115 27q58 0 105 -23t81 -62t52.5 -90t18.5 -106zM497 479q0 41 -13.5 79t-39 67.5t-61 47t-78.5 17.5q-47 0 -87 -20.5
t-68.5 -54t-44.5 -76t-16 -86.5q0 -41 14 -79.5t39 -68t60.5 -47t79.5 -17.5q47 0 86.5 20.5t68 53.5t44.5 76t16 88zM413 540q0 -22 -13.5 -38t-35.5 -16q-30 0 -38.5 11.5t-9.5 26t-2 26t-16 11.5q-17 0 -28 -13t-18 -31t-9.5 -37t-2.5 -31q0 -13 1.5 -26t6 -24t14 -18
t24.5 -7q23 0 44.5 7t44.5 7q11 0 21.5 -6.5t10.5 -19.5q0 -15 -13 -27.5t-31 -21.5t-37.5 -13.5t-31.5 -4.5q-72 0 -112 43t-40 114q0 35 12.5 70.5t35 64t54 46t69.5 17.5q50 0 75 -32t25 -78z" />
    <glyph glyph-name="ordfeminine" unicode="&#xaa;" horiz-adv-x="418" 
d="M397 362q0 -15 -1 -40t-7 -48.5t-18.5 -40.5t-35.5 -17q-32 0 -49 20.5t-16 51.5q-27 -24 -61.5 -37.5t-70.5 -13.5q-24 0 -46 11.5t-39.5 30.5t-27.5 42t-10 47q0 40 25 71t61.5 52.5t78 34t73.5 17.5q0 4 0.5 7.5t0.5 7.5q0 26 -14.5 42t-40.5 16q-21 0 -37 -7
t-29.5 -16t-27 -16t-29.5 -7q-20 0 -32.5 11.5t-12.5 30.5q0 28 16.5 51t41.5 39t54 24.5t54 8.5q23 0 46 -6t43.5 -17t37 -27.5t26.5 -38.5q15 -32 24 -67t14.5 -72t7 -74t1.5 -71zM261 389l-2 57h-7q-11 0 -27 -5.5t-31 -14.5t-26 -21t-11 -25q0 -11 8.5 -15.5t18.5 -4.5
q19 0 40.5 9.5t36.5 19.5z" />
    <glyph glyph-name="guillemotleft" unicode="&#xab;" horiz-adv-x="380" 
d="M359 321q0 -18 -11.5 -41.5t-27 -46.5t-33 -44t-29.5 -34q11 -12 27 -30.5t30.5 -39.5t25 -42t10.5 -37q0 -6 -2 -12.5t-10 -6.5q-9 0 -25.5 10t-36 26t-40 35t-37 38t-27 34.5t-10.5 24.5q0 11 10.5 29t27 38.5t37 41.5t40.5 38t37.5 27.5t28.5 10.5q9 0 12 -5.5
t3 -13.5zM207 327q0 -18 -11.5 -41.5t-27.5 -46.5t-33.5 -44.5t-29.5 -34.5q11 -12 27 -30.5t31 -39.5t25.5 -42t10.5 -37q0 -6 -2.5 -12.5t-10.5 -6.5q-9 0 -25.5 10t-36 26t-40 35t-37 38t-27 35t-10.5 25q0 10 10.5 28t27 38.5t37 41.5t40.5 38t37.5 27.5t28.5 10.5
q10 0 13 -5t3 -13z" />
    <glyph glyph-name="logicalnot" unicode="&#xac;" horiz-adv-x="542" 
d="M511 141q0 -5 -0.5 -19t-2 -30.5t-3 -30t-2.5 -16.5q-4 -7 -15 -8.5t-17 -1.5t-13 1.5t-12 7.5q-2 5 -5 22t-5 37t-3.5 38t-1.5 25q0 17 1 33t3 32q-48 -5 -96 -8t-96 -3q-49 0 -103 0.5t-102 8.5q-12 2 -17.5 10.5t-5.5 19.5q0 10 4.5 19t15.5 12q20 6 53.5 8.5t70 3.5
t72.5 1h61h41.5t52.5 -0.5t52 -2t41 -5.5q11 -2 15 -11t6 -18q2 -11 4 -27.5t3.5 -34.5t2.5 -35t1 -28z" />
    <glyph glyph-name="sfthyphen" unicode="&#xad;" horiz-adv-x="460" 
d="M439 255q0 -9 -15 -14.5t-37.5 -9.5t-50 -6.5t-53 -3.5t-45.5 -1.5t-28 -0.5h-23.5t-37.5 1t-44 3t-41.5 6t-31 10.5t-12.5 15.5q0 11 13.5 19.5t34 13.5t46.5 8t50.5 4.5t45 2t31.5 0.5q15 0 47.5 -2.5t66 -8.5t59 -15t25.5 -22z" />
    <glyph glyph-name="registered" unicode="&#xae;" horiz-adv-x="586" 
d="M565 486q0 -59 -21.5 -116t-60 -101t-91 -71t-114.5 -27q-58 0 -105.5 23t-81.5 62t-52.5 89.5t-18.5 105.5q0 59 21.5 115.5t60 101t91.5 71.5t115 27q58 0 105 -23t81 -62t52.5 -89.5t18.5 -105.5zM497 483q0 41 -13.5 79.5t-39 68t-61 47t-78.5 17.5q-47 0 -87 -20.5
t-68.5 -54t-44.5 -76.5t-16 -87q0 -41 14 -79.5t39 -68t60.5 -47t79.5 -17.5q47 0 86.5 20.5t68 54t44.5 76.5t16 87zM427 539q0 -30 -18.5 -52.5t-41.5 -36.5q7 -9 15 -21t15 -25.5t12 -27.5t5 -26q0 -17 -12 -26t-29 -9q-11 0 -19.5 5.5t-14.5 14.5t-10 19t-7 19
q-5 11 -10 21t-12 20l-36 -12q-1 -12 -2.5 -27.5t-6.5 -29t-15 -23t-26 -9.5q-27 0 -33.5 19t-6.5 40q0 26 4 51t4 51q0 23 -1.5 46.5t-1.5 46.5v12.5t2 12.5q4 7 23.5 14.5t42.5 13.5t45 9.5t30 3.5q43 0 74 -24t31 -70zM331 534q0 12 -7 16.5t-20 4.5q-10 0 -20.5 -3
t-19.5 -7q1 -16 1.5 -31.5t-0.5 -32.5q9 2 20 6.5t21.5 11t17.5 15.5t7 20z" />
    <glyph glyph-name="macron" unicode="&#xaf;" horiz-adv-x="403" 
d="M373 695q0 -8 -12 -14t-31 -10t-41.5 -6.5t-43 -3.5t-37 -1.5t-22.5 -0.5q-8 0 -33 0.5t-52 3.5t-48.5 10.5t-21.5 21.5q0 17 23 27t53.5 14.5t60.5 5.5t44 1q12 0 38.5 -2.5t53.5 -8.5t48 -15t21 -22z" />
    <glyph glyph-name="degree" unicode="&#xb0;" horiz-adv-x="207" 
d="M197 581q0 -19 -7.5 -35.5t-20.5 -28.5t-30 -18.5t-36 -6.5t-36 6.5t-29.5 18.5t-20 28.5t-7.5 35.5t7.5 35.5t20 28.5t29.5 18.5t36 6.5t36 -6.5t30 -18.5t20.5 -28.5t7.5 -35.5zM156 580q0 20 -15.5 34t-35.5 14t-35 -14t-15 -34t15 -34t35 -14t35.5 14t15.5 34z" />
    <glyph glyph-name="plusminus" unicode="&#xb1;" horiz-adv-x="481" 
d="M461 345q0 -12 -12 -18.5t-28 -10t-32 -4.5t-23 -1q-20 -1 -39.5 -1.5t-38.5 -0.5q-1 -7 -1.5 -21.5t-2 -33t-4 -38t-7.5 -35.5t-11.5 -27t-16.5 -12q-14 -1 -23.5 21t-15.5 50.5t-9 55.5l-4 36q-11 0 -39 0.5t-58 3t-53 9t-23 19.5q0 18 24 27t55 12.5t60.5 3t40.5 -0.5
v19q0 10 1.5 35t7 51t15 45.5t26.5 19.5q14 0 22 -23t11.5 -52t4 -56.5t0.5 -36.5q19 -1 38 -1.5t38 -1.5q7 0 23 -1t32.5 -4.5t29 -10t12.5 -17.5zM450 55q0 -9 -15 -14.5t-37.5 -9.5t-50 -6.5t-53 -3.5t-45.5 -1.5t-28 -0.5h-23.5t-37.5 1t-44 3t-41.5 6t-31 10.5
t-12.5 15.5q0 11 13.5 19.5t34 13.5t46.5 8t50.5 4.5t45 2t31.5 0.5q15 0 47.5 -2.5t66 -8.5t59 -15t25.5 -22z" />
    <glyph glyph-name="twosuperior" unicode="&#xb2;" horiz-adv-x="354" 
d="M324 379q0 -17 -11.5 -28t-26.5 -14q-40 -9 -87.5 -14t-88.5 -5q-5 0 -14 0.5t-18 1.5t-17.5 3t-12.5 5q-8 7 -12.5 24t-4.5 27q0 8 2 15t8 14q7 8 14.5 15t15.5 15q13 13 36.5 39t47 56t41 58t17.5 46q0 11 -6.5 18.5t-18.5 7.5t-23 -9t-22 -19.5t-23 -19.5t-28 -9
q-18 0 -28.5 11t-10.5 28q0 27 12 49.5t31 39t43 25.5t49 9q52 0 86.5 -24.5t34.5 -79.5q0 -32 -16 -68.5t-39.5 -71.5t-49.5 -66t-47 -52q31 4 62 7t62 3q17 0 30 -9.5t13 -27.5z" />
    <glyph glyph-name="threesuperior" unicode="&#xb3;" horiz-adv-x="327" 
d="M296 458q0 -33 -13 -61.5t-35.5 -49t-52 -32t-61.5 -11.5q-12 0 -29.5 2t-33.5 7.5t-27.5 15.5t-11.5 27q0 37 37 37q17 0 33.5 -3.5t33.5 -3.5q13 0 26.5 4.5t24 12.5t17 19t6.5 25q0 8 -3 19.5t-8.5 21.5t-13 17t-17.5 7q-20 0 -37.5 -9t-37.5 -9q-13 0 -19 11t-6 22
q0 25 22 34q12 5 30.5 13t36.5 18.5t30.5 24t12.5 28.5q0 14 -10 25t-23 11t-24.5 -7t-22.5 -16t-23 -16t-25 -7q-14 0 -27.5 9.5t-13.5 24.5q0 22 14.5 39.5t35.5 30t44.5 19.5t41.5 7h3q54 0 86 -30.5t32 -84.5q0 -32 -14 -56.5t-46 -35.5q35 -8 51.5 -37.5t16.5 -62.5z
" />
    <glyph glyph-name="acute" unicode="&#xb4;" horiz-adv-x="210" 
d="M179 737q0 -11 -6 -21.5t-14.5 -19.5t-18.5 -16.5l-18 -13.5q-7 -5 -15.5 -11.5t-18 -12t-19 -9.5t-18.5 -4q-8 0 -14 4.5t-6 13.5q0 15 11.5 36.5t28.5 42t36 35t35 14.5q14 0 25.5 -11.5t11.5 -26.5z" />
    <glyph glyph-name="mu" unicode="&#xb5;" horiz-adv-x="365" 
d="M334 248q0 -20 -1 -47.5t-5.5 -56t-12 -56.5t-21 -50.5t-33 -36t-47.5 -13.5q-29 0 -57 15.5t-36 44.5q0 -9 -1.5 -37.5t-6.5 -58.5t-14.5 -53.5t-27.5 -23.5q-13 0 -21.5 13.5t-14 34.5t-8.5 47t-4.5 50t-1.5 44v29v43t1 61t4.5 67t10.5 61.5t18.5 45t28.5 17.5
q11 0 18.5 -10t12 -26t6 -35t2.5 -37t1 -33v-22q0 -15 3.5 -36.5t11 -41t21 -33.5t34.5 -14q22 0 34 25t18 58.5t7.5 66t1.5 47.5v26t3 29t11 23.5t25 9.5q16 0 24.5 -17t12 -40t3.5 -46v-34z" />
    <glyph glyph-name="paragraph" unicode="&#xb6;" horiz-adv-x="594" 
d="M563 430v-90v-48t-2 -74.5t-6.5 -85.5t-13.5 -80.5t-23.5 -60t-36.5 -23.5q-17 0 -28.5 18t-19.5 46t-13 62t-7.5 66t-3.5 57.5t-1 36.5v18.5t1 18.5q-12 0 -23.5 -1.5t-23.5 -2.5q-1 -42 -2 -83t-6 -82q-2 -15 -4.5 -41t-10 -51t-20 -43.5t-33.5 -18.5q-22 0 -36.5 20
t-23.5 51t-13.5 69t-6 73.5t-1.5 65.5v44q-41 6 -75.5 19.5t-60 36.5t-40 55.5t-14.5 77.5q0 50 19.5 88.5t52 67.5t74.5 49.5t87.5 33t90.5 18t84 5.5h22.5t25.5 -1.5t24 -5.5t18 -11q19 -19 29.5 -57.5t15 -82.5t5 -86t0.5 -68zM404 611q-26 0 -54 -3q8 -45 8 -91t2 -91
q11 2 20.5 3.5t19.5 3.5q2 45 2 89t2 89zM214 568q-19 -13 -30 -30t-11 -40q0 -38 33 -59q1 32 2.5 64.5t5.5 64.5z" />
    <glyph glyph-name="periodcentered" unicode="&#xb7;" horiz-adv-x="226" 
d="M196 355q0 -26 -21.5 -41t-45.5 -15q-15 0 -32 5.5t-32 15.5t-24.5 23.5t-9.5 30.5q0 14 6.5 24t16.5 17t22 10t24 3q15 0 32 -5t31 -14.5t23.5 -23t9.5 -30.5z" />
    <glyph glyph-name="cedilla" unicode="&#xb8;" horiz-adv-x="350" 
d="M319 -147q0 -29 -14 -54t-36 -44t-49.5 -30t-54.5 -11q-20 0 -40.5 3.5t-38 12.5t-31.5 23t-21 35q-3 6 -3 13q0 16 12 27t27 11q12 0 21 -7.5t19 -16.5t24 -16.5t37 -7.5q20 0 38 13t18 35q0 15 -10.5 25t-24 18t-28 15.5t-21.5 17.5q-8 11 -8 32v35v26.5t4 29.5
t12 23.5t25 9.5q10 0 18.5 -4.5t11.5 -13.5q5 -15 7 -32t2 -32q0 -6 -0.5 -13.5t-2.5 -12.5q16 -6 35 -16.5t35 -25t26.5 -32t10.5 -36.5z" />
    <glyph glyph-name="onesuperior" unicode="&#xb9;" horiz-adv-x="210" 
d="M158 614q0 -16 0.5 -44t0.5 -61t-2 -67t-7 -62t-14.5 -45.5t-23.5 -17.5q-22 0 -32 20.5t-13 48t-2 55t1 40.5q0 42 0.5 82t0.5 82q-26 21 -26 55q0 24 15 42t40 18q23 0 35.5 -17t18.5 -40.5t7 -48.5t1 -40z" />
    <glyph glyph-name="ordmasculine" unicode="&#xba;" horiz-adv-x="400" 
d="M380 467q0 -38 -11 -83.5t-33.5 -86t-56.5 -67.5t-80 -27q-42 0 -75.5 28t-56.5 69t-35 86.5t-12 80.5q0 39 11 88t33.5 92t57.5 72t83 29q47 0 80.5 -30t54.5 -73.5t30.5 -92t9.5 -85.5zM263 468q0 12 -3.5 37t-11 50t-19 43.5t-28.5 18.5q-16 0 -27.5 -17.5t-18.5 -41
t-10 -46.5t-3 -34q0 -13 4 -38.5t12.5 -51t20.5 -44.5t29 -19t28 18t17 41.5t8 47.5t2 36z" />
    <glyph glyph-name="guillemotright" unicode="&#xbb;" horiz-adv-x="377" 
d="M367 159q0 -13 -23.5 -40t-54 -54.5t-60.5 -48t-43 -20.5q-8 0 -10.5 6t-2.5 12q0 16 11 37t26.5 41.5t32 38.5l27.5 30q-11 14 -27 35.5t-31 45t-26 46.5t-11 41q0 8 3 14t12 6q11 0 28 -11t37 -28.5t40 -39.5t36 -43t26 -39t10 -29zM214 158q0 -9 -11 -24.5t-28 -33.5
t-38 -36.5t-41 -34t-36.5 -25t-25.5 -9.5q-8 0 -11 6t-3 12q0 16 11 37t26.5 41.5t32.5 38.5t28 30q-11 14 -27.5 35.5t-31.5 45t-25.5 46.5t-10.5 41q0 8 2.5 14t12.5 6q11 0 28 -11t36.5 -28.5t39.5 -39.5t36 -43t26 -39t10 -29z" />
    <glyph glyph-name="onequarter" unicode="&#xbc;" horiz-adv-x="759" 
d="M743 241q0 -30 -31 -37q-14 -3 -28 -5t-29 -4q-2 -23 -3.5 -46.5t-3.5 -46.5q-1 -11 -2 -29.5t-5.5 -36.5t-13.5 -31.5t-24 -13.5q-14 0 -22.5 12.5t-12.5 29t-5 34t-1 26.5q0 25 1.5 49t2.5 47q-16 -1 -31.5 -1.5t-30.5 -0.5q-8 0 -18.5 0.5t-21 2t-20 5t-13.5 9.5
q-3 4 -4.5 14.5t-2.5 23t-1 23.5v17v43.5t4 53.5t15 45t33 19q12 0 18.5 -11t10.5 -25.5t5 -29.5t1 -22q0 -17 -1.5 -35t-3.5 -35q17 1 34 1.5t34 2.5q0 6 1.5 24t4 38.5t5 38.5t5.5 24q5 11 15 18.5t24 7.5q15 0 22.5 -12t10.5 -28.5t2.5 -34t-0.5 -27.5q0 -13 -0.5 -26
t-2.5 -25q12 -1 26 -2.5t27 -6t21.5 -13t8.5 -24.5zM492 726q0 -19 -9 -48.5t-23.5 -64.5t-32.5 -72.5t-36 -72.5t-33.5 -64.5t-25.5 -48.5l-24.5 -45.5t-40 -73t-48 -84.5t-50 -80t-44.5 -59.5t-32 -23.5q-10 0 -13 10t-3 18q0 20 9.5 51t24.5 67.5t33.5 76t37.5 76
t35 67.5t27 52q7 13 23 44t37.5 69t46 79t48 74.5t44 55.5t33.5 22q9 0 12.5 -9t3.5 -16zM158 614q0 -16 0.5 -44t0.5 -61t-2 -67.5t-7 -62t-14.5 -45.5t-23.5 -18q-22 0 -32 20.5t-13 48.5t-2 55t1 41q0 42 0.5 82t0.5 81q-26 23 -26 55q0 25 15 42.5t40 17.5
q23 0 35.5 -17t18.5 -40t7 -48t1 -40z" />
    <glyph glyph-name="onehalf" unicode="&#xbd;" horiz-adv-x="679" 
d="M648 54q0 -17 -11 -28t-28 -15q-40 -8 -87 -12.5t-88 -4.5q-11 0 -32 1t-29 8q-10 7 -14.5 23.5t-4.5 27.5q0 9 2 15.5t9 12.5q7 8 14.5 15.5t14.5 15.5q13 13 37 39t47.5 55.5t41 57.5t17.5 46q0 12 -7 19.5t-18 7.5q-13 0 -23.5 -9t-21 -19.5t-22.5 -19.5t-28 -9
q-40 0 -40 40q0 26 11.5 48.5t30.5 38.5t43.5 25t49.5 9q53 0 87 -24t34 -79q0 -32 -16 -68.5t-39.5 -72t-49.5 -66t-47 -51.5q30 3 61.5 6.5t62.5 3.5q17 0 30 -9.5t13 -27.5zM492 726q0 -19 -9 -48.5t-23.5 -64.5t-32.5 -72.5t-36 -72.5t-33.5 -64.5t-25.5 -48.5
l-24.5 -45.5t-40 -73t-48 -84.5t-50 -80t-44.5 -59.5t-32 -23.5q-10 0 -13 10t-3 18q0 20 9.5 51t24.5 67.5t33.5 76t37.5 76t35 67.5t27 52q7 13 23 44t37.5 69t46 79t48 74.5t44 55.5t33.5 22q9 0 12.5 -9t3.5 -16zM158 614q0 -16 0.5 -44t0.5 -61t-2 -67.5t-7 -62
t-14.5 -45.5t-23.5 -18q-22 0 -32 20.5t-13 48.5t-2 55t1 41q0 42 0.5 82t0.5 81q-26 23 -26 55q0 25 15 42.5t40 17.5q23 0 35.5 -17t18.5 -40t7 -48t1 -40z" />
    <glyph glyph-name="threequarters" unicode="&#xbe;" horiz-adv-x="873" 
d="M858 241q0 -30 -31 -37q-27 -6 -56 -9q-1 -10 -2 -29t-2.5 -41.5t-4.5 -46.5t-8.5 -43t-14 -31.5t-20.5 -12.5q-14 0 -22.5 12.5t-13 29t-5.5 34t-1 26.5q0 25 1.5 49t3.5 47q-17 -1 -32 -1.5t-32 -0.5q-7 0 -17.5 0.5t-21 2t-20 5t-13.5 9.5q-3 4 -4.5 14.5t-2.5 23
t-1 23.5v17v43.5t4 53.5t15 45t33 19q12 0 19 -11t11 -25.5t5 -29.5t1 -22q0 -36 -6 -70q17 1 34 1.5t34 2.5q1 6 3 24t4 38.5t5 38.5t5 24q5 11 15 18.5t22 7.5q16 0 23.5 -12t10.5 -28.5t2.5 -34t-0.5 -27.5q0 -13 -0.5 -26t-1.5 -25q12 -1 26 -2.5t26.5 -6t21 -13
t8.5 -24.5zM606 726q0 -19 -9 -48.5t-23 -64.5t-32 -72.5t-35.5 -72.5t-33.5 -64.5t-26 -48.5q-7 -13 -24 -45.5t-39.5 -73t-48.5 -84.5t-50 -80t-44 -59.5t-32 -23.5q-10 0 -13 10t-3 18q0 20 9.5 51t24.5 67.5t33.5 75.5t37 75.5t35 68t26.5 52.5q7 13 23 44t37.5 69
t46.5 79t48.5 74.5t44 55.5t33.5 22q9 0 11.5 -9t2.5 -16zM296 458q0 -33 -13 -61.5t-35.5 -49t-52 -32t-61.5 -11.5q-12 0 -29.5 2t-33.5 7.5t-27.5 15.5t-11.5 27q0 37 37 37q17 0 33.5 -3.5t33.5 -3.5q13 0 26.5 4.5t24 12.5t17 19t6.5 25q0 8 -3 19.5t-8.5 21.5t-13 17
t-17.5 7q-20 0 -37.5 -9t-37.5 -9q-13 0 -19 11t-6 22q0 25 22 34q12 5 30.5 13t36.5 18.5t30.5 24t12.5 28.5q0 14 -10 25t-23 11t-24.5 -7t-22.5 -16t-23 -16t-25 -7q-14 0 -27.5 9.5t-13.5 24.5q0 22 14.5 39.5t35.5 30t44.5 19.5t41.5 7h3q54 0 86 -30.5t32 -84.5
q0 -32 -14 -56.5t-46 -35.5q35 -8 51.5 -37.5t16.5 -62.5z" />
    <glyph glyph-name="questiondown" unicode="&#xbf;" horiz-adv-x="498" 
d="M329 703q0 -15 -8.5 -27.5t-21.5 -21.5t-28.5 -13.5t-29.5 -4.5q-23 0 -42.5 12t-19.5 38q0 16 8 28.5t21 20.5t28 12t30 4q22 0 42.5 -11.5t20.5 -36.5zM477 124q0 -38 -22.5 -64t-55.5 -42.5t-70.5 -23.5t-66.5 -7q-42 0 -85 17.5t-78 47.5t-57 69.5t-22 83.5
q0 31 17.5 58.5t43 50t55 39.5t54.5 27q-3 23 -3.5 46t-0.5 47q0 16 1 38t6.5 41.5t18 33t35.5 13.5q43 0 55 -41q8 -26 9 -56.5t1 -56.5q0 -11 0.5 -31.5t0 -42t-3.5 -40t-9 -27.5q-10 -14 -32 -25.5t-44.5 -25t-39.5 -30.5t-17 -40q0 -17 8 -31t20.5 -24t28.5 -15t32 -5
q37 0 59 11.5t37.5 26t29 26t33.5 11.5q23 0 42.5 -17t19.5 -42z" />
    <glyph glyph-name="Agrave" unicode="&#xc0;" horiz-adv-x="570" 
d="M535 148q0 -20 -3.5 -48t-13.5 -53.5t-27 -43t-45 -17.5q-37 0 -55.5 27t-26.5 64.5t-9.5 76.5t-2.5 62q-72 -12 -142 -21q-2 -23 -8.5 -57t-20 -65.5t-35 -54.5t-52.5 -23q-24 0 -37.5 17.5t-20.5 41.5t-8.5 49.5t-1.5 42.5q0 57 9 112.5t21 110.5q6 29 16 68t24.5 80.5
t34 82t44.5 72.5t57 52t71 20q38 0 66 -17t49 -45t35 -63.5t23.5 -72t16 -71.5t11.5 -62q13 -65 22 -131.5t9 -133.5zM342 391q0 12 -1.5 39.5t-6.5 55t-15.5 49t-28.5 21.5q-10 0 -19 -13.5t-16 -34t-12.5 -45.5t-9.5 -48t-6 -41.5t-3 -26.5q60 5 118 15v29zM369 820
q0 -8 -6.5 -12.5t-14.5 -4.5q-18 0 -37.5 11.5t-33.5 19.5l-19.5 13t-20 16t-16 19.5t-6.5 21.5q0 15 11 26.5t26 11.5t35 -13.5t38.5 -32.5t31 -40t12.5 -36z" />
    <glyph glyph-name="Aacute" unicode="&#xc1;" horiz-adv-x="570" 
d="M535 148q0 -20 -3.5 -48t-13.5 -53.5t-27 -43t-45 -17.5q-37 0 -55.5 27t-26.5 64.5t-9.5 76.5t-2.5 62q-72 -12 -142 -21q-2 -23 -8.5 -57t-20 -65.5t-35 -54.5t-52.5 -23q-24 0 -37.5 17.5t-20.5 41.5t-8.5 49.5t-1.5 42.5q0 57 9 112.5t21 110.5q6 29 16 68t24.5 80.5
t34 82t44.5 72.5t57 52t71 20q38 0 66 -17t49 -45t35 -63.5t23.5 -72t16 -71.5t11.5 -62q13 -65 22 -131.5t9 -133.5zM342 391q0 12 -1.5 39.5t-6.5 55t-15.5 49t-28.5 21.5q-10 0 -19 -13.5t-16 -34t-12.5 -45.5t-9.5 -48t-6 -41.5t-3 -26.5q60 5 118 15v29zM394 911
q0 -11 -6 -21.5t-14.5 -19.5t-18.5 -16.5l-18 -13.5q-7 -5 -15.5 -11.5t-18 -12t-19 -9.5t-18.5 -4q-8 0 -14 4.5t-6 13.5q0 15 11.5 36.5t28.5 42t36 35t35 14.5q14 0 25.5 -11.5t11.5 -26.5z" />
    <glyph glyph-name="Acircumflex" unicode="&#xc2;" horiz-adv-x="570" 
d="M535 148q0 -20 -3.5 -48t-13.5 -53.5t-27 -43t-45 -17.5q-37 0 -55.5 27t-26.5 64.5t-9.5 76.5t-2.5 62q-72 -12 -142 -21q-2 -23 -8.5 -57t-20 -65.5t-35 -54.5t-52.5 -23q-24 0 -37.5 17.5t-20.5 41.5t-8.5 49.5t-1.5 42.5q0 57 9 112.5t21 110.5q6 29 16 68t24.5 80.5
t34 82t44.5 72.5t57 52t71 20q38 0 66 -17t49 -45t35 -63.5t23.5 -72t16 -71.5t11.5 -62q13 -65 22 -131.5t9 -133.5zM342 391q0 12 -1.5 39.5t-6.5 55t-15.5 49t-28.5 21.5q-10 0 -19 -13.5t-16 -34t-12.5 -45.5t-9.5 -48t-6 -41.5t-3 -26.5q60 5 118 15v29zM417 812
q0 -8 -3 -10t-10 -2q-12 0 -26.5 6t-29 15t-28 19t-22.5 18q-10 -8 -23.5 -19t-28.5 -20.5t-30 -16t-28 -6.5q-5 0 -9.5 2t-4.5 10q0 15 13 38t32 44t40 36t37 15t37 -14.5t39.5 -34.5t31.5 -42t13 -38z" />
    <glyph glyph-name="Atilde" unicode="&#xc3;" horiz-adv-x="570" 
d="M535 148q0 -20 -3.5 -48t-13.5 -53.5t-27 -43t-45 -17.5q-37 0 -55.5 27t-26.5 64.5t-9.5 76.5t-2.5 62q-72 -12 -142 -21q-2 -23 -8.5 -57t-20 -65.5t-35 -54.5t-52.5 -23q-24 0 -37.5 17.5t-20.5 41.5t-8.5 49.5t-1.5 42.5q0 57 9 112.5t21 110.5q6 29 16 68t24.5 80.5
t34 82t44.5 72.5t57 52t71 20q38 0 66 -17t49 -45t35 -63.5t23.5 -72t16 -71.5t11.5 -62q13 -65 22 -131.5t9 -133.5zM342 391q0 12 -1.5 39.5t-6.5 55t-15.5 49t-28.5 21.5q-10 0 -19 -13.5t-16 -34t-12.5 -45.5t-9.5 -48t-6 -41.5t-3 -26.5q60 5 118 15v29zM488 898
q0 -15 -10 -31.5t-25 -30t-32 -22t-32 -8.5t-29.5 5.5t-29 12.5t-28.5 12.5t-28 5.5q-11 0 -22 -6.5t-23 -14t-24.5 -13.5t-24.5 -6q-16 0 -26 13.5t-10 27.5q0 17 12 33t30 28.5t37.5 20t34.5 7.5q17 0 29.5 -7t23.5 -16t22.5 -16t27.5 -7q13 0 24.5 7.5t23 17t22 17
t22.5 7.5q14 0 24.5 -12t10.5 -25z" />
    <glyph glyph-name="Adieresis" unicode="&#xc4;" horiz-adv-x="570" 
d="M535 148q0 -20 -3.5 -48t-13.5 -53.5t-27 -43t-45 -17.5q-37 0 -55.5 27t-26.5 64.5t-9.5 76.5t-2.5 62q-72 -12 -142 -21q-2 -23 -8.5 -57t-20 -65.5t-35 -54.5t-52.5 -23q-24 0 -37.5 17.5t-20.5 41.5t-8.5 49.5t-1.5 42.5q0 57 9 112.5t21 110.5q6 29 16 68t24.5 80.5
t34 82t44.5 72.5t57 52t71 20q38 0 66 -17t49 -45t35 -63.5t23.5 -72t16 -71.5t11.5 -62q13 -65 22 -131.5t9 -133.5zM342 391q0 12 -1.5 39.5t-6.5 55t-15.5 49t-28.5 21.5q-10 0 -19 -13.5t-16 -34t-12.5 -45.5t-9.5 -48t-6 -41.5t-3 -26.5q60 5 118 15v29zM473 883
q0 -29 -19 -46t-48 -17q-28 0 -48.5 16.5t-20.5 45.5q0 30 18.5 51t49.5 21q30 0 49 -20.5t19 -50.5zM280 878q0 -29 -19.5 -46t-48.5 -17q-28 0 -48 16.5t-20 45.5q0 30 18 51t49 21q30 0 49.5 -20.5t19.5 -50.5z" />
    <glyph glyph-name="Aring" unicode="&#xc5;" horiz-adv-x="570" 
d="M342 391q0 12 -1.5 39.5t-6.5 55t-15.5 49t-28.5 21.5q-10 0 -19 -13.5t-16 -34t-12.5 -45.5t-9.5 -48t-6 -41.5t-3 -26.5q60 5 118 15v29zM391 816q0 -26 -13.5 -46t-34.5 -31q44 -14 72 -52.5t45.5 -87.5t27 -99.5t16.5 -86.5q13 -65 22 -131.5t9 -133.5
q0 -20 -3.5 -48t-13.5 -53.5t-27 -43t-45 -17.5q-37 0 -55.5 27t-26.5 64.5t-9.5 76.5t-2.5 62q-72 -12 -142 -21q-2 -23 -8.5 -57t-20 -65.5t-35 -54.5t-52.5 -23q-24 0 -37.5 17.5t-20.5 41.5t-8.5 49.5t-1.5 42.5q0 57 9 112.5t21 110.5q9 39 24 94.5t39 110.5t57.5 100
t80.5 62q-23 11 -37.5 32.5t-14.5 47.5q0 19 7.5 35.5t20 28.5t29.5 18.5t36 6.5q18 0 35 -6.5t30 -18.5t20.5 -28.5t7.5 -35.5zM350 815q0 21 -15 34.5t-35 13.5t-35 -13.5t-15 -34.5q0 -20 15 -33.5t35 -13.5t35 13.5t15 33.5z" />
    <glyph glyph-name="AE" unicode="&#xc6;" horiz-adv-x="846" 
d="M830 118q0 -24 -13.5 -39t-34.5 -23q-8 -3 -31.5 -7.5t-55 -9.5t-68 -10t-70 -9t-61 -6.5t-40.5 -2.5q-14 0 -27 2t-24.5 7t-20 14t-12.5 23q-5 16 -6.5 38t-1.5 45.5t0.5 46t0.5 39.5l-78 -10t-77 -10q-2 -15 -5.5 -37.5t-9.5 -46t-14.5 -44t-18.5 -32.5
q-14 -14 -30.5 -27t-37.5 -13q-24 0 -37.5 17.5t-20.5 41.5t-8.5 50t-1.5 43q0 43 7 103.5t21.5 127t37.5 132t54.5 117.5t72.5 84.5t93 32.5q82 0 135 -56q4 -4 17.5 -5.5t30 -2t31.5 0t23 0.5h38t54 -1.5t59 -6t54.5 -13.5t40 -23.5t15.5 -36.5q0 -26 -18.5 -40t-41.5 -19
q-58 -13 -122.5 -14t-123.5 -4q5 -23 9.5 -46.5t6.5 -46.5q0 -5 0.5 -12.5t0.5 -13.5q0 -8 1 -15q25 -1 46 -2q18 -1 35 -1.5t23 -0.5q22 0 45 0.5t46 -4.5q24 -5 37.5 -22.5t13.5 -41.5q0 -15 -6.5 -27t-21.5 -16q-14 -4 -34.5 -7t-42 -5t-42.5 -4t-37 -3q-2 0 -10 -1
t-17 -2.5t-16 -3.5t-7 -5q0 -8 0.5 -17.5t0.5 -18.5q0 -11 -0.5 -23.5t-0.5 -23.5q0 -1 2 -1.5t10 -0.5q54 -2 107.5 1t107.5 3h18q23 -2 37 -17t14 -38zM364 401q0 12 -1.5 39.5t-7 56t-16 50.5t-28.5 22q-10 0 -20 -13.5t-19.5 -34t-17.5 -45.5t-14 -48.5t-10.5 -42.5
t-5.5 -27q69 6 138 15q2 7 2 13.5v14.5z" />
    <glyph glyph-name="Ccedilla" unicode="&#xc7;" horiz-adv-x="482" 
d="M377 -172q0 -29 -14 -54t-36 -43.5t-50 -29.5t-55 -11q-20 0 -40.5 3.5t-38 12t-31.5 22.5t-21 35q-3 7 -3 14q0 15 12.5 26.5t26.5 11.5q13 0 21.5 -7.5t18.5 -16.5t24 -16.5t37 -7.5q20 0 38.5 12.5t18.5 35.5q0 15 -10.5 25t-24.5 18t-28 15t-21 17q-9 12 -8.5 32.5
t0.5 34.5v5q-52 16 -87.5 52t-58 83.5t-32.5 102.5t-10 109q0 42 8 92t24 100.5t40.5 97.5t57.5 83t74.5 58t91.5 22q49 0 82 -24.5t53 -62t28 -82t8 -84.5q0 -19 -4.5 -40t-14.5 -39t-26 -30t-39 -12q-35 0 -52 12.5t-24 31.5t-7.5 40.5t-1.5 40.5t-6.5 31.5t-23.5 12.5
q-20 0 -35 -14.5t-26 -37.5t-18.5 -52t-12 -57.5t-6.5 -54t-2 -41.5q0 -21 1.5 -50t9.5 -55.5t24 -45t46 -18.5q20 0 39 5t38 11.5t38.5 11.5t39.5 5q23 0 38 -18.5t15 -41.5q0 -30 -19 -57.5t-47.5 -48t-62 -33.5t-61.5 -14l-3 -12q16 -6 35 -17t35 -25.5t27 -32t11 -36.5z
" />
    <glyph glyph-name="Egrave" unicode="&#xc8;" horiz-adv-x="481" 
d="M466 157q0 -19 -10 -37q-10 -17 -47 -40t-82 -43.5t-87 -35t-62 -14.5q-14 0 -33 6.5t-38 16.5t-34.5 23t-22.5 25q-4 7 -7.5 28t-6 49t-4.5 59.5t-3.5 60t-2 50.5t-0.5 32q0 37 2.5 85t9.5 96.5t20.5 93t36.5 75.5q7 9 28 19t49.5 19t61.5 17t63.5 13.5t55.5 9t38 3.5
q15 0 28.5 -6.5t23 -17.5t15 -24.5t5.5 -28.5q0 -13 -3.5 -22t-10.5 -20q-10 -13 -42 -31t-69.5 -35.5t-72 -31.5t-48.5 -20q-4 -23 -8.5 -46.5t-6.5 -47.5q31 16 70 30t74 14q71 0 71 -70q0 -17 -6.5 -30t-17 -23t-24 -17.5t-26.5 -14.5q-32 -17 -67 -29.5t-70 -24.5
q-2 -8 -4 -17.5t-2 -18.5q0 -14 2 -28l4 -28q12 4 38.5 13t55.5 18t56 15.5t40 6.5q15 0 28 -6.5t22 -17t14.5 -24.5t5.5 -28zM298 820q0 -8 -6.5 -12.5t-14.5 -4.5q-18 0 -37.5 11.5t-33.5 19.5l-19.5 13t-20 16t-16 19.5t-6.5 21.5q0 15 11 26.5t26 11.5t35 -13.5
t38.5 -32.5t31 -40t12.5 -36z" />
    <glyph glyph-name="Eacute" unicode="&#xc9;" horiz-adv-x="481" 
d="M466 157q0 -19 -10 -37q-10 -17 -47 -40t-82 -43.5t-87 -35t-62 -14.5q-14 0 -33 6.5t-38 16.5t-34.5 23t-22.5 25q-4 7 -7.5 28t-6 49t-4.5 59.5t-3.5 60t-2 50.5t-0.5 32q0 37 2.5 85t9.5 96.5t20.5 93t36.5 75.5q7 9 28 19t49.5 19t61.5 17t63.5 13.5t55.5 9t38 3.5
q15 0 28.5 -6.5t23 -17.5t15 -24.5t5.5 -28.5q0 -13 -3.5 -22t-10.5 -20q-10 -13 -42 -31t-69.5 -35.5t-72 -31.5t-48.5 -20q-4 -23 -8.5 -46.5t-6.5 -47.5q31 16 70 30t74 14q71 0 71 -70q0 -17 -6.5 -30t-17 -23t-24 -17.5t-26.5 -14.5q-32 -17 -67 -29.5t-70 -24.5
q-2 -8 -4 -17.5t-2 -18.5q0 -14 2 -28l4 -28q12 4 38.5 13t55.5 18t56 15.5t40 6.5q15 0 28 -6.5t22 -17t14.5 -24.5t5.5 -28zM363 921q0 -11 -6 -21.5t-14.5 -19.5t-18.5 -16.5l-18 -13.5q-7 -5 -15.5 -11.5t-18 -12t-19 -9.5t-18.5 -4q-8 0 -14 4.5t-6 13.5
q0 15 11.5 36.5t28.5 42t36 35t35 14.5q14 0 25.5 -11.5t11.5 -26.5z" />
    <glyph glyph-name="Ecircumflex" unicode="&#xca;" horiz-adv-x="481" 
d="M466 157q0 -19 -10 -37q-10 -17 -47 -40t-82 -43.5t-87 -35t-62 -14.5q-14 0 -33 6.5t-38 16.5t-34.5 23t-22.5 25q-4 7 -7.5 28t-6 49t-4.5 59.5t-3.5 60t-2 50.5t-0.5 32q0 37 2.5 85t9.5 96.5t20.5 93t36.5 75.5q7 9 28 19t49.5 19t61.5 17t63.5 13.5t55.5 9t38 3.5
q15 0 28.5 -6.5t23 -17.5t15 -24.5t5.5 -28.5q0 -13 -3.5 -22t-10.5 -20q-10 -13 -42 -31t-69.5 -35.5t-72 -31.5t-48.5 -20q-4 -23 -8.5 -46.5t-6.5 -47.5q31 16 70 30t74 14q71 0 71 -70q0 -17 -6.5 -30t-17 -23t-24 -17.5t-26.5 -14.5q-32 -17 -67 -29.5t-70 -24.5
q-2 -8 -4 -17.5t-2 -18.5q0 -14 2 -28l4 -28q12 4 38.5 13t55.5 18t56 15.5t40 6.5q15 0 28 -6.5t22 -17t14.5 -24.5t5.5 -28zM387 812q0 -8 -3 -10t-10 -2q-12 0 -26.5 6t-29 15t-28 19t-22.5 18q-10 -8 -23.5 -19t-28.5 -20.5t-30 -16t-28 -6.5q-5 0 -9.5 2t-4.5 10
q0 15 13 38t32 44t40 36t37 15t37 -14.5t39.5 -34.5t31.5 -42t13 -38z" />
    <glyph glyph-name="Edieresis" unicode="&#xcb;" horiz-adv-x="481" 
d="M466 157q0 -19 -10 -37q-10 -17 -47 -40t-82 -43.5t-87 -35t-62 -14.5q-14 0 -33 6.5t-38 16.5t-34.5 23t-22.5 25q-4 7 -7.5 28t-6 49t-4.5 59.5t-3.5 60t-2 50.5t-0.5 32q0 37 2.5 85t9.5 96.5t20.5 93t36.5 75.5q7 9 28 19t49.5 19t61.5 17t63.5 13.5t55.5 9t38 3.5
q15 0 28.5 -6.5t23 -17.5t15 -24.5t5.5 -28.5q0 -13 -3.5 -22t-10.5 -20q-10 -13 -42 -31t-69.5 -35.5t-72 -31.5t-48.5 -20q-4 -23 -8.5 -46.5t-6.5 -47.5q31 16 70 30t74 14q71 0 71 -70q0 -17 -6.5 -30t-17 -23t-24 -17.5t-26.5 -14.5q-32 -17 -67 -29.5t-70 -24.5
q-2 -8 -4 -17.5t-2 -18.5q0 -14 2 -28l4 -28q12 4 38.5 13t55.5 18t56 15.5t40 6.5q15 0 28 -6.5t22 -17t14.5 -24.5t5.5 -28zM432 883q0 -29 -19 -46t-48 -17q-28 0 -48.5 16.5t-20.5 45.5q0 30 18.5 51t49.5 21q30 0 49 -20.5t19 -50.5zM239 878q0 -29 -19.5 -46
t-48.5 -17q-28 0 -48 16.5t-20 45.5q0 30 18 51t49 21q30 0 49.5 -20.5t19.5 -50.5z" />
    <glyph glyph-name="Igrave" unicode="&#xcc;" horiz-adv-x="360" 
d="M376 679q0 -19 -8.5 -34t-22.5 -25.5t-31 -17.5t-33 -10q-2 -113 -8.5 -218t-20.5 -217h6q16 0 31.5 -3.5t28 -12t20 -21t7.5 -30.5q0 -23 -14.5 -40t-38 -29t-52.5 -20t-58 -12.5t-55 -6.5t-42 -2q-12 0 -29.5 1t-33 6t-26.5 15t-11 27q0 21 8.5 37.5t22.5 29.5t31.5 21
t35.5 12q7 55 13 109.5t8 110.5q2 57 4 112.5t4 111.5q-7 -1 -13 -1.5t-11 -0.5q-14 0 -30 3t-30 10.5t-23.5 18.5t-9.5 28q0 34 28.5 56t68 34t80.5 16.5t66 4.5q14 0 37 -2t45.5 -9t39 -19t16.5 -33zM267 820q0 -8 -6.5 -12.5t-14.5 -4.5q-18 0 -37.5 11.5t-33.5 19.5
l-19.5 13t-20 16t-16 19.5t-6.5 21.5q0 15 11 26.5t26 11.5t35 -13.5t38.5 -32.5t31 -40t12.5 -36z" />
    <glyph glyph-name="Iacute" unicode="&#xcd;" horiz-adv-x="360" 
d="M376 679q0 -19 -8.5 -34t-22.5 -25.5t-31 -17.5t-33 -10q-2 -113 -8.5 -218t-20.5 -217h6q16 0 31.5 -3.5t28 -12t20 -21t7.5 -30.5q0 -23 -14.5 -40t-38 -29t-52.5 -20t-58 -12.5t-55 -6.5t-42 -2q-12 0 -29.5 1t-33 6t-26.5 15t-11 27q0 21 8.5 37.5t22.5 29.5t31.5 21
t35.5 12q7 55 13 109.5t8 110.5q2 57 4 112.5t4 111.5q-7 -1 -13 -1.5t-11 -0.5q-14 0 -30 3t-30 10.5t-23.5 18.5t-9.5 28q0 34 28.5 56t68 34t80.5 16.5t66 4.5q14 0 37 -2t45.5 -9t39 -19t16.5 -33zM333 921q0 -11 -6 -21.5t-14.5 -19.5t-18.5 -16.5l-18 -13.5
q-7 -5 -15.5 -11.5t-18 -12t-19 -9.5t-18.5 -4q-8 0 -14 4.5t-6 13.5q0 15 11.5 36.5t28.5 42t36 35t35 14.5q14 0 25.5 -11.5t11.5 -26.5z" />
    <glyph glyph-name="Icircumflex" unicode="&#xce;" horiz-adv-x="360" 
d="M376 679q0 -19 -8.5 -34t-22.5 -25.5t-31 -17.5t-33 -10q-2 -113 -8.5 -218t-20.5 -217h6q16 0 31.5 -3.5t28 -12t20 -21t7.5 -30.5q0 -23 -14.5 -40t-38 -29t-52.5 -20t-58 -12.5t-55 -6.5t-42 -2q-12 0 -29.5 1t-33 6t-26.5 15t-11 27q0 21 8.5 37.5t22.5 29.5t31.5 21
t35.5 12q7 55 13 109.5t8 110.5q2 57 4 112.5t4 111.5q-7 -1 -13 -1.5t-11 -0.5q-14 0 -30 3t-30 10.5t-23.5 18.5t-9.5 28q0 34 28.5 56t68 34t80.5 16.5t66 4.5q14 0 37 -2t45.5 -9t39 -19t16.5 -33zM315 812q0 -8 -3 -10t-10 -2q-12 0 -26.5 6t-29 15t-28 19t-22.5 18
q-10 -8 -23.5 -19t-28.5 -20.5t-30 -16t-28 -6.5q-5 0 -9.5 2t-4.5 10q0 15 13 38t32 44t40 36t37 15t37 -14.5t39.5 -34.5t31.5 -42t13 -38z" />
    <glyph glyph-name="Idieresis" unicode="&#xcf;" horiz-adv-x="360" 
d="M376 679q0 -19 -8.5 -34t-22.5 -25.5t-31 -17.5t-33 -10q-2 -113 -8.5 -218t-20.5 -217h6q16 0 31.5 -3.5t28 -12t20 -21t7.5 -30.5q0 -23 -14.5 -40t-38 -29t-52.5 -20t-58 -12.5t-55 -6.5t-42 -2q-12 0 -29.5 1t-33 6t-26.5 15t-11 27q0 21 8.5 37.5t22.5 29.5t31.5 21
t35.5 12q7 55 13 109.5t8 110.5q2 57 4 112.5t4 111.5q-7 -1 -13 -1.5t-11 -0.5q-14 0 -30 3t-30 10.5t-23.5 18.5t-9.5 28q0 34 28.5 56t68 34t80.5 16.5t66 4.5q14 0 37 -2t45.5 -9t39 -19t16.5 -33zM360 873q0 -29 -19 -46t-48 -17q-28 0 -48.5 16.5t-20.5 45.5
q0 30 18.5 51t49.5 21q30 0 49 -20.5t19 -50.5zM167 868q0 -29 -19.5 -46t-48.5 -17q-28 0 -48 16.5t-20 45.5q0 30 18 51t49 21q30 0 49.5 -20.5t19.5 -50.5z" />
    <glyph glyph-name="Eth" unicode="&#xd0;" horiz-adv-x="573" 
d="M47 355q-29 3 -51 11t-22 22q0 17 23 26.5t53 14.5q2 27 4.5 63t6.5 70.5t8.5 61.5t10.5 36q13 22 40 39t59 28t64.5 16.5t55.5 5.5q66 0 115 -24.5t81 -66t47.5 -95.5t15.5 -113q0 -88 -36 -169.5t-96.5 -144.5t-140.5 -100.5t-168 -37.5h-2q-18 0 -30 16.5t-19.5 41.5
t-12 56t-6 60.5t-2 53t-0.5 35.5v47t2 47zM321 388q0 -8 -9.5 -13.5t-25 -9.5t-35 -7t-38.5 -4q-1 -12 -1 -20.5v-12.5v-29.5t1.5 -38.5t3.5 -33t7 -14q30 0 60 23.5t53.5 57.5t38.5 71t15 63q0 22 -8 45t-23 42t-35 30.5t-44 11.5q-22 0 -44 -10q-5 -2 -8 -12t-5.5 -25
t-4.5 -34t-3 -38q18 -2 36.5 -6t34 -9t25 -12t9.5 -16z" />
    <glyph glyph-name="Ntilde" unicode="&#xd1;" horiz-adv-x="648" 
d="M612 429q0 -22 -2 -62.5t-7.5 -89t-15.5 -99t-26 -91.5t-39 -67.5t-55 -26.5q-30 0 -55 17.5t-45 43t-35 54.5t-25 53q-21 51 -42 100.5t-40 100.5v-28q0 -43 -0.5 -85.5t-6.5 -84.5q-2 -17 -4.5 -39.5t-7.5 -44.5t-14.5 -41t-25.5 -28q-9 -5 -16.5 -6t-16.5 -3h-3
q-23 0 -39 15.5t-27 40t-17.5 55t-10 60t-4.5 54.5t-1 40q0 23 2 67.5t8.5 98.5t17 111t27.5 103.5t41 76t56 29.5q31 0 55.5 -24t43.5 -57t32 -69t22 -60q17 -47 33 -93.5t31 -94.5q1 -2 4 -11t7 -20q4 -12 10 -27q0 13 -0.5 18.5t-0.5 10v11.5v22q-1 33 -1.5 66t-0.5 65
q0 14 0.5 39t3 53.5t7.5 57.5t14.5 52.5t24 38.5t35.5 15q25 0 43 -19t30 -48.5t19 -66t11 -71.5t5 -65t1 -47zM529 909q0 -15 -10 -31.5t-25 -30t-32 -22t-32 -8.5t-29.5 5.5t-29 12.5t-28.5 12.5t-28 5.5q-11 0 -22 -6.5t-23 -14t-24.5 -13.5t-24.5 -6q-16 0 -26 13.5
t-10 27.5q0 17 12 33t30 28.5t37.5 20t34.5 7.5q17 0 29.5 -7t23.5 -16t22.5 -16t27.5 -7q13 0 24.5 7.5t23 17t22 17t22.5 7.5q14 0 24.5 -12t10.5 -25z" />
    <glyph glyph-name="Ograve" unicode="&#xd2;" 
d="M259 -33q-61 0 -106 30.5t-74.5 82t-44 119.5t-14.5 143q0 70 15.5 142t47.5 130t81 95t117 37q66 0 110.5 -35.5t71 -92t38 -126.5t11.5 -140q0 -78 -15.5 -147.5t-47 -122.5t-79 -84t-111.5 -31zM271 525q-19 0 -32.5 -15t-22.5 -39.5t-13 -55t-4 -61.5q0 -35 4.5 -70
t13.5 -63t22.5 -45t32.5 -17q22 0 35 22t20.5 53t10 64t2.5 55q0 27 -3.5 57t-11.5 55.5t-21 42.5t-33 17zM339 810q0 -8 -6.5 -12.5t-14.5 -4.5q-18 0 -37.5 11.5t-33.5 19.5l-19.5 13t-20 16t-16 19.5t-6.5 21.5q0 15 11 26.5t26 11.5t35 -13.5t38.5 -32.5t31 -40
t12.5 -36z" />
    <glyph glyph-name="Oacute" unicode="&#xd3;" 
d="M259 -33q-61 0 -106 30.5t-74.5 82t-44 119.5t-14.5 143q0 70 15.5 142t47.5 130t81 95t117 37q66 0 110.5 -35.5t71 -92t38 -126.5t11.5 -140q0 -78 -15.5 -147.5t-47 -122.5t-79 -84t-111.5 -31zM271 525q-19 0 -32.5 -15t-22.5 -39.5t-13 -55t-4 -61.5q0 -35 4.5 -70
t13.5 -63t22.5 -45t32.5 -17q22 0 35 22t20.5 53t10 64t2.5 55q0 27 -3.5 57t-11.5 55.5t-21 42.5t-33 17zM384 911q0 -11 -6 -21.5t-14.5 -19.5t-18.5 -16.5l-18 -13.5q-7 -5 -15.5 -11.5t-18 -12t-19 -9.5t-18.5 -4q-8 0 -14 4.5t-6 13.5q0 15 11.5 36.5t28.5 42t36 35
t35 14.5q14 0 25.5 -11.5t11.5 -26.5z" />
    <glyph glyph-name="Ocircumflex" unicode="&#xd4;" 
d="M259 -33q-61 0 -106 30.5t-74.5 82t-44 119.5t-14.5 143q0 70 15.5 142t47.5 130t81 95t117 37q66 0 110.5 -35.5t71 -92t38 -126.5t11.5 -140q0 -78 -15.5 -147.5t-47 -122.5t-79 -84t-111.5 -31zM271 525q-19 0 -32.5 -15t-22.5 -39.5t-13 -55t-4 -61.5q0 -35 4.5 -70
t13.5 -63t22.5 -45t32.5 -17q22 0 35 22t20.5 53t10 64t2.5 55q0 27 -3.5 57t-11.5 55.5t-21 42.5t-33 17zM407 812q0 -8 -3 -10t-10 -2q-12 0 -26.5 6t-29 15t-28 19t-22.5 18q-10 -8 -23.5 -19t-28.5 -20.5t-30 -16t-28 -6.5q-5 0 -9.5 2t-4.5 10q0 15 13 38t32 44t40 36
t37 15t37 -14.5t39.5 -34.5t31.5 -42t13 -38z" />
    <glyph glyph-name="Otilde" unicode="&#xd5;" 
d="M259 -33q-61 0 -106 30.5t-74.5 82t-44 119.5t-14.5 143q0 70 15.5 142t47.5 130t81 95t117 37q66 0 110.5 -35.5t71 -92t38 -126.5t11.5 -140q0 -78 -15.5 -147.5t-47 -122.5t-79 -84t-111.5 -31zM271 525q-19 0 -32.5 -15t-22.5 -39.5t-13 -55t-4 -61.5q0 -35 4.5 -70
t13.5 -63t22.5 -45t32.5 -17q22 0 35 22t20.5 53t10 64t2.5 55q0 27 -3.5 57t-11.5 55.5t-21 42.5t-33 17zM447 898q0 -15 -10 -31.5t-25 -30t-32 -22t-32 -8.5t-29.5 5.5t-29 12.5t-28.5 12.5t-28 5.5q-11 0 -22 -6.5t-23 -14t-24.5 -13.5t-24.5 -6q-16 0 -26 13.5
t-10 27.5q0 17 12 33t30 28.5t37.5 20t34.5 7.5q17 0 29.5 -7t23.5 -16t22.5 -16t27.5 -7q13 0 24.5 7.5t23 17t22 17t22.5 7.5q14 0 24.5 -12t10.5 -25z" />
    <glyph glyph-name="Odieresis" unicode="&#xd6;" 
d="M259 -33q-61 0 -106 30.5t-74.5 82t-44 119.5t-14.5 143q0 70 15.5 142t47.5 130t81 95t117 37q66 0 110.5 -35.5t71 -92t38 -126.5t11.5 -140q0 -78 -15.5 -147.5t-47 -122.5t-79 -84t-111.5 -31zM271 525q-19 0 -32.5 -15t-22.5 -39.5t-13 -55t-4 -61.5q0 -35 4.5 -70
t13.5 -63t22.5 -45t32.5 -17q22 0 35 22t20.5 53t10 64t2.5 55q0 27 -3.5 57t-11.5 55.5t-21 42.5t-33 17zM452 883q0 -29 -19 -46t-48 -17q-28 0 -48.5 16.5t-20.5 45.5q0 30 18.5 51t49.5 21q30 0 49 -20.5t19 -50.5zM259 878q0 -29 -19.5 -46t-48.5 -17q-28 0 -48 16.5
t-20 45.5q0 30 18 51t49 21q30 0 49.5 -20.5t19.5 -50.5z" />
    <glyph glyph-name="multiply" unicode="&#xd7;" horiz-adv-x="418" 
d="M387 436q0 -14 -15.5 -39t-36 -52.5t-40.5 -52t-29 -35.5q10 -11 28 -30t34.5 -40.5t29 -43.5t12.5 -40q0 -20 -19 -20q-18 0 -39 13t-41 31.5t-37.5 37.5t-28.5 31q-12 -14 -31 -33.5t-40.5 -37.5t-44 -31t-41.5 -13q-17 0 -17 17q0 16 15 40.5t35 48.5t40.5 45t31.5 31
q-8 10 -24.5 33t-33.5 48.5t-30 50t-13 38.5q0 8 4.5 15t14.5 7q14 0 35 -16t42 -37t39 -42t26 -31q10 11 30 32t42.5 42t44.5 36.5t37 15.5q8 0 14 -4.5t6 -14.5z" />
    <glyph glyph-name="Oslash" unicode="&#xd8;" 
d="M498 760q0 -26 -9.5 -63t-25.5 -80q26 -57 37.5 -126.5t11.5 -138.5q0 -78 -15.5 -147.5t-47 -122.5t-79 -84t-111.5 -31q-55 0 -98 26q-26 -39 -47.5 -63.5t-37.5 -24.5q-8 0 -13.5 5t-8.5 12.5t-4 16t-1 14.5q0 24 8 56.5t21 70.5q-29 52 -43.5 119.5t-14.5 142.5
q0 70 15.5 142t47.5 130t81 95t117 37q31 0 56.5 -8t47.5 -22q26 38 48.5 61.5t39.5 23.5q16 0 20.5 -15t4.5 -26zM271 525q-19 0 -32.5 -15t-22.5 -39.5t-13 -55t-4 -61.5q0 -35 4.5 -70t13.5 -63t22.5 -45t32.5 -17q22 0 35 22t20.5 53t10 64t2.5 55q0 27 -3.5 57
t-11.5 55.5t-21 42.5t-33 17z" />
    <glyph glyph-name="Ugrave" unicode="&#xd9;" horiz-adv-x="602" 
d="M566 351q0 -41 -4 -84.5t-14 -84.5t-27.5 -77.5t-44.5 -64t-65 -43.5t-89 -16q-75 0 -130.5 35t-92.5 89.5t-55 122t-18 133.5v13t1 11q1 21 3.5 57t8.5 77t15.5 84t25 77t37.5 56t52 22q22 0 37 -13t24.5 -32.5t13.5 -41t4 -39.5q0 -27 -5.5 -54.5t-10.5 -54.5
q-8 -43 -13 -86t-5 -88q0 -23 2.5 -56t12.5 -63.5t28.5 -52t50.5 -21.5q31 0 49.5 21t27.5 50t11.5 61t2.5 55q0 66 -11 130.5t-29 128.5q-5 17 -8.5 34t-3.5 34q0 28 16.5 49t46.5 21q25 0 46.5 -19.5t38.5 -51t29.5 -70.5t21.5 -77.5t13.5 -73.5t5.5 -57q1 -10 1 -19.5
v-20.5zM380 820q0 -8 -6.5 -12.5t-14.5 -4.5q-18 0 -37.5 11.5t-33.5 19.5l-19.5 13t-20 16t-16 19.5t-6.5 21.5q0 15 11 26.5t26 11.5t35 -13.5t38.5 -32.5t31 -40t12.5 -36z" />
    <glyph glyph-name="Uacute" unicode="&#xda;" horiz-adv-x="602" 
d="M566 351q0 -41 -4 -84.5t-14 -84.5t-27.5 -77.5t-44.5 -64t-65 -43.5t-89 -16q-75 0 -130.5 35t-92.5 89.5t-55 122t-18 133.5v13t1 11q1 21 3.5 57t8.5 77t15.5 84t25 77t37.5 56t52 22q22 0 37 -13t24.5 -32.5t13.5 -41t4 -39.5q0 -27 -5.5 -54.5t-10.5 -54.5
q-8 -43 -13 -86t-5 -88q0 -23 2.5 -56t12.5 -63.5t28.5 -52t50.5 -21.5q31 0 49.5 21t27.5 50t11.5 61t2.5 55q0 66 -11 130.5t-29 128.5q-5 17 -8.5 34t-3.5 34q0 28 16.5 49t46.5 21q25 0 46.5 -19.5t38.5 -51t29.5 -70.5t21.5 -77.5t13.5 -73.5t5.5 -57q1 -10 1 -19.5
v-20.5zM415 911q0 -11 -6 -21.5t-14.5 -19.5t-18.5 -16.5l-18 -13.5q-7 -5 -15.5 -11.5t-18 -12t-19 -9.5t-18.5 -4q-8 0 -14 4.5t-6 13.5q0 15 11.5 36.5t28.5 42t36 35t35 14.5q14 0 25.5 -11.5t11.5 -26.5z" />
    <glyph glyph-name="Ucircumflex" unicode="&#xdb;" horiz-adv-x="602" 
d="M566 351q0 -41 -4 -84.5t-14 -84.5t-27.5 -77.5t-44.5 -64t-65 -43.5t-89 -16q-75 0 -130.5 35t-92.5 89.5t-55 122t-18 133.5v13t1 11q1 21 3.5 57t8.5 77t15.5 84t25 77t37.5 56t52 22q22 0 37 -13t24.5 -32.5t13.5 -41t4 -39.5q0 -27 -5.5 -54.5t-10.5 -54.5
q-8 -43 -13 -86t-5 -88q0 -23 2.5 -56t12.5 -63.5t28.5 -52t50.5 -21.5q31 0 49.5 21t27.5 50t11.5 61t2.5 55q0 66 -11 130.5t-29 128.5q-5 17 -8.5 34t-3.5 34q0 28 16.5 49t46.5 21q25 0 46.5 -19.5t38.5 -51t29.5 -70.5t21.5 -77.5t13.5 -73.5t5.5 -57q1 -10 1 -19.5
v-20.5zM428 823q0 -8 -3 -10t-10 -2q-12 0 -26.5 6t-29 15t-28 19t-22.5 18q-10 -8 -23.5 -19t-28.5 -20.5t-30 -16t-28 -6.5q-5 0 -9.5 2t-4.5 10q0 15 13 38t32 44t40 36t37 15t37 -14.5t39.5 -34.5t31.5 -42t13 -38z" />
    <glyph glyph-name="Udieresis" unicode="&#xdc;" horiz-adv-x="602" 
d="M566 351q0 -41 -4 -84.5t-14 -84.5t-27.5 -77.5t-44.5 -64t-65 -43.5t-89 -16q-75 0 -130.5 35t-92.5 89.5t-55 122t-18 133.5v13t1 11q1 21 3.5 57t8.5 77t15.5 84t25 77t37.5 56t52 22q22 0 37 -13t24.5 -32.5t13.5 -41t4 -39.5q0 -27 -5.5 -54.5t-10.5 -54.5
q-8 -43 -13 -86t-5 -88q0 -23 2.5 -56t12.5 -63.5t28.5 -52t50.5 -21.5q31 0 49.5 21t27.5 50t11.5 61t2.5 55q0 66 -11 130.5t-29 128.5q-5 17 -8.5 34t-3.5 34q0 28 16.5 49t46.5 21q25 0 46.5 -19.5t38.5 -51t29.5 -70.5t21.5 -77.5t13.5 -73.5t5.5 -57q1 -10 1 -19.5
v-20.5zM462 883q0 -29 -19 -46t-48 -17q-28 0 -48.5 16.5t-20.5 45.5q0 30 18.5 51t49.5 21q30 0 49 -20.5t19 -50.5zM269 878q0 -29 -19.5 -46t-48.5 -17q-28 0 -48 16.5t-20 45.5q0 30 18 51t49 21q30 0 49.5 -20.5t19.5 -50.5z" />
    <glyph glyph-name="Yacute" unicode="&#xdd;" horiz-adv-x="445" 
d="M481 688q0 -44 -11.5 -97t-29.5 -107t-39 -105t-39 -90q-10 -22 -24.5 -55.5t-32.5 -71.5t-38.5 -76.5t-42.5 -69t-45 -50t-46 -19.5q-32 0 -45.5 23.5t-13.5 52.5q0 28 9.5 59.5t24 62.5t32 60t32.5 52q-20 5 -39 18t-28 31q-16 35 -33 79t-30.5 89.5t-22.5 91t-9 83.5
q0 18 4 39.5t13.5 40t25 31t38.5 12.5q26 0 46 -19.5t35.5 -49.5t26.5 -67t19 -73t13 -66t9 -47q4 15 13.5 45.5t23 67.5t31 76t37 71t41.5 52.5t45 20.5q15 0 25 -11t15.5 -26t7.5 -31t2 -27zM374 921q0 -11 -6 -21.5t-14.5 -19.5t-18.5 -16.5l-18 -13.5q-7 -5 -15.5 -11.5
t-18 -12t-19 -9.5t-18.5 -4q-8 0 -14 4.5t-6 13.5q0 15 11.5 36.5t28.5 42t36 35t35 14.5q14 0 25.5 -11.5t11.5 -26.5z" />
    <glyph glyph-name="Thorn" unicode="&#xde;" horiz-adv-x="501" 
d="M506 396q0 -62 -27.5 -109.5t-71 -80.5t-98 -51.5t-108.5 -22.5q-2 -14 -7.5 -41.5t-16 -54.5t-26 -47.5t-37.5 -20.5t-36.5 20.5t-23.5 53t-14 71.5t-7 76t-2 66.5v43.5v89v48t2 74.5t6.5 85.5t13.5 80.5t23.5 60t36.5 23.5q25 0 41.5 -21t25.5 -49.5t13 -58.5t4 -48
q8 0 17.5 1.5t18.5 2.5q28 3 57 3q48 0 87.5 -11t68 -34t44.5 -60t16 -89zM348 373q1 36 -19 59t-58 23q-17 0 -34 -4t-33 -10q-2 -45 -1.5 -89.5t-1.5 -89.5h3q25 0 50 7t46 21t34 34.5t14 48.5z" />
    <glyph glyph-name="germandbls" unicode="&#xdf;" horiz-adv-x="607" 
d="M597 216q0 -42 -21.5 -82.5t-55.5 -72t-76 -50.5t-83 -19q-17 0 -34 2.5t-31 9.5t-22.5 19.5t-8.5 32.5q0 28 11 43.5t28 24.5t36.5 14t36.5 12.5t28 19.5t11 34q0 21 -16.5 43.5t-36.5 48t-36.5 55t-16.5 64.5q0 24 7 46.5t16 42t16 36t7 29.5q0 12 -3.5 24t-10.5 22.5
t-17.5 17t-23.5 6.5q-23 0 -36.5 -22.5t-20.5 -53t-9 -61t-2 -46.5q0 -27 1 -54.5t3 -55.5q2 -70 4.5 -142.5t-2.5 -143.5q-3 -29 -23.5 -50t-50.5 -21q-17 0 -29 6.5t-19.5 17.5t-11.5 25t-5 29q-5 60 -8 120.5t-2 121.5q-7 -1 -13 -1h-14q-14 0 -31 3t-32 10.5t-25.5 20
t-10.5 30.5q0 20 14.5 34t35.5 23t43.5 13.5t38.5 6.5v18q0 51 9.5 107t33 103t64 77.5t103.5 30.5q41 0 75.5 -15t60 -40.5t40 -60.5t14.5 -75q0 -21 -4.5 -41.5t-10 -41t-10 -40.5t-4.5 -41t9.5 -36.5t24 -29.5t31.5 -27.5t31.5 -30.5t24 -39t9.5 -51z" />
    <glyph glyph-name="agrave" unicode="&#xe0;" horiz-adv-x="485" 
d="M455 141q0 -18 -1.5 -47t-8.5 -56.5t-22 -47.5t-42 -20q-37 0 -57 24t-19 60q-32 -28 -72.5 -44t-82.5 -16q-29 0 -55 14t-46 36t-32 49.5t-12 54.5q0 48 29.5 84t72.5 61.5t91.5 40.5t86.5 20q0 5 0.5 9t0.5 9q0 31 -17 50t-48 19q-25 0 -43 -8.5t-34 -19t-32 -19
t-36 -8.5q-22 0 -37.5 14t-15.5 36q0 33 19.5 60t49 45.5t64 29t63.5 10.5q27 0 54 -6.5t51 -20t43.5 -33t31.5 -45.5q18 -37 29 -78.5t17 -85t8 -87t2 -84.5zM295 173l-3 68q-2 0 -4 0.5t-4 0.5q-13 0 -32.5 -6.5t-37.5 -18t-30.5 -25.5t-12.5 -29q0 -14 10 -19t23 -5
q22 0 47 11.5t44 22.5zM318 666q0 -8 -6.5 -12.5t-14.5 -4.5q-18 0 -37.5 11.5t-33.5 19.5l-19.5 13t-20 16t-16 19.5t-6.5 21.5q0 15 11 26.5t26 11.5t35 -13.5t38.5 -32.5t31 -40t12.5 -36z" />
    <glyph glyph-name="aacute" unicode="&#xe1;" horiz-adv-x="485" 
d="M455 141q0 -18 -1.5 -47t-8.5 -56.5t-22 -47.5t-42 -20q-37 0 -57 24t-19 60q-32 -28 -72.5 -44t-82.5 -16q-29 0 -55 14t-46 36t-32 49.5t-12 54.5q0 48 29.5 84t72.5 61.5t91.5 40.5t86.5 20q0 5 0.5 9t0.5 9q0 31 -17 50t-48 19q-25 0 -43 -8.5t-34 -19t-32 -19
t-36 -8.5q-22 0 -37.5 14t-15.5 36q0 33 19.5 60t49 45.5t64 29t63.5 10.5q27 0 54 -6.5t51 -20t43.5 -33t31.5 -45.5q18 -37 29 -78.5t17 -85t8 -87t2 -84.5zM295 173l-3 68q-2 0 -4 0.5t-4 0.5q-13 0 -32.5 -6.5t-37.5 -18t-30.5 -25.5t-12.5 -29q0 -14 10 -19t23 -5
q22 0 47 11.5t44 22.5zM343 757q0 -11 -6 -21.5t-14.5 -19.5t-18.5 -16.5l-18 -13.5q-7 -5 -15.5 -11.5t-18 -12t-19 -9.5t-18.5 -4q-8 0 -14 4.5t-6 13.5q0 15 11.5 36.5t28.5 42t36 35t35 14.5q14 0 25.5 -11.5t11.5 -26.5z" />
    <glyph glyph-name="acircumflex" unicode="&#xe2;" horiz-adv-x="485" 
d="M455 141q0 -18 -1.5 -47t-8.5 -56.5t-22 -47.5t-42 -20q-37 0 -57 24t-19 60q-32 -28 -72.5 -44t-82.5 -16q-29 0 -55 14t-46 36t-32 49.5t-12 54.5q0 48 29.5 84t72.5 61.5t91.5 40.5t86.5 20q0 5 0.5 9t0.5 9q0 31 -17 50t-48 19q-25 0 -43 -8.5t-34 -19t-32 -19
t-36 -8.5q-22 0 -37.5 14t-15.5 36q0 33 19.5 60t49 45.5t64 29t63.5 10.5q27 0 54 -6.5t51 -20t43.5 -33t31.5 -45.5q18 -37 29 -78.5t17 -85t8 -87t2 -84.5zM295 173l-3 68q-2 0 -4 0.5t-4 0.5q-13 0 -32.5 -6.5t-37.5 -18t-30.5 -25.5t-12.5 -29q0 -14 10 -19t23 -5
q22 0 47 11.5t44 22.5zM356 659q0 -8 -3 -10t-10 -2q-12 0 -26.5 6t-29 15t-28 19t-22.5 18q-10 -8 -23.5 -19t-28.5 -20.5t-30 -16t-28 -6.5q-5 0 -9.5 2t-4.5 10q0 15 13 38t32 44t40 36t37 15t37 -14.5t39.5 -34.5t31.5 -42t13 -38z" />
    <glyph glyph-name="atilde" unicode="&#xe3;" horiz-adv-x="485" 
d="M455 141q0 -18 -1.5 -47t-8.5 -56.5t-22 -47.5t-42 -20q-37 0 -57 24t-19 60q-32 -28 -72.5 -44t-82.5 -16q-29 0 -55 14t-46 36t-32 49.5t-12 54.5q0 48 29.5 84t72.5 61.5t91.5 40.5t86.5 20q0 5 0.5 9t0.5 9q0 31 -17 50t-48 19q-25 0 -43 -8.5t-34 -19t-32 -19
t-36 -8.5q-22 0 -37.5 14t-15.5 36q0 33 19.5 60t49 45.5t64 29t63.5 10.5q27 0 54 -6.5t51 -20t43.5 -33t31.5 -45.5q18 -37 29 -78.5t17 -85t8 -87t2 -84.5zM295 173l-3 68q-2 0 -4 0.5t-4 0.5q-13 0 -32.5 -6.5t-37.5 -18t-30.5 -25.5t-12.5 -29q0 -14 10 -19t23 -5
q22 0 47 11.5t44 22.5zM416 745q0 -15 -10 -31.5t-25 -30t-32 -22t-32 -8.5t-29.5 5.5t-29 12.5t-28.5 12.5t-28 5.5q-11 0 -22 -6.5t-23 -14t-24.5 -13.5t-24.5 -6q-16 0 -26 13.5t-10 27.5q0 17 12 33t30 28.5t37.5 20t34.5 7.5q17 0 29.5 -7t23.5 -16t22.5 -16t27.5 -7
q13 0 24.5 7.5t23 17t22 17t22.5 7.5q14 0 24.5 -12t10.5 -25z" />
    <glyph glyph-name="adieresis" unicode="&#xe4;" horiz-adv-x="485" 
d="M455 141q0 -18 -1.5 -47t-8.5 -56.5t-22 -47.5t-42 -20q-37 0 -57 24t-19 60q-32 -28 -72.5 -44t-82.5 -16q-29 0 -55 14t-46 36t-32 49.5t-12 54.5q0 48 29.5 84t72.5 61.5t91.5 40.5t86.5 20q0 5 0.5 9t0.5 9q0 31 -17 50t-48 19q-25 0 -43 -8.5t-34 -19t-32 -19
t-36 -8.5q-22 0 -37.5 14t-15.5 36q0 33 19.5 60t49 45.5t64 29t63.5 10.5q27 0 54 -6.5t51 -20t43.5 -33t31.5 -45.5q18 -37 29 -78.5t17 -85t8 -87t2 -84.5zM295 173l-3 68q-2 0 -4 0.5t-4 0.5q-13 0 -32.5 -6.5t-37.5 -18t-30.5 -25.5t-12.5 -29q0 -14 10 -19t23 -5
q22 0 47 11.5t44 22.5zM411 719q0 -29 -19 -46t-48 -17q-28 0 -48.5 16.5t-20.5 45.5q0 30 18.5 51t49.5 21q30 0 49 -20.5t19 -50.5zM218 714q0 -29 -19.5 -46t-48.5 -17q-28 0 -48 16.5t-20 45.5q0 30 18 51t49 21q30 0 49.5 -20.5t19.5 -50.5z" />
    <glyph glyph-name="aring" unicode="&#xe5;" horiz-adv-x="485" 
d="M295 173l-3 68q-2 0 -4 0.5t-4 0.5q-13 0 -32.5 -6.5t-37.5 -18t-30.5 -25.5t-12.5 -29q0 -14 10 -19t23 -5q22 0 47 11.5t44 22.5zM330 652q0 -26 -14.5 -47t-37.5 -32q38 -11 70.5 -35t50.5 -62q18 -37 29 -78.5t17 -85t8 -87t2 -84.5q0 -18 -1.5 -47t-8.5 -56.5
t-22 -47.5t-42 -20q-37 0 -57 24t-19 60q-32 -28 -72.5 -44t-82.5 -16q-29 0 -55 14t-46 36t-32 49.5t-12 54.5q0 48 29.5 84t72.5 61.5t91.5 40.5t86.5 20q0 5 0.5 9t0.5 9q0 31 -17 50t-48 19q-25 0 -43 -8.5t-34 -19t-32 -19t-36 -8.5q-22 0 -37.5 14t-15.5 36
q0 28 15 52t38.5 42.5t52.5 30.5t57 17q-19 11 -31 31t-12 43q0 19 7.5 35.5t20.5 28.5t30 18.5t36 6.5q18 0 35 -6.5t30 -18.5t20.5 -28.5t7.5 -35.5zM289 651q0 21 -15 34.5t-35 13.5t-35.5 -13.5t-15.5 -34.5q0 -20 15.5 -33.5t35.5 -13.5t35 13.5t15 33.5z" />
    <glyph glyph-name="ae" unicode="&#xe6;" horiz-adv-x="838" 
d="M827 164q0 -17 -7 -34.5t-16 -31.5q-15 -24 -35.5 -45t-45.5 -36.5t-52.5 -25t-56.5 -9.5q-53 0 -95 27.5t-70 70.5q-3 -9 -9.5 -23t-15.5 -27.5t-20 -23t-23 -9.5q-37 0 -57 24t-19 60q-32 -28 -72.5 -44.5t-82.5 -16.5q-29 0 -55 14t-46 36t-32 49.5t-12 55.5
q0 48 29.5 84t72.5 61.5t91.5 40.5t86.5 20q0 5 0.5 9t0.5 8q0 31 -17 50.5t-48 19.5q-25 0 -43 -8.5t-34 -18.5t-32 -18.5t-36 -8.5q-22 0 -37.5 13.5t-15.5 36.5q0 34 20.5 61t50.5 45.5t65.5 28t65.5 9.5q27 0 54.5 -6t51 -18.5t41.5 -32.5t27 -47t14.5 -55t14.5 -55
q14 34 34 67.5t46 59t59.5 41.5t74.5 16q33 0 61.5 -10t49 -29t32.5 -46.5t12 -61.5q0 -48 -20 -89t-53 -71.5t-76 -49t-89 -20.5q4 -29 23.5 -42.5t46.5 -13.5q20 0 39 10t37 22.5t35.5 22.5t35.5 10q20 0 35.5 -13t15.5 -33zM677 404q0 18 -9.5 32t-29.5 14
q-25 0 -42.5 -13t-29 -32.5t-17 -43t-5.5 -43.5q0 -2 0.5 -8t4.5 -6q21 0 43.5 7t41 20t31 31.5t12.5 41.5zM295 201l-3 66q-3 1 -8 1q-13 0 -32.5 -6.5t-37.5 -18t-30.5 -25.5t-12.5 -29q0 -13 10 -18t23 -5q22 0 47 11.5t44 23.5z" />
    <glyph glyph-name="ccedilla" unicode="&#xe7;" horiz-adv-x="409" 
d="M341 -147q0 -29 -14 -54t-36 -44t-50 -30t-55 -11q-20 0 -40.5 3.5t-38 12.5t-31.5 23t-21 35q-3 6 -3 13q0 16 12.5 27t26.5 11q13 0 21.5 -7.5t18.5 -16.5t24 -16.5t38 -7.5q20 0 38 13t18 35q0 15 -10.5 25t-24.5 18t-28 15.5t-21 17.5q-8 11 -8 32v35v13
q-41 9 -69 36.5t-45 64.5t-25 79t-8 80q0 33 6 70t18 73t31 69t44.5 58t58 40t72.5 15q36 0 63 -16t44.5 -42t26.5 -58t9 -64q0 -8 -0.5 -19t-3.5 -19q-8 -20 -26 -34.5t-41 -14.5q-34 0 -47 34q-3 9 -2.5 23.5t-1 28t-7.5 23.5t-21 10q-18 0 -34 -21.5t-28 -51.5t-19 -60.5
t-7 -48.5q0 -13 2.5 -34.5t9 -42.5t18 -36t29.5 -15t33 11t29 24.5t28 24.5t31 11q21 0 34.5 -16t13.5 -37q0 -26 -12 -49.5t-31 -42.5t-43.5 -33t-49.5 -20v-6q0 -6 -0.5 -13.5t-3.5 -12.5q16 -6 35 -16.5t35 -25t27 -32t11 -36.5z" />
    <glyph glyph-name="egrave" unicode="&#xe8;" horiz-adv-x="459" 
d="M449 178q0 -34 -21.5 -66.5t-54 -58t-69.5 -41t-68 -15.5q-53 0 -94.5 26.5t-69.5 67.5t-42.5 90.5t-14.5 96.5q0 50 14 107t42.5 105t72 80t103.5 32q34 0 65 -11.5t54 -32.5t37 -50t14 -65q0 -47 -20 -88t-53 -71t-76 -48.5t-88 -20.5q4 -29 23.5 -42t46.5 -13
q20 0 39 10t37 22.5t35.5 22.5t35.5 10q20 0 36 -13t16 -34zM287 423q0 13 -7 27t-22 14q-22 0 -37 -11.5t-25 -29t-15.5 -37.5t-6.5 -37q14 3 33.5 8t37 13.5t30 21.5t12.5 31zM308 677q0 -8 -6.5 -12.5t-14.5 -4.5q-18 0 -37.5 11.5t-33.5 19.5l-19.5 13t-20 16t-16 19.5
t-6.5 21.5q0 15 11 26.5t26 11.5t35 -13.5t38.5 -32.5t31 -40t12.5 -36z" />
    <glyph glyph-name="eacute" unicode="&#xe9;" horiz-adv-x="459" 
d="M449 178q0 -34 -21.5 -66.5t-54 -58t-69.5 -41t-68 -15.5q-53 0 -94.5 26.5t-69.5 67.5t-42.5 90.5t-14.5 96.5q0 50 14 107t42.5 105t72 80t103.5 32q34 0 65 -11.5t54 -32.5t37 -50t14 -65q0 -47 -20 -88t-53 -71t-76 -48.5t-88 -20.5q4 -29 23.5 -42t46.5 -13
q20 0 39 10t37 22.5t35.5 22.5t35.5 10q20 0 36 -13t16 -34zM287 423q0 13 -7 27t-22 14q-22 0 -37 -11.5t-25 -29t-15.5 -37.5t-6.5 -37q14 3 33.5 8t37 13.5t30 21.5t12.5 31zM343 778q0 -11 -6 -21.5t-14.5 -19.5t-18.5 -16.5l-18 -13.5q-7 -5 -15.5 -11.5t-18 -12
t-19 -9.5t-18.5 -4q-8 0 -14 4.5t-6 13.5q0 15 11.5 36.5t28.5 42t36 35t35 14.5q14 0 25.5 -11.5t11.5 -26.5z" />
    <glyph glyph-name="ecircumflex" unicode="&#xea;" horiz-adv-x="459" 
d="M449 178q0 -34 -21.5 -66.5t-54 -58t-69.5 -41t-68 -15.5q-53 0 -94.5 26.5t-69.5 67.5t-42.5 90.5t-14.5 96.5q0 50 14 107t42.5 105t72 80t103.5 32q34 0 65 -11.5t54 -32.5t37 -50t14 -65q0 -47 -20 -88t-53 -71t-76 -48.5t-88 -20.5q4 -29 23.5 -42t46.5 -13
q20 0 39 10t37 22.5t35.5 22.5t35.5 10q20 0 36 -13t16 -34zM287 423q0 13 -7 27t-22 14q-22 0 -37 -11.5t-25 -29t-15.5 -37.5t-6.5 -37q14 3 33.5 8t37 13.5t30 21.5t12.5 31zM376 669q0 -8 -3 -10t-10 -2q-12 0 -26.5 6t-29 15t-28 19t-22.5 18q-10 -8 -23.5 -19
t-28.5 -20.5t-30 -16t-28 -6.5q-5 0 -9.5 2t-4.5 10q0 15 13 38t32 44t40 36t37 15t37 -14.5t39.5 -34.5t31.5 -42t13 -38z" />
    <glyph glyph-name="edieresis" unicode="&#xeb;" horiz-adv-x="459" 
d="M449 178q0 -34 -21.5 -66.5t-54 -58t-69.5 -41t-68 -15.5q-53 0 -94.5 26.5t-69.5 67.5t-42.5 90.5t-14.5 96.5q0 50 14 107t42.5 105t72 80t103.5 32q34 0 65 -11.5t54 -32.5t37 -50t14 -65q0 -47 -20 -88t-53 -71t-76 -48.5t-88 -20.5q4 -29 23.5 -42t46.5 -13
q20 0 39 10t37 22.5t35.5 22.5t35.5 10q20 0 36 -13t16 -34zM287 423q0 13 -7 27t-22 14q-22 0 -37 -11.5t-25 -29t-15.5 -37.5t-6.5 -37q14 3 33.5 8t37 13.5t30 21.5t12.5 31zM411 730q0 -29 -19 -46t-48 -17q-28 0 -48.5 16.5t-20.5 45.5q0 30 18.5 51t49.5 21
q30 0 49 -20.5t19 -50.5zM218 725q0 -29 -19.5 -46t-48.5 -17q-28 0 -48 16.5t-20 45.5q0 30 18 51t49 21q30 0 49.5 -20.5t19.5 -50.5z" />
    <glyph glyph-name="igrave" unicode="&#xec;" horiz-adv-x="244" 
d="M203 358v-29.5t-1 -29.5q-1 -17 -1 -45.5t-2 -61.5t-6.5 -67t-14.5 -62t-26.5 -45.5t-41.5 -18.5q-19 -1 -32 15t-21.5 41.5t-12.5 57t-6 61t-2 54.5v37v45.5t2 63.5t7.5 69t16 64t27.5 47t43 18q27 0 41 -27t21 -63t8 -71.5t1 -52.5zM185 666q0 -8 -6.5 -12.5
t-14.5 -4.5q-18 0 -37.5 11.5t-33.5 19.5l-19.5 13t-20 16t-16 19.5t-6.5 21.5q0 15 11 26.5t26 11.5t35 -13.5t38.5 -32.5t31 -40t12.5 -36z" />
    <glyph glyph-name="iacute" unicode="&#xed;" horiz-adv-x="244" 
d="M203 358v-29.5t-1 -29.5q-1 -17 -1 -45.5t-2 -61.5t-6.5 -67t-14.5 -62t-26.5 -45.5t-41.5 -18.5q-19 -1 -32 15t-21.5 41.5t-12.5 57t-6 61t-2 54.5v37v45.5t2 63.5t7.5 69t16 64t27.5 47t43 18q27 0 41 -27t21 -63t8 -71.5t1 -52.5zM240 757q0 -11 -6 -21.5
t-14.5 -19.5t-18.5 -16.5l-18 -13.5q-7 -5 -15.5 -11.5t-18 -12t-19 -9.5t-18.5 -4q-8 0 -14 4.5t-6 13.5q0 15 11.5 36.5t28.5 42t36 35t35 14.5q14 0 25.5 -11.5t11.5 -26.5z" />
    <glyph glyph-name="icircumflex" unicode="&#xee;" horiz-adv-x="244" 
d="M203 358v-29.5t-1 -29.5q-1 -17 -1 -45.5t-2 -61.5t-6.5 -67t-14.5 -62t-26.5 -45.5t-41.5 -18.5q-19 -1 -32 15t-21.5 41.5t-12.5 57t-6 61t-2 54.5v37v45.5t2 63.5t7.5 69t16 64t27.5 47t43 18q27 0 41 -27t21 -63t8 -71.5t1 -52.5zM244 659q0 -8 -3 -10t-10 -2
q-12 0 -26.5 6t-29 15t-28 19t-22.5 18q-10 -8 -23.5 -19t-28.5 -20.5t-30 -16t-28 -6.5q-5 0 -9.5 2t-4.5 10q0 15 13 38t32 44t40 36t37 15t37 -14.5t39.5 -34.5t31.5 -42t13 -38z" />
    <glyph glyph-name="idieresis" unicode="&#xef;" horiz-adv-x="244" 
d="M203 358v-29.5t-1 -29.5q-1 -17 -1 -45.5t-2 -61.5t-6.5 -67t-14.5 -62t-26.5 -45.5t-41.5 -18.5q-19 -1 -32 15t-21.5 41.5t-12.5 57t-6 61t-2 54.5v37v45.5t2 63.5t7.5 69t16 64t27.5 47t43 18q27 0 41 -27t21 -63t8 -71.5t1 -52.5zM300 719q0 -29 -19 -46t-48 -17
q-28 0 -48.5 16.5t-20.5 45.5q0 30 18.5 51t49.5 21q30 0 49 -20.5t19 -50.5zM107 714q0 -29 -19.5 -46t-48.5 -17q-28 0 -48 16.5t-20 45.5q0 30 18 51t49 21q30 0 49.5 -20.5t19.5 -50.5z" />
    <glyph glyph-name="eth" unicode="&#xf0;" horiz-adv-x="507" 
d="M208 393q-19 0 -29.5 -11t-16 -26.5t-6.5 -33.5t-1 -31q0 -12 2 -36t7.5 -47.5t15.5 -41.5t27 -18q24 0 42 10.5t29.5 27t17 37.5t5.5 43q0 21 -5.5 43.5t-17 41t-29 30.5t-41.5 12zM527 644q0 -11 -19 -17.5t-46 -11.5v-123t-7 -137.5t-22 -135.5t-44.5 -117.5
t-75.5 -82.5t-113 -31q-45 0 -79.5 31t-58 75t-35.5 92t-12 83q0 25 3 57t10.5 65t19.5 64.5t30.5 56.5t44 40t58.5 15q36 0 69 -21t50 -52q3 55 6 114q-18 0 -39.5 2t-41 5.5t-32.5 10.5t-13 18q0 12 12.5 20.5t32 14t42.5 8.5t44 4q1 19 5 38.5t11.5 35.5t20.5 26t34 10
q25 0 40.5 -11t24 -28.5t11.5 -39t3 -41.5q27 -6 46.5 -14.5t19.5 -22.5z" />
    <glyph glyph-name="ntilde" unicode="&#xf1;" horiz-adv-x="478" 
d="M314 -28q-17 0 -27 15.5t-15 35.5t-6.5 40.5t-1.5 31.5q0 30 3.5 60t8 60t8 60t3.5 60q0 12 -1 26t-4.5 26.5t-11.5 20.5t-21 8q-9 0 -20 -14.5t-20.5 -33t-16 -37t-6.5 -27.5q0 -22 0.5 -44.5t0.5 -45.5v-58q-1 -18 -3 -37t-6 -37q-3 -18 -9 -34.5t-15.5 -29
t-22.5 -20.5t-31 -8q-20 0 -33 13t-21 33.5t-11.5 46t-5 50t-1 45t0.5 32.5v47q0 38 -1.5 75t-1.5 74q0 20 0.5 51t7.5 60.5t23 50.5t47 21q14 0 25 -9t19.5 -22t14 -28t8.5 -26q10 14 23.5 27t30.5 23t38 16t48 6q51 0 79.5 -24.5t42 -61t16.5 -78.5t3 -76q0 -17 -3 -50.5
t-9.5 -74t-17.5 -83t-26 -77.5t-35.5 -57t-46.5 -22zM426 745q0 -15 -10 -31.5t-25 -30t-32 -22t-32 -8.5t-29.5 5.5t-29 12.5t-28.5 12.5t-28 5.5q-11 0 -22 -6.5t-23 -14t-24.5 -13.5t-24.5 -6q-16 0 -26 13.5t-10 27.5q0 17 12 33t30 28.5t37.5 20t34.5 7.5q17 0 29.5 -7
t23.5 -16t22.5 -16t27.5 -7q13 0 24.5 7.5t23 17t22 17t22.5 7.5q14 0 24.5 -12t10.5 -25z" />
    <glyph glyph-name="ograve" unicode="&#xf2;" horiz-adv-x="458" 
d="M220 -29q-51 0 -89 27t-64 69t-39 93.5t-13 101.5q0 53 13 109.5t40 103t69 76t100 29.5q56 0 95.5 -30.5t63.5 -76t34 -99.5t7 -102q-3 -53 -16.5 -107t-39.5 -97t-66 -70t-95 -27zM230 423q-15 0 -26.5 -16t-19 -39t-11.5 -48.5t-4 -44.5q0 -24 4.5 -52t12.5 -51.5
t19.5 -39t26.5 -15.5q16 0 27.5 15t18.5 38t10 50.5t3 51.5q0 22 -4 48.5t-11.5 49.5t-19 38t-26.5 15zM308 666q0 -8 -6.5 -12.5t-14.5 -4.5q-18 0 -37.5 11.5t-33.5 19.5l-19.5 13t-20 16t-16 19.5t-6.5 21.5q0 15 11 26.5t26 11.5t35 -13.5t38.5 -32.5t31 -40t12.5 -36z
" />
    <glyph glyph-name="oacute" unicode="&#xf3;" horiz-adv-x="458" 
d="M220 -29q-51 0 -89 27t-64 69t-39 93.5t-13 101.5q0 53 13 109.5t40 103t69 76t100 29.5q56 0 95.5 -30.5t63.5 -76t34 -99.5t7 -102q-3 -53 -16.5 -107t-39.5 -97t-66 -70t-95 -27zM230 423q-15 0 -26.5 -16t-19 -39t-11.5 -48.5t-4 -44.5q0 -24 4.5 -52t12.5 -51.5
t19.5 -39t26.5 -15.5q16 0 27.5 15t18.5 38t10 50.5t3 51.5q0 22 -4 48.5t-11.5 49.5t-19 38t-26.5 15zM343 747q0 -11 -6 -21.5t-14.5 -19.5t-18.5 -16.5l-18 -13.5q-7 -5 -15.5 -11.5t-18 -12t-19 -9.5t-18.5 -4q-8 0 -14 4.5t-6 13.5q0 15 11.5 36.5t28.5 42t36 35
t35 14.5q14 0 25.5 -11.5t11.5 -26.5z" />
    <glyph glyph-name="ocircumflex" unicode="&#xf4;" horiz-adv-x="458" 
d="M220 -29q-51 0 -89 27t-64 69t-39 93.5t-13 101.5q0 53 13 109.5t40 103t69 76t100 29.5q56 0 95.5 -30.5t63.5 -76t34 -99.5t7 -102q-3 -53 -16.5 -107t-39.5 -97t-66 -70t-95 -27zM230 423q-15 0 -26.5 -16t-19 -39t-11.5 -48.5t-4 -44.5q0 -24 4.5 -52t12.5 -51.5
t19.5 -39t26.5 -15.5q16 0 27.5 15t18.5 38t10 50.5t3 51.5q0 22 -4 48.5t-11.5 49.5t-19 38t-26.5 15zM356 659q0 -8 -3 -10t-10 -2q-12 0 -26.5 6t-29 15t-28 19t-22.5 18q-10 -8 -23.5 -19t-28.5 -20.5t-30 -16t-28 -6.5q-5 0 -9.5 2t-4.5 10q0 15 13 38t32 44t40 36
t37 15t37 -14.5t39.5 -34.5t31.5 -42t13 -38z" />
    <glyph glyph-name="otilde" unicode="&#xf5;" horiz-adv-x="458" 
d="M220 -29q-51 0 -89 27t-64 69t-39 93.5t-13 101.5q0 53 13 109.5t40 103t69 76t100 29.5q56 0 95.5 -30.5t63.5 -76t34 -99.5t7 -102q-3 -53 -16.5 -107t-39.5 -97t-66 -70t-95 -27zM230 423q-15 0 -26.5 -16t-19 -39t-11.5 -48.5t-4 -44.5q0 -24 4.5 -52t12.5 -51.5
t19.5 -39t26.5 -15.5q16 0 27.5 15t18.5 38t10 50.5t3 51.5q0 22 -4 48.5t-11.5 49.5t-19 38t-26.5 15zM426 745q0 -15 -10 -31.5t-25 -30t-32 -22t-32 -8.5t-29.5 5.5t-29 12.5t-28.5 12.5t-28 5.5q-11 0 -22 -6.5t-23 -14t-24.5 -13.5t-24.5 -6q-16 0 -26 13.5t-10 27.5
q0 17 12 33t30 28.5t37.5 20t34.5 7.5q17 0 29.5 -7t23.5 -16t22.5 -16t27.5 -7q13 0 24.5 7.5t23 17t22 17t22.5 7.5q14 0 24.5 -12t10.5 -25z" />
    <glyph glyph-name="odieresis" unicode="&#xf6;" horiz-adv-x="458" 
d="M220 -29q-51 0 -89 27t-64 69t-39 93.5t-13 101.5q0 53 13 109.5t40 103t69 76t100 29.5q56 0 95.5 -30.5t63.5 -76t34 -99.5t7 -102q-3 -53 -16.5 -107t-39.5 -97t-66 -70t-95 -27zM230 423q-15 0 -26.5 -16t-19 -39t-11.5 -48.5t-4 -44.5q0 -24 4.5 -52t12.5 -51.5
t19.5 -39t26.5 -15.5q16 0 27.5 15t18.5 38t10 50.5t3 51.5q0 22 -4 48.5t-11.5 49.5t-19 38t-26.5 15zM411 719q0 -29 -19 -46t-48 -17q-28 0 -48.5 16.5t-20.5 45.5q0 30 18.5 51t49.5 21q30 0 49 -20.5t19 -50.5zM218 714q0 -29 -19.5 -46t-48.5 -17q-28 0 -48 16.5
t-20 45.5q0 30 18 51t49 21q30 0 49.5 -20.5t19.5 -50.5z" />
    <glyph glyph-name="divide" unicode="&#xf7;" horiz-adv-x="450" 
d="M279 436q0 -25 -16 -38.5t-40 -13.5q-23 0 -39.5 13t-16.5 38t14.5 42t40.5 17q25 0 41 -16.5t16 -41.5zM434 266q0 -9 -14.5 -14.5t-37.5 -9.5t-50.5 -6.5t-52.5 -3.5t-45 -1.5t-28 -0.5q-10 0 -41 0.5t-64.5 3.5t-59.5 10.5t-26 21.5q0 11 12 19t31 13t42 8t44.5 4.5
t39 2t25.5 0.5q15 0 52 -1.5t75.5 -7t68 -14.5t29.5 -24zM282 117q0 -25 -16 -38.5t-40 -13.5q-22 0 -39 13t-17 38q0 23 14.5 40.5t40.5 17.5q25 0 41 -16t16 -41z" />
    <glyph glyph-name="oslash" unicode="&#xf8;" horiz-adv-x="458" 
d="M421 603q0 -22 -8 -53.5t-22 -67.5q27 -47 38 -103.5t8 -106.5q-3 -53 -16.5 -107t-39.5 -97t-66 -70t-95 -27q-37 0 -67 15q-24 -39 -45 -64t-35 -25t-18.5 14.5t-4.5 25.5q0 21 7.5 50.5t19.5 63.5q-31 44 -46.5 100.5t-15.5 110.5q0 53 13 109.5t40 103t69 76
t100 29.5q47 0 84 -23q23 35 43.5 57.5t35.5 22.5q14 0 17.5 -12.5t3.5 -21.5zM230 423q-15 0 -26.5 -16t-19 -39t-11.5 -48.5t-4 -44.5q0 -24 4.5 -52t12.5 -51.5t19.5 -39t26.5 -15.5q16 0 27.5 15t18.5 38t10 50.5t3 51.5q0 22 -4 48.5t-11.5 49.5t-19 38t-26.5 15z" />
    <glyph glyph-name="ugrave" unicode="&#xf9;" horiz-adv-x="499" 
d="M468 286q0 -55 -11 -109t-37 -96.5t-69.5 -68.5t-108.5 -26q-64 0 -107 25.5t-68.5 67.5t-36 95t-10.5 108q0 60 14 119q3 16 11.5 44.5t22 56t31 47.5t38.5 20q20 0 32 -11t19 -27.5t9 -35t2 -33.5q0 -23 -3.5 -45t-7.5 -44q-4 -30 -7.5 -60t-3.5 -60q0 -15 1.5 -33.5
t7.5 -35.5t17 -28.5t31 -11.5q26 0 41.5 14t23 35t9.5 45t2 44q0 44 -6 86.5t-11 86.5q-1 5 -1 14q0 15 5 30t14 27t22 19.5t29 7.5q22 0 39 -15.5t28.5 -40t19 -55t12 -60t6 -55.5t1.5 -41zM318 646q0 -8 -6.5 -12.5t-14.5 -4.5q-18 0 -37.5 11.5t-33.5 19.5l-19.5 13
t-20 16t-16 19.5t-6.5 21.5q0 15 11 26.5t26 11.5t35 -13.5t38.5 -32.5t31 -40t12.5 -36z" />
    <glyph glyph-name="uacute" unicode="&#xfa;" horiz-adv-x="499" 
d="M468 286q0 -55 -11 -109t-37 -96.5t-69.5 -68.5t-108.5 -26q-64 0 -107 25.5t-68.5 67.5t-36 95t-10.5 108q0 60 14 119q3 16 11.5 44.5t22 56t31 47.5t38.5 20q20 0 32 -11t19 -27.5t9 -35t2 -33.5q0 -23 -3.5 -45t-7.5 -44q-4 -30 -7.5 -60t-3.5 -60q0 -15 1.5 -33.5
t7.5 -35.5t17 -28.5t31 -11.5q26 0 41.5 14t23 35t9.5 45t2 44q0 44 -6 86.5t-11 86.5q-1 5 -1 14q0 15 5 30t14 27t22 19.5t29 7.5q22 0 39 -15.5t28.5 -40t19 -55t12 -60t6 -55.5t1.5 -41zM374 737q0 -11 -6 -21.5t-14.5 -19.5t-18.5 -16.5l-18 -13.5q-7 -5 -15.5 -11.5
t-18 -12t-19 -9.5t-18.5 -4q-8 0 -14 4.5t-6 13.5q0 15 11.5 36.5t28.5 42t36 35t35 14.5q14 0 25.5 -11.5t11.5 -26.5z" />
    <glyph glyph-name="ucircumflex" unicode="&#xfb;" horiz-adv-x="499" 
d="M468 286q0 -55 -11 -109t-37 -96.5t-69.5 -68.5t-108.5 -26q-64 0 -107 25.5t-68.5 67.5t-36 95t-10.5 108q0 60 14 119q3 16 11.5 44.5t22 56t31 47.5t38.5 20q20 0 32 -11t19 -27.5t9 -35t2 -33.5q0 -23 -3.5 -45t-7.5 -44q-4 -30 -7.5 -60t-3.5 -60q0 -15 1.5 -33.5
t7.5 -35.5t17 -28.5t31 -11.5q26 0 41.5 14t23 35t9.5 45t2 44q0 44 -6 86.5t-11 86.5q-1 5 -1 14q0 15 5 30t14 27t22 19.5t29 7.5q22 0 39 -15.5t28.5 -40t19 -55t12 -60t6 -55.5t1.5 -41zM387 648q0 -8 -3 -10t-10 -2q-12 0 -26.5 6t-29 15t-28 19t-22.5 18
q-10 -8 -23.5 -19t-28.5 -20.5t-30 -16t-28 -6.5q-5 0 -9.5 2t-4.5 10q0 15 13 38t32 44t40 36t37 15t37 -14.5t39.5 -34.5t31.5 -42t13 -38z" />
    <glyph glyph-name="udieresis" unicode="&#xfc;" horiz-adv-x="499" 
d="M468 286q0 -55 -11 -109t-37 -96.5t-69.5 -68.5t-108.5 -26q-64 0 -107 25.5t-68.5 67.5t-36 95t-10.5 108q0 60 14 119q3 16 11.5 44.5t22 56t31 47.5t38.5 20q20 0 32 -11t19 -27.5t9 -35t2 -33.5q0 -23 -3.5 -45t-7.5 -44q-4 -30 -7.5 -60t-3.5 -60q0 -15 1.5 -33.5
t7.5 -35.5t17 -28.5t31 -11.5q26 0 41.5 14t23 35t9.5 45t2 44q0 44 -6 86.5t-11 86.5q-1 5 -1 14q0 15 5 30t14 27t22 19.5t29 7.5q22 0 39 -15.5t28.5 -40t19 -55t12 -60t6 -55.5t1.5 -41zM421 709q0 -29 -19 -46t-48 -17q-28 0 -48.5 16.5t-20.5 45.5q0 30 18.5 51
t49.5 21q30 0 49 -20.5t19 -50.5zM228 704q0 -29 -19.5 -46t-48.5 -17q-28 0 -48 16.5t-20 45.5q0 30 18 51t49 21q30 0 49.5 -20.5t19.5 -50.5z" />
    <glyph glyph-name="yacute" unicode="&#xfd;" horiz-adv-x="530" 
d="M247 -291q-24 0 -54.5 7.5t-57.5 21.5t-45.5 34t-18.5 46q0 10 5 20t13.5 17.5t18.5 12t21 4.5q12 0 23.5 -3.5t23.5 -8.5q13 -5 25.5 -9t26.5 -4q25 0 43.5 17t31.5 44.5t21 61t12.5 66.5t6.5 62t3 47q-35 -53 -69.5 -81.5t-84.5 -28.5q-38 0 -66.5 16t-48.5 42
t-33 59.5t-19.5 69.5t-8.5 70.5t0 63.5q1 22 5.5 57.5t14.5 69.5t28 57.5t47 21.5q19 -1 31 -16.5t19.5 -38.5t11 -50.5t4.5 -54.5t0.5 -49.5t-0.5 -34.5q0 -17 1 -34t7 -30.5t18.5 -21.5t35.5 -8q26 0 41.5 13t23 32.5t9.5 42t2 42.5v34t0.5 42t4 43.5t11 39t20 28.5
t32.5 11q25 0 43 -19.5t30.5 -51t20 -69.5t11.5 -75.5t5.5 -69t1.5 -49.5q0 -42 -3 -95.5t-11.5 -110t-25.5 -111t-44.5 -97.5t-67.5 -69t-96 -26zM374 718q0 -11 -6 -21.5t-14.5 -19.5t-18.5 -16.5l-18 -13.5q-7 -5 -15.5 -11.5t-18 -12t-19 -9.5t-18.5 -4q-8 0 -14 4.5
t-6 13.5q0 15 11.5 36.5t28.5 42t36 35t35 14.5q14 0 25.5 -11.5t11.5 -26.5z" />
    <glyph glyph-name="thorn" unicode="&#xfe;" horiz-adv-x="518" 
d="M488 298q0 -44 -9.5 -96.5t-32 -97.5t-59.5 -75t-92 -30q-28 0 -57 8.5t-42 36.5q-1 -17 -1.5 -48.5t-3 -68t-7 -74.5t-13.5 -69t-24 -50.5t-37 -19.5t-36 34t-23 86.5t-13 115.5t-5.5 121.5t-1.5 104v63.5v4v66t2 103.5t7 119t14 112.5t24 83.5t36 32.5q29 0 44 -30
t21 -70.5t6.5 -81t0.5 -61.5v-14q28 25 64 41.5t74 16.5q49 0 81 -26.5t50.5 -66t25.5 -85.5t7 -85zM344 306q0 15 -2.5 30.5t-9 29t-18 22t-29.5 8.5q-25 0 -43.5 -8t-30.5 -22t-17.5 -33t-5.5 -41q0 -7 0.5 -18.5t1.5 -23.5t2.5 -23t3.5 -17q3 -9 13 -16.5t22 -13.5
t24.5 -9t21.5 -3q21 0 34 16t20.5 38t10 45.5t2.5 38.5z" />
    <glyph glyph-name="ydieresis" unicode="&#xff;" horiz-adv-x="530" 
d="M247 -291q-24 0 -54.5 7.5t-57.5 21.5t-45.5 34t-18.5 46q0 10 5 20t13.5 17.5t18.5 12t21 4.5q12 0 23.5 -3.5t23.5 -8.5q13 -5 25.5 -9t26.5 -4q25 0 43.5 17t31.5 44.5t21 61t12.5 66.5t6.5 62t3 47q-35 -53 -69.5 -81.5t-84.5 -28.5q-38 0 -66.5 16t-48.5 42
t-33 59.5t-19.5 69.5t-8.5 70.5t0 63.5q1 22 5.5 57.5t14.5 69.5t28 57.5t47 21.5q19 -1 31 -16.5t19.5 -38.5t11 -50.5t4.5 -54.5t0.5 -49.5t-0.5 -34.5q0 -17 1 -34t7 -30.5t18.5 -21.5t35.5 -8q26 0 41.5 13t23 32.5t9.5 42t2 42.5v34t0.5 42t4 43.5t11 39t20 28.5
t32.5 11q25 0 43 -19.5t30.5 -51t20 -69.5t11.5 -75.5t5.5 -69t1.5 -49.5q0 -42 -3 -95.5t-11.5 -110t-25.5 -111t-44.5 -97.5t-67.5 -69t-96 -26zM421 709q0 -29 -19 -46t-48 -17q-28 0 -48.5 16.5t-20.5 45.5q0 30 18.5 51t49.5 21q30 0 49 -20.5t19 -50.5zM228 704
q0 -29 -19.5 -46t-48.5 -17q-28 0 -48 16.5t-20 45.5q0 30 18 51t49 21q30 0 49.5 -20.5t19.5 -50.5z" />
    <glyph glyph-name="dotlessi" unicode="&#x131;" horiz-adv-x="244" 
d="M203 358v-29.5t-1 -29.5q-1 -17 -1 -45.5t-2 -61.5t-6.5 -67t-14.5 -62t-26.5 -45.5t-41.5 -18.5q-19 -1 -32 15t-21.5 41.5t-12.5 57t-6 61t-2 54.5v37v45.5t2 63.5t7.5 69t16 64t27.5 47t43 18q27 0 41 -27t21 -63t8 -71.5t1 -52.5z" />
    <glyph glyph-name="Lslash" unicode="&#x141;" horiz-adv-x="510" 
d="M334 472q4 -7 -5 -19t-25.5 -26.5t-38 -29.5t-42.5 -28q-2 -42 -3 -84t-1 -84v-39q46 14 98.5 26.5t100.5 12.5q17 0 34.5 -2t31.5 -8.5t22.5 -19t8.5 -33.5q0 -25 -20.5 -47t-53 -40t-72.5 -31.5t-79.5 -23t-74 -14.5t-54.5 -5q-19 0 -40.5 3t-35.5 16q-9 8 -17 39.5
t-14 72.5t-10 84.5t-5 75.5q-24 -10 -42.5 -12.5t-25.5 6.5q-4 8 0 18t13.5 21.5t24 23.5t30.5 24q1 43 5.5 97.5t11.5 107t18 96t26 65.5q9 13 20.5 20t28.5 7q20 0 33.5 -13.5t22.5 -35t13 -48t6 -52.5t2 -48v-35q0 -14 -0.5 -27.5t-0.5 -27.5q18 7 36 13t33 9t26 2t14 -7
z" />
    <glyph glyph-name="lslash" unicode="&#x142;" horiz-adv-x="279" 
d="M339 472q4 -8 -6.5 -21t-29 -29t-42.5 -32t-46 -30q2 -65 5.5 -128.5t3.5 -128.5q0 -18 -2 -40.5t-9.5 -41.5t-22 -32t-39.5 -13q-27 0 -45.5 29.5t-31 73.5t-19 95t-9.5 95q-25 -10 -44.5 -13.5t-24.5 6.5q-5 7 -1 17.5t13.5 21.5t23.5 23.5t30 24.5v10q0 19 2 55
t6.5 78t13.5 85.5t22.5 79t33 58t46.5 22.5q22 0 33.5 -14.5t16.5 -35t6 -43t1 -38.5q0 -39 -2.5 -78t-4.5 -79q19 8 39 15.5t37.5 11t29.5 3.5t16 -7z" />
    <glyph glyph-name="OE" unicode="&#x152;" horiz-adv-x="854" 
d="M839 104q0 -23 -17.5 -40.5t-44.5 -29.5t-61 -20t-66.5 -12.5t-61 -6t-44.5 -1.5q-18 0 -36.5 8.5t-34.5 22t-29 29.5t-22 30q-22 -55 -71.5 -83.5t-106.5 -28.5q-41 0 -73 22t-57 57t-43 79.5t-29 90t-16.5 88t-5.5 73.5q0 32 7.5 75t22 89t36 90.5t49.5 80t62.5 57.5
t74.5 22q26 0 51.5 -7.5t47 -21.5t39 -34t26.5 -44q5 15 10 26t15 22q7 8 24.5 13.5t41 9t50.5 5.5t52 3t45.5 1h31.5q21 0 43 -1t41 -8.5t31 -23t12 -45.5q0 -20 -9 -33t-26 -22q-21 -11 -49.5 -19t-59 -13.5t-60 -8.5t-52.5 -4q-8 -29 -10 -58l-4 -58q31 11 65 19.5
t67 8.5q45 0 68.5 -18t23.5 -63q0 -35 -20 -52.5t-51 -25.5q-37 -9 -74 -17t-74 -17q-7 -21 -7 -47q0 -24 3.5 -48t6.5 -48q49 3 96.5 7t96.5 6q15 1 29 -5.5t24 -17t16 -24.5t6 -29zM360 357q0 20 -3 55.5t-12.5 70.5t-26.5 61t-45 26q-24 0 -41 -23t-27.5 -54t-15 -63
t-4.5 -50q0 -12 2 -33t6.5 -45.5t11.5 -49.5t17 -45t22.5 -33t28.5 -13q28 0 45.5 23t26.5 55t12 65t3 53z" />
    <glyph glyph-name="oe" unicode="&#x153;" horiz-adv-x="783" 
d="M773 193q0 -35 -21.5 -67.5t-53.5 -58t-69 -41t-68 -15.5q-45 0 -76.5 11.5t-52.5 30t-34.5 41t-23.5 45.5q-17 -27 -36 -52.5t-42.5 -45t-52 -31.5t-63.5 -12q-51 0 -83.5 27.5t-52 69t-27 89t-7.5 87.5q0 54 15 116.5t45.5 116.5t78 89.5t112.5 35.5q58 0 95.5 -29.5
t53.5 -85.5q33 40 76.5 68.5t97.5 28.5q33 0 61.5 -11.5t50 -31.5t33.5 -48t12 -62q0 -47 -20 -88t-53 -71.5t-75.5 -48.5t-87.5 -21q4 -29 23.5 -42t45.5 -13q21 0 40 10.5t37 22.5t35.5 22.5t35.5 10.5q20 0 35.5 -13.5t15.5 -33.5zM612 437q0 14 -7 27.5t-22 13.5
q-22 0 -37.5 -11.5t-25 -28.5t-14.5 -37t-7 -37q14 3 33.5 7.5t37 13t30 21.5t12.5 31zM281 344q0 9 -1.5 27.5t-6 37t-13 32t-22.5 13.5q-19 0 -33.5 -19.5t-24 -45.5t-14 -53.5t-4.5 -43.5q0 -10 1.5 -29t7 -38t14.5 -33t24 -14q18 0 31.5 20.5t22.5 48t13.5 55.5t4.5 42z
" />
    <glyph glyph-name="Scaron" unicode="&#x160;" horiz-adv-x="362" 
d="M357 702q0 -23 -14.5 -40t-34.5 -28q-18 -11 -37 -23.5t-35 -28t-26 -34.5t-10 -43q0 -21 10 -38t24.5 -33.5t32 -34t32 -39t24.5 -48.5t10 -63q0 -25 -10.5 -56.5t-28.5 -63.5t-42.5 -62t-52 -53.5t-57.5 -38t-58 -14.5q-31 0 -55 17t-24 51q0 23 11 42.5t27 37.5
t35.5 35t35.5 34t27 35.5t11 39.5q0 29 -20.5 59.5t-45.5 63t-45.5 66.5t-20.5 69q0 43 23 90.5t59 87t81 65.5t89 26q35 0 60 -21t25 -57zM72 987q0 8 3 10t10 2q12 0 26.5 -6.5t29.5 -15.5t28.5 -19t22.5 -17q9 8 22.5 19t28.5 20.5t30 16t28 6.5q5 0 9.5 -2t4.5 -10
q0 -15 -13 -37.5t-32 -44t-39.5 -36.5t-36.5 -15t-37 14t-40 34.5t-32 42.5t-13 38z" />
    <glyph glyph-name="scaron" unicode="&#x161;" horiz-adv-x="333" 
d="M323 550q0 -29 -19.5 -43t-43.5 -26.5t-43.5 -29.5t-19.5 -51q0 -18 8.5 -31t21 -23.5t27.5 -21.5t27.5 -25t21 -34t8.5 -49q0 -42 -21.5 -82.5t-55 -72t-75.5 -50.5t-83 -19q-17 0 -34 2.5t-30.5 9.5t-22.5 19.5t-9 32.5q0 28 11 43.5t28 24.5t36.5 14t36.5 12.5
t28 19.5t11 34q0 21 -16.5 43.5t-36.5 48t-36.5 54.5t-16.5 64q0 43 17.5 79.5t47 63.5t67.5 42.5t80 15.5q16 0 31.5 -3t27.5 -10.5t19.5 -20t7.5 -31.5zM72 833q0 8 3 10t10 2q12 0 26.5 -6.5t29.5 -15.5t28.5 -19t22.5 -17q9 8 22.5 19t28.5 20.5t30 16t28 6.5
q5 0 9.5 -2t4.5 -10q0 -15 -13 -37.5t-32 -44t-39.5 -36.5t-36.5 -15t-37 14t-40 34.5t-32 42.5t-13 38z" />
    <glyph glyph-name="Ydieresis" unicode="&#x178;" horiz-adv-x="445" 
d="M481 688q0 -44 -11.5 -97t-29.5 -107t-39 -105t-39 -90q-10 -22 -24.5 -55.5t-32.5 -71.5t-38.5 -76.5t-42.5 -69t-45 -50t-46 -19.5q-32 0 -45.5 23.5t-13.5 52.5q0 28 9.5 59.5t24 62.5t32 60t32.5 52q-20 5 -39 18t-28 31q-16 35 -33 79t-30.5 89.5t-22.5 91t-9 83.5
q0 18 4 39.5t13.5 40t25 31t38.5 12.5q26 0 46 -19.5t35.5 -49.5t26.5 -67t19 -73t13 -66t9 -47q4 15 13.5 45.5t23 67.5t31 76t37 71t41.5 52.5t45 20.5q15 0 25 -11t15.5 -26t7.5 -31t2 -27zM432 894q0 -29 -19 -46t-48 -17q-28 0 -48.5 16.5t-20.5 45.5q0 30 18.5 51
t49.5 21q30 0 49 -20.5t19 -50.5zM239 889q0 -29 -19.5 -46t-48.5 -17q-28 0 -48 16.5t-20 45.5q0 30 18 51t49 21q30 0 49.5 -20.5t19.5 -50.5z" />
    <glyph glyph-name="Zcaron" unicode="&#x17d;" horiz-adv-x="439" 
d="M450 662q0 -5 -9.5 -29t-25.5 -59t-36.5 -78.5t-42.5 -89t-43 -89.5t-38.5 -79.5t-29.5 -60t-15 -30.5q31 10 63.5 16.5t65.5 6.5q16 0 34 -2.5t33.5 -10t26 -20t10.5 -33.5q0 -22 -15 -39.5t-38.5 -30.5t-53.5 -22t-60 -15t-57 -8.5t-45 -2.5q-23 0 -50.5 2t-52.5 11
t-41.5 26.5t-16.5 49.5q0 22 12.5 59.5t29.5 77t35.5 76t29.5 57.5q34 63 68.5 125.5t67.5 126.5q-35 -20 -80 -36.5t-85 -16.5q-14 0 -29.5 4t-28 11.5t-20.5 19.5t-8 28q0 26 17 48t44.5 40t62 32t69.5 23t66.5 14t53.5 5q58 0 95 -23t37 -84zM123 966q0 8 3 10t10 2
q12 0 26.5 -6.5t29.5 -15.5t28.5 -19t22.5 -17q9 8 22.5 19t28.5 20.5t30 16t28 6.5q5 0 9.5 -2t4.5 -10q0 -15 -13 -37.5t-32 -44t-39.5 -36.5t-36.5 -15t-37 14t-40 34.5t-32 42.5t-13 38z" />
    <glyph glyph-name="zcaron" unicode="&#x17e;" horiz-adv-x="469" 
d="M479 94q0 -20 -16.5 -35t-42 -27t-58 -20t-64 -13t-59.5 -7.5t-45 -2.5t-47.5 1t-60.5 7.5t-52 21t-22 40.5q0 20 14 49t36 63t49 69.5t53 68.5t49 60.5t36 45.5q-14 -3 -35.5 -8.5t-44.5 -10.5t-44.5 -8.5t-36.5 -3.5q-12 0 -27 4.5t-28.5 12.5t-23 19t-9.5 25
q0 18 16 33.5t42 28t58 22t63 16t59 9.5t45 3q19 0 46 -4t52.5 -14t43.5 -27t18 -43q0 -8 -1.5 -14.5t-3.5 -14.5q-2 -7 -17.5 -31.5t-38 -58t-49 -72t-50.5 -72.5t-42 -60t-24 -35q41 11 83.5 18.5t84.5 7.5q10 0 26 -1t31 -5.5t26 -13t11 -23.5zM123 772q0 8 3 10t10 2
q12 0 26.5 -6.5t29.5 -15.5t28.5 -19t22.5 -17q9 8 22.5 19t28.5 20.5t30 16t28 6.5q5 0 9.5 -2t4.5 -10q0 -15 -13 -37.5t-32 -44t-39.5 -36.5t-36.5 -15t-37 14t-40 34.5t-32 42.5t-13 38z" />
    <glyph glyph-name="circumflex" unicode="&#x2c6;" horiz-adv-x="305" 
d="M274 628q0 -8 -3 -10t-10 -2q-12 0 -26.5 6t-29 15t-28 19t-22.5 18q-10 -8 -23.5 -19t-28.5 -20.5t-30 -16t-28 -6.5q-5 0 -9.5 2t-4.5 10q0 15 13 38t32 44t40 36t37 15t37 -14.5t39.5 -34.5t31.5 -42t13 -38z" />
    <glyph glyph-name="caron" unicode="&#x2c7;" horiz-adv-x="305" 
d="M31 741q0 8 3 10t10 2q12 0 26.5 -6.5t29.5 -15.5t28.5 -19t22.5 -17q9 8 22.5 19t28.5 20.5t30 16t28 6.5q5 0 9.5 -2t4.5 -10q0 -15 -13 -37.5t-32 -44t-39.5 -36.5t-36.5 -15t-37 14t-40 34.5t-32 42.5t-13 38z" />
    <glyph glyph-name="breve" unicode="&#x2d8;" horiz-adv-x="308" 
d="M278 739q0 -11 -3 -21.5t-8 -20.5q-15 -34 -44.5 -60t-67.5 -26t-68 24.5t-45 56.5q-5 10 -8 20.5t-3 21.5q0 7 3 13.5t11 6.5q10 0 23 -9.5t27.5 -20.5t29 -20.5t28.5 -9.5q13 0 28 10t29.5 21.5t28 21.5t24.5 10q15 0 15 -18z" />
    <glyph glyph-name="dotaccent" unicode="&#x2d9;" horiz-adv-x="198" 
d="M167 653q0 -29 -19.5 -46t-48.5 -17q-28 0 -48 16.5t-20 45.5q0 30 18 51t49 21q30 0 49.5 -20.5t19.5 -50.5z" />
    <glyph glyph-name="ring" unicode="&#x2da;" horiz-adv-x="207" 
d="M197 642q0 -38 -28 -63.5t-66 -25.5t-65.5 25.5t-27.5 63.5q0 19 7.5 35.5t20 28.5t29.5 18.5t36 6.5t36 -6.5t30 -18.5t20.5 -28.5t7.5 -35.5zM156 641q0 21 -15.5 34.5t-35.5 13.5t-35 -13.5t-15 -34.5q0 -20 15 -33.5t35 -13.5t35.5 13.5t15.5 33.5z" />
    <glyph glyph-name="ogonek" unicode="&#x2db;" horiz-adv-x="350" 
d="M94 -74q0 56 38 96q14 15 29.5 23t28 8t21 -8.5t8.5 -26.5q0 -11 -6 -20.5t-12.5 -19.5t-12.5 -22t-6 -28q0 -23 19.5 -37.5t41.5 -14.5q26 0 54.5 12t54.5 24.5t46.5 19t30.5 -3.5q12 -12 13 -30t-11 -29q-19 -19 -42.5 -33.5t-48 -24t-49 -14.5t-45.5 -5
q-31 0 -58.5 10t-48.5 28t-33 42.5t-12 53.5z" />
    <glyph glyph-name="tilde" unicode="&#x2dc;" horiz-adv-x="406" 
d="M375 714q0 -15 -10 -31.5t-25 -30t-32 -22t-32 -8.5t-29.5 5.5t-29 12.5t-28.5 12.5t-28 5.5q-11 0 -22 -6.5t-23 -14t-24.5 -13.5t-24.5 -6q-16 0 -26 13.5t-10 27.5q0 17 12 33t30 28.5t37.5 20t34.5 7.5q17 0 29.5 -7t23.5 -16t22.5 -16t27.5 -7q13 0 24.5 7.5t23 17
t22 17t22.5 7.5q14 0 24.5 -12t10.5 -25z" />
    <glyph glyph-name="hungarumlaut" unicode="&#x2dd;" horiz-adv-x="343" 
d="M179 737q0 -11 -6 -21.5t-14.5 -19.5t-18.5 -16.5l-18 -13.5q-7 -5 -15.5 -11.5t-18 -12t-19 -9.5t-18.5 -4q-8 0 -14 4.5t-6 13.5q0 15 11.5 36.5t28.5 42t36 35t35 14.5q14 0 25.5 -11.5t11.5 -26.5zM312 737q0 -11 -6 -21.5t-14.5 -19.5t-18.5 -16.5l-18 -13.5
q-7 -5 -15.5 -11.5t-18 -12t-19 -9.5t-18.5 -4q-8 0 -14 4.5t-6 13.5q0 15 11.5 36.5t28.5 42t36 35t35 14.5q14 0 25.5 -11.5t11.5 -26.5z" />
    <glyph glyph-name="endash" unicode="&#x2013;" horiz-adv-x="521" 
d="M490 255q0 -9 -14.5 -14.5t-37.5 -9.5t-50.5 -6.5t-52.5 -3.5t-45 -1.5t-28 -0.5h-26.5t-45 1t-53.5 3t-51.5 6t-39 10.5t-15.5 15.5q0 11 16.5 19.5t42 13.5t56 8t60 4.5t53 2t34.5 0.5q10 0 28.5 -1t40 -3.5t44.5 -6.5t41.5 -9t30.5 -12t12 -16z" />
    <glyph glyph-name="emdash" unicode="&#x2014;" horiz-adv-x="583" 
d="M552 255q0 -9 -18.5 -14.5t-47 -9.5t-63 -6.5t-65.5 -3.5t-54.5 -1.5t-31.5 -0.5h-27t-47 1t-56.5 3t-54 6t-40.5 10.5t-16 15.5q0 11 17 19.5t43.5 13.5t59 8t62.5 4.5t54.5 2t35.5 0.5q10 0 32 -1t50 -3.5t57.5 -6.5t54 -9t40 -12t15.5 -16z" />
    <glyph glyph-name="quoteleft" unicode="&#x2018;" horiz-adv-x="204" 
d="M194 580q0 -32 -20.5 -52t-52.5 -20q-35 0 -62.5 19.5t-27.5 58.5q0 16 8.5 41t21.5 49t29 41t32 17q9 0 14.5 -6t5.5 -14q0 -12 -5.5 -23t-12 -21.5t-12 -21t-4.5 -20.5q15 10 32 10q23 0 38.5 -18.5t15.5 -39.5z" />
    <glyph glyph-name="quoteright" unicode="&#x2019;" horiz-adv-x="205" 
d="M174 669q0 -16 -8.5 -41.5t-21 -49.5t-28.5 -41t-31 -17q-20 0 -20 21q0 12 5 23t11 21.5t11 20.5t5 21q-7 -5 -15.5 -8t-16.5 -3q-23 0 -39 18t-16 41q0 32 21 51t53 19q36 0 63 -18.5t27 -57.5z" />
    <glyph glyph-name="quotesinglbase" unicode="&#x201a;" horiz-adv-x="205" 
d="M174 54q0 -16 -8.5 -41t-21 -49t-28.5 -41t-31 -17q-20 0 -20 20q0 12 5 23t11 21.5t11 21t5 20.5q-15 -10 -32 -10q-23 0 -39 18t-16 40q0 32 21 51.5t53 19.5q36 0 63 -19t27 -58z" />
    <glyph glyph-name="quotedblleft" unicode="&#x201c;" horiz-adv-x="385" 
d="M375 580q0 -32 -21 -52t-52 -20q-36 0 -63 19.5t-27 57.5q0 16 8.5 41.5t21.5 49.5t29 41t32 17q8 0 14 -6t6 -14q0 -12 -5.5 -23t-12 -21.5t-11.5 -21t-5 -20.5q15 10 32 10q22 0 38 -18.5t16 -39.5zM194 580q0 -32 -20.5 -52t-52.5 -20q-35 0 -62.5 19.5t-27.5 58.5
q0 16 8.5 41t21.5 49t29 41t32 17q9 0 14.5 -6t5.5 -14q0 -12 -5.5 -23t-12 -21.5t-12 -21t-4.5 -20.5q15 10 32 10q23 0 38.5 -18.5t15.5 -39.5z" />
    <glyph glyph-name="quotedblright" unicode="&#x201d;" horiz-adv-x="385" 
d="M354 664q0 -16 -8 -41.5t-21 -49.5t-28.5 -41t-30.5 -17q-20 0 -20 21q0 12 5.5 23t11.5 21.5t11 20.5t4 21q-14 -11 -32 -11q-23 0 -39 18.5t-16 40.5q0 32 21 51t53 19q36 0 62.5 -18.5t26.5 -57.5zM174 662q0 -17 -8.5 -42.5t-21 -49.5t-28.5 -41t-31 -17
q-20 0 -20 22q0 11 5 22t11 21.5t11 20.5t5 20q-15 -10 -32 -10q-23 0 -39 18.5t-16 40.5q0 32 21 51.5t53 19.5q36 0 63 -18.5t27 -57.5z" />
    <glyph glyph-name="quotedblbase" unicode="&#x201e;" horiz-adv-x="385" 
d="M354 49q0 -16 -8 -41t-21 -49t-28.5 -41t-30.5 -17q-20 0 -20 20q0 12 5.5 23t11.5 21.5t11 21t4 20.5q-15 -10 -32 -10q-23 0 -39 18.5t-16 39.5q0 32 21 51.5t53 19.5q36 0 62.5 -19t26.5 -58zM174 47q0 -17 -8.5 -42t-21 -49t-28.5 -41t-31 -17q-20 0 -20 21
q0 12 5 22.5t11 21t11 21t5 20.5q-15 -10 -32 -10q-23 0 -39 18.5t-16 39.5q0 32 21 52t53 20q36 0 63 -19t27 -58z" />
    <glyph glyph-name="bullet" unicode="&#x2022;" horiz-adv-x="208" 
d="M187 373q0 -37 -22.5 -59.5t-59.5 -22.5q-36 0 -60.5 22t-24.5 59q0 36 22 64t61 28q38 0 61 -27t23 -64z" />
    <glyph glyph-name="ellipsis" unicode="&#x2026;" horiz-adv-x="636" 
d="M175 48q0 -13 -6 -23.5t-15.5 -17.5t-21 -11t-23.5 -4q-15 0 -32.5 5.5t-32 15.5t-24.5 23.5t-10 30.5q0 27 23 40.5t47 13.5q15 0 31.5 -5t31 -14.5t23.5 -23t9 -30.5zM400 48q0 -26 -21 -41t-45 -15q-15 0 -32 5.5t-32 15.5t-24.5 23.5t-9.5 30.5q0 27 22.5 40.5
t46.5 13.5q15 0 31.5 -5t31 -14.5t23.5 -23t9 -30.5zM626 48q0 -26 -21.5 -41t-45.5 -15q-15 0 -32 5.5t-32 15.5t-24.5 23.5t-9.5 30.5q0 13 6.5 23.5t16.5 17t22 10t24 3.5q15 0 32 -5t31 -14.5t23.5 -23t9.5 -30.5z" />
    <glyph glyph-name="perthousand" unicode="&#x2030;" horiz-adv-x="1174" 
d="M626 -3q-39 0 -67.5 22.5t-47 56t-27.5 71t-9 67.5q0 31 11.5 73t33.5 79t53.5 63t71.5 26q45 0 74 -22.5t46 -56.5t23.5 -73t6.5 -72q0 -35 -9.5 -76t-30 -76t-52.5 -58.5t-77 -23.5zM585 537q-18 -29 -36.5 -57t-35 -53t-30 -44.5t-21.5 -31.5q-7 -10 -21 -30.5
t-32.5 -47.5t-41 -58.5t-45.5 -62.5q-23 -30 -45.5 -59.5t-43.5 -52.5t-38 -37t-27 -14q-14 0 -17.5 10.5t-3.5 15.5q0 19 13.5 50.5t34 69t46.5 78.5t50.5 78.5t46 69t33.5 49.5q8 12 28.5 42t47.5 68t57.5 79t59.5 74.5t53 55.5t38 22q13 0 16.5 -9t3.5 -15
q0 -13 -7.5 -33.5t-20 -46t-29 -54t-33.5 -56.5zM172 290q-39 0 -67.5 23t-47 56t-28 70.5t-9.5 67.5q0 32 11.5 73.5t34 79t54 63t72.5 25.5q45 0 73.5 -22.5t45.5 -56t23.5 -73t6.5 -72.5q0 -35 -9.5 -76t-30 -76t-52.5 -58.5t-77 -23.5zM651 340q-18 0 -32.5 -14
t-24.5 -34t-15 -42.5t-5 -40.5q0 -14 3 -32t10 -34t17.5 -27.5t24.5 -11.5q18 0 32 14t24 34t15 42.5t5 39.5q0 13 -3.5 31.5t-10 35t-17 28t-23.5 11.5zM197 634q-18 0 -32.5 -14t-24.5 -34t-15 -42.5t-5 -40.5q0 -14 3.5 -32t10 -34.5t17 -28t25.5 -11.5q18 0 32 14
t23.5 34t14.5 42.5t5 39.5q0 14 -3 32.5t-10 35t-17 28t-24 11.5zM974 -3q-39 0 -67.5 22.5t-47 56t-27.5 71t-9 67.5q0 31 11.5 73t33.5 79t53.5 63t71.5 26q45 0 74 -22.5t46 -56.5t23.5 -73t6.5 -72q0 -35 -9.5 -76t-30 -76t-52.5 -58.5t-77 -23.5zM999 340
q-18 0 -32.5 -14t-24.5 -34t-15 -42.5t-5 -40.5q0 -14 3 -32t10 -34t17.5 -27.5t24.5 -11.5q18 0 32 14t24 34t15 42.5t5 39.5q0 13 -3.5 31.5t-10 35t-17 28t-23.5 11.5z" />
    <glyph glyph-name="guilsinglleft" unicode="&#x2039;" horiz-adv-x="227" 
d="M207 327q0 -18 -11.5 -41.5t-27.5 -46.5t-33.5 -44.5t-29.5 -34.5q11 -12 27 -30.5t31 -39.5t25.5 -42t10.5 -37q0 -6 -2.5 -12.5t-10.5 -6.5q-9 0 -25.5 10t-36 26t-40 35t-37 38t-27 35t-10.5 25q0 10 10.5 28t27 38.5t37 41.5t40.5 38t37.5 27.5t28.5 10.5q10 0 13 -5
t3 -13z" />
    <glyph glyph-name="guilsinglright" unicode="&#x203a;" horiz-adv-x="224" 
d="M214 158q0 -9 -11 -24.5t-28 -33.5t-38 -36.5t-41 -34t-36.5 -25t-25.5 -9.5q-8 0 -11 6t-3 12q0 16 11 37t26.5 41.5t32.5 38.5t28 30q-11 14 -27.5 35.5t-31.5 45t-25.5 46.5t-10.5 41q0 8 2.5 14t12.5 6q11 0 28 -11t36.5 -28.5t39.5 -39.5t36 -43t26 -39t10 -29z" />
    <glyph glyph-name="fraction" unicode="&#x2044;" horiz-adv-x="475" 
d="M444 726q0 -19 -9 -48.5t-23 -64.5t-32 -72.5t-35.5 -72.5t-33 -64.5t-25.5 -48.5l-24.5 -45.5t-40 -73t-48 -84.5t-50 -80t-44.5 -59.5t-32 -23.5q-10 0 -13 10t-3 18q0 20 9.5 51t24.5 67.5t34 76t37.5 76t35 67.5t26.5 52q6 13 22.5 44t38 69t46 79t48 74.5t44 55.5
t33.5 22q9 0 11.5 -9t2.5 -16z" />
    <glyph glyph-name="Euro" unicode="&#x20ac;" horiz-adv-x="620" 
d="M609 537q0 -20 -14 -36t-35 -16q-17 0 -33.5 9.5t-36 20.5t-44 20.5t-57.5 9.5q-23 0 -48.5 -5.5t-47 -17.5t-37 -30.5t-17.5 -45.5q38 1 74.5 2t74.5 1q10 0 28.5 1t37 -1.5t32 -10.5t13.5 -25q0 -14 -16.5 -22.5t-42 -14t-56 -7.5t-59 -2.5t-51 0t-31.5 0.5v-37
q57 3 114 3q9 0 28 0.5t38 -1.5t33.5 -9t14.5 -23q0 -13 -14 -20.5t-36 -12t-48 -6t-50.5 -2t-44 0t-27.5 0.5q8 -45 43.5 -71t80.5 -26q42 0 71.5 8t49.5 17.5t34.5 17.5t26.5 8q18 0 33 -13.5t15 -32.5q0 -17 -14 -32t-35.5 -28t-48.5 -23.5t-53.5 -17.5t-48.5 -11t-35 -4
q-43 0 -82.5 16t-72 43t-56 63.5t-32.5 77.5q-19 0 -46 1.5t-44 6.5q-14 4 -22.5 13.5t-8.5 23.5q0 12 6 17.5t17 8.5q20 5 43 6t44 2l3 28q-20 2 -45.5 3t-44.5 5q-29 5 -29 33q0 20 11.5 28.5t28.5 10.5q19 4 38 5l38 2q10 42 33 79t55 64t71.5 42.5t83.5 15.5q14 0 38 -3
t52 -8.5t56.5 -14.5t51.5 -21t37.5 -28t14.5 -35z" />
    <glyph glyph-name="trademark" unicode="&#x2122;" horiz-adv-x="444" 
d="M455 477q0 -28 -14.5 -55t-33.5 -51l-19 -26q8 -39 5 -71q-1 -45 -17 -92q19 -26 33 -53t14 -45q0 -17 -14.5 -31.5t-37.5 -14.5q-20 0 -40 10t-40 24q-16 -8 -34 -13t-39 -5q-26 0 -48.5 8.5t-41.5 23.5q-27 -23 -47 -32.5t-42 -9.5q-23 0 -36 13.5t-13 31.5
q0 25 19 59.5t47 72.5q-2 11 -3 23t-1 23q0 34 7 65q-22 37 -40 77t-18 66q0 21 15 33t41 12q24 0 46 -13.5t41 -34.5q37 26 87 26q26 0 46.5 -7t37.5 -19q28 25 49.5 35.5t48.5 10.5q20 0 31 -13.5t11 -27.5zM225 377q-15 0 -26.5 -11t-19 -26.5t-11.5 -33.5t-4 -31
q0 -17 4.5 -35.5t12.5 -34.5t19.5 -26.5t26.5 -10.5q16 0 27 10t18 26t10 34t3 35q0 16 -4 34t-11.5 33.5t-18.5 26t-26 10.5z" />
    <glyph glyph-name="minus" unicode="&#x2212;" horiz-adv-x="480" 
d="M450 255q0 -9 -15 -14.5t-37.5 -9.5t-50 -6.5t-53 -3.5t-45.5 -1.5t-28 -0.5h-23.5t-37.5 1t-44 3t-41.5 6t-31 10.5t-12.5 15.5q0 11 13.5 19.5t34 13.5t46.5 8t50.5 4.5t45 2t31.5 0.5q15 0 47.5 -2.5t66 -8.5t59 -15t25.5 -22z" />
    <glyph glyph-name="fi" unicode="&#xfb01;" horiz-adv-x="554" 
d="M513 174q0 -19 -0.5 -49t-6.5 -58t-21 -48t-44 -20q-21 0 -35 17.5t-23.5 45t-14.5 61t-7.5 65.5t-3 59t-0.5 41q0 29 3 58q-29 -6 -59.5 -10t-61.5 -7q3 -69 3 -139q0 -66 -3 -130q-2 -31 -21.5 -51t-50.5 -20q-17 0 -29.5 6.5t-20.5 17.5t-12 25t-5 29q-5 60 -8 120.5
t-2 121.5q-7 -1 -13 -1h-14q-14 0 -31 3t-32 10.5t-25.5 20t-10.5 30.5q0 20 14.5 34t35.5 23t43.5 13.5t38.5 6.5v18q0 49 9 104.5t32.5 103t63 79t101.5 31.5q39 0 67 -16.5t46 -43t26 -60t8 -67.5q0 -19 -3.5 -36.5t-12.5 -30.5t-23.5 -20.5t-36.5 -7.5q-25 0 -37 10
t-16.5 24.5t-5 31.5t-2 31.5t-7.5 24.5t-22 10q-15 0 -24.5 -23t-15 -53t-8 -58.5t-2.5 -38.5q20 2 40.5 3t40.5 1q22 0 49 -0.5t52 -6.5t45.5 -19.5t31.5 -38.5q9 -21 13 -50.5t6 -61t2 -62v-53.5z" />
    <glyph glyph-name="fl" unicode="&#xfb02;" horiz-adv-x="515" 
d="M478 413q0 -19 0.5 -58.5t-0.5 -88t-5 -100t-13.5 -94t-25 -69.5t-39.5 -27q-19 0 -31.5 17.5t-20.5 45.5t-11.5 61.5t-4.5 65.5t-1 59v40q0 21 0.5 42t1.5 41q-21 -8 -44 -12.5t-45 -6.5q3 -69 3 -139q0 -32 -0.5 -65t-2.5 -65q-2 -31 -21 -51t-51 -20q-17 0 -29 6.5
t-20 17.5t-12.5 25t-5.5 29q-5 60 -8 120.5t-2 121.5q-7 -1 -13 -1h-14q-14 0 -31 3t-32 10.5t-25.5 20t-10.5 30.5q0 20 14.5 34t35.5 23t43.5 13.5t38.5 6.5v18q0 47 9 102.5t32 103.5t62 80t99 32q39 0 67.5 -20t48.5 -52t32.5 -73t19.5 -82t9.5 -79.5t2.5 -65.5z
M338 495q0 11 -2.5 34.5t-8.5 47t-16.5 41t-27.5 17.5q-15 0 -24.5 -23t-15 -53t-8 -58.5t-2.5 -38.5q15 2 30 3t31 1q22 0 42 -3q1 8 1.5 16t0.5 16z" />
    </font>
</defs>
</svg>
