<?xml version="1.0" standalone="no"?>
<!DOCTYPE svg PUBLIC "-//W3C//DTD SVG 1.1//EN" "http://www.w3.org/Graphics/SVG/1.1/DTD/svg11.dtd" >
<svg xmlns="http://www.w3.org/2000/svg" xmlns:xlink="http://www.w3.org/1999/xlink" version="1.1">
<metadata>
Created by FontForge 20161013 at Wed Apr  4 15:24:05 2012
 By ,,,
Copyright (c) 2010-2012, Vernon Adams (vern@newtypography.co.uk), with Reserved Font Names "Coda"
</metadata>
<defs>
<font id="Coda-Regular" horiz-adv-x="533" >
  <font-face 
    font-family="Coda"
    font-weight="400"
    font-stretch="normal"
    units-per-em="2048"
    panose-1="2 11 5 0 0 0 0 0 0 4"
    ascent="1638"
    descent="-410"
    x-height="1097"
    cap-height="1490"
    bbox="-313 -691 2410 2124"
    underline-thickness="102"
    underline-position="-307"
    unicode-range="U+000D-FB02"
  />
<missing-glyph horiz-adv-x="467" 
 />
    <glyph glyph-name="onequarter" unicode="&#x31;&#x2f;&#x34;" horiz-adv-x="829" 
d="M366 0v152h-214l-38 68l231 396h112v-396h102v-68h-102v-152h-91zM337 898v480h-69v53q39 0 60.5 18.5t21.5 49.5h78v-601h-91zM75 805h620v-71h-620v71zM366 220v324q-55 -106 -172 -324h172z" />
    <glyph glyph-name="onehalf" unicode="&#x31;&#x2f;&#x32;" horiz-adv-x="828" 
d="M161 0v75q0 48 17 84t43.5 57.5t59 39.5t65 37.5t59 43t43.5 63.5t17 94q0 57 -17.5 68t-104.5 11q-29 0 -42.5 -1.5t-28 -8t-19.5 -22.5t-5 -43l3 -35l-83 7q-6 37 -6 52q0 69 51 96.5t144 27.5q112 0 156 -31t44 -131q0 -74 -19 -122.5t-51.5 -75t-67 -44t-76 -44
t-68.5 -60.5q-23 -30 -23 -66h295v-72h-386zM301 898v480h-69v53q39 0 60.5 18.5t21.5 49.5h78v-601h-91zM49 805h620v-71h-620v71z" />
    <glyph glyph-name="threequarters" unicode="&#x33;&#x2f;&#x34;" horiz-adv-x="868" 
d="M369 0v152h-214l-38 68l231 396h112v-396h102v-68h-102v-152h-91zM225 1063h67q0 -52 5 -62q20 -21 83 -22q72 0 94.5 12.5t22.5 55.5q0 27 -0.5 46t-5 34.5t-7 24.5t-13 16t-17 10t-25.5 5t-31 2h-41l-3 53q2 0 12.5 -0.5t14.5 -0.5q73 0 94 16t21 53q0 32 -1 46.5
t-5.5 30t-15.5 21t-28 9t-46 3.5q-63 0 -85.5 -8t-22.5 -31l2 -46h-59q-8 26 -8 52q0 55 38.5 76.5t139.5 21.5q91 0 131 -35.5t40 -116.5q0 -37 -11 -63t-28 -37t-29.5 -14.5t-23.5 -4.5q12 -2 24 -7t29 -19t28 -44t11 -72q0 -86 -43.5 -119.5t-133.5 -33.5
q-96 0 -136.5 19.5t-40.5 79.5q0 12 3 49zM79 804h620v-71h-620v71zM369 220v324q-55 -106 -172 -324h172z" />
    <glyph glyph-name="uniFB01" unicode="fi" horiz-adv-x="1227" 
d="M972 0h-197v984h-376v-984h-197v984h-129v113h129q0 55 0.5 89.5t2.5 76.5t5 67t9.5 54t15 45.5t21.5 34.5t29.5 27t38.5 17t48.5 11t60.5 3q81 0 170 -17v-143q-54 3 -104 3q-62 0 -75 -6q-22 -11 -25 -67q-1 -21 -1 -57q0 -15 0.5 -60.5t0.5 -77.5h573v-1097zM972 1521
v-173h-197v173h197z" />
    <glyph glyph-name="uniFB02" unicode="fl" horiz-adv-x="1189" 
d="M1021 0h-197v1372q-201 22 -312 22q-58 0 -86 -35t-28 -124q0 -15 0.5 -60.5t0.5 -77.5h198v-113h-198v-984h-197v984h-129v113h129q0 81 1.5 125t7 97.5t18 79.5t33.5 55t54 40.5t78.5 19.5t108.5 8q180 0 518 -40v-1482z" />
    <glyph glyph-name=".notdef" horiz-adv-x="467" 
 />
    <glyph glyph-name="glyph1" horiz-adv-x="373" 
 />
    <glyph glyph-name="glyph1" horiz-adv-x="373" 
 />
    <glyph glyph-name="uni000D" unicode="&#xd;" horiz-adv-x="373" 
 />
    <glyph glyph-name="space" unicode=" " horiz-adv-x="399" 
 />
    <glyph glyph-name="exclam" unicode="!" horiz-adv-x="492" 
d="M148 0q0 38 0.5 114t0.5 114h196q0 -38 0.5 -114t0.5 -114h-198zM246 498q-26 0 -29 36q-79 830 -79 884q0 72 24 105t84 33t84 -33t24 -105q0 -54 -79 -884q-3 -36 -29 -36z" />
    <glyph glyph-name="quotedbl" unicode="&#x22;" horiz-adv-x="697" 
d="M200 929q-75 355 -75 434q0 77 17 107t70 30q86 0 86 -122q0 -37 -18 -150.5t-36 -209.5l-19 -95zM479 929q-75 355 -75 434q0 77 17 107t70 30q86 0 86 -122q0 -37 -18.5 -150.5t-36.5 -209.5l-18 -95z" />
    <glyph glyph-name="numbersign" unicode="#" horiz-adv-x="1418" 
d="M1275 406h-279l-70 -406h-176l70 406h-328l-72 -406h-177l69 406h-275l27 155h274l67 402h-270l27 168h272l64 359h182l-63 -359h322l62 359h176l-61 -359h273l-23 -168h-278l-67 -402h277zM844 561l68 402h-324l-69 -402h325z" />
    <glyph glyph-name="dollar" unicode="$" horiz-adv-x="1176" 
d="M608 -176v1817h94v-1817h-94zM1156 437q0 -65 -4 -117.5t-14.5 -96t-22.5 -76.5t-34 -58.5t-43.5 -43.5t-56 -30.5t-66.5 -20t-80 -11.5t-91.5 -5.5t-106.5 -1.5q-119 0 -199.5 7t-137 30t-87.5 47.5t-49 78t-23.5 102.5t-9.5 139l185 30q3 -22 6 -62q6 -62 11.5 -87.5
t21.5 -56.5t50 -40.5t89 -16.5t147 -7q88 0 143 4.5t91 12.5t52.5 26t22 39.5t5.5 58.5v45q0 191 -10.5 251t-61.5 69l-498 87q-130 22 -181 99t-54 249q0 92 9.5 157.5t33 115t58 79.5t91 48.5t124 25t165.5 6.5q80 0 137.5 -3.5t112 -12.5t90.5 -25t66.5 -41.5t47.5 -62
t26 -85.5t9 -113l-178 -41q-10 110 -13 125q-12 51 -57 69q-50 21 -209 21q-87 0 -143.5 -5t-92.5 -14.5t-53.5 -28.5t-23.5 -40.5t-6 -56.5v-173q0 -92 82 -108l358 -61q61 -12 89.5 -18.5t74 -19.5t66 -26t50.5 -35t42 -49.5t26.5 -66.5t19 -89.5t4.5 -115.5z" />
    <glyph glyph-name="percent" unicode="%" horiz-adv-x="2216" 
d="M2099 480q0 -182 -76.5 -248t-274.5 -66q-53 0 -93 2.5t-74.5 12.5t-59 17.5t-44 31t-32 40t-21.5 56.5t-13 68t-6.5 87.5t-3 101.5t-0.5 123q0 95 17.5 155.5t61 96t106 49t162.5 13.5q66 0 113.5 -4t86 -20t62.5 -30.5t42 -52.5t26.5 -68.5t13.5 -96.5t6 -118t1 -150z
M1381 1573q-271 -1119 -382 -1572h-168q176 727 379 1572h171zM1944 628q0 157 -9 193q-11 46 -51 59q-30 9 -136 9h-50.5t-40.5 -2t-33 -4t-24.5 -9t-20 -14t-12.5 -21t-9.5 -28.5t-5 -38.5t-3.5 -49v-62v-84q-1 -81 -0.5 -113.5t6.5 -74t14.5 -52t32.5 -24t51 -14.5t78 -1
q55 0 85.5 1.5t58 10.5t38.5 20t19.5 38.5t10 58t1.5 85.5v116zM816 898q0 -182 -76.5 -248t-274.5 -66q-53 0 -93 2.5t-74.5 12.5t-59 17.5t-44 31t-32 40t-21.5 56.5t-13 68t-6.5 87.5t-3 101.5t-0.5 123q0 95 17.5 155.5t61 96t106 49t162.5 13.5q66 0 113.5 -4t86 -20
t62.5 -30.5t42 -52.5t26.5 -68.5t13.5 -96.5t6 -118t1 -150zM661 1046q0 157 -9 193q-11 46 -51 59q-30 9 -136 9h-50.5t-40.5 -2t-33 -4t-24.5 -9t-20 -14t-12.5 -21t-9.5 -28.5t-5 -38.5t-3.5 -49v-62v-84q-1 -81 -0.5 -113.5t6.5 -74t14.5 -52t32.5 -24t51 -14.5t78 -1
q55 0 85.5 1.5t58 10.5t38.5 20t19.5 38.5t10 58t1.5 85.5v116z" />
    <glyph glyph-name="ampersand" unicode="&#x26;" horiz-adv-x="1386" 
d="M1179 250q0 -54 -17.5 -96.5t-44.5 -71t-73.5 -48.5t-90 -31t-108.5 -17t-115.5 -7.5t-123.5 -1.5q-115 0 -192 10.5t-138.5 37t-95.5 75t-51 122t-17 180.5q0 182 55.5 292t158.5 131q-151 47 -151 358q3 70 18 123.5t35.5 89t58.5 60t70 37.5t88.5 19.5t95.5 8t107 1.5
q95 0 153.5 -2t121.5 -8.5t99 -19.5t67.5 -35.5t46 -55.5t18.5 -79q7 -53 7 -114l-152 -25q-2 43 -9.5 73t-22.5 49t-33.5 29.5t-49 15.5t-62.5 6t-80 1h-45q-189 -1 -238 -13q-62 -14 -81 -63q-16 -49 -16 -192q0 -97 18 -150t47 -69.5t78 -16.5h481v109h183v-109h133v-125
l-134 -1q1 -368 1 -477zM996 236v492h-537q-32 0 -55 -8.5t-39.5 -20.5t-27 -39t-16.5 -50t-9 -69t-3.5 -80.5t-0.5 -98.5q0 -35 1 -54.5t4 -44.5t9.5 -38t17.5 -28.5t29 -23t42 -16t58 -12t76 -5.5t97 -2q192 0 269.5 23t84.5 75z" />
    <glyph glyph-name="quotesingle" unicode="'" horiz-adv-x="434" 
d="M200 929q-75 355 -75 434q0 77 17 107t70 30q86 0 86 -122q0 -37 -18 -150.5t-36 -209.5l-19 -95z" />
    <glyph glyph-name="parenleft" unicode="(" horiz-adv-x="653" 
d="M119 727v2q0 158 16.5 292.5t56 254t99.5 205.5t151.5 140t208.5 64l15 -137q-98 -15 -168 -78.5t-110.5 -173t-59 -248t-18.5 -320.5t18.5 -320.5t59 -248t110.5 -173t168 -78.5l-15 -137q-117 10 -208.5 64t-151.5 140t-99.5 205.5t-56 254t-16.5 292.5z" />
    <glyph glyph-name="parenright" unicode=")" horiz-adv-x="649" 
d="M534 729v-2q0 -158 -16.5 -292.5t-56 -254t-99.5 -205.5t-151.5 -140t-208.5 -64l-15 137q98 15 168 78.5t110.5 173t59 248t18.5 320.5t-18.5 320.5t-59 248t-110.5 173t-168 78.5l15 137q117 -10 208.5 -64t151.5 -140t99.5 -205.5t56 -254t16.5 -292.5z" />
    <glyph glyph-name="asterisk" unicode="*" horiz-adv-x="1014" 
d="M698 574q-24 0 -46.5 24t-39.5 60.5t-34 90.5t-28.5 102t-25.5 106q-5 21 -7 31q-10 -38 -22.5 -86t-20.5 -77.5t-17.5 -65.5t-16.5 -57.5t-16.5 -45t-18.5 -36.5t-20 -25t-23.5 -16.5t-27.5 -4.5q-27 0 -53 23.5t-26 50.5q0 23 11.5 51t25.5 51t47.5 64t54 64t69.5 77
q25 28 38 42q-13 -4 -73 -22t-81 -24t-63 -17t-68 -15t-48 -4q-101 0 -101 91q0 90 99 90q35 0 97.5 -15.5t142 -40t95.5 -28.5q-256 277 -256 332q0 40 23.5 66t63.5 26q22 0 42 -14.5t37.5 -50t29.5 -63.5t28 -88t23 -88t22 -97q1 -4 1.5 -7t1.5 -6q10 38 21 92
q0 1 3.5 18.5t7.5 39t12 51.5t17 58.5t21.5 57t26.5 49.5t32.5 34.5t37.5 13.5q31 0 55.5 -24t24.5 -59q0 -45 -48 -115.5t-194 -225.5q42 13 113.5 35t95 29t58.5 13.5t64 6.5q99 0 99 -90q0 -91 -103 -91q-28 0 -76.5 10.5t-84 20.5t-95 29t-71.5 22q256 -282 256 -333
q0 -40 -25.5 -65t-66.5 -25z" />
    <glyph glyph-name="plus" unicode="+" horiz-adv-x="889" 
d="M58 585v169h307v363h166v-363h308v-169h-308v-362h-166v362h-307z" />
    <glyph glyph-name="comma" unicode="," horiz-adv-x="515" 
d="M95 -159q67 0 119.5 47t52.5 112q-63 0 -103.5 45t-40.5 109q0 67 39.5 111t107.5 44q64 0 102.5 -52.5t38.5 -126.5q0 -84 -34 -167.5t-94.5 -138.5t-127.5 -55q-45 0 -60 4v68z" />
    <glyph glyph-name="hyphen" unicode="-" horiz-adv-x="847" 
d="M132 538v139h587v-139h-587z" />
    <glyph glyph-name="period" unicode="." horiz-adv-x="500" 
d="M392 117q0 -71 -40.5 -109.5t-97.5 -38.5t-100 39.5t-43 108.5q0 70 40.5 108.5t96.5 38.5q58 0 101 -39.5t43 -107.5z" />
    <glyph glyph-name="slash" unicode="/" horiz-adv-x="629" 
d="M581 1516l-366 -1542h-179l367 1542h178z" />
    <glyph glyph-name="zero" unicode="0" horiz-adv-x="1260" 
d="M632 -16q-93 0 -164 9.5t-123.5 38.5t-89 56t-60 87.5t-37 106.5t-19.5 139.5t-7.5 160.5t-1.5 194q0 84 1.5 145.5t6.5 127t13.5 112t22.5 94t34.5 79.5t48.5 62.5t64 49t82 33.5t103 21t126 6q95 0 167 -13t125.5 -37.5t90.5 -67.5t60.5 -92.5t36.5 -125t17.5 -154
t4.5 -187.5q0 -327 -12 -438q-21 -203 -105 -293q-100 -106 -341 -113q-21 -1 -44 -1zM632 1357q-151 0 -225.5 -42.5t-79.5 -135.5q-4 -63 -6 -135t-3.5 -163.5t-2.5 -140.5q0 -267 11 -439q5 -85 78 -124t228 -39t228 39t78 124q11 172 11 439q-2 48 -4.5 203t-7.5 236
q-6 93 -80.5 135.5t-224.5 42.5z" />
    <glyph glyph-name="one" unicode="1" horiz-adv-x="584" 
d="M417 0h-187v1244h-185v92q160 6 217 146h155v-1482z" />
    <glyph glyph-name="two" unicode="2" horiz-adv-x="1095" 
d="M957 9h-863q1 156 20.5 250.5t65.5 159.5t134 127q59 41 129.5 84t110.5 66.5t85 55.5t68.5 60t44.5 69t29 93.5t8 123.5q0 43 -0.5 66.5t-4 55t-10 47.5t-18 36t-29 29.5t-42.5 19t-59 13t-78 3.5q-83 0 -130.5 -7.5t-84 -33.5t-53 -73.5t-23.5 -128.5l-148 35
q-1 9 -1 27q0 171 107 245.5t318 74.5q82 0 141 -6.5t111 -23.5t86 -46.5t58.5 -75t35 -109t10.5 -148.5q0 -138 -33.5 -231.5t-95.5 -153.5t-171 -119q-26 -15 -68.5 -39t-65 -37t-57 -34t-52.5 -35t-44 -36t-39.5 -40.5t-29.5 -44.5t-24 -52.5t-13.5 -59.5t-6.5 -70h682
v-137z" />
    <glyph glyph-name="three" unicode="3" horiz-adv-x="1124" 
d="M1002 420q0 -106 -22 -182.5t-61 -125.5t-103 -77.5t-138 -39.5t-176 -11q-107 0 -180 11.5t-130.5 42t-85 86.5t-27.5 141q0 39 1 63l160 23q1 -12 2.5 -33.5t3 -39t3.5 -33.5q8 -70 70.5 -96.5t206.5 -26.5q77 0 124 2.5t82.5 19t51 30t25 57.5t10.5 77t1 113v3
q0 83 -14 134t-33 80.5t-76 42t-102.5 15t-153.5 2.5h-6l-8 142q123 0 161 1q67 2 110 16t66.5 32t34 65t12.5 82.5t2 118.5v17q0 60 -9 94t-39 59t-84 34t-147 9q-153 0 -211 -24t-63 -91l-9 -109l-154 30v28q0 71 10 117t37 84t78 58.5t129 31.5t195 13q233 0 340 -88.5
t107 -283.5q0 -91 -17.5 -160.5t-40.5 -105t-55.5 -58.5t-52 -29.5t-39.5 -10.5q-5 -1 -7 -1q15 -3 26.5 -5.5t35.5 -13t42.5 -25t41.5 -41.5t38 -61.5t25.5 -87t11.5 -115.5z" />
    <glyph glyph-name="four" unicode="4" horiz-adv-x="1060" 
d="M991 390h-139v-390h-185v389h-622v150l518 943h289v-961h139v-131zM667 1379q-17 -35 -51 -102.5t-46 -91.5l-235 -472q-16 -33 -49 -97.5t-48 -94.5h429v858z" />
    <glyph glyph-name="five" unicode="5" horiz-adv-x="1197" 
d="M1088 460q0 -101 -10.5 -173.5t-36 -126.5t-62 -87t-96 -53.5t-130 -28t-170.5 -7.5q-60 0 -106 3t-94 11t-82 22t-65.5 36.5t-50.5 54.5t-30 76.5t-11 101.5q0 10 1 31.5t1 33.5l151 21q5 -59 10 -91t17 -63.5t28.5 -45t49.5 -25t74.5 -14.5t107.5 -3q86 0 146.5 12
t95.5 31.5t54 53t25 67.5t6 84q0 21 -1.5 69.5t-1.5 75.5q0 52 -0.5 79t-5 61t-11.5 49t-22.5 34t-36 26t-53.5 14.5t-73.5 9t-97.5 1.5q-44 0 -71 -1t-60 -5.5t-53 -14.5t-40.5 -26.5t-32.5 -42t-18 -61.5l-174 13v822h842v-154h-645l-32 -569q15 37 28.5 61t38.5 51
t57 42.5t83 25.5t117 10q94 0 163.5 -11.5t118.5 -39t79.5 -64t48 -95t24 -123.5t6.5 -158z" />
    <glyph glyph-name="six" unicode="6" horiz-adv-x="1245" 
d="M1138 488q0 -102 -8 -174t-29.5 -131t-54.5 -95t-87 -60.5t-124 -34t-168 -9.5q-126 0 -210 10.5t-145.5 44t-95 75.5t-53 126.5t-24.5 174t-5 240.5q0 328 9 427q17 203 93 293q88 105 305 121q48 4 103 4q67 0 114.5 -2.5t98.5 -10.5t85 -23.5t62.5 -40t42 -62.5
t13.5 -89q0 -19 -8 -99q-85 -9 -160 -21q0 45 -0.5 66t-4 49t-8.5 38.5t-18.5 25.5t-28 18.5t-42.5 8.5t-58 5.5t-78 0.5q-179 -5 -244 -40.5t-73 -136.5q-10 -224 -14 -405q29 53 68.5 88t106.5 56.5t159 21.5q71 0 124 -3.5t102 -13t83.5 -25.5t64.5 -41t48.5 -59
t32.5 -81t19.5 -105t6.5 -132zM956 333q0 279 -2 310q-5 89 -69 119t-243 32q-79 0 -134.5 -6.5t-91 -24.5t-55 -35t-28.5 -55t-11 -65.5t-2 -83.5q0 -31 -1 -82t-1 -72q0 -57 5.5 -91.5t23.5 -68t53 -51t94.5 -28t146.5 -10.5q64 0 111 4t81 10.5t56.5 20.5t36 28t20 39
t8.5 48.5t2 61.5z" />
    <glyph glyph-name="seven" unicode="7" horiz-adv-x="847" 
d="M777 1482v-170q-301 -779 -447 -1312h-184q185 630 462 1330h-575v152h744z" />
    <glyph glyph-name="eight" unicode="8" horiz-adv-x="1223" 
d="M633 -16h2q-111 0 -187 10t-137.5 35.5t-96 71t-52.5 114.5t-18 168q0 167 45.5 260t136.5 155q-109 80 -109 334q0 210 97.5 292t319.5 82t319.5 -82t97.5 -292q0 -254 -109 -334q91 -62 136.5 -155t45.5 -260q0 -99 -18 -168t-52.5 -114.5t-96 -71t-137.5 -35.5
t-187 -10zM633 711h2q-63 0 -93.5 -1t-72 -4.5t-58.5 -12.5t-39 -23.5t-29.5 -39t-13.5 -57.5t-6 -80q0 -34 -1.5 -91.5t-1.5 -81.5q0 -40 6 -67t24.5 -53t52.5 -40.5t91.5 -23.5t139.5 -9t139.5 9t91.5 23.5t52.5 40.5t24.5 53t6 67q0 24 -1.5 81.5t-1.5 91.5q0 47 -6 80
t-13.5 57.5t-29.5 39t-39 23.5t-58.5 12.5t-72 4.5t-93.5 1zM633 1358h2q-48 0 -79.5 -1t-60 -6t-44.5 -10t-29.5 -18.5t-19.5 -26.5t-10.5 -39t-5 -50t-0.5 -66q0 -237 77 -286h170h172q77 49 77 286q0 42 -0.5 66t-5 50t-10.5 39t-19.5 26.5t-29.5 18.5t-44.5 10t-60 6
t-79.5 1z" />
    <glyph glyph-name="nine" unicode="9" horiz-adv-x="1249" 
d="M1118 841q0 -346 -9 -448q-16 -195 -85 -278q-77 -93 -264 -111q-58 -6 -133 -6q-59 0 -98.5 1t-91.5 5.5t-86.5 12.5t-71 23.5t-58 37.5t-35.5 54.5t-14 74.5q0 55 9 110q81 9 159 21q0 -39 0.5 -59t4.5 -46.5t10.5 -38.5t20.5 -27t33 -20.5t49.5 -12t68 -8t90.5 -1.5
q94 2 146.5 9.5t87 28t47 51.5t18.5 88q10 230 14 417q-90 -166 -325 -166q-95 0 -161.5 7t-123 25.5t-91.5 49.5t-59.5 82t-34.5 120t-10 165q0 104 9 179t31.5 132.5t56.5 93.5t88.5 58.5t122 31.5t162.5 9q124 0 206 -10.5t142.5 -44t93.5 -75.5t52 -125.5t24 -172.5
t5 -237zM933 1080q0 67 -1.5 97.5t-10.5 72t-27.5 57.5t-53.5 34t-88 23t-132 5q-131 0 -197 -17t-88.5 -49t-25.5 -97q-4 -150 -4 -227q0 -66 1.5 -97.5t11.5 -69.5t28.5 -52t55 -29.5t88 -19.5t131.5 -5q167 0 236 36.5t74 127.5q2 69 2 210z" />
    <glyph glyph-name="colon" unicode=":" horiz-adv-x="537" 
d="M413 288q0 -72 -42 -112t-99 -40t-98 40t-41 112q0 73 41 113t97 40q57 0 99.5 -40.5t42.5 -112.5zM133 1079q0 73 41 113t98 40t99 -40.5t42 -112.5q0 -73 -41 -113.5t-98 -40.5t-99 41t-42 113z" />
    <glyph glyph-name="semicolon" unicode=";" horiz-adv-x="547" 
d="M423 1079q0 -68 -37.5 -111t-102.5 -43q-62 0 -101 44.5t-39 109.5q0 67 37.5 110.5t102.5 43.5q61 0 100.5 -45t39.5 -109zM111 -29q67 0 119.5 47t52.5 112q-62 0 -103.5 45t-41.5 110t40 109.5t107 44.5q63 0 102.5 -53t39.5 -126q0 -85 -34.5 -168t-95 -138
t-127.5 -55q-44 0 -59 4v68z" />
    <glyph glyph-name="less" unicode="&#x3c;" horiz-adv-x="874" 
d="M761 234l-696 433v165l696 449v-236l-519 -287l519 -296v-228z" />
    <glyph glyph-name="equal" unicode="=" horiz-adv-x="1138" 
d="M988 692h-835v189h835v-189zM988 314h-835v189h835v-189z" />
    <glyph glyph-name="greater" unicode="&#x3e;" horiz-adv-x="878" 
d="M819 667l-698 -433v227l520 296l-520 288v236l698 -449v-165z" />
    <glyph glyph-name="question" unicode="?" horiz-adv-x="764" 
d="M691 1161q-1 -188 -170 -358q-163 -164 -174 -320h-103q0 138 37.5 229.5t129.5 213.5q46 61 64.5 108t18.5 115q0 85 -46.5 134.5t-133.5 49.5q-66 0 -227 -40l-21 164q142 65 255 65q180 0 275 -92.5t95 -268.5zM427 117q0 -71 -40.5 -109.5t-97.5 -38.5t-100 39.5
t-43 108.5q0 70 40.5 108.5t96.5 38.5q58 0 101 -39.5t43 -107.5z" />
    <glyph glyph-name="at" unicode="@" horiz-adv-x="1968" 
d="M614 1014q0 55 13 96.5t41.5 69t63 45t87.5 26.5t104.5 12t124.5 3q388 0 388 -322v-729q141 0 179 26q14 10 21.5 19.5t15 21.5t11 35t6.5 47t4 73.5t1.5 97.5t0.5 135q0 115 -5 201t-17.5 168.5t-35 140t-57.5 108.5t-83.5 83.5t-115 56.5t-151 34t-191.5 10
q-139 0 -245.5 -20t-187.5 -64t-135.5 -108t-89 -157t-49.5 -205.5t-15 -258.5q0 -152 12 -265.5t41 -210.5t76.5 -162t119.5 -111.5t169.5 -69t226.5 -24.5q240 0 629 107l48 -147q-275 -120 -605 -120q-256 0 -425.5 50t-279 167t-156 299t-46.5 455q0 265 48 451.5
t154.5 312.5t276.5 185t414 59q132 0 237.5 -12.5t191.5 -40t150.5 -67.5t113.5 -100t81 -132t52 -169t28.5 -205.5t8.5 -246.5q0 -85 -2 -142.5t-8 -119t-18 -100.5t-31.5 -78t-48 -61.5t-68 -40.5t-92 -25.5t-119.5 -7.5q-152 0 -166 125q-34 -151 -417 -151
q-196 0 -269 73.5t-73 275.5q0 189 69 275.5t238 86.5q157 0 381 -40v227q0 49 -7 78.5t-26 44t-42 19t-64 4.5h-209q-51 0 -78.5 -24t-27.5 -89q0 -53 4 -89h-163q-12 60 -12 111zM985 200q84 0 136.5 9.5t80.5 33t37.5 54t9.5 79.5q0 31 -5 118.5t-5 129.5h-206
q-32 0 -80.5 0.5t-64.5 0.5q-25 0 -42 -0.5t-33 -4t-26 -6.5t-19.5 -13t-15 -17t-10 -25.5t-6 -32.5t-3 -43.5t-1.5 -52v-64.5q0 -43 4.5 -67t18 -46t42 -32t73.5 -15.5t115 -5.5z" />
    <glyph glyph-name="A" unicode="A" horiz-adv-x="1268" 
d="M1221 0h-206l-113 381h-551l-109 -381h-195l457 1490h271zM860 525l-126 447l-104 366q-58 -207 -102 -356l-134 -457h466z" />
    <glyph glyph-name="B" unicode="B" horiz-adv-x="1320" 
d="M1216 429q-1 -63 -4.5 -110.5t-11.5 -89.5t-17 -71t-28.5 -54.5t-37.5 -41t-51.5 -28t-64.5 -18.5t-82.5 -10t-99 -5t-119.5 -1h-534v1490h566q113 0 187.5 -11.5t132 -41.5t83.5 -85t27 -140l1 -108q0 -68 -5 -111t-17.5 -78t-37.5 -55t-60.5 -33.5t-91.5 -23.5
q68 -7 117 -30t77.5 -55t44.5 -81t21 -96t5 -112zM965 1147v6v59.5t-5.5 43t-11 33.5t-25 21.5t-38.5 16t-59.5 7t-80.5 4.5h-109h-269v-478h201q131 0 212 7.5t120.5 26t52 39.5t12.5 56v158zM1018 477q-2 119 -9 150q-14 55 -69 75q-68 26 -304 27h-35h-234v-578h382
q116 0 175 19.5t78 58.5t18 115z" />
    <glyph glyph-name="C" unicode="C" horiz-adv-x="1323" 
d="M1042 462l174 -26q-5 -96 -17 -163.5t-35.5 -120.5t-57.5 -85.5t-87.5 -53.5t-120 -29t-160.5 -8q-90 0 -161 4.5t-129.5 20t-102 30t-77 48.5t-56 61t-38 82.5t-23.5 97.5t-12.5 122t-5.5 140t-1 166q0 112 1 180t6 148t12.5 124t24 96.5t37.5 78t55 55.5t74.5 41.5
t98.5 23.5t124.5 15t154.5 3q91 0 155 -6.5t120 -25t92 -49t63.5 -79.5t42.5 -115.5t22 -159.5l-175 -34q-5 51 -9 85t-11.5 67t-12 53.5t-18.5 40t-22.5 29.5t-31.5 19t-38.5 12.5t-51 6.5t-61.5 3h-76q-70 0 -114.5 -1.5t-89 -7t-70 -16t-47.5 -28t-31.5 -43t-11.5 -61.5
q-9 -264 -9 -539q0 -192 9 -375q5 -57 32.5 -89t107 -51t225.5 -19q78 0 131 4.5t89 21t55 30t30.5 52.5t15 65.5t7.5 90.5q1 14 1.5 22t1.5 21.5t2 24.5z" />
    <glyph glyph-name="D" unicode="D" horiz-adv-x="1405" 
d="M1273 876q0 -137 -1.5 -225.5t-9.5 -181t-17 -146.5t-33.5 -110.5t-48 -84t-71.5 -56.5t-94 -39t-124.5 -20t-154 -11.5t-191.5 -1.5h-362v1490h516q126 0 213 -10.5t155.5 -39t109.5 -71.5t67.5 -114.5t36 -160.5t9.5 -218zM1072 873q0 92 -0.5 132.5t-7 101.5t-18 83.5
t-36.5 57.5t-58.5 44.5t-88 24t-121.5 17t-163 2.5h-210v-1183h240q86 0 134 1.5t104 8.5t82.5 18.5t57.5 36t43 56t24 83t15 113.5t3 150v253z" />
    <glyph glyph-name="E" unicode="E" horiz-adv-x="1116" 
d="M1010 0h-844v1490h835l20 -154h-652v-479h557v-162h-557v-542h661z" />
    <glyph glyph-name="F" unicode="F" horiz-adv-x="1044" 
d="M989 1336h-615v-486h524v-162h-524v-688h-203v1490h798z" />
    <glyph glyph-name="G" unicode="G" horiz-adv-x="1368" 
d="M1236 745v-639q-142 -130 -575 -130q-85 0 -149.5 7t-118 18t-91.5 37.5t-67 53.5t-47 78.5t-29.5 99.5t-17 129t-7.5 155t-2 190q0 99 1.5 169t7 143t15 121.5t26 98t38.5 80t55 60.5t73.5 46t94.5 29t118 17.5t145 4.5h15q70 0 106 -1t97.5 -7.5t94.5 -20t76 -40
t64 -65t37 -97.5t16 -136q0 -18 -2 -50l-179 -34l-11 197q-2 64 -73 82.5t-269 18.5q-135 0 -204 -16.5t-96 -50.5t-33 -101q-9 -205 -9 -420q0 -216 9 -420q5 -108 17 -140q19 -49 87 -66q64 -16 223 -16q342 0 379 46q-1 103 -1 418h-252l-17 151h455z" />
    <glyph glyph-name="H" unicode="H" horiz-adv-x="1404" 
d="M1238 0h-203v684h-666v-684h-203v1490h203v-648h666v648h203v-1490z" />
    <glyph glyph-name="I" unicode="I" horiz-adv-x="547" 
d="M375 0h-203v1490h203v-1490z" />
    <glyph glyph-name="J" unicode="J" horiz-adv-x="726" 
d="M560 1490v-1058q0 -61 -1 -100.5t-4.5 -88t-11 -79t-19.5 -64.5t-30.5 -54t-44.5 -37.5t-61 -25t-79 -7.5q-121 0 -238 53l21 154q92 -35 155 -35q65 0 87.5 41t22.5 118v1183h203z" />
    <glyph glyph-name="K" unicode="K" horiz-adv-x="1229" 
d="M1228 0h-245l-537 732l-78 -93v-639h-202v1490h202v-507q0 -29 -0.5 -91.5t-0.5 -89.5q15 19 115 147l439 541h241l-558 -661z" />
    <glyph glyph-name="L" unicode="L" horiz-adv-x="999" 
d="M923 0h-757v1490h203v-1337h574z" />
    <glyph glyph-name="M" unicode="M" horiz-adv-x="1671" 
d="M113 0l74 1499h220l430 -1173l422 1173h220l79 -1499h-198l-52 1201l-414 -1201h-116l-434 1192l-44 -1192h-187z" />
    <glyph glyph-name="N" unicode="N" horiz-adv-x="1431" 
d="M1265 0h-211l-710 1177v-1177h-178v1490h205l716 -1193v1193h178v-1490z" />
    <glyph glyph-name="O" unicode="O" horiz-adv-x="1420" 
d="M710 -24q-87 0 -154.5 4t-124.5 19.5t-97.5 28.5t-73 49.5t-53.5 63t-36 88t-22 105t-11.5 134.5t-5 156t-0.5 188q0 148 8 246t31.5 182t62 132t105 82.5t155 47t216.5 12.5q121 0 207 -12t152.5 -42.5t107 -76t66.5 -119.5t35.5 -165.5t9.5 -222.5q0 -370 -11 -487
q-19 -200 -92 -286q-77 -92 -262 -116q-88 -11 -213 -11zM710 1360q-86 0 -143 -4t-99.5 -17t-65.5 -29t-37.5 -49.5t-19 -68.5t-6.5 -95q-3 -185 -3 -372q0 -282 15 -386q24 -156 91 -180q50 -29 268 -29t268 29q19 7 34.5 23t26 43t18.5 54.5t13 70.5t8 77.5t4 88
t1.5 88.5t0.5 93q0 202 -3 400q-2 60 -6.5 95t-19 68.5t-37.5 49.5t-65.5 29t-99.5 17t-143 4z" />
    <glyph glyph-name="P" unicode="P" horiz-adv-x="1265" 
d="M1172 1004q0 -91 -10 -162t-26.5 -121.5t-45 -86.5t-60 -58t-76 -34.5t-88 -16.5t-101.5 -4h-397v-521h-202v1490h540q93 0 157.5 -7.5t119.5 -27.5t88 -54t57 -89t33.5 -129.5t10.5 -178.5zM970 1015q-1 72 -4 117t-11.5 85t-22 61t-37 36.5t-55 20.5t-78.5 5h-394v-668
h353q78 0 127 13t76.5 43.5t37 71.5t9.5 106q0 16 -0.5 52t-0.5 57z" />
    <glyph glyph-name="Q" unicode="Q" horiz-adv-x="1420" 
d="M710 1360q-86 0 -143 -4t-99.5 -17t-65.5 -29t-37.5 -49.5t-19 -68.5t-6.5 -95q-3 -185 -3 -372q0 -282 15 -386q24 -156 91 -180q50 -29 268 -29t268 29q19 7 34.5 23t26 43t18.5 54.5t13 70.5t8 77.5t4 88t1.5 88.5t0.5 93q0 202 -3 400q-2 60 -6.5 95t-19 68.5
t-37.5 49.5t-65.5 29t-99.5 17t-143 4zM710 -24q-87 0 -154.5 4t-124.5 19.5t-97.5 28.5t-73 49.5t-53.5 63t-36 88t-22 105t-11.5 134.5t-5 156t-0.5 188q0 148 8 246t31.5 182t62 132t105 82.5t155 47t216.5 12.5q121 0 207 -12t152.5 -42.5t107 -76t66.5 -119.5
t35.5 -165.5t9.5 -222.5v-33q0 -124 -0.5 -181.5t-3 -150.5t-8.5 -134.5t-16.5 -105t-27 -93t-41 -66.5t-57 -57.5t-75.5 -36.5l167 -261l-139 -115l-223 339q-58 -5 -154 -5z" />
    <glyph glyph-name="R" unicode="R" horiz-adv-x="1325" 
d="M1199 1080q0 -191 -72 -283.5t-201 -113.5q192 -39 228 -244l77 -439h-217q-8 46 -18.5 133.5t-19.5 148t-24 128.5t-39.5 114t-58.5 68q-54 23 -177 23h-309v-615h-202v1490h455q72 0 122.5 -1.5t106.5 -6.5t94 -14t77.5 -24t65 -37t48.5 -52.5t36 -70t20.5 -90.5
t7.5 -114zM999 1001v139q0 38 -1.5 59.5t-7.5 46t-18.5 37t-33 25t-53 17.5t-76 8.5t-104.5 3.5h-337v-563h349q77 0 127 8t81.5 22.5t47.5 44t21 63t5 89.5z" />
    <glyph glyph-name="S" unicode="S" horiz-adv-x="1254" 
d="M1144 437q0 -65 -4 -117.5t-14.5 -96t-22.5 -76.5t-34 -58.5t-43.5 -43.5t-56 -30.5t-66.5 -20t-80 -11.5t-91.5 -5.5t-106.5 -1.5q-119 0 -199.5 7t-137 30t-87.5 47.5t-49 78t-23.5 102.5t-9.5 139l185 30q3 -22 6 -62q6 -62 11.5 -87.5t21.5 -56.5t50 -40.5t89 -16.5
t147 -7q76 0 125 4t86 16.5t56 28.5t30.5 49.5t14.5 69.5t2 96q-1 132 -14.5 182.5t-57.5 59.5l-498 87q-130 22 -181 99t-54 249q0 92 9.5 157.5t33 115t58 79.5t91 48.5t124 25t165.5 6.5q80 0 137.5 -3.5t112 -12.5t90.5 -25t66.5 -41.5t47.5 -62t26 -85.5t9 -113
l-178 -41q-10 110 -13 125q-12 51 -57 69q-50 21 -209 21q-87 0 -143.5 -5t-92.5 -14.5t-53.5 -28.5t-23.5 -40.5t-6 -56.5v-173q0 -94 82 -108l358 -61q50 -8 80 -14t69 -16t61 -21t49 -28t42 -38t30.5 -50t23 -65.5t12.5 -83t5 -104.5z" />
    <glyph glyph-name="T" unicode="T" horiz-adv-x="979" 
d="M976 1336h-389v-1336h-203v1336h-381v154h973v-154z" />
    <glyph glyph-name="U" unicode="U" horiz-adv-x="1429" 
d="M1277 1490v-933q0 -120 -10.5 -206t-37.5 -152.5t-67.5 -108t-106 -68t-146.5 -36.5t-196 -10q-111 0 -189 9t-144 33.5t-106.5 65t-69.5 106t-40.5 154.5t-11.5 213v933h203v-959q0 -83 0.5 -120t5.5 -90.5t13 -73t26.5 -48.5t42 -36.5t64.5 -18.5t88.5 -12.5
t118.5 -1.5q84 0 140.5 5t98.5 20t64.5 34.5t36 57.5t17.5 79t4 109l-1 1055h203z" />
    <glyph glyph-name="V" unicode="V" horiz-adv-x="1227" 
d="M1202 1490l-490 -1490h-210l-477 1490h215l371 -1231l371 1231h220z" />
    <glyph glyph-name="W" unicode="W" horiz-adv-x="1739" 
d="M1688 1490l-316 -1490h-217l-284 1173l-282 -1173h-216l-328 1490h214l234 -1211l285 1211h201l293 -1211l228 1211h188z" />
    <glyph glyph-name="X" unicode="X" horiz-adv-x="1190" 
d="M1140 0h-222l-324 590l-323 -590h-221l429 766l-408 724h217l306 -556l308 556h217l-407 -724z" />
    <glyph glyph-name="Y" unicode="Y" horiz-adv-x="1081" 
d="M1086 1490l-451 -972v-518h-202v518l-438 972h221l325 -763l331 763h214z" />
    <glyph glyph-name="Z" unicode="Z" horiz-adv-x="1093" 
d="M990 0h-889l-10 176l571 952l128 210h-634l-17 152h840l11 -179l-559 -950l-126 -210h685v-151z" />
    <glyph glyph-name="bracketleft" unicode="[" horiz-adv-x="608" 
d="M619 -257h-446v1910h446v-151h-255v-1607h255v-152z" />
    <glyph glyph-name="backslash" unicode="\" horiz-adv-x="644" 
d="M603 -26h-199l-343 1542h199z" />
    <glyph glyph-name="bracketright" unicode="]" horiz-adv-x="613" 
d="M442 -257h-445v152h254v1607h-254v151h445v-1910z" />
    <glyph glyph-name="asciicircum" unicode="^" horiz-adv-x="801" 
d="M407 1627l-231 -236l-55 54l192 309q35 52 94 52t94 -52l192 -309l-55 -54z" />
    <glyph glyph-name="underscore" unicode="_" horiz-adv-x="1118" 
d="M141 0h837v-127h-837v127z" />
    <glyph glyph-name="grave" unicode="`" horiz-adv-x="679" 
d="M278 1605q17 -14 91 -88t139 -141l66 -68l-17 -21l-93 35q-93 35 -192 72t-110 42q-35 15 -53 44t-18 60q0 41 28 70.5t75 29.5q44 0 84 -35z" />
    <glyph glyph-name="a" unicode="a" horiz-adv-x="1110" 
d="M960 0h-156l-32 157q-30 -103 -108.5 -137.5t-229.5 -34.5q-100 0 -164 19.5t-102 65.5t-52.5 112.5t-14.5 171.5q0 47 16.5 84t45 63t76 45t98.5 30t123.5 17.5t141.5 8.5t161 2v297q0 51 -48 70.5t-171 19.5q-86 0 -129 -4t-65.5 -23.5t-26 -38.5t-4.5 -71
q-1 -19 -1 -30l-153 6q-2 16 -2 47q0 67 19.5 113.5t50.5 73t85 41.5t107 19t132 4q120 0 195 -18.5t123 -66.5t66.5 -122.5t18.5 -194.5v-726zM763 314v171q-197 0 -303 -15t-141.5 -41.5t-35.5 -74.5v-6q0 -152 25 -189t153 -37q109 0 177 26t94.5 66.5t30.5 99.5z" />
    <glyph glyph-name="b" unicode="b" horiz-adv-x="1181" 
d="M1057 611q0 -76 -1 -126t-4 -109t-9 -96.5t-16 -80t-25 -68.5t-36 -53t-49 -42t-64 -28t-81 -18t-100 -5q-262 0 -319 153l-18 -138h-180v1519l197 16v-559q33 78 106 115t198 37q68 0 122.5 -8.5t95 -27.5t70.5 -42.5t50 -60t32.5 -73.5t19.5 -89.5t9 -100.5t2 -115z
M860 761q0 43 -0.5 64.5t-4 50.5t-9.5 41t-18.5 28.5t-30 22.5t-45 12.5t-61.5 8t-82 1.5q-101 0 -157.5 -14.5t-81.5 -48.5q-18 -34 -18 -154v-504q0 -82 58 -114.5t200 -32.5q141 0 194 25q57 20 57 202z" />
    <glyph glyph-name="c" unicode="c" horiz-adv-x="1093" 
d="M985 781l-162 -27l-21 139q-8 48 -19 61q-26 30 -144 34q-28 1 -62 1q-136 0 -178 -15q-46 -8 -67 -91t-21 -203l1 -173v-99v-115.5t9 -76t20.5 -53t43.5 -24.5t68.5 -15t105.5 -1q54 0 93.5 4t67 9.5t45 19t27 24.5t14.5 34.5t6.5 40.5t3.5 51.5t5 58.5l164 -28
q-6 -78 -13.5 -125t-25 -91t-44 -66.5t-73 -40.5t-108 -23.5t-153.5 -5.5q-66 0 -118.5 4t-95.5 16.5t-75 24t-56.5 40.5t-41 50t-27.5 68t-17 80t-9 100.5t-3.5 114.5t-0.5 136q0 80 3 138.5t12 112t23.5 89t39 66.5t56 49t78 31t102 18t129.5 5q95 0 159.5 -9.5
t114.5 -31.5t79 -62.5t45 -99t20 -144.5z" />
    <glyph glyph-name="d" unicode="d" horiz-adv-x="1180" 
d="M1025 0h-180l-19 138q-61 -153 -319 -153q-69 0 -123.5 9t-94 31t-67.5 45.5t-46.5 68t-29 81t-15.5 101.5t-6 113.5t-1 131.5q0 81 2.5 140t10 117t20 97.5t33.5 76.5t50.5 59.5t70.5 40t94 24.5t120 7q129 0 200.5 -34.5t102.5 -109.5v535l197 16v-1535zM828 255v583
q0 87 -54 119.5t-203 32.5q-116 0 -172 -17q-46 -14 -62 -82.5t-16 -184.5q0 -169 6 -473q5 -66 53.5 -88.5t190.5 -22.5q140 0 195.5 28t61.5 105z" />
    <glyph glyph-name="e" unicode="e" horiz-adv-x="1127" 
d="M1014 564q-120 -12 -149 -14h-545q1 -145 8 -318q5 -67 57.5 -88.5t204.5 -21.5q57 0 98 4.5t66.5 16t40 22t21.5 33t9 38t4 47t5 51.5l153 -28q-2 -70 -10 -118.5t-27 -85.5t-45 -58.5t-70 -35.5t-97 -18.5t-131 -4.5q-100 0 -174 11.5t-126.5 28.5t-86.5 55.5
t-53.5 73.5t-28.5 103t-11.5 123.5t-2.5 153.5q0 138 3.5 215t19.5 154.5t43 112.5t80 65t125 38.5t183 8.5q77 0 133 -4.5t103 -18.5t77.5 -32t54 -53t36 -72.5t20.5 -99.5t10 -125.5t2 -158.5zM321 655h496q-2 128 -10 234q-4 61 -52.5 81.5t-177.5 20.5q-143 0 -181 -16
q-17 -5 -29.5 -17.5t-20.5 -35.5t-12.5 -43t-7 -55.5t-3.5 -55t-1.5 -59.5t-0.5 -54z" />
    <glyph glyph-name="f" unicode="f" horiz-adv-x="653" 
d="M595 1505v-143q-54 3 -104 3q-62 0 -75 -6q-22 -11 -25 -67q-1 -21 -1 -57q0 -15 0.5 -60.5t0.5 -77.5h198v-113h-198v-984h-197v984h-129v113h129q0 55 0.5 89.5t2.5 76.5t5 67t9.5 54t15 45.5t21.5 34.5t29.5 27t38.5 17t48.5 11t60.5 3q81 0 170 -17z" />
    <glyph glyph-name="g" unicode="g" horiz-adv-x="1168" 
d="M1018 1097v-958q0 -99 -6.5 -167t-24 -127t-47.5 -94.5t-79.5 -61.5t-116.5 -36t-161 -10q-196 0 -312 41l13 136q112 -31 266 -31q73 0 123.5 8t79 20t44 34.5t20 44.5t4.5 56l-1 179q-27 -70 -93 -102t-186 -32q-86 0 -150 12t-109 30t-74.5 56.5t-46.5 73t-25 99
t-10 116t-2 140.5q0 113 2 177t9 138.5t23 112.5t41.5 77.5t66.5 56.5t96.5 28t132.5 11q131 0 210 -35.5t115 -114.5l19 122h179zM821 223v610q0 84 -55.5 120.5t-198.5 36.5q-140 0 -192 -25q-56 -27 -56 -219q0 -289 8 -504q3 -47 24.5 -69t73.5 -30.5t163 -8.5
q223 0 233 89z" />
    <glyph glyph-name="h" unicode="h" horiz-adv-x="1181" 
d="M1030 0h-197v666q0 36 1.5 91t1.5 73q0 50 -7.5 77t-34.5 48t-76 28t-134 7q-40 0 -75.5 -4.5t-67.5 -15t-52 -29.5t-22 -45q-14 -180 -14 -324v-572h-198v1486l198 16v-488q72 114 298 114q59 -1 106.5 -7.5t84.5 -15.5t65 -25t48 -33t34 -42.5t22 -49.5t12.5 -59
t6 -65.5t1.5 -74.5q0 -19 -0.5 -61.5t-0.5 -65.5v-629z" />
    <glyph glyph-name="i" unicode="i" horiz-adv-x="523" 
d="M360 0h-197v1097h197v-1097zM360 1521v-173h-197v173h197z" />
    <glyph glyph-name="j" unicode="j" horiz-adv-x="478" 
d="M345 1097v-1036q0 -200 -54.5 -281.5t-200.5 -81.5q-44 0 -106 8l-5 122q12 1 34.5 1t35 0.5t30.5 3.5t28.5 10t21 18t15 30t4.5 45v1161h197zM346 1521v-173h-199v173h199z" />
    <glyph glyph-name="k" unicode="k" horiz-adv-x="1076" 
d="M1044 0h-217l-382 572l-92 -103v-469h-198v1486l198 16v-720q0 -25 -0.5 -79t-0.5 -78q32 34 91.5 100t79.5 87l261 285h224l-413 -439z" />
    <glyph glyph-name="l" unicode="l" horiz-adv-x="518" 
d="M359 0h-197v1486l197 16v-1502z" />
    <glyph glyph-name="m" unicode="m" horiz-adv-x="1759" 
d="M1609 0h-197v666q0 113 3 172q0 36 -5 58.5t-22 46.5t-56 35.5t-100 11.5q-67 0 -112.5 -8.5t-73 -23t-42.5 -41.5t-19.5 -56.5t-4.5 -76.5q0 -22 1.5 -78.5t1.5 -91.5v-614h-197v702v14q0 68 -1 97.5t-7.5 69t-19 53.5t-38.5 30t-63 20t-94 4q-36 0 -68.5 -4.5
t-62.5 -14.5t-49 -29t-20 -45q-13 -133 -13 -292v-605h-197v1097h180l19 -120q40 81 115 115t190 34q113 0 180 -36t98 -118q80 156 316 156q77 0 131.5 -8.5t95.5 -31.5t65.5 -55t39.5 -85.5t20.5 -117.5t5.5 -157v-673z" />
    <glyph glyph-name="n" unicode="n" horiz-adv-x="1171" 
d="M1021 0h-197v664q0 64 -0.5 102.5t-4 77.5t-7.5 58.5t-14.5 39t-21.5 26.5t-32 13.5t-42 7.5t-56 1q-76 0 -129.5 -8.5t-87.5 -23.5t-52.5 -42t-25.5 -58.5t-7 -77.5q0 -26 3 -90.5t3 -104.5v-585h-197v1097h180l19 -123q26 82 115 118t212 36q58 0 103 -7t80 -23.5
t60.5 -37.5t43 -55.5t28.5 -70.5t17 -90t8 -107.5t2 -127.5v-609z" />
    <glyph glyph-name="o" unicode="o" horiz-adv-x="1172" 
d="M587 123q142 3 197.5 21t55.5 71q11 143 11 331q0 62 -5 177.5t-5 171.5q0 17 -5.5 31t-18 23.5t-25 16.5t-35 11t-38 7t-44 4t-44 1h-45.5h-45.5t-44 -1t-44 -4t-38 -7t-35 -11t-25 -16.5t-18 -23.5t-5.5 -31q0 -56 -5 -171.5t-5 -177.5q0 -188 11 -331
q0 -53 58.5 -72.5t196.5 -19.5zM585 -15q-111 0 -185 9t-127.5 39.5t-81.5 65t-44 109t-19.5 147.5t-3.5 203q0 97 2.5 162t11.5 127.5t22.5 101t39 73t57.5 52.5t81.5 31.5t108 18t139.5 4.5t139.5 -4.5t108 -18t81.5 -31.5t57.5 -52.5t39 -73t22.5 -101t11.5 -127.5
t2.5 -162q0 -130 -3.5 -203t-19.5 -147.5t-44.5 -109.5t-82 -65t-127.5 -39t-186 -9z" />
    <glyph glyph-name="p" unicode="p" horiz-adv-x="1177" 
d="M1053 541q0 -92 -3.5 -156t-13 -127t-28 -103t-48 -75.5t-72.5 -54.5t-101 -29.5t-135 -10.5q-264 0 -302 118v-475l-197 -15v1484h179l19 -121q61 152 320 152q53 0 96.5 -4.5t79 -16.5t63 -26t49 -38.5t36.5 -49.5t25.5 -63.5t17 -75.5t10 -90.5t4.5 -103t1 -119.5z
M856 606q-2 201 -6 266q-4 70 -52.5 94t-191.5 24q-181 0 -232 -58q-28 -41 -28 -239q0 -40 1.5 -119t1.5 -114t-2.5 -90t-2.5 -76q0 -61 19.5 -96t78 -55.5t164.5 -20.5q146 0 197 24q55 26 55 269q0 37 -1 102t-1 89z" />
    <glyph glyph-name="q" unicode="q" horiz-adv-x="1174" 
d="M1024 -372l-197 -15v490q-44 -118 -304 -118q-83 0 -145.5 15t-105 36.5t-71 65.5t-44 82t-23 108.5t-9 121.5t-1.5 143q0 84 2 143t9 119.5t19 100t31.5 77t47.5 60t67.5 40t90.5 24.5t116 7q263 0 318 -152l19 121h180v-1469zM827 252v592q0 82 -58 114t-200 32
q-144 0 -195 -27q-56 -30 -56 -265q0 -303 9 -465q3 -49 23.5 -71.5t69 -31t151.5 -8.5q145 0 197.5 27t58.5 103z" />
    <glyph glyph-name="r" unicode="r" horiz-adv-x="718" 
d="M643 1122l-8 -167q-38 5 -72 5q-71 0 -115 -14t-66.5 -48t-30 -77.5t-7.5 -116.5q0 -41 3.5 -120t3.5 -113v-471h-197v1097h179l20 -123q31 72 94 111.5t151 39.5q22 0 45 -3z" />
    <glyph glyph-name="s" unicode="s" horiz-adv-x="1040" 
d="M947 304q0 -96 -21 -157.5t-69.5 -97.5t-118 -50t-175.5 -14q-62 0 -99.5 1t-86.5 5t-78 12.5t-62.5 23t-52.5 37t-36 53.5t-24 73.5t-7 96.5l155 40q9 -114 21 -144q18 -41 75 -52q43 -9 181 -9q83 0 123.5 7.5t54.5 28.5q40 33 40 225q0 29 -12 49.5t-29 31t-47.5 18
t-55 10t-64.5 6.5t-64 7q-73 8 -119 15.5t-93 22.5t-73.5 37t-48.5 57t-31 84t-9 117q0 72 15 122t44 83t79.5 51.5t113.5 26t154 7.5q57 0 93.5 -1.5t80 -7t70.5 -15.5t54.5 -28t42.5 -44.5t24.5 -64.5t9.5 -87l-134 -41q-4 39 -7.5 61.5t-15.5 41.5t-25 27t-44.5 14
t-63.5 7t-92 1q-128 0 -173.5 -25.5t-45.5 -83.5v-102q0 -66 39.5 -83.5t211.5 -39.5q18 -3 27 -4q69 -8 109.5 -15t85.5 -18.5t68.5 -27t47 -39.5t34 -59t17 -81t6.5 -109z" />
    <glyph glyph-name="t" unicode="t" horiz-adv-x="690" 
d="M587 139l-4 -140q-84 -14 -152 -14q-73 0 -120.5 16t-71.5 51t-33 77.5t-9 108.5v747h-149v112h149v312l196 16v-328h202v-112h-202v-680q0 -108 10.5 -140t57.5 -32q46 0 126 6z" />
    <glyph glyph-name="u" unicode="u" horiz-adv-x="1173" 
d="M1020 -1h-182l-18 141q-26 -79 -113.5 -117t-213.5 -38q-86 0 -145 17t-98.5 49.5t-61 91t-30 131t-8.5 180.5v643h197v-637q0 -22 -0.5 -59.5t-0.5 -52.5q0 -53 2 -83t10.5 -59t22.5 -42.5t42 -24.5t64.5 -14t93.5 -3q64 0 109 9t71 23.5t39.5 39.5t17.5 49t4 60
q0 12 -0.5 39t-0.5 41v714h199v-1098z" />
    <glyph glyph-name="v" unicode="v" horiz-adv-x="1008" 
d="M965 1097l-363 -1097h-214l-345 1097h185l268 -926l266 926h203z" />
    <glyph glyph-name="w" unicode="w" horiz-adv-x="1550" 
d="M1487 1097l-286 -1097h-182l-239 834l-227 -834h-202l-288 1097h189l197 -864l240 864h177l225 -864l199 864h197z" />
    <glyph glyph-name="x" unicode="x" horiz-adv-x="1013" 
d="M959 0h-207l-245 430l-248 -430h-205l346 565l-338 532h206l239 -409l240 409h203l-333 -534z" />
    <glyph glyph-name="y" unicode="y" horiz-adv-x="1038" 
d="M1000 1097l-346 -1044q-13 -38 -27.5 -91.5t-24 -86.5t-24 -72.5t-31.5 -63t-42 -45t-60 -31t-81 -9.5q-119 0 -216 23l30 152q19 -2 51 -7.5t55.5 -8.5t43.5 -3q64 0 97 44t34 163l-411 1080h199l202 -557q55 -152 102 -287q33 121 97 334l151 510h201z" />
    <glyph glyph-name="z" unicode="z" horiz-adv-x="861" 
d="M783 0h-690l-17 141l513 819h-467l-9 137h664l9 -137l-511 -825h517z" />
    <glyph glyph-name="braceleft" unicode="{" horiz-adv-x="637" 
d="M656 1694v-164q-102 0 -153.5 -42t-73.5 -154q-20 -67 -32.5 -149t-19 -139t-19.5 -113t-42 -95t-78 -60q48 -19 79 -63.5t45.5 -106t21.5 -120.5t14.5 -132t16.5 -115q20 -130 75 -189.5t167 -59.5v-164q-172 0 -273.5 66t-143.5 210q-10 35 -15 111.5t-10.5 148.5
t-18.5 142.5t-47 114t-89 43.5v194q84 0 119 118q16 51 36 212q0 4 1 8q6 45 10 73t13.5 74t20 76.5t29 70.5t40.5 66.5t54 55t71 45t90.5 27t111.5 10.5z" />
    <glyph glyph-name="bar" unicode="|" horiz-adv-x="510" 
d="M169 1716h175v-1814h-175v1814z" />
    <glyph glyph-name="braceright" unicode="}" horiz-adv-x="648" 
d="M-12 -172v164q97 0 147 38.5t76 140.5q18 56 28 157.5t16.5 180t36.5 151.5t85 98q-34 17 -58.5 50.5t-38 83t-20.5 93t-13 106.5q-5 73 -10.5 123t-14.5 99.5t-21.5 81t-31 60t-44 43.5t-59 23.5t-77.5 8.5v164q92 0 160.5 -22t114 -59.5t77.5 -101t50.5 -133.5
t33.5 -171l19 -125q18 -120 47 -172t94 -52v-194q-70 0 -100 -52.5t-43 -169.5l-12 -138q-7 -62 -14 -105.5t-21.5 -97.5t-34 -90t-52.5 -73.5t-76 -59.5t-105 -36t-139 -14z" />
    <glyph glyph-name="asciitilde" unicode="~" horiz-adv-x="1015" 
d="M932 1047q-51 -215 -227 -215q-53 0 -114 21t-107 46t-102.5 46t-101.5 21q-78 0 -146 -63l-29 42q50 187 209 187q67 0 129 -18.5t100.5 -40.5t84.5 -40.5t85 -18.5q82 0 185 83z" />
    <glyph glyph-name="exclamdown" unicode="&#xa1;" horiz-adv-x="528" 
d="M414 1386q0 -68 -41 -112t-108 -44q-63 0 -105.5 45.5t-42.5 110.5q0 66 40 111t108 45q63 0 106 -45t43 -111zM298 -33q-90 0 -131 58q-12 39 -12 101q0 120 20.5 334t37 340t24.5 182q17 13 42 13q18 -32 55.5 -294.5t37.5 -450.5q0 -168 -12 -220t-62 -63z" />
    <glyph glyph-name="cent" unicode="&#xa2;" horiz-adv-x="1067" 
d="M197 200q-53 48 -68 152t-15 295v82q0 96 0.5 139.5t3 113.5t10.5 98t20.5 73.5t34.5 62t51.5 41t71.5 32t95 14.5t123 8v194h73v-195q157 -3 244.5 -33.5t122 -89t34.5 -159.5q0 -28 -2 -67t-2 -50h-188q0 28 1 70t1 56q0 45 -5.5 67.5t-30 37.5t-62 18.5t-113.5 4.5
v-905q68 -4 88 -4q49 0 72.5 17t36 71.5t12.5 165.5h188q2 -34 2 -36q0 -67 -5 -113.5t-19 -86.5t-36 -65t-59 -44t-85 -29.5t-116 -15.5q-50 -4 -79 -4v-188h-73v188q-241 4 -327 84zM524 262v903q-15 0 -39.5 0.5t-34.5 0.5q-35 0 -55 -2t-37.5 -11t-25.5 -21.5t-14 -40.5
t-7.5 -61t-1.5 -88q0 -48 -1.5 -169.5t-1.5 -182.5q0 -221 15 -270q11 -37 54 -47.5t149 -10.5z" />
    <glyph glyph-name="sterling" unicode="&#xa3;" horiz-adv-x="1409" 
d="M1295 1077l-177 -23q0 4 -12 217q-9 53 -67 67.5t-230 14.5q-102 0 -170.5 -6t-108.5 -16t-60 -30t-25.5 -40t-5.5 -54q0 -53 2.5 -111.5t7.5 -133.5t7 -115h550v-146h-547q-3 -246 -24 -457q12 -37 92 -51.5t255 -14.5q186 0 264.5 14.5t89.5 62.5l15 210l155 -28
q-4 -84 -7.5 -132.5t-14 -101t-22.5 -78.5t-38.5 -53.5t-56 -38t-81 -20t-108 -11.5t-142.5 -2h-38q-87 0 -128 0.5t-104 4t-92.5 12.5t-64 24t-51.5 39.5t-25 58.5q-24 -139 -228 -139v220q95 7 120.5 28t28.5 93q3 70 5 361h-152v146h148q-16 206 -16 264q0 94 14 162.5
t46 116t73.5 77.5t107.5 46t135.5 22t169.5 6q74 0 131.5 -2.5t105.5 -12.5t83 -17t63 -29.5t46 -36t32 -50t21.5 -58.5t13.5 -74.5t8 -84t6 -100.5z" />
    <glyph glyph-name="currency" unicode="&#xa4;" horiz-adv-x="1123" 
d="M250 773q0 -167 75 -246.5t239 -79.5q313 0 313 325q0 166 -74 246t-239 80q-314 0 -314 -325zM123 287l139 170q-117 111 -117 307q0 195 117 306l-138 171l63 70l150 -181q89 59 225 59q135 0 224 -56l152 177l64 -70l-138 -169q120 -113 120 -306q0 -194 -120 -308
l139 -170l-64 -69l-150 179q-91 -48 -225 -48q-140 0 -228 49l-150 -180z" />
    <glyph glyph-name="yen" unicode="&#xa5;" horiz-adv-x="1147" 
d="M916 261h-744v86h744v-86zM963 631v-113h-838v113h838zM1090 1490l-451 -972v-518h-202v518l-438 972h221l325 -763l331 763h214z" />
    <glyph glyph-name="brokenbar" unicode="&#xa6;" horiz-adv-x="510" 
d="M162 563h187v-812h-187v812zM162 1631h187v-812h-187v812z" />
    <glyph glyph-name="section" unicode="&#xa7;" horiz-adv-x="1062" 
d="M322 775q0 -127 38 -156.5t213 -54.5q85 -12 138 -21q32 24 32 142q0 94 -19.5 131.5t-71.5 53.5q-72 22 -141 37t-112 22t-52 10q-25 -95 -25 -164zM131 210h172q0 -55 3.5 -91t17 -61t27.5 -38t47.5 -20t62.5 -8.5t87 -1.5q45 0 73.5 2.5t52 11.5t36 22t21 38t11 56
t2.5 78q0 102 -31 148.5t-111 56.5q-99 11 -159 21t-117 28t-87 41t-53.5 60.5t-31.5 87t-8 121.5q0 156 96 231q-94 85 -94 289q0 100 20 164t68 101.5t118 51.5t181 14q112 0 183 -15.5t119 -55.5t68 -107t20 -172h-171q0 75 -7.5 115t-33.5 65t-65.5 32t-114.5 7
q-41 0 -62.5 -1t-48.5 -4t-40 -10.5t-27.5 -20.5t-20.5 -33.5t-10 -48.5t-4 -67v-20q0 -15 -0.5 -40t-0.5 -34q0 -79 43.5 -101.5t252.5 -58.5q69 -12 113 -24.5t83 -34.5t60.5 -54t34 -80.5t14.5 -116.5q0 -170 -102 -244q99 -85 99 -294q0 -83 -14.5 -140.5t-43 -96
t-77.5 -60t-109.5 -30t-148.5 -8.5q-111 0 -181.5 14.5t-120 54t-70.5 107t-21 174.5z" />
    <glyph glyph-name="dieresis" unicode="&#xa8;" horiz-adv-x="982" 
d="M609 244q0 62 36 94.5t95 32.5t94 -32t35 -95t-35 -95t-94 -32t-95 32.5t-36 94.5zM117 244q0 62 36 94.5t95 32.5t94 -32t35 -95t-35 -95t-94 -32t-95 32.5t-36 94.5z" />
    <glyph glyph-name="copyright" unicode="&#xa9;" horiz-adv-x="1734" 
d="M94 762q0 149 43.5 275.5t118 216.5t174 153.5t212 94t230.5 30.5q120 0 232.5 -31t211.5 -95t173 -154.5t116.5 -216.5t42.5 -274q0 -144 -42.5 -268t-115.5 -213.5t-170.5 -153t-209 -95t-229.5 -31.5q-124 0 -239 31t-215 94t-174 152.5t-116.5 214t-42.5 270.5z
M207 760q0 -158 55.5 -287t148 -211t208.5 -126t242 -44q134 0 254.5 44t214.5 125.5t149.5 210.5t55.5 288q0 163 -57 295t-151.5 214t-212 125.5t-244.5 43.5q-101 0 -196.5 -26.5t-180.5 -82.5t-148.5 -134.5t-100.5 -190.5t-37 -244zM1129 644h126q0 -75 -1.5 -122
t-9 -95t-18.5 -74.5t-33 -52.5t-50 -37.5t-73.5 -21.5t-98.5 -12.5t-129 -2.5q-55 0 -97 3t-78.5 13t-62.5 21t-47.5 35t-35 47t-24 65.5t-16 80.5t-8.5 103t-4 123t-1 148q0 94 5 156t19.5 118t40.5 88.5t69.5 56.5t103.5 33.5t146 9.5q93 0 149 -4.5t106 -21t75 -42
t43.5 -75.5t24 -113.5t5.5 -161.5h-126q-2 30 -2 83v56q0 36 -2 56.5t-10.5 42t-24 31.5t-43.5 19t-68 12t-100 3q-66 0 -108.5 -2t-73.5 -9.5t-46.5 -16t-24.5 -28t-11 -38.5t-2 -54v-279q0 -66 -3.5 -155t-3.5 -115q0 -58 8.5 -89t39.5 -52t81.5 -27t143.5 -6q44 0 76 2
t58 5t43.5 11.5t30 16t19.5 24t11.5 30t6 40t2 47t1.5 58.5t2 69z" />
    <glyph glyph-name="ordfeminine" unicode="&#xaa;" horiz-adv-x="998" 
d="M854 509h-128l-25 128q-25 -85 -87.5 -112.5t-185.5 -27.5q-158 0 -214 66t-56 234q0 58 32.5 98t96.5 63t145 32.5t190 9.5q12 0 36 -0.5t35 -0.5v181v11q0 30 -0.5 42.5t-6 30t-15.5 23.5t-30 13.5t-49.5 9t-74.5 1.5q-56 0 -91.5 -4.5t-55.5 -15t-28 -26.5t-9 -38.5
t1 -51.5l-123 4q-1 10 -1 28q0 57 15 97t39.5 63t67.5 36t86 16.5t109 3.5q96 0 155.5 -14t99.5 -51t56 -97.5t16 -156.5v-595zM693 804v97q-164 -2 -246.5 -13t-111.5 -32.5t-29 -63.5v-53t2 -40.5t5.5 -33.5t11 -22.5t17 -17.5t25.5 -9.5t36 -6.5t48 -1q63 0 107.5 10.5
t70 26t40 43t19 53t5.5 63.5z" />
    <glyph glyph-name="guillemotleft" unicode="&#xab;" horiz-adv-x="1234" 
d="M480 775l474 424l95 -113l-421 -360l421 -360l-95 -113l-474 424v98zM80 775l475 424l95 -113l-421 -360l421 -360l-95 -113l-475 424v98z" />
    <glyph glyph-name="logicalnot" unicode="&#xac;" horiz-adv-x="1128" 
d="M102 797h924v-535h-149v385h-775v150z" />
    <glyph glyph-name="uni00AD" unicode="&#xad;" horiz-adv-x="1050" 
d="M920 728v-179h-786v179h786z" />
    <glyph glyph-name="registered" unicode="&#xae;" horiz-adv-x="1734" 
d="M870 0q-153 0 -292 51t-247.5 145t-172.5 241t-64 325q0 149 43.5 275.5t118 216.5t174 153.5t212 94t230.5 30.5q120 0 232.5 -31t211.5 -95t173 -154.5t116.5 -216.5t42.5 -274q0 -146 -43 -271t-117.5 -214t-173.5 -152t-212 -93.5t-232 -30.5zM872 92q132 0 251 45
t211 127.5t146.5 211t54.5 284.5q0 163 -57 295t-151.5 214t-212 125.5t-244.5 43.5q-101 0 -196.5 -26.5t-180.5 -82.5t-148.5 -134.5t-100.5 -190.5t-37 -244q0 -160 56.5 -290t151 -211t212 -124t245.5 -43zM555 267v1021h324q109 0 172 -9.5t108 -39t62 -80.5t20 -138
q0 -221 -170 -233q75 -4 118.5 -51t43.5 -128v-341h-134q0 35 2 114.5t2 118.5q0 201 -45 220q-30 13 -112 13h-264q0 -78 0.5 -233.5t0.5 -233.5h-128zM682 1183v-351h197q76 0 115.5 5t65.5 25.5t33.5 52t10.5 92.5q0 44 -4.5 74.5t-18.5 50t-25.5 30t-42 15.5t-50.5 5.5
t-67 0.5h-19h-195z" />
    <glyph glyph-name="macron" unicode="&#xaf;" horiz-adv-x="846" 
d="M129 838h597v-127h-597v127z" />
    <glyph glyph-name="degree" unicode="&#xb0;" horiz-adv-x="829" 
d="M289 1321q0 -68 35.5 -117t94.5 -49t95.5 49t36.5 117t-36.5 116.5t-96.5 48.5q-58 0 -93.5 -48.5t-35.5 -116.5zM111 1322q0 120 91.5 197.5t216.5 77.5t216 -78.5t91 -197.5t-90 -197t-217 -78t-217.5 78t-90.5 198z" />
    <glyph glyph-name="plusminus" unicode="&#xb1;" horiz-adv-x="1128" 
d="M489 262v385h-387v150h387v389h150v-389h387v-150h-387v-385h-150zM1026 0h-924v150h924v-150z" />
    <glyph glyph-name="uni00B2" unicode="&#xb2;" horiz-adv-x="896" 
d="M804 248h-694q0 184 36.5 271.5t140.5 160.5q53 36 119.5 76.5t99.5 60.5t70.5 51.5t54 62.5t27.5 79t11 115q0 34 -0.5 53.5t-3 44.5t-8 38t-14.5 29t-23.5 24t-34.5 15.5t-47.5 10t-62.5 2.5q-67 0 -105 -6t-68 -27t-43 -59t-18 -103l-119 28q-1 7 -1 21q0 138 86 198
t256 60q100 0 162.5 -13t108.5 -49t65.5 -100.5t19.5 -166.5q0 -111 -27 -186.5t-77 -124t-138 -95.5q-22 -13 -61 -35t-57 -32.5t-49 -30t-45.5 -32.5t-36 -33t-31.5 -39t-21 -43.5t-15.5 -53t-5.5 -61.5h549v-111z" />
    <glyph glyph-name="uni00B3" unicode="&#xb3;" horiz-adv-x="923" 
d="M813 589q0 -103 -25 -171t-77.5 -105t-120.5 -51.5t-169 -14.5q-84 0 -141 9.5t-102 33t-66.5 67.5t-21.5 111q0 30 1 49l125 18q4 -60 7 -83q7 -55 56 -75.5t161 -20.5q61 0 97.5 2t64.5 15t40.5 23.5t19.5 45t8 61t1 89.5q0 47 -5.5 80t-12.5 56.5t-29 38t-37.5 23.5
t-56.5 12.5t-68.5 4t-89.5 0.5h-3l-6 111q96 0 126 1q65 2 101.5 14t52.5 49t19 70t3 112v7.5v6.5q0 63 -15 93.5t-61.5 45.5t-142.5 15q-119 0 -164.5 -19t-49.5 -71l-7 -86l-121 24v22q0 70 12.5 111t50.5 71t106.5 42t182.5 14q183 0 266.5 -69.5t83.5 -222.5
q0 -253 -161 -284q-4 -1 -5 -1q171 -35 173 -274z" />
    <glyph glyph-name="acute" unicode="&#xb4;" horiz-adv-x="670" 
d="M405 1605q40 35 84 35q47 0 75 -29.5t28 -70.5q0 -31 -18 -60t-53 -44q-11 -5 -110 -42t-192 -72l-93 -35l-17 21q257 266 296 297z" />
    <glyph glyph-name="mu" unicode="&#xb5;" horiz-adv-x="373" 
 />
    <glyph glyph-name="paragraph" unicode="&#xb6;" horiz-adv-x="1060" 
d="M417 0v845q-173 0 -265 86t-92 259q0 183 110.5 257t337.5 74h387v-1521h-153v844h-171v-844h-154z" />
    <glyph glyph-name="periodcentered" unicode="&#xb7;" horiz-adv-x="526" 
d="M265 528q-60 0 -100 44.5t-40 109.5q0 68 37.5 111t102.5 43q61 0 100.5 -44t39.5 -110q0 -68 -37.5 -111t-102.5 -43z" />
    <glyph glyph-name="cedilla" unicode="&#xb8;" horiz-adv-x="723" 
d="M329 0h109l-49 -168q56 -8 91 -17.5t67 -30.5t46.5 -57t14.5 -91q0 -90 -71 -139t-174 -49q-143 0 -239 82l47 90q111 -50 162 -50q59 0 59 54q0 87 -138 87q8 35 37 145z" />
    <glyph glyph-name="uni00B9" unicode="&#xb9;" horiz-adv-x="510" 
d="M364 240h-150v995h-148v74q127 5 174 116h124v-1185z" />
    <glyph glyph-name="ordmasculine" unicode="&#xba;" horiz-adv-x="953" 
d="M481 1319h2q80 0 132.5 -6t92.5 -26t61.5 -46.5t35 -79t17.5 -111.5t4 -155q0 -70 -1.5 -115.5t-7 -92.5t-15.5 -74.5t-28 -55t-42.5 -41.5t-61 -25.5t-82 -15.5t-107.5 -4q-61 0 -106.5 4t-82 15.5t-61 25.5t-42 41.5t-27.5 55t-15.5 74.5t-7 92.5t-1.5 115.5
q0 96 4 155t17.5 111.5t35 79t61.5 46.5t92.5 26t132.5 6zM482 575q105 2 146 15.5t42 52.5q8 128 8 249q0 44 -4 128t-4 123q0 30 -28 47t-65.5 21.5t-94.5 4.5t-94.5 -4.5t-65.5 -21.5t-28 -47q0 -39 -4 -123t-4 -128q0 -121 8 -249q1 -39 42 -52.5t146 -15.5z" />
    <glyph glyph-name="guillemotright" unicode="&#xbb;" horiz-adv-x="1234" 
d="M700 775v-98l-474 -424l-96 113l422 360l-422 360l96 113zM1099 775v-98l-475 -424l-94 113l420 360l-420 360l94 113z" />
    <glyph glyph-name="questiondown" unicode="&#xbf;" horiz-adv-x="767" 
d="M608 1379q0 -67 -38.5 -110.5t-102.5 -43.5q-63 0 -103 43t-40 111q0 66 39 110t103 44q62 0 102 -45.5t40 -108.5zM702 223l39 -164q-168 -81 -303 -81q-181 0 -276.5 91.5t-95.5 268.5q0 93 47.5 180t133.5 186q12 14 39 47t33.5 42t24.5 33t22 33.5t14.5 30.5t13.5 38
t7.5 40t7.5 52q17 0 51.5 -0.5t50.5 -0.5q0 -62 -9.5 -115.5t-20 -90t-39.5 -88.5t-47 -79.5t-63 -93.5q-39 -56 -54.5 -98.5t-15.5 -103.5q0 -89 51 -136.5t150 -47.5q68 0 239 57z" />
    <glyph glyph-name="Agrave" unicode="&#xc0;" horiz-adv-x="1296" 
d="M47 0zM1221 0h-206l-113 381h-551l-109 -381h-195l457 1490h271zM860 525l-126 447l-104 366q-58 -207 -102 -356l-134 -457h466zM592 1934q17 -14 91 -88t139 -141l66 -68l-17 -21l-93 35q-93 35 -192 72t-110 42q-35 15 -53 44t-18 60q0 41 28 70.5t75 29.5
q44 0 84 -35z" />
    <glyph glyph-name="Aacute" unicode="&#xc1;" horiz-adv-x="1296" 
d="M47 0zM1221 0h-206l-113 381h-551l-109 -381h-195l457 1490h271zM860 525l-126 447l-104 366q-58 -207 -102 -356l-134 -457h466zM701 1934q40 35 84 35q47 0 75 -29.5t28 -70.5q0 -31 -18 -60t-53 -44q-11 -5 -110 -42t-192 -72l-93 -35l-17 21q257 266 296 297z" />
    <glyph glyph-name="Acircumflex" unicode="&#xc2;" horiz-adv-x="1296" 
d="M47 0zM1221 0h-206l-113 381h-551l-109 -381h-195l457 1490h271zM860 525l-126 447l-104 366q-58 -207 -102 -356l-134 -457h466zM647 1852l-231 -236l-55 54l192 309q35 52 94 52t94 -52l192 -309l-55 -54z" />
    <glyph glyph-name="Atilde" unicode="&#xc3;" horiz-adv-x="1296" 
d="M47 0zM1221 0h-206l-113 381h-551l-109 -381h-195l457 1490h271zM860 525l-126 447l-104 366q-58 -207 -102 -356l-134 -457h466zM985 1801q-51 -185 -227 -185q-53 0 -143 42t-132 42q-78 0 -146 -63l-29 43q49 156 209 156q53 0 99.5 -17t83.5 -34t66 -17q82 0 185 83z
" />
    <glyph glyph-name="Adieresis" unicode="&#xc4;" horiz-adv-x="1296" 
d="M47 0zM1221 0h-206l-113 381h-551l-109 -381h-195l457 1490h271zM860 525l-126 447l-104 366q-58 -207 -102 -356l-134 -457h466zM763 1743q0 62 36 94.5t95 32.5t94 -32t35 -95t-35 -95t-94 -32t-95 32.5t-36 94.5zM271 1743q0 62 36 94.5t95 32.5t94 -32t35 -95
t-35 -95t-94 -32t-95 32.5t-36 94.5z" />
    <glyph glyph-name="Aring" unicode="&#xc5;" horiz-adv-x="1296" 
d="M47 0zM1221 0h-206l-113 381h-551l-109 -381h-195l457 1490h271zM860 525l-126 447l-104 366q-58 -207 -102 -356l-134 -457h466zM631 1887q-43 0 -72 -42t-29 -94q0 -137 128 -137q43 0 72.5 42t29.5 93q0 65 -33.5 101.5t-95.5 36.5zM645 2005q112 0 185 -71.5
t73 -182.5q0 -113 -72 -183.5t-184 -70.5q-108 0 -182.5 69t-74.5 185q0 113 71.5 183.5t183.5 70.5z" />
    <glyph glyph-name="AE" unicode="&#xc6;" horiz-adv-x="1967" 
d="M1856 0h-875v381h-548l-222 -381h-191l886 1490h931v-167h-655v-459h544v-167h-544v-530h674v-167zM982 1342l-195 -347l-269 -472h463v414q0 204 1 405z" />
    <glyph glyph-name="Ccedilla" unicode="&#xc7;" horiz-adv-x="1360" 
d="M132 0zM1042 462l174 -26q-5 -96 -17 -163.5t-35.5 -120.5t-57.5 -85.5t-87.5 -53.5t-120 -29t-160.5 -8q-90 0 -161 4.5t-129.5 20t-102 30t-77 48.5t-56 61t-38 82.5t-23.5 97.5t-12.5 122t-5.5 140t-1 166q0 112 1 180t6 148t12.5 124t24 96.5t37.5 78t55 55.5
t74.5 41.5t98.5 23.5t124.5 15t154.5 3q91 0 155 -6.5t120 -25t92 -49t63.5 -79.5t42.5 -115.5t22 -159.5l-175 -34q-5 51 -9 85t-11.5 67t-12 53.5t-18.5 40t-22.5 29.5t-31.5 19t-38.5 12.5t-51 6.5t-61.5 3h-76q-70 0 -114.5 -1.5t-89 -7t-70 -16t-47.5 -28t-31.5 -43
t-11.5 -61.5q-9 -264 -9 -539q0 -192 9 -375q5 -57 32.5 -89t107 -51t225.5 -19q78 0 131 4.5t89 21t55 30t30.5 52.5t15 65.5t7.5 90.5q1 14 1.5 22t1.5 21.5t2 24.5zM691 -6h109l-49 -168q56 -8 91 -17.5t67 -30.5t46.5 -57t14.5 -91q0 -90 -71 -139t-174 -49
q-143 0 -239 82l47 90q111 -50 162 -50q59 0 59 54q0 87 -138 87q8 35 37 145z" />
    <glyph glyph-name="Egrave" unicode="&#xc8;" horiz-adv-x="1148" 
d="M166 0zM1010 0h-844v1490h835l20 -154h-652v-479h557v-162h-557v-542h661zM534 1934q17 -14 91 -88t139 -141l66 -68l-17 -21l-93 35q-93 35 -192 72t-110 42q-35 15 -53 44t-18 60q0 41 28 70.5t75 29.5q44 0 84 -35z" />
    <glyph glyph-name="Eacute" unicode="&#xc9;" horiz-adv-x="1148" 
d="M166 0zM1010 0h-844v1490h835l20 -154h-652v-479h557v-162h-557v-542h661zM643 1934q40 35 84 35q47 0 75 -29.5t28 -70.5q0 -31 -18 -60t-53 -44q-11 -5 -110 -42t-192 -72l-93 -35l-17 21q257 266 296 297z" />
    <glyph glyph-name="Ecircumflex" unicode="&#xca;" horiz-adv-x="1148" 
d="M166 0zM1010 0h-844v1490h835l20 -154h-652v-479h557v-162h-557v-542h661zM589 1852l-231 -236l-55 54l192 309q35 52 94 52t94 -52l192 -309l-55 -54z" />
    <glyph glyph-name="Edieresis" unicode="&#xcb;" horiz-adv-x="1148" 
d="M166 0zM1010 0h-844v1490h835l20 -154h-652v-479h557v-162h-557v-542h661zM705 1743q0 62 36 94.5t95 32.5t94 -32t35 -95t-35 -95t-94 -32t-95 32.5t-36 94.5zM213 1743q0 62 36 94.5t95 32.5t94 -32t35 -95t-35 -95t-94 -32t-95 32.5t-36 94.5z" />
    <glyph glyph-name="Igrave" unicode="&#xcc;" horiz-adv-x="547" 
d="M32 0zM375 0h-203v1490h203v-1490zM219 1934q17 -14 91 -88t139 -141l66 -68l-17 -21l-93 35q-93 35 -192 72t-110 42q-35 15 -53 44t-18 60q0 41 28 70.5t75 29.5q44 0 84 -35z" />
    <glyph glyph-name="Iacute" unicode="&#xcd;" horiz-adv-x="547" 
d="M32 0zM375 0h-203v1490h203v-1490zM328 1934q40 35 84 35q47 0 75 -29.5t28 -70.5q0 -31 -18 -60t-53 -44q-11 -5 -110 -42t-192 -72l-93 -35l-17 21q257 266 296 297z" />
    <glyph glyph-name="Icircumflex" unicode="&#xce;" horiz-adv-x="547" 
d="M0 0zM375 0h-203v1490h203v-1490zM273 1852l-231 -236l-55 54l192 309q35 52 94 52t94 -52l192 -309l-55 -54z" />
    <glyph glyph-name="Idieresis" unicode="&#xcf;" horiz-adv-x="547" 
d="M0 0zM375 0h-203v1490h203v-1490zM389 1743q0 62 36 94.5t95 32.5t94 -32t35 -95t-35 -95t-94 -32t-95 32.5t-36 94.5zM-103 1743q0 62 36 94.5t95 32.5t94 -32t35 -95t-35 -95t-94 -32t-95 32.5t-36 94.5z" />
    <glyph glyph-name="Eth" unicode="&#xd0;" horiz-adv-x="1441" 
d="M1278 876q0 -137 -1.5 -225.5t-9.5 -181t-17 -146.5t-33.5 -110.5t-48 -84t-71.5 -56.5t-94 -39t-124.5 -20t-154 -11.5t-191.5 -1.5h-362v689h-93v137h93v664h516q126 0 213 -10.5t155.5 -39t109.5 -71.5t67.5 -114.5t36 -160.5t9.5 -218zM1077 873q0 92 -0.5 132.5
t-7 101.5t-18 83.5t-36.5 57.5t-58.5 44.5t-88 24t-121.5 17t-163 2.5h-210v-510h268v-137h-268v-536h240q86 0 134 1.5t104 8.5t82.5 18.5t57.5 36t43 56t24 83t15 113.5t3 150v253z" />
    <glyph glyph-name="Ntilde" unicode="&#xd1;" horiz-adv-x="1441" 
d="M166 0zM1265 0h-211l-710 1177v-1177h-178v1490h205l716 -1193v1193h178v-1490zM1059 1801q-51 -185 -227 -185q-53 0 -143 42t-132 42q-78 0 -146 -63l-29 43q49 156 209 156q53 0 99.5 -17t83.5 -34t66 -17q82 0 185 83z" />
    <glyph glyph-name="Ograve" unicode="&#xd2;" horiz-adv-x="1438" 
d="M132 0zM710 -24q-87 0 -154.5 4t-124.5 19.5t-97.5 28.5t-73 49.5t-53.5 63t-36 88t-22 105t-11.5 134.5t-5 156t-0.5 188q0 148 8 246t31.5 182t62 132t105 82.5t155 47t216.5 12.5q121 0 207 -12t152.5 -42.5t107 -76t66.5 -119.5t35.5 -165.5t9.5 -222.5
q0 -370 -11 -487q-19 -200 -92 -286q-77 -92 -262 -116q-88 -11 -213 -11zM710 1360q-86 0 -143 -4t-99.5 -17t-65.5 -29t-37.5 -49.5t-19 -68.5t-6.5 -95q-3 -185 -3 -372q0 -282 15 -386q24 -156 91 -180q50 -29 268 -29t268 29q19 7 34.5 23t26 43t18.5 54.5t13 70.5
t8 77.5t4 88t1.5 88.5t0.5 93q0 202 -3 400q-2 60 -6.5 95t-19 68.5t-37.5 49.5t-65.5 29t-99.5 17t-143 4zM660 1934q17 -14 91 -88t139 -141l66 -68l-17 -21l-93 35q-93 35 -192 72t-110 42q-35 15 -53 44t-18 60q0 41 28 70.5t75 29.5q44 0 84 -35z" />
    <glyph glyph-name="Oacute" unicode="&#xd3;" horiz-adv-x="1438" 
d="M132 0zM710 -24q-87 0 -154.5 4t-124.5 19.5t-97.5 28.5t-73 49.5t-53.5 63t-36 88t-22 105t-11.5 134.5t-5 156t-0.5 188q0 148 8 246t31.5 182t62 132t105 82.5t155 47t216.5 12.5q121 0 207 -12t152.5 -42.5t107 -76t66.5 -119.5t35.5 -165.5t9.5 -222.5
q0 -370 -11 -487q-19 -200 -92 -286q-77 -92 -262 -116q-88 -11 -213 -11zM710 1360q-86 0 -143 -4t-99.5 -17t-65.5 -29t-37.5 -49.5t-19 -68.5t-6.5 -95q-3 -185 -3 -372q0 -282 15 -386q24 -156 91 -180q50 -29 268 -29t268 29q19 7 34.5 23t26 43t18.5 54.5t13 70.5
t8 77.5t4 88t1.5 88.5t0.5 93q0 202 -3 400q-2 60 -6.5 95t-19 68.5t-37.5 49.5t-65.5 29t-99.5 17t-143 4zM769 1934q40 35 84 35q47 0 75 -29.5t28 -70.5q0 -31 -18 -60t-53 -44q-11 -5 -110 -42t-192 -72l-93 -35l-17 21q257 266 296 297z" />
    <glyph glyph-name="Ocircumflex" unicode="&#xd4;" horiz-adv-x="1438" 
d="M132 0zM710 -24q-87 0 -154.5 4t-124.5 19.5t-97.5 28.5t-73 49.5t-53.5 63t-36 88t-22 105t-11.5 134.5t-5 156t-0.5 188q0 148 8 246t31.5 182t62 132t105 82.5t155 47t216.5 12.5q121 0 207 -12t152.5 -42.5t107 -76t66.5 -119.5t35.5 -165.5t9.5 -222.5
q0 -370 -11 -487q-19 -200 -92 -286q-77 -92 -262 -116q-88 -11 -213 -11zM710 1360q-86 0 -143 -4t-99.5 -17t-65.5 -29t-37.5 -49.5t-19 -68.5t-6.5 -95q-3 -185 -3 -372q0 -282 15 -386q24 -156 91 -180q50 -29 268 -29t268 29q19 7 34.5 23t26 43t18.5 54.5t13 70.5
t8 77.5t4 88t1.5 88.5t0.5 93q0 202 -3 400q-2 60 -6.5 95t-19 68.5t-37.5 49.5t-65.5 29t-99.5 17t-143 4zM715 1852l-231 -236l-55 54l192 309q35 52 94 52t94 -52l192 -309l-55 -54z" />
    <glyph glyph-name="Otilde" unicode="&#xd5;" horiz-adv-x="1438" 
d="M132 0zM710 -24q-87 0 -154.5 4t-124.5 19.5t-97.5 28.5t-73 49.5t-53.5 63t-36 88t-22 105t-11.5 134.5t-5 156t-0.5 188q0 148 8 246t31.5 182t62 132t105 82.5t155 47t216.5 12.5q121 0 207 -12t152.5 -42.5t107 -76t66.5 -119.5t35.5 -165.5t9.5 -222.5
q0 -370 -11 -487q-19 -200 -92 -286q-77 -92 -262 -116q-88 -11 -213 -11zM710 1360q-86 0 -143 -4t-99.5 -17t-65.5 -29t-37.5 -49.5t-19 -68.5t-6.5 -95q-3 -185 -3 -372q0 -282 15 -386q24 -156 91 -180q50 -29 268 -29t268 29q19 7 34.5 23t26 43t18.5 54.5t13 70.5
t8 77.5t4 88t1.5 88.5t0.5 93q0 202 -3 400q-2 60 -6.5 95t-19 68.5t-37.5 49.5t-65.5 29t-99.5 17t-143 4zM1054 1801q-51 -185 -227 -185q-53 0 -143 42t-132 42q-78 0 -146 -63l-29 43q49 156 209 156q53 0 99.5 -17t83.5 -34t66 -17q82 0 185 83z" />
    <glyph glyph-name="Odieresis" unicode="&#xd6;" horiz-adv-x="1438" 
d="M132 0zM710 -24q-87 0 -154.5 4t-124.5 19.5t-97.5 28.5t-73 49.5t-53.5 63t-36 88t-22 105t-11.5 134.5t-5 156t-0.5 188q0 148 8 246t31.5 182t62 132t105 82.5t155 47t216.5 12.5q121 0 207 -12t152.5 -42.5t107 -76t66.5 -119.5t35.5 -165.5t9.5 -222.5
q0 -370 -11 -487q-19 -200 -92 -286q-77 -92 -262 -116q-88 -11 -213 -11zM710 1360q-86 0 -143 -4t-99.5 -17t-65.5 -29t-37.5 -49.5t-19 -68.5t-6.5 -95q-3 -185 -3 -372q0 -282 15 -386q24 -156 91 -180q50 -29 268 -29t268 29q19 7 34.5 23t26 43t18.5 54.5t13 70.5
t8 77.5t4 88t1.5 88.5t0.5 93q0 202 -3 400q-2 60 -6.5 95t-19 68.5t-37.5 49.5t-65.5 29t-99.5 17t-143 4zM831 1743q0 62 36 94.5t95 32.5t94 -32t35 -95t-35 -95t-94 -32t-95 32.5t-36 94.5zM339 1743q0 62 36 94.5t95 32.5t94 -32t35 -95t-35 -95t-94 -32t-95 32.5
t-36 94.5z" />
    <glyph glyph-name="multiply" unicode="&#xd7;" horiz-adv-x="860" 
d="M292 670q-1 1 -22 25l-202 225q3 3 79 88l40 44l226 -250l227 250l118 -132l-223 -250l223 -250l-118 -132l-227 250l-226 -250q-3 3 -79 88l-40 44z" />
    <glyph glyph-name="Oslash" unicode="&#xd8;" horiz-adv-x="1438" 
d="M1060 1759l-591 -2059h-133l591 2059h133zM715 -24q-87 0 -154.5 4t-124.5 19.5t-97.5 28.5t-73 49.5t-53.5 63t-36 88t-22 105t-11.5 134.5t-5 156t-0.5 188q0 148 8 246t31.5 182t62 132t105 82.5t155 47t216.5 12.5q121 0 207 -12t152.5 -42.5t107 -76t66.5 -119.5
t35.5 -165.5t9.5 -222.5q0 -370 -11 -487q-19 -200 -92 -286q-77 -92 -262 -116q-88 -11 -213 -11zM715 1360q-86 0 -143 -4t-99.5 -17t-65.5 -29t-37.5 -49.5t-19 -68.5t-6.5 -95q-3 -185 -3 -372q0 -282 15 -386q24 -156 91 -180q50 -29 268 -29t268 29q19 7 34.5 23
t26 43t18.5 54.5t13 70.5t8 77.5t4 88t1.5 88.5t0.5 93q0 202 -3 400q-2 60 -6.5 95t-19 68.5t-37.5 49.5t-65.5 29t-99.5 17t-143 4z" />
    <glyph glyph-name="Ugrave" unicode="&#xd9;" horiz-adv-x="1442" 
d="M152 0zM1277 1490v-933q0 -120 -10.5 -206t-37.5 -152.5t-67.5 -108t-106 -68t-146.5 -36.5t-196 -10q-111 0 -189 9t-144 33.5t-106.5 65t-69.5 106t-40.5 154.5t-11.5 213v933h203v-959q0 -83 0.5 -120t5.5 -90.5t13 -73t26.5 -48.5t42 -36.5t64.5 -18.5t88.5 -12.5
t118.5 -1.5q84 0 140.5 5t98.5 20t64.5 34.5t36 57.5t17.5 79t4 109l-1 1055h203zM665 1934q17 -14 91 -88t139 -141l66 -68l-17 -21l-93 35q-93 35 -192 72t-110 42q-35 15 -53 44t-18 60q0 41 28 70.5t75 29.5q44 0 84 -35z" />
    <glyph glyph-name="Uacute" unicode="&#xda;" horiz-adv-x="1442" 
d="M152 0zM1277 1490v-933q0 -120 -10.5 -206t-37.5 -152.5t-67.5 -108t-106 -68t-146.5 -36.5t-196 -10q-111 0 -189 9t-144 33.5t-106.5 65t-69.5 106t-40.5 154.5t-11.5 213v933h203v-959q0 -83 0.5 -120t5.5 -90.5t13 -73t26.5 -48.5t42 -36.5t64.5 -18.5t88.5 -12.5
t118.5 -1.5q84 0 140.5 5t98.5 20t64.5 34.5t36 57.5t17.5 79t4 109l-1 1055h203zM774 1934q40 35 84 35q47 0 75 -29.5t28 -70.5q0 -31 -18 -60t-53 -44q-11 -5 -110 -42t-192 -72l-93 -35l-17 21q257 266 296 297z" />
    <glyph glyph-name="Ucircumflex" unicode="&#xdb;" horiz-adv-x="1442" 
d="M152 0zM1277 1490v-933q0 -120 -10.5 -206t-37.5 -152.5t-67.5 -108t-106 -68t-146.5 -36.5t-196 -10q-111 0 -189 9t-144 33.5t-106.5 65t-69.5 106t-40.5 154.5t-11.5 213v933h203v-959q0 -83 0.5 -120t5.5 -90.5t13 -73t26.5 -48.5t42 -36.5t64.5 -18.5t88.5 -12.5
t118.5 -1.5q84 0 140.5 5t98.5 20t64.5 34.5t36 57.5t17.5 79t4 109l-1 1055h203zM719 1852l-231 -236l-55 54l192 309q35 52 94 52t94 -52l192 -309l-55 -54z" />
    <glyph glyph-name="Udieresis" unicode="&#xdc;" horiz-adv-x="1442" 
d="M152 0zM1277 1490v-933q0 -120 -10.5 -206t-37.5 -152.5t-67.5 -108t-106 -68t-146.5 -36.5t-196 -10q-111 0 -189 9t-144 33.5t-106.5 65t-69.5 106t-40.5 154.5t-11.5 213v933h203v-959q0 -83 0.5 -120t5.5 -90.5t13 -73t26.5 -48.5t42 -36.5t64.5 -18.5t88.5 -12.5
t118.5 -1.5q84 0 140.5 5t98.5 20t64.5 34.5t36 57.5t17.5 79t4 109l-1 1055h203zM835 1743q0 62 36 94.5t95 32.5t94 -32t35 -95t-35 -95t-94 -32t-95 32.5t-36 94.5zM343 1743q0 62 36 94.5t95 32.5t94 -32t35 -95t-35 -95t-94 -32t-95 32.5t-36 94.5z" />
    <glyph glyph-name="Yacute" unicode="&#xdd;" horiz-adv-x="1087" 
d="M0 0zM1086 1490l-451 -972v-518h-202v518l-438 972h221l325 -763l331 763h214zM599 1934q40 35 84 35q47 0 75 -29.5t28 -70.5q0 -31 -18 -60t-53 -44q-11 -5 -110 -42t-192 -72l-93 -35l-17 21q257 266 296 297z" />
    <glyph glyph-name="Thorn" unicode="&#xde;" horiz-adv-x="1293" 
d="M1176 832q0 -95 -17 -169.5t-49.5 -122.5t-72 -80.5t-92.5 -49t-101.5 -23t-107.5 -6.5q-27 0 -76 1t-71 1h-218v-383h-200v1489h200v-205h245q112 0 189.5 -7t143.5 -26t106.5 -50t69 -82.5t40 -120.5t11.5 -166zM977 832q0 54 -2 90t-10.5 68.5t-18 51.5t-32.5 35
t-46 23.5t-67 12.5t-86.5 6t-111.5 1h-232v-569h323q71 0 119.5 5.5t80 24t48.5 34t24.5 55t9 66.5t1.5 88v8z" />
    <glyph glyph-name="germandbls" unicode="&#xdf;" horiz-adv-x="1235" 
d="M1117 401q0 -72 -11 -129.5t-37 -98.5t-53.5 -71t-78 -48.5t-91 -30t-111.5 -16.5t-121.5 -6t-137.5 -1v162q42 0 123 -1t109 -1q53 0 81.5 2.5t56 16.5t39 34.5t21 65t11.5 98.5t2 145q0 43 -1.5 71.5t-13 53t-19 38.5t-37.5 25t-49 15.5t-74 7.5t-92 3.5t-122 0.5h-5
v153q45 0 106.5 -2.5t80.5 -2.5q28 0 47 2t36 9t27 15.5t18.5 28t12 39.5t6.5 56t3.5 72t0.5 93t-15 83t-71 40t-174 14q-122 0 -156 -12q-45 -15 -59 -72q-12 -51 -12 -252v-85q0 -181 0.5 -543t0.5 -542l-199 -16q0 131 -3.5 397.5t-3.5 400.5q0 318 13 519
q13 212 106 288.5t329 76.5q234 0 335.5 -79t101.5 -277q0 -293 -152 -314q104 -7 168 -111t64 -315z" />
    <glyph glyph-name="agrave" unicode="&#xe0;" horiz-adv-x="1111" 
d="M101 0zM960 0h-156l-32 157q-30 -103 -108.5 -137.5t-229.5 -34.5q-100 0 -164 19.5t-102 65.5t-52.5 112.5t-14.5 171.5q0 47 16.5 84t45 63t76 45t98.5 30t123.5 17.5t141.5 8.5t161 2v297q0 51 -48 70.5t-171 19.5q-86 0 -129 -4t-65.5 -23.5t-26 -38.5t-4.5 -71
q-1 -19 -1 -30l-153 6q-2 16 -2 47q0 67 19.5 113.5t50.5 73t85 41.5t107 19t132 4q120 0 195 -18.5t123 -66.5t66.5 -122.5t18.5 -194.5v-726zM763 314v171q-197 0 -303 -15t-141.5 -41.5t-35.5 -74.5v-6q0 -152 25 -189t153 -37q109 0 177 26t94.5 66.5t30.5 99.5z
M502 1548q17 -14 91 -88t139 -141l66 -68l-17 -21l-93 35q-93 35 -192 72t-110 42q-35 15 -53 44t-18 60q0 41 28 70.5t75 29.5q44 0 84 -35z" />
    <glyph glyph-name="aacute" unicode="&#xe1;" horiz-adv-x="1111" 
d="M101 0zM960 0h-156l-32 157q-30 -103 -108.5 -137.5t-229.5 -34.5q-100 0 -164 19.5t-102 65.5t-52.5 112.5t-14.5 171.5q0 47 16.5 84t45 63t76 45t98.5 30t123.5 17.5t141.5 8.5t161 2v297q0 51 -48 70.5t-171 19.5q-86 0 -129 -4t-65.5 -23.5t-26 -38.5t-4.5 -71
q-1 -19 -1 -30l-153 6q-2 16 -2 47q0 67 19.5 113.5t50.5 73t85 41.5t107 19t132 4q120 0 195 -18.5t123 -66.5t66.5 -122.5t18.5 -194.5v-726zM763 314v171q-197 0 -303 -15t-141.5 -41.5t-35.5 -74.5v-6q0 -152 25 -189t153 -37q109 0 177 26t94.5 66.5t30.5 99.5z
M611 1548q40 35 84 35q47 0 75 -29.5t28 -70.5q0 -31 -18 -60t-53 -44q-11 -5 -110 -42t-192 -72l-93 -35l-17 21q257 266 296 297z" />
    <glyph glyph-name="acircumflex" unicode="&#xe2;" horiz-adv-x="1111" 
d="M101 0zM960 0h-156l-32 157q-30 -103 -108.5 -137.5t-229.5 -34.5q-100 0 -164 19.5t-102 65.5t-52.5 112.5t-14.5 171.5q0 47 16.5 84t45 63t76 45t98.5 30t123.5 17.5t141.5 8.5t161 2v297q0 51 -48 70.5t-171 19.5q-86 0 -129 -4t-65.5 -23.5t-26 -38.5t-4.5 -71
q-1 -19 -1 -30l-153 6q-2 16 -2 47q0 67 19.5 113.5t50.5 73t85 41.5t107 19t132 4q120 0 195 -18.5t123 -66.5t66.5 -122.5t18.5 -194.5v-726zM763 314v171q-197 0 -303 -15t-141.5 -41.5t-35.5 -74.5v-6q0 -152 25 -189t153 -37q109 0 177 26t94.5 66.5t30.5 99.5z
M557 1466l-231 -236l-55 54l192 309q35 52 94 52t94 -52l192 -309l-55 -54z" />
    <glyph glyph-name="atilde" unicode="&#xe3;" horiz-adv-x="1111" 
d="M101 0zM960 0h-156l-32 157q-30 -103 -108.5 -137.5t-229.5 -34.5q-100 0 -164 19.5t-102 65.5t-52.5 112.5t-14.5 171.5q0 47 16.5 84t45 63t76 45t98.5 30t123.5 17.5t141.5 8.5t161 2v297q0 51 -48 70.5t-171 19.5q-86 0 -129 -4t-65.5 -23.5t-26 -38.5t-4.5 -71
q-1 -19 -1 -30l-153 6q-2 16 -2 47q0 67 19.5 113.5t50.5 73t85 41.5t107 19t132 4q120 0 195 -18.5t123 -66.5t66.5 -122.5t18.5 -194.5v-726zM763 314v171q-197 0 -303 -15t-141.5 -41.5t-35.5 -74.5v-6q0 -152 25 -189t153 -37q109 0 177 26t94.5 66.5t30.5 99.5z
M896 1415q-51 -185 -227 -185q-53 0 -143 42t-132 42q-78 0 -146 -63l-29 43q49 156 209 156q53 0 99.5 -17t83.5 -34t66 -17q82 0 185 83z" />
    <glyph glyph-name="adieresis" unicode="&#xe4;" horiz-adv-x="1111" 
d="M101 0zM960 0h-156l-32 157q-30 -103 -108.5 -137.5t-229.5 -34.5q-100 0 -164 19.5t-102 65.5t-52.5 112.5t-14.5 171.5q0 47 16.5 84t45 63t76 45t98.5 30t123.5 17.5t141.5 8.5t161 2v297q0 51 -48 70.5t-171 19.5q-86 0 -129 -4t-65.5 -23.5t-26 -38.5t-4.5 -71
q-1 -19 -1 -30l-153 6q-2 16 -2 47q0 67 19.5 113.5t50.5 73t85 41.5t107 19t132 4q120 0 195 -18.5t123 -66.5t66.5 -122.5t18.5 -194.5v-726zM763 314v171q-197 0 -303 -15t-141.5 -41.5t-35.5 -74.5v-6q0 -152 25 -189t153 -37q109 0 177 26t94.5 66.5t30.5 99.5z
M673 1357q0 62 36 94.5t95 32.5t94 -32t35 -95t-35 -95t-94 -32t-95 32.5t-36 94.5zM181 1357q0 62 36 94.5t95 32.5t94 -32t35 -95t-35 -95t-94 -32t-95 32.5t-36 94.5z" />
    <glyph glyph-name="aring" unicode="&#xe5;" horiz-adv-x="1111" 
d="M101 0zM960 0h-156l-32 157q-30 -103 -108.5 -137.5t-229.5 -34.5q-100 0 -164 19.5t-102 65.5t-52.5 112.5t-14.5 171.5q0 47 16.5 84t45 63t76 45t98.5 30t123.5 17.5t141.5 8.5t161 2v297q0 51 -48 70.5t-171 19.5q-86 0 -129 -4t-65.5 -23.5t-26 -38.5t-4.5 -71
q-1 -19 -1 -30l-153 6q-2 16 -2 47q0 67 19.5 113.5t50.5 73t85 41.5t107 19t132 4q120 0 195 -18.5t123 -66.5t66.5 -122.5t18.5 -194.5v-726zM763 314v171q-197 0 -303 -15t-141.5 -41.5t-35.5 -74.5v-6q0 -152 25 -189t153 -37q109 0 177 26t94.5 66.5t30.5 99.5z
M542 1620q-43 0 -72 -42t-29 -94q0 -137 128 -137q43 0 72.5 42t29.5 93q0 65 -33.5 101.5t-95.5 36.5zM556 1738q112 0 185 -71.5t73 -182.5q0 -113 -72 -183.5t-184 -70.5q-108 0 -182.5 69t-74.5 185q0 113 71.5 183.5t183.5 70.5z" />
    <glyph glyph-name="ae" unicode="&#xe6;" horiz-adv-x="1714" 
d="M952 399q0 -45 1 -70.5t4.5 -57.5t10.5 -49t20.5 -37t32.5 -29t47.5 -18.5t66 -12.5t86.5 -3q41 0 72 4t51.5 10.5t34 19t21 24t11 31.5t4.5 35.5t2.5 42t3.5 45.5l153 -28q-2 -70 -9 -118.5t-24 -85.5t-40 -58.5t-62 -35.5t-85.5 -18.5t-115.5 -4.5q-172 0 -268.5 37
t-141.5 117q-43 -92 -136 -123t-258 -31q-100 0 -164 19.5t-102 65.5t-52.5 112.5t-14.5 171.5q0 55 20.5 96t64 68t96 44.5t132.5 26.5t157 12t184 3v297q0 51 -46 70.5t-165 19.5q-86 0 -129 -4t-65.5 -23.5t-26 -38.5t-4.5 -71q-1 -19 -1 -30l-153 6q-2 16 -2 47
q0 67 19.5 113.5t50.5 73t85 41.5t107 19t132 4q110 0 182.5 -27t117.5 -88q48 64 131 89.5t221 25.5q69 0 119.5 -4.5t92.5 -18.5t69.5 -32t48.5 -53t32.5 -72.5t18.5 -99.5t9 -125.5t2 -158.5q-14 -1 -46 -5.5t-56.5 -6.5t-46.5 -2h-500v-151zM755 314v171
q-194 0 -298.5 -15t-139 -41.5t-34.5 -74.5v-6q0 -152 25 -189t153 -37q294 0 294 192zM952 655h452q-2 128 -10 234q-4 61 -42.5 81.5t-143.5 20.5q-47 0 -82.5 -3t-62.5 -11.5t-45 -18t-30 -28.5t-18.5 -37t-10 -48.5t-4.5 -58.5t-2 -72q0 -38 -1 -59z" />
    <glyph glyph-name="ccedilla" unicode="&#xe7;" horiz-adv-x="1112" 
d="M124 0zM985 781l-162 -27l-21 139q-8 48 -19 61q-26 30 -144 34q-28 1 -62 1q-136 0 -178 -15q-46 -8 -67 -91t-21 -203l1 -173v-99v-115.5t9 -76t20.5 -53t43.5 -24.5t68.5 -15t105.5 -1q54 0 93.5 4t67 9.5t45 19t27 24.5t14.5 34.5t6.5 40.5t3.5 51.5t5 58.5l164 -28
q-6 -78 -13.5 -125t-25 -91t-44 -66.5t-73 -40.5t-108 -23.5t-153.5 -5.5q-66 0 -118.5 4t-95.5 16.5t-75 24t-56.5 40.5t-41 50t-27.5 68t-17 80t-9 100.5t-3.5 114.5t-0.5 136q0 80 3 138.5t12 112t23.5 89t39 66.5t56 49t78 31t102 18t129.5 5q95 0 159.5 -9.5
t114.5 -31.5t79 -62.5t45 -99t20 -144.5zM509 3h109l-49 -168q56 -8 91 -17.5t67 -30.5t46.5 -57t14.5 -91q0 -90 -71 -139t-174 -49q-143 0 -239 82l47 90q111 -50 162 -50q59 0 59 54q0 87 -138 87q8 35 37 145z" />
    <glyph glyph-name="egrave" unicode="&#xe8;" horiz-adv-x="1141" 
d="M124 0zM1014 564q-120 -12 -149 -14h-545q1 -145 8 -318q5 -67 57.5 -88.5t204.5 -21.5q57 0 98 4.5t66.5 16t40 22t21.5 33t9 38t4 47t5 51.5l153 -28q-2 -70 -10 -118.5t-27 -85.5t-45 -58.5t-70 -35.5t-97 -18.5t-131 -4.5q-100 0 -174 11.5t-126.5 28.5t-86.5 55.5
t-53.5 73.5t-28.5 103t-11.5 123.5t-2.5 153.5q0 138 3.5 215t19.5 154.5t43 112.5t80 65t125 38.5t183 8.5q77 0 133 -4.5t103 -18.5t77.5 -32t54 -53t36 -72.5t20.5 -99.5t10 -125.5t2 -158.5zM321 655h496q-2 128 -10 234q-4 61 -52.5 81.5t-177.5 20.5q-143 0 -181 -16
q-17 -5 -29.5 -17.5t-20.5 -35.5t-12.5 -43t-7 -55.5t-3.5 -55t-1.5 -59.5t-0.5 -54zM518 1548q17 -14 91 -88t139 -141l66 -68l-17 -21l-93 35q-93 35 -192 72t-110 42q-35 15 -53 44t-18 60q0 41 28 70.5t75 29.5q44 0 84 -35z" />
    <glyph glyph-name="eacute" unicode="&#xe9;" horiz-adv-x="1141" 
d="M124 0zM1014 564q-120 -12 -149 -14h-545q1 -145 8 -318q5 -67 57.5 -88.5t204.5 -21.5q57 0 98 4.5t66.5 16t40 22t21.5 33t9 38t4 47t5 51.5l153 -28q-2 -70 -10 -118.5t-27 -85.5t-45 -58.5t-70 -35.5t-97 -18.5t-131 -4.5q-100 0 -174 11.5t-126.5 28.5t-86.5 55.5
t-53.5 73.5t-28.5 103t-11.5 123.5t-2.5 153.5q0 138 3.5 215t19.5 154.5t43 112.5t80 65t125 38.5t183 8.5q77 0 133 -4.5t103 -18.5t77.5 -32t54 -53t36 -72.5t20.5 -99.5t10 -125.5t2 -158.5zM321 655h496q-2 128 -10 234q-4 61 -52.5 81.5t-177.5 20.5q-143 0 -181 -16
q-17 -5 -29.5 -17.5t-20.5 -35.5t-12.5 -43t-7 -55.5t-3.5 -55t-1.5 -59.5t-0.5 -54zM627 1548q40 35 84 35q47 0 75 -29.5t28 -70.5q0 -31 -18 -60t-53 -44q-11 -5 -110 -42t-192 -72l-93 -35l-17 21q257 266 296 297z" />
    <glyph glyph-name="ecircumflex" unicode="&#xea;" horiz-adv-x="1141" 
d="M124 0zM1014 564q-120 -12 -149 -14h-545q1 -145 8 -318q5 -67 57.5 -88.5t204.5 -21.5q57 0 98 4.5t66.5 16t40 22t21.5 33t9 38t4 47t5 51.5l153 -28q-2 -70 -10 -118.5t-27 -85.5t-45 -58.5t-70 -35.5t-97 -18.5t-131 -4.5q-100 0 -174 11.5t-126.5 28.5t-86.5 55.5
t-53.5 73.5t-28.5 103t-11.5 123.5t-2.5 153.5q0 138 3.5 215t19.5 154.5t43 112.5t80 65t125 38.5t183 8.5q77 0 133 -4.5t103 -18.5t77.5 -32t54 -53t36 -72.5t20.5 -99.5t10 -125.5t2 -158.5zM321 655h496q-2 128 -10 234q-4 61 -52.5 81.5t-177.5 20.5q-143 0 -181 -16
q-17 -5 -29.5 -17.5t-20.5 -35.5t-12.5 -43t-7 -55.5t-3.5 -55t-1.5 -59.5t-0.5 -54zM573 1466l-231 -236l-55 54l192 309q35 52 94 52t94 -52l192 -309l-55 -54z" />
    <glyph glyph-name="edieresis" unicode="&#xeb;" horiz-adv-x="1141" 
d="M124 0zM1014 564q-120 -12 -149 -14h-545q1 -145 8 -318q5 -67 57.5 -88.5t204.5 -21.5q57 0 98 4.5t66.5 16t40 22t21.5 33t9 38t4 47t5 51.5l153 -28q-2 -70 -10 -118.5t-27 -85.5t-45 -58.5t-70 -35.5t-97 -18.5t-131 -4.5q-100 0 -174 11.5t-126.5 28.5t-86.5 55.5
t-53.5 73.5t-28.5 103t-11.5 123.5t-2.5 153.5q0 138 3.5 215t19.5 154.5t43 112.5t80 65t125 38.5t183 8.5q77 0 133 -4.5t103 -18.5t77.5 -32t54 -53t36 -72.5t20.5 -99.5t10 -125.5t2 -158.5zM321 655h496q-2 128 -10 234q-4 61 -52.5 81.5t-177.5 20.5q-143 0 -181 -16
q-17 -5 -29.5 -17.5t-20.5 -35.5t-12.5 -43t-7 -55.5t-3.5 -55t-1.5 -59.5t-0.5 -54zM689 1357q0 62 36 94.5t95 32.5t94 -32t35 -95t-35 -95t-94 -32t-95 32.5t-36 94.5zM197 1357q0 62 36 94.5t95 32.5t94 -32t35 -95t-35 -95t-94 -32t-95 32.5t-36 94.5z" />
    <glyph glyph-name="igrave" unicode="&#xec;" 
d="M24 0zM364 0h-197v1097h197v-1097zM211 1548q17 -14 91 -88t139 -141l66 -68l-17 -21l-93 35q-93 35 -192 72t-110 42q-35 15 -53 44t-18 60q0 41 28 70.5t75 29.5q44 0 84 -35z" />
    <glyph glyph-name="iacute" unicode="&#xed;" 
d="M24 0zM364 0h-197v1097h197v-1097zM320 1548q40 35 84 35q47 0 75 -29.5t28 -70.5q0 -31 -18 -60t-53 -44q-11 -5 -110 -42t-192 -72l-93 -35l-17 21q257 266 296 297z" />
    <glyph glyph-name="icircumflex" unicode="&#xee;" 
d="M0 0zM364 0h-197v1097h197v-1097zM265 1466l-231 -236l-55 54l192 309q35 52 94 52t94 -52l192 -309l-55 -54z" />
    <glyph glyph-name="idieresis" unicode="&#xef;" 
d="M0 0zM364 0h-197v1097h197v-1097zM381 1357q0 62 36 94.5t95 32.5t94 -32t35 -95t-35 -95t-94 -32t-95 32.5t-36 94.5zM-111 1357q0 62 36 94.5t95 32.5t94 -32t35 -95t-35 -95t-94 -32t-95 32.5t-36 94.5z" />
    <glyph glyph-name="eth" unicode="&#xf0;" horiz-adv-x="1206" 
d="M985 1587l60 -60l-158 -158q40 -28 69.5 -67t50 -77t33.5 -108.5t20 -121t10.5 -157t4 -174t0.5 -212.5q0 -150 -21.5 -241t-79 -144.5t-142 -72t-225.5 -18.5q-128 0 -212 12t-144.5 38.5t-92.5 76t-45.5 117.5t-12.5 171l1 208q1 195 93 281t318 86q337 0 365 -150
q-10 196 -30.5 295.5t-66.5 150.5l-157 -157l-60 60l147 147q-14 6 -29.5 11.5t-35.5 10.5t-36.5 8.5t-43.5 7t-44.5 6t-52 6t-54 5t-62 5.5t-64.5 6l18 119q355 -22 503 -86zM607 838q-77 0 -123.5 -1.5t-85 -6.5t-56.5 -12.5t-30.5 -23t-15 -33t-2.5 -47.5l-1 -500
q0 -27 3.5 -44t18.5 -30.5t32 -19.5t58 -10t82.5 -5t117.5 -1q72 0 116.5 1t76.5 7.5t46.5 11t23 21t9 27.5t0.5 40v439q0 43 -3.5 68t-18 51t-43.5 39t-79 21t-126 8z" />
    <glyph glyph-name="ntilde" unicode="&#xf1;" horiz-adv-x="1171" 
d="M153 0zM1021 0h-197v664q0 64 -0.5 102.5t-4 77.5t-7.5 58.5t-14.5 39t-21.5 26.5t-32 13.5t-42 7.5t-56 1q-76 0 -129.5 -8.5t-87.5 -23.5t-52.5 -42t-25.5 -58.5t-7 -77.5q0 -26 3 -90.5t3 -104.5v-585h-197v1097h180l19 -123q26 82 115 118t212 36q58 0 103 -7
t80 -23.5t60.5 -37.5t43 -55.5t28.5 -70.5t17 -90t8 -107.5t2 -127.5v-609zM926 1415q-51 -185 -227 -185q-53 0 -143 42t-132 42q-78 0 -146 -63l-29 43q49 156 209 156q53 0 99.5 -17t83.5 -34t66 -17q82 0 185 83z" />
    <glyph glyph-name="ograve" unicode="&#xf2;" horiz-adv-x="1178" 
d="M124 0zM587 123q142 3 197.5 21t55.5 71q11 143 11 331q0 62 -5 177.5t-5 171.5q0 17 -5.5 31t-18 23.5t-25 16.5t-35 11t-38 7t-44 4t-44 1h-45.5h-45.5t-44 -1t-44 -4t-38 -7t-35 -11t-25 -16.5t-18 -23.5t-5.5 -31q0 -56 -5 -171.5t-5 -177.5q0 -188 11 -331
q0 -53 58.5 -72.5t196.5 -19.5zM585 -15q-111 0 -185 9t-127.5 39.5t-81.5 65t-44 109t-19.5 147.5t-3.5 203q0 97 2.5 162t11.5 127.5t22.5 101t39 73t57.5 52.5t81.5 31.5t108 18t139.5 4.5t139.5 -4.5t108 -18t81.5 -31.5t57.5 -52.5t39 -73t22.5 -101t11.5 -127.5
t2.5 -162q0 -130 -3.5 -203t-19.5 -147.5t-44.5 -109.5t-82 -65t-127.5 -39t-186 -9zM526 1548q17 -14 91 -88t139 -141l66 -68l-17 -21l-93 35q-93 35 -192 72t-110 42q-35 15 -53 44t-18 60q0 41 28 70.5t75 29.5q44 0 84 -35z" />
    <glyph glyph-name="oacute" unicode="&#xf3;" horiz-adv-x="1178" 
d="M124 0zM587 123q142 3 197.5 21t55.5 71q11 143 11 331q0 62 -5 177.5t-5 171.5q0 17 -5.5 31t-18 23.5t-25 16.5t-35 11t-38 7t-44 4t-44 1h-45.5h-45.5t-44 -1t-44 -4t-38 -7t-35 -11t-25 -16.5t-18 -23.5t-5.5 -31q0 -56 -5 -171.5t-5 -177.5q0 -188 11 -331
q0 -53 58.5 -72.5t196.5 -19.5zM585 -15q-111 0 -185 9t-127.5 39.5t-81.5 65t-44 109t-19.5 147.5t-3.5 203q0 97 2.5 162t11.5 127.5t22.5 101t39 73t57.5 52.5t81.5 31.5t108 18t139.5 4.5t139.5 -4.5t108 -18t81.5 -31.5t57.5 -52.5t39 -73t22.5 -101t11.5 -127.5
t2.5 -162q0 -130 -3.5 -203t-19.5 -147.5t-44.5 -109.5t-82 -65t-127.5 -39t-186 -9zM635 1548q40 35 84 35q47 0 75 -29.5t28 -70.5q0 -31 -18 -60t-53 -44q-11 -5 -110 -42t-192 -72l-93 -35l-17 21q257 266 296 297z" />
    <glyph glyph-name="ocircumflex" unicode="&#xf4;" horiz-adv-x="1178" 
d="M124 0zM587 123q142 3 197.5 21t55.5 71q11 143 11 331q0 62 -5 177.5t-5 171.5q0 17 -5.5 31t-18 23.5t-25 16.5t-35 11t-38 7t-44 4t-44 1h-45.5h-45.5t-44 -1t-44 -4t-38 -7t-35 -11t-25 -16.5t-18 -23.5t-5.5 -31q0 -56 -5 -171.5t-5 -177.5q0 -188 11 -331
q0 -53 58.5 -72.5t196.5 -19.5zM585 -15q-111 0 -185 9t-127.5 39.5t-81.5 65t-44 109t-19.5 147.5t-3.5 203q0 97 2.5 162t11.5 127.5t22.5 101t39 73t57.5 52.5t81.5 31.5t108 18t139.5 4.5t139.5 -4.5t108 -18t81.5 -31.5t57.5 -52.5t39 -73t22.5 -101t11.5 -127.5
t2.5 -162q0 -130 -3.5 -203t-19.5 -147.5t-44.5 -109.5t-82 -65t-127.5 -39t-186 -9zM581 1466l-231 -236l-55 54l192 309q35 52 94 52t94 -52l192 -309l-55 -54z" />
    <glyph glyph-name="otilde" unicode="&#xf5;" horiz-adv-x="1178" 
d="M124 0zM587 123q142 3 197.5 21t55.5 71q11 143 11 331q0 62 -5 177.5t-5 171.5q0 17 -5.5 31t-18 23.5t-25 16.5t-35 11t-38 7t-44 4t-44 1h-45.5h-45.5t-44 -1t-44 -4t-38 -7t-35 -11t-25 -16.5t-18 -23.5t-5.5 -31q0 -56 -5 -171.5t-5 -177.5q0 -188 11 -331
q0 -53 58.5 -72.5t196.5 -19.5zM585 -15q-111 0 -185 9t-127.5 39.5t-81.5 65t-44 109t-19.5 147.5t-3.5 203q0 97 2.5 162t11.5 127.5t22.5 101t39 73t57.5 52.5t81.5 31.5t108 18t139.5 4.5t139.5 -4.5t108 -18t81.5 -31.5t57.5 -52.5t39 -73t22.5 -101t11.5 -127.5
t2.5 -162q0 -130 -3.5 -203t-19.5 -147.5t-44.5 -109.5t-82 -65t-127.5 -39t-186 -9zM920 1415q-51 -185 -227 -185q-53 0 -143 42t-132 42q-78 0 -146 -63l-29 43q49 156 209 156q53 0 99.5 -17t83.5 -34t66 -17q82 0 185 83z" />
    <glyph glyph-name="odieresis" unicode="&#xf6;" horiz-adv-x="1178" 
d="M124 0zM587 123q142 3 197.5 21t55.5 71q11 143 11 331q0 62 -5 177.5t-5 171.5q0 17 -5.5 31t-18 23.5t-25 16.5t-35 11t-38 7t-44 4t-44 1h-45.5h-45.5t-44 -1t-44 -4t-38 -7t-35 -11t-25 -16.5t-18 -23.5t-5.5 -31q0 -56 -5 -171.5t-5 -177.5q0 -188 11 -331
q0 -53 58.5 -72.5t196.5 -19.5zM585 -15q-111 0 -185 9t-127.5 39.5t-81.5 65t-44 109t-19.5 147.5t-3.5 203q0 97 2.5 162t11.5 127.5t22.5 101t39 73t57.5 52.5t81.5 31.5t108 18t139.5 4.5t139.5 -4.5t108 -18t81.5 -31.5t57.5 -52.5t39 -73t22.5 -101t11.5 -127.5
t2.5 -162q0 -130 -3.5 -203t-19.5 -147.5t-44.5 -109.5t-82 -65t-127.5 -39t-186 -9zM697 1357q0 62 36 94.5t95 32.5t94 -32t35 -95t-35 -95t-94 -32t-95 32.5t-36 94.5zM205 1357q0 62 36 94.5t95 32.5t94 -32t35 -95t-35 -95t-94 -32t-95 32.5t-36 94.5z" />
    <glyph glyph-name="divide" unicode="&#xf7;" horiz-adv-x="537" 
d="M273 925q-62 0 -101 42t-39 112q0 73 39.5 113.5t114.5 40.5q51 0 88.5 -47t37.5 -107q0 -68 -37.5 -111t-102.5 -43zM375 178q-38 -44 -102 -44q-62 0 -101 42t-39 112q0 72 39.5 113t114.5 41q51 0 88.5 -47t37.5 -107q0 -64 -38 -110z" />
    <glyph glyph-name="oslash" unicode="&#xf8;" horiz-adv-x="1175" 
d="M582 -15h-2q-44 0 -64 1l-40 -186h-93l41 192q-54 6 -95 16.5t-73 30t-54 41t-37.5 59.5t-24.5 74t-13.5 95t-6 113t-1.5 137q0 97 2.5 162t11.5 127.5t22.5 101t39 73t57.5 52.5t81.5 31.5t108 18t139.5 4.5q32 0 86 -2l37 173h93l-39 -180q64 -8 109 -24t77 -48
t51 -70.5t30 -104t14.5 -136.5t3.5 -178q0 -130 -3.5 -203t-19.5 -147.5t-44 -109t-81.5 -65t-127.5 -39.5t-185 -9zM454 130l184 859h-57h-45.5t-44 -1t-44 -4t-38 -7t-35 -11t-25 -16.5t-18 -23.5t-5.5 -31q0 -56 -5 -171.5t-5 -177.5q0 -188 11 -331q0 -39 30 -58t97 -27
zM545 124q5 0 17 -0.5t18 -0.5h2q142 3 197.5 21t55.5 71q11 143 11 331q0 62 -5 177.5t-5 171.5q0 69 -107 87z" />
    <glyph glyph-name="ugrave" unicode="&#xf9;" horiz-adv-x="1170" 
d="M150 0zM1020 -1h-182l-18 141q-26 -79 -113.5 -117t-213.5 -38q-86 0 -145 17t-98.5 49.5t-61 91t-30 131t-8.5 180.5v643h197v-637q0 -22 -0.5 -59.5t-0.5 -52.5q0 -53 2 -83t10.5 -59t22.5 -42.5t42 -24.5t64.5 -14t93.5 -3q64 0 109 9t71 23.5t39.5 39.5t17.5 49t4 60
q0 12 -0.5 39t-0.5 41v714h199v-1098zM520 1548q17 -14 91 -88t139 -141l66 -68l-17 -21l-93 35q-93 35 -192 72t-110 42q-35 15 -53 44t-18 60q0 41 28 70.5t75 29.5q44 0 84 -35z" />
    <glyph glyph-name="uacute" unicode="&#xfa;" horiz-adv-x="1170" 
d="M150 0zM1020 -1h-182l-18 141q-26 -79 -113.5 -117t-213.5 -38q-86 0 -145 17t-98.5 49.5t-61 91t-30 131t-8.5 180.5v643h197v-637q0 -22 -0.5 -59.5t-0.5 -52.5q0 -53 2 -83t10.5 -59t22.5 -42.5t42 -24.5t64.5 -14t93.5 -3q64 0 109 9t71 23.5t39.5 39.5t17.5 49t4 60
q0 12 -0.5 39t-0.5 41v714h199v-1098zM629 1548q40 35 84 35q47 0 75 -29.5t28 -70.5q0 -31 -18 -60t-53 -44q-11 -5 -110 -42t-192 -72l-93 -35l-17 21q257 266 296 297z" />
    <glyph glyph-name="ucircumflex" unicode="&#xfb;" horiz-adv-x="1170" 
d="M150 0zM1020 -1h-182l-18 141q-26 -79 -113.5 -117t-213.5 -38q-86 0 -145 17t-98.5 49.5t-61 91t-30 131t-8.5 180.5v643h197v-637q0 -22 -0.5 -59.5t-0.5 -52.5q0 -53 2 -83t10.5 -59t22.5 -42.5t42 -24.5t64.5 -14t93.5 -3q64 0 109 9t71 23.5t39.5 39.5t17.5 49t4 60
q0 12 -0.5 39t-0.5 41v714h199v-1098zM575 1466l-231 -236l-55 54l192 309q35 52 94 52t94 -52l192 -309l-55 -54z" />
    <glyph glyph-name="udieresis" unicode="&#xfc;" horiz-adv-x="1170" 
d="M150 0zM1020 -1h-182l-18 141q-26 -79 -113.5 -117t-213.5 -38q-86 0 -145 17t-98.5 49.5t-61 91t-30 131t-8.5 180.5v643h197v-637q0 -22 -0.5 -59.5t-0.5 -52.5q0 -53 2 -83t10.5 -59t22.5 -42.5t42 -24.5t64.5 -14t93.5 -3q64 0 109 9t71 23.5t39.5 39.5t17.5 49t4 60
q0 12 -0.5 39t-0.5 41v714h199v-1098zM691 1357q0 62 36 94.5t95 32.5t94 -32t35 -95t-35 -95t-94 -32t-95 32.5t-36 94.5zM199 1357q0 62 36 94.5t95 32.5t94 -32t35 -95t-35 -95t-94 -32t-95 32.5t-36 94.5z" />
    <glyph glyph-name="yacute" unicode="&#xfd;" horiz-adv-x="1080" 
d="M48 0zM1000 1097l-346 -1044q-13 -38 -27.5 -91.5t-24 -86.5t-24 -72.5t-31.5 -63t-42 -45t-60 -31t-81 -9.5q-119 0 -216 23l30 152q19 -2 51 -7.5t55.5 -8.5t43.5 -3q64 0 97 44t34 163l-411 1080h199l202 -557q55 -152 102 -287q33 121 97 334l151 510h201zM581 1548
q40 35 84 35q47 0 75 -29.5t28 -70.5q0 -31 -18 -60t-53 -44q-11 -5 -110 -42t-192 -72l-93 -35l-17 21q257 266 296 297z" />
    <glyph glyph-name="thorn" unicode="&#xfe;" horiz-adv-x="1209" 
d="M1074 526q0 -129 -7.5 -212.5t-28.5 -153.5t-60 -107.5t-99.5 -57t-149.5 -19.5q-302 0 -366 128v-489l-196 -16v1965l195 15v-538q50 127 348 127q60 0 108.5 -10.5t84.5 -24.5t63 -45.5t45.5 -56.5t30.5 -76t18.5 -84.5t9.5 -102t3.5 -108t0.5 -122.5v-12zM875 562
q0 46 0.5 115t0.5 93q0 46 -1 75t-6 56t-10 41.5t-20 27t-27.5 18t-41.5 9t-53.5 4t-70.5 0.5q-44 0 -75 -0.5t-60.5 -3.5t-48 -5t-36 -10t-27 -14t-17.5 -20t-11.5 -25.5t-6 -33.5t-3 -40.5t-0.5 -50.5q0 -29 1 -89t1 -88q0 -64 -1.5 -152t-1.5 -114q0 -74 7 -113t26 -59
q27 -23 80.5 -31t151.5 -8q59 0 98 4t68.5 16t45 27.5t25 46.5t12 64.5t2.5 89.5q0 22 -0.5 78.5t-0.5 91.5z" />
    <glyph glyph-name="ydieresis" unicode="&#xff;" horiz-adv-x="1080" 
d="M48 0zM1000 1097l-346 -1044q-13 -38 -27.5 -91.5t-24 -86.5t-24 -72.5t-31.5 -63t-42 -45t-60 -31t-81 -9.5q-119 0 -216 23l30 152q19 -2 51 -7.5t55.5 -8.5t43.5 -3q64 0 97 44t34 163l-411 1080h199l202 -557q55 -152 102 -287q33 121 97 334l151 510h201zM643 1357
q0 62 36 94.5t95 32.5t94 -32t35 -95t-35 -95t-94 -32t-95 32.5t-36 94.5zM151 1357q0 62 36 94.5t95 32.5t94 -32t35 -95t-35 -95t-94 -32t-95 32.5t-36 94.5z" />
    <glyph glyph-name="Amacron" unicode="&#x100;" horiz-adv-x="1296" 
d="M47 0zM1221 0h-206l-113 381h-551l-109 -381h-195l457 1490h271zM860 525l-126 447l-104 366q-58 -207 -102 -356l-134 -457h466zM348 1743h597v-127h-597v127z" />
    <glyph glyph-name="amacron" unicode="&#x101;" horiz-adv-x="1111" 
d="M101 0zM960 0h-156l-32 157q-30 -103 -108.5 -137.5t-229.5 -34.5q-100 0 -164 19.5t-102 65.5t-52.5 112.5t-14.5 171.5q0 47 16.5 84t45 63t76 45t98.5 30t123.5 17.5t141.5 8.5t161 2v297q0 51 -48 70.5t-171 19.5q-86 0 -129 -4t-65.5 -23.5t-26 -38.5t-4.5 -71
q-1 -19 -1 -30l-153 6q-2 16 -2 47q0 67 19.5 113.5t50.5 73t85 41.5t107 19t132 4q120 0 195 -18.5t123 -66.5t66.5 -122.5t18.5 -194.5v-726zM763 314v171q-197 0 -303 -15t-141.5 -41.5t-35.5 -74.5v-6q0 -152 25 -189t153 -37q109 0 177 26t94.5 66.5t30.5 99.5z
M259 1357h597v-127h-597v127z" />
    <glyph glyph-name="Abreve" unicode="&#x102;" horiz-adv-x="1296" 
d="M47 0zM1221 0h-206l-113 381h-551l-109 -381h-195l457 1490h271zM860 525l-126 447l-104 366q-58 -207 -102 -356l-134 -457h466zM351 1916h142q-1 -3 -1 -12q0 -92 31.5 -127t122.5 -35q92 0 123 36.5t31 137.5h142q0 -169 -76.5 -234.5t-256.5 -65.5q-118 0 -188 71.5
t-70 228.5z" />
    <glyph glyph-name="abreve" unicode="&#x103;" horiz-adv-x="1111" 
d="M101 0zM960 0h-156l-32 157q-30 -103 -108.5 -137.5t-229.5 -34.5q-100 0 -164 19.5t-102 65.5t-52.5 112.5t-14.5 171.5q0 47 16.5 84t45 63t76 45t98.5 30t123.5 17.5t141.5 8.5t161 2v297q0 51 -48 70.5t-171 19.5q-86 0 -129 -4t-65.5 -23.5t-26 -38.5t-4.5 -71
q-1 -19 -1 -30l-153 6q-2 16 -2 47q0 67 19.5 113.5t50.5 73t85 41.5t107 19t132 4q120 0 195 -18.5t123 -66.5t66.5 -122.5t18.5 -194.5v-726zM763 314v171q-197 0 -303 -15t-141.5 -41.5t-35.5 -74.5v-6q0 -152 25 -189t153 -37q109 0 177 26t94.5 66.5t30.5 99.5z
M261 1530h142q-1 -3 -1 -12q0 -92 31.5 -127t122.5 -35q92 0 123 36.5t31 137.5h142q0 -169 -76.5 -234.5t-256.5 -65.5q-118 0 -188 71.5t-70 228.5z" />
    <glyph glyph-name="Aogonek" unicode="&#x104;" horiz-adv-x="1296" 
d="M47 0zM1221 0h-206l-113 381h-551l-109 -381h-195l457 1490h271zM860 525l-126 447l-104 366q-58 -207 -102 -356l-134 -457h466zM1040 18h108q-82 -84 -131.5 -174t-49.5 -167q0 -86 83 -86q63 0 164 46l35 -78q-32 -36 -117.5 -65.5t-168.5 -29.5q-82 0 -133.5 34.5
t-51.5 110.5q0 43 13 84.5t30.5 74t57.5 79.5t69.5 78t91.5 93z" />
    <glyph glyph-name="aogonek" unicode="&#x105;" horiz-adv-x="1111" 
d="M101 0zM960 0h-156l-32 157q-30 -103 -108.5 -137.5t-229.5 -34.5q-100 0 -164 19.5t-102 65.5t-52.5 112.5t-14.5 171.5q0 47 16.5 84t45 63t76 45t98.5 30t123.5 17.5t141.5 8.5t161 2v297q0 51 -48 70.5t-171 19.5q-86 0 -129 -4t-65.5 -23.5t-26 -38.5t-4.5 -71
q-1 -19 -1 -30l-153 6q-2 16 -2 47q0 67 19.5 113.5t50.5 73t85 41.5t107 19t132 4q120 0 195 -18.5t123 -66.5t66.5 -122.5t18.5 -194.5v-726zM763 314v171q-197 0 -303 -15t-141.5 -41.5t-35.5 -74.5v-6q0 -152 25 -189t153 -37q109 0 177 26t94.5 66.5t30.5 99.5zM806 3
h108q-82 -84 -131.5 -174t-49.5 -167q0 -86 83 -86q63 0 164 46l35 -78q-32 -36 -117.5 -65.5t-168.5 -29.5q-82 0 -133.5 34.5t-51.5 110.5q0 43 13 84.5t30.5 74t57.5 79.5t69.5 78t91.5 93z" />
    <glyph glyph-name="Cacute" unicode="&#x106;" horiz-adv-x="1360" 
d="M132 0zM1042 462l174 -26q-5 -96 -17 -163.5t-35.5 -120.5t-57.5 -85.5t-87.5 -53.5t-120 -29t-160.5 -8q-90 0 -161 4.5t-129.5 20t-102 30t-77 48.5t-56 61t-38 82.5t-23.5 97.5t-12.5 122t-5.5 140t-1 166q0 112 1 180t6 148t12.5 124t24 96.5t37.5 78t55 55.5
t74.5 41.5t98.5 23.5t124.5 15t154.5 3q91 0 155 -6.5t120 -25t92 -49t63.5 -79.5t42.5 -115.5t22 -159.5l-175 -34q-5 51 -9 85t-11.5 67t-12 53.5t-18.5 40t-22.5 29.5t-31.5 19t-38.5 12.5t-51 6.5t-61.5 3h-76q-70 0 -114.5 -1.5t-89 -7t-70 -16t-47.5 -28t-31.5 -43
t-11.5 -61.5q-9 -264 -9 -539q0 -192 9 -375q5 -57 32.5 -89t107 -51t225.5 -19q78 0 131 4.5t89 21t55 30t30.5 52.5t15 65.5t7.5 90.5q1 14 1.5 22t1.5 21.5t2 24.5zM783 1934q40 35 84 35q47 0 75 -29.5t28 -70.5q0 -31 -18 -60t-53 -44q-11 -5 -110 -42t-192 -72
l-93 -35l-17 21q257 266 296 297z" />
    <glyph glyph-name="cacute" unicode="&#x107;" horiz-adv-x="1112" 
d="M124 0zM985 781l-162 -27l-21 139q-8 48 -19 61q-26 30 -144 34q-28 1 -62 1q-136 0 -178 -15q-46 -8 -67 -91t-21 -203l1 -173v-99v-115.5t9 -76t20.5 -53t43.5 -24.5t68.5 -15t105.5 -1q54 0 93.5 4t67 9.5t45 19t27 24.5t14.5 34.5t6.5 40.5t3.5 51.5t5 58.5l164 -28
q-6 -78 -13.5 -125t-25 -91t-44 -66.5t-73 -40.5t-108 -23.5t-153.5 -5.5q-66 0 -118.5 4t-95.5 16.5t-75 24t-56.5 40.5t-41 50t-27.5 68t-17 80t-9 100.5t-3.5 114.5t-0.5 136q0 80 3 138.5t12 112t23.5 89t39 66.5t56 49t78 31t102 18t129.5 5q95 0 159.5 -9.5
t114.5 -31.5t79 -62.5t45 -99t20 -144.5zM617 1548q40 35 84 35q47 0 75 -29.5t28 -70.5q0 -31 -18 -60t-53 -44q-11 -5 -110 -42t-192 -72l-93 -35l-17 21q257 266 296 297z" />
    <glyph glyph-name="Ccircumflex" unicode="&#x108;" horiz-adv-x="1360" 
d="M132 0zM1042 462l174 -26q-5 -96 -17 -163.5t-35.5 -120.5t-57.5 -85.5t-87.5 -53.5t-120 -29t-160.5 -8q-90 0 -161 4.5t-129.5 20t-102 30t-77 48.5t-56 61t-38 82.5t-23.5 97.5t-12.5 122t-5.5 140t-1 166q0 112 1 180t6 148t12.5 124t24 96.5t37.5 78t55 55.5
t74.5 41.5t98.5 23.5t124.5 15t154.5 3q91 0 155 -6.5t120 -25t92 -49t63.5 -79.5t42.5 -115.5t22 -159.5l-175 -34q-5 51 -9 85t-11.5 67t-12 53.5t-18.5 40t-22.5 29.5t-31.5 19t-38.5 12.5t-51 6.5t-61.5 3h-76q-70 0 -114.5 -1.5t-89 -7t-70 -16t-47.5 -28t-31.5 -43
t-11.5 -61.5q-9 -264 -9 -539q0 -192 9 -375q5 -57 32.5 -89t107 -51t225.5 -19q78 0 131 4.5t89 21t55 30t30.5 52.5t15 65.5t7.5 90.5q1 14 1.5 22t1.5 21.5t2 24.5zM728 1852l-231 -236l-55 54l192 309q35 52 94 52t94 -52l192 -309l-55 -54z" />
    <glyph glyph-name="ccircumflex" unicode="&#x109;" horiz-adv-x="1112" 
d="M124 0zM985 781l-162 -27l-21 139q-8 48 -19 61q-26 30 -144 34q-28 1 -62 1q-136 0 -178 -15q-46 -8 -67 -91t-21 -203l1 -173v-99v-115.5t9 -76t20.5 -53t43.5 -24.5t68.5 -15t105.5 -1q54 0 93.5 4t67 9.5t45 19t27 24.5t14.5 34.5t6.5 40.5t3.5 51.5t5 58.5l164 -28
q-6 -78 -13.5 -125t-25 -91t-44 -66.5t-73 -40.5t-108 -23.5t-153.5 -5.5q-66 0 -118.5 4t-95.5 16.5t-75 24t-56.5 40.5t-41 50t-27.5 68t-17 80t-9 100.5t-3.5 114.5t-0.5 136q0 80 3 138.5t12 112t23.5 89t39 66.5t56 49t78 31t102 18t129.5 5q95 0 159.5 -9.5
t114.5 -31.5t79 -62.5t45 -99t20 -144.5zM562 1466l-231 -236l-55 54l192 309q35 52 94 52t94 -52l192 -309l-55 -54z" />
    <glyph glyph-name="Cdotaccent" unicode="&#x10a;" horiz-adv-x="1360" 
d="M132 0zM1042 462l174 -26q-5 -96 -17 -163.5t-35.5 -120.5t-57.5 -85.5t-87.5 -53.5t-120 -29t-160.5 -8q-90 0 -161 4.5t-129.5 20t-102 30t-77 48.5t-56 61t-38 82.5t-23.5 97.5t-12.5 122t-5.5 140t-1 166q0 112 1 180t6 148t12.5 124t24 96.5t37.5 78t55 55.5
t74.5 41.5t98.5 23.5t124.5 15t154.5 3q91 0 155 -6.5t120 -25t92 -49t63.5 -79.5t42.5 -115.5t22 -159.5l-175 -34q-5 51 -9 85t-11.5 67t-12 53.5t-18.5 40t-22.5 29.5t-31.5 19t-38.5 12.5t-51 6.5t-61.5 3h-76q-70 0 -114.5 -1.5t-89 -7t-70 -16t-47.5 -28t-31.5 -43
t-11.5 -61.5q-9 -264 -9 -539q0 -192 9 -375q5 -57 32.5 -89t107 -51t225.5 -19q78 0 131 4.5t89 21t55 30t30.5 52.5t15 65.5t7.5 90.5q1 14 1.5 22t1.5 21.5t2 24.5zM629 1616q0 38 0.5 114t0.5 114h196q0 -38 0.5 -114t0.5 -114h-198z" />
    <glyph glyph-name="cdotaccent" unicode="&#x10b;" horiz-adv-x="1112" 
d="M124 0zM985 781l-162 -27l-21 139q-8 48 -19 61q-26 30 -144 34q-28 1 -62 1q-136 0 -178 -15q-46 -8 -67 -91t-21 -203l1 -173v-99v-115.5t9 -76t20.5 -53t43.5 -24.5t68.5 -15t105.5 -1q54 0 93.5 4t67 9.5t45 19t27 24.5t14.5 34.5t6.5 40.5t3.5 51.5t5 58.5l164 -28
q-6 -78 -13.5 -125t-25 -91t-44 -66.5t-73 -40.5t-108 -23.5t-153.5 -5.5q-66 0 -118.5 4t-95.5 16.5t-75 24t-56.5 40.5t-41 50t-27.5 68t-17 80t-9 100.5t-3.5 114.5t-0.5 136q0 80 3 138.5t12 112t23.5 89t39 66.5t56 49t78 31t102 18t129.5 5q95 0 159.5 -9.5
t114.5 -31.5t79 -62.5t45 -99t20 -144.5zM463 1230q0 38 0.5 114t0.5 114h196q0 -38 0.5 -114t0.5 -114h-198z" />
    <glyph glyph-name="Ccaron" unicode="&#x10c;" horiz-adv-x="1360" 
d="M132 0zM1042 462l174 -26q-5 -96 -17 -163.5t-35.5 -120.5t-57.5 -85.5t-87.5 -53.5t-120 -29t-160.5 -8q-90 0 -161 4.5t-129.5 20t-102 30t-77 48.5t-56 61t-38 82.5t-23.5 97.5t-12.5 122t-5.5 140t-1 166q0 112 1 180t6 148t12.5 124t24 96.5t37.5 78t55 55.5
t74.5 41.5t98.5 23.5t124.5 15t154.5 3q91 0 155 -6.5t120 -25t92 -49t63.5 -79.5t42.5 -115.5t22 -159.5l-175 -34q-5 51 -9 85t-11.5 67t-12 53.5t-18.5 40t-22.5 29.5t-31.5 19t-38.5 12.5t-51 6.5t-61.5 3h-76q-70 0 -114.5 -1.5t-89 -7t-70 -16t-47.5 -28t-31.5 -43
t-11.5 -61.5q-9 -264 -9 -539q0 -192 9 -375q5 -57 32.5 -89t107 -51t225.5 -19q78 0 131 4.5t89 21t55 30t30.5 52.5t15 65.5t7.5 90.5q1 14 1.5 22t1.5 21.5t2 24.5zM497 2031l231 -236l231 236l55 -54l-192 -309q-35 -52 -94 -52t-94 52l-192 309z" />
    <glyph glyph-name="ccaron" unicode="&#x10d;" horiz-adv-x="1112" 
d="M124 0zM985 781l-162 -27l-21 139q-8 48 -19 61q-26 30 -144 34q-28 1 -62 1q-136 0 -178 -15q-46 -8 -67 -91t-21 -203l1 -173v-99v-115.5t9 -76t20.5 -53t43.5 -24.5t68.5 -15t105.5 -1q54 0 93.5 4t67 9.5t45 19t27 24.5t14.5 34.5t6.5 40.5t3.5 51.5t5 58.5l164 -28
q-6 -78 -13.5 -125t-25 -91t-44 -66.5t-73 -40.5t-108 -23.5t-153.5 -5.5q-66 0 -118.5 4t-95.5 16.5t-75 24t-56.5 40.5t-41 50t-27.5 68t-17 80t-9 100.5t-3.5 114.5t-0.5 136q0 80 3 138.5t12 112t23.5 89t39 66.5t56 49t78 31t102 18t129.5 5q95 0 159.5 -9.5
t114.5 -31.5t79 -62.5t45 -99t20 -144.5zM331 1645l231 -236l231 236l55 -54l-192 -309q-35 -52 -94 -52t-94 52l-192 309z" />
    <glyph glyph-name="Dcaron" unicode="&#x10e;" horiz-adv-x="1420" 
d="M166 0zM1273 876q0 -137 -1.5 -225.5t-9.5 -181t-17 -146.5t-33.5 -110.5t-48 -84t-71.5 -56.5t-94 -39t-124.5 -20t-154 -11.5t-191.5 -1.5h-362v1490h516q126 0 213 -10.5t155.5 -39t109.5 -71.5t67.5 -114.5t36 -160.5t9.5 -218zM1072 873q0 92 -0.5 132.5t-7 101.5
t-18 83.5t-36.5 57.5t-58.5 44.5t-88 24t-121.5 17t-163 2.5h-210v-1183h240q86 0 134 1.5t104 8.5t82.5 18.5t57.5 36t43 56t24 83t15 113.5t3 150v253zM494 2031l231 -236l231 236l55 -54l-192 -309q-35 -52 -94 -52t-94 52l-192 309z" />
    <glyph glyph-name="dcaron" unicode="&#x10f;" horiz-adv-x="1179" 
d="M124 0zM1025 0h-180l-19 138q-61 -153 -319 -153q-69 0 -123.5 9t-94 31t-67.5 45.5t-46.5 68t-29 81t-15.5 101.5t-6 113.5t-1 131.5q0 81 2.5 140t10 117t20 97.5t33.5 76.5t50.5 59.5t70.5 40t94 24.5t120 7q129 0 200.5 -34.5t102.5 -109.5v535l197 16v-1535z
M828 255v583q0 87 -54 119.5t-203 32.5q-116 0 -172 -17q-46 -14 -62 -82.5t-16 -184.5q0 -169 6 -473q5 -66 53.5 -88.5t190.5 -22.5q140 0 195.5 28t61.5 105zM1166 1067q67 0 119.5 47t52.5 112q-63 0 -103.5 45t-40.5 109q0 67 39.5 111t107.5 44q64 0 102.5 -52.5
t38.5 -126.5q0 -84 -34 -167.5t-94.5 -138.5t-127.5 -55q-45 0 -60 4v68z" />
    <glyph glyph-name="Dcroat" unicode="&#x110;" horiz-adv-x="1444" 
d="M1278 876q0 -137 -1.5 -225.5t-9.5 -181t-17 -146.5t-33.5 -110.5t-48 -84t-71.5 -56.5t-94 -39t-124.5 -20t-154 -11.5t-191.5 -1.5h-362v689h-93v137h93v664h516q126 0 213 -10.5t155.5 -39t109.5 -71.5t67.5 -114.5t36 -160.5t9.5 -218zM1077 873q0 92 -0.5 132.5
t-7 101.5t-18 83.5t-36.5 57.5t-58.5 44.5t-88 24t-121.5 17t-163 2.5h-210v-510h268v-137h-268v-536h240q86 0 134 1.5t104 8.5t82.5 18.5t57.5 36t43 56t24 83t15 113.5t3 150v253z" />
    <glyph glyph-name="dcroat" unicode="&#x111;" horiz-adv-x="1209" 
d="M113 371v407q0 190 92 272.5t305 82.5q137 0 208 -34.5t100 -112.5v275h-257v103h257v178h195v-178h145v-103h-145v-1261h-175l-22 144q-50 -158 -326 -158q-112 0 -184.5 21.5t-115.5 70t-60 118t-17 175.5zM560 1005q-67 0 -101.5 -1.5t-69.5 -8t-49 -20t-23 -36.5
t-9 -60v-658q0 -66 48 -86.5t203 -20.5q153 0 206 26t53 106v620q0 86 -49.5 112.5t-208.5 26.5z" />
    <glyph glyph-name="Emacron" unicode="&#x112;" horiz-adv-x="1148" 
d="M166 0zM1010 0h-844v1490h835l20 -154h-652v-479h557v-162h-557v-542h661zM290 1743h597v-127h-597v127z" />
    <glyph glyph-name="emacron" unicode="&#x113;" horiz-adv-x="1141" 
d="M124 0zM1014 564q-120 -12 -149 -14h-545q1 -145 8 -318q5 -67 57.5 -88.5t204.5 -21.5q57 0 98 4.5t66.5 16t40 22t21.5 33t9 38t4 47t5 51.5l153 -28q-2 -70 -10 -118.5t-27 -85.5t-45 -58.5t-70 -35.5t-97 -18.5t-131 -4.5q-100 0 -174 11.5t-126.5 28.5t-86.5 55.5
t-53.5 73.5t-28.5 103t-11.5 123.5t-2.5 153.5q0 138 3.5 215t19.5 154.5t43 112.5t80 65t125 38.5t183 8.5q77 0 133 -4.5t103 -18.5t77.5 -32t54 -53t36 -72.5t20.5 -99.5t10 -125.5t2 -158.5zM321 655h496q-2 128 -10 234q-4 61 -52.5 81.5t-177.5 20.5q-143 0 -181 -16
q-17 -5 -29.5 -17.5t-20.5 -35.5t-12.5 -43t-7 -55.5t-3.5 -55t-1.5 -59.5t-0.5 -54zM275 1357h597v-127h-597v127z" />
    <glyph glyph-name="Ebreve" unicode="&#x114;" horiz-adv-x="1148" 
d="M166 0zM1010 0h-844v1490h835l20 -154h-652v-479h557v-162h-557v-542h661zM293 1916h142q-1 -3 -1 -12q0 -92 31.5 -127t122.5 -35q92 0 123 36.5t31 137.5h142q0 -169 -76.5 -234.5t-256.5 -65.5q-118 0 -188 71.5t-70 228.5z" />
    <glyph glyph-name="ebreve" unicode="&#x115;" horiz-adv-x="1141" 
d="M124 0zM1014 564q-120 -12 -149 -14h-545q1 -145 8 -318q5 -67 57.5 -88.5t204.5 -21.5q57 0 98 4.5t66.5 16t40 22t21.5 33t9 38t4 47t5 51.5l153 -28q-2 -70 -10 -118.5t-27 -85.5t-45 -58.5t-70 -35.5t-97 -18.5t-131 -4.5q-100 0 -174 11.5t-126.5 28.5t-86.5 55.5
t-53.5 73.5t-28.5 103t-11.5 123.5t-2.5 153.5q0 138 3.5 215t19.5 154.5t43 112.5t80 65t125 38.5t183 8.5q77 0 133 -4.5t103 -18.5t77.5 -32t54 -53t36 -72.5t20.5 -99.5t10 -125.5t2 -158.5zM321 655h496q-2 128 -10 234q-4 61 -52.5 81.5t-177.5 20.5q-143 0 -181 -16
q-17 -5 -29.5 -17.5t-20.5 -35.5t-12.5 -43t-7 -55.5t-3.5 -55t-1.5 -59.5t-0.5 -54zM277 1530h142q-1 -3 -1 -12q0 -92 31.5 -127t122.5 -35q92 0 123 36.5t31 137.5h142q0 -169 -76.5 -234.5t-256.5 -65.5q-118 0 -188 71.5t-70 228.5z" />
    <glyph glyph-name="Edotaccent" unicode="&#x116;" horiz-adv-x="1148" 
d="M166 0zM1010 0h-844v1490h835l20 -154h-652v-479h557v-162h-557v-542h661zM490 1616q0 38 0.5 114t0.5 114h196q0 -38 0.5 -114t0.5 -114h-198z" />
    <glyph glyph-name="edotaccent" unicode="&#x117;" horiz-adv-x="1141" 
d="M124 0zM1014 564q-120 -12 -149 -14h-545q1 -145 8 -318q5 -67 57.5 -88.5t204.5 -21.5q57 0 98 4.5t66.5 16t40 22t21.5 33t9 38t4 47t5 51.5l153 -28q-2 -70 -10 -118.5t-27 -85.5t-45 -58.5t-70 -35.5t-97 -18.5t-131 -4.5q-100 0 -174 11.5t-126.5 28.5t-86.5 55.5
t-53.5 73.5t-28.5 103t-11.5 123.5t-2.5 153.5q0 138 3.5 215t19.5 154.5t43 112.5t80 65t125 38.5t183 8.5q77 0 133 -4.5t103 -18.5t77.5 -32t54 -53t36 -72.5t20.5 -99.5t10 -125.5t2 -158.5zM321 655h496q-2 128 -10 234q-4 61 -52.5 81.5t-177.5 20.5q-143 0 -181 -16
q-17 -5 -29.5 -17.5t-20.5 -35.5t-12.5 -43t-7 -55.5t-3.5 -55t-1.5 -59.5t-0.5 -54zM474 1230q0 38 0.5 114t0.5 114h196q0 -38 0.5 -114t0.5 -114h-198z" />
    <glyph glyph-name="Eogonek" unicode="&#x118;" horiz-adv-x="1148" 
d="M166 0zM1010 0h-844v1490h835l20 -154h-652v-479h557v-162h-557v-542h661zM593 18h108q-82 -84 -131.5 -174t-49.5 -167q0 -86 83 -86q63 0 164 46l35 -78q-32 -36 -117.5 -65.5t-168.5 -29.5q-82 0 -133.5 34.5t-51.5 110.5q0 43 13 84.5t30.5 74t57.5 79.5t69.5 78
t91.5 93z" />
    <glyph glyph-name="eogonek" unicode="&#x119;" horiz-adv-x="1141" 
d="M124 0zM1014 564q-120 -12 -149 -14h-545q1 -145 8 -318q5 -67 57.5 -88.5t204.5 -21.5q57 0 98 4.5t66.5 16t40 22t21.5 33t9 38t4 47t5 51.5l153 -28q-2 -70 -10 -118.5t-27 -85.5t-45 -58.5t-70 -35.5t-97 -18.5t-131 -4.5q-100 0 -174 11.5t-126.5 28.5t-86.5 55.5
t-53.5 73.5t-28.5 103t-11.5 123.5t-2.5 153.5q0 138 3.5 215t19.5 154.5t43 112.5t80 65t125 38.5t183 8.5q77 0 133 -4.5t103 -18.5t77.5 -32t54 -53t36 -72.5t20.5 -99.5t10 -125.5t2 -158.5zM321 655h496q-2 128 -10 234q-4 61 -52.5 81.5t-177.5 20.5q-143 0 -181 -16
q-17 -5 -29.5 -17.5t-20.5 -35.5t-12.5 -43t-7 -55.5t-3.5 -55t-1.5 -59.5t-0.5 -54zM548 3h108q-82 -84 -131.5 -174t-49.5 -167q0 -86 83 -86q63 0 164 46l35 -78q-32 -36 -117.5 -65.5t-168.5 -29.5q-82 0 -133.5 34.5t-51.5 110.5q0 43 13 84.5t30.5 74t57.5 79.5
t69.5 78t91.5 93z" />
    <glyph glyph-name="Ecaron" unicode="&#x11a;" horiz-adv-x="1148" 
d="M166 0zM1010 0h-844v1490h835l20 -154h-652v-479h557v-162h-557v-542h661zM358 2031l231 -236l231 236l55 -54l-192 -309q-35 -52 -94 -52t-94 52l-192 309z" />
    <glyph glyph-name="ecaron" unicode="&#x11b;" horiz-adv-x="1141" 
d="M124 0zM1014 564q-120 -12 -149 -14h-545q1 -145 8 -318q5 -67 57.5 -88.5t204.5 -21.5q57 0 98 4.5t66.5 16t40 22t21.5 33t9 38t4 47t5 51.5l153 -28q-2 -70 -10 -118.5t-27 -85.5t-45 -58.5t-70 -35.5t-97 -18.5t-131 -4.5q-100 0 -174 11.5t-126.5 28.5t-86.5 55.5
t-53.5 73.5t-28.5 103t-11.5 123.5t-2.5 153.5q0 138 3.5 215t19.5 154.5t43 112.5t80 65t125 38.5t183 8.5q77 0 133 -4.5t103 -18.5t77.5 -32t54 -53t36 -72.5t20.5 -99.5t10 -125.5t2 -158.5zM321 655h496q-2 128 -10 234q-4 61 -52.5 81.5t-177.5 20.5q-143 0 -181 -16
q-17 -5 -29.5 -17.5t-20.5 -35.5t-12.5 -43t-7 -55.5t-3.5 -55t-1.5 -59.5t-0.5 -54zM342 1645l231 -236l231 236l55 -54l-192 -309q-35 -52 -94 -52t-94 52l-192 309z" />
    <glyph glyph-name="Gcircumflex" unicode="&#x11c;" horiz-adv-x="1387" 
d="M132 0zM1236 745v-639q-142 -130 -575 -130q-85 0 -149.5 7t-118 18t-91.5 37.5t-67 53.5t-47 78.5t-29.5 99.5t-17 129t-7.5 155t-2 190q0 99 1.5 169t7 143t15 121.5t26 98t38.5 80t55 60.5t73.5 46t94.5 29t118 17.5t145 4.5h15q70 0 106 -1t97.5 -7.5t94.5 -20
t76 -40t64 -65t37 -97.5t16 -136q0 -18 -2 -50l-179 -34l-11 197q-2 64 -73 82.5t-269 18.5q-135 0 -204 -16.5t-96 -50.5t-33 -101q-9 -205 -9 -420q0 -216 9 -420q5 -108 17 -140q19 -49 87 -66q64 -16 223 -16q342 0 379 46q-1 103 -1 418h-252l-17 151h455zM723 1852
l-231 -236l-55 54l192 309q35 52 94 52t94 -52l192 -309l-55 -54z" />
    <glyph glyph-name="gcircumflex" unicode="&#x11d;" horiz-adv-x="1173" 
d="M124 0zM1018 1097v-958q0 -99 -6.5 -167t-24 -127t-47.5 -94.5t-79.5 -61.5t-116.5 -36t-161 -10q-196 0 -312 41l13 136q112 -31 266 -31q73 0 123.5 8t79 20t44 34.5t20 44.5t4.5 56l-1 179q-27 -70 -93 -102t-186 -32q-86 0 -150 12t-109 30t-74.5 56.5t-46.5 73
t-25 99t-10 116t-2 140.5q0 113 2 177t9 138.5t23 112.5t41.5 77.5t66.5 56.5t96.5 28t132.5 11q131 0 210 -35.5t115 -114.5l19 122h179zM821 223v610q0 84 -55.5 120.5t-198.5 36.5q-140 0 -192 -25q-56 -27 -56 -219q0 -289 8 -504q3 -47 24.5 -69t73.5 -30.5t163 -8.5
q223 0 233 89zM490 1466l-231 -236l-55 54l192 309q35 52 94 52t94 -52l192 -309l-55 -54z" />
    <glyph glyph-name="Gbreve" unicode="&#x11e;" horiz-adv-x="1387" 
d="M132 0zM1236 745v-639q-142 -130 -575 -130q-85 0 -149.5 7t-118 18t-91.5 37.5t-67 53.5t-47 78.5t-29.5 99.5t-17 129t-7.5 155t-2 190q0 99 1.5 169t7 143t15 121.5t26 98t38.5 80t55 60.5t73.5 46t94.5 29t118 17.5t145 4.5h15q70 0 106 -1t97.5 -7.5t94.5 -20
t76 -40t64 -65t37 -97.5t16 -136q0 -18 -2 -50l-179 -34l-11 197q-2 64 -73 82.5t-269 18.5q-135 0 -204 -16.5t-96 -50.5t-33 -101q-9 -205 -9 -420q0 -216 9 -420q5 -108 17 -140q19 -49 87 -66q64 -16 223 -16q342 0 379 46q-1 103 -1 418h-252l-17 151h455zM428 1916
h142q-1 -3 -1 -12q0 -92 31.5 -127t122.5 -35q92 0 123 36.5t31 137.5h142q0 -169 -76.5 -234.5t-256.5 -65.5q-118 0 -188 71.5t-70 228.5z" />
    <glyph glyph-name="gbreve" unicode="&#x11f;" horiz-adv-x="1173" 
d="M124 0zM1018 1097v-958q0 -99 -6.5 -167t-24 -127t-47.5 -94.5t-79.5 -61.5t-116.5 -36t-161 -10q-196 0 -312 41l13 136q112 -31 266 -31q73 0 123.5 8t79 20t44 34.5t20 44.5t4.5 56l-1 179q-27 -70 -93 -102t-186 -32q-86 0 -150 12t-109 30t-74.5 56.5t-46.5 73
t-25 99t-10 116t-2 140.5q0 113 2 177t9 138.5t23 112.5t41.5 77.5t66.5 56.5t96.5 28t132.5 11q131 0 210 -35.5t115 -114.5l19 122h179zM821 223v610q0 84 -55.5 120.5t-198.5 36.5q-140 0 -192 -25q-56 -27 -56 -219q0 -289 8 -504q3 -47 24.5 -69t73.5 -30.5t163 -8.5
q223 0 233 89zM195 1530h142q-1 -3 -1 -12q0 -92 31.5 -127t122.5 -35q92 0 123 36.5t31 137.5h142q0 -169 -76.5 -234.5t-256.5 -65.5q-118 0 -188 71.5t-70 228.5z" />
    <glyph glyph-name="Gdotaccent" unicode="&#x120;" horiz-adv-x="1387" 
d="M132 0zM1236 745v-639q-142 -130 -575 -130q-85 0 -149.5 7t-118 18t-91.5 37.5t-67 53.5t-47 78.5t-29.5 99.5t-17 129t-7.5 155t-2 190q0 99 1.5 169t7 143t15 121.5t26 98t38.5 80t55 60.5t73.5 46t94.5 29t118 17.5t145 4.5h15q70 0 106 -1t97.5 -7.5t94.5 -20
t76 -40t64 -65t37 -97.5t16 -136q0 -18 -2 -50l-179 -34l-11 197q-2 64 -73 82.5t-269 18.5q-135 0 -204 -16.5t-96 -50.5t-33 -101q-9 -205 -9 -420q0 -216 9 -420q5 -108 17 -140q19 -49 87 -66q64 -16 223 -16q342 0 379 46q-1 103 -1 418h-252l-17 151h455zM624 1616
q0 38 0.5 114t0.5 114h196q0 -38 0.5 -114t0.5 -114h-198z" />
    <glyph glyph-name="gdotaccent" unicode="&#x121;" horiz-adv-x="1173" 
d="M124 0zM1018 1097v-958q0 -99 -6.5 -167t-24 -127t-47.5 -94.5t-79.5 -61.5t-116.5 -36t-161 -10q-196 0 -312 41l13 136q112 -31 266 -31q73 0 123.5 8t79 20t44 34.5t20 44.5t4.5 56l-1 179q-27 -70 -93 -102t-186 -32q-86 0 -150 12t-109 30t-74.5 56.5t-46.5 73
t-25 99t-10 116t-2 140.5q0 113 2 177t9 138.5t23 112.5t41.5 77.5t66.5 56.5t96.5 28t132.5 11q131 0 210 -35.5t115 -114.5l19 122h179zM821 223v610q0 84 -55.5 120.5t-198.5 36.5q-140 0 -192 -25q-56 -27 -56 -219q0 -289 8 -504q3 -47 24.5 -69t73.5 -30.5t163 -8.5
q223 0 233 89zM391 1230q0 38 0.5 114t0.5 114h196q0 -38 0.5 -114t0.5 -114h-198z" />
    <glyph glyph-name="uni0122" unicode="&#x122;" horiz-adv-x="1387" 
d="M132 0zM1236 745v-639q-142 -130 -575 -130q-85 0 -149.5 7t-118 18t-91.5 37.5t-67 53.5t-47 78.5t-29.5 99.5t-17 129t-7.5 155t-2 190q0 99 1.5 169t7 143t15 121.5t26 98t38.5 80t55 60.5t73.5 46t94.5 29t118 17.5t145 4.5h15q70 0 106 -1t97.5 -7.5t94.5 -20
t76 -40t64 -65t37 -97.5t16 -136q0 -18 -2 -50l-179 -34l-11 197q-2 64 -73 82.5t-269 18.5q-135 0 -204 -16.5t-96 -50.5t-33 -101q-9 -205 -9 -420q0 -216 9 -420q5 -108 17 -140q19 -49 87 -66q64 -16 223 -16q342 0 379 46q-1 103 -1 418h-252l-17 151h455zM655 -126
q79 0 125.5 -59t46.5 -157q0 -133 -90.5 -234t-222.5 -101v60q57 2 92.5 48.5t35.5 116.5q-142 7 -142 170q0 50 44 103t111 53z" />
    <glyph glyph-name="uni0123" unicode="&#x123;" horiz-adv-x="1169" 
d="M1009 1097v-958q0 -99 -6.5 -167t-24 -127t-47.5 -94.5t-79.5 -61.5t-116.5 -36t-161 -10q-196 0 -312 41l13 136q112 -31 266 -31q73 0 123.5 8t79 20t44 34.5t20 44.5t4.5 56q0 11 -0.5 36t-0.5 38v105q-27 -70 -93 -102t-186 -32q-86 0 -150 12t-109 30t-74.5 56.5
t-46.5 73t-25 99t-10 116t-2 140.5q0 113 2 177t9 138.5t23 112.5t41.5 77.5t66.5 56.5t96.5 28t132.5 11q131 0 210 -35.5t115 -114.5l19 122h179zM812 223v610q0 84 -55.5 120.5t-198.5 36.5q-140 0 -192 -25q-56 -27 -56 -219q0 -289 8 -504q3 -47 24.5 -69t73.5 -30.5
t163 -8.5q223 0 233 89zM569 1819q79 0 125.5 -59t46.5 -157q0 -133 -90.5 -234t-222.5 -101v60q57 2 92.5 48.5t35.5 116.5q-142 7 -142 170q0 50 44 103t111 53z" />
    <glyph glyph-name="Hcircumflex" unicode="&#x124;" horiz-adv-x="1414" 
d="M166 0zM1238 0h-203v684h-666v-684h-203v1490h203v-648h666v648h203v-1490zM707 1852l-231 -236l-55 54l192 309q35 52 94 52t94 -52l192 -309l-55 -54z" />
    <glyph glyph-name="hcircumflex" unicode="&#x125;" horiz-adv-x="1191" 
d="M155 0zM1030 0h-197v666q0 36 1.5 91t1.5 73q0 50 -7.5 77t-34.5 48t-76 28t-134 7q-40 0 -75.5 -4.5t-67.5 -15t-52 -29.5t-22 -45q-14 -180 -14 -324v-572h-198v1486l198 16v-488q72 114 298 114q59 -1 106.5 -7.5t84.5 -15.5t65 -25t48 -33t34 -42.5t22 -49.5
t12.5 -59t6 -65.5t1.5 -74.5q0 -19 -0.5 -61.5t-0.5 -65.5v-629zM604 1840l-231 -236l-55 54l192 309q35 52 94 52t94 -52l192 -309l-55 -54z" />
    <glyph glyph-name="Hbar" unicode="&#x126;" horiz-adv-x="1406" 
d="M1243 0h-203v684h-666v-684h-203v1083h-78v106h78v301h203v-301h666v301h203v-301h77v-106h-77v-1083zM374 1083v-241h666v241h-666z" />
    <glyph glyph-name="hbar" unicode="&#x127;" horiz-adv-x="1195" 
d="M1061 0h-197v666q0 36 0.5 91t0.5 73q0 50 -7.5 77t-34.5 48t-75.5 28t-133.5 7q-40 0 -75.5 -4.5t-67.5 -15t-52 -29.5t-22 -45q-14 -180 -14 -324v-572h-198v1245h-149v127h149v114l198 16v-130h250v-127h-250v-231q72 114 298 114q59 -1 106.5 -7.5t84.5 -15.5t65 -25
t48 -33t34 -42.5t22 -49.5t12.5 -59t6 -65.5t1.5 -74.5v-756z" />
    <glyph glyph-name="Itilde" unicode="&#x128;" horiz-adv-x="547" 
d="M0 0zM375 0h-203v1490h203v-1490zM612 1801q-51 -185 -227 -185q-53 0 -143 42t-132 42q-78 0 -146 -63l-29 43q49 156 209 156q53 0 99.5 -17t83.5 -34t66 -17q82 0 185 83z" />
    <glyph glyph-name="itilde" unicode="&#x129;" 
d="M0 0zM364 0h-197v1097h197v-1097zM604 1415q-51 -185 -227 -185q-53 0 -143 42t-132 42q-78 0 -146 -63l-29 43q49 156 209 156q53 0 99.5 -17t83.5 -34t66 -17q82 0 185 83z" />
    <glyph glyph-name="Imacron" unicode="&#x12a;" horiz-adv-x="547" 
d="M0 0zM375 0h-203v1490h203v-1490zM-25 1743h597v-127h-597v127z" />
    <glyph glyph-name="imacron" unicode="&#x12b;" 
d="M0 0zM364 0h-197v1097h197v-1097zM-33 1357h597v-127h-597v127z" />
    <glyph glyph-name="Ibreve" unicode="&#x12c;" horiz-adv-x="547" 
d="M0 0zM375 0h-203v1490h203v-1490zM-22 1916h142q-1 -3 -1 -12q0 -92 31.5 -127t122.5 -35q92 0 123 36.5t31 137.5h142q0 -169 -76.5 -234.5t-256.5 -65.5q-118 0 -188 71.5t-70 228.5z" />
    <glyph glyph-name="ibreve" unicode="&#x12d;" 
d="M0 0zM364 0h-197v1097h197v-1097zM-30 1530h142q-1 -3 -1 -12q0 -92 31.5 -127t122.5 -35q92 0 123 36.5t31 137.5h142q0 -169 -76.5 -234.5t-256.5 -65.5q-118 0 -188 71.5t-70 228.5z" />
    <glyph glyph-name="Iogonek" unicode="&#x12e;" horiz-adv-x="547" 
d="M0 0zM375 0h-203v1490h203v-1490zM220 18h108q-82 -84 -131.5 -174t-49.5 -167q0 -86 83 -86q63 0 164 46l35 -78q-32 -36 -117.5 -65.5t-168.5 -29.5q-82 0 -133.5 34.5t-51.5 110.5q0 43 13 84.5t30.5 74t57.5 79.5t69.5 78t91.5 93z" />
    <glyph glyph-name="iogonek" unicode="&#x12f;" 
d="M0 0zM360 0h-197v1097h197v-1097zM360 1521v-173h-197v173h197zM212 18h108q-82 -84 -131.5 -174t-49.5 -167q0 -86 83 -86q63 0 164 46l35 -78q-32 -36 -117.5 -65.5t-168.5 -29.5q-82 0 -133.5 34.5t-51.5 110.5q0 43 13 84.5t30.5 74t57.5 79.5t69.5 78t91.5 93z" />
    <glyph glyph-name="Idotaccent" unicode="&#x130;" horiz-adv-x="547" 
d="M172 0zM375 0h-203v1490h203v-1490zM174 1616q0 38 0.5 114t0.5 114h196q0 -38 0.5 -114t0.5 -114h-198z" />
    <glyph glyph-name="dotlessi" unicode="&#x131;" 
d="M364 0h-197v1097h197v-1097z" />
    <glyph glyph-name="IJ" unicode="&#x132;" horiz-adv-x="1273" 
d="M172 0zM375 0h-203v1490h203v-1490zM1107 1490v-1058q0 -61 -1 -100.5t-4.5 -88t-11 -79t-19.5 -64.5t-30.5 -54t-44.5 -37.5t-61 -25t-79 -7.5q-121 0 -238 53l21 154q92 -35 155 -35q65 0 87.5 41t22.5 118v1183h203z" />
    <glyph glyph-name="ij" unicode="&#x133;" horiz-adv-x="1048" 
d="M163 0zM360 0h-197v1097h197v-1097zM360 1521v-173h-197v173h197zM878 1097v-1036q0 -200 -54.5 -281.5t-200.5 -81.5q-44 0 -106 8l-5 122q12 1 34.5 1t35 0.5t30.5 3.5t28.5 10t21 18t15 30t4.5 45v1161h197zM879 1521v-173h-199v173h199z" />
    <glyph glyph-name="Jcircumflex" unicode="&#x134;" horiz-adv-x="726" 
d="M71 0zM560 1490v-1058q0 -61 -1 -100.5t-4.5 -88t-11 -79t-19.5 -64.5t-30.5 -54t-44.5 -37.5t-61 -25t-79 -7.5q-121 0 -238 53l21 154q92 -35 155 -35q65 0 87.5 41t22.5 118v1183h203zM459 1852l-231 -236l-55 54l192 309q35 52 94 52t94 -52l192 -309l-55 -54z" />
    <glyph glyph-name="jcircumflex" unicode="&#x135;" horiz-adv-x="515" 
d="M0 0zM345 1097v-1036q0 -200 -54.5 -281.5t-200.5 -81.5q-44 0 -106 8l-5 122q12 1 34.5 1t35 0.5t30.5 3.5t28.5 10t21 18t15 30t4.5 45v1161h197zM247 1466l-231 -236l-55 54l192 309q35 52 94 52t94 -52l192 -309l-55 -54z" />
    <glyph glyph-name="uni0136" unicode="&#x136;" horiz-adv-x="1248" 
d="M166 0zM1228 0h-245l-537 732l-78 -93v-639h-202v1490h202v-507q0 -29 -0.5 -91.5t-0.5 -89.5q15 19 115 147l439 541h241l-558 -661zM687 -102q79 0 125.5 -59t46.5 -157q0 -133 -90.5 -234t-222.5 -101v60q57 2 92.5 48.5t35.5 116.5q-142 7 -142 170q0 50 44 103
t111 53z" />
    <glyph glyph-name="uni0137" unicode="&#x137;" horiz-adv-x="1110" 
d="M155 0zM1044 0h-217l-382 572l-92 -103v-469h-198v1486l198 16v-720q0 -25 -0.5 -79t-0.5 -78q32 34 91.5 100t79.5 87l261 285h224l-413 -439zM602 -102q79 0 125.5 -59t46.5 -157q0 -133 -90.5 -234t-222.5 -101v60q57 2 92.5 48.5t35.5 116.5q-142 7 -142 170
q0 50 44 103t111 53z" />
    <glyph glyph-name="kgreenlandic" unicode="&#x138;" horiz-adv-x="1115" 
d="M1055 0h-217l-382 542l-92 -103v-439h-198v1082l198 16v-346q0 -25 -0.5 -79t-0.5 -78q32 34 91.5 100t79.5 87l261 315h224l-413 -469z" />
    <glyph glyph-name="Lacute" unicode="&#x139;" horiz-adv-x="1025" 
d="M166 0zM923 0h-757v1490h203v-1337h574zM614 1934q40 35 84 35q47 0 75 -29.5t28 -70.5q0 -31 -18 -60t-53 -44q-11 -5 -110 -42t-192 -72l-93 -35l-17 21q257 266 296 297z" />
    <glyph glyph-name="lacute" unicode="&#x13a;" 
d="M123 0zM359 0h-197v1486l197 16v-1502zM419 1922q40 35 84 35q47 0 75 -29.5t28 -70.5q0 -31 -18 -60t-53 -44q-11 -5 -110 -42t-192 -72l-93 -35l-17 21q257 266 296 297z" />
    <glyph glyph-name="uni013B" unicode="&#x13b;" horiz-adv-x="1025" 
d="M166 0zM923 0h-757v1490h203v-1337h574zM541 -102q79 0 125.5 -59t46.5 -157q0 -133 -90.5 -234t-222.5 -101v60q57 2 92.5 48.5t35.5 116.5q-142 7 -142 170q0 50 44 103t111 53z" />
    <glyph glyph-name="uni013C" unicode="&#x13c;" 
d="M103 0zM359 0h-197v1486l197 16v-1502zM258 -102q79 0 125.5 -59t46.5 -157q0 -133 -90.5 -234t-222.5 -101v60q57 2 92.5 48.5t35.5 116.5q-142 7 -142 170q0 50 44 103t111 53z" />
    <glyph glyph-name="Lcaron" unicode="&#x13d;" horiz-adv-x="1025" 
d="M166 0zM923 0h-757v1490h203v-1337h574zM615 1046q67 0 119.5 47t52.5 112q-63 0 -103.5 45t-40.5 109q0 67 39.5 111t107.5 44q64 0 102.5 -52.5t38.5 -126.5q0 -84 -34 -167.5t-94.5 -138.5t-127.5 -55q-45 0 -60 4v68z" />
    <glyph glyph-name="lcaron" unicode="&#x13e;" 
d="M162 0zM359 0h-197v1486l197 16v-1502zM518 1034q67 0 119.5 47t52.5 112q-63 0 -103.5 45t-40.5 109q0 67 39.5 111t107.5 44q64 0 102.5 -52.5t38.5 -126.5q0 -84 -34 -167.5t-94.5 -138.5t-127.5 -55q-45 0 -60 4v68z" />
    <glyph glyph-name="Ldot" unicode="&#x13f;" horiz-adv-x="1025" 
d="M166 0zM923 0h-757v1490h203v-1337h574zM748 603q-60 0 -100 44.5t-40 109.5q0 68 37.5 111t102.5 43q61 0 100.5 -44t39.5 -110q0 -68 -37.5 -111t-102.5 -43z" />
    <glyph glyph-name="ldot" unicode="&#x140;" horiz-adv-x="1059" 
d="M162 0zM359 0h-197v1486l197 16v-1502zM798 528q-60 0 -100 44.5t-40 109.5q0 68 37.5 111t102.5 43q61 0 100.5 -44t39.5 -110q0 -68 -37.5 -111t-102.5 -43z" />
    <glyph glyph-name="Lslash" unicode="&#x141;" horiz-adv-x="1070" 
d="M990 0h-777v610l-134 -70v193l134 70v687h203v-583l297 153v-193l-297 -153v-543h574v-171z" />
    <glyph glyph-name="lslash" unicode="&#x142;" horiz-adv-x="682" 
d="M583 848l-162 -97v-751h-196v635l-154 -90v193l154 91v699l196 16v-599l162 96v-193z" />
    <glyph glyph-name="Nacute" unicode="&#x143;" horiz-adv-x="1441" 
d="M166 0zM1265 0h-211l-710 1177v-1177h-178v1490h205l716 -1193v1193h178v-1490zM775 1934q40 35 84 35q47 0 75 -29.5t28 -70.5q0 -31 -18 -60t-53 -44q-11 -5 -110 -42t-192 -72l-93 -35l-17 21q257 266 296 297z" />
    <glyph glyph-name="nacute" unicode="&#x144;" horiz-adv-x="1171" 
d="M153 0zM1021 0h-197v664q0 64 -0.5 102.5t-4 77.5t-7.5 58.5t-14.5 39t-21.5 26.5t-32 13.5t-42 7.5t-56 1q-76 0 -129.5 -8.5t-87.5 -23.5t-52.5 -42t-25.5 -58.5t-7 -77.5q0 -26 3 -90.5t3 -104.5v-585h-197v1097h180l19 -123q26 82 115 118t212 36q58 0 103 -7
t80 -23.5t60.5 -37.5t43 -55.5t28.5 -70.5t17 -90t8 -107.5t2 -127.5v-609zM641 1548q40 35 84 35q47 0 75 -29.5t28 -70.5q0 -31 -18 -60t-53 -44q-11 -5 -110 -42t-192 -72l-93 -35l-17 21q257 266 296 297z" />
    <glyph glyph-name="uni0145" unicode="&#x145;" horiz-adv-x="1441" 
d="M166 0zM1265 0h-211l-710 1177v-1177h-178v1490h205l716 -1193v1193h178v-1490zM712 -102q79 0 125.5 -59t46.5 -157q0 -133 -90.5 -234t-222.5 -101v60q57 2 92.5 48.5t35.5 116.5q-142 7 -142 170q0 50 44 103t111 53z" />
    <glyph glyph-name="uni0146" unicode="&#x146;" horiz-adv-x="1171" 
d="M153 0zM1021 0h-197v664q0 64 -0.5 102.5t-4 77.5t-7.5 58.5t-14.5 39t-21.5 26.5t-32 13.5t-42 7.5t-56 1q-76 0 -129.5 -8.5t-87.5 -23.5t-52.5 -42t-25.5 -58.5t-7 -77.5q0 -26 3 -90.5t3 -104.5v-585h-197v1097h180l19 -123q26 82 115 118t212 36q58 0 103 -7
t80 -23.5t60.5 -37.5t43 -55.5t28.5 -70.5t17 -90t8 -107.5t2 -127.5v-609zM579 -102q79 0 125.5 -59t46.5 -157q0 -133 -90.5 -234t-222.5 -101v60q57 2 92.5 48.5t35.5 116.5q-142 7 -142 170q0 50 44 103t111 53z" />
    <glyph glyph-name="Ncaron" unicode="&#x147;" horiz-adv-x="1441" 
d="M166 0zM1265 0h-211l-710 1177v-1177h-178v1490h205l716 -1193v1193h178v-1490zM490 2031l231 -236l231 236l55 -54l-192 -309q-35 -52 -94 -52t-94 52l-192 309z" />
    <glyph glyph-name="ncaron" unicode="&#x148;" horiz-adv-x="1171" 
d="M153 0zM1021 0h-197v664q0 64 -0.5 102.5t-4 77.5t-7.5 58.5t-14.5 39t-21.5 26.5t-32 13.5t-42 7.5t-56 1q-76 0 -129.5 -8.5t-87.5 -23.5t-52.5 -42t-25.5 -58.5t-7 -77.5q0 -26 3 -90.5t3 -104.5v-585h-197v1097h180l19 -123q26 82 115 118t212 36q58 0 103 -7
t80 -23.5t60.5 -37.5t43 -55.5t28.5 -70.5t17 -90t8 -107.5t2 -127.5v-609zM356 1645l231 -236l231 236l55 -54l-192 -309q-35 -52 -94 -52t-94 52l-192 309z" />
    <glyph glyph-name="Omacron" unicode="&#x14c;" horiz-adv-x="1438" 
d="M132 0zM710 -24q-87 0 -154.5 4t-124.5 19.5t-97.5 28.5t-73 49.5t-53.5 63t-36 88t-22 105t-11.5 134.5t-5 156t-0.5 188q0 148 8 246t31.5 182t62 132t105 82.5t155 47t216.5 12.5q121 0 207 -12t152.5 -42.5t107 -76t66.5 -119.5t35.5 -165.5t9.5 -222.5
q0 -370 -11 -487q-19 -200 -92 -286q-77 -92 -262 -116q-88 -11 -213 -11zM710 1360q-86 0 -143 -4t-99.5 -17t-65.5 -29t-37.5 -49.5t-19 -68.5t-6.5 -95q-3 -185 -3 -372q0 -282 15 -386q24 -156 91 -180q50 -29 268 -29t268 29q19 7 34.5 23t26 43t18.5 54.5t13 70.5
t8 77.5t4 88t1.5 88.5t0.5 93q0 202 -3 400q-2 60 -6.5 95t-19 68.5t-37.5 49.5t-65.5 29t-99.5 17t-143 4zM417 1743h597v-127h-597v127z" />
    <glyph glyph-name="omacron" unicode="&#x14d;" horiz-adv-x="1178" 
d="M124 0zM587 123q142 3 197.5 21t55.5 71q11 143 11 331q0 62 -5 177.5t-5 171.5q0 17 -5.5 31t-18 23.5t-25 16.5t-35 11t-38 7t-44 4t-44 1h-45.5h-45.5t-44 -1t-44 -4t-38 -7t-35 -11t-25 -16.5t-18 -23.5t-5.5 -31q0 -56 -5 -171.5t-5 -177.5q0 -188 11 -331
q0 -53 58.5 -72.5t196.5 -19.5zM585 -15q-111 0 -185 9t-127.5 39.5t-81.5 65t-44 109t-19.5 147.5t-3.5 203q0 97 2.5 162t11.5 127.5t22.5 101t39 73t57.5 52.5t81.5 31.5t108 18t139.5 4.5t139.5 -4.5t108 -18t81.5 -31.5t57.5 -52.5t39 -73t22.5 -101t11.5 -127.5
t2.5 -162q0 -130 -3.5 -203t-19.5 -147.5t-44.5 -109.5t-82 -65t-127.5 -39t-186 -9zM283 1357h597v-127h-597v127z" />
    <glyph glyph-name="Obreve" unicode="&#x14e;" horiz-adv-x="1438" 
d="M132 0zM710 -24q-87 0 -154.5 4t-124.5 19.5t-97.5 28.5t-73 49.5t-53.5 63t-36 88t-22 105t-11.5 134.5t-5 156t-0.5 188q0 148 8 246t31.5 182t62 132t105 82.5t155 47t216.5 12.5q121 0 207 -12t152.5 -42.5t107 -76t66.5 -119.5t35.5 -165.5t9.5 -222.5
q0 -370 -11 -487q-19 -200 -92 -286q-77 -92 -262 -116q-88 -11 -213 -11zM710 1360q-86 0 -143 -4t-99.5 -17t-65.5 -29t-37.5 -49.5t-19 -68.5t-6.5 -95q-3 -185 -3 -372q0 -282 15 -386q24 -156 91 -180q50 -29 268 -29t268 29q19 7 34.5 23t26 43t18.5 54.5t13 70.5
t8 77.5t4 88t1.5 88.5t0.5 93q0 202 -3 400q-2 60 -6.5 95t-19 68.5t-37.5 49.5t-65.5 29t-99.5 17t-143 4zM419 1916h142q-1 -3 -1 -12q0 -92 31.5 -127t122.5 -35q92 0 123 36.5t31 137.5h142q0 -169 -76.5 -234.5t-256.5 -65.5q-118 0 -188 71.5t-70 228.5z" />
    <glyph glyph-name="obreve" unicode="&#x14f;" horiz-adv-x="1178" 
d="M124 0zM587 123q142 3 197.5 21t55.5 71q11 143 11 331q0 62 -5 177.5t-5 171.5q0 17 -5.5 31t-18 23.5t-25 16.5t-35 11t-38 7t-44 4t-44 1h-45.5h-45.5t-44 -1t-44 -4t-38 -7t-35 -11t-25 -16.5t-18 -23.5t-5.5 -31q0 -56 -5 -171.5t-5 -177.5q0 -188 11 -331
q0 -53 58.5 -72.5t196.5 -19.5zM585 -15q-111 0 -185 9t-127.5 39.5t-81.5 65t-44 109t-19.5 147.5t-3.5 203q0 97 2.5 162t11.5 127.5t22.5 101t39 73t57.5 52.5t81.5 31.5t108 18t139.5 4.5t139.5 -4.5t108 -18t81.5 -31.5t57.5 -52.5t39 -73t22.5 -101t11.5 -127.5
t2.5 -162q0 -130 -3.5 -203t-19.5 -147.5t-44.5 -109.5t-82 -65t-127.5 -39t-186 -9zM285 1530h142q-1 -3 -1 -12q0 -92 31.5 -127t122.5 -35q92 0 123 36.5t31 137.5h142q0 -169 -76.5 -234.5t-256.5 -65.5q-118 0 -188 71.5t-70 228.5z" />
    <glyph glyph-name="Ohungarumlaut" unicode="&#x150;" horiz-adv-x="1438" 
d="M132 0zM710 -24q-87 0 -154.5 4t-124.5 19.5t-97.5 28.5t-73 49.5t-53.5 63t-36 88t-22 105t-11.5 134.5t-5 156t-0.5 188q0 148 8 246t31.5 182t62 132t105 82.5t155 47t216.5 12.5q121 0 207 -12t152.5 -42.5t107 -76t66.5 -119.5t35.5 -165.5t9.5 -222.5
q0 -370 -11 -487q-19 -200 -92 -286q-77 -92 -262 -116q-88 -11 -213 -11zM710 1360q-86 0 -143 -4t-99.5 -17t-65.5 -29t-37.5 -49.5t-19 -68.5t-6.5 -95q-3 -185 -3 -372q0 -282 15 -386q24 -156 91 -180q50 -29 268 -29t268 29q19 7 34.5 23t26 43t18.5 54.5t13 70.5
t8 77.5t4 88t1.5 88.5t0.5 93q0 202 -3 400q-2 60 -6.5 95t-19 68.5t-37.5 49.5t-65.5 29t-99.5 17t-143 4zM708 1934q40 35 84 35q47 0 75 -29.5t28 -70.5q0 -31 -18 -60t-53 -44q-11 -5 -110 -42t-192 -72l-93 -35l-17 21q257 266 296 297zM1137 1934q40 35 84 35
q47 0 75 -29.5t28 -70.5q0 -31 -18 -60t-53 -44q-11 -5 -110 -42t-192 -72l-93 -35l-17 21q257 266 296 297z" />
    <glyph glyph-name="ohungarumlaut" unicode="&#x151;" horiz-adv-x="1178" 
d="M124 0zM587 123q142 3 197.5 21t55.5 71q11 143 11 331q0 62 -5 177.5t-5 171.5q0 17 -5.5 31t-18 23.5t-25 16.5t-35 11t-38 7t-44 4t-44 1h-45.5h-45.5t-44 -1t-44 -4t-38 -7t-35 -11t-25 -16.5t-18 -23.5t-5.5 -31q0 -56 -5 -171.5t-5 -177.5q0 -188 11 -331
q0 -53 58.5 -72.5t196.5 -19.5zM585 -15q-111 0 -185 9t-127.5 39.5t-81.5 65t-44 109t-19.5 147.5t-3.5 203q0 97 2.5 162t11.5 127.5t22.5 101t39 73t57.5 52.5t81.5 31.5t108 18t139.5 4.5t139.5 -4.5t108 -18t81.5 -31.5t57.5 -52.5t39 -73t22.5 -101t11.5 -127.5
t2.5 -162q0 -130 -3.5 -203t-19.5 -147.5t-44.5 -109.5t-82 -65t-127.5 -39t-186 -9zM565 1548q40 35 84 35q47 0 75 -29.5t28 -70.5q0 -31 -18 -60t-53 -44q-11 -5 -110 -42t-192 -72l-93 -35l-17 21q257 266 296 297zM994 1548q40 35 84 35q47 0 75 -29.5t28 -70.5
q0 -31 -18 -60t-53 -44q-11 -5 -110 -42t-192 -72l-93 -35l-17 21q257 266 296 297z" />
    <glyph glyph-name="OE" unicode="&#x152;" horiz-adv-x="2066" 
d="M1933 0h-1218q-87 0 -154.5 4t-124.5 19t-97.5 27.5t-73 48t-53.5 61t-36 85.5t-22 102t-11.5 130.5t-5 151.5t-0.5 183q0 142 8 237t31.5 176t62 127.5t105 80t155 45.5t216.5 12h1209l20 -154h-652v-479h557v-162h-557v-542h661zM715 1337q-65 0 -112 -2t-86 -8
t-64.5 -13.5t-45 -23t-30.5 -31t-18.5 -42t-10 -53t-4.5 -67.5q-3 -185 -3 -372v-13v-73t0.5 -70.5t2 -71t4 -65t6.5 -62.5t9.5 -54t13.5 -49.5t18 -37.5t23 -30t29 -16q50 -29 268 -29h374v1183h-374z" />
    <glyph glyph-name="oe" unicode="&#x153;" horiz-adv-x="1874" 
d="M1739 555q-40 -6 -120 -14h-579q0 -17 0.5 -51.5t1 -57.5t1.5 -56.5t3.5 -57.5t6 -52.5t9.5 -49t14.5 -39t20 -30t26.5 -16.5q54 -17 185 -17q134 0 187 18t53 61l1 133l163 -29q-2 -94 -11 -140q-20 -105 -108 -143t-268 -38q-153 0 -240.5 19t-142.5 68
q-52 -46 -138 -66.5t-224 -20.5q-77 0 -136.5 7.5t-106.5 16.5t-80.5 36t-57.5 46.5t-39 67.5t-23.5 80.5t-12 104.5t-4.5 119t-1 145q0 114 6 188.5t25.5 137t49.5 96.5t84 58t123.5 32t173.5 8q264 0 360 -85q54 48 138 66.5t218 18.5q78 0 135 -4.5t104.5 -19t78.5 -32.5
t54.5 -53t36.5 -72.5t21 -99.5t10 -125t2 -158zM1040 647h500q0 120 -9 234q-4 60 -53.5 80.5t-181.5 20.5q-143 0 -182 -16q-17 -5 -29.5 -17.5t-20 -35.5t-12.5 -43t-7 -55t-3 -55t-1.5 -59.5t-0.5 -53.5zM844 545q0 164 -11 334q0 24 -8 42t-25.5 28.5t-35 17.5t-46 9.5
t-49 3.5t-53.5 1q-168 0 -227 -17.5t-63 -84.5q-10 -154 -10 -335q0 -167 11 -337q0 -22 8 -37.5t26 -25.5t37 -16t52.5 -8.5t60 -3.5t70.5 -1q127 0 175 15q29 7 47.5 36t27 77t11.5 93t3 105q0 19 -0.5 54t-0.5 50z" />
    <glyph glyph-name="Racute" unicode="&#x154;" horiz-adv-x="1357" 
d="M166 0zM1199 1080q0 -191 -72 -283.5t-201 -113.5q192 -39 228 -244l77 -439h-217q-8 46 -18.5 133.5t-19.5 148t-24 128.5t-39.5 114t-58.5 68q-54 23 -177 23h-309v-615h-202v1490h455q72 0 122.5 -1.5t106.5 -6.5t94 -14t77.5 -24t65 -37t48.5 -52.5t36 -70
t20.5 -90.5t7.5 -114zM999 1001v139q0 38 -1.5 59.5t-7.5 46t-18.5 37t-33 25t-53 17.5t-76 8.5t-104.5 3.5h-337v-563h349q77 0 127 8t81.5 22.5t47.5 44t21 63t5 89.5zM857 1934q40 35 84 35q47 0 75 -29.5t28 -70.5q0 -31 -18 -60t-53 -44q-11 -5 -110 -42t-192 -72
l-93 -35l-17 21q257 266 296 297z" />
    <glyph glyph-name="racute" unicode="&#x155;" horiz-adv-x="726" 
d="M154 0zM643 1122l-8 -167q-38 5 -72 5q-71 0 -115 -14t-66.5 -48t-30 -77.5t-7.5 -116.5q0 -41 3.5 -120t3.5 -113v-471h-197v1097h179l20 -123q31 72 94 111.5t151 39.5q22 0 45 -3zM519 1548q40 35 84 35q47 0 75 -29.5t28 -70.5q0 -31 -18 -60t-53 -44
q-11 -5 -110 -42t-192 -72l-93 -35l-17 21q257 266 296 297z" />
    <glyph glyph-name="uni0156" unicode="&#x156;" horiz-adv-x="1357" 
d="M166 0zM1199 1080q0 -191 -72 -283.5t-201 -113.5q192 -39 228 -244l77 -439h-217q-8 46 -18.5 133.5t-19.5 148t-24 128.5t-39.5 114t-58.5 68q-54 23 -177 23h-309v-615h-202v1490h455q72 0 122.5 -1.5t106.5 -6.5t94 -14t77.5 -24t65 -37t48.5 -52.5t36 -70
t20.5 -90.5t7.5 -114zM999 1001v139q0 38 -1.5 59.5t-7.5 46t-18.5 37t-33 25t-53 17.5t-76 8.5t-104.5 3.5h-337v-563h349q77 0 127 8t81.5 22.5t47.5 44t21 63t5 89.5zM695 -102q79 0 125.5 -59t46.5 -157q0 -133 -90.5 -234t-222.5 -101v60q57 2 92.5 48.5t35.5 116.5
q-142 7 -142 170q0 50 44 103t111 53z" />
    <glyph glyph-name="uni0157" unicode="&#x157;" horiz-adv-x="726" 
d="M87 0zM643 1122l-8 -167q-38 5 -72 5q-71 0 -115 -14t-66.5 -48t-30 -77.5t-7.5 -116.5q0 -41 3.5 -120t3.5 -113v-471h-197v1097h179l20 -123q31 72 94 111.5t151 39.5q22 0 45 -3zM242 -102q79 0 125.5 -59t46.5 -157q0 -133 -90.5 -234t-222.5 -101v60q57 2 92.5 48.5
t35.5 116.5q-142 7 -142 170q0 50 44 103t111 53z" />
    <glyph glyph-name="Rcaron" unicode="&#x158;" horiz-adv-x="1357" 
d="M166 0zM1199 1080q0 -191 -72 -283.5t-201 -113.5q192 -39 228 -244l77 -439h-217q-8 46 -18.5 133.5t-19.5 148t-24 128.5t-39.5 114t-58.5 68q-54 23 -177 23h-309v-615h-202v1490h455q72 0 122.5 -1.5t106.5 -6.5t94 -14t77.5 -24t65 -37t48.5 -52.5t36 -70
t20.5 -90.5t7.5 -114zM999 1001v139q0 38 -1.5 59.5t-7.5 46t-18.5 37t-33 25t-53 17.5t-76 8.5t-104.5 3.5h-337v-563h349q77 0 127 8t81.5 22.5t47.5 44t21 63t5 89.5zM472 2031l231 -236l231 236l55 -54l-192 -309q-35 -52 -94 -52t-94 52l-192 309z" />
    <glyph glyph-name="rcaron" unicode="&#x159;" horiz-adv-x="726" 
d="M111 0zM643 1122l-8 -167q-38 5 -72 5q-71 0 -115 -14t-66.5 -48t-30 -77.5t-7.5 -116.5q0 -41 3.5 -120t3.5 -113v-471h-197v1097h179l20 -123q31 72 94 111.5t151 39.5q22 0 45 -3zM166 1645l231 -236l231 236l55 -54l-192 -309q-35 -52 -94 -52t-94 52l-192 309z" />
    <glyph glyph-name="Sacute" unicode="&#x15a;" horiz-adv-x="1291" 
d="M119 0zM1144 437q0 -65 -4 -117.5t-14.5 -96t-22.5 -76.5t-34 -58.5t-43.5 -43.5t-56 -30.5t-66.5 -20t-80 -11.5t-91.5 -5.5t-106.5 -1.5q-119 0 -199.5 7t-137 30t-87.5 47.5t-49 78t-23.5 102.5t-9.5 139l185 30q3 -22 6 -62q6 -62 11.5 -87.5t21.5 -56.5t50 -40.5
t89 -16.5t147 -7q76 0 125 4t86 16.5t56 28.5t30.5 49.5t14.5 69.5t2 96q-1 132 -14.5 182.5t-57.5 59.5l-498 87q-130 22 -181 99t-54 249q0 92 9.5 157.5t33 115t58 79.5t91 48.5t124 25t165.5 6.5q80 0 137.5 -3.5t112 -12.5t90.5 -25t66.5 -41.5t47.5 -62t26 -85.5
t9 -113l-178 -41q-10 110 -13 125q-12 51 -57 69q-50 21 -209 21q-87 0 -143.5 -5t-92.5 -14.5t-53.5 -28.5t-23.5 -40.5t-6 -56.5v-173q0 -94 82 -108l358 -61q50 -8 80 -14t69 -16t61 -21t49 -28t42 -38t30.5 -50t23 -65.5t12.5 -83t5 -104.5zM833 1934q40 35 84 35
q47 0 75 -29.5t28 -70.5q0 -31 -18 -60t-53 -44q-11 -5 -110 -42t-192 -72l-93 -35l-17 21q257 266 296 297z" />
    <glyph glyph-name="sacute" unicode="&#x15b;" horiz-adv-x="1075" 
d="M117 0zM947 304q0 -96 -21 -157.5t-69.5 -97.5t-118 -50t-175.5 -14q-62 0 -99.5 1t-86.5 5t-78 12.5t-62.5 23t-52.5 37t-36 53.5t-24 73.5t-7 96.5l155 40q9 -114 21 -144q18 -41 75 -52q43 -9 181 -9q83 0 123.5 7.5t54.5 28.5q40 33 40 225q0 29 -12 49.5t-29 31
t-47.5 18t-55 10t-64.5 6.5t-64 7q-73 8 -119 15.5t-93 22.5t-73.5 37t-48.5 57t-31 84t-9 117q0 72 15 122t44 83t79.5 51.5t113.5 26t154 7.5q57 0 93.5 -1.5t80 -7t70.5 -15.5t54.5 -28t42.5 -44.5t24.5 -64.5t9.5 -87l-134 -41q-4 39 -7.5 61.5t-15.5 41.5t-25 27
t-44.5 14t-63.5 7t-92 1q-128 0 -173.5 -25.5t-45.5 -83.5v-102q0 -66 39.5 -83.5t211.5 -39.5q18 -3 27 -4q69 -8 109.5 -15t85.5 -18.5t68.5 -27t47 -39.5t34 -59t17 -81t6.5 -109zM696 1548q40 35 84 35q47 0 75 -29.5t28 -70.5q0 -31 -18 -60t-53 -44q-11 -5 -110 -42
t-192 -72l-93 -35l-17 21q257 266 296 297z" />
    <glyph glyph-name="Scircumflex" unicode="&#x15c;" horiz-adv-x="1291" 
d="M119 0zM1144 437q0 -65 -4 -117.5t-14.5 -96t-22.5 -76.5t-34 -58.5t-43.5 -43.5t-56 -30.5t-66.5 -20t-80 -11.5t-91.5 -5.5t-106.5 -1.5q-119 0 -199.5 7t-137 30t-87.5 47.5t-49 78t-23.5 102.5t-9.5 139l185 30q3 -22 6 -62q6 -62 11.5 -87.5t21.5 -56.5t50 -40.5
t89 -16.5t147 -7q76 0 125 4t86 16.5t56 28.5t30.5 49.5t14.5 69.5t2 96q-1 132 -14.5 182.5t-57.5 59.5l-498 87q-130 22 -181 99t-54 249q0 92 9.5 157.5t33 115t58 79.5t91 48.5t124 25t165.5 6.5q80 0 137.5 -3.5t112 -12.5t90.5 -25t66.5 -41.5t47.5 -62t26 -85.5
t9 -113l-178 -41q-10 110 -13 125q-12 51 -57 69q-50 21 -209 21q-87 0 -143.5 -5t-92.5 -14.5t-53.5 -28.5t-23.5 -40.5t-6 -56.5v-173q0 -94 82 -108l358 -61q50 -8 80 -14t69 -16t61 -21t49 -28t42 -38t30.5 -50t23 -65.5t12.5 -83t5 -104.5zM631 1852l-231 -236l-55 54
l192 309q35 52 94 52t94 -52l192 -309l-55 -54z" />
    <glyph glyph-name="scircumflex" unicode="&#x15d;" horiz-adv-x="1075" 
d="M117 0zM947 304q0 -96 -21 -157.5t-69.5 -97.5t-118 -50t-175.5 -14q-62 0 -99.5 1t-86.5 5t-78 12.5t-62.5 23t-52.5 37t-36 53.5t-24 73.5t-7 96.5l155 40q9 -114 21 -144q18 -41 75 -52q43 -9 181 -9q83 0 123.5 7.5t54.5 28.5q40 33 40 225q0 29 -12 49.5t-29 31
t-47.5 18t-55 10t-64.5 6.5t-64 7q-73 8 -119 15.5t-93 22.5t-73.5 37t-48.5 57t-31 84t-9 117q0 72 15 122t44 83t79.5 51.5t113.5 26t154 7.5q57 0 93.5 -1.5t80 -7t70.5 -15.5t54.5 -28t42.5 -44.5t24.5 -64.5t9.5 -87l-134 -41q-4 39 -7.5 61.5t-15.5 41.5t-25 27
t-44.5 14t-63.5 7t-92 1q-128 0 -173.5 -25.5t-45.5 -83.5v-102q0 -66 39.5 -83.5t211.5 -39.5q18 -3 27 -4q69 -8 109.5 -15t85.5 -18.5t68.5 -27t47 -39.5t34 -59t17 -81t6.5 -109zM532 1466l-231 -236l-55 54l192 309q35 52 94 52t94 -52l192 -309l-55 -54z" />
    <glyph glyph-name="Scedilla" unicode="&#x15e;" horiz-adv-x="1291" 
d="M119 0zM1144 437q0 -65 -4 -117.5t-14.5 -96t-22.5 -76.5t-34 -58.5t-43.5 -43.5t-56 -30.5t-66.5 -20t-80 -11.5t-91.5 -5.5t-106.5 -1.5q-119 0 -199.5 7t-137 30t-87.5 47.5t-49 78t-23.5 102.5t-9.5 139l185 30q3 -22 6 -62q6 -62 11.5 -87.5t21.5 -56.5t50 -40.5
t89 -16.5t147 -7q76 0 125 4t86 16.5t56 28.5t30.5 49.5t14.5 69.5t2 96q-1 132 -14.5 182.5t-57.5 59.5l-498 87q-130 22 -181 99t-54 249q0 92 9.5 157.5t33 115t58 79.5t91 48.5t124 25t165.5 6.5q80 0 137.5 -3.5t112 -12.5t90.5 -25t66.5 -41.5t47.5 -62t26 -85.5
t9 -113l-178 -41q-10 110 -13 125q-12 51 -57 69q-50 21 -209 21q-87 0 -143.5 -5t-92.5 -14.5t-53.5 -28.5t-23.5 -40.5t-6 -56.5v-173q0 -94 82 -108l358 -61q50 -8 80 -14t69 -16t61 -21t49 -28t42 -38t30.5 -50t23 -65.5t12.5 -83t5 -104.5zM583 -6h109l-49 -168
q56 -8 91 -17.5t67 -30.5t46.5 -57t14.5 -91q0 -90 -71 -139t-174 -49q-143 0 -239 82l47 90q111 -50 162 -50q59 0 59 54q0 87 -138 87q8 35 37 145z" />
    <glyph glyph-name="scedilla" unicode="&#x15f;" horiz-adv-x="1075" 
d="M117 0zM947 304q0 -96 -21 -157.5t-69.5 -97.5t-118 -50t-175.5 -14q-62 0 -99.5 1t-86.5 5t-78 12.5t-62.5 23t-52.5 37t-36 53.5t-24 73.5t-7 96.5l155 40q9 -114 21 -144q18 -41 75 -52q43 -9 181 -9q83 0 123.5 7.5t54.5 28.5q40 33 40 225q0 29 -12 49.5t-29 31
t-47.5 18t-55 10t-64.5 6.5t-64 7q-73 8 -119 15.5t-93 22.5t-73.5 37t-48.5 57t-31 84t-9 117q0 72 15 122t44 83t79.5 51.5t113.5 26t154 7.5q57 0 93.5 -1.5t80 -7t70.5 -15.5t54.5 -28t42.5 -44.5t24.5 -64.5t9.5 -87l-134 -41q-4 39 -7.5 61.5t-15.5 41.5t-25 27
t-44.5 14t-63.5 7t-92 1q-128 0 -173.5 -25.5t-45.5 -83.5v-102q0 -66 39.5 -83.5t211.5 -39.5q18 -3 27 -4q69 -8 109.5 -15t85.5 -18.5t68.5 -27t47 -39.5t34 -59t17 -81t6.5 -109zM513 3h109l-49 -168q56 -8 91 -17.5t67 -30.5t46.5 -57t14.5 -91q0 -90 -71 -139
t-174 -49q-143 0 -239 82l47 90q111 -50 162 -50q59 0 59 54q0 87 -138 87q8 35 37 145z" />
    <glyph glyph-name="Scaron" unicode="&#x160;" horiz-adv-x="1291" 
d="M119 0zM1144 437q0 -65 -4 -117.5t-14.5 -96t-22.5 -76.5t-34 -58.5t-43.5 -43.5t-56 -30.5t-66.5 -20t-80 -11.5t-91.5 -5.5t-106.5 -1.5q-119 0 -199.5 7t-137 30t-87.5 47.5t-49 78t-23.5 102.5t-9.5 139l185 30q3 -22 6 -62q6 -62 11.5 -87.5t21.5 -56.5t50 -40.5
t89 -16.5t147 -7q76 0 125 4t86 16.5t56 28.5t30.5 49.5t14.5 69.5t2 96q-1 132 -14.5 182.5t-57.5 59.5l-498 87q-130 22 -181 99t-54 249q0 92 9.5 157.5t33 115t58 79.5t91 48.5t124 25t165.5 6.5q80 0 137.5 -3.5t112 -12.5t90.5 -25t66.5 -41.5t47.5 -62t26 -85.5
t9 -113l-178 -41q-10 110 -13 125q-12 51 -57 69q-50 21 -209 21q-87 0 -143.5 -5t-92.5 -14.5t-53.5 -28.5t-23.5 -40.5t-6 -56.5v-173q0 -94 82 -108l358 -61q50 -8 80 -14t69 -16t61 -21t49 -28t42 -38t30.5 -50t23 -65.5t12.5 -83t5 -104.5zM400 2031l231 -236l231 236
l55 -54l-192 -309q-35 -52 -94 -52t-94 52l-192 309z" />
    <glyph glyph-name="scaron" unicode="&#x161;" horiz-adv-x="1075" 
d="M117 0zM947 304q0 -96 -21 -157.5t-69.5 -97.5t-118 -50t-175.5 -14q-62 0 -99.5 1t-86.5 5t-78 12.5t-62.5 23t-52.5 37t-36 53.5t-24 73.5t-7 96.5l155 40q9 -114 21 -144q18 -41 75 -52q43 -9 181 -9q83 0 123.5 7.5t54.5 28.5q40 33 40 225q0 29 -12 49.5t-29 31
t-47.5 18t-55 10t-64.5 6.5t-64 7q-73 8 -119 15.5t-93 22.5t-73.5 37t-48.5 57t-31 84t-9 117q0 72 15 122t44 83t79.5 51.5t113.5 26t154 7.5q57 0 93.5 -1.5t80 -7t70.5 -15.5t54.5 -28t42.5 -44.5t24.5 -64.5t9.5 -87l-134 -41q-4 39 -7.5 61.5t-15.5 41.5t-25 27
t-44.5 14t-63.5 7t-92 1q-128 0 -173.5 -25.5t-45.5 -83.5v-102q0 -66 39.5 -83.5t211.5 -39.5q18 -3 27 -4q69 -8 109.5 -15t85.5 -18.5t68.5 -27t47 -39.5t34 -59t17 -81t6.5 -109zM301 1645l231 -236l231 236l55 -54l-192 -309q-35 -52 -94 -52t-94 52l-192 309z" />
    <glyph glyph-name="uni0162" unicode="&#x162;" horiz-adv-x="994" 
d="M3 0zM976 1336h-389v-1336h-203v1336h-381v154h973v-154zM440 18h109l-49 -168q56 -8 91 -17.5t67 -30.5t46.5 -57t14.5 -91q0 -90 -71 -139t-174 -49q-143 0 -239 82l47 90q111 -50 162 -50q59 0 59 54q0 87 -138 87q8 35 37 145z" />
    <glyph glyph-name="uni0163" unicode="&#x163;" horiz-adv-x="720" 
d="M48 0zM587 139l-4 -140q-84 -14 -152 -14q-73 0 -120.5 16t-71.5 51t-33 77.5t-9 108.5v747h-149v112h149v312l196 16v-328h202v-112h-202v-680q0 -108 10.5 -140t57.5 -32q46 0 126 6zM391 3h109l-49 -168q56 -8 91 -17.5t67 -30.5t46.5 -57t14.5 -91q0 -90 -71 -139
t-174 -49q-143 0 -239 82l47 90q111 -50 162 -50q59 0 59 54q0 87 -138 87q8 35 37 145z" />
    <glyph glyph-name="Tcaron" unicode="&#x164;" horiz-adv-x="994" 
d="M3 0zM976 1336h-389v-1336h-203v1336h-381v154h973v-154zM268 2031l231 -236l231 236l55 -54l-192 -309q-35 -52 -94 -52t-94 52l-192 309z" />
    <glyph glyph-name="tcaron" unicode="&#x165;" horiz-adv-x="720" 
d="M48 0zM587 139l-4 -140q-84 -14 -152 -14q-73 0 -120.5 16t-71.5 51t-33 77.5t-9 108.5v747h-149v112h149v312l196 16v-328h202v-112h-202v-680q0 -108 10.5 -140t57.5 -32q46 0 126 6zM560 957q67 0 119.5 47t52.5 112q-63 0 -103.5 45t-40.5 109q0 67 39.5 111
t107.5 44q64 0 102.5 -52.5t38.5 -126.5q0 -84 -34 -167.5t-94.5 -138.5t-127.5 -55q-45 0 -60 4v68z" />
    <glyph glyph-name="Utilde" unicode="&#x168;" horiz-adv-x="1442" 
d="M152 0zM1277 1490v-933q0 -120 -10.5 -206t-37.5 -152.5t-67.5 -108t-106 -68t-146.5 -36.5t-196 -10q-111 0 -189 9t-144 33.5t-106.5 65t-69.5 106t-40.5 154.5t-11.5 213v933h203v-959q0 -83 0.5 -120t5.5 -90.5t13 -73t26.5 -48.5t42 -36.5t64.5 -18.5t88.5 -12.5
t118.5 -1.5q84 0 140.5 5t98.5 20t64.5 34.5t36 57.5t17.5 79t4 109l-1 1055h203zM1058 1801q-51 -185 -227 -185q-53 0 -143 42t-132 42q-78 0 -146 -63l-29 43q49 156 209 156q53 0 99.5 -17t83.5 -34t66 -17q82 0 185 83z" />
    <glyph glyph-name="utilde" unicode="&#x169;" horiz-adv-x="1170" 
d="M150 0zM1020 -1h-182l-18 141q-26 -79 -113.5 -117t-213.5 -38q-86 0 -145 17t-98.5 49.5t-61 91t-30 131t-8.5 180.5v643h197v-637q0 -22 -0.5 -59.5t-0.5 -52.5q0 -53 2 -83t10.5 -59t22.5 -42.5t42 -24.5t64.5 -14t93.5 -3q64 0 109 9t71 23.5t39.5 39.5t17.5 49t4 60
q0 12 -0.5 39t-0.5 41v714h199v-1098zM914 1415q-51 -185 -227 -185q-53 0 -143 42t-132 42q-78 0 -146 -63l-29 43q49 156 209 156q53 0 99.5 -17t83.5 -34t66 -17q82 0 185 83z" />
    <glyph glyph-name="Umacron" unicode="&#x16a;" horiz-adv-x="1442" 
d="M152 0zM1277 1490v-933q0 -120 -10.5 -206t-37.5 -152.5t-67.5 -108t-106 -68t-146.5 -36.5t-196 -10q-111 0 -189 9t-144 33.5t-106.5 65t-69.5 106t-40.5 154.5t-11.5 213v933h203v-959q0 -83 0.5 -120t5.5 -90.5t13 -73t26.5 -48.5t42 -36.5t64.5 -18.5t88.5 -12.5
t118.5 -1.5q84 0 140.5 5t98.5 20t64.5 34.5t36 57.5t17.5 79t4 109l-1 1055h203zM421 1743h597v-127h-597v127z" />
    <glyph glyph-name="umacron" unicode="&#x16b;" horiz-adv-x="1170" 
d="M150 0zM1020 -1h-182l-18 141q-26 -79 -113.5 -117t-213.5 -38q-86 0 -145 17t-98.5 49.5t-61 91t-30 131t-8.5 180.5v643h197v-637q0 -22 -0.5 -59.5t-0.5 -52.5q0 -53 2 -83t10.5 -59t22.5 -42.5t42 -24.5t64.5 -14t93.5 -3q64 0 109 9t71 23.5t39.5 39.5t17.5 49t4 60
q0 12 -0.5 39t-0.5 41v714h199v-1098zM277 1357h597v-127h-597v127z" />
    <glyph glyph-name="Ubreve" unicode="&#x16c;" horiz-adv-x="1442" 
d="M152 0zM1277 1490v-933q0 -120 -10.5 -206t-37.5 -152.5t-67.5 -108t-106 -68t-146.5 -36.5t-196 -10q-111 0 -189 9t-144 33.5t-106.5 65t-69.5 106t-40.5 154.5t-11.5 213v933h203v-959q0 -83 0.5 -120t5.5 -90.5t13 -73t26.5 -48.5t42 -36.5t64.5 -18.5t88.5 -12.5
t118.5 -1.5q84 0 140.5 5t98.5 20t64.5 34.5t36 57.5t17.5 79t4 109l-1 1055h203zM424 1916h142q-1 -3 -1 -12q0 -92 31.5 -127t122.5 -35q92 0 123 36.5t31 137.5h142q0 -169 -76.5 -234.5t-256.5 -65.5q-118 0 -188 71.5t-70 228.5z" />
    <glyph glyph-name="ubreve" unicode="&#x16d;" horiz-adv-x="1170" 
d="M150 0zM1020 -1h-182l-18 141q-26 -79 -113.5 -117t-213.5 -38q-86 0 -145 17t-98.5 49.5t-61 91t-30 131t-8.5 180.5v643h197v-637q0 -22 -0.5 -59.5t-0.5 -52.5q0 -53 2 -83t10.5 -59t22.5 -42.5t42 -24.5t64.5 -14t93.5 -3q64 0 109 9t71 23.5t39.5 39.5t17.5 49t4 60
q0 12 -0.5 39t-0.5 41v714h199v-1098zM279 1530h142q-1 -3 -1 -12q0 -92 31.5 -127t122.5 -35q92 0 123 36.5t31 137.5h142q0 -169 -76.5 -234.5t-256.5 -65.5q-118 0 -188 71.5t-70 228.5z" />
    <glyph glyph-name="Uring" unicode="&#x16e;" horiz-adv-x="1442" 
d="M152 0zM1277 1490v-933q0 -120 -10.5 -206t-37.5 -152.5t-67.5 -108t-106 -68t-146.5 -36.5t-196 -10q-111 0 -189 9t-144 33.5t-106.5 65t-69.5 106t-40.5 154.5t-11.5 213v933h203v-959q0 -83 0.5 -120t5.5 -90.5t13 -73t26.5 -48.5t42 -36.5t64.5 -18.5t88.5 -12.5
t118.5 -1.5q84 0 140.5 5t98.5 20t64.5 34.5t36 57.5t17.5 79t4 109l-1 1055h203zM704 2006q-43 0 -72 -42t-29 -94q0 -137 128 -137q43 0 72.5 42t29.5 93q0 65 -33.5 101.5t-95.5 36.5zM718 2124q112 0 185 -71.5t73 -182.5q0 -113 -72 -183.5t-184 -70.5
q-108 0 -182.5 69t-74.5 185q0 113 71.5 183.5t183.5 70.5z" />
    <glyph glyph-name="uring" unicode="&#x16f;" horiz-adv-x="1170" 
d="M150 0zM1020 -1h-182l-18 141q-26 -79 -113.5 -117t-213.5 -38q-86 0 -145 17t-98.5 49.5t-61 91t-30 131t-8.5 180.5v643h197v-637q0 -22 -0.5 -59.5t-0.5 -52.5q0 -53 2 -83t10.5 -59t22.5 -42.5t42 -24.5t64.5 -14t93.5 -3q64 0 109 9t71 23.5t39.5 39.5t17.5 49t4 60
q0 12 -0.5 39t-0.5 41v714h199v-1098zM560 1620q-43 0 -72 -42t-29 -94q0 -137 128 -137q43 0 72.5 42t29.5 93q0 65 -33.5 101.5t-95.5 36.5zM574 1738q112 0 185 -71.5t73 -182.5q0 -113 -72 -183.5t-184 -70.5q-108 0 -182.5 69t-74.5 185q0 113 71.5 183.5t183.5 70.5z
" />
    <glyph glyph-name="Uhungarumlaut" unicode="&#x170;" horiz-adv-x="1442" 
d="M152 0zM1277 1490v-933q0 -120 -10.5 -206t-37.5 -152.5t-67.5 -108t-106 -68t-146.5 -36.5t-196 -10q-111 0 -189 9t-144 33.5t-106.5 65t-69.5 106t-40.5 154.5t-11.5 213v933h203v-959q0 -83 0.5 -120t5.5 -90.5t13 -73t26.5 -48.5t42 -36.5t64.5 -18.5t88.5 -12.5
t118.5 -1.5q84 0 140.5 5t98.5 20t64.5 34.5t36 57.5t17.5 79t4 109l-1 1055h203zM694 1934q40 35 84 35q47 0 75 -29.5t28 -70.5q0 -31 -18 -60t-53 -44q-11 -5 -110 -42t-192 -72l-93 -35l-17 21q257 266 296 297zM1123 1934q40 35 84 35q47 0 75 -29.5t28 -70.5
q0 -31 -18 -60t-53 -44q-11 -5 -110 -42t-192 -72l-93 -35l-17 21q257 266 296 297z" />
    <glyph glyph-name="uhungarumlaut" unicode="&#x171;" horiz-adv-x="1170" 
d="M150 0zM1020 -1h-182l-18 141q-26 -79 -113.5 -117t-213.5 -38q-86 0 -145 17t-98.5 49.5t-61 91t-30 131t-8.5 180.5v643h197v-637q0 -22 -0.5 -59.5t-0.5 -52.5q0 -53 2 -83t10.5 -59t22.5 -42.5t42 -24.5t64.5 -14t93.5 -3q64 0 109 9t71 23.5t39.5 39.5t17.5 49t4 60
q0 12 -0.5 39t-0.5 41v714h199v-1098zM537 1548q40 35 84 35q47 0 75 -29.5t28 -70.5q0 -31 -18 -60t-53 -44q-11 -5 -110 -42t-192 -72l-93 -35l-17 21q257 266 296 297zM966 1548q40 35 84 35q47 0 75 -29.5t28 -70.5q0 -31 -18 -60t-53 -44q-11 -5 -110 -42t-192 -72
l-93 -35l-17 21q257 266 296 297z" />
    <glyph glyph-name="Uogonek" unicode="&#x172;" horiz-adv-x="1442" 
d="M152 0zM1277 1490v-933q0 -120 -10.5 -206t-37.5 -152.5t-67.5 -108t-106 -68t-146.5 -36.5t-196 -10q-111 0 -189 9t-144 33.5t-106.5 65t-69.5 106t-40.5 154.5t-11.5 213v933h203v-959q0 -83 0.5 -120t5.5 -90.5t13 -73t26.5 -48.5t42 -36.5t64.5 -18.5t88.5 -12.5
t118.5 -1.5q84 0 140.5 5t98.5 20t64.5 34.5t36 57.5t17.5 79t4 109l-1 1055h203zM664 -6h108q-82 -84 -131.5 -174t-49.5 -167q0 -86 83 -86q63 0 164 46l35 -78q-32 -36 -117.5 -65.5t-168.5 -29.5q-82 0 -133.5 34.5t-51.5 110.5q0 43 13 84.5t30.5 74t57.5 79.5t69.5 78
t91.5 93z" />
    <glyph glyph-name="uogonek" unicode="&#x173;" horiz-adv-x="1170" 
d="M150 0zM1020 -1h-182l-18 141q-26 -79 -113.5 -117t-213.5 -38q-86 0 -145 17t-98.5 49.5t-61 91t-30 131t-8.5 180.5v643h197v-637q0 -22 -0.5 -59.5t-0.5 -52.5q0 -53 2 -83t10.5 -59t22.5 -42.5t42 -24.5t64.5 -14t93.5 -3q64 0 109 9t71 23.5t39.5 39.5t17.5 49t4 60
q0 12 -0.5 39t-0.5 41v714h199v-1098zM831 3h108q-82 -84 -131.5 -174t-49.5 -167q0 -86 83 -86q63 0 164 46l35 -78q-32 -36 -117.5 -65.5t-168.5 -29.5q-82 0 -133.5 34.5t-51.5 110.5q0 43 13 84.5t30.5 74t57.5 79.5t69.5 78t91.5 93z" />
    <glyph glyph-name="Wcircumflex" unicode="&#x174;" horiz-adv-x="1753" 
d="M45 0zM1688 1490l-316 -1490h-217l-284 1173l-282 -1173h-216l-328 1490h214l234 -1211l285 1211h201l293 -1211l228 1211h188zM877 1852l-231 -236l-55 54l192 309q35 52 94 52t94 -52l192 -309l-55 -54z" />
    <glyph glyph-name="wcircumflex" unicode="&#x175;" horiz-adv-x="1580" 
d="M63 0zM1487 1097l-286 -1097h-182l-239 834l-227 -834h-202l-288 1097h189l197 -864l240 864h177l225 -864l199 864h197zM780 1466l-231 -236l-55 54l192 309q35 52 94 52t94 -52l192 -309l-55 -54z" />
    <glyph glyph-name="Ycircumflex" unicode="&#x176;" horiz-adv-x="1087" 
d="M0 0zM1086 1490l-451 -972v-518h-202v518l-438 972h221l325 -763l331 763h214zM545 1852l-231 -236l-55 54l192 309q35 52 94 52t94 -52l192 -309l-55 -54z" />
    <glyph glyph-name="ycircumflex" unicode="&#x177;" horiz-adv-x="1080" 
d="M48 0zM1000 1097l-346 -1044q-13 -38 -27.5 -91.5t-24 -86.5t-24 -72.5t-31.5 -63t-42 -45t-60 -31t-81 -9.5q-119 0 -216 23l30 152q19 -2 51 -7.5t55.5 -8.5t43.5 -3q64 0 97 44t34 163l-411 1080h199l202 -557q55 -152 102 -287q33 121 97 334l151 510h201zM527 1466
l-231 -236l-55 54l192 309q35 52 94 52t94 -52l192 -309l-55 -54z" />
    <glyph glyph-name="Ydieresis" unicode="&#x178;" horiz-adv-x="1087" 
d="M0 0zM1086 1490l-451 -972v-518h-202v518l-438 972h221l325 -763l331 763h214zM661 1743q0 62 36 94.5t95 32.5t94 -32t35 -95t-35 -95t-94 -32t-95 32.5t-36 94.5zM169 1743q0 62 36 94.5t95 32.5t94 -32t35 -95t-35 -95t-94 -32t-95 32.5t-36 94.5z" />
    <glyph glyph-name="Zacute" unicode="&#x179;" horiz-adv-x="1110" 
d="M91 0zM990 0h-889l-10 176l571 952l128 210h-634l-17 152h840l11 -179l-559 -950l-126 -210h685v-151zM627 1934q40 35 84 35q47 0 75 -29.5t28 -70.5q0 -31 -18 -60t-53 -44q-11 -5 -110 -42t-192 -72l-93 -35l-17 21q257 266 296 297z" />
    <glyph glyph-name="zacute" unicode="&#x17a;" horiz-adv-x="943" 
d="M76 0zM783 0h-690l-17 141l513 819h-467l-9 137h664l9 -137l-511 -825h517zM527 1548q40 35 84 35q47 0 75 -29.5t28 -70.5q0 -31 -18 -60t-53 -44q-11 -5 -110 -42t-192 -72l-93 -35l-17 21q257 266 296 297z" />
    <glyph glyph-name="Zdotaccent" unicode="&#x17b;" horiz-adv-x="1110" 
d="M91 0zM990 0h-889l-10 176l571 952l128 210h-634l-17 152h840l11 -179l-559 -950l-126 -210h685v-151zM474 1616q0 38 0.5 114t0.5 114h196q0 -38 0.5 -114t0.5 -114h-198z" />
    <glyph glyph-name="zdotaccent" unicode="&#x17c;" horiz-adv-x="943" 
d="M76 0zM783 0h-690l-17 141l513 819h-467l-9 137h664l9 -137l-511 -825h517zM374 1230q0 38 0.5 114t0.5 114h196q0 -38 0.5 -114t0.5 -114h-198z" />
    <glyph glyph-name="Zcaron" unicode="&#x17d;" horiz-adv-x="1110" 
d="M91 0zM990 0h-889l-10 176l571 952l128 210h-634l-17 152h840l11 -179l-559 -950l-126 -210h685v-151zM342 2031l231 -236l231 236l55 -54l-192 -309q-35 -52 -94 -52t-94 52l-192 309z" />
    <glyph glyph-name="zcaron" unicode="&#x17e;" horiz-adv-x="943" 
d="M76 0zM783 0h-690l-17 141l513 819h-467l-9 137h664l9 -137l-511 -825h517zM242 1645l231 -236l231 236l55 -54l-192 -309q-35 -52 -94 -52t-94 52l-192 309z" />
    <glyph glyph-name="florin" unicode="&#x192;" horiz-adv-x="715" 
d="M618 1543v-154q-39 3 -78 3q-34 0 -55 -1.5t-37 -9t-23 -13.5t-11 -26t-4.5 -35t-0.5 -51l1 -369h198v-130h-198v-813q0 -54 -4.5 -91t-17 -71.5t-36 -54.5t-62 -32.5t-93.5 -13.5q-39 0 -152 20v132h168v924h-162v130h162l-1 372q-1 166 52.5 234t177.5 68q82 0 176 -18
z" />
    <glyph glyph-name="uni01C4" unicode="&#x1c4;" horiz-adv-x="2530" 
d="M166 0zM1273 876q0 -137 -1.5 -225.5t-9.5 -181t-17 -146.5t-33.5 -110.5t-48 -84t-71.5 -56.5t-94 -39t-124.5 -20t-154 -11.5t-191.5 -1.5h-362v1490h516q126 0 213 -10.5t155.5 -39t109.5 -71.5t67.5 -114.5t36 -160.5t9.5 -218zM1072 873q0 92 -0.5 132.5t-7 101.5
t-18 83.5t-36.5 57.5t-58.5 44.5t-88 24t-121.5 17t-163 2.5h-210v-1183h240q86 0 134 1.5t104 8.5t82.5 18.5t57.5 36t43 56t24 83t15 113.5t3 150v253zM1511 0zM2410 0h-889l-10 176l571 952l128 210h-634l-17 152h840l11 -179l-559 -950l-126 -210h685v-151zM1762 2031
l231 -236l231 236l55 -54l-192 -309q-35 -52 -94 -52t-94 52l-192 309z" />
    <glyph glyph-name="uni01C5" unicode="&#x1c5;" horiz-adv-x="2363" 
d="M166 0zM1273 876q0 -137 -1.5 -225.5t-9.5 -181t-17 -146.5t-33.5 -110.5t-48 -84t-71.5 -56.5t-94 -39t-124.5 -20t-154 -11.5t-191.5 -1.5h-362v1490h516q126 0 213 -10.5t155.5 -39t109.5 -71.5t67.5 -114.5t36 -160.5t9.5 -218zM1072 873q0 92 -0.5 132.5t-7 101.5
t-18 83.5t-36.5 57.5t-58.5 44.5t-88 24t-121.5 17t-163 2.5h-210v-1183h240q86 0 134 1.5t104 8.5t82.5 18.5t57.5 36t43 56t24 83t15 113.5t3 150v253zM1496 0zM2203 0h-690l-17 141l513 819h-467l-9 137h664l9 -137l-511 -825h517zM1662 1645l231 -236l231 236l55 -54
l-192 -309q-35 -52 -94 -52t-94 52l-192 309z" />
    <glyph glyph-name="uni01C6" unicode="&#x1c6;" horiz-adv-x="2122" 
d="M124 0zM1025 0h-180l-19 138q-61 -153 -319 -153q-69 0 -123.5 9t-94 31t-67.5 45.5t-46.5 68t-29 81t-15.5 101.5t-6 113.5t-1 131.5q0 81 2.5 140t10 117t20 97.5t33.5 76.5t50.5 59.5t70.5 40t94 24.5t120 7q129 0 200.5 -34.5t102.5 -109.5v535l197 16v-1535z
M828 255v583q0 87 -54 119.5t-203 32.5q-116 0 -172 -17q-46 -14 -62 -82.5t-16 -184.5q0 -169 6 -473q5 -66 53.5 -88.5t190.5 -22.5q140 0 195.5 28t61.5 105zM1255 0zM1962 0h-690l-17 141l513 819h-467l-9 137h664l9 -137l-511 -825h517zM1421 1645l231 -236l231 236
l55 -54l-192 -309q-35 -52 -94 -52t-94 52l-192 309z" />
    <glyph glyph-name="uni01C7" unicode="&#x1c7;" horiz-adv-x="1751" 
d="M166 0zM923 0h-757v1490h203v-1337h574zM1585 1490v-1058q0 -61 -1 -100.5t-4.5 -88t-11 -79t-19.5 -64.5t-30.5 -54t-44.5 -37.5t-61 -25t-79 -7.5q-121 0 -238 53l21 154q92 -35 155 -35q65 0 87.5 41t22.5 118v1183h203z" />
    <glyph glyph-name="uni01C8" unicode="&#x1c8;" horiz-adv-x="1540" 
d="M166 0zM923 0h-757v1490h203v-1337h574zM1370 1097v-1036q0 -200 -54.5 -281.5t-200.5 -81.5q-44 0 -106 8l-5 122q12 1 34.5 1t35 0.5t30.5 3.5t28.5 10t21 18t15 30t4.5 45v1161h197zM1371 1521v-173h-199v173h199z" />
    <glyph glyph-name="uni01C9" unicode="&#x1c9;" horiz-adv-x="1048" 
d="M162 0zM359 0h-197v1486l197 16v-1502zM878 1097v-1036q0 -200 -54.5 -281.5t-200.5 -81.5q-44 0 -106 8l-5 122q12 1 34.5 1t35 0.5t30.5 3.5t28.5 10t21 18t15 30t4.5 45v1161h197zM879 1521v-173h-199v173h199z" />
    <glyph glyph-name="uni01CA" unicode="&#x1ca;" horiz-adv-x="2167" 
d="M166 0zM1265 0h-211l-710 1177v-1177h-178v1490h205l716 -1193v1193h178v-1490zM2001 1490v-1058q0 -61 -1 -100.5t-4.5 -88t-11 -79t-19.5 -64.5t-30.5 -54t-44.5 -37.5t-61 -25t-79 -7.5q-121 0 -238 53l21 154q92 -35 155 -35q65 0 87.5 41t22.5 118v1183h203z" />
    <glyph glyph-name="uni01CB" unicode="&#x1cb;" horiz-adv-x="1956" 
d="M166 0zM1265 0h-211l-710 1177v-1177h-178v1490h205l716 -1193v1193h178v-1490zM1786 1097v-1036q0 -200 -54.5 -281.5t-200.5 -81.5q-44 0 -106 8l-5 122q12 1 34.5 1t35 0.5t30.5 3.5t28.5 10t21 18t15 30t4.5 45v1161h197zM1787 1521v-173h-199v173h199z" />
    <glyph glyph-name="uni01CC" unicode="&#x1cc;" horiz-adv-x="1686" 
d="M153 0zM1021 0h-197v664q0 64 -0.5 102.5t-4 77.5t-7.5 58.5t-14.5 39t-21.5 26.5t-32 13.5t-42 7.5t-56 1q-76 0 -129.5 -8.5t-87.5 -23.5t-52.5 -42t-25.5 -58.5t-7 -77.5q0 -26 3 -90.5t3 -104.5v-585h-197v1097h180l19 -123q26 82 115 118t212 36q58 0 103 -7
t80 -23.5t60.5 -37.5t43 -55.5t28.5 -70.5t17 -90t8 -107.5t2 -127.5v-609zM1516 1097v-1036q0 -200 -54.5 -281.5t-200.5 -81.5q-44 0 -106 8l-5 122q12 1 34.5 1t35 0.5t30.5 3.5t28.5 10t21 18t15 30t4.5 45v1161h197zM1517 1521v-173h-199v173h199z" />
    <glyph glyph-name="uni01F1" unicode="&#x1f1;" horiz-adv-x="2530" 
d="M166 0zM1273 876q0 -137 -1.5 -225.5t-9.5 -181t-17 -146.5t-33.5 -110.5t-48 -84t-71.5 -56.5t-94 -39t-124.5 -20t-154 -11.5t-191.5 -1.5h-362v1490h516q126 0 213 -10.5t155.5 -39t109.5 -71.5t67.5 -114.5t36 -160.5t9.5 -218zM1072 873q0 92 -0.5 132.5t-7 101.5
t-18 83.5t-36.5 57.5t-58.5 44.5t-88 24t-121.5 17t-163 2.5h-210v-1183h240q86 0 134 1.5t104 8.5t82.5 18.5t57.5 36t43 56t24 83t15 113.5t3 150v253zM2410 0h-889l-10 176l571 952l128 210h-634l-17 152h840l11 -179l-559 -950l-126 -210h685v-151z" />
    <glyph glyph-name="uni01F2" unicode="&#x1f2;" horiz-adv-x="2363" 
d="M166 0zM1273 876q0 -137 -1.5 -225.5t-9.5 -181t-17 -146.5t-33.5 -110.5t-48 -84t-71.5 -56.5t-94 -39t-124.5 -20t-154 -11.5t-191.5 -1.5h-362v1490h516q126 0 213 -10.5t155.5 -39t109.5 -71.5t67.5 -114.5t36 -160.5t9.5 -218zM1072 873q0 92 -0.5 132.5t-7 101.5
t-18 83.5t-36.5 57.5t-58.5 44.5t-88 24t-121.5 17t-163 2.5h-210v-1183h240q86 0 134 1.5t104 8.5t82.5 18.5t57.5 36t43 56t24 83t15 113.5t3 150v253zM2203 0h-690l-17 141l513 819h-467l-9 137h664l9 -137l-511 -825h517z" />
    <glyph glyph-name="uni01F3" unicode="&#x1f3;" horiz-adv-x="2122" 
d="M124 0zM1025 0h-180l-19 138q-61 -153 -319 -153q-69 0 -123.5 9t-94 31t-67.5 45.5t-46.5 68t-29 81t-15.5 101.5t-6 113.5t-1 131.5q0 81 2.5 140t10 117t20 97.5t33.5 76.5t50.5 59.5t70.5 40t94 24.5t120 7q129 0 200.5 -34.5t102.5 -109.5v535l197 16v-1535z
M828 255v583q0 87 -54 119.5t-203 32.5q-116 0 -172 -17q-46 -14 -62 -82.5t-16 -184.5q0 -169 6 -473q5 -66 53.5 -88.5t190.5 -22.5q140 0 195.5 28t61.5 105zM1962 0h-690l-17 141l513 819h-467l-9 137h664l9 -137l-511 -825h517z" />
    <glyph glyph-name="uni01F4" unicode="&#x1f4;" horiz-adv-x="1387" 
d="M132 0zM1236 745v-639q-142 -130 -575 -130q-85 0 -149.5 7t-118 18t-91.5 37.5t-67 53.5t-47 78.5t-29.5 99.5t-17 129t-7.5 155t-2 190q0 99 1.5 169t7 143t15 121.5t26 98t38.5 80t55 60.5t73.5 46t94.5 29t118 17.5t145 4.5h15q70 0 106 -1t97.5 -7.5t94.5 -20
t76 -40t64 -65t37 -97.5t16 -136q0 -18 -2 -50l-179 -34l-11 197q-2 64 -73 82.5t-269 18.5q-135 0 -204 -16.5t-96 -50.5t-33 -101q-9 -205 -9 -420q0 -216 9 -420q5 -108 17 -140q19 -49 87 -66q64 -16 223 -16q342 0 379 46q-1 103 -1 418h-252l-17 151h455zM778 1934
q40 35 84 35q47 0 75 -29.5t28 -70.5q0 -31 -18 -60t-53 -44q-11 -5 -110 -42t-192 -72l-93 -35l-17 21q257 266 296 297z" />
    <glyph glyph-name="uni01F5" unicode="&#x1f5;" horiz-adv-x="1173" 
d="M124 0zM1018 1097v-958q0 -99 -6.5 -167t-24 -127t-47.5 -94.5t-79.5 -61.5t-116.5 -36t-161 -10q-196 0 -312 41l13 136q112 -31 266 -31q73 0 123.5 8t79 20t44 34.5t20 44.5t4.5 56l-1 179q-27 -70 -93 -102t-186 -32q-86 0 -150 12t-109 30t-74.5 56.5t-46.5 73
t-25 99t-10 116t-2 140.5q0 113 2 177t9 138.5t23 112.5t41.5 77.5t66.5 56.5t96.5 28t132.5 11q131 0 210 -35.5t115 -114.5l19 122h179zM821 223v610q0 84 -55.5 120.5t-198.5 36.5q-140 0 -192 -25q-56 -27 -56 -219q0 -289 8 -504q3 -47 24.5 -69t73.5 -30.5t163 -8.5
q223 0 233 89zM545 1548q40 35 84 35q47 0 75 -29.5t28 -70.5q0 -31 -18 -60t-53 -44q-11 -5 -110 -42t-192 -72l-93 -35l-17 21q257 266 296 297z" />
    <glyph glyph-name="uni0200" unicode="&#x200;" horiz-adv-x="1296" 
d="M8 0zM1221 0h-206l-113 381h-551l-109 -381h-195l457 1490h271zM860 525l-126 447l-104 366q-58 -207 -102 -356l-134 -457h466zM625 1934q17 -14 91 -88t140 -141l65 -68l-17 -21l-93 35q-93 35 -192 72t-110 42q-35 15 -53 44t-18 60q0 41 28 70.5t75 29.5q44 0 84 -35
zM196 1934q17 -14 91 -88t139 -141l66 -68l-17 -21l-93 35q-93 35 -192 72t-110 42q-35 15 -53 44t-18 60q0 41 28 70.5t75 29.5q44 0 84 -35z" />
    <glyph glyph-name="uni0201" unicode="&#x201;" horiz-adv-x="1111" 
d="M0 0zM960 0h-156l-32 157q-30 -103 -108.5 -137.5t-229.5 -34.5q-100 0 -164 19.5t-102 65.5t-52.5 112.5t-14.5 171.5q0 47 16.5 84t45 63t76 45t98.5 30t123.5 17.5t141.5 8.5t161 2v297q0 51 -48 70.5t-171 19.5q-86 0 -129 -4t-65.5 -23.5t-26 -38.5t-4.5 -71
q-1 -19 -1 -30l-153 6q-2 16 -2 47q0 67 19.5 113.5t50.5 73t85 41.5t107 19t132 4q120 0 195 -18.5t123 -66.5t66.5 -122.5t18.5 -194.5v-726zM763 314v171q-197 0 -303 -15t-141.5 -41.5t-35.5 -74.5v-6q0 -152 25 -189t153 -37q109 0 177 26t94.5 66.5t30.5 99.5z
M604 1548q17 -14 91 -88t140 -141l65 -68l-17 -21l-93 35q-93 35 -192 72t-110 42q-35 15 -53 44t-18 60q0 41 28 70.5t75 29.5q44 0 84 -35zM175 1548q17 -14 91 -88t139 -141l66 -68l-17 -21l-93 35q-93 35 -192 72t-110 42q-35 15 -53 44t-18 60q0 41 28 70.5t75 29.5
q44 0 84 -35z" />
    <glyph glyph-name="uni0202" unicode="&#x202;" horiz-adv-x="1296" 
d="M47 0zM1221 0h-206l-113 381h-551l-109 -381h-195l457 1490h271zM860 525l-126 447l-104 366q-58 -207 -102 -356l-134 -457h466zM942 1616h-142q1 3 1 12q0 92 -31.5 127t-122.5 35q-92 0 -123 -36.5t-31 -137.5h-142q0 169 76.5 234.5t256.5 65.5q118 0 188 -71.5
t70 -228.5z" />
    <glyph glyph-name="uni0203" unicode="&#x203;" horiz-adv-x="1111" 
d="M101 0zM960 0h-156l-32 157q-30 -103 -108.5 -137.5t-229.5 -34.5q-100 0 -164 19.5t-102 65.5t-52.5 112.5t-14.5 171.5q0 47 16.5 84t45 63t76 45t98.5 30t123.5 17.5t141.5 8.5t161 2v297q0 51 -48 70.5t-171 19.5q-86 0 -129 -4t-65.5 -23.5t-26 -38.5t-4.5 -71
q-1 -19 -1 -30l-153 6q-2 16 -2 47q0 67 19.5 113.5t50.5 73t85 41.5t107 19t132 4q120 0 195 -18.5t123 -66.5t66.5 -122.5t18.5 -194.5v-726zM763 314v171q-197 0 -303 -15t-141.5 -41.5t-35.5 -74.5v-6q0 -152 25 -189t153 -37q109 0 177 26t94.5 66.5t30.5 99.5z
M852 1230h-142q1 3 1 12q0 92 -31.5 127t-122.5 35q-92 0 -123 -36.5t-31 -137.5h-142q0 169 76.5 234.5t256.5 65.5q118 0 188 -71.5t70 -228.5z" />
    <glyph glyph-name="uni0204" unicode="&#x204;" horiz-adv-x="1148" 
d="M132 0zM1010 0h-844v1490h835l20 -154h-652v-479h557v-162h-557v-542h661zM749 1934q17 -14 91 -88t140 -141l65 -68l-17 -21l-93 35q-93 35 -192 72t-110 42q-35 15 -53 44t-18 60q0 41 28 70.5t75 29.5q44 0 84 -35zM320 1934q17 -14 91 -88t139 -141l66 -68l-17 -21
l-93 35q-93 35 -192 72t-110 42q-35 15 -53 44t-18 60q0 41 28 70.5t75 29.5q44 0 84 -35z" />
    <glyph glyph-name="uni0205" unicode="&#x205;" horiz-adv-x="1141" 
d="M65 0zM1014 564q-120 -12 -149 -14h-545q1 -145 8 -318q5 -67 57.5 -88.5t204.5 -21.5q57 0 98 4.5t66.5 16t40 22t21.5 33t9 38t4 47t5 51.5l153 -28q-2 -70 -10 -118.5t-27 -85.5t-45 -58.5t-70 -35.5t-97 -18.5t-131 -4.5q-100 0 -174 11.5t-126.5 28.5t-86.5 55.5
t-53.5 73.5t-28.5 103t-11.5 123.5t-2.5 153.5q0 138 3.5 215t19.5 154.5t43 112.5t80 65t125 38.5t183 8.5q77 0 133 -4.5t103 -18.5t77.5 -32t54 -53t36 -72.5t20.5 -99.5t10 -125.5t2 -158.5zM321 655h496q-2 128 -10 234q-4 61 -52.5 81.5t-177.5 20.5q-143 0 -181 -16
q-17 -5 -29.5 -17.5t-20.5 -35.5t-12.5 -43t-7 -55.5t-3.5 -55t-1.5 -59.5t-0.5 -54zM681 1548q17 -14 91 -88t140 -141l65 -68l-17 -21l-93 35q-93 35 -192 72t-110 42q-35 15 -53 44t-18 60q0 41 28 70.5t75 29.5q44 0 84 -35zM252 1548q17 -14 91 -88t139 -141l66 -68
l-17 -21l-93 35q-93 35 -192 72t-110 42q-35 15 -53 44t-18 60q0 41 28 70.5t75 29.5q44 0 84 -35z" />
    <glyph glyph-name="uni0206" unicode="&#x206;" horiz-adv-x="1148" 
d="M166 0zM1010 0h-844v1490h835l20 -154h-652v-479h557v-162h-557v-542h661zM884 1616h-142q1 3 1 12q0 92 -31.5 127t-122.5 35q-92 0 -123 -36.5t-31 -137.5h-142q0 169 76.5 234.5t256.5 65.5q118 0 188 -71.5t70 -228.5z" />
    <glyph glyph-name="uni0207" unicode="&#x207;" horiz-adv-x="1141" 
d="M124 0zM1014 564q-120 -12 -149 -14h-545q1 -145 8 -318q5 -67 57.5 -88.5t204.5 -21.5q57 0 98 4.5t66.5 16t40 22t21.5 33t9 38t4 47t5 51.5l153 -28q-2 -70 -10 -118.5t-27 -85.5t-45 -58.5t-70 -35.5t-97 -18.5t-131 -4.5q-100 0 -174 11.5t-126.5 28.5t-86.5 55.5
t-53.5 73.5t-28.5 103t-11.5 123.5t-2.5 153.5q0 138 3.5 215t19.5 154.5t43 112.5t80 65t125 38.5t183 8.5q77 0 133 -4.5t103 -18.5t77.5 -32t54 -53t36 -72.5t20.5 -99.5t10 -125.5t2 -158.5zM321 655h496q-2 128 -10 234q-4 61 -52.5 81.5t-177.5 20.5q-143 0 -181 -16
q-17 -5 -29.5 -17.5t-20.5 -35.5t-12.5 -43t-7 -55.5t-3.5 -55t-1.5 -59.5t-0.5 -54zM868 1230h-142q1 3 1 12q0 92 -31.5 127t-122.5 35q-92 0 -123 -36.5t-31 -137.5h-142q0 169 76.5 234.5t256.5 65.5q118 0 188 -71.5t70 -228.5z" />
    <glyph glyph-name="uni0208" unicode="&#x208;" horiz-adv-x="547" 
d="M0 0zM375 0h-203v1490h203v-1490zM347 1934q17 -14 91 -88t140 -141l65 -68l-17 -21l-93 35q-93 35 -192 72t-110 42q-35 15 -53 44t-18 60q0 41 28 70.5t75 29.5q44 0 84 -35zM-82 1934q17 -14 91 -88t139 -141l66 -68l-17 -21l-93 35q-93 35 -192 72t-110 42
q-35 15 -53 44t-18 60q0 41 28 70.5t75 29.5q44 0 84 -35z" />
    <glyph glyph-name="uni0209" unicode="&#x209;" 
d="M0 0zM364 0h-197v1097h197v-1097zM303 1548q17 -14 91 -88t140 -141l65 -68l-17 -21l-93 35q-93 35 -192 72t-110 42q-35 15 -53 44t-18 60q0 41 28 70.5t75 29.5q44 0 84 -35zM-126 1548q17 -14 91 -88t139 -141l66 -68l-17 -21l-93 35q-93 35 -192 72t-110 42
q-35 15 -53 44t-18 60q0 41 28 70.5t75 29.5q44 0 84 -35z" />
    <glyph glyph-name="uni020A" unicode="&#x20a;" horiz-adv-x="547" 
d="M0 0zM375 0h-203v1490h203v-1490zM569 1616h-142q1 3 1 12q0 92 -31.5 127t-122.5 35q-92 0 -123 -36.5t-31 -137.5h-142q0 169 76.5 234.5t256.5 65.5q118 0 188 -71.5t70 -228.5z" />
    <glyph glyph-name="uni020B" unicode="&#x20b;" 
d="M0 0zM364 0h-197v1097h197v-1097zM561 1230h-142q1 3 1 12q0 92 -31.5 127t-122.5 35q-92 0 -123 -36.5t-31 -137.5h-142q0 169 76.5 234.5t256.5 65.5q118 0 188 -71.5t70 -228.5z" />
    <glyph glyph-name="uni020C" unicode="&#x20c;" horiz-adv-x="1438" 
d="M132 0zM710 -24q-87 0 -154.5 4t-124.5 19.5t-97.5 28.5t-73 49.5t-53.5 63t-36 88t-22 105t-11.5 134.5t-5 156t-0.5 188q0 148 8 246t31.5 182t62 132t105 82.5t155 47t216.5 12.5q121 0 207 -12t152.5 -42.5t107 -76t66.5 -119.5t35.5 -165.5t9.5 -222.5
q0 -370 -11 -487q-19 -200 -92 -286q-77 -92 -262 -116q-88 -11 -213 -11zM710 1360q-86 0 -143 -4t-99.5 -17t-65.5 -29t-37.5 -49.5t-19 -68.5t-6.5 -95q-3 -185 -3 -372q0 -282 15 -386q24 -156 91 -180q50 -29 268 -29t268 29q19 7 34.5 23t26 43t18.5 54.5t13 70.5
t8 77.5t4 88t1.5 88.5t0.5 93q0 202 -3 400q-2 60 -6.5 95t-19 68.5t-37.5 49.5t-65.5 29t-99.5 17t-143 4zM875 1934q17 -14 91 -88t140 -141l65 -68l-17 -21l-93 35q-93 35 -192 72t-110 42q-35 15 -53 44t-18 60q0 41 28 70.5t75 29.5q44 0 84 -35zM446 1934
q17 -14 91 -88t139 -141l66 -68l-17 -21l-93 35q-93 35 -192 72t-110 42q-35 15 -53 44t-18 60q0 41 28 70.5t75 29.5q44 0 84 -35z" />
    <glyph glyph-name="uni020D" unicode="&#x20d;" horiz-adv-x="1178" 
d="M124 0zM587 123q142 3 197.5 21t55.5 71q11 143 11 331q0 62 -5 177.5t-5 171.5q0 17 -5.5 31t-18 23.5t-25 16.5t-35 11t-38 7t-44 4t-44 1h-45.5h-45.5t-44 -1t-44 -4t-38 -7t-35 -11t-25 -16.5t-18 -23.5t-5.5 -31q0 -56 -5 -171.5t-5 -177.5q0 -188 11 -331
q0 -53 58.5 -72.5t196.5 -19.5zM585 -15q-111 0 -185 9t-127.5 39.5t-81.5 65t-44 109t-19.5 147.5t-3.5 203q0 97 2.5 162t11.5 127.5t22.5 101t39 73t57.5 52.5t81.5 31.5t108 18t139.5 4.5t139.5 -4.5t108 -18t81.5 -31.5t57.5 -52.5t39 -73t22.5 -101t11.5 -127.5
t2.5 -162q0 -130 -3.5 -203t-19.5 -147.5t-44.5 -109.5t-82 -65t-127.5 -39t-186 -9zM741 1548q17 -14 91 -88t140 -141l65 -68l-17 -21l-93 35q-93 35 -192 72t-110 42q-35 15 -53 44t-18 60q0 41 28 70.5t75 29.5q44 0 84 -35zM312 1548q17 -14 91 -88t139 -141l66 -68
l-17 -21l-93 35q-93 35 -192 72t-110 42q-35 15 -53 44t-18 60q0 41 28 70.5t75 29.5q44 0 84 -35z" />
    <glyph glyph-name="uni020E" unicode="&#x20e;" horiz-adv-x="1438" 
d="M132 0zM710 -24q-87 0 -154.5 4t-124.5 19.5t-97.5 28.5t-73 49.5t-53.5 63t-36 88t-22 105t-11.5 134.5t-5 156t-0.5 188q0 148 8 246t31.5 182t62 132t105 82.5t155 47t216.5 12.5q121 0 207 -12t152.5 -42.5t107 -76t66.5 -119.5t35.5 -165.5t9.5 -222.5
q0 -370 -11 -487q-19 -200 -92 -286q-77 -92 -262 -116q-88 -11 -213 -11zM710 1360q-86 0 -143 -4t-99.5 -17t-65.5 -29t-37.5 -49.5t-19 -68.5t-6.5 -95q-3 -185 -3 -372q0 -282 15 -386q24 -156 91 -180q50 -29 268 -29t268 29q19 7 34.5 23t26 43t18.5 54.5t13 70.5
t8 77.5t4 88t1.5 88.5t0.5 93q0 202 -3 400q-2 60 -6.5 95t-19 68.5t-37.5 49.5t-65.5 29t-99.5 17t-143 4zM1010 1616h-142q1 3 1 12q0 92 -31.5 127t-122.5 35q-92 0 -123 -36.5t-31 -137.5h-142q0 169 76.5 234.5t256.5 65.5q118 0 188 -71.5t70 -228.5z" />
    <glyph glyph-name="uni020F" unicode="&#x20f;" horiz-adv-x="1178" 
d="M124 0zM587 123q142 3 197.5 21t55.5 71q11 143 11 331q0 62 -5 177.5t-5 171.5q0 17 -5.5 31t-18 23.5t-25 16.5t-35 11t-38 7t-44 4t-44 1h-45.5h-45.5t-44 -1t-44 -4t-38 -7t-35 -11t-25 -16.5t-18 -23.5t-5.5 -31q0 -56 -5 -171.5t-5 -177.5q0 -188 11 -331
q0 -53 58.5 -72.5t196.5 -19.5zM585 -15q-111 0 -185 9t-127.5 39.5t-81.5 65t-44 109t-19.5 147.5t-3.5 203q0 97 2.5 162t11.5 127.5t22.5 101t39 73t57.5 52.5t81.5 31.5t108 18t139.5 4.5t139.5 -4.5t108 -18t81.5 -31.5t57.5 -52.5t39 -73t22.5 -101t11.5 -127.5
t2.5 -162q0 -130 -3.5 -203t-19.5 -147.5t-44.5 -109.5t-82 -65t-127.5 -39t-186 -9zM876 1230h-142q1 3 1 12q0 92 -31.5 127t-122.5 35q-92 0 -123 -36.5t-31 -137.5h-142q0 169 76.5 234.5t256.5 65.5q118 0 188 -71.5t70 -228.5z" />
    <glyph glyph-name="uni0210" unicode="&#x210;" horiz-adv-x="1357" 
d="M0 0zM1199 1080q0 -191 -72 -283.5t-201 -113.5q192 -39 228 -244l77 -439h-217q-8 46 -18.5 133.5t-19.5 148t-24 128.5t-39.5 114t-58.5 68q-54 23 -177 23h-309v-615h-202v1490h455q72 0 122.5 -1.5t106.5 -6.5t94 -14t77.5 -24t65 -37t48.5 -52.5t36 -70t20.5 -90.5
t7.5 -114zM999 1001v139q0 38 -1.5 59.5t-7.5 46t-18.5 37t-33 25t-53 17.5t-76 8.5t-104.5 3.5h-337v-563h349q77 0 127 8t81.5 22.5t47.5 44t21 63t5 89.5zM559 1934q17 -14 91 -88t140 -141l65 -68l-17 -21l-93 35q-93 35 -192 72t-110 42q-35 15 -53 44t-18 60
q0 41 28 70.5t75 29.5q44 0 84 -35zM130 1934q17 -14 91 -88t139 -141l66 -68l-17 -21l-93 35q-93 35 -192 72t-110 42q-35 15 -53 44t-18 60q0 41 28 70.5t75 29.5q44 0 84 -35z" />
    <glyph glyph-name="uni0211" unicode="&#x211;" horiz-adv-x="726" 
d="M0 0zM643 1122l-8 -167q-38 5 -72 5q-71 0 -115 -14t-66.5 -48t-30 -77.5t-7.5 -116.5q0 -41 3.5 -120t3.5 -113v-471h-197v1097h179l20 -123q31 72 94 111.5t151 39.5q22 0 45 -3zM557 1548q17 -14 91 -88t140 -141l65 -68l-17 -21l-93 35q-93 35 -192 72t-110 42
q-35 15 -53 44t-18 60q0 41 28 70.5t75 29.5q44 0 84 -35zM128 1548q17 -14 91 -88t139 -141l66 -68l-17 -21l-93 35q-93 35 -192 72t-110 42q-35 15 -53 44t-18 60q0 41 28 70.5t75 29.5q44 0 84 -35z" />
    <glyph glyph-name="uni0212" unicode="&#x212;" horiz-adv-x="1325" 
d="M166 0zM994 1616h-142q1 3 1 12q0 92 -31.5 127t-122.5 35q-92 0 -123 -36.5t-31 -137.5h-142q0 169 76.5 234.5t256.5 65.5q118 0 188 -71.5t70 -228.5zM1199 1080q0 -191 -72 -283.5t-201 -113.5q192 -39 228 -244l77 -439h-217q-8 46 -18.5 133.5t-19.5 148t-24 128.5
t-39.5 114t-58.5 68q-54 23 -177 23h-309v-615h-202v1490h455q72 0 122.5 -1.5t106.5 -6.5t94 -14t77.5 -24t65 -37t48.5 -52.5t36 -70t20.5 -90.5t7.5 -114zM999 1001v139q0 38 -1.5 59.5t-7.5 46t-18.5 37t-33 25t-53 17.5t-76 8.5t-104.5 3.5h-337v-563h349q77 0 127 8
t81.5 22.5t47.5 44t21 63t5 89.5z" />
    <glyph glyph-name="uni0213" unicode="&#x213;" horiz-adv-x="726" 
d="M101 0zM643 1122l-8 -167q-38 5 -72 5q-71 0 -115 -14t-66.5 -48t-30 -77.5t-7.5 -116.5q0 -41 3.5 -120t3.5 -113v-471h-197v1097h179l20 -123q31 72 94 111.5t151 39.5q22 0 45 -3zM692 1230h-142q1 3 1 12q0 92 -31.5 127t-122.5 35q-92 0 -123 -36.5t-31 -137.5h-142
q0 169 76.5 234.5t256.5 65.5q118 0 188 -71.5t70 -228.5z" />
    <glyph glyph-name="uni0214" unicode="&#x214;" horiz-adv-x="1442" 
d="M152 0zM1277 1490v-933q0 -120 -10.5 -206t-37.5 -152.5t-67.5 -108t-106 -68t-146.5 -36.5t-196 -10q-111 0 -189 9t-144 33.5t-106.5 65t-69.5 106t-40.5 154.5t-11.5 213v933h203v-959q0 -83 0.5 -120t5.5 -90.5t13 -73t26.5 -48.5t42 -36.5t64.5 -18.5t88.5 -12.5
t118.5 -1.5q84 0 140.5 5t98.5 20t64.5 34.5t36 57.5t17.5 79t4 109l-1 1055h203zM879 1934q17 -14 91 -88t140 -141l65 -68l-17 -21l-93 35q-93 35 -192 72t-110 42q-35 15 -53 44t-18 60q0 41 28 70.5t75 29.5q44 0 84 -35zM450 1934q17 -14 91 -88t139 -141l66 -68
l-17 -21l-93 35q-93 35 -192 72t-110 42q-35 15 -53 44t-18 60q0 41 28 70.5t75 29.5q44 0 84 -35z" />
    <glyph glyph-name="uni0215" unicode="&#x215;" horiz-adv-x="1170" 
d="M119 0zM1020 -1h-182l-18 141q-26 -79 -113.5 -117t-213.5 -38q-86 0 -145 17t-98.5 49.5t-61 91t-30 131t-8.5 180.5v643h197v-637q0 -22 -0.5 -59.5t-0.5 -52.5q0 -53 2 -83t10.5 -59t22.5 -42.5t42 -24.5t64.5 -14t93.5 -3q64 0 109 9t71 23.5t39.5 39.5t17.5 49t4 60
q0 12 -0.5 39t-0.5 41v714h199v-1098zM735 1548q17 -14 91 -88t140 -141l65 -68l-17 -21l-93 35q-93 35 -192 72t-110 42q-35 15 -53 44t-18 60q0 41 28 70.5t75 29.5q44 0 84 -35zM306 1548q17 -14 91 -88t139 -141l66 -68l-17 -21l-93 35q-93 35 -192 72t-110 42
q-35 15 -53 44t-18 60q0 41 28 70.5t75 29.5q44 0 84 -35z" />
    <glyph glyph-name="uni0216" unicode="&#x216;" horiz-adv-x="1442" 
d="M152 0zM1277 1490v-933q0 -120 -10.5 -206t-37.5 -152.5t-67.5 -108t-106 -68t-146.5 -36.5t-196 -10q-111 0 -189 9t-144 33.5t-106.5 65t-69.5 106t-40.5 154.5t-11.5 213v933h203v-959q0 -83 0.5 -120t5.5 -90.5t13 -73t26.5 -48.5t42 -36.5t64.5 -18.5t88.5 -12.5
t118.5 -1.5q84 0 140.5 5t98.5 20t64.5 34.5t36 57.5t17.5 79t4 109l-1 1055h203zM1015 1616h-142q1 3 1 12q0 92 -31.5 127t-122.5 35q-92 0 -123 -36.5t-31 -137.5h-142q0 169 76.5 234.5t256.5 65.5q118 0 188 -71.5t70 -228.5z" />
    <glyph glyph-name="uni0217" unicode="&#x217;" horiz-adv-x="1170" 
d="M150 0zM1020 -1h-182l-18 141q-26 -79 -113.5 -117t-213.5 -38q-86 0 -145 17t-98.5 49.5t-61 91t-30 131t-8.5 180.5v643h197v-637q0 -22 -0.5 -59.5t-0.5 -52.5q0 -53 2 -83t10.5 -59t22.5 -42.5t42 -24.5t64.5 -14t93.5 -3q64 0 109 9t71 23.5t39.5 39.5t17.5 49t4 60
q0 12 -0.5 39t-0.5 41v714h199v-1098zM870 1230h-142q1 3 1 12q0 92 -31.5 127t-122.5 35q-92 0 -123 -36.5t-31 -137.5h-142q0 169 76.5 234.5t256.5 65.5q118 0 188 -71.5t70 -228.5z" />
    <glyph glyph-name="uni0218" unicode="&#x218;" horiz-adv-x="1291" 
d="M119 0zM1144 437q0 -65 -4 -117.5t-14.5 -96t-22.5 -76.5t-34 -58.5t-43.5 -43.5t-56 -30.5t-66.5 -20t-80 -11.5t-91.5 -5.5t-106.5 -1.5q-119 0 -199.5 7t-137 30t-87.5 47.5t-49 78t-23.5 102.5t-9.5 139l185 30q3 -22 6 -62q6 -62 11.5 -87.5t21.5 -56.5t50 -40.5
t89 -16.5t147 -7q76 0 125 4t86 16.5t56 28.5t30.5 49.5t14.5 69.5t2 96q-1 132 -14.5 182.5t-57.5 59.5l-498 87q-130 22 -181 99t-54 249q0 92 9.5 157.5t33 115t58 79.5t91 48.5t124 25t165.5 6.5q80 0 137.5 -3.5t112 -12.5t90.5 -25t66.5 -41.5t47.5 -62t26 -85.5
t9 -113l-178 -41q-10 110 -13 125q-12 51 -57 69q-50 21 -209 21q-87 0 -143.5 -5t-92.5 -14.5t-53.5 -28.5t-23.5 -40.5t-6 -56.5v-173q0 -94 82 -108l358 -61q50 -8 80 -14t69 -16t61 -21t49 -28t42 -38t30.5 -50t23 -65.5t12.5 -83t5 -104.5zM629 -126q79 0 125.5 -59
t46.5 -157q0 -133 -90.5 -234t-222.5 -101v60q57 2 92.5 48.5t35.5 116.5q-142 7 -142 170q0 50 44 103t111 53z" />
    <glyph glyph-name="uni0219" unicode="&#x219;" horiz-adv-x="1075" 
d="M117 0zM947 304q0 -96 -21 -157.5t-69.5 -97.5t-118 -50t-175.5 -14q-62 0 -99.5 1t-86.5 5t-78 12.5t-62.5 23t-52.5 37t-36 53.5t-24 73.5t-7 96.5l155 40q9 -114 21 -144q18 -41 75 -52q43 -9 181 -9q83 0 123.5 7.5t54.5 28.5q40 33 40 225q0 29 -12 49.5t-29 31
t-47.5 18t-55 10t-64.5 6.5t-64 7q-73 8 -119 15.5t-93 22.5t-73.5 37t-48.5 57t-31 84t-9 117q0 72 15 122t44 83t79.5 51.5t113.5 26t154 7.5q57 0 93.5 -1.5t80 -7t70.5 -15.5t54.5 -28t42.5 -44.5t24.5 -64.5t9.5 -87l-134 -41q-4 39 -7.5 61.5t-15.5 41.5t-25 27
t-44.5 14t-63.5 7t-92 1q-128 0 -173.5 -25.5t-45.5 -83.5v-102q0 -66 39.5 -83.5t211.5 -39.5q18 -3 27 -4q69 -8 109.5 -15t85.5 -18.5t68.5 -27t47 -39.5t34 -59t17 -81t6.5 -109zM559 -117q79 0 125.5 -59t46.5 -157q0 -133 -90.5 -234t-222.5 -101v60q57 2 92.5 48.5
t35.5 116.5q-142 7 -142 170q0 50 44 103t111 53z" />
    <glyph glyph-name="uni021A" unicode="&#x21a;" horiz-adv-x="994" 
d="M3 0zM976 1336h-389v-1336h-203v1336h-381v154h973v-154zM486 -102q79 0 125.5 -59t46.5 -157q0 -133 -90.5 -234t-222.5 -101v60q57 2 92.5 48.5t35.5 116.5q-142 7 -142 170q0 50 44 103t111 53z" />
    <glyph glyph-name="uni021B" unicode="&#x21b;" horiz-adv-x="720" 
d="M48 0zM587 139l-4 -140q-84 -14 -152 -14q-73 0 -120.5 16t-71.5 51t-33 77.5t-9 108.5v747h-149v112h149v312l196 16v-328h202v-112h-202v-680q0 -108 10.5 -140t57.5 -32q46 0 126 6zM437 -117q79 0 125.5 -59t46.5 -157q0 -133 -90.5 -234t-222.5 -101v60
q57 2 92.5 48.5t35.5 116.5q-142 7 -142 170q0 50 44 103t111 53z" />
    <glyph glyph-name="uni0237" unicode="&#x237;" horiz-adv-x="515" 
d="M345 1097v-1036q0 -200 -54.5 -281.5t-200.5 -81.5q-44 0 -106 8l-5 122q12 1 34.5 1t35 0.5t30.5 3.5t28.5 10t21 18t15 30t4.5 45v1161h197z" />
    <glyph glyph-name="circumflex" unicode="&#x2c6;" horiz-adv-x="801" 
d="M407 1627l-231 -236l-55 54l192 309q35 52 94 52t94 -52l192 -309l-55 -54z" />
    <glyph glyph-name="caron" unicode="&#x2c7;" horiz-adv-x="801" 
d="M176 1806l231 -236l231 236l55 -54l-192 -309q-35 -52 -94 -52t-94 52l-192 309z" />
    <glyph glyph-name="breve" unicode="&#x2d8;" horiz-adv-x="743" 
d="M83 1748h142q-1 -3 -1 -12q0 -92 31.5 -127t122.5 -35q92 0 123 36.5t31 137.5h142q0 -169 -76.5 -234.5t-256.5 -65.5q-118 0 -188 71.5t-70 228.5z" />
    <glyph glyph-name="dotaccent" unicode="&#x2d9;" horiz-adv-x="447" 
d="M128 1207q0 38 0.5 114t0.5 114h196q0 -38 0.5 -114t0.5 -114h-198z" />
    <glyph glyph-name="ring" unicode="&#x2da;" horiz-adv-x="745" 
d="M358 538q-43 0 -72 -42t-29 -94q0 -137 128 -137q43 0 72.5 42t29.5 93q0 65 -33.5 101.5t-95.5 36.5zM372 656q112 0 185 -71.5t73 -182.5q0 -113 -72 -183.5t-184 -70.5q-108 0 -182.5 69t-74.5 185q0 113 71.5 183.5t183.5 70.5z" />
    <glyph glyph-name="ogonek" unicode="&#x2db;" horiz-adv-x="716" 
d="M374 0h108q-82 -84 -131.5 -174t-49.5 -167q0 -86 83 -86q63 0 164 46l35 -78q-32 -36 -117.5 -65.5t-168.5 -29.5q-82 0 -133.5 34.5t-51.5 110.5q0 43 13 84.5t30.5 74t57.5 79.5t69.5 78t91.5 93z" />
    <glyph glyph-name="tilde" unicode="&#x2dc;" horiz-adv-x="1015" 
d="M842 1097q-51 -185 -227 -185q-53 0 -143 42t-132 42q-78 0 -146 -63l-29 43q49 156 209 156q53 0 99.5 -17t83.5 -34t66 -17q82 0 185 83z" />
    <glyph glyph-name="hungarumlaut" unicode="&#x2dd;" horiz-adv-x="1126" 
d="M387 1605q40 35 84 35q47 0 75 -29.5t28 -70.5q0 -31 -18 -60t-53 -44q-11 -5 -110 -42t-192 -72l-93 -35l-17 21q257 266 296 297zM816 1605q40 35 84 35q47 0 75 -29.5t28 -70.5q0 -31 -18 -60t-53 -44q-11 -5 -110 -42t-192 -72l-93 -35l-17 21q257 266 296 297z" />
    <glyph glyph-name="uni0307" unicode="&#x307;" horiz-adv-x="447" 
d="M128 1207q0 38 0.5 114t0.5 114h196q0 -38 0.5 -114t0.5 -114h-198z" />
    <glyph glyph-name="uni030F" unicode="&#x30f;" horiz-adv-x="1126" 
d="M707 1605q17 -14 91 -88t140 -141l65 -68l-17 -21l-93 35q-93 35 -192 72t-110 42q-35 15 -53 44t-18 60q0 41 28 70.5t75 29.5q44 0 84 -35zM278 1605q17 -14 91 -88t139 -141l66 -68l-17 -21l-93 35q-93 35 -192 72t-110 42q-35 15 -53 44t-18 60q0 41 28 70.5t75 29.5
q44 0 84 -35z" />
    <glyph glyph-name="uni0311" unicode="&#x311;" horiz-adv-x="743" 
d="M674 1448h-142q1 3 1 12q0 92 -31.5 127t-122.5 35q-92 0 -123 -36.5t-31 -137.5h-142q0 169 76.5 234.5t256.5 65.5q118 0 188 -71.5t70 -228.5z" />
    <glyph glyph-name="uni0326" unicode="&#x326;" horiz-adv-x="679" 
d="M331 -140q79 0 125.5 -59t46.5 -157q0 -133 -90.5 -234t-222.5 -101v60q57 2 92.5 48.5t35.5 116.5q-142 7 -142 170q0 50 44 103t111 53z" />
    <glyph glyph-name="endash" unicode="&#x2013;" horiz-adv-x="1069" 
d="M942 580h-811v188h811v-188z" />
    <glyph glyph-name="emdash" unicode="&#x2014;" horiz-adv-x="1785" 
d="M1659 580h-1528v188h1528v-188z" />
    <glyph glyph-name="quoteleft" unicode="&#x2018;" horiz-adv-x="525" 
d="M416 1484q-61 0 -99 -59.5t-38 -139.5q132 0 132 -150q0 -46 -40 -90.5t-100 -44.5q-153 0 -153 202q0 140 88 245t210 105v-68z" />
    <glyph glyph-name="quoteright" unicode="&#x2019;" horiz-adv-x="525" 
d="M123 1068q62 0 99.5 58.5t37.5 140.5q-132 0 -132 150q0 50 42 92.5t118 42.5q61 0 97.5 -56.5t36.5 -145.5q0 -135 -88 -242.5t-211 -107.5v68z" />
    <glyph glyph-name="quotesinglbase" unicode="&#x201a;" horiz-adv-x="408" 
d="M200 -270q-75 355 -75 434q0 77 17 107t70 30q86 0 86 -122q0 -37 -18 -150.5t-36 -208.5l-19 -96z" />
    <glyph glyph-name="quotedblleft" unicode="&#x201c;" horiz-adv-x="1005" 
d="M896 1484q-60 0 -98 -59t-38 -140q131 0 131 -150q0 -48 -41 -91.5t-117 -43.5q-62 0 -99.5 57.5t-37.5 144.5q0 137 89 243.5t211 106.5v-68zM418 1484q-63 0 -101 -58.5t-38 -140.5q134 0 134 -150q0 -48 -40.5 -91.5t-101.5 -43.5q-153 0 -153 202q0 137 87 243.5
t213 106.5v-68z" />
    <glyph glyph-name="quotedblright" unicode="&#x201d;" horiz-adv-x="1005" 
d="M602 1068q63 0 100.5 57.5t37.5 141.5q-133 0 -133 150q0 48 42 91.5t119 43.5q61 0 97.5 -56.5t36.5 -145.5q0 -87 -38.5 -167.5t-108.5 -131.5t-153 -51v68zM123 1068q62 0 99.5 58.5t37.5 140.5q-132 0 -132 150q0 50 42 92.5t118 42.5q60 0 98.5 -57.5t38.5 -144.5
q0 -135 -89 -242.5t-213 -107.5v68z" />
    <glyph glyph-name="quotedblbase" unicode="&#x201e;" horiz-adv-x="693" 
d="M200 -270q-75 355 -75 434q0 77 17 107t70 30q86 0 86 -122q0 -37 -18 -150.5t-36 -208.5l-19 -96zM484 -270q-75 355 -75 434q0 77 17 107t70 30q86 0 86 -122q0 -37 -18 -150.5t-36 -208.5l-19 -96z" />
    <glyph glyph-name="dagger" unicode="&#x2020;" horiz-adv-x="830" 
d="M364 23q-47 30 -47 123q23 292 51 597l18 196l-10 -4t-27 -10.5t-38.5 -14.5t-46 -16t-47.5 -14.5t-45 -10.5t-37 -4q-115 0 -115 107q0 48 24.5 80t65.5 32q21 0 39 -1t35.5 -4.5t29.5 -6t30.5 -9t27 -9.5t30 -12t29.5 -12l59 -23q-67 299 -67 391q0 80 29 117t71 37
q50 0 75 -37t25 -125q0 -66 -69 -383q198 77 271 77q101 0 101 -125q0 -45 -31.5 -69.5t-84.5 -24.5q-61 0 -251 74l28 -310q25 -277 42 -483q0 -138 -106 -138q-35 0 -59 15z" />
    <glyph glyph-name="daggerdbl" unicode="&#x2021;" horiz-adv-x="1037" 
d="M934 397q-26 -16 -54 -16q-61 0 -119 16t-114.5 43t-57.5 27l14 -47q2 -5 11.5 -37t13.5 -46.5t12.5 -45.5t13 -50.5t10 -45t7.5 -45.5t2 -36q0 -71 -40 -111.5t-107 -40.5t-107.5 40.5t-40.5 109.5q0 47 25.5 139.5t31.5 122.5l27 93q-199 -86 -267 -86q-62 0 -96 30.5
t-34 88.5q0 119 131 119q71 0 266 -84v444q-200 -84 -268 -84q-129 0 -129 118q0 58 33.5 89.5t95.5 31.5q68 0 268 -87q0 2 -17.5 59.5t-30 101.5t-24.5 102t-12 90q0 71 40 111.5t108 40.5q66 0 106.5 -41t40.5 -109q0 -35 -11 -84.5t-37 -141t-36 -129.5q214 87 278 87
q118 0 118 -134q0 -50 -35.5 -77.5t-94.5 -27.5q-73 0 -266 84v-444q201 84 269 84q61 0 94 -31t33 -88q0 -68 -51 -103z" />
    <glyph glyph-name="bullet" unicode="&#x2022;" horiz-adv-x="894" 
d="M111 662q0 97 39.5 179.5t120.5 135.5t188 53q105 0 182 -51.5t114 -133.5t37 -181q0 -155 -90 -260.5t-245 -105.5q-158 0 -252 107t-94 257z" />
    <glyph glyph-name="ellipsis" unicode="&#x2026;" horiz-adv-x="1606" 
d="M1358 -37q-63 0 -101.5 42.5t-38.5 111.5q0 72 39 113t115 41q51 0 88.5 -47t37.5 -107q0 -68 -37.5 -111t-102.5 -43zM664 118q0 65 39 109t101 44q63 0 102 -42.5t39 -111.5q0 -68 -37.5 -111t-101.5 -43q-62 0 -102 45.5t-40 109.5zM252 -37q-61 0 -101 44t-40 110
q0 67 37.5 110.5t103.5 43.5q61 0 100.5 -45t39.5 -109q0 -68 -37.5 -111t-102.5 -43z" />
    <glyph glyph-name="guilsinglleft" unicode="&#x2039;" horiz-adv-x="725" 
d="M80 742l475 424l95 -113l-421 -360l421 -360l-95 -113l-475 424v98z" />
    <glyph glyph-name="guilsinglright" unicode="&#x203a;" horiz-adv-x="729" 
d="M650 742v-98l-475 -424l-95 113l421 360l-421 360l95 113z" />
    <glyph glyph-name="fraction" unicode="&#x2044;" horiz-adv-x="748" 
d="M764 1490l-649 -1490h-140l646 1490h143z" />
    <glyph glyph-name="Euro" unicode="&#x20ac;" horiz-adv-x="1439" 
d="M58 823v104l914 1v-105h-914zM58 650h914v-101h-914v101zM1042 462l174 -26q-5 -96 -17 -163.5t-35.5 -120.5t-57.5 -85.5t-87.5 -53.5t-120 -29t-160.5 -8q-90 0 -161 4.5t-129.5 20t-102 30t-77 48.5t-56 61t-38 82.5t-23.5 97.5t-12.5 122t-5.5 140t-1 166
q0 112 1 180t6 148t12.5 124t24 96.5t37.5 78t55 55.5t74.5 41.5t98.5 23.5t124.5 15t154.5 3q91 0 155 -6.5t120 -25t92 -49t63.5 -79.5t42.5 -115.5t22 -159.5l-175 -34q-5 51 -9 85t-11.5 67t-12 53.5t-18.5 40t-22.5 29.5t-31.5 19t-38.5 12.5t-51 6.5t-61.5 3h-76
q-70 0 -114.5 -1.5t-89 -7t-70 -16t-47.5 -28t-31.5 -43t-11.5 -61.5q-9 -264 -9 -539q0 -192 9 -375q5 -57 32.5 -89t107 -51t225.5 -19q78 0 131 4.5t89 21t55 30t30.5 52.5t15 65.5t7.5 90.5q1 14 1.5 22t1.5 21.5t2 24.5z" />
    <glyph glyph-name="trademark" unicode="&#x2122;" horiz-adv-x="1125" 
d="M515 990v531h119l124 -389l116 389h119v-531h-96v356l-107 -356h-84l-105 356v-356h-86zM205 990v458h-122v73h346v-73h-122v-458h-102z" />
    <glyph glyph-name="uni3026" unicode="&#x3026;" horiz-adv-x="373" 
 />
    <glyph glyph-name="uniF6C3" unicode="&#xf6c3;" horiz-adv-x="679" 
d="M331 -140q79 0 125.5 -59t46.5 -157q0 -133 -90.5 -234t-222.5 -101v60q57 2 92.5 48.5t35.5 116.5q-142 7 -142 170q0 50 44 103t111 53z" />
    <glyph glyph-name="glyph392" horiz-adv-x="373" 
 />
    <glyph glyph-name="glyph393" horiz-adv-x="373" 
d="M0 0z" />
    </font>
</defs>
</svg>
