<?xml version="1.0" standalone="no"?>
<!DOCTYPE svg PUBLIC "-//W3C//DTD SVG 1.1//EN" "http://www.w3.org/Graphics/SVG/1.1/DTD/svg11.dtd" >
<svg xmlns="http://www.w3.org/2000/svg" xmlns:xlink="http://www.w3.org/1999/xlink" version="1.1">
<metadata>
Created by FontForge 20161013 at Mon Oct 10 15:30:56 2011
 By ,,,
Copyright (c) 2010, 2011 by vernon adams (vern@newtypography.co.uk), with Reserved Font Name Corben.
</metadata>
<defs>
<font id="Corben-Regular" horiz-adv-x="1773" >
  <font-face 
    font-family="Corben"
    font-weight="400"
    font-stretch="normal"
    units-per-em="2048"
    panose-1="2 15 5 3 2 0 0 2 0 4"
    ascent="1638"
    descent="-410"
    x-height="958"
    cap-height="1404"
    bbox="-277 -495 3172 2202"
    underline-thickness="102"
    underline-position="-307"
    unicode-range="U+000D-FB04"
  />
<missing-glyph horiz-adv-x="748" 
d="M68 0v1365h544v-1365h-544zM136 68h408v1229h-408v-1229z" />
    <glyph glyph-name="ff" unicode="ff" horiz-adv-x="1319" 
d="M890 0h-41q-128 0 -161 33q-20 20 -20 47.5t20 37.5t44.5 11t44.5 15.5t20 46.5v645h-400v-645q0 -58 64.5 -61.5t64.5 -51.5q0 -55 -60 -68q-46 -10 -126 -10l-86 -1q-131 0 -162 40q-14 18 -14 43.5t20 35.5t44.5 11t44.5 15.5t20 46.5v642h-70q-26 0 -43.5 18.5
t-17.5 53.5t23 46t85 11h23v147q0 184 135 304q92 82 236.5 82t321.5 -125q101 89 276 89q144 0 208 -57q37 -32 37 -84q0 -122 -123 -122q-107 0 -107 122v14q-38 16 -77 16q-171 0 -171 -178q0 -118 44 -208h145q72 0 72 -42q0 -34 -21.5 -59t-47.5 -25h-148v-645
q0 -58 64.5 -61.5t64.5 -51.5q0 -55 -74 -68q-54 -10 -152 -10zM797 1109q0 95 32 172q-100 66 -241 66q-163 0 -216 -96q-19 -35 -19 -81q0 -118 44 -208h400v147z" />
    <glyph glyph-name="fi" unicode="fi" horiz-adv-x="1376" 
d="M793 863q0 49 63 75t123 26t83.5 -2.5t47.5 -9.5q51 -16 51 -64v-639q0 -66 20.5 -83t32.5 -22.5t39.5 -13.5t45 -14.5t17.5 -35t-14.5 -46t-53.5 -24.5q-57 -10 -114.5 -9.5t-68 0.5h-39.5t-49 0.5t-51.5 2.5t-47 7.5t-32.5 14.5q-31 18 -31 64q0 18 70.5 52.5
t73.5 39.5q9 26 9 100v362q0 57 -3.5 87t-19 50t-34 28t-68.5 21.5t-50 32.5zM356 1l-112 -2q-131 0 -162 44q-14 19 -14 47q0 17 68.5 51t72.5 41q9 45 9 100v551h-70q-46 0 -60.5 14.5t-14.5 58.5q0 58 147 58q-6 45 -6 118q0 122 64 208q125 166 403 166q488 0 488 -205
q0 -122 -133 -122q-44 0 -73.5 33t-29.5 72.5t26 70.5q-72 68 -267 68q-136 0 -220.5 -64.5t-84.5 -186.5q0 -72 27 -158h142q72 0 72 -44q0 -34 -21.5 -59t-47.5 -25h-148v-554q0 -157 112 -157q31 -9 37 -19t6 -27t-7.5 -31.5t-24 -23t-32 -13.5t-44.5 -7q-42 -3 -102 -3z
" />
    <glyph glyph-name="fl" unicode="fl" horiz-adv-x="1403" 
d="M1145 0l-86 -1q-131 0 -162 40q-14 18 -14 43.5t20 35.5t44 11t44 15.5t20 46.5v1080q0 47 -70 62t-228 15q-347 0 -347 -178q0 -118 44 -208h146q72 0 72 -42q0 -34 -22 -59t-48 -25h-148v-645q0 -31 20.5 -45.5t44.5 -15.5q65 -5 65 -52q0 -55 -74 -68
q-54 -10 -106.5 -10h-75.5t-39.5 0.5t-45 2.5t-43.5 7t-32 14q-32 17 -32 50.5t20 43.5t44 11t44 15.5t20 46.5v642h-70q-26 0 -43 18.5t-17 53.5t17 46t63 11h50v147q0 168 144 259t395 91q311 0 406 -73q37 -29 37 -68v-1127q0 -58 64.5 -61.5t64.5 -51.5q0 -55 -61 -68
q-44 -10 -125 -10z" />
    <glyph glyph-name="ffi" unicode="ffi" horiz-adv-x="2080" 
d="M1497 863q0 49 63 75t123 26t83.5 -2.5t47.5 -9.5q51 -16 51 -64v-639q0 -66 20.5 -83t32.5 -22.5t39.5 -13.5t45 -14.5t17.5 -33.5t-13.5 -44t-41.5 -24q-47 -13 -128 -13h-122q-107 0 -131.5 9.5t-37.5 19.5q-27 18 -27 60q0 18 70.5 52.5t73.5 39.5q9 26 9 100v362
q0 57 -3.5 87t-19 50t-34 28t-68.5 21.5t-50 32.5zM340 0l-86 -1q-131 0 -162 40q-14 18 -14 43.5t20 35.5t44.5 11t44.5 15.5t20 46.5v642h-70q-26 0 -43.5 18.5t-17.5 53.5t23 46t85 11h23v147q0 173 120 266.5t329 93.5q117 0 229 -29.5t160 -84.5q126 101 340 101
q488 0 488 -205q0 -122 -133 -122q-44 0 -73.5 33t-29.5 72.5t26 70.5q-72 68 -267 68q-136 0 -220.5 -64.5t-84.5 -186.5q0 -72 27 -158h142q72 0 72 -44q0 -34 -21.5 -59t-47.5 -25h-148v-554q0 -157 112 -157q31 -9 37 -18.5t6 -31t-15.5 -39t-48.5 -24.5
q-52 -11 -133 -11h-13l-112 -2q-131 0 -162 44q-14 19 -14 47q0 17 68.5 51t72.5 41q9 45 9 100v553l-525 1v-645q0 -58 64.5 -61.5t64.5 -51.5q0 -55 -60 -68q-46 -10 -126 -10zM954 1245q-10 5 -45.5 26.5t-57 32t-56.5 25.5q-68 29 -141 29q-301 0 -301 -188
q0 -118 44 -208h477q30 2 50 2q-6 45 -6 126t36 155z" />
    <glyph glyph-name="ffl" unicode="ffl" horiz-adv-x="1692" 
d="M845 0h-41q-128 0 -161 33q-20 20 -20 47.5t20 37.5t44 11t44 15.5t20 46.5v645h-362v-645q0 -58 64.5 -61.5t64.5 -51.5q0 -55 -60 -68q-46 -10 -126 -10l-86 -1q-131 0 -162 40q-14 18 -14 43.5t20 35.5t44.5 11t44.5 15.5t20 46.5v642h-70q-26 0 -43.5 18.5
t-17.5 53.5t23 46t85 11h23v147q0 147 110 263q53 55 133.5 89t175.5 34q135 0 287 -94q98 58 245 58q275 0 360 -73q33 -29 33 -68v-1127q0 -58 64.5 -61.5t64.5 -51.5q0 -55 -60 -68q-46 -10 -126 -10l-86 -1q-131 0 -162 40q-14 18 -14 43.5t20 35.5t44 11t44 15.5
t20 46.5v1080q0 49 -56 64q-47 13 -122.5 13t-112.5 -7.5t-63.5 -21t-46 -31t-31.5 -40.5q-22 -43 -22 -115.5t43 -170.5h146q72 0 72 -42q0 -34 -22 -59t-48 -25h-148v-645q0 -31 20.5 -45.5t44.5 -15.5q65 -5 65 -52q0 -55 -73 -68q-56 -10 -153 -10zM751 962v147
q0 119 55 201q-97 37 -161.5 37t-116 -10t-93.5 -31q-90 -44 -90 -136q0 -118 44 -208h362z" />
    <glyph glyph-name="f_j" unicode="fj" horiz-adv-x="1332" 
d="M356 1l-112 -2q-131 0 -162 44q-14 19 -14 47q0 17 68.5 51t72.5 41q9 45 9 100v551h-70q-46 0 -60.5 14.5t-14.5 58.5q0 58 147 58q-6 45 -6 118q0 122 64 208q125 166 403 166q488 0 488 -205q0 -122 -133 -122q-44 0 -73.5 33t-29.5 72.5t26 70.5q-72 68 -267 68
q-136 0 -220.5 -64.5t-84.5 -186.5q0 -72 27 -158h142q72 0 72 -44q0 -34 -21.5 -59t-47.5 -25h-148v-554q0 -157 112 -157q31 -9 37 -19t6 -27t-7.5 -31.5t-24 -23t-32 -13.5t-44.5 -7q-42 -3 -102 -3zM950.5 952.5q40.5 10.5 77.5 10.5t53 -0.5t40 -4.5t35 -12
q27 -19 27 -58v-736q0 -211 -66.5 -306t-241.5 -115q-3 -1 -9 -1h-8q-98 0 -98 78q0 69 98 80q167 40 167 94q0 35 -10.5 77t-12.5 54l-10 49v566q0 90 -72 98q-7 1 -18 2t-16 1.5t-12.5 2t-11 3.5t-6.5 5q-7 6 -7 29t30.5 48t71 35.5z" />
    <glyph glyph-name="c_k" unicode="ck" horiz-adv-x="2279" 
d="M1243 0l-86 -1q-131 0 -162 40q-14 18 -14 43.5t20 35.5t44.5 11t44.5 15.5t20 46.5v1101q0 18 -72.5 40.5t-139.5 22.5q-143 0 -217 -52.5t-74 -123.5q0 -141 119 -223q21 -14 57.5 -35t60 -36t48.5 -37q50 -44 50 -100t-37.5 -87t-90 -31t-74.5 9q-7 113 -46.5 173.5
t-132.5 60.5q-152 0 -238.5 -97t-86.5 -261t110.5 -285t278.5 -121q74 0 183 70q31 16 53 16q47 0 47 -42q0 -23 -14 -38q-114 -142 -342.5 -142t-374 135t-145.5 357q0 194 120 339q59 71 154.5 113t214.5 42q40 0 61 -2q-135 109 -135 243.5t133 231.5t322 97
q142 0 260.5 -76.5t138.5 -185.5v-735q34 26 171 125q267 194 267 211q0 23 -76 47q3 91 168 91h136q252 0 252 -28q0 -13 -28.5 -41.5t-58.5 -45.5q-66 0 -151.5 -45t-210.5 -138l-173 -128l315 -332q58 -59 103.5 -90.5t84.5 -41t58.5 -14t28.5 -6.5t23 -7.5t20 -11.5
q18 -16 18 -39q0 -48 -155 -48h-49q-95 0 -130 8.5t-75 46.5q-149 141 -369 456l-170 -115v-195q0 -58 64.5 -61.5t64.5 -51.5q0 -55 -61 -68q-44 -10 -125 -10z" />
    <glyph glyph-name="f_u" unicode="fu" horiz-adv-x="1908" 
d="M97.5 48q-7.5 15 -7.5 37.5t20.5 32.5t44.5 11t44.5 15.5t20.5 46.5v642h-70q-27 0 -44.5 18.5t-17.5 53.5t17 46t63 11h52v147q0 168 101 259t277 91q173 0 226 -73q20 -29 20 -68q0 -122 -124 -122q-106 0 -106 122v14q-38 16 -78 16q-170 0 -170 -178q0 -118 44 -208
h424q92 0 120.5 -21.5t28.5 -102.5v-405q0 -137 22 -193.5t50 -80.5q58 -50 193.5 -50t198.5 69.5t63 232.5v338q0 75 -72 79q-53 3 -62 12t-9 22q0 50 58 76t138.5 26t109.5 -22t29 -104l1 -640q0 -68 73 -73q51 -3 61.5 -10.5t10.5 -35t-34 -50.5q-58 -40 -152.5 -40
t-117 28.5t-22.5 131.5q-121 -176 -370 -176q-197 0 -279.5 106t-82.5 327v343q0 45 -12 56t-16 15.5t-15 7.5t-15 4.5t-17.5 2.5t-16.5 1h-288v-645q0 -31 20 -45.5t44 -15.5q64 -4 64 -52q0 -55 -74 -68q-54 -10 -106.5 -10h-75.5t-39.5 0.5t-45 2.5t-43.5 7t-32 14
t-24.5 24z" />
    <glyph glyph-name=".notdef" horiz-adv-x="748" 
d="M68 0v1365h544v-1365h-544zM136 68h408v1229h-408v-1229z" />
    <glyph glyph-name=".null" horiz-adv-x="0" 
 />
    <glyph glyph-name="nonmarkingreturn" unicode="&#xd;" horiz-adv-x="370" 
 />
    <glyph glyph-name="NULL" horiz-adv-x="370" 
 />
    <glyph glyph-name="NULL" horiz-adv-x="370" 
 />
    <glyph glyph-name="space" unicode=" " horiz-adv-x="370" 
 />
    <glyph glyph-name="exclam" unicode="!" horiz-adv-x="511" 
d="M342 27q-31 -36 -85 -36t-86 35.5t-32 82.5t29.5 80.5t85.5 33.5t87.5 -33t31.5 -80t-31 -83zM378 1144l-77 -587q-8 -77 -17 -95.5t-21.5 -18.5t-18 3t-9.5 10.5t-6.5 14t-4 19t-2.5 20.5t-2.5 23.5t-2.5 23.5l-77 587q-2 26 -2 38q0 70 36 109t85 39t85 -39.5
t36 -108.5q0 -25 -2 -38z" />
    <glyph glyph-name="quotedbl" unicode="&#x22;" horiz-adv-x="791" 
d="M90 1323q0 55 27 91t77 36t78.5 -36t28.5 -83l-70 -442q-2 -19 -12 -33.5t-25 -14.5q-29 0 -34 44zM490 1323q0 55 27 91t77 36t78.5 -36t28.5 -83l-70 -442q-2 -19 -12 -33.5t-25 -14.5q-29 0 -34 44z" />
    <glyph glyph-name="numbersign" unicode="#" horiz-adv-x="1418" 
d="M-2 506q0 38 23 58.5t62 20.5h203l100 445h-198q-81 0 -81 76q0 38 23 58.5t62 20.5h229l108 481q6 41 31.5 68.5t59 27.5t57 -23t23.5 -53t-3 -46l-99 -455h423l108 481q7 41 32.5 68.5t58.5 27.5t56.5 -23t23.5 -53t-3 -46l-99 -455h164q36 0 59 -18t23 -52
q0 -85 -85 -85h-196l-100 -445h190q36 0 59 -18t23 -52q0 -85 -85 -85h-222l-95 -436q-9 -43 -35.5 -71t-61 -28t-58 22t-23.5 50t3 43l94 420h-424l-95 -436q-7 -42 -33 -71t-60.5 -29t-59.5 22.5t-25 50.5t3 43l94 420h-173q-81 0 -81 76zM463 585h423l100 445h-423z" />
    <glyph glyph-name="dollar" unicode="$" horiz-adv-x="1095" 
d="M866 921h-1q-46 0 -57.5 8.5t-11.5 70.5t-39.5 117t-107.5 79l-41 -383q218 -65 292 -111.5t115.5 -99.5t41.5 -132q0 -121 -75.5 -195t-187 -112t-235.5 -38h-25l-19 -184q0 -61 -19.5 -81.5t-37.5 -20.5q-38 0 -38 44t4 84t11 92.5t9 71.5q-146 13 -228 47
q-145 62 -145 113q0 2 11 27q33 75 33 199q0 23 13.5 40t26 17t16.5 -1.5t7.5 -3.5t6.5 -6t5.5 -6.5t5.5 -8.5t4.5 -9.5t3.5 -10t3 -9.5t3 -10q32 -111 64 -157q61 -86 182 -109l45 410q-211 61 -280 103q-151 92 -151 243q0 204 265 279q97 28 215 28h10q8 0 12 -1l30 270
q2 22 16.5 40t31.5 18t29 -11t12 -27.5t-1 -19.5l-30 -280q232 -44 322 -162q33 -43 33 -86.5t-15.5 -65.5t-56 -41t-77.5 -19zM559 234q284 0 284 183q0 114 -155 175q-49 19 -100 35l-42 -393h13zM519 1212q-67 0 -129 -28q-121 -53 -121 -146q0 -75 65.5 -118.5
t186.5 -80.5l41 372q-5 1 -13 1h-30z" />
    <glyph glyph-name="percent" unicode="%" horiz-adv-x="1955" 
d="M1389 1636q43 0 43 -58q0 -30 -19 -68l-751 -1542q-38 -78 -87 -78q-18 0 -30 15t-12 44.5t19 66.5l750 1542q38 78 87 78zM666.5 1340q101.5 -109 101.5 -279t-113 -282t-280 -112t-268 113t-101 282.5t112.5 278t279.5 108.5t268.5 -109zM550 1269q-65 97 -171.5 97
t-159.5 -81.5t-53 -209.5t64 -224.5t169 -96.5t160.5 81.5t55.5 209t-65 224.5zM1818.5 671q101.5 -109 101.5 -279t-113 -282t-280 -112t-268 113t-101 282.5t112.5 278t279.5 108.5t268.5 -109zM1702 600q-65 97 -171.5 97t-159.5 -82t-53 -210t64 -224t169 -96
t160.5 81.5t55.5 209t-65 224.5z" />
    <glyph glyph-name="ampersand" unicode="&#x26;" horiz-adv-x="1564" 
d="M1159 794q-111 -10 -164.5 -36t-89.5 -91l-97 70q48 193 248 241q23 5 154.5 25t165.5 33q96 34 111 123l121 -65q-39 -124 -81 -172q-80 -91 -263 -112q101 -179 101 -356q0 -242 -184.5 -401t-500.5 -159q-263 0 -434 111q-84 55 -132 144.5t-48 205.5q0 194 186 317
q64 43 154 73v1q-105 27 -182 99.5t-77 174.5q0 163 149.5 260t310 97t258 -61t97.5 -176q0 -59 -45 -90.5t-98.5 -31.5t-94.5 4q6 39 6 78q0 92 -49 146.5t-139.5 54.5t-152.5 -77t-62 -184q0 -153 116 -212q38 -19 75.5 -19t58.5 -18.5t21 -48.5q0 -59 -89 -59t-161 -89
t-72 -201q0 -193 240 -255q84 -21 222.5 -21t249 38.5t178 126.5t67.5 220t-74 292z" />
    <glyph glyph-name="quotesingle" unicode="'" horiz-adv-x="391" 
d="M90 1323q0 55 27 91t77 36t78.5 -36t28.5 -83l-70 -442q-2 -19 -12 -33.5t-25 -14.5q-29 0 -34 44z" />
    <glyph glyph-name="parenleft" unicode="(" horiz-adv-x="606" 
d="M585 -92q-82 0 -247.5 146.5t-237.5 370.5q-38 115 -38 269t64 306q122 290 389 433q34 19 80 19t46 -39.5t-71 -84.5q-135 -87 -213 -256t-78 -380q0 -322 169 -542q57 -74 125 -120t68 -84t-56 -38z" />
    <glyph glyph-name="parenright" unicode=")" horiz-adv-x="612" 
d="M30 1452q83 0 247 -145t237 -372q39 -119 39 -255q0 -168 -64 -320q-122 -290 -389 -433q-34 -19 -80 -19t-46 39t69 85q135 91 214 268.5t79 391.5q0 309 -166 520q-56 71 -126 116.5t-70 84.5t56 39z" />
    <glyph glyph-name="asterisk" unicode="*" horiz-adv-x="1185" 
d="M481 1340q0 138 108 138q50 0 84.5 -31t34.5 -89.5t-45 -168t-54 -166.5l-22 -7l-17 6v6q-11 50 -50 160t-39 152zM199 633q-51 0 -85 30t-34 67t17 57q53 62 240 113q102 27 172 27h7l29 -11l-64 -70q-193 -213 -282 -213zM696 1043q126 138 224 193q41 22 80 22
t71 -24.5t32 -71.5l-11 -19v-5h6q-3 -83 -186 -121q-53 -11 -95 -18l-29 -5q-85 -15 -114 -29l-29 27zM479 566q0 56 62 209q36 72 36 102l13 5q27 -9 90 -233q24 -83 24 -104q0 -119 -119 -119q-106 0 -106 140zM1071 807q27 -30 27 -68.5t-32 -74.5t-74 -36
q-64 0 -122 49.5t-119 120.5q-23 34 -49 58v-1q-19 11 -49 41v-1q-1 0 -5 4v15l26 13q83 -27 211 -50l46 -10q14 -3 35 -7t45 -10v-9q33 -4 60 -34zM152 1064q-72 41 -72 89t28.5 81.5t66 33.5t65 -8t53 -28t39.5 -32q20 -19 71 -79l25 -26q48 -54 76 -73l36 -28l-33 -22
q-24 10 -63 16t-51 8l-36 8q-24 5 -32 6.5t-30 6t-32 7.5t-29 8t-29.5 9.5t-26.5 10.5t-26 12z" />
    <glyph glyph-name="plus" unicode="+" horiz-adv-x="795" 
d="M481 321q0 -45 -17 -66.5t-60 -21.5q-81 0 -81 92v226h-220q-52 0 -70 16.5t-18 63.5q0 62 92 62h216v227q0 91 72 91q48 0 67 -22t19 -72v-224h217q51 0 71 -16t20 -57t-23.5 -55t-70.5 -14h-214v-230z" />
    <glyph glyph-name="comma" unicode="," horiz-adv-x="459" 
d="M207 27q-117 5 -117 91q0 51 44 79t102 28q127 0 139 -126q0 -89 -57 -154t-140 -65q-39 0 -39 23q0 16 15 28q51 41 53 96z" />
    <glyph glyph-name="hyphen" unicode="-" horiz-adv-x="778" 
d="M597 585q36 0 59 -18t23 -52q0 -85 -85 -85h-411q-81 0 -81 76q0 38 23 58.5t62 20.5h410z" />
    <glyph glyph-name="period" unicode="." horiz-adv-x="460" 
d="M137.5 32q-42.5 32 -42.5 82.5t46 84.5t93 34t94.5 -31t47.5 -74q0 -90 -91 -120q-23 -8 -64 -8t-83.5 32z" />
    <glyph glyph-name="slash" unicode="/" horiz-adv-x="652" 
d="M196 -87q-17 -51 -33.5 -66t-42 -15t-64.5 12q-74 24 -74 73q0 17 12 58l501 1622q11 39 28 60.5t68 21.5t84 -29t33 -58.5t-10 -56.5z" />
    <glyph glyph-name="zero" unicode="0" horiz-adv-x="1529" 
d="M774 111q160 0 264 81.5t156.5 212.5t52.5 281q0 251 -133 439t-362.5 188t-351 -168.5t-121.5 -411.5t132.5 -432.5t362.5 -189.5zM757 -25q-337 0 -525 221q-172 202 -172 496.5t180 513.5q121 147 316 207q98 30 215 30q230 0 386.5 -98t235.5 -261.5t79 -351.5
q0 -300 -181 -518q-198 -239 -534 -239z" />
    <glyph glyph-name="one" unicode="1" horiz-adv-x="605" 
d="M238 1428q73 14 118 14t58.5 -20t13.5 -79v-1166q0 -29 73 -44q4 -1 6.5 -1.5t12 -2.5t14 -2.5t13 -3t12.5 -4.5t10.5 -6t8.5 -8q8 -12 8 -22q0 -53 -72 -71q-46 -12 -194.5 -12t-188.5 10q-80 20 -80 80q0 24 40.5 34t80.5 19.5t40 33.5v1056q0 27 -81.5 39t-81.5 31
q0 87 189 125z" />
    <glyph glyph-name="two" unicode="2" horiz-adv-x="1068" 
d="M749 1108q0 214 -212 214q-84 0 -183.5 -37.5t-168.5 -90.5q-22 -13 -48.5 -13t-45.5 13t-19 39.5t39 55.5q137 146 349 189q64 13 135 13q168 0 266.5 -94t98.5 -257q0 -230 -244 -513q-186 -216 -509 -480h283q158 0 202 1l22 1q86 0 140 139q16 41 16 57v1
q61 0 97.5 -41.5t36.5 -114.5t-37 -131t-97 -58h-711q-57 0 -94.5 30.5t-37.5 86.5q0 27 33 62.5t104 99.5q338 300 501 582q84 145 84 246z" />
    <glyph glyph-name="three" unicode="3" horiz-adv-x="1150" 
d="M969 1187q0 -187 -292 -308q179 -21 297 -130t118 -282q0 -231 -163.5 -361t-399.5 -130q-123 0 -275 56q-240 89 -240 192q0 39 52 39q28 0 64 -27.5t50 -37.5q129 -92 306 -92q100 0 163 23t116 75q103 99 103 245.5t-93 235.5t-251 89q-87 0 -176 -40q-7 -3 -19.5 -3
t-25.5 18.5t-13 38.5t21.5 32.5t79 36.5t92.5 40.5t76 41.5t87 63q96 81 96 190q0 71 -61.5 120t-138.5 49q-136 0 -287 -87q-55 -31 -113 -86q-10 -10 -25.5 -10t-32 16.5t-16.5 31t6 23.5q116 174 372 228q73 16 146 16q165 0 271 -80.5t106 -225.5z" />
    <glyph glyph-name="four" unicode="4" horiz-adv-x="1041" 
d="M1021 599q30 -12 30 -55t-28 -57.5t-89 -14.5h-148v-295q0 -29 92 -48q9 -2 13.5 -2.5t13 -3t12.5 -4.5t10.5 -6t8.5 -8q8 -12 8 -22q0 -53 -72 -71q-46 -12 -194.5 -12t-188.5 10q-80 20 -80 80q0 24 40.5 34t80.5 19.5t40 33.5v293h-458q-128 0 -128 104q0 37 18 73
q93 138 272 409t289 434h71q66 0 95 -29q57 -60 57 -212v-638h135q70 0 100 -12zM570 609v666q-50 -85 -145.5 -250t-151 -260.5t-86.5 -155.5h383z" />
    <glyph glyph-name="five" unicode="5" horiz-adv-x="1153" 
d="M818 27q-116 -49 -250 -49t-278.5 47.5t-203 87.5t-74 60.5t-15.5 42.5t19 44.5t38.5 22.5t84 -32t175 -60t218.5 -28q157 0 235.5 75.5t78.5 192.5t-108 217t-304 100q-146 0 -315 -25l161 665l239 -9q367 0 406 134l19 1q49 0 79 -37.5t30 -91.5q0 -85 -69 -124
t-172 -39h-432l-73 -358q124 11 225 11q249 0 396.5 -122t147.5 -352q0 -130 -71 -227.5t-187 -146.5z" />
    <glyph glyph-name="six" unicode="6" horiz-adv-x="1186" 
d="M608 119q164 0 243 104t79 282q0 231 -174 303q-57 23 -126 23q-146 0 -324 -94q-18 -95 -18 -181q0 -296 163 -398q61 -39 157 -39zM939 1513q24 0 40.5 -19t16.5 -51.5t-35 -43.5q-289 -89 -429 -219t-213 -311q165 102 358.5 102t328.5 -119.5t135 -361.5t-137 -379.5
t-395 -137.5t-402.5 172t-144.5 458q0 394 302 651q86 73 226 147.5t340 110.5z" />
    <glyph glyph-name="seven" unicode="7" horiz-adv-x="874" 
d="M114 1135q-64 0 -102.5 34.5t-38.5 110t59.5 123t155.5 47.5h557q75 0 113.5 -21t38.5 -64t-10 -73t-28 -63.5t-24 -50.5l-444 -1144q-32 -62 -108 -62t-105 59q-9 20 -9 42t10 43l533 1221h-273q-133 0 -199 -46t-76 -151q-28 -5 -50 -5z" />
    <glyph glyph-name="eight" unicode="8" horiz-adv-x="1268" 
d="M608 676q-115 -45 -223.5 -150.5t-108.5 -179t53 -124.5q101 -96 304.5 -96t300.5 109q37 41 37 106q0 136 -183 241q-45 26 -107 57t-73 37zM649 1362q-25 0 -115 -6t-142.5 -59t-52.5 -159q0 -66 61 -139t190 -133q9 -4 18.5 -9t33.5 -17l60 40q91 58 134 96
q105 94 105 202q0 184 -292 184zM1115 1160q0 -214 -315 -393q286 -116 385 -284q36 -61 36 -133q0 -265 -313 -342q-119 -29 -264 -29q-327 0 -472 141q-94 93 -94 228.5t114 235.5t279 168q-159 67 -254 173t-95 224q0 228 278 312q108 32 206 32q194 0 334 -70
q77 -38 126 -106.5t49 -156.5z" />
    <glyph glyph-name="nine" unicode="9" horiz-adv-x="1165" 
d="M566 1367q-159 0 -255.5 -92t-96.5 -237.5t95 -250t256.5 -104.5t299.5 66q18 94 18 181q0 296 -163 398q-62 39 -154 39zM232 -27q-24 0 -40.5 19t-16.5 51.5t35 43.5q288 88 434 230t218 330q-144 -93 -315 -93q-223 0 -370 127.5t-147 335.5q0 331 291 451
q108 45 226 45q248 0 395 -147q167 -166 167 -483q0 -394 -301 -651q-87 -73 -194 -130q-177 -95 -373 -128z" />
    <glyph glyph-name="colon" unicode=":" horiz-adv-x="495" 
d="M155 783q-43 32 -43 81.5t47 84.5t93 35t93.5 -31t47.5 -74q0 -89 -91 -119q-25 -9 -64.5 -9t-82.5 32zM155 215q-43 32 -43 81.5t47 84.5t93 35t93.5 -31t47.5 -74q0 -89 -91 -119q-26 -9 -65 -9t-82 32z" />
    <glyph glyph-name="semicolon" unicode=";" horiz-adv-x="503" 
d="M397 290q0 -89 -57 -154t-140 -65q-39 0 -39 23q0 16 15 28q51 41 53 96q-117 6 -117 90q0 51 44 79.5t102 28.5q127 0 139 -126zM157.5 783q-42.5 32 -42.5 82t46.5 84.5t93 34.5t94 -31t47.5 -74q0 -89 -91 -119q-26 -9 -65.5 -9t-82 32z" />
    <glyph glyph-name="less" unicode="&#x3c;" horiz-adv-x="732" 
d="M157 372q-115 109 -115 148t106 136t239.5 184.5t169 87.5t59.5 -17t24 -42q0 -70 -236 -252q-85 -66 -137 -95q72 -39 168.5 -126.5t127.5 -119.5q77 -79 77 -110.5t-21.5 -50.5t-47.5 -19t-75 26q-173 91 -339 250z" />
    <glyph glyph-name="equal" unicode="=" horiz-adv-x="1264" 
d="M1021 672q65 0 96 -16.5t31 -70t-31 -73.5t-105 -20h-756q-62 0 -94 18t-32 71.5t33.5 72t114.5 18.5h743zM1020 362q65 0 94 -16.5t29 -74t-47 -77.5q-23 -11 -111 -11h-726q-67 0 -100.5 16t-33.5 70t33.5 73.5t114.5 19.5h747z" />
    <glyph glyph-name="greater" unicode="&#x3e;" horiz-adv-x="728" 
d="M614.5 628q77.5 -74 77.5 -110.5t-105.5 -137t-239.5 -192.5t-169.5 -92t-59.5 17t-24 43q0 72 236 266q79 66 137 100q-127 69 -296 233q-77 75 -77 103.5t20.5 49t47.5 20.5q73 0 303 -172q72 -54 149.5 -128z" />
    <glyph glyph-name="question" unicode="?" horiz-adv-x="770" 
d="M412 27q-31 -36 -85 -36t-86 35.5t-32 82.5t29.5 80.5t85.5 33.5t87.5 -33t31.5 -80t-31 -83zM52.5 1086q-22.5 24 -22.5 58t33 63.5t81 46.5q99 33 184 33q166 0 274 -71t108 -207q0 -93 -59 -160q-45 -51 -103 -96.5t-94 -80.5q-70 -66 -88 -222q-10 -72 -37 -72
q-41 0 -41 87.5t11.5 143t38.5 101.5q39 64 85 110t51 52q65 67 65 136q0 125 -187 125q-89 0 -193 -57q-25 -14 -54.5 -14t-52 24z" />
    <glyph glyph-name="at" unicode="@" horiz-adv-x="1583" 
d="M1072 993q85 0 85 -92v-463q0 -91 80 -91q103 0 133 239q9 76 9 159q0 162 -81.5 266.5t-215.5 155.5t-290 51q-222 0 -397 -157q-190 -171 -190 -465q0 -127 51 -236q147 -321 558 -321q269 0 525 161h1q9 0 55 -85q-280 -196 -599 -196t-528.5 184t-209.5 512
q0 216 109.5 379t279 250t328.5 87q259 0 427.5 -74.5t255.5 -234.5q66 -123 66 -262q0 -249 -87 -381.5t-219.5 -132.5t-198.5 100q-149 -110 -297 -110t-241 107.5t-93 272.5t90.5 282t237.5 117t291 -78q0 22 20.5 39t44.5 17zM545 608q0 -122 50 -195t154 -73t244 71
q-1 19 -1 59v130l-2 175v40l1 23q-143 58 -247 58q-199 0 -199 -288z" />
    <glyph glyph-name="A" unicode="A" horiz-adv-x="1490" 
d="M1472 89q0 -46 -57 -67.5t-125 -21.5h-12q-130 0 -164.5 10t-56.5 20q-44 22 -44 71q0 22 53.5 25t53.5 34q0 11 -19 48h1l-110 262h-589q-107 -282 -107 -307t13 -29l-1 1q7 -4 34 -11q67 -16 67 -35q0 -89 -225 -89q-187 0 -187 89q0 19 67.5 38t95.5 94l405 1059
q-10 27 -10 47q0 77 157 77q126 0 163 -96l422 -1080q36 -86 110 -98q47 -7 56 -15.5t9 -25.5zM442 566h510l-260 714z" />
    <glyph glyph-name="B" unicode="B" horiz-adv-x="1470" 
d="M1224 388q0 63 -19.5 110.5t-58 78.5t-84.5 51.5t-111 30.5q-117 18 -262 18h-226v-387q0 -99 33.5 -138t124.5 -39h166q259 0 358 83q79 66 79 192zM95.5 1306.5q-1.5 6.5 -1.5 25.5t15.5 37.5t54.5 25.5q50 9 188 9h387q604 0 604 -348q0 -124 -82 -196
q-67 -60 -177 -107q361 -114 361 -374q0 -107 -52.5 -183.5t-146.5 -117.5q-176 -79 -448 -79l-446 1q-138 0 -176 7q-79 21 -82 83q0 35 68 44q32 5 43 10q39 16 39 71v975q0 72 -75 82q-14 2 -26 3.5t-20 3t-11 3.5t-7.5 5.5t-6 8t-3 11zM796 793q242 0 317 121
q28 46 28 106.5t-20 105t-59 72.5t-83.5 46t-107.5 26q-107 15 -217 15t-150.5 -30.5t-40.5 -113.5v-348h333z" />
    <glyph glyph-name="C" unicode="C" horiz-adv-x="1507" 
d="M266 735q0 -134 49 -247.5t135 -191.5q182 -165 467 -165t502 217q24 24 42.5 24t35 -14t16.5 -34t-11 -45h1q-75 -132 -250.5 -219.5t-359.5 -87.5t-335 47t-267.5 134t-185.5 222.5t-69 305t65 310t179 232.5q234 190 597 190q193 0 365 -60q88 -31 143.5 -88.5
t55.5 -131.5t-46 -110t-108 -36t-91 10q-11 156 -90 232t-238 76q-271 0 -436.5 -157.5t-165.5 -412.5z" />
    <glyph glyph-name="D" unicode="D" horiz-adv-x="1734" 
d="M1373.5 384q84.5 130 84.5 288t-41.5 260t-114 167.5t-181.5 106.5q-198 76 -516 76q-143 0 -143 -23v-1117q158 -17 343.5 -17t334.5 64.5t233.5 194.5zM1624.5 998.5q56.5 -111.5 56.5 -252t-43.5 -262t-121 -210t-184.5 -150.5q-213 -125 -505 -125q-103 2 -359 2
t-294 8q-77 20 -80 82q0 35 68 44q32 4 43 9q39 16 39 72v974q0 76 -75 82q-63 5 -69 19t-6 37t15 41.5t54 25.5q50 9 188 9h309q529 0 812 -220q96 -74 152.5 -185.5z" />
    <glyph glyph-name="E" unicode="E" horiz-adv-x="1437" 
d="M1305 356q78 0 78 -100t-84 -180t-186 -80l-761 4q-138 0 -176 7q-79 21 -82 83q0 35 68 44q32 5 43 10q39 16 39 71v975q0 72 -75 82q-14 2 -26 3.5t-20 3t-11 3.5t-7.5 5.5t-6.5 8.5q-4 13 -4 34t15.5 39.5t54.5 25.5q50 9 188 9h833q76 0 122.5 -60t46.5 -146
q0 -148 -103 -148q-64 0 -88.5 40.5t-24.5 106t1 89.5h-676v-499h429q7 7 24 41q46 93 67 93q113 0 113 -192q0 -82 -23.5 -141.5t-74.5 -59.5q-27 0 -44.5 20t-36 65t-26.5 59h-428v-541h639q18 18 53 79t72 103.5t78 42.5z" />
    <glyph glyph-name="F" unicode="F" horiz-adv-x="1321" 
d="M95.5 1306.5q-1.5 6.5 -1.5 25.5t15 37.5t54 25.5q50 9 187 9h835q76 0 122.5 -60t46.5 -146q0 -148 -103 -148q-64 0 -88.5 40.5t-24.5 106t1 89.5h-675v-499h428q7 7 24 41q47 93 67 93q113 0 113 -192q0 -82 -23.5 -141.5t-74.5 -59.5q-28 0 -45.5 21t-34.5 64t-27 59
h-427v-457q0 -44 23.5 -62.5t56.5 -22t43 -6.5q27 -6 27 -30t-5 -37t-16.5 -22t-22.5 -15.5t-31 -10.5t-34 -6.5t-39 -3.5t-38 -1h-40q-146 0 -179 4q-115 13 -115 88q0 35 68 44q32 5 43 10q39 16 39 71v975q0 72 -75 82q-14 2 -26 3.5t-20 3t-11 3.5t-7.5 5.5t-6 8t-3 11z
" />
    <glyph glyph-name="G" unicode="G" horiz-adv-x="1561" 
d="M39 683q0 216 108 384t291.5 257t408.5 89q193 0 365 -60q88 -31 143.5 -88.5t55.5 -131.5t-46 -110t-108.5 -36t-89.5 10q-11 155 -90 231.5t-235 76.5q-263 0 -418.5 -158t-155.5 -412q0 -171 74 -311.5t207.5 -222.5t300.5 -82q112 0 200 26q166 49 168 123q1 27 1 66
v119q0 16 -6 52t-7.5 52t-27 31t-54.5 21q-78 16 -78 40t10.5 40.5t33 26.5t44.5 16.5t59 9.5q52 3 154.5 3t141.5 -7q94 -18 94 -87q0 -15 -14 -21t-21.5 -8.5t-19.5 -5.5q-83 -20 -99.5 -56t-15.5 -127l3 -279q-36 -11 -107 -49.5t-99 -50.5q-192 -81 -402.5 -81
t-386.5 84.5t-279 247t-103 378.5z" />
    <glyph glyph-name="H" unicode="H" horiz-adv-x="1784" 
d="M1470 0l-106 -1q-145 0 -179 43q-15 19 -15 44t18.5 34.5t49 13.5t42.5 10q39 18 39 71v447h-857v-447q0 -44 23.5 -62.5t57.5 -22t43 -6.5q27 -6 27 -38t-15 -50.5t-55 -25.5q-51 -10 -191 -10t-178 8q-77 20 -80 82q0 35 68 44q32 5 43 10q39 16 39 71v975q0 76 -75 82
q-63 5 -69 19t-6 37t15 41.5t54 25.5q50 9 189.5 9t178.5 -8q80 -19 82 -82q0 -36 -70 -44q-31 -3 -42 -8q-39 -16 -39 -72v-413h857v413q0 74 -75 81q-51 5 -62.5 17t-11.5 32.5t9 35.5t29 23.5t38.5 14t53.5 7.5q51 3 86 3h38q144 0 185 -15q79 -28 79 -75
q0 -22 -19 -30.5t-50 -12t-42 -8.5q-39 -18 -39 -73v-975q0 -44 23.5 -62.5t57 -22t43.5 -6.5q26 -6 26 -32.5t-7.5 -42t-26.5 -25t-34 -14.5t-48 -7q-50 -3 -102 -3z" />
    <glyph glyph-name="I" unicode="I" horiz-adv-x="708" 
d="M313 0q-219 0 -219 90q0 35 68 44q32 5 43 10q39 16 39 71v975q0 72 -75 82q-14 2 -26 3.5t-20 3t-11 3.5t-7.5 5.5t-6.5 8.5q-4 13 -4 26.5t4.5 25.5t16 21t22 15t32 9.5t36 6t44.5 3.5t47 1h64t52.5 -0.5t49.5 -2.5t48 -5t40.5 -10t33.5 -16q29 -21 29 -49.5t-19.5 -37
t-50.5 -12t-42 -8.5q-39 -18 -39 -73v-975q0 -44 23.5 -62.5t57 -22t43.5 -6.5q27 -6 27 -32.5t-9 -41.5t-30 -24.5t-40 -15t-55 -7.5q-54 -3 -166 -3z" />
    <glyph glyph-name="J" unicode="J" horiz-adv-x="929" 
d="M372 1299.5q-4 8.5 -4 25t7.5 31.5t25 23.5t33.5 14t46 7.5q44 3 73 3h32l113 1q140 0 174 -43q15 -19 15 -44.5t-19.5 -34.5t-50.5 -12.5t-42 -8.5q-39 -16 -39 -72v-751q0 -240 -94 -350.5t-312 -110.5q-129 0 -222.5 68t-93.5 180q0 70 40 112.5t108 42.5
q130 0 130 -125q0 -34 -29 -66t-68 -46q61 -53 114 -53q111 0 160.5 63.5t49.5 185.5v850q0 74 -75 81q-56 5 -62 12.5t-10 16z" />
    <glyph glyph-name="K" unicode="K" horiz-adv-x="1565" 
d="M394 0l-104 -1q-146 0 -182 43q-15 19 -15 44t18.5 34.5t50 14t43.5 9.5q39 16 39 71v975q0 73 -76 81q-57 5 -62 13q-13 18 -13 37.5t7.5 34.5t25 23.5t33.5 14t45 7.5q45 3 74 3h32l114 1q140 0 174 -43q15 -19 15 -44.5t-19.5 -34.5t-50.5 -12.5t-42 -8.5
q-39 -16 -39 -73v-508q324 292 601 545q21 20 21 31t-13.5 16t-30.5 6q-43 3 -43 39q0 43 20.5 56.5t34 19t40.5 7.5q39 3 105.5 3t102.5 -1.5t78.5 -7.5t58 -21.5t15.5 -35t-4 -27t-13.5 -12.5t-17.5 -7q-12 -4 -47 -13l-98 -29q-410 -349 -480 -407l524 -642
q57 -61 160 -71q10 -1 13.5 -2t12 -3t11.5 -3.5t8.5 -5t7.5 -8.5q6 -13 6 -32.5t-17 -38t-49 -25.5q-53 -13 -129 -13q-196 0 -196 41q-388 515 -501 674l-181 -149v-352q0 -75 76 -81q20 -2 27.5 -2.5t20 -3.5t16.5 -8q11 -14 11 -32t-4.5 -30.5t-15 -21t-20.5 -14.5
t-28.5 -9.5t-31.5 -6t-36.5 -3.5t-36.5 -1h-46z" />
    <glyph glyph-name="L" unicode="L" horiz-adv-x="1366" 
d="M1275 356q70 0 70 -97t-71 -180t-165 -83l-741 4q-156 0 -197 10q-85 20 -85 74q0 21 13 28t19 9.5t38 10.5q74 22 91 65q13 56 13 115v781q0 131 -48 156q-24 13 -104 39q-22 7 -22 32q0 54 78 72q49 12 205.5 12t197.5 -10q86 -20 86 -73q0 -23 -16 -30t-19.5 -8.5
t-15.5 -4.5t-16 -4.5t-17 -5t-19 -5.5t-15 -6q-19 -8 -28 -21q-28 -34 -28 -143v-926q0 -45 93 -45q205 0 364.5 15.5t179.5 28.5q14 16 35 62t24 51q42 77 100 77z" />
    <glyph glyph-name="M" unicode="M" horiz-adv-x="2031" 
d="M254 1234q0 19 -84 41.5t-84 39.5q0 91 207 91l88 -2q17 0 47 -26t46 -54l527 -949q156 253 506 843v-1q5 9 23.5 45t30 53t31.5 42q39 47 96 47l73 1q183 0 183 -90q0 -31 -86 -40.5t-86 -40.5v-1062q0 -19 43 -31.5t86 -23.5t43 -27q0 -91 -198 -91l-79 2l-83 -2
q-196 0 -196 91q0 23 42 31.5t83.5 17t41.5 33.5v892q-19 -33 -172 -312q-258 -468 -351 -578v1q-28 -28 -52 -28t-39 4.5t-26.5 16.5t-17.5 19.5t-16 26.5t-14 25l-437 718v-785q0 -19 43 -31.5t86.5 -23t43.5 -27.5q0 -90 -186 -90l-73 1l-76 -2q-182 0 -182 91
q0 24 42 32t84 16.5t42 33.5v1062z" />
    <glyph glyph-name="N" unicode="N" horiz-adv-x="1782" 
d="M1577 88q0 -110 -65 -110q-50 0 -122 78q-215 228 -946 1027v-890q0 -17 42 -34.5l84 -35t42 -34.5q0 -31 -24 -55.5t-61 -37.5q-150 -50 -339 -2q-103 26 -103 97q0 24 43.5 36t86.5 25.5t43 40.5v1041q0 19 -86.5 41.5t-86.5 41.5t7.5 34.5t24.5 25t34 15.5t46 8
q41 4 105 4h13q110 0 137 -24v1l940 -1019v131l-1 7v713q0 13 -86 45t-86 47q0 39 41 70q79 60 196 60q288 0 288 -130q0 -13 -83 -46t-83 -46z" />
    <glyph glyph-name="O" unicode="O" horiz-adv-x="1770" 
d="M574.5 188.5q143.5 -78.5 312 -78.5t307 71.5t221.5 201t83 303t-82 315.5t-227.5 217t-324 75t-313.5 -72.5t-211 -205t-76 -301.5t83.5 -308t227 -217.5zM45 648q0 134 42 259t118.5 218t180.5 159q210 132 500 132q271 0 479 -108q225 -117 309 -320q46 -109 46 -238
q0 -234 -110 -411.5t-300 -270.5t-431 -93q-274 0 -484 112q-350 187 -350 561z" />
    <glyph glyph-name="P" unicode="P" horiz-adv-x="1416" 
d="M128 1286.5q-42 8.5 -42 29t13.5 36t40.5 25t54.5 15.5t69.5 8q59 4 143 4h174q326 0 479 -36q160 -36 233 -106q90 -86 90 -222q0 -201 -121 -300q-84 -68 -167 -90.5t-139 -32t-131 -15.5q-116 -8 -283 -8h-63v-422q0 -19 41.5 -31.5t83 -24t41.5 -26.5
q0 -33 -16 -52.5t-59 -27.5q-53 -9 -201.5 -9t-180.5 4q-101 13 -102 75q0 46 83.5 49t83.5 43v1062q0 24 -41.5 34t-83.5 18.5zM1157 979q0 306 -470 306h-43q-93 0 -118 -18q-27 -19 -31 -30t-9 -25q-7 -22 -7 -69v-430q36 -3 119.5 -3t151 4.5t133 15.5t113.5 31t86 49
q75 58 75 169z" />
    <glyph glyph-name="Q" unicode="Q" horiz-adv-x="1765" 
d="M906 -15l-37 -1q-274 0 -484 112q-222 118 -305 319q-45 107 -45 241.5t42 259.5t118.5 218t180.5 159q209 132 500 132q271 0 479 -108q225 -117 309 -321q46 -109 46 -248.5t-46.5 -268t-129.5 -221.5q-170 -188 -436 -249q102 -108 133 -127.5t63 -37.5
q56 -32 134.5 -32t179.5 40q16 -36 16 -74q0 -93 -58.5 -144.5t-142.5 -51.5t-162.5 35.5t-121.5 87.5zM564.5 197.5q143.5 -78.5 312 -78.5t307 71.5t221.5 201t83 303t-82 315.5t-227.5 217t-324 75t-313.5 -72.5t-211 -205t-76 -301.5t83.5 -308t227 -217.5z" />
    <glyph glyph-name="R" unicode="R" horiz-adv-x="1573" 
d="M1352.5 1134q14.5 -48 14.5 -112.5t-24.5 -124.5t-64 -101.5t-95.5 -74.5q-100 -59 -238 -86l52 -72q21 -29 56 -79t55.5 -78.5t52.5 -70t57 -69.5q59 -68 121.5 -115.5t199.5 -47.5q17 -17 17 -40q0 -79 -166.5 -79t-249.5 56h1q-131 108 -303 427l-83 152h-277v-447
q0 -18 42 -31t84 -24.5t42 -26.5q0 -33 -16 -52.5t-58 -27.5q-54 -9 -136.5 -9t-111.5 -0.5t-59 0t-56.5 2t-49 7t-39.5 14.5q-34 17 -34 49t26 43.5t58 12.5q84 3 84 43v1062q0 24 -42 34t-84 18.5t-42 29t13.5 36t40.5 25t55 15.5t70 8q59 4 143 4h173q256 0 344 -13.5
t146 -27.5t99 -33t80.5 -47.5t63.5 -64.5t38.5 -84zM1142 989q0 70 -27.5 125t-71.5 87t-110 51q-110 33 -244.5 33t-172.5 -27t-38 -115v-403h270q394 0 394 249z" />
    <glyph glyph-name="S" unicode="S" horiz-adv-x="1286" 
d="M621 1295q-122 0 -191 -32q-126 -58 -126 -153q0 -51 29 -81q77 -81 202 -137q75 -33 217.5 -85t192.5 -75t111.5 -62t101.5 -81q96 -101 96 -231q0 -93 -50.5 -168t-134.5 -120q-173 -94 -394 -94q-298 0 -487 104q-63 35 -103 90t-40 117.5t38 98.5t108.5 36t110 -49
t39.5 -128q0 -31 -6 -67q152 -78 325 -78q153 0 261 46q123 53 123 184q0 137 -274 242q-46 17 -142 50q-196 68 -295 120q-243 128 -243 321q0 91 49 162t131 112q166 82 388 82q261 0 422 -87q56 -31 91.5 -80.5t35.5 -112t-43.5 -103t-107.5 -40.5t-94 6
q-13 176 -82 234.5t-259 58.5z" />
    <glyph glyph-name="T" unicode="T" horiz-adv-x="1221" 
d="M572 0q-242 0 -242 90q0 25 42 32.5t84 15.5t42 34v1107l-293 -1q-49 0 -89.5 -111t-87.5 -111q-78 0 -78 92q0 128 43.5 192.5t157.5 64.5h582q317 0 394 -2q103 -5 129 -174q7 -42 7 -87q0 -86 -78 -86q-51 0 -85 111q-13 42 -37 76.5t-55 34.5l-293 1v-1107
q0 -29 85.5 -43.5t85.5 -38.5q0 -35 -17.5 -48t-29.5 -20t-34.5 -11t-38.5 -6.5t-45 -3.5t-45 -1h-104z" />
    <glyph glyph-name="U" unicode="U" 
d="M268 1404q32 0 58.5 -0.5t66 -3t62 -8t46 -15t34 -25.5t10.5 -37t-42 -31l-84 -20t-42 -30v-785q0 -95 70 -170.5t182 -115.5t226 -40t203 21t161 61t114 106.5t42 150.5v772q0 23 -41.5 33.5t-83.5 19.5t-42 26.5t4.5 31t15.5 22.5t21.5 16t30 11t32.5 6.5t39 3t39 1
t42 0t55.5 -0.5t53 -0.5t62 -3t57.5 -8.5t43.5 -15.5t31.5 -25t10 -36.5t-42 -31l-84 -20t-42 -30v-793q0 -260 -303 -389q-172 -73 -388 -73q-356 0 -572 160q-71 53 -113.5 133t-42.5 176v786q0 23 -43 33.5t-86.5 19.5t-43.5 26.5t5.5 30.5t18 22.5t24.5 16t34.5 10.5
t38.5 7q27 4 78 4h84z" />
    <glyph glyph-name="V" unicode="V" horiz-adv-x="1642" 
d="M1403 1404l107 1q135 0 162 -35q9 -11 9 -27q0 -50 -91 -64.5t-121 -50.5l-483 -1095q-34 -76 -73.5 -113.5t-93.5 -37.5t-96.5 38.5t-88.5 138.5l-482 1069q-9 11 -68 28q-161 46 -161 87q0 31 43 43q68 18 143 18h82h33h53q102 0 135.5 -11.5t49.5 -20.5q33 -19 39 -58
q-2 -14 -18.5 -23t-26.5 -9.5t-24.5 -3.5t-23 -5.5t-20.5 -6.5q-22 -9 -22 -24l484 -1079q90 235 326 779l75 172q51 119 51 130q0 19 -41 26.5t-82 15.5t-41 28q0 83 188 89q31 1 77 1z" />
    <glyph glyph-name="W" unicode="W" horiz-adv-x="2537" 
d="M1584 1367.5q10 -10.5 10 -31.5t-23.5 -36.5t-55.5 -15.5q-108 -27 -132 -51l-18 -44l421 -1027q274 716 412 1073q0 27 -40.5 35.5t-81 14.5t-40.5 29q0 35 21.5 50t43.5 22t42 10t50 5q45 3 94.5 3t74.5 -0.5t61.5 -2t60 -6t46.5 -10.5q47 -12 47 -40.5t-22.5 -44.5
t-53.5 -16q-115 -26 -137 -52l-442 -1100q-24 -59 -66.5 -104.5t-104.5 -45.5t-103.5 45t-77.5 132l-314 759l-316 -786q-60 -150 -169 -150q-91 0 -147 109q-14 26 -32 68l-447 1070q-23 28 -93 41.5t-99.5 30t-29.5 37t11 31.5t35 17t45.5 10t59.5 6q62 2 93 2h35
q143 0 182.5 -9.5t63.5 -18.5q48 -19 52 -62q-2 -13 -36 -23t-66.5 -21t-32.5 -28l442 -1080l367 956l-45 109q-16 20 -43.5 29t-38.5 12q-49 16 -79 20t-45 15.5t-15 46t78.5 44t202.5 9.5t158.5 -0.5t81.5 -2t71 -5.5t49 -10.5t35 -17z" />
    <glyph glyph-name="X" unicode="X" horiz-adv-x="1888" 
d="M650 1233q0 -21 41 -60l284 -322l303 319q27 31 27 53.5t-68 31.5t-73 44t77 70t272.5 35t190.5 -111q0 -40 -84 -42q-34 -1 -81.5 -21t-82.5 -60l-395 -416l450 -493q33 -48 147 -87q105 -36 105 -88q0 -45 -20 -57.5t-33 -17.5t-46 -7q-107 -8 -217.5 -3.5t-138 10.5
t-56.5 15q-58 19 -58 64q0 27 16 43.5t34 22.5t32 14q28 15 -23 73l-325 364l-349 -392q-47 -52 -13 -69q15 -7 34 -12q51 -15 51 -48t-14 -51t-60 -25q-58 -10 -144 -10h-97h-22q-96 0 -144 20t-48 76q0 34 64 40q90 9 132.5 28t72.5 51l457 480l-434 464q-57 61 -172 80
q-103 17 -103 53.5t19 59.5q43 52 244 52q152 0 198 -7t78 -15q64 -16 64 -53q0 -30 -23 -51.5t-46 -32t-23 -12.5z" />
    <glyph glyph-name="Y" unicode="Y" horiz-adv-x="1467" 
d="M1169 1252q-147 0 -147 36q0 52 70 84t162 32q253 0 253 -85q0 -48 -116 -79q-46 -13 -56 -20l-510 -662v-386q0 -19 42 -31t84 -23t42 -28q0 -60 -83 -78q-72 -15 -182 -11q-166 0 -228.5 19t-63.5 70q0 35 86 40t86 42v386l-136 182q-262 356 -359 478q-9 12 -56 23.5
t-86.5 27.5t-39.5 43q0 92 248 92h67q260 0 260 -116q0 -20 -96 -32q-9 -1 -13 -2l-38 -5l-1 -9l398 -527l372 481q27 31 41 58z" />
    <glyph glyph-name="Z" unicode="Z" horiz-adv-x="1475" 
d="M1394.5 361q22.5 -24 22.5 -71t-23 -116.5t-66.5 -121.5t-93.5 -52l-1077 -1q-76 0 -76 51q0 102 652 830q250 280 344 389q-96 16 -281 16l-496 -2l-5 -44q-14 -118 -74 -193q-34 -42 -71.5 -42t-56.5 27t-19 93t18 125.5t60 93.5q74 60 253 60l693 2q171 0 255 -15
l-1 1q24 -15 24 -40.5t-30.5 -74t-87.5 -122.5q-75 -99 -264 -324.5t-380.5 -436.5t-238.5 -252q56 -20 345.5 -20t453.5 9q39 47 111 190q38 65 53 65q34 0 56.5 -24z" />
    <glyph glyph-name="bracketleft" unicode="[" horiz-adv-x="635" 
d="M274 1770l70 1q143 0 178 -42q15 -19 15 -46.5t-76 -40.5t-76 -25v-1606q0 -17 38 -23t76 -13.5t38 -28.5t-7.5 -36.5t-24 -25t-32.5 -15.5t-44 -9q-39 -3 -99 -3h-26q-79 0 -101 12.5t-27.5 34t-5.5 59.5v1698q0 61 23.5 85t80.5 24z" />
    <glyph glyph-name="backslash" unicode="\" horiz-adv-x="725" 
d="M2 1535q-10 27 -10 60t41 58.5t97 25.5q50 0 75 -82l501 -1622q12 -40 12 -67t-42.5 -51.5t-107.5 -24.5q-38 0 -64 81z" />
    <glyph glyph-name="bracketright" unicode="]" horiz-adv-x="643" 
d="M473 -37q0 -68 -23.5 -87t-94.5 -19h-52q-113 0 -143 15q-54 28 -54 74q0 29 76 38t76 27v1606q0 13 -38 20t-76 16.5t-38 29t7.5 35t23.5 25t32 15.5t44 8q39 4 91 4t72.5 -1t44 -6.5t31.5 -16.5q21 -28 21 -85v-1698z" />
    <glyph glyph-name="asciicircum" unicode="^" horiz-adv-x="972" 
d="M488 987q-108 -180 -232 -308q-59 -62 -95 -62t-62.5 17.5t-26.5 38.5t2.5 31.5t5 18.5t8.5 20.5t9 18.5q15 30 20 38.5t32 62.5t41 79l29 50q11 22 15 32l17 36q88 184 173 228q38 21 82 21t83 -22t70 -63q55 -72 100 -178l48 -102q3 -7 38 -74q74 -143 74 -191l-5 -3
l-6 5q-5 -27 -27.5 -45.5t-52.5 -18.5q-58 0 -126 87q-38 48 -113 173l-15 25q-5 8 -16.5 27.5t-18.5 30.5q-17 27 -37 49v1z" />
    <glyph glyph-name="underscore" unicode="_" horiz-adv-x="1239" 
d="M996 -5q116 0 116 -111q0 -134 -136 -134h-672q-119 0 -119 111q0 134 147 134h664z" />
    <glyph glyph-name="grave" unicode="`" horiz-adv-x="509" 
d="M412 1106q-23 10 -113 109t-174.5 219t-84.5 167t36.5 75t82 28t81.5 -28.5t48 -64.5q54 -157 95.5 -311.5t42.5 -174.5v-5z" />
    <glyph glyph-name="a" unicode="a" horiz-adv-x="1131" 
d="M153.5 663.5q-46.5 29.5 -46.5 77t27 89.5t70 68.5t100 44.5q104 33 224 33q202 0 293.5 -89.5t91.5 -295.5l-1 -295q0 -107 27 -134q7 -7 44 -18q102 -32 102 -49q0 -105 -215 -105q-81 0 -105.5 36t-26.5 131q-45 -81 -137 -131t-197 -50t-178 27t-118.5 87.5
t-45.5 130.5t16 112.5t40 71.5t65.5 52t77.5 36.5t93 24.5q84 16 141 22.5t59 7.5q6 1 68.5 7.5t98.5 26.5q0 190 -51 248q-45 50 -148 50t-154.5 -52.5t-51.5 -166.5l1 -22q-42 -5 -79.5 -5t-84 29.5zM721 492q-68 -25 -153.5 -34.5t-134.5 -22.5t-82 -32q-76 -44 -76 -151
q0 -172 200 -172q173 0 219 165q27 94 27 247z" />
    <glyph glyph-name="b" unicode="b" horiz-adv-x="1182" 
d="M891 433q0 102 -38 196.5t-111.5 157.5t-164.5 63q-125 0 -231 -98v-551q119 -94 256 -94t213 90t76 236zM195 -8q-39 0 -39 91v1164q0 91 -72 98q-7 1 -18 2t-16 1.5t-12.5 2t-11 3.5t-6.5 5q-7 6 -7 29t31 48q56 46 151 46q101 0 118 -12q34 -24 34 -63v-553
q149 127 339 127t305.5 -132.5t115.5 -346.5q0 -134 -58.5 -253t-164 -193t-231.5 -74q-180 0 -349 113q-2 -2 -27 -36q-49 -67 -82 -67z" />
    <glyph glyph-name="c" unicode="c" horiz-adv-x="1026" 
d="M922 195q45 0 45 -42q0 -23 -14 -38q-133 -142 -382 -142t-394.5 135t-145.5 357q0 145 70.5 262.5t192 183.5t269.5 66q207 0 319 -107q59 -57 59 -133q0 -45 -37.5 -76t-89.5 -31t-75 9q-7 113 -46.5 173.5t-132.5 60.5q-152 0 -238.5 -97t-86.5 -261t110.5 -285
t278.5 -121q99 0 243 70q31 16 55 16z" />
    <glyph glyph-name="d" unicode="d" horiz-adv-x="1215" 
d="M691.5 838.5q-78.5 32.5 -175.5 32.5t-165 -56q-132 -109 -132 -322q0 -165 89.5 -279.5t233 -114.5t207 59.5t63.5 197.5v395q-42 55 -120.5 87.5zM536 979q66 0 147.5 -21.5t128.5 -45.5v335q0 91 -72 98q-7 1 -18 2t-16 1.5t-12.5 2t-11 3.5t-6.5 5q-7 6 -7 29t31 48
q56 46 151 46q101 0 118 -12q34 -24 34 -63v-1094q0 -111 24 -144q25 -32 44.5 -39t34 -12t20.5 -7.5t15 -8.5q16 -9 16 -28q0 -42 -44.5 -61.5t-118 -19.5t-106.5 28t-58 103q-82 -145 -342 -145q-208 0 -338.5 138t-130.5 358t145 362t372 142z" />
    <glyph glyph-name="e" unicode="e" horiz-adv-x="995" 
d="M32 470q0 225 139.5 365.5t355.5 140.5q171 0 288.5 -110.5t117.5 -277.5q0 -81 -128 -81h-579q2 -162 105 -273t260 -111q104 0 202 61q52 32 66.5 32t33 -14.5t18.5 -35.5q0 -55 -70.5 -101.5t-155.5 -69t-149 -22.5q-227 0 -365.5 136t-138.5 361zM749 612
q-2 115 -60 187t-169.5 72t-195 -80t-88.5 -183h234q156 0 279 4z" />
    <glyph glyph-name="f" unicode="f" horiz-adv-x="771" 
d="M97.5 48q-7.5 15 -7.5 37.5t20 32.5t44.5 11t44.5 15.5t20 46.5v642h-70q-26 0 -43.5 18.5t-17.5 53.5t17 46t63 11h51v147q0 168 101.5 259t277.5 91q144 0 208 -57q37 -32 37 -84q0 -122 -123 -122q-107 0 -107 122v14q-38 16 -77 16q-171 0 -171 -178q0 -118 44 -208
h145q72 0 72 -42q0 -34 -21.5 -59t-47.5 -25h-148v-645q0 -58 64.5 -61.5t64.5 -51.5q0 -55 -74 -68q-54 -10 -106.5 -10h-75.5t-39.5 0.5t-45 2.5t-43.5 7t-32 14t-24.5 24z" />
    <glyph glyph-name="g" unicode="g" horiz-adv-x="1141" 
d="M982 622q0 -91 -69 -160q-135 -135 -385 -135q-49 0 -104 9.5t-69 11.5v1q-76 -64 -76 -112q0 -44 43 -59q61 -22 170 -24t170 -3.5t132 -6.5t125 -19.5t101 -38.5q96 -50 96 -170q0 -90 -47 -159t-126 -109q-157 -81 -374 -81q-188 0 -331 52q-77 28 -122 82.5
t-45 130.5q0 142 143 219q-38 37 -51.5 70t-13.5 77t8 68t25 44q22 26 82 71q-94 47 -143.5 105.5t-49.5 148t41.5 155.5t109.5 105q138 79 308 79q48 0 179.5 -24.5t147.5 -24.5q89 0 104 89q128 0 128 -102q0 -49 -29.5 -77.5t-68 -28.5t-82.5 4q29 -25 51 -78t22 -110z
M350.5 825q-75.5 -63 -75.5 -166t77.5 -169t189.5 -66t181.5 61.5t69.5 160.5t-75.5 170.5t-183.5 71.5t-183.5 -63zM551 -316q154 0 234 32.5t111 75t31 101.5q0 123 -478 123q-135 0 -135 3q-76 -77 -76 -147q0 -188 313 -188z" />
    <glyph glyph-name="h" unicode="h" horiz-adv-x="1296" 
d="M1058 0l-86 -1q-131 0 -162 40q-14 18 -14 43.5t20 35.5t44.5 11t44.5 15.5t20 46.5l1 291q0 184 -44 271q-48 98 -200 98q-160 0 -224 -101q-58 -94 -58 -273v-286q0 -58 64.5 -61.5t64.5 -51.5q0 -55 -61 -68q-44 -10 -125 -10l-86 -1q-131 0 -162 40q-14 18 -14 43.5
t20 35.5t44.5 11t44.5 15.5t20 46.5v1089q0 58 -72 70q-50 8 -60.5 17.5t-10.5 31.5t21 40t55 27q60 16 134 16q124 0 124 -75v-581q136 154 344 154t289.5 -106.5t81.5 -322.5l-1 -360q0 -58 64.5 -61.5t64.5 -51.5q0 -55 -60 -68q-46 -10 -126 -10z" />
    <glyph glyph-name="i" unicode="i" horiz-adv-x="670" 
d="M181 1255q0 44 42.5 82.5t93 38.5t98 -31t47.5 -82t-40 -85.5t-98 -34.5t-100.5 32t-42.5 80zM390 0l-86 -1q-131 0 -162 40q-14 18 -14 43.5t20 35.5t44.5 11t44.5 15.5t20 46.5v538q0 91 -71 98q-7 1 -18 2t-16 1.5t-12.5 2t-11 3.5t-7.5 5q-7 5 -7 28.5t30 48.5
q57 46 152 46q88 0 103.5 -7t26.5 -15q21 -14 21 -53v-698q0 -58 64.5 -61.5t64.5 -51.5q0 -55 -60 -68q-46 -10 -126 -10z" />
    <glyph glyph-name="j" unicode="j" horiz-adv-x="574" 
d="M383 1346q48 -28 48 -79.5t-41.5 -87t-99 -35.5t-99 34t-41.5 79t39.5 81t92.5 36t101 -28zM-9 -192q0 60 93 82l78 18q94 22 94 74q0 35 -10.5 77t-12.5 54l-10 49v566q0 91 -71 98q-7 1 -18 2t-16 1.5t-12.5 2t-11 3.5t-7.5 5q-7 5 -7 28.5t30 48.5q57 46 152 46
q101 0 118 -12q34 -24 34 -63v-736q0 -211 -66.5 -306t-241.5 -115q-3 -1 -10 -1h-7q-98 0 -98 78z" />
    <glyph glyph-name="k" unicode="k" horiz-adv-x="1382" 
d="M346 0l-86 -1q-131 0 -162 40q-14 18 -14 43.5t20 35.5t44.5 11t44.5 15.5t20 46.5v1056q0 91 -71 98q-7 1 -18 2t-16 1.5t-12.5 2t-11 3.5t-7.5 5q-7 5 -7 28.5t30 48.5q57 46 152 46q101 0 118 -12q34 -24 34 -63v-875q37 28 172 126q266 192 266 210q0 23 -76 47
q3 91 168 91h136q252 0 252 -28q0 -13 -28.5 -41.5t-58.5 -45.5q-66 0 -151.5 -45t-210.5 -138l-173 -128l314 -332q57 -59 103.5 -90.5t85.5 -41t58.5 -14t28.5 -6.5t23 -7.5t21 -11.5q17 -16 17 -39q0 -48 -155 -48h-48q-95 0 -130.5 8.5t-75.5 46.5q-149 141 -369 456
l-170 -115v-195q0 -58 64.5 -61.5t64.5 -51.5q0 -55 -60 -68q-46 -10 -126 -10z" />
    <glyph glyph-name="l" unicode="l" horiz-adv-x="604" 
d="M346 0l-86 -1q-131 0 -162 40q-14 18 -14 43.5t20 35.5t44 11t44 15.5t20 46.5v1056q0 91 -72 98q-7 1 -18 2t-16 1.5t-12.5 2t-11 3.5t-6.5 5q-7 6 -7 29t31 48q56 46 151 46q101 0 118 -12q34 -24 34 -63v-1216q0 -58 64.5 -61.5t64.5 -51.5q0 -55 -60 -68
q-46 -10 -126 -10z" />
    <glyph glyph-name="m" unicode="m" horiz-adv-x="1957" 
d="M346 0l-86 -1q-131 0 -162 40q-14 18 -14 43.5t20 35.5t44.5 11t44.5 15.5t20 46.5v571q0 30 -22.5 45t-48.5 17q-72 4 -72 45q0 66 132 89q30 6 56 6q86 0 111 -25.5t25 -113.5q138 154 374 154q82 0 159.5 -49.5t120.5 -115.5q170 166 378 166q241 0 307 -206
q36 -112 36 -303v-280q0 -58 64.5 -61.5t64.5 -51.5q0 -55 -60 -68q-46 -10 -126 -10l-86 -1q-131 0 -162 40q-14 18 -14 43.5t20 35.5t44.5 11t44.5 15.5t20 46.5v308q0 228 -51 291q-48 61 -137 61t-154.5 -23.5t-107.5 -73t-42 -116.5v-447q0 -58 64.5 -61.5t64.5 -51.5
q0 -55 -60 -68q-46 -10 -126 -10l-86 -1q-131 0 -162 40q-14 18 -14 43.5t20 35.5t44.5 11t44.5 15.5t20 46.5v298q0 188 -33 259q-48 103 -164 103q-144 0 -220.5 -73t-76.5 -208v-379q0 -58 64.5 -61.5t64.5 -51.5q0 -55 -60 -68q-46 -10 -126 -10z" />
    <glyph glyph-name="n" unicode="n" horiz-adv-x="1316" 
d="M345 0l-86 -1q-131 0 -162 40q-14 18 -14 43.5t20 35.5t44.5 11t44.5 15.5t20 46.5v571q0 58 -72 70q-50 8 -60.5 17.5t-10.5 34t35 44.5q59 36 148.5 36t115 -25.5t25.5 -113.5q137 155 377 155q195 0 276.5 -106.5t81.5 -322.5v-360q0 -58 64.5 -61.5t64.5 -51.5
q0 -54 -62 -68q-46 -10 -127 -10l-86 -1q-131 0 -162 40q-14 18 -14 43.5t20 35.5t44.5 11t44.5 15.5t20 46.5v291q0 186 -43 272q-48 97 -193 97q-175 0 -238 -93q-59 -88 -59 -281v-286q0 -58 64.5 -61.5t64.5 -51.5q0 -55 -61 -68q-44 -10 -125 -10z" />
    <glyph glyph-name="o" unicode="o" horiz-adv-x="1121" 
d="M534 -25q-226 0 -364 142.5t-138 361.5q0 146 73 260t197.5 174.5t277.5 60.5q220 0 363 -137t143 -354q0 -150 -73.5 -266.5t-198.5 -179t-280 -62.5zM807.5 187q83.5 101 83.5 269t-96 290t-246.5 122t-231.5 -103t-81 -270t95 -288t244 -121t232.5 101z" />
    <glyph glyph-name="p" unicode="p" horiz-adv-x="1180" 
d="M948 461q0 231 -134 336q-70 54 -167 54q-287 0 -287 -323v-329q81 -105 279 -105q144 0 226.5 103.5t82.5 263.5zM303 -410l-86 -1q-131 0 -162 40q-14 18 -14 43.5t20 35.5t44.5 11t44.5 15.5t20 46.5v902q0 72 -10.5 99.5t-47.5 41.5q-4 2 -40 10q-75 18 -75 50
q0 78 201 78q85 0 119 -20t34 -86q0 -20 -1 -30q77 75 155 114t199 39t226.5 -68t159.5 -179.5t54 -248.5q0 -217 -142 -358t-361 -141q-123 0 -281 81v-284q0 -58 64.5 -61.5t64.5 -51.5q0 -55 -61 -68q-44 -10 -125 -10z" />
    <glyph glyph-name="q" unicode="q" horiz-adv-x="1207" 
d="M955 -410l-86 -1q-131 0 -162 40q-14 18 -14 43.5t20 35.5t44.5 11t44.5 15.5t20 46.5v305q-194 -115 -340 -115q-196 0 -324.5 136t-128.5 351.5t146.5 365.5t372.5 150q65 0 153 -29t149 -68q12 87 121 87q219 0 219 -96q0 -25 -48 -37q-87 -22 -108.5 -58t-21.5 -129
v-863q0 -58 64.5 -61.5t64.5 -51.5q0 -55 -61 -68q-44 -10 -125 -10zM227 485q0 -94 34.5 -181.5t104.5 -148t160 -60.5q198 0 296 120v513q0 38 -46 71q-95 67 -215 67q-158 0 -246 -108t-88 -273z" />
    <glyph glyph-name="r" unicode="r" horiz-adv-x="890" 
d="M348 0l-86 -1q-131 0 -162 40q-14 18 -14 43.5t20 35.5t44.5 11t44.5 15.5t20 46.5v494q0 89 -21.5 110t-36 27t-45.5 15t-50.5 18t-19.5 27q0 80 215 80q91 0 115.5 -31.5t24.5 -145.5q34 86 112.5 135t161 49t136 -35.5t53.5 -90t-35 -87t-86 -32.5t-87.5 27t-47.5 70
q-26 4 -43 4q-156 0 -156 -359v-275q0 -58 64.5 -61.5t64.5 -51.5q0 -55 -60 -68q-46 -10 -126 -10z" />
    <glyph glyph-name="s" unicode="s" horiz-adv-x="1028" 
d="M506 91q225 0 225 138q0 104 -203 163q-38 11 -92 26q-101 27 -136 41q-88 34 -149 99t-61 154q0 115 109.5 191t264.5 76q151 0 283 -55q65 -27 105.5 -75t40.5 -100t-41.5 -83t-86 -31t-59 8.5t-14.5 39.5q0 193 -205 193q-85 0 -148 -37.5t-63 -97.5q0 -94 196 -149
q31 -8 75 -19.5t81 -23t77.5 -27t85.5 -40.5t73 -54q65 -66 65 -159.5t-63 -161.5q-125 -133 -360 -133q-153 0 -282 50q-66 26 -106 72t-40 98t33 80.5t75 28.5t71.5 -26t29.5 -64.5t-7 -82.5q106 -39 226 -39z" />
    <glyph glyph-name="t" unicode="t" horiz-adv-x="739" 
d="M138 828l-61 -1q-37 0 -54 7t-17 29.5t19.5 41t44.5 28.5q69 28 82.5 47.5t40.5 85.5q67 165 112 165q23 0 26.5 -49.5t4 -75.5t-0.5 -77.5t-1 -71.5l238 -1q35 0 59 -17.5t24 -46.5t-23.5 -45t-58.5 -16h-239l-1 -511q0 -217 109 -217q30 0 89 18.5t77 18.5q41 0 41 -47
q0 -37 -96.5 -74t-198 -37t-159 79t-57.5 208v559z" />
    <glyph glyph-name="u" unicode="u" horiz-adv-x="1261" 
d="M336 433q0 -137 22 -193.5t50 -80.5q58 -50 193.5 -50t198.5 69.5t63 232.5v338q0 74 -73 79q-58 3 -64 12.5t-6 21.5q0 50 58.5 76t139 26t109 -22t28.5 -104l1 -640q0 -68 72 -73q51 -3 62 -10.5t11 -35t-33 -50.5q-59 -40 -153.5 -40t-117 28.5t-22.5 131.5
q-121 -176 -370 -176q-197 0 -279.5 106t-82.5 327v343q0 74 -71 79q-59 3 -65 12.5t-6 21.5q0 50 58 76t138.5 26t109.5 -22t29 -104v-405z" />
    <glyph glyph-name="v" unicode="v" horiz-adv-x="1189" 
d="M186 961q286 0 286 -70q0 -28 -63.5 -44t-63.5 -43q0 -34 263 -606q260 581 260 601t-20 31t-44 17q-63 16 -63 44q0 33 72 51.5t135 18.5t111.5 -5.5t93 -22t44.5 -39.5q0 -44 -63 -53.5t-85.5 -23t-42.5 -55.5l-300 -644q-46 -102 -57 -112t-21 -18q-18 -13 -42 -13
t-37.5 5.5t-21 10.5t-16.5 20.5t-11.5 22t-11.5 27.5l-343 698q-23 47 -41 59.5t-82.5 22t-64.5 54.5q0 30 83.5 48t145.5 18z" />
    <glyph glyph-name="w" unicode="w" horiz-adv-x="1717" 
d="M1202 197q198 517 217 612q0 21 -45 31q-85 18 -85 53q0 29 7 40q104 25 231 25q207 0 207 -43q0 -37 -34 -64q-75 -11 -113 -45.5t-63 -100.5l-62 -163q-179 -451 -199 -483q-49 -83 -95 -83q-37 0 -80 93q-8 16 -9 19l-229 505q-158 -353 -243 -529q-21 -51 -44 -65.5
t-47.5 -14.5t-32 7.5t-16.5 23t-15 26.5t-16 31.5t-13 25.5l-238 552q-63 157 -88 182v-1q-18 8 -59 14.5t-62 19.5t-21 44q0 49 274 49q94 0 162.5 -13t68.5 -32q0 -33 -12.5 -44t-45.5 -20q-57 -15 -57 -49q0 -50 95.5 -297.5t122.5 -302.5q91 193 220 520q-33 82 -59 102
l-41 33q-33 25 -33 36q0 52 197.5 52t197.5 -39q0 -36 -45.5 -39.5t-45.5 -30.5t7.5 -47.5t15.5 -40t23 -59.5q36 -100 162 -395z" />
    <glyph glyph-name="x" unicode="x" horiz-adv-x="1274" 
d="M1183 80q0 -81 -167 -81h-113q-174 0 -174 85q0 23 23 33t46 16t23 17q0 19 -80.5 109.5t-127.5 146.5q0 -2 -52 -55.5t-118.5 -124.5t-66.5 -78t59.5 -16.5t59.5 -48.5q0 -76 -159 -82q-26 -1 -66 -1h-9q-124 0 -153 14q-56 27 -56 74q0 25 20 31q6 2 34 8t58 19
q41 19 116.5 83.5t272.5 244.5q-88 120 -200 246q-70 80 -224 114q-38 8 -38 28q0 96 250 96t250 -86q0 -36 -77 -50q-14 -3 -14 -6q0 -25 34 -68l48 -61q47 -56 82 -94l137 139q47 47 47 63.5t-17 25t-37 11.5q-55 10 -55 37t21.5 45.5t55.5 27.5q67 16 131 16
q226 0 226 -88q0 -43 -50 -43q-34 0 -83 -22t-80 -53l-235 -236l238 -278q37 -41 106 -72t91.5 -44.5t22.5 -41.5z" />
    <glyph glyph-name="y" unicode="y" horiz-adv-x="1125" 
d="M590 205q253 535 253 565t-22 42t-48 14q-70 7 -70 41q0 91 215 91h40q96 0 137.5 -31t41.5 -58t-30 -33q-62 -11 -92.5 -34.5t-59.5 -86.5t-97 -215t-114 -248l-215 -442q-34 -72 -87.5 -119.5t-126.5 -47.5t-127.5 36.5t-54.5 94t34.5 91t86.5 33.5t93.5 -26t43.5 -64
q80 127 107 198q-42 116 -191.5 406.5t-165.5 324t-27.5 46.5t-29.5 22t-30 13t-39 11t-43.5 12t-16.5 31q0 86 236 86q145 0 186 -15q79 -28 79 -74q0 -31 -59.5 -42.5t-59.5 -43.5q0 -4 35 -95q115 -298 218 -483z" />
    <glyph glyph-name="z" unicode="z" horiz-adv-x="1059" 
d="M887 322q98 0 98 -73q0 -22 -7 -43l-11 -31q-49 -132 -84 -155q-42 -29 -110 -29l-84 4h-8l-167 7l-352 -2q-73 0 -73 54q0 48 213 304q18 22 173 208l59 70q22 27 71 85q85 100 96 119q-27 4 -68 4l-189 -2h-30l-34 -1l-61 3v2q-77 -195 -157 -195q-35 0 -57.5 18
t-22.5 51q0 84 47 161t110 77h689q39 -12 39 -53q0 -52 -355 -465q-13 -15 -98 -114l-45 -52q-14 -17 -43 -48q-60 -64 -82 -98q37 -10 99 -10h114q114 0 196 8v-1q14 13 36 64.5t46.5 92t51.5 40.5z" />
    <glyph glyph-name="braceleft" unicode="{" horiz-adv-x="613" 
d="M3 781q105 4 145 69t40 197l-1 84q0 187 65.5 303t162.5 116q128 0 241 -76l-28 -80q-69 15 -116.5 15t-70 -27t-37 -84.5t-25.5 -224.5t-33 -236q-34 -107 -117 -108q116 -3 140 -217q2 -16 12 -155.5t25 -200.5q27 -106 94 -106q50 0 128 14l28 -80q-116 -76 -241 -76
q-97 0 -162.5 116t-65.5 303l1 83q0 122 -24 170q-48 94 -161 97v104z" />
    <glyph glyph-name="bar" unicode="|" horiz-adv-x="437" 
d="M158 1440q0 46 16.5 78t48.5 32q58 0 58 -110v-1432q0 -40 -16 -68t-46.5 -28t-46 28t-15.5 68z" />
    <glyph glyph-name="braceright" unicode="}" horiz-adv-x="622" 
d="M435 1131l-1 -84q0 -121 24 -169q48 -94 161 -97v-104q-162 -4 -180 -172q-5 -52 -5 -95l1 -83q0 -187 -65.5 -303t-162.5 -116q-125 0 -241 76l28 80q78 -14 121.5 -14t65.5 28t36.5 85t25.5 223t33 235q34 107 117 108q-116 3 -140 217q-2 17 -12 157t-25 201
q-27 105 -94 105q-59 0 -128 -15l-28 80q113 76 241 76q97 0 162.5 -116t65.5 -303z" />
    <glyph glyph-name="asciitilde" unicode="~" horiz-adv-x="1021" 
d="M791 1278q27 0 74.5 25t53.5 26l22 -8q-63 -125 -201 -171q-41 -14 -72 -14t-43 1t-21.5 2t-22.5 3.5t-20.5 4t-21.5 5.5t-19.5 5.5t-21 7t-19 6.5t-20 7t-19 6.5t-22 7.5t-28 10t-27 9t-30 9t-27.5 6q-30 7 -60 7q-44 0 -83 -23.5t-60 -26.5l-21 8q57 124 180 170
q39 15 71.5 15t48 -1.5t27 -3t29.5 -6t26.5 -6t29 -8t24.5 -7.5q44 -17 50 -17q147 -49 223 -49z" />
    <glyph glyph-name="uni00A0" unicode="&#xa0;" horiz-adv-x="370" 
 />
    <glyph glyph-name="exclamdown" unicode="&#xa1;" horiz-adv-x="517" 
d="M262 -18q-76 0 -110 40t-34 119q0 18 5 71l77 667q8 71 20.5 92t35 21.5t34 -7.5t18.5 -27q16 -43 16 -79l77 -667q5 -53 5 -71q0 -79 -34 -119t-110 -40zM240 1534q172 0 172 -148q0 -59 -40 -98t-107.5 -39t-114 37t-46.5 101.5t40 105.5t96 41z" />
    <glyph glyph-name="cent" unicode="&#xa2;" horiz-adv-x="1090" 
d="M1033 1008q34 -46 34 -107t-41.5 -90.5t-91.5 -29.5t-72 9q-5 233 -163 260l-97 -836q28 -4 65 -4q120 0 275 71q54 25 77 25q42 0 42 -39q0 -21 -15 -41q-160 -152 -457 -152h-3l-33 -284q-5 -50 -47 -50q-16 0 -30 13.5t-14 30t1 19.5l31 277q-205 25 -331.5 158.5
t-126.5 357.5t167 385.5t414 174.5l29 251q2 21 14.5 35t32 14t32 -16t12.5 -38t-26 -247q229 -19 322 -147zM605 1052q-158 -14 -260 -124t-102 -269.5t75 -269.5t194 -153z" />
    <glyph glyph-name="sterling" unicode="&#xa3;" horiz-adv-x="1322" 
d="M1008 1430q209 -64 209 -212q0 -53 -35.5 -88t-100.5 -35q-22 0 -41 33l-7.5 12t-6.5 14q-44 92 -96 141q-73 70 -187 70q-247 0 -294 -199q-13 -53 -13 -145l2 -177h384q112 0 138 -22q12 -10 12 -36q0 -48 -37.5 -64t-106.5 -16h-406v-539q0 -45 93 -45q204 0 364 15.5
t180 28.5q14 16 35 62t24 51q42 77 100 77q70 0 70 -97t-71 -180t-165 -83l-741 4q-156 0 -197 10q-85 20 -85 74q0 21 13 28t19 9.5t38 10.5q74 22 91 65q13 56 13 115l-1 396q-182 6 -182 74q0 36 53.5 49.5t139.5 16.5v77q0 256 131.5 401t376.5 145q154 0 287 -41z" />
    <glyph glyph-name="currency" unicode="&#xa4;" horiz-adv-x="915" 
d="M102 1173q0 15 9.5 25t25 10t29.5 -14l172 -172q58 26 123 26t116 -23l169 169q14 14 29 14t24.5 -10.5t9.5 -25.5t-14 -29l-157 -157q57 -52 57 -132t-57 -132l159 -159q11 -14 11 -29t-8.5 -25.5t-23.5 -10.5t-29 14l-170 169q-52 -23 -120.5 -23t-122.5 23l-169 -169
q-14 -14 -29 -14t-25 10.5t-10 25.5t14 29l159 159q-52 52 -52 128t57 131l-162 162q-15 15 -15 30zM358.5 944q-38.5 -35 -38.5 -90t35 -91t97 -36t103 33t41 94t-38 93t-99.5 32t-100 -35z" />
    <glyph glyph-name="yen" unicode="&#xa5;" horiz-adv-x="1367" 
d="M494 1186q0 -29 -127 -42q7 -3 53.5 -68t103.5 -142q108 -145 191 -263q52 69 156 203.5t156 203.5v-1q5 7 25 30.5t26 36.5q-66 0 -97.5 15t-31.5 27q0 64 93 94q65 20 110 20q141 0 198.5 -26.5t57.5 -58.5t-27.5 -50t-72.5 -28.5t-60 -19.5l-370 -481h191
q26 0 45 -18.5t19 -44t-19.5 -45t-44.5 -19.5h-284v-83h284q26 0 45 -18.5t19 -44.5q0 -25 -19.5 -44.5t-44.5 -19.5h-284v-134q0 -23 55 -30.5t58 -8.5q40 -10 40 -36q0 -91 -185 -91l-77 2l-74 -1q-188 0 -188 90q0 36 105 46q53 6 53 29v134h-272q-26 0 -45 19t-19 44.5
t19 44.5t45 19h272v83h-272q-26 0 -45 19t-19 44.5t19 44.5t45 19h182q-26 34 -157 210.5t-204 270.5q-19 24 -76 31.5t-75 18t-18 41.5q0 92 236 92h60q246 0 246 -114z" />
    <glyph glyph-name="brokenbar" unicode="&#xa6;" horiz-adv-x="431" 
d="M155 1440q0 41 17 70.5t48 29.5q58 0 58 -100v-496q0 -36 -17 -61t-46.5 -25t-45 24.5t-15.5 61.5zM155 560q0 41 17 70.5t48 29.5q58 0 58 -100v-556q0 -36 -17 -61t-46.5 -25t-45 24.5t-15.5 61.5z" />
    <glyph glyph-name="section" unicode="&#xa7;" horiz-adv-x="1040" 
d="M854 1084q-40 -21 -77.5 -21t-52 8.5t-14.5 39.5q0 193 -205 193q-85 0 -148 -37.5t-63 -101t102 -108.5q41 -18 211 -69.5t238 -101.5q102 -75 102 -192q0 -153 -163 -234q143 -78 143 -218q0 -178 -225 -243q-82 -24 -149 -24q-159 0 -280 57q-62 29 -105.5 77
t-43.5 104.5t56 84.5q40 21 78 21t52.5 -8.5t14.5 -39.5q0 -193 205 -193q85 0 148 37.5t63 101t-102 108.5q-41 18 -211 69.5t-238 101.5q-102 75 -102 192q0 155 162 233q-142 78 -142 219q0 178 225 243q83 24 149 24q159 0 280 -57q62 -29 105.5 -77t43.5 -104.5
t-57 -84.5zM612 526q137 22 137 138q0 89 -156 142q-53 17 -104.5 31.5t-65.5 18.5q-137 -27 -137 -133t206 -163q106 -30 120 -34z" />
    <glyph glyph-name="dieresis" unicode="&#xa8;" horiz-adv-x="1015" 
d="M786 1366q-50 0 -84.5 34t-34.5 75.5t33.5 76.5t83 35t87 -30t37.5 -78.5t-37 -80.5t-85 -32zM356 1476q0 -42 -34 -76t-82.5 -34t-86.5 30.5t-38 75.5t34.5 80t83.5 35t86 -30.5t37 -80.5z" />
    <glyph glyph-name="copyright" unicode="&#xa9;" horiz-adv-x="1639" 
d="M869 1085q-111 0 -170.5 -93.5t-59.5 -206t32 -194t98 -133t142.5 -51.5t129.5 23.5t74 34t34.5 10.5t13.5 -35t-29 -70q-97 -117 -278 -117q-220 0 -342 136.5t-122 323t123 319.5t349 133q125 0 218.5 -69t93.5 -179q0 -24 -22.5 -41t-56.5 -17t-58.5 26.5t-44.5 77
t-28 63.5q-36 59 -97 59zM865 1403q144 0 278.5 -55t229 -139t157.5 -210.5t63 -260t-27.5 -226.5t-83.5 -178q-102 -154 -278.5 -252t-390.5 -98t-387.5 95t-276.5 251t-103 358.5t113 366t292 256t414 92.5zM366 252q175 -172 447 -172t451 177.5t179 440.5t-171.5 434.5
t-442.5 171.5t-454.5 -177.5t-183.5 -440t175 -434.5z" />
    <glyph glyph-name="ordfeminine" unicode="&#xaa;" horiz-adv-x="985" 
d="M723.5 1287q75.5 -75 75.5 -244v-117l-2 -88q0 -118 21 -139q9 -9 40 -17q81 -21 81 -42q0 -92 -182 -92q-63 0 -86 25t-28 91q-89 -128 -272.5 -128t-252.5 122q-24 42 -24 94.5t12 85t29.5 54.5t48.5 40t58 28t70 19t72.5 13t76.5 10t87 12.5t80 26.5q0 111 -18 150
q-37 78 -134 78q-161 0 -161 -169l1 -25q-29 -6 -67.5 -6t-78.5 26t-40 66.5t18 72t51 52.5q119 76 284 76t240.5 -75zM305 852.5q-23 -29.5 -23 -86.5t36 -93.5t104 -36.5q126 0 173 98q33 69 33 216q-31 -10 -83 -18t-93.5 -15t-82.5 -21t-64 -43.5z" />
    <glyph glyph-name="guillemotleft" unicode="&#xab;" horiz-adv-x="1197" 
d="M544 566q58 79 180.5 170t206.5 140.5t112.5 49.5t47 -14.5t18.5 -36.5q0 -61 -267 -259q-96 -71 -135 -92q134 -80 313 -252q89 -87 89 -113.5t-17 -42.5t-39 -16q-73 0 -300 178q-95 74 -161.5 144t-66.5 94.5t19 49.5zM61 566q58 79 178.5 169t207 140.5t114.5 50.5
t46.5 -14.5t18.5 -36.5t-25 -51q-64 -75 -201.5 -177t-176.5 -123q72 -40 176 -128q156 -134 191.5 -178t35.5 -65.5t-16.5 -37t-39.5 -15.5q-73 0 -300 178q-91 71 -159.5 143.5t-68.5 96t19 48.5z" />
    <glyph glyph-name="logicalnot" unicode="&#xac;" horiz-adv-x="1182" 
d="M79.5 556q-32.5 13 -32.5 69.5t31.5 77.5t117.5 21h759q111 0 111 -72l-6 -302q-2 -71 -24 -102.5t-79 -31.5q-96 0 -96 66l3 136q2 86 2 125h-687q-67 0 -99.5 13z" />
    <glyph glyph-name="uni00AD" unicode="&#xad;" horiz-adv-x="1203" 
d="M1085 504q32 -18 32 -71.5t-31 -72t-105 -18.5h-756q-63 0 -94.5 17t-31.5 71t33 73t115 19h740q66 0 98 -18z" />
    <glyph glyph-name="registered" unicode="&#xae;" horiz-adv-x="1639" 
d="M632 324l-85 -1q-129 0 -129 49q0 14 47.5 21.5t47.5 24.5v586q0 13 -23.5 18t-47.5 10.5t-24 19.5q0 26 51 36t157 10h95q181 0 257 -22.5t122 -66t46 -122.5q0 -124 -128 -187q-36 -18 -76 -27l29 -39q98 -165 170 -230q44 -25 109 -25q9 -9 9 -22q0 -43 -112 -43
t-165 31q-58 57 -91.5 120.5t-61 119.5t-39.5 80h-107v-247q0 -18 47 -25t47 -25q0 -28 -37 -36t-108 -8zM865 1403q144 0 278.5 -55t229 -139t157.5 -210.5t63 -260t-27.5 -226.5t-83.5 -178q-102 -154 -278.5 -252t-390.5 -98t-387.5 95t-276.5 251t-103 358.5t113 366
t292 256t414 92.5zM366 252q175 -172 447 -172t451 177.5t179 440.5t-171.5 434.5t-442.5 171.5t-454.5 -177.5t-183.5 -440t175 -434.5zM776 741q188 0 188 146q0 135 -205 135q-44 0 -59 -14t-17 -55v-212h93z" />
    <glyph glyph-name="macron" unicode="&#xaf;" horiz-adv-x="841" 
d="M132.5 263q-22.5 16 -22.5 44.5t25 47t60 18.5h474q34 0 57 -16t23 -44.5t-25 -47t-61 -18.5h-474q-34 0 -56.5 16z" />
    <glyph glyph-name="degree" unicode="&#xb0;" horiz-adv-x="705" 
d="M233 1256q0 -49 32 -77t84.5 -28t85 30.5t32.5 80t-31.5 76.5t-84 27t-85.5 -30t-33 -79zM356 1453q239 0 239 -189q0 -98 -69.5 -149.5t-176.5 -51.5q-161 0 -221 107q-20 37 -20 86q0 96 70.5 146.5t177.5 50.5z" />
    <glyph glyph-name="plusminus" unicode="&#xb1;" horiz-adv-x="870" 
d="M135 61.5q-19 10.5 -19 46.5t22.5 47.5t75.5 11.5h477q84 0 84 -48q0 -43 -24.5 -55.5t-79.5 -12.5h-468q-49 0 -68 10.5zM512 321q0 -45 -17 -66.5t-60 -21.5q-81 0 -81 92v226h-220q-52 0 -70 16.5t-18 63.5q0 62 92 62h216v227q0 91 72 91q48 0 67 -22t19 -72v-224
h217q51 0 71 -16t20 -57t-23.5 -55t-70.5 -14h-214v-230z" />
    <glyph glyph-name="twosuperior" unicode="&#xb2;" horiz-adv-x="774" 
d="M140 732q-60 0 -60 42.5t59 81.5t139.5 67t141.5 28q109 0 173.5 -62.5t64.5 -168.5q0 -236 -441 -600h268q29 0 55.5 34t35.5 79l9 9q43 0 72 -29t29 -80t-27 -91.5t-71 -40.5h-440q-41 0 -68.5 24t-27.5 52t28.5 59t140 144t162.5 176q116 145 116 243q0 54 -28.5 87
t-78.5 33q-59 0 -91 -13l-41 -16q-28 -11 -38 -18q-64 -40 -82 -40z" />
    <glyph glyph-name="threesuperior" unicode="&#xb3;" horiz-adv-x="809" 
d="M492 752q0 91 -134 91q-53 0 -113.5 -33t-102.5 -73l-19 -7q-18 0 -33 14t-15 32l3 16v2q49 72 135.5 115t199.5 43q165 0 226 -111q21 -37 21 -91q0 -110 -148 -186q157 -39 208 -166q17 -41 17 -109q0 -134 -105.5 -219t-258.5 -85q-84 0 -137 20.5t-70 27.5t-45 21.5
t-43 27.5q-37 32 -37 70.5t46 38.5q11 0 37 -17q128 -81 247 -81q79 0 139 58t60 136q0 137 -119 179q-36 13 -65.5 13t-70 -13.5t-59.5 -13.5t-31.5 16t-12.5 36l14 27q21 11 71 33q107 45 151 87.5t44 100.5z" />
    <glyph glyph-name="acute" unicode="&#xb4;" horiz-adv-x="527" 
d="M292.5 1673.5q34.5 30.5 82 30.5t84.5 -28t37 -79t-128 -217q-191 -247 -244 -274l-14 14v5q0 46 63.5 251.5t74 236t45 61z" />
    <glyph glyph-name="mu" unicode="&#xb5;" horiz-adv-x="1287" 
d="M178 -175l15 581v343q0 74 -71 79q-59 3 -65 12.5t-6 21.5q0 50 58 76t138.5 26t109.5 -22t29 -104v-405q0 -155 31.5 -214.5t79.5 -84.5t139 -25q251 0 271 203q6 60 6 125l-1 312q0 73 -72 79q-6 1 -15.5 1.5t-14 1t-11.5 1.5t-10.5 2t-8 3.5t-6.5 5.5q-4 9 -4 18
q0 35 30 59q56 44 151.5 44t124.5 -22t29 -104l1 -640q0 -68 72 -73q51 -3 62 -10.5t11 -28.5q0 -45 -60.5 -71t-140.5 -26t-102.5 28.5t-22.5 131.5q-121 -176 -370 -176q-128 0 -209 66q14 -165 15 -245v-13q0 -64 -16 -96.5t-54 -32.5t-57.5 7t-31 17.5t-16.5 35.5
q-8 33 -8 113z" />
    <glyph glyph-name="paragraph" unicode="&#xb6;" horiz-adv-x="1025" 
d="M777 -22q-102 0 -102 68v1244h-99l1 -1224q0 -34 -24 -60.5t-55 -26.5q-102 0 -102 67l-1 693q-155 3 -265 67q-134 78 -134 230q0 255 244 326q134 40 355 40h75q220 0 288 -80q21 -26 21 -53.5t-19 -45t-41.5 -24t-41.5 -23.5t-19 -45l1 -1070q0 -35 -27.5 -59
t-54.5 -24z" />
    <glyph glyph-name="periodcentered" unicode="&#xb7;" horiz-adv-x="486" 
d="M147 695q-43 32 -43 81.5t47 84.5t93 35t93.5 -31t47.5 -74q0 -89 -91 -119q-26 -9 -65 -9t-82 32z" />
    <glyph glyph-name="cedilla" unicode="&#xb8;" horiz-adv-x="593" 
d="M303.5 -343q25.5 13 25.5 38.5t-27 42.5q-43 28 -121 28q32 90 62 198l18 53l112 -4v-1l-48 -140l1 -3v3q71 -7 119 -22.5t80.5 -51t32.5 -89.5q0 -83 -71.5 -128.5t-174.5 -45.5q-47 0 -118 17q-166 38 -166 96q0 19 14 32t32 13t42 -11t32 -11q63 -27 96.5 -27t59 13z
" />
    <glyph glyph-name="onesuperior" unicode="&#xb9;" horiz-adv-x="531" 
d="M359 124q9 -5 36 -12q61 -16 61 -42q0 -70 -131 -70h-92q-137 0 -137 70q0 27 75 45q18 5 26 9v648q-5 2 -35 10q-66 20 -66 38q0 49 75 75.5t117 26.5t56.5 -14t14.5 -57v-727z" />
    <glyph glyph-name="ordmasculine" unicode="&#xba;" horiz-adv-x="1040" 
d="M839 1244q119 -114 119 -297.5t-131 -301t-322 -117.5t-306.5 119t-115.5 300t131 296t318.5 115t306.5 -114zM706 1158.5q-76 97.5 -194.5 97.5t-182.5 -82t-64 -214t75 -229t192.5 -97t183.5 81t66 213.5t-76 230z" />
    <glyph glyph-name="guillemotright" unicode="&#xbb;" horiz-adv-x="1192" 
d="M1137 480q-55 -79 -184 -181t-209 -150.5t-107.5 -48.5t-46 14.5t-18.5 37.5q0 65 267 274q95 73 136 98q-58 31 -166.5 115.5t-172.5 143t-64 84.5t15.5 42.5t30.5 16.5t22 -1t15.5 -3t14 -3.5t14.5 -6.5q33 -16 38 -19t16 -9q216 -128 348 -260q70 -70 70 -94t-19 -50z
M654 480q-55 -79 -182.5 -180t-209.5 -150.5t-109 -49.5t-45.5 14.5t-18.5 36.5q0 65 267 274q99 77 135 99q-63 33 -176 123.5t-137 112.5q-89 81 -89 107t16 42.5t31 16.5t22 -1t15.5 -3t14 -3.5t14.5 -6.5q33 -16 38 -19t16 -9q216 -128 348 -260q69 -69 69 -93.5
t-19 -50.5z" />
    <glyph glyph-name="onequarter" unicode="&#xbc;" horiz-adv-x="1450" 
d="M320 562q9 -5 36 -12q61 -16 61 -42q0 -70 -131 -70h-92q-137 0 -137 70q0 27 75 45q18 5 26 9v648q-5 2 -35 10q-66 20 -66 38q0 49 75 75.5t117 26.5t56.5 -14t14.5 -57v-727zM864 291q-35 0 -64.5 18.5t-29.5 40t2.5 34t9 26.5t10 21t14 23.5t50.5 83t152 227
t127 185.5q102 0 124.5 -23.5t29 -53t6.5 -85.5v-381q33 3 60 3q103 0 103 -57q0 -63 -97 -63l-66 3v-169q9 -6 36 -12q62 -16 62 -42q0 -70 -133 -70h-92q-135 0 -135 70q0 27 74 45q18 5 26 9v167h-269zM1133 405q0 61 3 183t3 183q-154 -269 -207 -366h201zM343 50
q-26 -39 -55.5 -39t-49 14.5t-19.5 38.5t14 47l719 1170q28 46 60 46q67 0 67 -55q0 -24 -17 -52z" />
    <glyph glyph-name="onehalf" unicode="&#xbd;" horiz-adv-x="1547" 
d="M320 562q9 -5 36 -12q61 -16 61 -42q0 -70 -131 -70h-92q-137 0 -137 70q0 27 75 45q18 5 26 9v648q-5 2 -35 10q-66 20 -66 38q0 49 75 75.5t117 26.5t56.5 -14t14.5 -57v-727zM957 732q-60 0 -60 42.5t59 81.5t139.5 67t141.5 28q109 0 173.5 -62.5t64.5 -168.5
q0 -236 -441 -600h268q29 0 55.5 34t35.5 79l9 9q43 0 72 -29t29 -80t-27 -91.5t-71 -40.5h-440q-41 0 -68.5 24t-27.5 52t28.5 59t140 144t162.5 176q116 145 116 243q0 54 -28.5 87t-78.5 33q-59 0 -91 -13l-41 -16q-28 -11 -38 -18q-64 -40 -82 -40zM343 50
q-26 -39 -55.5 -39t-49 14.5t-19.5 38.5t14 47l719 1170q28 46 60 46q67 0 67 -55q0 -24 -17 -52z" />
    <glyph glyph-name="threequarters" unicode="&#xbe;" horiz-adv-x="1715" 
d="M461 1190q0 91 -134 91q-53 0 -113.5 -33t-102.5 -73l-19 -7q-18 0 -33 14t-15 32l3 16v2q49 72 135.5 115t199.5 43q165 0 226 -111q21 -37 21 -91q0 -110 -148 -186q157 -39 208 -166q17 -41 17 -109q0 -134 -105.5 -219t-258.5 -85q-84 0 -137 20.5t-70 27.5t-45 21.5
t-43 27.5q-37 32 -37 70.5t46 38.5q11 0 37 -17q128 -81 247 -81q79 0 139 58t60 136q0 137 -119 179q-36 13 -65.5 13t-70 -13.5t-59.5 -13.5t-31.5 16t-12.5 36l14 27q21 11 71 33q107 45 151 87.5t44 100.5zM1132 291q-35 0 -64.5 18.5t-29.5 40t2.5 34t9 26.5t10 21
t14 23.5t50.5 83t152 227t127 185.5q102 0 124.5 -23.5t29 -53t6.5 -85.5v-381q33 3 60 3q103 0 103 -57q0 -63 -97 -63l-66 3v-169q9 -6 36 -12q62 -16 62 -42q0 -70 -133 -70h-92q-135 0 -135 70q0 27 74 45q18 5 26 9v167h-269zM1401 405q0 61 3 183t3 183
q-154 -269 -207 -366h201zM648 50q-26 -39 -55.5 -39t-49 14.5t-19.5 38.5t14 47l719 1170q28 46 60 46q67 0 67 -55q0 -24 -17 -52z" />
    <glyph glyph-name="questiondown" unicode="&#xbf;" horiz-adv-x="692" 
d="M287 1260q31 36 85 36t86 -35.5t32 -82.5t-29.5 -80.5t-85.5 -33.5t-87.5 33t-31.5 80t31 83zM646.5 201q22.5 -24 22.5 -58t-33 -63.5t-81 -46.5q-99 -33 -184 -33q-166 0 -274 71t-108 207q0 93 59 160q45 51 103 96.5t94 80.5q70 66 88 222q10 72 37 72q41 0 41 -87.5
t-11.5 -143t-38.5 -101.5q-39 -64 -85 -110t-51 -52q-65 -67 -65 -136q0 -125 187 -125q89 0 193 57q25 14 54.5 14t52 -24z" />
    <glyph glyph-name="Agrave" unicode="&#xc0;" horiz-adv-x="1490" 
d="M728 1538q-23 10 -113 109t-174.5 219t-84.5 167t36.5 75t82 28t81.5 -28.5t48 -64.5q54 -157 95.5 -311.5t42.5 -174.5v-5zM1472 89q0 -46 -57 -67.5t-125 -21.5h-12q-130 0 -164.5 10t-56.5 20q-44 22 -44 71q0 22 53.5 25t53.5 34q0 11 -19 48h1l-110 262h-589
q-107 -282 -107 -307t13 -29l-1 1q7 -4 34 -11q67 -16 67 -35q0 -89 -225 -89q-187 0 -187 89q0 19 67.5 38t95.5 94l405 1059q-10 27 -10 47q0 77 157 77q126 0 163 -96l422 -1080q36 -86 110 -98q47 -7 56 -15.5t9 -25.5zM442 566h510l-260 714z" />
    <glyph glyph-name="Aacute" unicode="&#xc1;" horiz-adv-x="1490" 
d="M910.5 2105.5q34.5 30.5 82 30.5t84.5 -28t37 -79t-128 -217q-191 -247 -244 -274l-14 14v5q0 46 63.5 251.5t74 236t45 61zM1472 89q0 -46 -57 -67.5t-125 -21.5h-12q-130 0 -164.5 10t-56.5 20q-44 22 -44 71q0 22 53.5 25t53.5 34q0 11 -19 48h1l-110 262h-589
q-107 -282 -107 -307t13 -29l-1 1q7 -4 34 -11q67 -16 67 -35q0 -89 -225 -89q-187 0 -187 89q0 19 67.5 38t95.5 94l405 1059q-10 27 -10 47q0 77 157 77q126 0 163 -96l422 -1080q36 -86 110 -98q47 -7 56 -15.5t9 -25.5zM442 566h510l-260 714z" />
    <glyph glyph-name="Acircumflex" unicode="&#xc2;" horiz-adv-x="1490" 
d="M330 1550q16 38 94.5 142.5t165 198t114.5 93.5t193 -202t175 -232l-21 -12q-42 3 -255 148l-36 24v-1l-56 40l-34 -23q-22 -13 -90 -63q-159 -118 -221 -125zM1472 89q0 -46 -57 -67.5t-125 -21.5h-12q-130 0 -164.5 10t-56.5 20q-44 22 -44 71q0 22 53.5 25t53.5 34
q0 11 -19 48h1l-110 262h-589q-107 -282 -107 -307t13 -29l-1 1q7 -4 34 -11q67 -16 67 -35q0 -89 -225 -89q-187 0 -187 89q0 19 67.5 38t95.5 94l405 1059q-10 27 -10 47q0 77 157 77q126 0 163 -96l422 -1080q36 -86 110 -98q47 -7 56 -15.5t9 -25.5zM442 566h510
l-260 714z" />
    <glyph glyph-name="Atilde" unicode="&#xc3;" horiz-adv-x="1490" 
d="M406 1711q62 47 139.5 47t222.5 -45t181.5 -45t80.5 23t49 24l20 -7q-39 -75 -107.5 -122.5t-150.5 -47.5t-197 44.5t-166.5 44.5t-94 -22t-55.5 -24l-19 7q35 76 97 123zM1472 89q0 -46 -57 -67.5t-125 -21.5h-12q-130 0 -164.5 10t-56.5 20q-44 22 -44 71q0 22 53.5 25
t53.5 34q0 11 -19 48h1l-110 262h-589q-107 -282 -107 -307t13 -29l-1 1q7 -4 34 -11q67 -16 67 -35q0 -89 -225 -89q-187 0 -187 89q0 19 67.5 38t95.5 94l405 1059q-10 27 -10 47q0 77 157 77q126 0 163 -96l422 -1080q36 -86 110 -98q47 -7 56 -15.5t9 -25.5zM442 566
h510l-260 714z" />
    <glyph glyph-name="Adieresis" unicode="&#xc4;" horiz-adv-x="1490" 
d="M918 1538q-50 0 -84.5 34t-34.5 75.5t33.5 76.5t83 35t87 -30t37.5 -78.5t-37 -80.5t-85 -32zM488 1648q0 -42 -34 -76t-82.5 -34t-86.5 30.5t-38 75.5t34.5 80t83.5 35t86 -30.5t37 -80.5zM1472 89q0 -46 -57 -67.5t-125 -21.5h-12q-130 0 -164.5 10t-56.5 20
q-44 22 -44 71q0 22 53.5 25t53.5 34q0 11 -19 48h1l-110 262h-589q-107 -282 -107 -307t13 -29l-1 1q7 -4 34 -11q67 -16 67 -35q0 -89 -225 -89q-187 0 -187 89q0 19 67.5 38t95.5 94l405 1059q-10 27 -10 47q0 77 157 77q126 0 163 -96l422 -1080q36 -86 110 -98
q47 -7 56 -15.5t9 -25.5zM442 566h510l-260 714z" />
    <glyph glyph-name="Aring" unicode="&#xc5;" horiz-adv-x="1490" 
d="M616 1596q0 -49 32 -77t84.5 -28t85 30.5t32.5 80t-31.5 76.5t-84 27t-85.5 -30t-33 -79zM739 1793q239 0 239 -189q0 -98 -69.5 -149.5t-176.5 -51.5q-161 0 -221 107q-20 37 -20 86q0 96 70.5 146.5t177.5 50.5zM1472 89q0 -46 -57 -67.5t-125 -21.5h-12
q-130 0 -164.5 10t-56.5 20q-44 22 -44 71q0 22 53.5 25t53.5 34q0 11 -19 48h1l-110 262h-589q-107 -282 -107 -307t13 -29l-1 1q7 -4 34 -11q67 -16 67 -35q0 -89 -225 -89q-187 0 -187 89q0 19 67.5 38t95.5 94l405 1059q-10 27 -10 47q0 77 157 77q126 0 163 -96
l422 -1080q36 -86 110 -98q47 -7 56 -15.5t9 -25.5zM442 566h510l-260 714z" />
    <glyph glyph-name="AE" unicode="&#xc6;" horiz-adv-x="2308" 
d="M2180 356q78 0 78 -94t-81.5 -180t-188.5 -86l-761 4q-143 0 -182 10q-76 19 -76 80q0 30 35 37t40 7q75 8 75 81v255h-584q-212 -283 -220.5 -307.5t2.5 -28.5v1q19 -14 46 -19.5t34.5 -10t3.5 -16.5q-33 -89 -258 -89q-159 0 -159 65q0 11 6 26.5t43.5 24.5t80 28.5
t86.5 76.5l794 1059q0 26 7 47q29 77 185 77h874q79 0 124 -62t45 -144q0 -148 -103 -148q-68 0 -90.5 43.5t-22.5 117.5v51l1 24h-676v-499h429q7 7 31.5 53t36 63.5t23.5 17.5q113 0 113 -192q0 -127 -52 -179q-22 -22 -45 -22t-38 15t-49 92l-1 1q0 1 -20 36h-428v-541
h639q15 15 58 84t76 105t69 36zM1121 1244v36l-512 -714h510v624q0 20 2 54z" />
    <glyph glyph-name="Ccedilla" unicode="&#xc7;" horiz-adv-x="1507" 
d="M765.5 -372q25.5 13 25.5 38.5t-27 42.5q-43 28 -121 28q32 90 62 198l18 53l112 -4v-1l-48 -140l1 -3v3q71 -7 119 -22.5t80.5 -51t32.5 -89.5q0 -83 -71.5 -128.5t-174.5 -45.5q-47 0 -118 17q-166 38 -166 96q0 19 14 32t32 13t42 -11t32 -11q63 -27 96.5 -27t59 13z
M266 735q0 -134 49 -247.5t135 -191.5q182 -165 467 -165t502 217q24 24 42.5 24t35 -14t16.5 -34t-11 -45h1q-75 -132 -250.5 -219.5t-359.5 -87.5t-335 47t-267.5 134t-185.5 222.5t-69 305t65 310t179 232.5q234 190 597 190q193 0 365 -60q88 -31 143.5 -88.5
t55.5 -131.5t-46 -110t-108 -36t-91 10q-11 156 -90 232t-238 76q-271 0 -436.5 -157.5t-165.5 -412.5z" />
    <glyph glyph-name="Egrave" unicode="&#xc8;" horiz-adv-x="1437" 
d="M732 1538q-23 10 -113 109t-174.5 219t-84.5 167t36.5 75t82 28t81.5 -28.5t48 -64.5q54 -157 95.5 -311.5t42.5 -174.5v-5zM1305 356q78 0 78 -100t-84 -180t-186 -80l-761 4q-138 0 -176 7q-79 21 -82 83q0 35 68 44q32 5 43 10q39 16 39 71v975q0 72 -75 82
q-14 2 -26 3.5t-20 3t-11 3.5t-7.5 5.5t-6.5 8.5q-4 13 -4 34t15.5 39.5t54.5 25.5q50 9 188 9h833q76 0 122.5 -60t46.5 -146q0 -148 -103 -148q-64 0 -88.5 40.5t-24.5 106t1 89.5h-676v-499h429q7 7 24 41q46 93 67 93q113 0 113 -192q0 -82 -23.5 -141.5t-74.5 -59.5
q-27 0 -44.5 20t-36 65t-26.5 59h-428v-541h639q18 18 53 79t72 103.5t78 42.5z" />
    <glyph glyph-name="Eacute" unicode="&#xc9;" horiz-adv-x="1437" 
d="M914.5 2105.5q34.5 30.5 82 30.5t84.5 -28t37 -79t-128 -217q-191 -247 -244 -274l-14 14v5q0 46 63.5 251.5t74 236t45 61zM1305 356q78 0 78 -100t-84 -180t-186 -80l-761 4q-138 0 -176 7q-79 21 -82 83q0 35 68 44q32 5 43 10q39 16 39 71v975q0 72 -75 82
q-14 2 -26 3.5t-20 3t-11 3.5t-7.5 5.5t-6.5 8.5q-4 13 -4 34t15.5 39.5t54.5 25.5q50 9 188 9h833q76 0 122.5 -60t46.5 -146q0 -148 -103 -148q-64 0 -88.5 40.5t-24.5 106t1 89.5h-676v-499h429q7 7 24 41q46 93 67 93q113 0 113 -192q0 -82 -23.5 -141.5t-74.5 -59.5
q-27 0 -44.5 20t-36 65t-26.5 59h-428v-541h639q18 18 53 79t72 103.5t78 42.5z" />
    <glyph glyph-name="Ecircumflex" unicode="&#xca;" horiz-adv-x="1437" 
d="M367 1550q16 38 94.5 142.5t165 198t114.5 93.5t193 -202t175 -232l-21 -12q-42 3 -255 148l-36 24v-1l-56 40l-34 -23q-22 -13 -90 -63q-159 -118 -221 -125zM1305 356q78 0 78 -100t-84 -180t-186 -80l-761 4q-138 0 -176 7q-79 21 -82 83q0 35 68 44q32 5 43 10
q39 16 39 71v975q0 72 -75 82q-14 2 -26 3.5t-20 3t-11 3.5t-7.5 5.5t-6.5 8.5q-4 13 -4 34t15.5 39.5t54.5 25.5q50 9 188 9h833q76 0 122.5 -60t46.5 -146q0 -148 -103 -148q-64 0 -88.5 40.5t-24.5 106t1 89.5h-676v-499h429q7 7 24 41q46 93 67 93q113 0 113 -192
q0 -82 -23.5 -141.5t-74.5 -59.5q-27 0 -44.5 20t-36 65t-26.5 59h-428v-541h639q18 18 53 79t72 103.5t78 42.5z" />
    <glyph glyph-name="Edieresis" unicode="&#xcb;" horiz-adv-x="1437" 
d="M1013 1538q-50 0 -84.5 34t-34.5 75.5t33.5 76.5t83 35t87 -30t37.5 -78.5t-37 -80.5t-85 -32zM583 1648q0 -42 -34 -76t-82.5 -34t-86.5 30.5t-38 75.5t34.5 80t83.5 35t86 -30.5t37 -80.5zM1305 356q78 0 78 -100t-84 -180t-186 -80l-761 4q-138 0 -176 7
q-79 21 -82 83q0 35 68 44q32 5 43 10q39 16 39 71v975q0 72 -75 82q-14 2 -26 3.5t-20 3t-11 3.5t-7.5 5.5t-6.5 8.5q-4 13 -4 34t15.5 39.5t54.5 25.5q50 9 188 9h833q76 0 122.5 -60t46.5 -146q0 -148 -103 -148q-64 0 -88.5 40.5t-24.5 106t1 89.5h-676v-499h429
q7 7 24 41q46 93 67 93q113 0 113 -192q0 -82 -23.5 -141.5t-74.5 -59.5q-27 0 -44.5 20t-36 65t-26.5 59h-428v-541h639q18 18 53 79t72 103.5t78 42.5z" />
    <glyph glyph-name="Igrave" unicode="&#xcc;" horiz-adv-x="708" 
d="M346 1538q-23 10 -113 109t-174.5 219t-84.5 167t36.5 75t82 28t81.5 -28.5t48 -64.5q54 -157 95.5 -311.5t42.5 -174.5v-5zM313 0q-219 0 -219 90q0 35 68 44q32 5 43 10q39 16 39 71v975q0 72 -75 82q-14 2 -26 3.5t-20 3t-11 3.5t-7.5 5.5t-6.5 8.5q-4 13 -4 26.5
t4.5 25.5t16 21t22 15t32 9.5t36 6t44.5 3.5t47 1h64t52.5 -0.5t49.5 -2.5t48 -5t40.5 -10t33.5 -16q29 -21 29 -49.5t-19.5 -37t-50.5 -12t-42 -8.5q-39 -18 -39 -73v-975q0 -44 23.5 -62.5t57 -22t43.5 -6.5q27 -6 27 -32.5t-9 -41.5t-30 -24.5t-40 -15t-55 -7.5
q-54 -3 -166 -3z" />
    <glyph glyph-name="Iacute" unicode="&#xcd;" horiz-adv-x="708" 
d="M528.5 2105.5q34.5 30.5 82 30.5t84.5 -28t37 -79t-128 -217q-191 -247 -244 -274l-14 14v5q0 46 63.5 251.5t74 236t45 61zM313 0q-219 0 -219 90q0 35 68 44q32 5 43 10q39 16 39 71v975q0 72 -75 82q-14 2 -26 3.5t-20 3t-11 3.5t-7.5 5.5t-6.5 8.5q-4 13 -4 26.5
t4.5 25.5t16 21t22 15t32 9.5t36 6t44.5 3.5t47 1h64t52.5 -0.5t49.5 -2.5t48 -5t40.5 -10t33.5 -16q29 -21 29 -49.5t-19.5 -37t-50.5 -12t-42 -8.5q-39 -18 -39 -73v-975q0 -44 23.5 -62.5t57 -22t43.5 -6.5q27 -6 27 -32.5t-9 -41.5t-30 -24.5t-40 -15t-55 -7.5
q-54 -3 -166 -3z" />
    <glyph glyph-name="Icircumflex" unicode="&#xce;" horiz-adv-x="708" 
d="M-18 1550q16 38 94.5 142.5t165 198t114.5 93.5t193 -202t175 -232l-21 -12q-42 3 -255 148l-36 24v-1l-56 40l-34 -23q-22 -13 -90 -63q-159 -118 -221 -125zM313 0q-219 0 -219 90q0 35 68 44q32 5 43 10q39 16 39 71v975q0 72 -75 82q-14 2 -26 3.5t-20 3t-11 3.5
t-7.5 5.5t-6.5 8.5q-4 13 -4 26.5t4.5 25.5t16 21t22 15t32 9.5t36 6t44.5 3.5t47 1h64t52.5 -0.5t49.5 -2.5t48 -5t40.5 -10t33.5 -16q29 -21 29 -49.5t-19.5 -37t-50.5 -12t-42 -8.5q-39 -18 -39 -73v-975q0 -44 23.5 -62.5t57 -22t43.5 -6.5q27 -6 27 -32.5t-9 -41.5
t-30 -24.5t-40 -15t-55 -7.5q-54 -3 -166 -3z" />
    <glyph glyph-name="Idieresis" unicode="&#xcf;" horiz-adv-x="708" 
d="M628 1538q-50 0 -84.5 34t-34.5 75.5t33.5 76.5t83 35t87 -30t37.5 -78.5t-37 -80.5t-85 -32zM198 1648q0 -42 -34 -76t-82.5 -34t-86.5 30.5t-38 75.5t34.5 80t83.5 35t86 -30.5t37 -80.5zM313 0q-219 0 -219 90q0 35 68 44q32 5 43 10q39 16 39 71v975q0 72 -75 82
q-14 2 -26 3.5t-20 3t-11 3.5t-7.5 5.5t-6.5 8.5q-4 13 -4 26.5t4.5 25.5t16 21t22 15t32 9.5t36 6t44.5 3.5t47 1h64t52.5 -0.5t49.5 -2.5t48 -5t40.5 -10t33.5 -16q29 -21 29 -49.5t-19.5 -37t-50.5 -12t-42 -8.5q-39 -18 -39 -73v-975q0 -44 23.5 -62.5t57 -22t43.5 -6.5
q27 -6 27 -32.5t-9 -41.5t-30 -24.5t-40 -15t-55 -7.5q-54 -3 -166 -3z" />
    <glyph glyph-name="Eth" unicode="&#xd0;" horiz-adv-x="1734" 
d="M132.5 677q-22.5 16 -22.5 44.5t25 47t60 18.5h474q34 0 57 -16t23 -44.5t-25 -47t-61 -18.5h-474q-34 0 -56.5 16zM1374.5 384q84.5 130 84.5 288t-41.5 260t-114 167.5t-181.5 106.5q-198 76 -516 76q-143 0 -143 -23v-1117q158 -17 343.5 -17t334.5 64.5t233.5 194.5z
M1625.5 998.5q56.5 -111.5 56.5 -252t-43.5 -262t-121 -210t-184.5 -150.5q-213 -125 -505 -125q-103 2 -359 2t-294 8q-77 20 -80 82q0 35 68 44q32 4 43 9q39 16 39 72v974q0 76 -75 82q-63 5 -69 19t-6 37t15 41.5t54 25.5q50 9 188 9h309q529 0 812 -220
q96 -74 152.5 -185.5z" />
    <glyph glyph-name="Ntilde" unicode="&#xd1;" horiz-adv-x="1782" 
d="M616 1730q62 47 139.5 47t222.5 -45t181.5 -45t80.5 23t49 24l20 -7q-39 -75 -107.5 -122.5t-150.5 -47.5t-197 44.5t-166.5 44.5t-94 -22t-55.5 -24l-19 7q35 76 97 123zM1577 88q0 -110 -65 -110q-50 0 -122 78q-215 228 -946 1027v-890q0 -17 42 -34.5l84 -35
t42 -34.5q0 -31 -24 -55.5t-61 -37.5q-150 -50 -339 -2q-103 26 -103 97q0 24 43.5 36t86.5 25.5t43 40.5v1041q0 19 -86.5 41.5t-86.5 41.5t7.5 34.5t24.5 25t34 15.5t46 8q41 4 105 4h13q110 0 137 -24v1l940 -1019v131l-1 7v713q0 13 -86 45t-86 47q0 39 41 70
q79 60 196 60q288 0 288 -130q0 -13 -83 -46t-83 -46z" />
    <glyph glyph-name="Ograve" unicode="&#xd2;" horiz-adv-x="1770" 
d="M876 1538q-23 10 -113 109t-174.5 219t-84.5 167t36.5 75t82 28t81.5 -28.5t48 -64.5q54 -157 95.5 -311.5t42.5 -174.5v-5zM574.5 188.5q143.5 -78.5 312 -78.5t307 71.5t221.5 201t83 303t-82 315.5t-227.5 217t-324 75t-313.5 -72.5t-211 -205t-76 -301.5t83.5 -308
t227 -217.5zM45 648q0 134 42 259t118.5 218t180.5 159q210 132 500 132q271 0 479 -108q225 -117 309 -320q46 -109 46 -238q0 -234 -110 -411.5t-300 -270.5t-431 -93q-274 0 -484 112q-350 187 -350 561z" />
    <glyph glyph-name="Oacute" unicode="&#xd3;" horiz-adv-x="1770" 
d="M1058.5 2105.5q34.5 30.5 82 30.5t84.5 -28t37 -79t-128 -217q-191 -247 -244 -274l-14 14v5q0 46 63.5 251.5t74 236t45 61zM574.5 188.5q143.5 -78.5 312 -78.5t307 71.5t221.5 201t83 303t-82 315.5t-227.5 217t-324 75t-313.5 -72.5t-211 -205t-76 -301.5t83.5 -308
t227 -217.5zM45 648q0 134 42 259t118.5 218t180.5 159q210 132 500 132q271 0 479 -108q225 -117 309 -320q46 -109 46 -238q0 -234 -110 -411.5t-300 -270.5t-431 -93q-274 0 -484 112q-350 187 -350 561z" />
    <glyph glyph-name="Ocircumflex" unicode="&#xd4;" horiz-adv-x="1770" 
d="M511 1550q16 38 94.5 142.5t165 198t114.5 93.5t193 -202t175 -232l-21 -12q-42 3 -255 148l-36 24v-1l-56 40l-34 -23q-22 -13 -90 -63q-159 -118 -221 -125zM574.5 188.5q143.5 -78.5 312 -78.5t307 71.5t221.5 201t83 303t-82 315.5t-227.5 217t-324 75t-313.5 -72.5
t-211 -205t-76 -301.5t83.5 -308t227 -217.5zM45 648q0 134 42 259t118.5 218t180.5 159q210 132 500 132q271 0 479 -108q225 -117 309 -320q46 -109 46 -238q0 -234 -110 -411.5t-300 -270.5t-431 -93q-274 0 -484 112q-350 187 -350 561z" />
    <glyph glyph-name="Otilde" unicode="&#xd5;" horiz-adv-x="1770" 
d="M554 1711q62 47 139.5 47t222.5 -45t181.5 -45t80.5 23t49 24l20 -7q-39 -75 -107.5 -122.5t-150.5 -47.5t-197 44.5t-166.5 44.5t-94 -22t-55.5 -24l-19 7q35 76 97 123zM574.5 188.5q143.5 -78.5 312 -78.5t307 71.5t221.5 201t83 303t-82 315.5t-227.5 217t-324 75
t-313.5 -72.5t-211 -205t-76 -301.5t83.5 -308t227 -217.5zM45 648q0 134 42 259t118.5 218t180.5 159q210 132 500 132q271 0 479 -108q225 -117 309 -320q46 -109 46 -238q0 -234 -110 -411.5t-300 -270.5t-431 -93q-274 0 -484 112q-350 187 -350 561z" />
    <glyph glyph-name="Odieresis" unicode="&#xd6;" horiz-adv-x="1770" 
d="M1157 1538q-50 0 -84.5 34t-34.5 75.5t33.5 76.5t83 35t87 -30t37.5 -78.5t-37 -80.5t-85 -32zM727 1648q0 -42 -34 -76t-82.5 -34t-86.5 30.5t-38 75.5t34.5 80t83.5 35t86 -30.5t37 -80.5zM574.5 188.5q143.5 -78.5 312 -78.5t307 71.5t221.5 201t83 303t-82 315.5
t-227.5 217t-324 75t-313.5 -72.5t-211 -205t-76 -301.5t83.5 -308t227 -217.5zM45 648q0 134 42 259t118.5 218t180.5 159q210 132 500 132q271 0 479 -108q225 -117 309 -320q46 -109 46 -238q0 -234 -110 -411.5t-300 -270.5t-431 -93q-274 0 -484 112q-350 187 -350 561
z" />
    <glyph glyph-name="multiply" unicode="&#xd7;" horiz-adv-x="716" 
d="M618 462q36 -36 36 -62t-25 -51.5t-55 -25.5t-65 35l-160 161l-158 -158q-39 -39 -62 -39t-48.5 23.5t-25.5 51.5t38 66l156 157l-161 160q-37 34 -37 63t25 54t53.5 25t66.5 -38l159 -159l156 157q39 39 65 39t50 -24t24 -50.5t-41 -67.5l-154 -155z" />
    <glyph glyph-name="Oslash" unicode="&#xd8;" horiz-adv-x="1762" 
d="M536 -139q-19 -40 -48 -40t-48.5 14.5t-19.5 39.5t10 44l759 1597q16 37 50 37q74 0 74 -60q0 -9 -5 -27zM1488 672q0 183 -80 318.5t-222 219t-340 83.5q-274 0 -433 -168t-159 -412t173 -423.5t445 -179.5t444 164t172 398zM1710 750q0 -218 -107 -394t-294 -278.5
t-440 -102.5q-351 0 -587 183q-72 57 -131 136q-116 160 -116 343q0 350 237.5 564.5t603.5 214.5q187 0 350.5 -56t282.5 -163q201 -181 201 -447z" />
    <glyph glyph-name="Ugrave" unicode="&#xd9;" 
d="M858 1538q-23 10 -113 109t-174.5 219t-84.5 167t36.5 75t82 28t81.5 -28.5t48 -64.5q54 -157 95.5 -311.5t42.5 -174.5v-5zM268 1404q32 0 58.5 -0.5t66 -3t62 -8t46 -15t34 -25.5t10.5 -37t-42 -31l-84 -20t-42 -30v-785q0 -95 70 -170.5t182 -115.5t226 -40t203 21
t161 61t114 106.5t42 150.5v772q0 23 -41.5 33.5t-83.5 19.5t-42 26.5t4.5 31t15.5 22.5t21.5 16t30 11t32.5 6.5t39 3t39 1t42 0t55.5 -0.5t53 -0.5t62 -3t57.5 -8.5t43.5 -15.5t31.5 -25t10 -36.5t-42 -31l-84 -20t-42 -30v-793q0 -260 -303 -389q-172 -73 -388 -73
q-356 0 -572 160q-71 53 -113.5 133t-42.5 176v786q0 23 -43 33.5t-86.5 19.5t-43.5 26.5t5.5 30.5t18 22.5t24.5 16t34.5 10.5t38.5 7q27 4 78 4h84z" />
    <glyph glyph-name="Uacute" unicode="&#xda;" 
d="M1040.5 2105.5q34.5 30.5 82 30.5t84.5 -28t37 -79t-128 -217q-191 -247 -244 -274l-14 14v5q0 46 63.5 251.5t74 236t45 61zM268 1404q32 0 58.5 -0.5t66 -3t62 -8t46 -15t34 -25.5t10.5 -37t-42 -31l-84 -20t-42 -30v-785q0 -95 70 -170.5t182 -115.5t226 -40t203 21
t161 61t114 106.5t42 150.5v772q0 23 -41.5 33.5t-83.5 19.5t-42 26.5t4.5 31t15.5 22.5t21.5 16t30 11t32.5 6.5t39 3t39 1t42 0t55.5 -0.5t53 -0.5t62 -3t57.5 -8.5t43.5 -15.5t31.5 -25t10 -36.5t-42 -31l-84 -20t-42 -30v-793q0 -260 -303 -389q-172 -73 -388 -73
q-356 0 -572 160q-71 53 -113.5 133t-42.5 176v786q0 23 -43 33.5t-86.5 19.5t-43.5 26.5t5.5 30.5t18 22.5t24.5 16t34.5 10.5t38.5 7q27 4 78 4h84z" />
    <glyph glyph-name="Ucircumflex" unicode="&#xdb;" 
d="M494 1550q16 38 94.5 142.5t165 198t114.5 93.5t193 -202t175 -232l-21 -12q-42 3 -255 148l-36 24v-1l-56 40l-34 -23q-22 -13 -90 -63q-159 -118 -221 -125zM268 1404q32 0 58.5 -0.5t66 -3t62 -8t46 -15t34 -25.5t10.5 -37t-42 -31l-84 -20t-42 -30v-785
q0 -95 70 -170.5t182 -115.5t226 -40t203 21t161 61t114 106.5t42 150.5v772q0 23 -41.5 33.5t-83.5 19.5t-42 26.5t4.5 31t15.5 22.5t21.5 16t30 11t32.5 6.5t39 3t39 1t42 0t55.5 -0.5t53 -0.5t62 -3t57.5 -8.5t43.5 -15.5t31.5 -25t10 -36.5t-42 -31l-84 -20t-42 -30
v-793q0 -260 -303 -389q-172 -73 -388 -73q-356 0 -572 160q-71 53 -113.5 133t-42.5 176v786q0 23 -43 33.5t-86.5 19.5t-43.5 26.5t5.5 30.5t18 22.5t24.5 16t34.5 10.5t38.5 7q27 4 78 4h84z" />
    <glyph glyph-name="Udieresis" unicode="&#xdc;" 
d="M1140 1538q-50 0 -84.5 34t-34.5 75.5t33.5 76.5t83 35t87 -30t37.5 -78.5t-37 -80.5t-85 -32zM710 1648q0 -42 -34 -76t-82.5 -34t-86.5 30.5t-38 75.5t34.5 80t83.5 35t86 -30.5t37 -80.5zM268 1404q32 0 58.5 -0.5t66 -3t62 -8t46 -15t34 -25.5t10.5 -37t-42 -31
l-84 -20t-42 -30v-785q0 -95 70 -170.5t182 -115.5t226 -40t203 21t161 61t114 106.5t42 150.5v772q0 23 -41.5 33.5t-83.5 19.5t-42 26.5t4.5 31t15.5 22.5t21.5 16t30 11t32.5 6.5t39 3t39 1t42 0t55.5 -0.5t53 -0.5t62 -3t57.5 -8.5t43.5 -15.5t31.5 -25t10 -36.5
t-42 -31l-84 -20t-42 -30v-793q0 -260 -303 -389q-172 -73 -388 -73q-356 0 -572 160q-71 53 -113.5 133t-42.5 176v786q0 23 -43 33.5t-86.5 19.5t-43.5 26.5t5.5 30.5t18 22.5t24.5 16t34.5 10.5t38.5 7q27 4 78 4h84z" />
    <glyph glyph-name="Yacute" unicode="&#xdd;" horiz-adv-x="1467" 
d="M894.5 2105.5q34.5 30.5 82 30.5t84.5 -28t37 -79t-128 -217q-191 -247 -244 -274l-14 14v5q0 46 63.5 251.5t74 236t45 61zM1169 1252q-147 0 -147 36q0 52 70 84t162 32q253 0 253 -85q0 -48 -116 -79q-46 -13 -56 -20l-510 -662v-386q0 -19 42 -31t84 -23t42 -28
q0 -60 -83 -78q-72 -15 -182 -11q-166 0 -228.5 19t-63.5 70q0 35 86 40t86 42v386l-136 182q-262 356 -359 478q-9 12 -56 23.5t-86.5 27.5t-39.5 43q0 92 248 92h67q260 0 260 -116q0 -20 -96 -32q-9 -1 -13 -2l-38 -5l-1 -9l398 -527l372 481q27 31 41 58z" />
    <glyph glyph-name="Thorn" unicode="&#xde;" horiz-adv-x="1338" 
d="M466 1154h102q186 0 278 -8t185.5 -34t146.5 -61q123 -81 123 -229q0 -256 -295 -344q-183 -54 -477 -54h-63v-252q0 -30 83 -44t83 -38q0 -61 -76 -78q-52 -11 -204 -11t-196 9q-83 18 -83 70q0 18 14.5 29.5t31 14.5t41.5 6q80 9 80 42v1060q0 30 -83.5 43.5
t-83.5 38.5q0 61 77 78q52 11 204 11t196 -9q82 -18 82 -70q0 -34 -46 -44q-17 -3 -42 -6q-78 -9 -78 -42v-78zM586 540q489 0 489 264q0 135 -139 190q-104 41 -302 41h-82q-77 0 -86 -12v-480q33 -3 71 -3h49z" />
    <glyph glyph-name="germandbls" unicode="&#xdf;" horiz-adv-x="1180" 
d="M942 296q0 188 -113 304.5t-292 116.5q-30 0 -30 40q0 55 63 70q79 19 144.5 77t65.5 131q0 119 -58 194.5t-151 75.5t-131.5 -55t-38.5 -209v-951q0 -57 -22 -74.5t-58 -17.5q-176 0 -232.5 17t-56.5 75q0 35 68 44q32 5 43 10q39 16 39 71v735q0 236 81 343
q84 111 304 111q98 0 186 -38t144 -111t56 -173t-40 -153q-78 -105 -261 -156q206 -14 343 -114q148 -107 148 -289.5t-97.5 -289.5t-264.5 -107q-169 0 -259 99q-47 50 -47 108.5t32 85t79.5 26.5t79 -34.5t31.5 -79.5t-5 -102q42 -17 76 -17q77 0 125.5 75.5t48.5 161.5z
" />
    <glyph glyph-name="agrave" unicode="&#xe0;" horiz-adv-x="1131" 
d="M566 1098q-23 10 -113 109t-174.5 219t-84.5 167t36.5 75t82 28t81.5 -28.5t48 -64.5q54 -157 95.5 -311.5t42.5 -174.5v-5zM153.5 663.5q-46.5 29.5 -46.5 77t27 89.5t70 68.5t100 44.5q104 33 224 33q202 0 293.5 -89.5t91.5 -295.5l-1 -295q0 -107 27 -134
q7 -7 44 -18q102 -32 102 -49q0 -105 -215 -105q-81 0 -105.5 36t-26.5 131q-45 -81 -137 -131t-197 -50t-178 27t-118.5 87.5t-45.5 130.5t16 112.5t40 71.5t65.5 52t77.5 36.5t93 24.5q84 16 141 22.5t59 7.5q6 1 68.5 7.5t98.5 26.5q0 190 -51 248q-45 50 -148 50
t-154.5 -52.5t-51.5 -166.5l1 -22q-42 -5 -79.5 -5t-84 29.5zM721 492q-68 -25 -153.5 -34.5t-134.5 -22.5t-82 -32q-76 -44 -76 -151q0 -172 200 -172q173 0 219 165q27 94 27 247z" />
    <glyph glyph-name="aacute" unicode="&#xe1;" horiz-adv-x="1131" 
d="M748.5 1665.5q34.5 30.5 82 30.5t84.5 -28t37 -79t-128 -217q-191 -247 -244 -274l-14 14v5q0 46 63.5 251.5t74 236t45 61zM153.5 663.5q-46.5 29.5 -46.5 77t27 89.5t70 68.5t100 44.5q104 33 224 33q202 0 293.5 -89.5t91.5 -295.5l-1 -295q0 -107 27 -134
q7 -7 44 -18q102 -32 102 -49q0 -105 -215 -105q-81 0 -105.5 36t-26.5 131q-45 -81 -137 -131t-197 -50t-178 27t-118.5 87.5t-45.5 130.5t16 112.5t40 71.5t65.5 52t77.5 36.5t93 24.5q84 16 141 22.5t59 7.5q6 1 68.5 7.5t98.5 26.5q0 190 -51 248q-45 50 -148 50
t-154.5 -52.5t-51.5 -166.5l1 -22q-42 -5 -79.5 -5t-84 29.5zM721 492q-68 -25 -153.5 -34.5t-134.5 -22.5t-82 -32q-76 -44 -76 -151q0 -172 200 -172q173 0 219 165q27 94 27 247z" />
    <glyph glyph-name="acircumflex" unicode="&#xe2;" horiz-adv-x="1131" 
d="M169 1110q16 38 94.5 142.5t165 198t114.5 93.5t193 -202t175 -232l-21 -12q-42 3 -255 148l-36 24v-1l-56 40l-34 -23q-22 -13 -90 -63q-159 -118 -221 -125zM153.5 663.5q-46.5 29.5 -46.5 77t27 89.5t70 68.5t100 44.5q104 33 224 33q202 0 293.5 -89.5t91.5 -295.5
l-1 -295q0 -107 27 -134q7 -7 44 -18q102 -32 102 -49q0 -105 -215 -105q-81 0 -105.5 36t-26.5 131q-45 -81 -137 -131t-197 -50t-178 27t-118.5 87.5t-45.5 130.5t16 112.5t40 71.5t65.5 52t77.5 36.5t93 24.5q84 16 141 22.5t59 7.5q6 1 68.5 7.5t98.5 26.5
q0 190 -51 248q-45 50 -148 50t-154.5 -52.5t-51.5 -166.5l1 -22q-42 -5 -79.5 -5t-84 29.5zM721 492q-68 -25 -153.5 -34.5t-134.5 -22.5t-82 -32q-76 -44 -76 -151q0 -172 200 -172q173 0 219 165q27 94 27 247z" />
    <glyph glyph-name="atilde" unicode="&#xe3;" horiz-adv-x="1131" 
d="M245 1271q62 47 139.5 47t222.5 -45t181.5 -45t80.5 23t49 24l20 -7q-39 -75 -107.5 -122.5t-150.5 -47.5t-197 44.5t-166.5 44.5t-94 -22t-55.5 -24l-19 7q35 76 97 123zM153.5 663.5q-46.5 29.5 -46.5 77t27 89.5t70 68.5t100 44.5q104 33 224 33q202 0 293.5 -89.5
t91.5 -295.5l-1 -295q0 -107 27 -134q7 -7 44 -18q102 -32 102 -49q0 -105 -215 -105q-81 0 -105.5 36t-26.5 131q-45 -81 -137 -131t-197 -50t-178 27t-118.5 87.5t-45.5 130.5t16 112.5t40 71.5t65.5 52t77.5 36.5t93 24.5q84 16 141 22.5t59 7.5q6 1 68.5 7.5t98.5 26.5
q0 190 -51 248q-45 50 -148 50t-154.5 -52.5t-51.5 -166.5l1 -22q-42 -5 -79.5 -5t-84 29.5zM721 492q-68 -25 -153.5 -34.5t-134.5 -22.5t-82 -32q-76 -44 -76 -151q0 -172 200 -172q173 0 219 165q27 94 27 247z" />
    <glyph glyph-name="adieresis" unicode="&#xe4;" horiz-adv-x="1131" 
d="M757 1098q-50 0 -84.5 34t-34.5 75.5t33.5 76.5t83 35t87 -30t37.5 -78.5t-37 -80.5t-85 -32zM327 1208q0 -42 -34 -76t-82.5 -34t-86.5 30.5t-38 75.5t34.5 80t83.5 35t86 -30.5t37 -80.5zM153.5 663.5q-46.5 29.5 -46.5 77t27 89.5t70 68.5t100 44.5q104 33 224 33
q202 0 293.5 -89.5t91.5 -295.5l-1 -295q0 -107 27 -134q7 -7 44 -18q102 -32 102 -49q0 -105 -215 -105q-81 0 -105.5 36t-26.5 131q-45 -81 -137 -131t-197 -50t-178 27t-118.5 87.5t-45.5 130.5t16 112.5t40 71.5t65.5 52t77.5 36.5t93 24.5q84 16 141 22.5t59 7.5
q6 1 68.5 7.5t98.5 26.5q0 190 -51 248q-45 50 -148 50t-154.5 -52.5t-51.5 -166.5l1 -22q-42 -5 -79.5 -5t-84 29.5zM721 492q-68 -25 -153.5 -34.5t-134.5 -22.5t-82 -32q-76 -44 -76 -151q0 -172 200 -172q173 0 219 165q27 94 27 247z" />
    <glyph glyph-name="aring" unicode="&#xe5;" horiz-adv-x="1131" 
d="M455 1291q0 -49 32 -77t84.5 -28t85 30.5t32.5 80t-31.5 76.5t-84 27t-85.5 -30t-33 -79zM578 1488q239 0 239 -189q0 -98 -69.5 -149.5t-176.5 -51.5q-161 0 -221 107q-20 37 -20 86q0 96 70.5 146.5t177.5 50.5zM153.5 663.5q-46.5 29.5 -46.5 77t27 89.5t70 68.5
t100 44.5q104 33 224 33q202 0 293.5 -89.5t91.5 -295.5l-1 -295q0 -107 27 -134q7 -7 44 -18q102 -32 102 -49q0 -105 -215 -105q-81 0 -105.5 36t-26.5 131q-45 -81 -137 -131t-197 -50t-178 27t-118.5 87.5t-45.5 130.5t16 112.5t40 71.5t65.5 52t77.5 36.5t93 24.5
q84 16 141 22.5t59 7.5q6 1 68.5 7.5t98.5 26.5q0 190 -51 248q-45 50 -148 50t-154.5 -52.5t-51.5 -166.5l1 -22q-42 -5 -79.5 -5t-84 29.5zM721 492q-68 -25 -153.5 -34.5t-134.5 -22.5t-82 -32q-76 -44 -76 -151q0 -172 200 -172q173 0 219 165q27 94 27 247z" />
    <glyph glyph-name="ae" unicode="&#xe6;" horiz-adv-x="1689" 
d="M378 -24q-137 0 -226.5 71.5t-89.5 194.5q0 169 176 240q93 37 151.5 44.5t114 14t89.5 11.5q94 12 128 30q0 142 -23 194q-46 104 -166 104h-2q-112 -1 -163 -53.5t-51 -165.5l1 -22q-42 -5 -79.5 -5t-84 29.5t-46.5 71t15.5 74t38.5 54t59 39.5q141 74 320 74
q234 0 313 -153q144 153 366 153q171 0 288.5 -110.5t117.5 -277.5q0 -81 -128 -81h-579q2 -162 105 -273t260 -111q104 0 202 61q52 32 66.5 32t33 -14.5t18.5 -26t-14.5 -39.5t-58.5 -61q-134 -102 -314 -102q-129 0 -233.5 55t-167.5 143q-140 -195 -437 -195zM475 80
q69 0 121.5 32.5t79.5 85.5q45 88 45 294q-37 -13 -185.5 -38t-189.5 -51q-71 -45 -71 -151q0 -172 200 -172zM1162 608q156 0 279 4q-3 178 -133 239q-43 20 -94 20q-114 0 -197.5 -80t-88.5 -183h234z" />
    <glyph glyph-name="ccedilla" unicode="&#xe7;" horiz-adv-x="1026" 
d="M489.5 -371q25.5 13 25.5 38.5t-27 42.5q-43 28 -121 28q32 90 62 198l18 53l112 -4v-1l-48 -140l1 -3v3q71 -7 119 -22.5t80.5 -51t32.5 -89.5q0 -83 -71.5 -128.5t-174.5 -45.5q-47 0 -118 17q-166 38 -166 96q0 19 14 32t32 13t42 -11t32 -11q63 -27 96.5 -27t59 13z
M922 195q45 0 45 -42q0 -23 -14 -38q-133 -142 -382 -142t-394.5 135t-145.5 357q0 145 70.5 262.5t192 183.5t269.5 66q207 0 319 -107q59 -57 59 -133q0 -45 -37.5 -76t-89.5 -31t-75 9q-7 113 -46.5 173.5t-132.5 60.5q-152 0 -238.5 -97t-86.5 -261t110.5 -285
t278.5 -121q99 0 243 70q31 16 55 16z" />
    <glyph glyph-name="egrave" unicode="&#xe8;" horiz-adv-x="995" 
d="M476 1098q-23 10 -113 109t-174.5 219t-84.5 167t36.5 75t82 28t81.5 -28.5t48 -64.5q54 -157 95.5 -311.5t42.5 -174.5v-5zM32 470q0 225 139.5 365.5t355.5 140.5q171 0 288.5 -110.5t117.5 -277.5q0 -81 -128 -81h-579q2 -162 105 -273t260 -111q104 0 202 61
q52 32 66.5 32t33 -14.5t18.5 -35.5q0 -55 -70.5 -101.5t-155.5 -69t-149 -22.5q-227 0 -365.5 136t-138.5 361zM749 612q-2 115 -60 187t-169.5 72t-195 -80t-88.5 -183h234q156 0 279 4z" />
    <glyph glyph-name="eacute" unicode="&#xe9;" horiz-adv-x="995" 
d="M658.5 1665.5q34.5 30.5 82 30.5t84.5 -28t37 -79t-128 -217q-191 -247 -244 -274l-14 14v5q0 46 63.5 251.5t74 236t45 61zM32 470q0 225 139.5 365.5t355.5 140.5q171 0 288.5 -110.5t117.5 -277.5q0 -81 -128 -81h-579q2 -162 105 -273t260 -111q104 0 202 61
q52 32 66.5 32t33 -14.5t18.5 -35.5q0 -55 -70.5 -101.5t-155.5 -69t-149 -22.5q-227 0 -365.5 136t-138.5 361zM749 612q-2 115 -60 187t-169.5 72t-195 -80t-88.5 -183h234q156 0 279 4z" />
    <glyph glyph-name="ecircumflex" unicode="&#xea;" horiz-adv-x="995" 
d="M111 1110q16 38 94.5 142.5t165 198t114.5 93.5t193 -202t175 -232l-21 -12q-42 3 -255 148l-36 24v-1l-56 40l-34 -23q-22 -13 -90 -63q-159 -118 -221 -125zM32 470q0 225 139.5 365.5t355.5 140.5q171 0 288.5 -110.5t117.5 -277.5q0 -81 -128 -81h-579
q2 -162 105 -273t260 -111q104 0 202 61q52 32 66.5 32t33 -14.5t18.5 -35.5q0 -55 -70.5 -101.5t-155.5 -69t-149 -22.5q-227 0 -365.5 136t-138.5 361zM749 612q-2 115 -60 187t-169.5 72t-195 -80t-88.5 -183h234q156 0 279 4z" />
    <glyph glyph-name="edieresis" unicode="&#xeb;" horiz-adv-x="995" 
d="M757 1098q-50 0 -84.5 34t-34.5 75.5t33.5 76.5t83 35t87 -30t37.5 -78.5t-37 -80.5t-85 -32zM327 1208q0 -42 -34 -76t-82.5 -34t-86.5 30.5t-38 75.5t34.5 80t83.5 35t86 -30.5t37 -80.5zM32 470q0 225 139.5 365.5t355.5 140.5q171 0 288.5 -110.5t117.5 -277.5
q0 -81 -128 -81h-579q2 -162 105 -273t260 -111q104 0 202 61q52 32 66.5 32t33 -14.5t18.5 -35.5q0 -55 -70.5 -101.5t-155.5 -69t-149 -22.5q-227 0 -365.5 136t-138.5 361zM749 612q-2 115 -60 187t-169.5 72t-195 -80t-88.5 -183h234q156 0 279 4z" />
    <glyph glyph-name="igrave" unicode="&#xec;" horiz-adv-x="595" 
d="M284 1096q-23 10 -113 109t-174.5 219t-84.5 167t36.5 75t82 28t81.5 -28.5t48 -64.5q54 -157 95.5 -311.5t42.5 -174.5v-5zM336 0l-86 -1q-131 0 -162 40q-14 18 -14 42.5t14.5 33t42.5 12t39 7.5q33 12 33 57v538q0 91 -71 98q-7 1 -18 2t-16 1.5t-12.5 2t-11 3.5
t-7.5 5q-7 5 -7 28.5t30 48.5q57 46 152 46q88 0 103.5 -7t26.5 -15q21 -14 21 -53v-698q0 -60 65 -65q37 -2 50.5 -11t13.5 -37q0 -50 -61 -67q-42 -11 -125 -11z" />
    <glyph glyph-name="iacute" unicode="&#xed;" horiz-adv-x="595" 
d="M466.5 1663.5q34.5 30.5 82 30.5t84.5 -28t37 -79t-128 -217q-191 -247 -244 -274l-14 14v5q0 46 63.5 251.5t74 236t45 61zM336 0l-86 -1q-131 0 -162 40q-14 18 -14 42.5t14.5 33t42.5 12t39 7.5q33 12 33 57v538q0 91 -71 98q-7 1 -18 2t-16 1.5t-12.5 2t-11 3.5
t-7.5 5q-7 5 -7 28.5t30 48.5q57 46 152 46q88 0 103.5 -7t26.5 -15q21 -14 21 -53v-698q0 -60 65 -65q37 -2 50.5 -11t13.5 -37q0 -50 -61 -67q-42 -11 -125 -11z" />
    <glyph glyph-name="icircumflex" unicode="&#xee;" horiz-adv-x="595" 
d="M-114 1108q16 38 94.5 142.5t165 198t114.5 93.5t193 -202t175 -232l-21 -12q-42 3 -255 148l-36 24v-1l-56 40l-34 -23q-22 -13 -90 -63q-159 -118 -221 -125zM336 0l-86 -1q-131 0 -162 40q-14 18 -14 42.5t14.5 33t42.5 12t39 7.5q33 12 33 57v538q0 91 -71 98
q-7 1 -18 2t-16 1.5t-12.5 2t-11 3.5t-7.5 5q-7 5 -7 28.5t30 48.5q57 46 152 46q88 0 103.5 -7t26.5 -15q21 -14 21 -53v-698q0 -60 65 -65q37 -2 50.5 -11t13.5 -37q0 -50 -61 -67q-42 -11 -125 -11z" />
    <glyph glyph-name="idieresis" unicode="&#xef;" horiz-adv-x="595" 
d="M474 1096q-50 0 -84.5 34t-34.5 75.5t33.5 76.5t83 35t87 -30t37.5 -78.5t-37 -80.5t-85 -32zM44 1206q0 -42 -34 -76t-82.5 -34t-86.5 30.5t-38 75.5t34.5 80t83.5 35t86 -30.5t37 -80.5zM336 0l-86 -1q-131 0 -162 40q-14 18 -14 42.5t14.5 33t42.5 12t39 7.5
q33 12 33 57v538q0 91 -71 98q-7 1 -18 2t-16 1.5t-12.5 2t-11 3.5t-7.5 5q-7 5 -7 28.5t30 48.5q57 46 152 46q88 0 103.5 -7t26.5 -15q21 -14 21 -53v-698q0 -60 65 -65q37 -2 50.5 -11t13.5 -37q0 -50 -61 -67q-42 -11 -125 -11z" />
    <glyph glyph-name="eth" unicode="&#xf0;" horiz-adv-x="1166" 
d="M534 1425q-176 105 -268 105q-66 0 -66 -64q0 -36 35 -47q141 -41 245 -96l-74 -138q-13 -23 -13 -49.5t17 -43.5t48 -17t56 45l73 135q180 -123 248 -283q30 -70 45 -153q-160 140 -360 140t-341 -133.5t-141 -352.5t143 -358.5t382 -139.5q404 0 509 371q32 114 32 257
q0 256 -123 450.5t-334 314.5l74 138q14 25 14 50.5t-17 42.5t-48.5 17t-56.5 -45zM341 199q-99 112 -99 286t91 269.5t242 95.5t315 -123q24 -101 24 -192.5t-18 -170.5t-54 -142q-77 -135 -239.5 -135t-261.5 112z" />
    <glyph glyph-name="ntilde" unicode="&#xf1;" horiz-adv-x="1316" 
d="M334 1275q62 47 139.5 47t222.5 -45t181.5 -45t80.5 23t49 24l20 -7q-39 -75 -107.5 -122.5t-150.5 -47.5t-197 44.5t-166.5 44.5t-94 -22t-55.5 -24l-19 7q35 76 97 123zM345 0l-86 -1q-131 0 -162 40q-14 18 -14 43.5t20 35.5t44.5 11t44.5 15.5t20 46.5v571
q0 58 -72 70q-50 8 -60.5 17.5t-10.5 34t35 44.5q59 36 148.5 36t115 -25.5t25.5 -113.5q137 155 377 155q195 0 276.5 -106.5t81.5 -322.5v-360q0 -58 64.5 -61.5t64.5 -51.5q0 -54 -62 -68q-46 -10 -127 -10l-86 -1q-131 0 -162 40q-14 18 -14 43.5t20 35.5t44.5 11
t44.5 15.5t20 46.5v291q0 186 -43 272q-48 97 -193 97q-175 0 -238 -93q-59 -88 -59 -281v-286q0 -58 64.5 -61.5t64.5 -51.5q0 -55 -61 -68q-44 -10 -125 -10z" />
    <glyph glyph-name="ograve" unicode="&#xf2;" horiz-adv-x="1121" 
d="M552 1096q-23 10 -113 109t-174.5 219t-84.5 167t36.5 75t82 28t81.5 -28.5t48 -64.5q54 -157 95.5 -311.5t42.5 -174.5v-5zM534 -25q-226 0 -364 142.5t-138 361.5q0 146 73 260t197.5 174.5t277.5 60.5q220 0 363 -137t143 -354q0 -150 -73.5 -266.5t-198.5 -179
t-280 -62.5zM807.5 187q83.5 101 83.5 269t-96 290t-246.5 122t-231.5 -103t-81 -270t95 -288t244 -121t232.5 101z" />
    <glyph glyph-name="oacute" unicode="&#xf3;" horiz-adv-x="1121" 
d="M734.5 1663.5q34.5 30.5 82 30.5t84.5 -28t37 -79t-128 -217q-191 -247 -244 -274l-14 14v5q0 46 63.5 251.5t74 236t45 61zM534 -25q-226 0 -364 142.5t-138 361.5q0 146 73 260t197.5 174.5t277.5 60.5q220 0 363 -137t143 -354q0 -150 -73.5 -266.5t-198.5 -179
t-280 -62.5zM807.5 187q83.5 101 83.5 269t-96 290t-246.5 122t-231.5 -103t-81 -270t95 -288t244 -121t232.5 101z" />
    <glyph glyph-name="ocircumflex" unicode="&#xf4;" horiz-adv-x="1121" 
d="M154 1108q16 38 94.5 142.5t165 198t114.5 93.5t193 -202t175 -232l-21 -12q-42 3 -255 148l-36 24v-1l-56 40l-34 -23q-22 -13 -90 -63q-159 -118 -221 -125zM534 -25q-226 0 -364 142.5t-138 361.5q0 146 73 260t197.5 174.5t277.5 60.5q220 0 363 -137t143 -354
q0 -150 -73.5 -266.5t-198.5 -179t-280 -62.5zM807.5 187q83.5 101 83.5 269t-96 290t-246.5 122t-231.5 -103t-81 -270t95 -288t244 -121t232.5 101z" />
    <glyph glyph-name="otilde" unicode="&#xf5;" horiz-adv-x="1121" 
d="M230 1269q62 47 139.5 47t222.5 -45t181.5 -45t80.5 23t49 24l20 -7q-39 -75 -107.5 -122.5t-150.5 -47.5t-197 44.5t-166.5 44.5t-94 -22t-55.5 -24l-19 7q35 76 97 123zM534 -25q-226 0 -364 142.5t-138 361.5q0 146 73 260t197.5 174.5t277.5 60.5q220 0 363 -137
t143 -354q0 -150 -73.5 -266.5t-198.5 -179t-280 -62.5zM807.5 187q83.5 101 83.5 269t-96 290t-246.5 122t-231.5 -103t-81 -270t95 -288t244 -121t232.5 101z" />
    <glyph glyph-name="odieresis" unicode="&#xf6;" horiz-adv-x="1121" 
d="M742 1096q-50 0 -84.5 34t-34.5 75.5t33.5 76.5t83 35t87 -30t37.5 -78.5t-37 -80.5t-85 -32zM312 1206q0 -42 -34 -76t-82.5 -34t-86.5 30.5t-38 75.5t34.5 80t83.5 35t86 -30.5t37 -80.5zM534 -25q-226 0 -364 142.5t-138 361.5q0 146 73 260t197.5 174.5t277.5 60.5
q220 0 363 -137t143 -354q0 -150 -73.5 -266.5t-198.5 -179t-280 -62.5zM807.5 187q83.5 101 83.5 269t-96 290t-246.5 122t-231.5 -103t-81 -270t95 -288t244 -121t232.5 101z" />
    <glyph glyph-name="divide" unicode="&#xf7;" horiz-adv-x="437" 
d="M117 783q-43 32 -43 81.5t47 84.5t93 35t93.5 -31t47.5 -74q0 -89 -91 -119q-25 -9 -64.5 -9t-82.5 32zM117 215q-43 32 -43 81.5t47 84.5t93 35t93.5 -31t47.5 -74q0 -89 -91 -119q-26 -9 -65 -9t-82 32z" />
    <glyph glyph-name="oslash" unicode="&#xf8;" horiz-adv-x="1119" 
d="M887 1158q19 0 36.5 -12.5t17.5 -27.5t-8 -41l-613 -1246q-21 -44 -61 -44q-18 0 -32 12t-14 34t11 46l600 1238q20 41 63 41zM578 974q220 0 363 -137t143 -360.5t-159 -362.5t-388 -139t-368 143.5t-139 360.5q0 146 73 260t197.5 174.5t277.5 60.5zM805.5 187
q83.5 101 83.5 264.5t-90.5 290t-246.5 126.5t-237 -103t-81 -270t95 -288t244 -121t232.5 101z" />
    <glyph glyph-name="ugrave" unicode="&#xf9;" horiz-adv-x="1261" 
d="M594 1096q-23 10 -113 109t-174.5 219t-84.5 167t36.5 75t82 28t81.5 -28.5t48 -64.5q54 -157 95.5 -311.5t42.5 -174.5v-5zM336 433q0 -137 22 -193.5t50 -80.5q58 -50 193.5 -50t198.5 69.5t63 232.5v338q0 74 -73 79q-58 3 -64 12.5t-6 21.5q0 50 58.5 76t139 26
t109 -22t28.5 -104l1 -640q0 -68 72 -73q51 -3 62 -10.5t11 -35t-33 -50.5q-59 -40 -153.5 -40t-117 28.5t-22.5 131.5q-121 -176 -370 -176q-197 0 -279.5 106t-82.5 327v343q0 74 -71 79q-59 3 -65 12.5t-6 21.5q0 50 58 76t138.5 26t109.5 -22t29 -104v-405z" />
    <glyph glyph-name="uacute" unicode="&#xfa;" horiz-adv-x="1261" 
d="M776.5 1663.5q34.5 30.5 82 30.5t84.5 -28t37 -79t-128 -217q-191 -247 -244 -274l-14 14v5q0 46 63.5 251.5t74 236t45 61zM336 433q0 -137 22 -193.5t50 -80.5q58 -50 193.5 -50t198.5 69.5t63 232.5v338q0 74 -73 79q-58 3 -64 12.5t-6 21.5q0 50 58.5 76t139 26
t109 -22t28.5 -104l1 -640q0 -68 72 -73q51 -3 62 -10.5t11 -35t-33 -50.5q-59 -40 -153.5 -40t-117 28.5t-22.5 131.5q-121 -176 -370 -176q-197 0 -279.5 106t-82.5 327v343q0 74 -71 79q-59 3 -65 12.5t-6 21.5q0 50 58 76t138.5 26t109.5 -22t29 -104v-405z" />
    <glyph glyph-name="ucircumflex" unicode="&#xfb;" horiz-adv-x="1261" 
d="M196 1108q16 38 94.5 142.5t165 198t114.5 93.5t193 -202t175 -232l-21 -12q-42 3 -255 148l-36 24v-1l-56 40l-34 -23q-22 -13 -90 -63q-159 -118 -221 -125zM336 433q0 -137 22 -193.5t50 -80.5q58 -50 193.5 -50t198.5 69.5t63 232.5v338q0 74 -73 79q-58 3 -64 12.5
t-6 21.5q0 50 58.5 76t139 26t109 -22t28.5 -104l1 -640q0 -68 72 -73q51 -3 62 -10.5t11 -35t-33 -50.5q-59 -40 -153.5 -40t-117 28.5t-22.5 131.5q-121 -176 -370 -176q-197 0 -279.5 106t-82.5 327v343q0 74 -71 79q-59 3 -65 12.5t-6 21.5q0 50 58 76t138.5 26
t109.5 -22t29 -104v-405z" />
    <glyph glyph-name="udieresis" unicode="&#xfc;" horiz-adv-x="1261" 
d="M784 1096q-50 0 -84.5 34t-34.5 75.5t33.5 76.5t83 35t87 -30t37.5 -78.5t-37 -80.5t-85 -32zM354 1206q0 -42 -34 -76t-82.5 -34t-86.5 30.5t-38 75.5t34.5 80t83.5 35t86 -30.5t37 -80.5zM336 433q0 -137 22 -193.5t50 -80.5q58 -50 193.5 -50t198.5 69.5t63 232.5v338
q0 74 -73 79q-58 3 -64 12.5t-6 21.5q0 50 58.5 76t139 26t109 -22t28.5 -104l1 -640q0 -68 72 -73q51 -3 62 -10.5t11 -35t-33 -50.5q-59 -40 -153.5 -40t-117 28.5t-22.5 131.5q-121 -176 -370 -176q-197 0 -279.5 106t-82.5 327v343q0 74 -71 79q-59 3 -65 12.5t-6 21.5
q0 50 58 76t138.5 26t109.5 -22t29 -104v-405z" />
    <glyph glyph-name="yacute" unicode="&#xfd;" horiz-adv-x="1125" 
d="M721.5 1663.5q34.5 30.5 82 30.5t84.5 -28t37 -79t-128 -217q-191 -247 -244 -274l-14 14v5q0 46 63.5 251.5t74 236t45 61zM590 205q253 535 253 565t-22 42t-48 14q-70 7 -70 41q0 91 215 91h40q96 0 137.5 -31t41.5 -58t-30 -33q-62 -11 -92.5 -34.5t-59.5 -86.5
t-97 -215t-114 -248l-215 -442q-34 -72 -87.5 -119.5t-126.5 -47.5t-127.5 36.5t-54.5 94t34.5 91t86.5 33.5t93.5 -26t43.5 -64q80 127 107 198q-42 116 -191.5 406.5t-165.5 324t-27.5 46.5t-29.5 22t-30 13t-39 11t-43.5 12t-16.5 31q0 86 236 86q145 0 186 -15
q79 -28 79 -74q0 -31 -59.5 -42.5t-59.5 -43.5q0 -4 35 -95q115 -298 218 -483z" />
    <glyph glyph-name="thorn" unicode="&#xfe;" horiz-adv-x="1131" 
d="M337 201q119 -94 256 -94t213 90t76 251.5t-94.5 281.5t-219.5 120t-231 -98v-551zM338 854q149 127 339 127t305.5 -132.5t115.5 -350.5t-136.5 -367t-326.5 -149q-149 0 -294 84v-411q0 -38 -53.5 -70.5t-102.5 -32.5q-38 0 -38 91v1604q0 91 -71 98q-7 1 -18 2
t-16 1.5t-12.5 2t-11 3.5t-7.5 5q-7 5 -7 28.5t30 48.5q57 46 152 46q101 0 118 -12q34 -24 34 -63v-553z" />
    <glyph glyph-name="ydieresis" unicode="&#xff;" horiz-adv-x="1125" 
d="M820 1096q-50 0 -84.5 34t-34.5 75.5t33.5 76.5t83 35t87 -30t37.5 -78.5t-37 -80.5t-85 -32zM390 1206q0 -42 -34 -76t-82.5 -34t-86.5 30.5t-38 75.5t34.5 80t83.5 35t86 -30.5t37 -80.5zM590 205q253 535 253 565t-22 42t-48 14q-70 7 -70 41q0 91 215 91h40
q96 0 137.5 -31t41.5 -58t-30 -33q-62 -11 -92.5 -34.5t-59.5 -86.5t-97 -215t-114 -248l-215 -442q-34 -72 -87.5 -119.5t-126.5 -47.5t-127.5 36.5t-54.5 94t34.5 91t86.5 33.5t93.5 -26t43.5 -64q80 127 107 198q-42 116 -191.5 406.5t-165.5 324t-27.5 46.5t-29.5 22
t-30 13t-39 11t-43.5 12t-16.5 31q0 86 236 86q145 0 186 -15q79 -28 79 -74q0 -31 -59.5 -42.5t-59.5 -43.5q0 -4 35 -95q115 -298 218 -483z" />
    <glyph glyph-name="Amacron" unicode="&#x100;" horiz-adv-x="1490" 
d="M437.5 1554q-22.5 16 -22.5 44.5t25 47t60 18.5h474q34 0 57 -16t23 -44.5t-25 -47t-61 -18.5h-474q-34 0 -56.5 16zM1472 89q0 -46 -57 -67.5t-125 -21.5h-12q-130 0 -164.5 10t-56.5 20q-44 22 -44 71q0 22 53.5 25t53.5 34q0 11 -19 48h1l-110 262h-589
q-107 -282 -107 -307t13 -29l-1 1q7 -4 34 -11q67 -16 67 -35q0 -89 -225 -89q-187 0 -187 89q0 19 67.5 38t95.5 94l405 1059q-10 27 -10 47q0 77 157 77q126 0 163 -96l422 -1080q36 -86 110 -98q47 -7 56 -15.5t9 -25.5zM442 566h510l-260 714z" />
    <glyph glyph-name="amacron" unicode="&#x101;" horiz-adv-x="1131" 
d="M276.5 1114q-22.5 16 -22.5 44.5t25 47t60 18.5h474q34 0 57 -16t23 -44.5t-25 -47t-61 -18.5h-474q-34 0 -56.5 16zM153.5 663.5q-46.5 29.5 -46.5 77t27 89.5t70 68.5t100 44.5q104 33 224 33q202 0 293.5 -89.5t91.5 -295.5l-1 -295q0 -107 27 -134q7 -7 44 -18
q102 -32 102 -49q0 -105 -215 -105q-81 0 -105.5 36t-26.5 131q-45 -81 -137 -131t-197 -50t-178 27t-118.5 87.5t-45.5 130.5t16 112.5t40 71.5t65.5 52t77.5 36.5t93 24.5q84 16 141 22.5t59 7.5q6 1 68.5 7.5t98.5 26.5q0 190 -51 248q-45 50 -148 50t-154.5 -52.5
t-51.5 -166.5l1 -22q-42 -5 -79.5 -5t-84 29.5zM721 492q-68 -25 -153.5 -34.5t-134.5 -22.5t-82 -32q-76 -44 -76 -151q0 -172 200 -172q173 0 219 165q27 94 27 247z" />
    <glyph glyph-name="Abreve" unicode="&#x102;" horiz-adv-x="1490" 
d="M1144 1895q-4 -171 -115.5 -264t-296 -93t-293.5 94t-113 263h133q8 -84 87 -131t189 -47q162 0 241 91q31 35 35 87h133zM1472 89q0 -46 -57 -67.5t-125 -21.5h-12q-130 0 -164.5 10t-56.5 20q-44 22 -44 71q0 22 53.5 25t53.5 34q0 11 -19 48h1l-110 262h-589
q-107 -282 -107 -307t13 -29l-1 1q7 -4 34 -11q67 -16 67 -35q0 -89 -225 -89q-187 0 -187 89q0 19 67.5 38t95.5 94l405 1059q-10 27 -10 47q0 77 157 77q126 0 163 -96l422 -1080q36 -86 110 -98q47 -7 56 -15.5t9 -25.5zM442 566h510l-260 714z" />
    <glyph glyph-name="abreve" unicode="&#x103;" horiz-adv-x="1131" 
d="M982 1455q-4 -171 -115.5 -264t-296 -93t-293.5 94t-113 263h133q8 -84 87 -131t189 -47q162 0 241 91q31 35 35 87h133zM153.5 663.5q-46.5 29.5 -46.5 77t27 89.5t70 68.5t100 44.5q104 33 224 33q202 0 293.5 -89.5t91.5 -295.5l-1 -295q0 -107 27 -134q7 -7 44 -18
q102 -32 102 -49q0 -105 -215 -105q-81 0 -105.5 36t-26.5 131q-45 -81 -137 -131t-197 -50t-178 27t-118.5 87.5t-45.5 130.5t16 112.5t40 71.5t65.5 52t77.5 36.5t93 24.5q84 16 141 22.5t59 7.5q6 1 68.5 7.5t98.5 26.5q0 190 -51 248q-45 50 -148 50t-154.5 -52.5
t-51.5 -166.5l1 -22q-42 -5 -79.5 -5t-84 29.5zM721 492q-68 -25 -153.5 -34.5t-134.5 -22.5t-82 -32q-76 -44 -76 -151q0 -172 200 -172q173 0 219 165q27 94 27 247z" />
    <glyph glyph-name="Aogonek" unicode="&#x104;" horiz-adv-x="1491" 
d="M955 -393q-134 -62 -229.5 -62t-163.5 42t-68 122.5t118 202.5q51 52 119 104h136q-65 -42 -111 -96q-90 -102 -90 -164q0 -40 31.5 -55t81 -15t142.5 33zM1478 89q0 -46 -57 -67.5t-125 -21.5h-12q-130 0 -164.5 10t-56.5 20q-44 22 -44 71q0 22 53.5 25t53.5 34
q0 11 -19 48h1l-110 262h-589q-107 -282 -107 -307t13 -29l-1 1q7 -4 34 -11q67 -16 67 -35q0 -89 -225 -89q-187 0 -187 89q0 19 67.5 38t95.5 94l405 1059q-10 27 -10 47q0 77 157 77q126 0 163 -96l422 -1080q36 -86 110 -98q47 -7 56 -15.5t9 -25.5zM448 566h510
l-260 714z" />
    <glyph glyph-name="aogonek" unicode="&#x105;" horiz-adv-x="1136" 
d="M801 -418q-134 -62 -229.5 -62t-163.5 42t-68 122.5t118 202.5q51 52 119 104h136q-65 -42 -111 -96q-90 -102 -90 -164q0 -40 31.5 -55t81 -15t142.5 33zM155.5 663.5q-46.5 29.5 -46.5 77t27 89.5t70 68.5t100 44.5q104 33 224 33q202 0 293.5 -89.5t91.5 -295.5
l-1 -295q0 -107 27 -134q7 -7 44 -18q102 -32 102 -49q0 -105 -215 -105q-81 0 -105.5 36t-26.5 131q-45 -81 -137 -131t-197 -50t-178 27t-118.5 87.5t-45.5 130.5t16 112.5t40 71.5t65.5 52t77.5 36.5t93 24.5q84 16 141 22.5t59 7.5q6 1 68.5 7.5t98.5 26.5
q0 190 -51 248q-45 50 -148 50t-154.5 -52.5t-51.5 -166.5l1 -22q-42 -5 -79.5 -5t-84 29.5zM723 492q-68 -25 -153.5 -34.5t-134.5 -22.5t-82 -32q-76 -44 -76 -151q0 -172 200 -172q173 0 219 165q27 94 27 247z" />
    <glyph glyph-name="Cacute" unicode="&#x106;" horiz-adv-x="1507" 
d="M950.5 2105.5q34.5 30.5 82 30.5t84.5 -28t37 -79t-128 -217q-191 -247 -244 -274l-14 14v5q0 46 63.5 251.5t74 236t45 61zM266 735q0 -134 49 -247.5t135 -191.5q182 -165 467 -165t502 217q24 24 42.5 24t35 -14t16.5 -34t-11 -45h1q-75 -132 -250.5 -219.5
t-359.5 -87.5t-335 47t-267.5 134t-185.5 222.5t-69 305t65 310t179 232.5q234 190 597 190q193 0 365 -60q88 -31 143.5 -88.5t55.5 -131.5t-46 -110t-108 -36t-91 10q-11 156 -90 232t-238 76q-271 0 -436.5 -157.5t-165.5 -412.5z" />
    <glyph glyph-name="cacute" unicode="&#x107;" horiz-adv-x="1026" 
d="M674.5 1666.5q34.5 30.5 82 30.5t84.5 -28t37 -79t-128 -217q-191 -247 -244 -274l-14 14v5q0 46 63.5 251.5t74 236t45 61zM922 195q45 0 45 -42q0 -23 -14 -38q-133 -142 -382 -142t-394.5 135t-145.5 357q0 145 70.5 262.5t192 183.5t269.5 66q207 0 319 -107
q59 -57 59 -133q0 -45 -37.5 -76t-89.5 -31t-75 9q-7 113 -46.5 173.5t-132.5 60.5q-152 0 -238.5 -97t-86.5 -261t110.5 -285t278.5 -121q99 0 243 70q31 16 55 16z" />
    <glyph glyph-name="Ccircumflex" unicode="&#x108;" horiz-adv-x="1507" 
d="M403 1550q16 38 94.5 142.5t165 198t114.5 93.5t193 -202t175 -232l-21 -12q-42 3 -255 148l-36 24v-1l-56 40l-34 -23q-22 -13 -90 -63q-159 -118 -221 -125zM266 735q0 -134 49 -247.5t135 -191.5q182 -165 467 -165t502 217q24 24 42.5 24t35 -14t16.5 -34t-11 -45h1
q-75 -132 -250.5 -219.5t-359.5 -87.5t-335 47t-267.5 134t-185.5 222.5t-69 305t65 310t179 232.5q234 190 597 190q193 0 365 -60q88 -31 143.5 -88.5t55.5 -131.5t-46 -110t-108 -36t-91 10q-11 156 -90 232t-238 76q-271 0 -436.5 -157.5t-165.5 -412.5z" />
    <glyph glyph-name="ccircumflex" unicode="&#x109;" horiz-adv-x="1026" 
d="M128 1111q16 38 94.5 142.5t165 198t114.5 93.5t193 -202t175 -232l-21 -12q-42 3 -255 148l-36 24v-1l-56 40l-34 -23q-22 -13 -90 -63q-159 -118 -221 -125zM922 195q45 0 45 -42q0 -23 -14 -38q-133 -142 -382 -142t-394.5 135t-145.5 357q0 145 70.5 262.5t192 183.5
t269.5 66q207 0 319 -107q59 -57 59 -133q0 -45 -37.5 -76t-89.5 -31t-75 9q-7 113 -46.5 173.5t-132.5 60.5q-152 0 -238.5 -97t-86.5 -261t110.5 -285t278.5 -121q99 0 243 70q31 16 55 16z" />
    <glyph glyph-name="Cdotaccent" unicode="&#x10a;" horiz-adv-x="1507" 
d="M676.5 1570q-42.5 32 -42.5 82t46.5 84.5t93 34.5t94 -31t47.5 -74q0 -89 -91 -119q-25 -9 -65 -9t-82.5 32zM266 735q0 -134 49 -247.5t135 -191.5q182 -165 467 -165t502 217q24 24 42.5 24t35 -14t16.5 -34t-11 -45h1q-75 -132 -250.5 -219.5t-359.5 -87.5t-335 47
t-267.5 134t-185.5 222.5t-69 305t65 310t179 232.5q234 190 597 190q193 0 365 -60q88 -31 143.5 -88.5t55.5 -131.5t-46 -110t-108 -36t-91 10q-11 156 -90 232t-238 76q-271 0 -436.5 -157.5t-165.5 -412.5z" />
    <glyph glyph-name="cdotaccent" unicode="&#x10b;" horiz-adv-x="1026" 
d="M401.5 1131q-42.5 32 -42.5 82t46.5 84.5t93 34.5t94 -31t47.5 -74q0 -89 -91 -119q-25 -9 -65 -9t-82.5 32zM922 195q45 0 45 -42q0 -23 -14 -38q-133 -142 -382 -142t-394.5 135t-145.5 357q0 145 70.5 262.5t192 183.5t269.5 66q207 0 319 -107q59 -57 59 -133
q0 -45 -37.5 -76t-89.5 -31t-75 9q-7 113 -46.5 173.5t-132.5 60.5q-152 0 -238.5 -97t-86.5 -261t110.5 -285t278.5 -121q99 0 243 70q31 16 55 16z" />
    <glyph glyph-name="Ccaron" unicode="&#x10c;" horiz-adv-x="1507" 
d="M1145 1971q-26 -66 -141 -201t-166 -183.5t-62 -48.5t-70.5 54t-162 175.5t-140.5 203.5l28 13q34 -3 246 -144l100 -66l50 36l42 26q147 103 190 125t65 23zM266 735q0 -134 49 -247.5t135 -191.5q182 -165 467 -165t502 217q24 24 42.5 24t35 -14t16.5 -34t-11 -45h1
q-75 -132 -250.5 -219.5t-359.5 -87.5t-335 47t-267.5 134t-185.5 222.5t-69 305t65 310t179 232.5q234 190 597 190q193 0 365 -60q88 -31 143.5 -88.5t55.5 -131.5t-46 -110t-108 -36t-91 10q-11 156 -90 232t-238 76q-271 0 -436.5 -157.5t-165.5 -412.5z" />
    <glyph glyph-name="ccaron" unicode="&#x10d;" horiz-adv-x="1026" 
d="M870 1532q-26 -66 -141 -201t-166 -183.5t-62 -48.5t-70.5 54t-162 175.5t-140.5 203.5l28 13q34 -3 246 -144l100 -66l50 36l42 26q147 103 190 125t65 23zM922 195q45 0 45 -42q0 -23 -14 -38q-133 -142 -382 -142t-394.5 135t-145.5 357q0 145 70.5 262.5t192 183.5
t269.5 66q207 0 319 -107q59 -57 59 -133q0 -45 -37.5 -76t-89.5 -31t-75 9q-7 113 -46.5 173.5t-132.5 60.5q-152 0 -238.5 -97t-86.5 -261t110.5 -285t278.5 -121q99 0 243 70q31 16 55 16z" />
    <glyph glyph-name="Dcaron" unicode="&#x10e;" horiz-adv-x="1734" 
d="M1236 1971q-26 -66 -141 -201t-166 -183.5t-62 -48.5t-70.5 54t-162 175.5t-140.5 203.5l28 13q34 -3 246 -144l100 -66l50 36l42 26q147 103 190 125t65 23zM1373.5 384q84.5 130 84.5 288t-41.5 260t-114 167.5t-181.5 106.5q-198 76 -516 76q-143 0 -143 -23v-1117
q158 -17 343.5 -17t334.5 64.5t233.5 194.5zM1624.5 998.5q56.5 -111.5 56.5 -252t-43.5 -262t-121 -210t-184.5 -150.5q-213 -125 -505 -125q-103 2 -359 2t-294 8q-77 20 -80 82q0 35 68 44q32 4 43 9q39 16 39 72v974q0 76 -75 82q-63 5 -69 19t-6 37t15 41.5t54 25.5
q50 9 188 9h309q529 0 812 -220q96 -74 152.5 -185.5z" />
    <glyph glyph-name="dcaron" unicode="&#x10f;" horiz-adv-x="1602" 
d="M1469 1284q-117 5 -117 91q0 51 44 79t102 28q127 0 139 -126q0 -89 -57 -154t-140 -65q-39 0 -39 23q0 16 15 28q51 41 53 96zM695.5 838.5q-78.5 32.5 -175.5 32.5t-165 -56q-132 -109 -132 -322q0 -165 89.5 -279.5t233 -114.5t207 59.5t63.5 197.5v395
q-42 55 -120.5 87.5zM540 979q66 0 147.5 -21.5t128.5 -45.5v335q0 91 -72 98q-7 1 -18 2t-16 1.5t-12.5 2t-11 3.5t-6.5 5q-7 6 -7 29t31 48q56 46 151 46q101 0 118 -12q34 -24 34 -63v-1094q0 -111 24 -144q25 -32 44.5 -39t34 -12t20.5 -7.5t15 -8.5q16 -9 16 -28
q0 -42 -44.5 -61.5t-118 -19.5t-106.5 28t-58 103q-82 -145 -342 -145q-208 0 -338.5 138t-130.5 358t145 362t372 142z" />
    <glyph glyph-name="Emacron" unicode="&#x112;" horiz-adv-x="1437" 
d="M442.5 1554q-22.5 16 -22.5 44.5t25 47t60 18.5h474q34 0 57 -16t23 -44.5t-25 -47t-61 -18.5h-474q-34 0 -56.5 16zM1305 356q78 0 78 -100t-84 -180t-186 -80l-761 4q-138 0 -176 7q-79 21 -82 83q0 35 68 44q32 5 43 10q39 16 39 71v975q0 72 -75 82q-14 2 -26 3.5
t-20 3t-11 3.5t-7.5 5.5t-6.5 8.5q-4 13 -4 34t15.5 39.5t54.5 25.5q50 9 188 9h833q76 0 122.5 -60t46.5 -146q0 -148 -103 -148q-64 0 -88.5 40.5t-24.5 106t1 89.5h-676v-499h429q7 7 24 41q46 93 67 93q113 0 113 -192q0 -82 -23.5 -141.5t-74.5 -59.5q-27 0 -44.5 20
t-36 65t-26.5 59h-428v-541h639q18 18 53 79t72 103.5t78 42.5z" />
    <glyph glyph-name="emacron" unicode="&#x113;" horiz-adv-x="995" 
d="M186.5 1114q-22.5 16 -22.5 44.5t25 47t60 18.5h474q34 0 57 -16t23 -44.5t-25 -47t-61 -18.5h-474q-34 0 -56.5 16zM32 470q0 225 139.5 365.5t355.5 140.5q171 0 288.5 -110.5t117.5 -277.5q0 -81 -128 -81h-579q2 -162 105 -273t260 -111q104 0 202 61q52 32 66.5 32
t33 -14.5t18.5 -35.5q0 -55 -70.5 -101.5t-155.5 -69t-149 -22.5q-227 0 -365.5 136t-138.5 361zM749 612q-2 115 -60 187t-169.5 72t-195 -80t-88.5 -183h234q156 0 279 4z" />
    <glyph glyph-name="Ebreve" unicode="&#x114;" horiz-adv-x="1437" 
d="M1148 1895q-4 -171 -115.5 -264t-296 -93t-293.5 94t-113 263h133q8 -84 87 -131t189 -47q162 0 241 91q31 35 35 87h133zM1305 356q78 0 78 -100t-84 -180t-186 -80l-761 4q-138 0 -176 7q-79 21 -82 83q0 35 68 44q32 5 43 10q39 16 39 71v975q0 72 -75 82
q-14 2 -26 3.5t-20 3t-11 3.5t-7.5 5.5t-6.5 8.5q-4 13 -4 34t15.5 39.5t54.5 25.5q50 9 188 9h833q76 0 122.5 -60t46.5 -146q0 -148 -103 -148q-64 0 -88.5 40.5t-24.5 106t1 89.5h-676v-499h429q7 7 24 41q46 93 67 93q113 0 113 -192q0 -82 -23.5 -141.5t-74.5 -59.5
q-27 0 -44.5 20t-36 65t-26.5 59h-428v-541h639q18 18 53 79t72 103.5t78 42.5z" />
    <glyph glyph-name="ebreve" unicode="&#x115;" horiz-adv-x="995" 
d="M892 1455q-4 -171 -115.5 -264t-296 -93t-293.5 94t-113 263h133q8 -84 87 -131t189 -47q162 0 241 91q31 35 35 87h133zM32 470q0 225 139.5 365.5t355.5 140.5q171 0 288.5 -110.5t117.5 -277.5q0 -81 -128 -81h-579q2 -162 105 -273t260 -111q104 0 202 61
q52 32 66.5 32t33 -14.5t18.5 -35.5q0 -55 -70.5 -101.5t-155.5 -69t-149 -22.5q-227 0 -365.5 136t-138.5 361zM749 612q-2 115 -60 187t-169.5 72t-195 -80t-88.5 -183h234q156 0 279 4z" />
    <glyph glyph-name="Edotaccent" unicode="&#x116;" horiz-adv-x="1437" 
d="M640.5 1570q-42.5 32 -42.5 82t46.5 84.5t93 34.5t94 -31t47.5 -74q0 -89 -91 -119q-25 -9 -65 -9t-82.5 32zM1305 356q78 0 78 -100t-84 -180t-186 -80l-761 4q-138 0 -176 7q-79 21 -82 83q0 35 68 44q32 5 43 10q39 16 39 71v975q0 72 -75 82q-14 2 -26 3.5t-20 3
t-11 3.5t-7.5 5.5t-6.5 8.5q-4 13 -4 34t15.5 39.5t54.5 25.5q50 9 188 9h833q76 0 122.5 -60t46.5 -146q0 -148 -103 -148q-64 0 -88.5 40.5t-24.5 106t1 89.5h-676v-499h429q7 7 24 41q46 93 67 93q113 0 113 -192q0 -82 -23.5 -141.5t-74.5 -59.5q-27 0 -44.5 20t-36 65
t-26.5 59h-428v-541h639q18 18 53 79t72 103.5t78 42.5z" />
    <glyph glyph-name="edotaccent" unicode="&#x117;" horiz-adv-x="995" 
d="M384.5 1130q-42.5 32 -42.5 82t46.5 84.5t93 34.5t94 -31t47.5 -74q0 -89 -91 -119q-25 -9 -65 -9t-82.5 32zM32 470q0 225 139.5 365.5t355.5 140.5q171 0 288.5 -110.5t117.5 -277.5q0 -81 -128 -81h-579q2 -162 105 -273t260 -111q104 0 202 61q52 32 66.5 32
t33 -14.5t18.5 -35.5q0 -55 -70.5 -101.5t-155.5 -69t-149 -22.5q-227 0 -365.5 136t-138.5 361zM749 612q-2 115 -60 187t-169.5 72t-195 -80t-88.5 -183h234q156 0 279 4z" />
    <glyph glyph-name="Eogonek" unicode="&#x118;" horiz-adv-x="1414" 
d="M951 -397q-134 -62 -229.5 -62t-163.5 42t-68 122.5t118 202.5q51 52 119 104h136q-65 -42 -111 -96q-90 -102 -90 -164q0 -40 31.5 -55t81 -15t142.5 33zM1304 356q78 0 78 -100t-84 -180t-186 -80l-761 4q-138 0 -176 7q-79 21 -82 83q0 35 68 44q32 5 43 10
q39 16 39 71v975q0 72 -75 82q-14 2 -26 3.5t-20 3t-11 3.5t-7.5 5.5t-6.5 8.5q-4 13 -4 34t15.5 39.5t54.5 25.5q50 9 188 9h833q76 0 122.5 -60t46.5 -146q0 -148 -103 -148q-64 0 -88.5 40.5t-24.5 106t1 89.5h-676v-499h429q7 7 24 41q46 93 67 93q113 0 113 -192
q0 -82 -23.5 -141.5t-74.5 -59.5q-27 0 -44.5 20t-36 65t-26.5 59h-428v-541h639q18 18 53 79t72 103.5t78 42.5z" />
    <glyph glyph-name="eogonek" unicode="&#x119;" horiz-adv-x="995" 
d="M643 -420q-134 -62 -229.5 -62t-163.5 42t-68 122.5t118 202.5q51 52 119 104h136q-65 -42 -111 -96q-90 -102 -90 -164q0 -40 31.5 -55t81 -15t142.5 33zM32 470q0 225 139.5 365.5t355.5 140.5q171 0 288.5 -110.5t117.5 -277.5q0 -81 -128 -81h-579q2 -162 105 -273
t260 -111q104 0 202 61q52 32 66.5 32t33 -14.5t18.5 -35.5q0 -55 -70.5 -101.5t-155.5 -69t-149 -22.5q-227 0 -365.5 136t-138.5 361zM749 612q-2 115 -60 187t-169.5 72t-195 -80t-88.5 -183h234q156 0 279 4z" />
    <glyph glyph-name="Ecaron" unicode="&#x11a;" horiz-adv-x="1437" 
d="M1109 1971q-26 -66 -141 -201t-166 -183.5t-62 -48.5t-70.5 54t-162 175.5t-140.5 203.5l28 13q34 -3 246 -144l100 -66l50 36l42 26q147 103 190 125t65 23zM1305 356q78 0 78 -100t-84 -180t-186 -80l-761 4q-138 0 -176 7q-79 21 -82 83q0 35 68 44q32 5 43 10
q39 16 39 71v975q0 72 -75 82q-14 2 -26 3.5t-20 3t-11 3.5t-7.5 5.5t-6.5 8.5q-4 13 -4 34t15.5 39.5t54.5 25.5q50 9 188 9h833q76 0 122.5 -60t46.5 -146q0 -148 -103 -148q-64 0 -88.5 40.5t-24.5 106t1 89.5h-676v-499h429q7 7 24 41q46 93 67 93q113 0 113 -192
q0 -82 -23.5 -141.5t-74.5 -59.5q-27 0 -44.5 20t-36 65t-26.5 59h-428v-541h639q18 18 53 79t72 103.5t78 42.5z" />
    <glyph glyph-name="ecaron" unicode="&#x11b;" horiz-adv-x="995" 
d="M853 1531q-26 -66 -141 -201t-166 -183.5t-62 -48.5t-70.5 54t-162 175.5t-140.5 203.5l28 13q34 -3 246 -144l100 -66l50 36l42 26q147 103 190 125t65 23zM32 470q0 225 139.5 365.5t355.5 140.5q171 0 288.5 -110.5t117.5 -277.5q0 -81 -128 -81h-579q2 -162 105 -273
t260 -111q104 0 202 61q52 32 66.5 32t33 -14.5t18.5 -35.5q0 -55 -70.5 -101.5t-155.5 -69t-149 -22.5q-227 0 -365.5 136t-138.5 361zM749 612q-2 115 -60 187t-169.5 72t-195 -80t-88.5 -183h234q156 0 279 4z" />
    <glyph glyph-name="Gcircumflex" unicode="&#x11c;" horiz-adv-x="1561" 
d="M440 1550q16 38 94.5 142.5t165 198t114.5 93.5t193 -202t175 -232l-21 -12q-42 3 -255 148l-36 24v-1l-56 40l-34 -23q-22 -13 -90 -63q-159 -118 -221 -125zM39 683q0 216 108 384t291.5 257t408.5 89q193 0 365 -60q88 -31 143.5 -88.5t55.5 -131.5t-46 -110
t-108.5 -36t-89.5 10q-11 155 -90 231.5t-235 76.5q-263 0 -418.5 -158t-155.5 -412q0 -171 74 -311.5t207.5 -222.5t300.5 -82q112 0 200 26q166 49 168 123q1 27 1 66v119q0 16 -6 52t-7.5 52t-27 31t-54.5 21q-78 16 -78 40t10.5 40.5t33 26.5t44.5 16.5t59 9.5
q52 3 154.5 3t141.5 -7q94 -18 94 -87q0 -15 -14 -21t-21.5 -8.5t-19.5 -5.5q-83 -20 -99.5 -56t-15.5 -127l3 -279q-36 -11 -107 -49.5t-99 -50.5q-192 -81 -402.5 -81t-386.5 84.5t-279 247t-103 378.5z" />
    <glyph glyph-name="gcircumflex" unicode="&#x11d;" horiz-adv-x="1141" 
d="M222 1148q16 38 94.5 142.5t165 198t114.5 93.5t193 -202t175 -232l-21 -12q-42 3 -255 148l-36 24v-1l-56 40l-34 -23q-22 -13 -90 -63q-159 -118 -221 -125zM982 622q0 -91 -69 -160q-135 -135 -385 -135q-49 0 -104 9.5t-69 11.5v1q-76 -64 -76 -112q0 -44 43 -59
q61 -22 170 -24t170 -3.5t132 -6.5t125 -19.5t101 -38.5q96 -50 96 -170q0 -90 -47 -159t-126 -109q-157 -81 -374 -81q-188 0 -331 52q-77 28 -122 82.5t-45 130.5q0 142 143 219q-38 37 -51.5 70t-13.5 77t8 68t25 44q22 26 82 71q-94 47 -143.5 105.5t-49.5 148
t41.5 155.5t109.5 105q138 79 308 79q48 0 179.5 -24.5t147.5 -24.5q89 0 104 89q128 0 128 -102q0 -49 -29.5 -77.5t-68 -28.5t-82.5 4q29 -25 51 -78t22 -110zM350.5 825q-75.5 -63 -75.5 -166t77.5 -169t189.5 -66t181.5 61.5t69.5 160.5t-75.5 170.5t-183.5 71.5
t-183.5 -63zM551 -316q154 0 234 32.5t111 75t31 101.5q0 123 -478 123q-135 0 -135 3q-76 -77 -76 -147q0 -188 313 -188z" />
    <glyph glyph-name="Gbreve" unicode="&#x11e;" horiz-adv-x="1561" 
d="M1220 1895q-4 -171 -115.5 -264t-296 -93t-293.5 94t-113 263h133q8 -84 87 -131t189 -47q162 0 241 91q31 35 35 87h133zM39 683q0 216 108 384t291.5 257t408.5 89q193 0 365 -60q88 -31 143.5 -88.5t55.5 -131.5t-46 -110t-108.5 -36t-89.5 10q-11 155 -90 231.5
t-235 76.5q-263 0 -418.5 -158t-155.5 -412q0 -171 74 -311.5t207.5 -222.5t300.5 -82q112 0 200 26q166 49 168 123q1 27 1 66v119q0 16 -6 52t-7.5 52t-27 31t-54.5 21q-78 16 -78 40t10.5 40.5t33 26.5t44.5 16.5t59 9.5q52 3 154.5 3t141.5 -7q94 -18 94 -87
q0 -15 -14 -21t-21.5 -8.5t-19.5 -5.5q-83 -20 -99.5 -56t-15.5 -127l3 -279q-36 -11 -107 -49.5t-99 -50.5q-192 -81 -402.5 -81t-386.5 84.5t-279 247t-103 378.5z" />
    <glyph glyph-name="gbreve" unicode="&#x11f;" horiz-adv-x="1141" 
d="M1002 1493q-4 -171 -115.5 -264t-296 -93t-293.5 94t-113 263h133q8 -84 87 -131t189 -47q162 0 241 91q31 35 35 87h133zM982 622q0 -91 -69 -160q-135 -135 -385 -135q-49 0 -104 9.5t-69 11.5v1q-76 -64 -76 -112q0 -44 43 -59q61 -22 170 -24t170 -3.5t132 -6.5
t125 -19.5t101 -38.5q96 -50 96 -170q0 -90 -47 -159t-126 -109q-157 -81 -374 -81q-188 0 -331 52q-77 28 -122 82.5t-45 130.5q0 142 143 219q-38 37 -51.5 70t-13.5 77t8 68t25 44q22 26 82 71q-94 47 -143.5 105.5t-49.5 148t41.5 155.5t109.5 105q138 79 308 79
q48 0 179.5 -24.5t147.5 -24.5q89 0 104 89q128 0 128 -102q0 -49 -29.5 -77.5t-68 -28.5t-82.5 4q29 -25 51 -78t22 -110zM350.5 825q-75.5 -63 -75.5 -166t77.5 -169t189.5 -66t181.5 61.5t69.5 160.5t-75.5 170.5t-183.5 71.5t-183.5 -63zM551 -316q154 0 234 32.5
t111 75t31 101.5q0 123 -478 123q-135 0 -135 3q-76 -77 -76 -147q0 -188 313 -188z" />
    <glyph glyph-name="Gdotaccent" unicode="&#x120;" horiz-adv-x="1561" 
d="M713.5 1570q-42.5 32 -42.5 82t46.5 84.5t93 34.5t94 -31t47.5 -74q0 -89 -91 -119q-25 -9 -65 -9t-82.5 32zM39 683q0 216 108 384t291.5 257t408.5 89q193 0 365 -60q88 -31 143.5 -88.5t55.5 -131.5t-46 -110t-108.5 -36t-89.5 10q-11 155 -90 231.5t-235 76.5
q-263 0 -418.5 -158t-155.5 -412q0 -171 74 -311.5t207.5 -222.5t300.5 -82q112 0 200 26q166 49 168 123q1 27 1 66v119q0 16 -6 52t-7.5 52t-27 31t-54.5 21q-78 16 -78 40t10.5 40.5t33 26.5t44.5 16.5t59 9.5q52 3 154.5 3t141.5 -7q94 -18 94 -87q0 -15 -14 -21
t-21.5 -8.5t-19.5 -5.5q-83 -20 -99.5 -56t-15.5 -127l3 -279q-36 -11 -107 -49.5t-99 -50.5q-192 -81 -402.5 -81t-386.5 84.5t-279 247t-103 378.5z" />
    <glyph glyph-name="gdotaccent" unicode="&#x121;" horiz-adv-x="1141" 
d="M495.5 1168q-42.5 32 -42.5 82t46.5 84.5t93 34.5t94 -31t47.5 -74q0 -89 -91 -119q-25 -9 -65 -9t-82.5 32zM982 622q0 -91 -69 -160q-135 -135 -385 -135q-49 0 -104 9.5t-69 11.5v1q-76 -64 -76 -112q0 -44 43 -59q61 -22 170 -24t170 -3.5t132 -6.5t125 -19.5
t101 -38.5q96 -50 96 -170q0 -90 -47 -159t-126 -109q-157 -81 -374 -81q-188 0 -331 52q-77 28 -122 82.5t-45 130.5q0 142 143 219q-38 37 -51.5 70t-13.5 77t8 68t25 44q22 26 82 71q-94 47 -143.5 105.5t-49.5 148t41.5 155.5t109.5 105q138 79 308 79q48 0 179.5 -24.5
t147.5 -24.5q89 0 104 89q128 0 128 -102q0 -49 -29.5 -77.5t-68 -28.5t-82.5 4q29 -25 51 -78t22 -110zM350.5 825q-75.5 -63 -75.5 -166t77.5 -169t189.5 -66t181.5 61.5t69.5 160.5t-75.5 170.5t-183.5 71.5t-183.5 -63zM551 -316q154 0 234 32.5t111 75t31 101.5
q0 123 -478 123q-135 0 -135 3q-76 -77 -76 -147q0 -188 313 -188z" />
    <glyph glyph-name="Gcommaaccent" unicode="&#x122;" horiz-adv-x="1561" 
d="M787 -347q-117 5 -117 91q0 51 44 79t102 28q127 0 139 -126q0 -89 -57 -154t-140 -65q-39 0 -39 23q0 16 15 28q51 41 53 96zM39 683q0 216 108 384t291.5 257t408.5 89q193 0 365 -60q88 -31 143.5 -88.5t55.5 -131.5t-46 -110t-108.5 -36t-89.5 10q-11 155 -90 231.5
t-235 76.5q-263 0 -418.5 -158t-155.5 -412q0 -171 74 -311.5t207.5 -222.5t300.5 -82q112 0 200 26q166 49 168 123q1 27 1 66v119q0 16 -6 52t-7.5 52t-27 31t-54.5 21q-78 16 -78 40t10.5 40.5t33 26.5t44.5 16.5t59 9.5q52 3 154.5 3t141.5 -7q94 -18 94 -87
q0 -15 -14 -21t-21.5 -8.5t-19.5 -5.5q-83 -20 -99.5 -56t-15.5 -127l3 -279q-36 -11 -107 -49.5t-99 -50.5q-192 -81 -402.5 -81t-386.5 84.5t-279 247t-103 378.5z" />
    <glyph glyph-name="Hcircumflex" unicode="&#x124;" horiz-adv-x="1784" 
d="M486 1550q16 38 94.5 142.5t165 198t114.5 93.5t193 -202t175 -232l-21 -12q-42 3 -255 148l-36 24v-1l-56 40l-34 -23q-22 -13 -90 -63q-159 -118 -221 -125zM1470 0l-106 -1q-145 0 -179 43q-15 19 -15 44t18.5 34.5t49 13.5t42.5 10q39 18 39 71v447h-857v-447
q0 -44 23.5 -62.5t57.5 -22t43 -6.5q27 -6 27 -38t-15 -50.5t-55 -25.5q-51 -10 -191 -10t-178 8q-77 20 -80 82q0 35 68 44q32 5 43 10q39 16 39 71v975q0 76 -75 82q-63 5 -69 19t-6 37t15 41.5t54 25.5q50 9 189.5 9t178.5 -8q80 -19 82 -82q0 -36 -70 -44q-31 -3 -42 -8
q-39 -16 -39 -72v-413h857v413q0 74 -75 81q-51 5 -62.5 17t-11.5 32.5t9 35.5t29 23.5t38.5 14t53.5 7.5q51 3 86 3h38q144 0 185 -15q79 -28 79 -75q0 -22 -19 -30.5t-50 -12t-42 -8.5q-39 -18 -39 -73v-975q0 -44 23.5 -62.5t57 -22t43.5 -6.5q26 -6 26 -32.5t-7.5 -42
t-26.5 -25t-34 -14.5t-48 -7q-50 -3 -102 -3z" />
    <glyph glyph-name="hcircumflex" unicode="&#x125;" horiz-adv-x="1296" 
d="M251 1616q16 38 94.5 142.5t165 198t114.5 93.5t193 -202t175 -232l-21 -12q-42 3 -255 148l-36 24v-1l-56 40l-34 -23q-22 -13 -90 -63q-159 -118 -221 -125zM1058 0l-86 -1q-131 0 -162 40q-14 18 -14 43.5t20 35.5t44.5 11t44.5 15.5t20 46.5l1 291q0 184 -44 271
q-48 98 -200 98q-160 0 -224 -101q-58 -94 -58 -273v-286q0 -58 64.5 -61.5t64.5 -51.5q0 -55 -61 -68q-44 -10 -125 -10l-86 -1q-131 0 -162 40q-14 18 -14 43.5t20 35.5t44.5 11t44.5 15.5t20 46.5v1089q0 58 -72 70q-50 8 -60.5 17.5t-10.5 31.5t21 40t55 27
q60 16 134 16q124 0 124 -75v-581q136 154 344 154t289.5 -106.5t81.5 -322.5l-1 -360q0 -58 64.5 -61.5t64.5 -51.5q0 -55 -60 -68q-46 -10 -126 -10z" />
    <glyph glyph-name="hbar" unicode="&#x127;" horiz-adv-x="1296" 
d="M1058 0l-86 -1q-131 0 -162 40q-14 18 -14 43.5t20 35.5t44.5 11t44.5 15.5t20 46.5l1 291q0 184 -44 271q-48 98 -200 98q-160 0 -224 -101q-58 -94 -58 -273v-286q0 -58 64.5 -61.5t64.5 -51.5q0 -55 -61 -68q-44 -10 -125 -10l-86 -1q-131 0 -162 40q-14 18 -14 43.5
t20 35.5t44.5 11t44.5 15.5t20 46.5v1089q0 58 -72 70q-50 8 -60.5 17.5t-10.5 31.5t21 40t55 27q60 16 134 16q124 0 124 -75v-581q136 154 344 154t289.5 -106.5t81.5 -322.5l-1 -360q0 -58 64.5 -61.5t64.5 -51.5q0 -55 -60 -68q-46 -10 -126 -10zM34.5 1089
q-22.5 16 -22.5 44.5t25 47t60 18.5h474q34 0 57 -16t23 -44.5t-25 -47t-61 -18.5h-474q-34 0 -56.5 16z" />
    <glyph glyph-name="Itilde" unicode="&#x128;" horiz-adv-x="708" 
d="M25 1711q62 47 139.5 47t222.5 -45t181.5 -45t80.5 23t49 24l20 -7q-39 -75 -107.5 -122.5t-150.5 -47.5t-197 44.5t-166.5 44.5t-94 -22t-55.5 -24l-19 7q35 76 97 123zM313 0q-219 0 -219 90q0 35 68 44q32 5 43 10q39 16 39 71v975q0 72 -75 82q-14 2 -26 3.5t-20 3
t-11 3.5t-7.5 5.5t-6.5 8.5q-4 13 -4 26.5t4.5 25.5t16 21t22 15t32 9.5t36 6t44.5 3.5t47 1h64t52.5 -0.5t49.5 -2.5t48 -5t40.5 -10t33.5 -16q29 -21 29 -49.5t-19.5 -37t-50.5 -12t-42 -8.5q-39 -18 -39 -73v-975q0 -44 23.5 -62.5t57 -22t43.5 -6.5q27 -6 27 -32.5
t-9 -41.5t-30 -24.5t-40 -15t-55 -7.5q-54 -3 -166 -3z" />
    <glyph glyph-name="itilde" unicode="&#x129;" horiz-adv-x="595" 
d="M-38 1269q62 47 139.5 47t222.5 -45t181.5 -45t80.5 23t49 24l20 -7q-39 -75 -107.5 -122.5t-150.5 -47.5t-197 44.5t-166.5 44.5t-94 -22t-55.5 -24l-19 7q35 76 97 123zM336 0l-86 -1q-131 0 -162 40q-14 18 -14 42.5t14.5 33t42.5 12t39 7.5q33 12 33 57v538
q0 91 -71 98q-7 1 -18 2t-16 1.5t-12.5 2t-11 3.5t-7.5 5q-7 5 -7 28.5t30 48.5q57 46 152 46q88 0 103.5 -7t26.5 -15q21 -14 21 -53v-698q0 -60 65 -65q37 -2 50.5 -11t13.5 -37q0 -50 -61 -67q-42 -11 -125 -11z" />
    <glyph glyph-name="Imacron" unicode="&#x12a;" horiz-adv-x="708" 
d="M57.5 1554q-22.5 16 -22.5 44.5t25 47t60 18.5h474q34 0 57 -16t23 -44.5t-25 -47t-61 -18.5h-474q-34 0 -56.5 16zM313 0q-219 0 -219 90q0 35 68 44q32 5 43 10q39 16 39 71v975q0 72 -75 82q-14 2 -26 3.5t-20 3t-11 3.5t-7.5 5.5t-6.5 8.5q-4 13 -4 26.5t4.5 25.5
t16 21t22 15t32 9.5t36 6t44.5 3.5t47 1h64t52.5 -0.5t49.5 -2.5t48 -5t40.5 -10t33.5 -16q29 -21 29 -49.5t-19.5 -37t-50.5 -12t-42 -8.5q-39 -18 -39 -73v-975q0 -44 23.5 -62.5t57 -22t43.5 -6.5q27 -6 27 -32.5t-9 -41.5t-30 -24.5t-40 -15t-55 -7.5q-54 -3 -166 -3z
" />
    <glyph glyph-name="imacron" unicode="&#x12b;" horiz-adv-x="595" 
d="M-5.5 1112q-22.5 16 -22.5 44.5t25 47t60 18.5h474q34 0 57 -16t23 -44.5t-25 -47t-61 -18.5h-474q-34 0 -56.5 16zM336 0l-86 -1q-131 0 -162 40q-14 18 -14 42.5t14.5 33t42.5 12t39 7.5q33 12 33 57v538q0 91 -71 98q-7 1 -18 2t-16 1.5t-12.5 2t-11 3.5t-7.5 5
q-7 5 -7 28.5t30 48.5q57 46 152 46q88 0 103.5 -7t26.5 -15q21 -14 21 -53v-698q0 -60 65 -65q37 -2 50.5 -11t13.5 -37q0 -50 -61 -67q-42 -11 -125 -11z" />
    <glyph glyph-name="Ibreve" unicode="&#x12c;" horiz-adv-x="708" 
d="M762 1895q-4 -171 -115.5 -264t-296 -93t-293.5 94t-113 263h133q8 -84 87 -131t189 -47q162 0 241 91q31 35 35 87h133zM313 0q-219 0 -219 90q0 35 68 44q32 5 43 10q39 16 39 71v975q0 72 -75 82q-14 2 -26 3.5t-20 3t-11 3.5t-7.5 5.5t-6.5 8.5q-4 13 -4 26.5
t4.5 25.5t16 21t22 15t32 9.5t36 6t44.5 3.5t47 1h64t52.5 -0.5t49.5 -2.5t48 -5t40.5 -10t33.5 -16q29 -21 29 -49.5t-19.5 -37t-50.5 -12t-42 -8.5q-39 -18 -39 -73v-975q0 -44 23.5 -62.5t57 -22t43.5 -6.5q27 -6 27 -32.5t-9 -41.5t-30 -24.5t-40 -15t-55 -7.5
q-54 -3 -166 -3z" />
    <glyph glyph-name="ibreve" unicode="&#x12d;" horiz-adv-x="595" 
d="M700 1453q-4 -171 -115.5 -264t-296 -93t-293.5 94t-113 263h133q8 -84 87 -131t189 -47q162 0 241 91q31 35 35 87h133zM336 0l-86 -1q-131 0 -162 40q-14 18 -14 42.5t14.5 33t42.5 12t39 7.5q33 12 33 57v538q0 91 -71 98q-7 1 -18 2t-16 1.5t-12.5 2t-11 3.5t-7.5 5
q-7 5 -7 28.5t30 48.5q57 46 152 46q88 0 103.5 -7t26.5 -15q21 -14 21 -53v-698q0 -60 65 -65q37 -2 50.5 -11t13.5 -37q0 -50 -61 -67q-42 -11 -125 -11z" />
    <glyph glyph-name="Iogonek" unicode="&#x12e;" horiz-adv-x="708" 
d="M513 -396q-134 -62 -229.5 -62t-163.5 42t-68 122.5t118 202.5q51 52 119 104h136q-65 -42 -111 -96q-90 -102 -90 -164q0 -40 31.5 -55t81 -15t142.5 33zM313 0q-219 0 -219 90q0 35 68 44q32 5 43 10q39 16 39 71v975q0 72 -75 82q-14 2 -26 3.5t-20 3t-11 3.5
t-7.5 5.5t-6.5 8.5q-4 13 -4 26.5t4.5 25.5t16 21t22 15t32 9.5t36 6t44.5 3.5t47 1h64t52.5 -0.5t49.5 -2.5t48 -5t40.5 -10t33.5 -16q29 -21 29 -49.5t-19.5 -37t-50.5 -12t-42 -8.5q-39 -18 -39 -73v-975q0 -44 23.5 -62.5t57 -22t43.5 -6.5q27 -6 27 -32.5t-9 -41.5
t-30 -24.5t-40 -15t-55 -7.5q-54 -3 -166 -3z" />
    <glyph glyph-name="iogonek" unicode="&#x12f;" horiz-adv-x="670" 
d="M505 -394q-134 -62 -229.5 -62t-163.5 42t-68 122.5t118 202.5q51 52 119 104h136q-65 -42 -111 -96q-90 -102 -90 -164q0 -40 31.5 -55t81 -15t142.5 33zM181 1255q0 44 42.5 82.5t93 38.5t98 -31t47.5 -82t-40 -85.5t-98 -34.5t-100.5 32t-42.5 80zM390 0l-86 -1
q-131 0 -162 40q-14 18 -14 43.5t20 35.5t44.5 11t44.5 15.5t20 46.5v538q0 91 -71 98q-7 1 -18 2t-16 1.5t-12.5 2t-11 3.5t-7.5 5q-7 5 -7 28.5t30 48.5q57 46 152 46q88 0 103.5 -7t26.5 -15q21 -14 21 -53v-698q0 -58 64.5 -61.5t64.5 -51.5q0 -55 -60 -68
q-46 -10 -126 -10z" />
    <glyph glyph-name="Idotaccent" unicode="&#x130;" horiz-adv-x="708" 
d="M255.5 1570q-42.5 32 -42.5 82t46.5 84.5t93 34.5t94 -31t47.5 -74q0 -89 -91 -119q-25 -9 -65 -9t-82.5 32zM313 0q-219 0 -219 90q0 35 68 44q32 5 43 10q39 16 39 71v975q0 72 -75 82q-14 2 -26 3.5t-20 3t-11 3.5t-7.5 5.5t-6.5 8.5q-4 13 -4 26.5t4.5 25.5t16 21
t22 15t32 9.5t36 6t44.5 3.5t47 1h64t52.5 -0.5t49.5 -2.5t48 -5t40.5 -10t33.5 -16q29 -21 29 -49.5t-19.5 -37t-50.5 -12t-42 -8.5q-39 -18 -39 -73v-975q0 -44 23.5 -62.5t57 -22t43.5 -6.5q27 -6 27 -32.5t-9 -41.5t-30 -24.5t-40 -15t-55 -7.5q-54 -3 -166 -3z" />
    <glyph glyph-name="dotlessi" unicode="&#x131;" horiz-adv-x="595" 
d="M336 0l-86 -1q-131 0 -162 40q-14 18 -14 42.5t14.5 33t42.5 12t39 7.5q33 12 33 57v538q0 91 -71 98q-7 1 -18 2t-16 1.5t-12.5 2t-11 3.5t-7.5 5q-7 5 -7 28.5t30 48.5q57 46 152 46q88 0 103.5 -7t26.5 -15q21 -14 21 -53v-698q0 -60 65 -65q37 -2 50.5 -11t13.5 -37
q0 -50 -61 -67q-42 -11 -125 -11z" />
    <glyph glyph-name="IJ" unicode="&#x132;" horiz-adv-x="1564" 
d="M1025 1299.5q-4 8.5 -4 25t7.5 31.5t25 23.5t33.5 14t46 7.5q44 3 73 3h32l113 1q140 0 174 -43q15 -19 15 -44.5t-19.5 -34.5t-50.5 -12.5t-42 -8.5q-39 -16 -39 -72v-751q0 -240 -94 -350.5t-312 -110.5q-129 0 -222.5 68t-93.5 180q0 70 40 112.5t108 42.5
q130 0 130 -125q0 -34 -29 -66t-68 -46q61 -53 114 -53q111 0 160.5 63.5t49.5 185.5v850q0 74 -75 81q-56 5 -62 12.5t-10 16zM314 0q-219 0 -219 90q0 35 68 44q32 5 43 10q39 16 39 71v975q0 72 -75 82q-14 2 -26 3.5t-20 3t-11 3.5t-7.5 5.5t-6.5 8.5q-4 13 -4 26.5
t4.5 25.5t16 21t22 15t32 9.5t36 6t44.5 3.5t47 1h64t52.5 -0.5t49.5 -2.5t48 -5t40.5 -10t33.5 -16q29 -21 29 -49.5t-19.5 -37t-50.5 -12t-42 -8.5q-39 -18 -39 -73v-975q0 -44 23.5 -62.5t57 -22t43.5 -6.5q27 -6 27 -32.5t-9 -41.5t-30 -24.5t-40 -15t-55 -7.5
q-54 -3 -166 -3z" />
    <glyph glyph-name="ij" unicode="&#x133;" horiz-adv-x="1052" 
d="M940 1346q48 -28 48 -79.5t-41.5 -87t-99 -35.5t-99 34t-41.5 79t39.5 81t92.5 36t101 -28zM548 -192q0 60 93 82l78 18q94 22 94 74q0 35 -10.5 77t-12.5 54l-10 49v566q0 91 -71 98q-7 1 -18 2t-16 1.5t-12.5 2t-11 3.5t-7.5 5q-7 5 -7 28.5t30 48.5q57 46 152 46
q101 0 118 -12q34 -24 34 -63v-736q0 -211 -66.5 -306t-241.5 -115q-3 -1 -10 -1h-7q-98 0 -98 78zM179 1255q0 44 42.5 82.5t93 38.5t98 -31t47.5 -82t-40 -85.5t-98 -34.5t-100.5 32t-42.5 80zM388 0l-86 -1q-131 0 -162 40q-14 18 -14 43.5t20 35.5t44.5 11t44.5 15.5
t20 46.5v538q0 91 -71 98q-7 1 -18 2t-16 1.5t-12.5 2t-11 3.5t-7.5 5q-7 5 -7 28.5t30 48.5q57 46 152 46q88 0 103.5 -7t26.5 -15q21 -14 21 -53v-698q0 -58 64.5 -61.5t64.5 -51.5q0 -55 -60 -68q-46 -10 -126 -10z" />
    <glyph glyph-name="Jcircumflex" unicode="&#x134;" horiz-adv-x="929" 
d="M46 1550q16 38 94.5 142.5t165 198t114.5 93.5t193 -202t175 -232l-21 -12q-42 3 -255 148l-36 24v-1l-56 40l-34 -23q-22 -13 -90 -63q-159 -118 -221 -125zM372 1299.5q-4 8.5 -4 25t7.5 31.5t25 23.5t33.5 14t46 7.5q44 3 73 3h32l113 1q140 0 174 -43
q15 -19 15 -44.5t-19.5 -34.5t-50.5 -12.5t-42 -8.5q-39 -16 -39 -72v-751q0 -240 -94 -350.5t-312 -110.5q-129 0 -222.5 68t-93.5 180q0 70 40 112.5t108 42.5q130 0 130 -125q0 -34 -29 -66t-68 -46q61 -53 114 -53q111 0 160.5 63.5t49.5 185.5v850q0 74 -75 81
q-56 5 -62 12.5t-10 16z" />
    <glyph glyph-name="jcircumflex" unicode="&#x135;" horiz-adv-x="476" 
d="M-277 1108q16 38 94.5 142.5t165 198t114.5 93.5t193 -202t175 -232l-21 -12q-42 3 -255 148l-36 24v-1l-56 40l-34 -23q-22 -13 -90 -63q-159 -118 -221 -125zM106.5 952.5q40.5 10.5 77.5 10.5t53 -0.5t40 -4.5t35 -12q27 -19 27 -58v-736q0 -211 -66.5 -306
t-241.5 -115q-3 -1 -9 -1h-8q-98 0 -98 78q0 69 98 80q167 40 167 94q0 35 -10.5 77t-12.5 54l-10 49v566q0 90 -72 98q-7 1 -18 2t-16 1.5t-12.5 2t-11 3.5t-6.5 5q-7 6 -7 29t30.5 48t71 35.5z" />
    <glyph glyph-name="Kcommaaccent" unicode="&#x136;" horiz-adv-x="1565" 
d="M789 -321q-117 5 -117 91q0 51 44 79t102 28q127 0 139 -126q0 -89 -57 -154t-140 -65q-39 0 -39 23q0 16 15 28q51 41 53 96zM394 0l-104 -1q-146 0 -182 43q-15 19 -15 44t18.5 34.5t50 14t43.5 9.5q39 16 39 71v975q0 73 -76 81q-57 5 -62 13q-13 18 -13 37.5
t7.5 34.5t25 23.5t33.5 14t45 7.5q45 3 74 3h32l114 1q140 0 174 -43q15 -19 15 -44.5t-19.5 -34.5t-50.5 -12.5t-42 -8.5q-39 -16 -39 -73v-508q324 292 601 545q21 20 21 31t-13.5 16t-30.5 6q-43 3 -43 39q0 43 20.5 56.5t34 19t40.5 7.5q39 3 105.5 3t102.5 -1.5
t78.5 -7.5t58 -21.5t15.5 -35t-4 -27t-13.5 -12.5t-17.5 -7q-12 -4 -47 -13l-98 -29q-410 -349 -480 -407l524 -642q57 -61 160 -71q10 -1 13.5 -2t12 -3t11.5 -3.5t8.5 -5t7.5 -8.5q6 -13 6 -32.5t-17 -38t-49 -25.5q-53 -13 -129 -13q-196 0 -196 41q-388 515 -501 674
l-181 -149v-352q0 -75 76 -81q20 -2 27.5 -2.5t20 -3.5t16.5 -8q11 -14 11 -32t-4.5 -30.5t-15 -21t-20.5 -14.5t-28.5 -9.5t-31.5 -6t-36.5 -3.5t-36.5 -1h-46z" />
    <glyph glyph-name="kcommaaccent" unicode="&#x137;" horiz-adv-x="1382" 
d="M686 -330q-117 5 -117 91q0 51 44 79t102 28q127 0 139 -126q0 -89 -57 -154t-140 -65q-39 0 -39 23q0 16 15 28q51 41 53 96zM346 0l-86 -1q-131 0 -162 40q-14 18 -14 43.5t20 35.5t44.5 11t44.5 15.5t20 46.5v1056q0 91 -71 98q-7 1 -18 2t-16 1.5t-12.5 2t-11 3.5
t-7.5 5q-7 5 -7 28.5t30 48.5q57 46 152 46q101 0 118 -12q34 -24 34 -63v-875q37 28 172 126q266 192 266 210q0 23 -76 47q3 91 168 91h136q252 0 252 -28q0 -13 -28.5 -41.5t-58.5 -45.5q-66 0 -151.5 -45t-210.5 -138l-173 -128l314 -332q57 -59 103.5 -90.5t85.5 -41
t58.5 -14t28.5 -6.5t23 -7.5t21 -11.5q17 -16 17 -39q0 -48 -155 -48h-48q-95 0 -130.5 8.5t-75.5 46.5q-149 141 -369 456l-170 -115v-195q0 -58 64.5 -61.5t64.5 -51.5q0 -55 -60 -68q-46 -10 -126 -10z" />
    <glyph glyph-name="kgreenlandic" unicode="&#x138;" horiz-adv-x="1382" 
d="M346 0l-86 -1q-131 0 -162 40q-14 18 -14 43.5t20 35.5t44.5 11t44.5 15.5t20 46.5v1056q0 91 -71 98q-7 1 -18 2t-16 1.5t-12.5 2t-11 3.5t-7.5 5q-7 5 -7 28.5t30 48.5q57 46 152 46q101 0 118 -12q34 -24 34 -63v-875q37 28 172 126q266 192 266 210q0 23 -76 47
q3 91 168 91h136q252 0 252 -28q0 -13 -28.5 -41.5t-58.5 -45.5q-66 0 -151.5 -45t-210.5 -138l-173 -128l314 -332q57 -59 103.5 -90.5t85.5 -41t58.5 -14t28.5 -6.5t23 -7.5t21 -11.5q17 -16 17 -39q0 -48 -155 -48h-48q-95 0 -130.5 8.5t-75.5 46.5q-149 141 -369 456
l-170 -115v-195q0 -58 64.5 -61.5t64.5 -51.5q0 -55 -60 -68q-46 -10 -126 -10z" />
    <glyph glyph-name="Lacute" unicode="&#x139;" horiz-adv-x="1366" 
d="M890.5 2105.5q34.5 30.5 82 30.5t84.5 -28t37 -79t-128 -217q-191 -247 -244 -274l-14 14v5q0 46 63.5 251.5t74 236t45 61zM1275 356q70 0 70 -97t-71 -180t-165 -83l-741 4q-156 0 -197 10q-85 20 -85 74q0 21 13 28t19 9.5t38 10.5q74 22 91 65q13 56 13 115v781
q0 131 -48 156q-24 13 -104 39q-22 7 -22 32q0 54 78 72q49 12 205.5 12t197.5 -10q86 -20 86 -73q0 -23 -16 -30t-19.5 -8.5t-15.5 -4.5t-16 -4.5t-17 -5t-19 -5.5t-15 -6q-19 -8 -28 -21q-28 -34 -28 -143v-926q0 -45 93 -45q205 0 364.5 15.5t179.5 28.5q14 16 35 62
t24 51q42 77 100 77z" />
    <glyph glyph-name="lacute" unicode="&#x13a;" horiz-adv-x="604" 
d="M476.5 2171.5q34.5 30.5 82 30.5t84.5 -28t37 -79t-128 -217q-191 -247 -244 -274l-14 14v5q0 46 63.5 251.5t74 236t45 61zM346 0l-86 -1q-131 0 -162 40q-14 18 -14 43.5t20 35.5t44 11t44 15.5t20 46.5v1056q0 91 -72 98q-7 1 -18 2t-16 1.5t-12.5 2t-11 3.5t-6.5 5
q-7 6 -7 29t31 48q56 46 151 46q101 0 118 -12q34 -24 34 -63v-1216q0 -58 64.5 -61.5t64.5 -51.5q0 -55 -60 -68q-46 -10 -126 -10z" />
    <glyph glyph-name="Lcommaaccent" unicode="&#x13b;" horiz-adv-x="1366" 
d="M691 -324q-117 5 -117 91q0 51 44 79t102 28q127 0 139 -126q0 -89 -57 -154t-140 -65q-39 0 -39 23q0 16 15 28q51 41 53 96zM1275 356q70 0 70 -97t-71 -180t-165 -83l-741 4q-156 0 -197 10q-85 20 -85 74q0 21 13 28t19 9.5t38 10.5q74 22 91 65q13 56 13 115v781
q0 131 -48 156q-24 13 -104 39q-22 7 -22 32q0 54 78 72q49 12 205.5 12t197.5 -10q86 -20 86 -73q0 -23 -16 -30t-19.5 -8.5t-15.5 -4.5t-16 -4.5t-17 -5t-19 -5.5t-15 -6q-19 -8 -28 -21q-28 -34 -28 -143v-926q0 -45 93 -45q205 0 364.5 15.5t179.5 28.5q14 16 35 62
t24 51q42 77 100 77z" />
    <glyph glyph-name="lcommaaccent" unicode="&#x13c;" horiz-adv-x="604" 
d="M276 -321q-117 5 -117 91q0 51 44 79t102 28q127 0 139 -126q0 -89 -57 -154t-140 -65q-39 0 -39 23q0 16 15 28q51 41 53 96zM346 0l-86 -1q-131 0 -162 40q-14 18 -14 43.5t20 35.5t44 11t44 15.5t20 46.5v1056q0 91 -72 98q-7 1 -18 2t-16 1.5t-12.5 2t-11 3.5t-6.5 5
q-7 6 -7 29t31 48q56 46 151 46q101 0 118 -12q34 -24 34 -63v-1216q0 -58 64.5 -61.5t64.5 -51.5q0 -55 -60 -68q-46 -10 -126 -10z" />
    <glyph glyph-name="Lcaron" unicode="&#x13d;" horiz-adv-x="1765" 
d="M1632 1218q-117 5 -117 91q0 51 44 79t102 28q127 0 139 -126q0 -89 -57 -154t-140 -65q-39 0 -39 23q0 16 15 28q51 41 53 96zM1276 356q70 0 70 -97t-71 -180t-165 -83l-741 4q-156 0 -197 10q-85 20 -85 74q0 21 13 28t19 9.5t38 10.5q74 22 91 65q13 56 13 115v781
q0 131 -48 156q-24 13 -104 39q-22 7 -22 32q0 54 78 72q49 12 205.5 12t197.5 -10q86 -20 86 -73q0 -23 -16 -30t-19.5 -8.5t-15.5 -4.5t-16 -4.5t-17 -5t-19 -5.5t-15 -6q-19 -8 -28 -21q-28 -34 -28 -143v-926q0 -45 93 -45q205 0 364.5 15.5t179.5 28.5q14 16 35 62
t24 51q42 77 100 77z" />
    <glyph glyph-name="lcaron" unicode="&#x13e;" horiz-adv-x="955" 
d="M822 1284q-117 5 -117 91q0 51 44 79t102 28q127 0 139 -126q0 -89 -57 -154t-140 -65q-39 0 -39 23q0 16 15 28q51 41 53 96zM346 0l-86 -1q-131 0 -162 40q-14 18 -14 43.5t20 35.5t44 11t44 15.5t20 46.5v1056q0 91 -72 98q-7 1 -18 2t-16 1.5t-12.5 2t-11 3.5t-6.5 5
q-7 6 -7 29t31 48q56 46 151 46q101 0 118 -12q34 -24 34 -63v-1216q0 -58 64.5 -61.5t64.5 -51.5q0 -55 -60 -68q-46 -10 -126 -10z" />
    <glyph glyph-name="Ldotaccent" unicode="&#x13f;" horiz-adv-x="1366" 
d="M618 621q-43 32 -43 81.5t47 84.5t93 35t93.5 -31t47.5 -74q0 -89 -91 -119q-26 -9 -65 -9t-82 32zM1275 356q70 0 70 -97t-71 -180t-165 -83l-741 4q-156 0 -197 10q-85 20 -85 74q0 21 13 28t19 9.5t38 10.5q74 22 91 65q13 56 13 115v781q0 131 -48 156
q-24 13 -104 39q-22 7 -22 32q0 54 78 72q49 12 205.5 12t197.5 -10q86 -20 86 -73q0 -23 -16 -30t-19.5 -8.5t-15.5 -4.5t-16 -4.5t-17 -5t-19 -5.5t-15 -6q-19 -8 -28 -21q-28 -34 -28 -143v-926q0 -45 93 -45q205 0 364.5 15.5t179.5 28.5q14 16 35 62t24 51
q42 77 100 77z" />
    <glyph glyph-name="ldot" unicode="&#x140;" horiz-adv-x="964" 
d="M738 695q-43 32 -43 81.5t47 84.5t93 35t93.5 -31t47.5 -74q0 -89 -91 -119q-26 -9 -65 -9t-82 32zM346 0l-86 -1q-131 0 -162 40q-14 18 -14 43.5t20 35.5t44 11t44 15.5t20 46.5v1056q0 91 -72 98q-7 1 -18 2t-16 1.5t-12.5 2t-11 3.5t-6.5 5q-7 6 -7 29t31 48
q56 46 151 46q101 0 118 -12q34 -24 34 -63v-1216q0 -58 64.5 -61.5t64.5 -51.5q0 -55 -60 -68q-46 -10 -126 -10z" />
    <glyph glyph-name="Lslash" unicode="&#x141;" horiz-adv-x="1386" 
d="M172 504q-16 -6 -38 -6t-40 22t-18 49q0 59 61 80l471 152q20 5 39.5 5t37.5 -21t18 -55q0 -55 -61 -74zM1284 356q70 0 70 -97t-71 -180t-165 -83l-741 4q-156 0 -197 10q-85 20 -85 74q0 21 13 28t19 9.5t38 10.5q74 22 91 65q13 56 13 115v781q0 131 -47 156
q-22 12 -105 39q-22 7 -22 32q0 54 79 72q50 12 205.5 12t196.5 -10q86 -20 86 -73q0 -30 -39 -40q-16 -4 -23.5 -6.5t-20.5 -6t-19.5 -5.5t-15.5 -6q-19 -8 -28 -21q-28 -34 -28 -143v-926q0 -26 25.5 -36t75.5 -10q191 0 353.5 16t182.5 29q14 16 35 62t24 51
q42 77 100 77z" />
    <glyph glyph-name="lslash" unicode="&#x142;" horiz-adv-x="659" 
d="M547 977q64 0 64 -83q0 -24 -18 -42t-43 -25l-410 -152q-16 -6 -38 -6t-40 22t-18 49q0 59 61 80l411 152q20 5 31 5zM370 0l-86 -1q-131 0 -162 40q-14 18 -14 42.5t14 33t42 11.5t39 8q33 14 33 57v1056q0 91 -72 98q-7 1 -18 2t-16 1.5t-12.5 2t-11 3.5t-6.5 5
q-7 6 -7 29t31 48q56 46 151 46q101 0 118 -12q34 -24 34 -63v-1216q0 -60 65 -65q37 -2 50.5 -11t13.5 -37q0 -50 -61 -67q-42 -11 -125 -11z" />
    <glyph glyph-name="Nacute" unicode="&#x143;" horiz-adv-x="1782" 
d="M1090.5 2124.5q34.5 30.5 82 30.5t84.5 -28t37 -79t-128 -217q-191 -247 -244 -274l-14 14v5q0 46 63.5 251.5t74 236t45 61zM1577 88q0 -110 -65 -110q-50 0 -122 78q-215 228 -946 1027v-890q0 -17 42 -34.5l84 -35t42 -34.5q0 -31 -24 -55.5t-61 -37.5
q-150 -50 -339 -2q-103 26 -103 97q0 24 43.5 36t86.5 25.5t43 40.5v1041q0 19 -86.5 41.5t-86.5 41.5t7.5 34.5t24.5 25t34 15.5t46 8q41 4 105 4h13q110 0 137 -24v1l940 -1019v131l-1 7v713q0 13 -86 45t-86 47q0 39 41 70q79 60 196 60q288 0 288 -130q0 -13 -83 -46
t-83 -46z" />
    <glyph glyph-name="nacute" unicode="&#x144;" horiz-adv-x="1316" 
d="M838.5 1669.5q34.5 30.5 82 30.5t84.5 -28t37 -79t-128 -217q-191 -247 -244 -274l-14 14v5q0 46 63.5 251.5t74 236t45 61zM345 0l-86 -1q-131 0 -162 40q-14 18 -14 43.5t20 35.5t44.5 11t44.5 15.5t20 46.5v571q0 58 -72 70q-50 8 -60.5 17.5t-10.5 34t35 44.5
q59 36 148.5 36t115 -25.5t25.5 -113.5q137 155 377 155q195 0 276.5 -106.5t81.5 -322.5v-360q0 -58 64.5 -61.5t64.5 -51.5q0 -54 -62 -68q-46 -10 -127 -10l-86 -1q-131 0 -162 40q-14 18 -14 43.5t20 35.5t44.5 11t44.5 15.5t20 46.5v291q0 186 -43 272q-48 97 -193 97
q-175 0 -238 -93q-59 -88 -59 -281v-286q0 -58 64.5 -61.5t64.5 -51.5q0 -55 -61 -68q-44 -10 -125 -10z" />
    <glyph glyph-name="Ncommaaccent" unicode="&#x145;" horiz-adv-x="1782" 
d="M890 -348q-117 5 -117 91q0 51 44 79t102 28q127 0 139 -126q0 -89 -57 -154t-140 -65q-39 0 -39 23q0 16 15 28q51 41 53 96zM1577 88q0 -110 -65 -110q-50 0 -122 78q-215 228 -946 1027v-890q0 -17 42 -34.5l84 -35t42 -34.5q0 -31 -24 -55.5t-61 -37.5
q-150 -50 -339 -2q-103 26 -103 97q0 24 43.5 36t86.5 25.5t43 40.5v1041q0 19 -86.5 41.5t-86.5 41.5t7.5 34.5t24.5 25t34 15.5t46 8q41 4 105 4h13q110 0 137 -24v1l940 -1019v131l-1 7v713q0 13 -86 45t-86 47q0 39 41 70q79 60 196 60q288 0 288 -130q0 -13 -83 -46
t-83 -46z" />
    <glyph glyph-name="ncommaaccent" unicode="&#x146;" horiz-adv-x="1316" 
d="M639 -321q-117 5 -117 91q0 51 44 79t102 28q127 0 139 -126q0 -89 -57 -154t-140 -65q-39 0 -39 23q0 16 15 28q51 41 53 96zM345 0l-86 -1q-131 0 -162 40q-14 18 -14 43.5t20 35.5t44.5 11t44.5 15.5t20 46.5v571q0 58 -72 70q-50 8 -60.5 17.5t-10.5 34t35 44.5
q59 36 148.5 36t115 -25.5t25.5 -113.5q137 155 377 155q195 0 276.5 -106.5t81.5 -322.5v-360q0 -58 64.5 -61.5t64.5 -51.5q0 -54 -62 -68q-46 -10 -127 -10l-86 -1q-131 0 -162 40q-14 18 -14 43.5t20 35.5t44.5 11t44.5 15.5t20 46.5v291q0 186 -43 272q-48 97 -193 97
q-175 0 -238 -93q-59 -88 -59 -281v-286q0 -58 64.5 -61.5t64.5 -51.5q0 -55 -61 -68q-44 -10 -125 -10z" />
    <glyph glyph-name="Ncaron" unicode="&#x147;" horiz-adv-x="1782" 
d="M1285 1990q-26 -66 -141 -201t-166 -183.5t-62 -48.5t-70.5 54t-162 175.5t-140.5 203.5l28 13q34 -3 246 -144l100 -66l50 36l42 26q147 103 190 125t65 23zM1577 88q0 -110 -65 -110q-50 0 -122 78q-215 228 -946 1027v-890q0 -17 42 -34.5l84 -35t42 -34.5
q0 -31 -24 -55.5t-61 -37.5q-150 -50 -339 -2q-103 26 -103 97q0 24 43.5 36t86.5 25.5t43 40.5v1041q0 19 -86.5 41.5t-86.5 41.5t7.5 34.5t24.5 25t34 15.5t46 8q41 4 105 4h13q110 0 137 -24v1l940 -1019v131l-1 7v713q0 13 -86 45t-86 47q0 39 41 70q79 60 196 60
q288 0 288 -130q0 -13 -83 -46t-83 -46z" />
    <glyph glyph-name="ncaron" unicode="&#x148;" horiz-adv-x="1316" 
d="M1034 1535q-26 -66 -141 -201t-166 -183.5t-62 -48.5t-70.5 54t-162 175.5t-140.5 203.5l28 13q34 -3 246 -144l100 -66l50 36l42 26q147 103 190 125t65 23zM345 0l-86 -1q-131 0 -162 40q-14 18 -14 43.5t20 35.5t44.5 11t44.5 15.5t20 46.5v571q0 58 -72 70
q-50 8 -60.5 17.5t-10.5 34t35 44.5q59 36 148.5 36t115 -25.5t25.5 -113.5q137 155 377 155q195 0 276.5 -106.5t81.5 -322.5v-360q0 -58 64.5 -61.5t64.5 -51.5q0 -54 -62 -68q-46 -10 -127 -10l-86 -1q-131 0 -162 40q-14 18 -14 43.5t20 35.5t44.5 11t44.5 15.5t20 46.5
v291q0 186 -43 272q-48 97 -193 97q-175 0 -238 -93q-59 -88 -59 -281v-286q0 -58 64.5 -61.5t64.5 -51.5q0 -55 -61 -68q-44 -10 -125 -10z" />
    <glyph glyph-name="Omacron" unicode="&#x14c;" horiz-adv-x="1770" 
d="M586.5 1554q-22.5 16 -22.5 44.5t25 47t60 18.5h474q34 0 57 -16t23 -44.5t-25 -47t-61 -18.5h-474q-34 0 -56.5 16zM574.5 188.5q143.5 -78.5 312 -78.5t307 71.5t221.5 201t83 303t-82 315.5t-227.5 217t-324 75t-313.5 -72.5t-211 -205t-76 -301.5t83.5 -308
t227 -217.5zM45 648q0 134 42 259t118.5 218t180.5 159q210 132 500 132q271 0 479 -108q225 -117 309 -320q46 -109 46 -238q0 -234 -110 -411.5t-300 -270.5t-431 -93q-274 0 -484 112q-350 187 -350 561z" />
    <glyph glyph-name="omacron" unicode="&#x14d;" horiz-adv-x="1121" 
d="M262.5 1112q-22.5 16 -22.5 44.5t25 47t60 18.5h474q34 0 57 -16t23 -44.5t-25 -47t-61 -18.5h-474q-34 0 -56.5 16zM534 -25q-226 0 -364 142.5t-138 361.5q0 146 73 260t197.5 174.5t277.5 60.5q220 0 363 -137t143 -354q0 -150 -73.5 -266.5t-198.5 -179t-280 -62.5z
M807.5 187q83.5 101 83.5 269t-96 290t-246.5 122t-231.5 -103t-81 -270t95 -288t244 -121t232.5 101z" />
    <glyph glyph-name="Obreve" unicode="&#x14e;" horiz-adv-x="1770" 
d="M1292 1895q-4 -171 -115.5 -264t-296 -93t-293.5 94t-113 263h133q8 -84 87 -131t189 -47q162 0 241 91q31 35 35 87h133zM574.5 188.5q143.5 -78.5 312 -78.5t307 71.5t221.5 201t83 303t-82 315.5t-227.5 217t-324 75t-313.5 -72.5t-211 -205t-76 -301.5t83.5 -308
t227 -217.5zM45 648q0 134 42 259t118.5 218t180.5 159q210 132 500 132q271 0 479 -108q225 -117 309 -320q46 -109 46 -238q0 -234 -110 -411.5t-300 -270.5t-431 -93q-274 0 -484 112q-350 187 -350 561z" />
    <glyph glyph-name="obreve" unicode="&#x14f;" horiz-adv-x="1121" 
d="M968 1453q-4 -171 -115.5 -264t-296 -93t-293.5 94t-113 263h133q8 -84 87 -131t189 -47q162 0 241 91q31 35 35 87h133zM534 -25q-226 0 -364 142.5t-138 361.5q0 146 73 260t197.5 174.5t277.5 60.5q220 0 363 -137t143 -354q0 -150 -73.5 -266.5t-198.5 -179
t-280 -62.5zM807.5 187q83.5 101 83.5 269t-96 290t-246.5 122t-231.5 -103t-81 -270t95 -288t244 -121t232.5 101z" />
    <glyph glyph-name="Ohungarumlaut" unicode="&#x150;" horiz-adv-x="1770" 
d="M892.5 2105.5q34.5 30.5 82 30.5t84.5 -28t37 -79t-128 -217q-191 -247 -244 -274l-14 14v5q0 46 63.5 251.5t74 236t45 61zM1223.5 2105.5q34.5 30.5 82 30.5t84.5 -28t37 -84.5t-227 -337.5q-108 -133 -145 -148l-14 14v5q4 59 63.5 252t72 229.5t47 67zM574.5 188.5
q143.5 -78.5 312 -78.5t307 71.5t221.5 201t83 303t-82 315.5t-227.5 217t-324 75t-313.5 -72.5t-211 -205t-76 -301.5t83.5 -308t227 -217.5zM45 648q0 134 42 259t118.5 218t180.5 159q210 132 500 132q271 0 479 -108q225 -117 309 -320q46 -109 46 -238
q0 -234 -110 -411.5t-300 -270.5t-431 -93q-274 0 -484 112q-350 187 -350 561z" />
    <glyph glyph-name="ohungarumlaut" unicode="&#x151;" horiz-adv-x="1121" 
d="M568.5 1663.5q34.5 30.5 82 30.5t84.5 -28t37 -79t-128 -217q-191 -247 -244 -274l-14 14v5q0 46 63.5 251.5t74 236t45 61zM899.5 1663.5q34.5 30.5 82 30.5t84.5 -28t37 -84.5t-227 -337.5q-108 -133 -145 -148l-14 14v5q4 59 63.5 252t72 229.5t47 67zM534 -25
q-226 0 -364 142.5t-138 361.5q0 146 73 260t197.5 174.5t277.5 60.5q220 0 363 -137t143 -354q0 -150 -73.5 -266.5t-198.5 -179t-280 -62.5zM807.5 187q83.5 101 83.5 269t-96 290t-246.5 122t-231.5 -103t-81 -270t95 -288t244 -121t232.5 101z" />
    <glyph glyph-name="OE" unicode="&#x152;" horiz-adv-x="2158" 
d="M2033 342q84 0 84 -91q0 -48 -22 -95.5t-54 -79.5q-76 -80 -179 -80l-695 4h-370q-318 0 -541 168t-223 456.5t220 482t557 193.5h1119q73 0 117.5 -57t44.5 -140q0 -143 -103 -143q-64 0 -87 38t-23 117l1 60h-603v-418l1 -21h380q8 8 25 40q42 82 62 82q110 0 110 -184
q0 -121 -50 -170q-21 -21 -41 -21t-29.5 4t-17.5 15q-16 21 -35 61.5t-24 50.5h-381v-478h573q15 16 49 72q83 134 135 134zM1055 139q6 193 6 377v408l1 237q-101 10 -257 10q-269 0 -412.5 -146.5t-143.5 -360.5t155.5 -369.5t409.5 -155.5h241z" />
    <glyph glyph-name="oe" unicode="&#x153;" horiz-adv-x="1914" 
d="M536 -25q-226 0 -364 142.5t-138 361.5q0 146 73 260t197.5 174.5t277.5 60.5q220 0 363 -137t143 -354q0 -150 -73.5 -266.5t-198.5 -179t-280 -62.5zM809.5 187q83.5 101 83.5 269t-96 290t-246.5 122t-231.5 -103t-81 -270t95 -288t244 -121t232.5 101zM947 470
q0 225 139.5 365.5t355.5 140.5q171 0 288.5 -110.5t117.5 -277.5q0 -81 -128 -81h-579q2 -162 105 -273t260 -111q104 0 202 61q52 32 66.5 32t33 -14.5t18.5 -35.5q0 -55 -70.5 -101.5t-155.5 -69t-149 -22.5q-227 0 -365.5 136t-138.5 361zM1664 612q-2 115 -60 187
t-169.5 72t-195 -80t-88.5 -183h234q156 0 279 4z" />
    <glyph glyph-name="Racute" unicode="&#x154;" horiz-adv-x="1573" 
d="M996.5 2105.5q34.5 30.5 82 30.5t84.5 -28t37 -79t-128 -217q-191 -247 -244 -274l-14 14v5q0 46 63.5 251.5t74 236t45 61zM1352.5 1134q14.5 -48 14.5 -112.5t-24.5 -124.5t-64 -101.5t-95.5 -74.5q-100 -59 -238 -86l52 -72q21 -29 56 -79t55.5 -78.5t52.5 -70
t57 -69.5q59 -68 121.5 -115.5t199.5 -47.5q17 -17 17 -40q0 -79 -166.5 -79t-249.5 56h1q-131 108 -303 427l-83 152h-277v-447q0 -18 42 -31t84 -24.5t42 -26.5q0 -33 -16 -52.5t-58 -27.5q-54 -9 -136.5 -9t-111.5 -0.5t-59 0t-56.5 2t-49 7t-39.5 14.5q-34 17 -34 49
t26 43.5t58 12.5q84 3 84 43v1062q0 24 -42 34t-84 18.5t-42 29t13.5 36t40.5 25t55 15.5t70 8q59 4 143 4h173q256 0 344 -13.5t146 -27.5t99 -33t80.5 -47.5t63.5 -64.5t38.5 -84zM1142 989q0 70 -27.5 125t-71.5 87t-110 51q-110 33 -244.5 33t-172.5 -27t-38 -115v-403
h270q394 0 394 249z" />
    <glyph glyph-name="racute" unicode="&#x155;" horiz-adv-x="890" 
d="M626.5 1663.5q34.5 30.5 82 30.5t84.5 -28t37 -79t-128 -217q-191 -247 -244 -274l-14 14v5q0 46 63.5 251.5t74 236t45 61zM348 0l-86 -1q-131 0 -162 40q-14 18 -14 43.5t20 35.5t44.5 11t44.5 15.5t20 46.5v494q0 89 -21.5 110t-36 27t-45.5 15t-50.5 18t-19.5 27
q0 80 215 80q91 0 115.5 -31.5t24.5 -145.5q34 86 112.5 135t161 49t136 -35.5t53.5 -90t-35 -87t-86 -32.5t-87.5 27t-47.5 70q-26 4 -43 4q-156 0 -156 -359v-275q0 -58 64.5 -61.5t64.5 -51.5q0 -55 -60 -68q-46 -10 -126 -10z" />
    <glyph glyph-name="Rcommaaccent" unicode="&#x156;" horiz-adv-x="1573" 
d="M797 -336q-117 5 -117 91q0 51 44 79t102 28q127 0 139 -126q0 -89 -57 -154t-140 -65q-39 0 -39 23q0 16 15 28q51 41 53 96zM1352.5 1134q14.5 -48 14.5 -112.5t-24.5 -124.5t-64 -101.5t-95.5 -74.5q-100 -59 -238 -86l52 -72q21 -29 56 -79t55.5 -78.5t52.5 -70
t57 -69.5q59 -68 121.5 -115.5t199.5 -47.5q17 -17 17 -40q0 -79 -166.5 -79t-249.5 56h1q-131 108 -303 427l-83 152h-277v-447q0 -18 42 -31t84 -24.5t42 -26.5q0 -33 -16 -52.5t-58 -27.5q-54 -9 -136.5 -9t-111.5 -0.5t-59 0t-56.5 2t-49 7t-39.5 14.5q-34 17 -34 49
t26 43.5t58 12.5q84 3 84 43v1062q0 24 -42 34t-84 18.5t-42 29t13.5 36t40.5 25t55 15.5t70 8q59 4 143 4h173q256 0 344 -13.5t146 -27.5t99 -33t80.5 -47.5t63.5 -64.5t38.5 -84zM1142 989q0 70 -27.5 125t-71.5 87t-110 51q-110 33 -244.5 33t-172.5 -27t-38 -115v-403
h270q394 0 394 249z" />
    <glyph glyph-name="rcommaaccent" unicode="&#x157;" horiz-adv-x="890" 
d="M427 -321q-117 5 -117 91q0 51 44 79t102 28q127 0 139 -126q0 -89 -57 -154t-140 -65q-39 0 -39 23q0 16 15 28q51 41 53 96zM348 0l-86 -1q-131 0 -162 40q-14 18 -14 43.5t20 35.5t44.5 11t44.5 15.5t20 46.5v494q0 89 -21.5 110t-36 27t-45.5 15t-50.5 18t-19.5 27
q0 80 215 80q91 0 115.5 -31.5t24.5 -145.5q34 86 112.5 135t161 49t136 -35.5t53.5 -90t-35 -87t-86 -32.5t-87.5 27t-47.5 70q-26 4 -43 4q-156 0 -156 -359v-275q0 -58 64.5 -61.5t64.5 -51.5q0 -55 -60 -68q-46 -10 -126 -10z" />
    <glyph glyph-name="Rcaron" unicode="&#x158;" horiz-adv-x="1573" 
d="M1192 1971q-26 -66 -141 -201t-166 -183.5t-62 -48.5t-70.5 54t-162 175.5t-140.5 203.5l28 13q34 -3 246 -144l100 -66l50 36l42 26q147 103 190 125t65 23zM1352.5 1134q14.5 -48 14.5 -112.5t-24.5 -124.5t-64 -101.5t-95.5 -74.5q-100 -59 -238 -86l52 -72
q21 -29 56 -79t55.5 -78.5t52.5 -70t57 -69.5q59 -68 121.5 -115.5t199.5 -47.5q17 -17 17 -40q0 -79 -166.5 -79t-249.5 56h1q-131 108 -303 427l-83 152h-277v-447q0 -18 42 -31t84 -24.5t42 -26.5q0 -33 -16 -52.5t-58 -27.5q-54 -9 -136.5 -9t-111.5 -0.5t-59 0t-56.5 2
t-49 7t-39.5 14.5q-34 17 -34 49t26 43.5t58 12.5q84 3 84 43v1062q0 24 -42 34t-84 18.5t-42 29t13.5 36t40.5 25t55 15.5t70 8q59 4 143 4h173q256 0 344 -13.5t146 -27.5t99 -33t80.5 -47.5t63.5 -64.5t38.5 -84zM1142 989q0 70 -27.5 125t-71.5 87t-110 51
q-110 33 -244.5 33t-172.5 -27t-38 -115v-403h270q394 0 394 249z" />
    <glyph glyph-name="rcaron" unicode="&#x159;" horiz-adv-x="890" 
d="M822 1529q-26 -66 -141 -201t-166 -183.5t-62 -48.5t-70.5 54t-162 175.5t-140.5 203.5l28 13q34 -3 246 -144l100 -66l50 36l42 26q147 103 190 125t65 23zM348 0l-86 -1q-131 0 -162 40q-14 18 -14 43.5t20 35.5t44.5 11t44.5 15.5t20 46.5v494q0 89 -21.5 110t-36 27
t-45.5 15t-50.5 18t-19.5 27q0 80 215 80q91 0 115.5 -31.5t24.5 -145.5q34 86 112.5 135t161 49t136 -35.5t53.5 -90t-35 -87t-86 -32.5t-87.5 27t-47.5 70q-26 4 -43 4q-156 0 -156 -359v-275q0 -58 64.5 -61.5t64.5 -51.5q0 -55 -60 -68q-46 -10 -126 -10z" />
    <glyph glyph-name="Sacute" unicode="&#x15a;" horiz-adv-x="1286" 
d="M824.5 2108.5q34.5 30.5 82 30.5t84.5 -28t37 -79t-128 -217q-191 -247 -244 -274l-14 14v5q0 46 63.5 251.5t74 236t45 61zM621 1295q-122 0 -191 -32q-126 -58 -126 -153q0 -51 29 -81q77 -81 202 -137q75 -33 217.5 -85t192.5 -75t111.5 -62t101.5 -81
q96 -101 96 -231q0 -93 -50.5 -168t-134.5 -120q-173 -94 -394 -94q-298 0 -487 104q-63 35 -103 90t-40 117.5t38 98.5t108.5 36t110 -49t39.5 -128q0 -31 -6 -67q152 -78 325 -78q153 0 261 46q123 53 123 184q0 137 -274 242q-46 17 -142 50q-196 68 -295 120
q-243 128 -243 321q0 91 49 162t131 112q166 82 388 82q261 0 422 -87q56 -31 91.5 -80.5t35.5 -112t-43.5 -103t-107.5 -40.5t-94 6q-13 176 -82 234.5t-259 58.5z" />
    <glyph glyph-name="sacute" unicode="&#x15b;" horiz-adv-x="1028" 
d="M684.5 1668.5q34.5 30.5 82 30.5t84.5 -28t37 -79t-128 -217q-191 -247 -244 -274l-14 14v5q0 46 63.5 251.5t74 236t45 61zM506 91q225 0 225 138q0 104 -203 163q-38 11 -92 26q-101 27 -136 41q-88 34 -149 99t-61 154q0 115 109.5 191t264.5 76q151 0 283 -55
q65 -27 105.5 -75t40.5 -100t-41.5 -83t-86 -31t-59 8.5t-14.5 39.5q0 193 -205 193q-85 0 -148 -37.5t-63 -97.5q0 -94 196 -149q31 -8 75 -19.5t81 -23t77.5 -27t85.5 -40.5t73 -54q65 -66 65 -159.5t-63 -161.5q-125 -133 -360 -133q-153 0 -282 50q-66 26 -106 72
t-40 98t33 80.5t75 28.5t71.5 -26t29.5 -64.5t-7 -82.5q106 -39 226 -39z" />
    <glyph glyph-name="Scircumflex" unicode="&#x15c;" horiz-adv-x="1286" 
d="M278 1553q16 38 94.5 142.5t165 198t114.5 93.5t193 -202t175 -232l-21 -12q-42 3 -255 148l-36 24v-1l-56 40l-34 -23q-22 -13 -90 -63q-159 -118 -221 -125zM621 1295q-122 0 -191 -32q-126 -58 -126 -153q0 -51 29 -81q77 -81 202 -137q75 -33 217.5 -85t192.5 -75
t111.5 -62t101.5 -81q96 -101 96 -231q0 -93 -50.5 -168t-134.5 -120q-173 -94 -394 -94q-298 0 -487 104q-63 35 -103 90t-40 117.5t38 98.5t108.5 36t110 -49t39.5 -128q0 -31 -6 -67q152 -78 325 -78q153 0 261 46q123 53 123 184q0 137 -274 242q-46 17 -142 50
q-196 68 -295 120q-243 128 -243 321q0 91 49 162t131 112q166 82 388 82q261 0 422 -87q56 -31 91.5 -80.5t35.5 -112t-43.5 -103t-107.5 -40.5t-94 6q-13 176 -82 234.5t-259 58.5z" />
    <glyph glyph-name="scircumflex" unicode="&#x15d;" horiz-adv-x="1028" 
d="M138 1113q16 38 94.5 142.5t165 198t114.5 93.5t193 -202t175 -232l-21 -12q-42 3 -255 148l-36 24v-1l-56 40l-34 -23q-22 -13 -90 -63q-159 -118 -221 -125zM506 91q225 0 225 138q0 104 -203 163q-38 11 -92 26q-101 27 -136 41q-88 34 -149 99t-61 154
q0 115 109.5 191t264.5 76q151 0 283 -55q65 -27 105.5 -75t40.5 -100t-41.5 -83t-86 -31t-59 8.5t-14.5 39.5q0 193 -205 193q-85 0 -148 -37.5t-63 -97.5q0 -94 196 -149q31 -8 75 -19.5t81 -23t77.5 -27t85.5 -40.5t73 -54q65 -66 65 -159.5t-63 -161.5
q-125 -133 -360 -133q-153 0 -282 50q-66 26 -106 72t-40 98t33 80.5t75 28.5t71.5 -26t29.5 -64.5t-7 -82.5q106 -39 226 -39z" />
    <glyph glyph-name="Scedilla" unicode="&#x15e;" horiz-adv-x="1286" 
d="M639.5 -368q25.5 13 25.5 38.5t-27 42.5q-43 28 -121 28q32 90 62 198l18 53l112 -4v-1l-48 -140l1 -3v3q71 -7 119 -22.5t80.5 -51t32.5 -89.5q0 -83 -71.5 -128.5t-174.5 -45.5q-47 0 -118 17q-166 38 -166 96q0 19 14 32t32 13t42 -11t32 -11q63 -27 96.5 -27t59 13z
M621 1295q-122 0 -191 -32q-126 -58 -126 -153q0 -51 29 -81q77 -81 202 -137q75 -33 217.5 -85t192.5 -75t111.5 -62t101.5 -81q96 -101 96 -231q0 -93 -50.5 -168t-134.5 -120q-173 -94 -394 -94q-298 0 -487 104q-63 35 -103 90t-40 117.5t38 98.5t108.5 36t110 -49
t39.5 -128q0 -31 -6 -67q152 -78 325 -78q153 0 261 46q123 53 123 184q0 137 -274 242q-46 17 -142 50q-196 68 -295 120q-243 128 -243 321q0 91 49 162t131 112q166 82 388 82q261 0 422 -87q56 -31 91.5 -80.5t35.5 -112t-43.5 -103t-107.5 -40.5t-94 6
q-13 176 -82 234.5t-259 58.5z" />
    <glyph glyph-name="scedilla" unicode="&#x15f;" horiz-adv-x="1028" 
d="M499.5 -370q25.5 13 25.5 38.5t-27 42.5q-43 28 -121 28q32 90 62 198l18 53l112 -4v-1l-48 -140l1 -3v3q71 -7 119 -22.5t80.5 -51t32.5 -89.5q0 -83 -71.5 -128.5t-174.5 -45.5q-47 0 -118 17q-166 38 -166 96q0 19 14 32t32 13t42 -11t32 -11q63 -27 96.5 -27t59 13z
M506 91q225 0 225 138q0 104 -203 163q-38 11 -92 26q-101 27 -136 41q-88 34 -149 99t-61 154q0 115 109.5 191t264.5 76q151 0 283 -55q65 -27 105.5 -75t40.5 -100t-41.5 -83t-86 -31t-59 8.5t-14.5 39.5q0 193 -205 193q-85 0 -148 -37.5t-63 -97.5q0 -94 196 -149
q31 -8 75 -19.5t81 -23t77.5 -27t85.5 -40.5t73 -54q65 -66 65 -159.5t-63 -161.5q-125 -133 -360 -133q-153 0 -282 50q-66 26 -106 72t-40 98t33 80.5t75 28.5t71.5 -26t29.5 -64.5t-7 -82.5q106 -39 226 -39z" />
    <glyph glyph-name="Scaron" unicode="&#x160;" horiz-adv-x="1286" 
d="M1020 1974q-26 -66 -141 -201t-166 -183.5t-62 -48.5t-70.5 54t-162 175.5t-140.5 203.5l28 13q34 -3 246 -144l100 -66l50 36l42 26q147 103 190 125t65 23zM621 1295q-122 0 -191 -32q-126 -58 -126 -153q0 -51 29 -81q77 -81 202 -137q75 -33 217.5 -85t192.5 -75
t111.5 -62t101.5 -81q96 -101 96 -231q0 -93 -50.5 -168t-134.5 -120q-173 -94 -394 -94q-298 0 -487 104q-63 35 -103 90t-40 117.5t38 98.5t108.5 36t110 -49t39.5 -128q0 -31 -6 -67q152 -78 325 -78q153 0 261 46q123 53 123 184q0 137 -274 242q-46 17 -142 50
q-196 68 -295 120q-243 128 -243 321q0 91 49 162t131 112q166 82 388 82q261 0 422 -87q56 -31 91.5 -80.5t35.5 -112t-43.5 -103t-107.5 -40.5t-94 6q-13 176 -82 234.5t-259 58.5z" />
    <glyph glyph-name="scaron" unicode="&#x161;" horiz-adv-x="1028" 
d="M880 1534q-26 -66 -141 -201t-166 -183.5t-62 -48.5t-70.5 54t-162 175.5t-140.5 203.5l28 13q34 -3 246 -144l100 -66l50 36l42 26q147 103 190 125t65 23zM506 91q225 0 225 138q0 104 -203 163q-38 11 -92 26q-101 27 -136 41q-88 34 -149 99t-61 154q0 115 109.5 191
t264.5 76q151 0 283 -55q65 -27 105.5 -75t40.5 -100t-41.5 -83t-86 -31t-59 8.5t-14.5 39.5q0 193 -205 193q-85 0 -148 -37.5t-63 -97.5q0 -94 196 -149q31 -8 75 -19.5t81 -23t77.5 -27t85.5 -40.5t73 -54q65 -66 65 -159.5t-63 -161.5q-125 -133 -360 -133
q-153 0 -282 50q-66 26 -106 72t-40 98t33 80.5t75 28.5t71.5 -26t29.5 -64.5t-7 -82.5q106 -39 226 -39z" />
    <glyph glyph-name="Tcommaaccent" unicode="&#x162;" horiz-adv-x="1221" 
d="M597.5 -343q25.5 13 25.5 38.5t-27 42.5q-43 28 -121 28q32 90 62 198l18 53l112 -4v-1l-48 -140l1 -3v3q71 -7 119 -22.5t80.5 -51t32.5 -89.5q0 -83 -71.5 -128.5t-174.5 -45.5q-47 0 -118 17q-166 38 -166 96q0 19 14 32t32 13t42 -11t32 -11q63 -27 96.5 -27t59 13z
M572 0q-242 0 -242 90q0 25 42 32.5t84 15.5t42 34v1107l-293 -1q-49 0 -89.5 -111t-87.5 -111q-78 0 -78 92q0 128 43.5 192.5t157.5 64.5h582q317 0 394 -2q103 -5 129 -174q7 -42 7 -87q0 -86 -78 -86q-51 0 -85 111q-13 42 -37 76.5t-55 34.5l-293 1v-1107
q0 -29 85.5 -43.5t85.5 -38.5q0 -35 -17.5 -48t-29.5 -20t-34.5 -11t-38.5 -6.5t-45 -3.5t-45 -1h-104z" />
    <glyph glyph-name="tcommaaccent" unicode="&#x163;" horiz-adv-x="739" 
d="M321.5 -362q25.5 13 25.5 38.5t-27 42.5q-43 28 -121 28q32 90 62 198l18 53l112 -4v-1l-48 -140l1 -3v3q71 -7 119 -22.5t80.5 -51t32.5 -89.5q0 -83 -71.5 -128.5t-174.5 -45.5q-47 0 -118 17q-166 38 -166 96q0 19 14 32t32 13t42 -11t32 -11q63 -27 96.5 -27t59 13z
M138 828l-61 -1q-37 0 -54 7t-17 29.5t19.5 41t44.5 28.5q69 28 82.5 47.5t40.5 85.5q67 165 112 165q23 0 26.5 -49.5t4 -75.5t-0.5 -77.5t-1 -71.5l238 -1q35 0 59 -17.5t24 -46.5t-23.5 -45t-58.5 -16h-239l-1 -511q0 -217 109 -217q30 0 89 18.5t77 18.5q41 0 41 -47
q0 -37 -96.5 -74t-198 -37t-159 79t-57.5 208v559z" />
    <glyph glyph-name="Tcaron" unicode="&#x164;" horiz-adv-x="1221" 
d="M977 1971q-26 -66 -141 -201t-166 -183.5t-62 -48.5t-70.5 54t-162 175.5t-140.5 203.5l28 13q34 -3 246 -144l100 -66l50 36l42 26q147 103 190 125t65 23zM572 0q-242 0 -242 90q0 25 42 32.5t84 15.5t42 34v1107l-293 -1q-49 0 -89.5 -111t-87.5 -111q-78 0 -78 92
q0 128 43.5 192.5t157.5 64.5h582q317 0 394 -2q103 -5 129 -174q7 -42 7 -87q0 -86 -78 -86q-51 0 -85 111q-13 42 -37 76.5t-55 34.5l-293 1v-1107q0 -29 85.5 -43.5t85.5 -38.5q0 -35 -17.5 -48t-29.5 -20t-34.5 -11t-38.5 -6.5t-45 -3.5t-45 -1h-104z" />
    <glyph glyph-name="tcaron" unicode="&#x165;" horiz-adv-x="1053" 
d="M954 1033q-117 5 -117 91q0 51 44 79t102 28q127 0 139 -126q0 -89 -57 -154t-140 -65q-39 0 -39 23q0 16 15 28q51 41 53 96zM141 828l-61 -1q-37 0 -54 7t-17 29.5t19.5 41t44.5 28.5q69 28 82.5 47.5t40.5 85.5q67 165 112 165q23 0 26.5 -49.5t4 -75.5t-0.5 -77.5
t-1 -71.5l238 -1q35 0 59 -17.5t24 -46.5t-23.5 -45t-58.5 -16h-239l-1 -511q0 -217 109 -217q30 0 89 18.5t77 18.5q41 0 41 -47q0 -37 -96.5 -74t-198 -37t-159 79t-57.5 208v559z" />
    <glyph glyph-name="Utilde" unicode="&#x168;" 
d="M536 1711q62 47 139.5 47t222.5 -45t181.5 -45t80.5 23t49 24l20 -7q-39 -75 -107.5 -122.5t-150.5 -47.5t-197 44.5t-166.5 44.5t-94 -22t-55.5 -24l-19 7q35 76 97 123zM268 1404q32 0 58.5 -0.5t66 -3t62 -8t46 -15t34 -25.5t10.5 -37t-42 -31l-84 -20t-42 -30v-785
q0 -95 70 -170.5t182 -115.5t226 -40t203 21t161 61t114 106.5t42 150.5v772q0 23 -41.5 33.5t-83.5 19.5t-42 26.5t4.5 31t15.5 22.5t21.5 16t30 11t32.5 6.5t39 3t39 1t42 0t55.5 -0.5t53 -0.5t62 -3t57.5 -8.5t43.5 -15.5t31.5 -25t10 -36.5t-42 -31l-84 -20t-42 -30
v-793q0 -260 -303 -389q-172 -73 -388 -73q-356 0 -572 160q-71 53 -113.5 133t-42.5 176v786q0 23 -43 33.5t-86.5 19.5t-43.5 26.5t5.5 30.5t18 22.5t24.5 16t34.5 10.5t38.5 7q27 4 78 4h84z" />
    <glyph glyph-name="utilde" unicode="&#x169;" horiz-adv-x="1261" 
d="M272 1269q62 47 139.5 47t222.5 -45t181.5 -45t80.5 23t49 24l20 -7q-39 -75 -107.5 -122.5t-150.5 -47.5t-197 44.5t-166.5 44.5t-94 -22t-55.5 -24l-19 7q35 76 97 123zM336 433q0 -137 22 -193.5t50 -80.5q58 -50 193.5 -50t198.5 69.5t63 232.5v338q0 74 -73 79
q-58 3 -64 12.5t-6 21.5q0 50 58.5 76t139 26t109 -22t28.5 -104l1 -640q0 -68 72 -73q51 -3 62 -10.5t11 -35t-33 -50.5q-59 -40 -153.5 -40t-117 28.5t-22.5 131.5q-121 -176 -370 -176q-197 0 -279.5 106t-82.5 327v343q0 74 -71 79q-59 3 -65 12.5t-6 21.5q0 50 58 76
t138.5 26t109.5 -22t29 -104v-405z" />
    <glyph glyph-name="Umacron" unicode="&#x16a;" 
d="M568.5 1554q-22.5 16 -22.5 44.5t25 47t60 18.5h474q34 0 57 -16t23 -44.5t-25 -47t-61 -18.5h-474q-34 0 -56.5 16zM268 1404q32 0 58.5 -0.5t66 -3t62 -8t46 -15t34 -25.5t10.5 -37t-42 -31l-84 -20t-42 -30v-785q0 -95 70 -170.5t182 -115.5t226 -40t203 21t161 61
t114 106.5t42 150.5v772q0 23 -41.5 33.5t-83.5 19.5t-42 26.5t4.5 31t15.5 22.5t21.5 16t30 11t32.5 6.5t39 3t39 1t42 0t55.5 -0.5t53 -0.5t62 -3t57.5 -8.5t43.5 -15.5t31.5 -25t10 -36.5t-42 -31l-84 -20t-42 -30v-793q0 -260 -303 -389q-172 -73 -388 -73
q-356 0 -572 160q-71 53 -113.5 133t-42.5 176v786q0 23 -43 33.5t-86.5 19.5t-43.5 26.5t5.5 30.5t18 22.5t24.5 16t34.5 10.5t38.5 7q27 4 78 4h84z" />
    <glyph glyph-name="umacron" unicode="&#x16b;" horiz-adv-x="1261" 
d="M304.5 1112q-22.5 16 -22.5 44.5t25 47t60 18.5h474q34 0 57 -16t23 -44.5t-25 -47t-61 -18.5h-474q-34 0 -56.5 16zM336 433q0 -137 22 -193.5t50 -80.5q58 -50 193.5 -50t198.5 69.5t63 232.5v338q0 74 -73 79q-58 3 -64 12.5t-6 21.5q0 50 58.5 76t139 26t109 -22
t28.5 -104l1 -640q0 -68 72 -73q51 -3 62 -10.5t11 -35t-33 -50.5q-59 -40 -153.5 -40t-117 28.5t-22.5 131.5q-121 -176 -370 -176q-197 0 -279.5 106t-82.5 327v343q0 74 -71 79q-59 3 -65 12.5t-6 21.5q0 50 58 76t138.5 26t109.5 -22t29 -104v-405z" />
    <glyph glyph-name="Ubreve" unicode="&#x16c;" 
d="M1274 1895q-4 -171 -115.5 -264t-296 -93t-293.5 94t-113 263h133q8 -84 87 -131t189 -47q162 0 241 91q31 35 35 87h133zM268 1404q32 0 58.5 -0.5t66 -3t62 -8t46 -15t34 -25.5t10.5 -37t-42 -31l-84 -20t-42 -30v-785q0 -95 70 -170.5t182 -115.5t226 -40t203 21
t161 61t114 106.5t42 150.5v772q0 23 -41.5 33.5t-83.5 19.5t-42 26.5t4.5 31t15.5 22.5t21.5 16t30 11t32.5 6.5t39 3t39 1t42 0t55.5 -0.5t53 -0.5t62 -3t57.5 -8.5t43.5 -15.5t31.5 -25t10 -36.5t-42 -31l-84 -20t-42 -30v-793q0 -260 -303 -389q-172 -73 -388 -73
q-356 0 -572 160q-71 53 -113.5 133t-42.5 176v786q0 23 -43 33.5t-86.5 19.5t-43.5 26.5t5.5 30.5t18 22.5t24.5 16t34.5 10.5t38.5 7q27 4 78 4h84z" />
    <glyph glyph-name="ubreve" unicode="&#x16d;" horiz-adv-x="1261" 
d="M1010 1453q-4 -171 -115.5 -264t-296 -93t-293.5 94t-113 263h133q8 -84 87 -131t189 -47q162 0 241 91q31 35 35 87h133zM336 433q0 -137 22 -193.5t50 -80.5q58 -50 193.5 -50t198.5 69.5t63 232.5v338q0 74 -73 79q-58 3 -64 12.5t-6 21.5q0 50 58.5 76t139 26
t109 -22t28.5 -104l1 -640q0 -68 72 -73q51 -3 62 -10.5t11 -35t-33 -50.5q-59 -40 -153.5 -40t-117 28.5t-22.5 131.5q-121 -176 -370 -176q-197 0 -279.5 106t-82.5 327v343q0 74 -71 79q-59 3 -65 12.5t-6 21.5q0 50 58 76t138.5 26t109.5 -22t29 -104v-405z" />
    <glyph glyph-name="Uring" unicode="&#x16e;" 
d="M747 1731q0 -49 32 -77t84.5 -28t85 30.5t32.5 80t-31.5 76.5t-84 27t-85.5 -30t-33 -79zM870 1928q239 0 239 -189q0 -98 -69.5 -149.5t-176.5 -51.5q-161 0 -221 107q-20 37 -20 86q0 96 70.5 146.5t177.5 50.5zM268 1404q32 0 58.5 -0.5t66 -3t62 -8t46 -15t34 -25.5
t10.5 -37t-42 -31l-84 -20t-42 -30v-785q0 -95 70 -170.5t182 -115.5t226 -40t203 21t161 61t114 106.5t42 150.5v772q0 23 -41.5 33.5t-83.5 19.5t-42 26.5t4.5 31t15.5 22.5t21.5 16t30 11t32.5 6.5t39 3t39 1t42 0t55.5 -0.5t53 -0.5t62 -3t57.5 -8.5t43.5 -15.5
t31.5 -25t10 -36.5t-42 -31l-84 -20t-42 -30v-793q0 -260 -303 -389q-172 -73 -388 -73q-356 0 -572 160q-71 53 -113.5 133t-42.5 176v786q0 23 -43 33.5t-86.5 19.5t-43.5 26.5t5.5 30.5t18 22.5t24.5 16t34.5 10.5t38.5 7q27 4 78 4h84z" />
    <glyph glyph-name="uring" unicode="&#x16f;" horiz-adv-x="1261" 
d="M483 1289q0 -49 32 -77t84.5 -28t85 30.5t32.5 80t-31.5 76.5t-84 27t-85.5 -30t-33 -79zM606 1486q239 0 239 -189q0 -98 -69.5 -149.5t-176.5 -51.5q-161 0 -221 107q-20 37 -20 86q0 96 70.5 146.5t177.5 50.5zM336 433q0 -137 22 -193.5t50 -80.5q58 -50 193.5 -50
t198.5 69.5t63 232.5v338q0 74 -73 79q-58 3 -64 12.5t-6 21.5q0 50 58.5 76t139 26t109 -22t28.5 -104l1 -640q0 -68 72 -73q51 -3 62 -10.5t11 -35t-33 -50.5q-59 -40 -153.5 -40t-117 28.5t-22.5 131.5q-121 -176 -370 -176q-197 0 -279.5 106t-82.5 327v343q0 74 -71 79
q-59 3 -65 12.5t-6 21.5q0 50 58 76t138.5 26t109.5 -22t29 -104v-405z" />
    <glyph glyph-name="Uhungarumlaut" unicode="&#x170;" 
d="M874.5 2105.5q34.5 30.5 82 30.5t84.5 -28t37 -79t-128 -217q-191 -247 -244 -274l-14 14v5q0 46 63.5 251.5t74 236t45 61zM1205.5 2105.5q34.5 30.5 82 30.5t84.5 -28t37 -84.5t-227 -337.5q-108 -133 -145 -148l-14 14v5q4 59 63.5 252t72 229.5t47 67zM268 1404
q32 0 58.5 -0.5t66 -3t62 -8t46 -15t34 -25.5t10.5 -37t-42 -31l-84 -20t-42 -30v-785q0 -95 70 -170.5t182 -115.5t226 -40t203 21t161 61t114 106.5t42 150.5v772q0 23 -41.5 33.5t-83.5 19.5t-42 26.5t4.5 31t15.5 22.5t21.5 16t30 11t32.5 6.5t39 3t39 1t42 0t55.5 -0.5
t53 -0.5t62 -3t57.5 -8.5t43.5 -15.5t31.5 -25t10 -36.5t-42 -31l-84 -20t-42 -30v-793q0 -260 -303 -389q-172 -73 -388 -73q-356 0 -572 160q-71 53 -113.5 133t-42.5 176v786q0 23 -43 33.5t-86.5 19.5t-43.5 26.5t5.5 30.5t18 22.5t24.5 16t34.5 10.5t38.5 7q27 4 78 4
h84z" />
    <glyph glyph-name="uhungarumlaut" unicode="&#x171;" horiz-adv-x="1261" 
d="M610.5 1663.5q34.5 30.5 82 30.5t84.5 -28t37 -79t-128 -217q-191 -247 -244 -274l-14 14v5q0 46 63.5 251.5t74 236t45 61zM941.5 1663.5q34.5 30.5 82 30.5t84.5 -28t37 -84.5t-227 -337.5q-108 -133 -145 -148l-14 14v5q4 59 63.5 252t72 229.5t47 67zM336 433
q0 -137 22 -193.5t50 -80.5q58 -50 193.5 -50t198.5 69.5t63 232.5v338q0 74 -73 79q-58 3 -64 12.5t-6 21.5q0 50 58.5 76t139 26t109 -22t28.5 -104l1 -640q0 -68 72 -73q51 -3 62 -10.5t11 -35t-33 -50.5q-59 -40 -153.5 -40t-117 28.5t-22.5 131.5q-121 -176 -370 -176
q-197 0 -279.5 106t-82.5 327v343q0 74 -71 79q-59 3 -65 12.5t-6 21.5q0 50 58 76t138.5 26t109.5 -22t29 -104v-405z" />
    <glyph glyph-name="Uogonek" unicode="&#x172;" 
d="M1025 -414q-134 -62 -229.5 -62t-163.5 42t-68 122.5t118 202.5q51 52 119 104h136q-65 -42 -111 -96q-90 -102 -90 -164q0 -40 31.5 -55t81 -15t142.5 33zM268 1404q32 0 58.5 -0.5t66 -3t62 -8t46 -15t34 -25.5t10.5 -37t-42 -31l-84 -20t-42 -30v-785q0 -95 70 -170.5
t182 -115.5t226 -40t203 21t161 61t114 106.5t42 150.5v772q0 23 -41.5 33.5t-83.5 19.5t-42 26.5t4.5 31t15.5 22.5t21.5 16t30 11t32.5 6.5t39 3t39 1t42 0t55.5 -0.5t53 -0.5t62 -3t57.5 -8.5t43.5 -15.5t31.5 -25t10 -36.5t-42 -31l-84 -20t-42 -30v-793
q0 -260 -303 -389q-172 -73 -388 -73q-356 0 -572 160q-71 53 -113.5 133t-42.5 176v786q0 23 -43 33.5t-86.5 19.5t-43.5 26.5t5.5 30.5t18 22.5t24.5 16t34.5 10.5t38.5 7q27 4 78 4h84z" />
    <glyph glyph-name="uogonek" unicode="&#x173;" horiz-adv-x="1262" 
d="M826 -420q-134 -62 -229.5 -62t-163.5 42t-68 122.5t118 202.5q51 52 119 104h136q-65 -42 -111 -96q-90 -102 -90 -164q0 -40 31.5 -55t81 -15t142.5 33zM336 433q0 -137 22 -193.5t50 -80.5q58 -50 193.5 -50t198.5 69.5t63 232.5v338q0 74 -73 79q-58 3 -64 12.5
t-6 21.5q0 50 58.5 76t139 26t109 -22t28.5 -104l1 -640q0 -68 72 -73q51 -3 62 -10.5t11 -35t-33 -50.5q-59 -40 -153.5 -40t-117 28.5t-22.5 131.5q-121 -176 -370 -176q-197 0 -279.5 106t-82.5 327v343q0 74 -71 79q-59 3 -65 12.5t-6 21.5q0 50 58 76t138.5 26
t109.5 -22t29 -104v-405z" />
    <glyph glyph-name="Wcircumflex" unicode="&#x174;" horiz-adv-x="2537" 
d="M879 1550q16 38 94.5 142.5t165 198t114.5 93.5t193 -202t175 -232l-21 -12q-42 3 -255 148l-36 24v-1l-56 40l-34 -23q-22 -13 -90 -63q-159 -118 -221 -125zM1584 1367.5q10 -10.5 10 -31.5t-23.5 -36.5t-55.5 -15.5q-108 -27 -132 -51l-18 -44l421 -1027
q274 716 412 1073q0 27 -40.5 35.5t-81 14.5t-40.5 29q0 35 21.5 50t43.5 22t42 10t50 5q45 3 94.5 3t74.5 -0.5t61.5 -2t60 -6t46.5 -10.5q47 -12 47 -40.5t-22.5 -44.5t-53.5 -16q-115 -26 -137 -52l-442 -1100q-24 -59 -66.5 -104.5t-104.5 -45.5t-103.5 45t-77.5 132
l-314 759l-316 -786q-60 -150 -169 -150q-91 0 -147 109q-14 26 -32 68l-447 1070q-23 28 -93 41.5t-99.5 30t-29.5 37t11 31.5t35 17t45.5 10t59.5 6q62 2 93 2h35q143 0 182.5 -9.5t63.5 -18.5q48 -19 52 -62q-2 -13 -36 -23t-66.5 -21t-32.5 -28l442 -1080l367 956
l-45 109q-16 20 -43.5 29t-38.5 12q-49 16 -79 20t-45 15.5t-15 46t78.5 44t202.5 9.5t158.5 -0.5t81.5 -2t71 -5.5t49 -10.5t35 -17z" />
    <glyph glyph-name="wcircumflex" unicode="&#x175;" horiz-adv-x="1717" 
d="M473 1108q16 38 94.5 142.5t165 198t114.5 93.5t193 -202t175 -232l-21 -12q-42 3 -255 148l-36 24v-1l-56 40l-34 -23q-22 -13 -90 -63q-159 -118 -221 -125zM1202 197q198 517 217 612q0 21 -45 31q-85 18 -85 53q0 29 7 40q104 25 231 25q207 0 207 -43q0 -37 -34 -64
q-75 -11 -113 -45.5t-63 -100.5l-62 -163q-179 -451 -199 -483q-49 -83 -95 -83q-37 0 -80 93q-8 16 -9 19l-229 505q-158 -353 -243 -529q-21 -51 -44 -65.5t-47.5 -14.5t-32 7.5t-16.5 23t-15 26.5t-16 31.5t-13 25.5l-238 552q-63 157 -88 182v-1q-18 8 -59 14.5
t-62 19.5t-21 44q0 49 274 49q94 0 162.5 -13t68.5 -32q0 -33 -12.5 -44t-45.5 -20q-57 -15 -57 -49q0 -50 95.5 -297.5t122.5 -302.5q91 193 220 520q-33 82 -59 102l-41 33q-33 25 -33 36q0 52 197.5 52t197.5 -39q0 -36 -45.5 -39.5t-45.5 -30.5t7.5 -47.5t15.5 -40
t23 -59.5q36 -100 162 -395z" />
    <glyph glyph-name="Ycircumflex" unicode="&#x176;" horiz-adv-x="1467" 
d="M348 1550q16 38 94.5 142.5t165 198t114.5 93.5t193 -202t175 -232l-21 -12q-42 3 -255 148l-36 24v-1l-56 40l-34 -23q-22 -13 -90 -63q-159 -118 -221 -125zM1169 1252q-147 0 -147 36q0 52 70 84t162 32q253 0 253 -85q0 -48 -116 -79q-46 -13 -56 -20l-510 -662v-386
q0 -19 42 -31t84 -23t42 -28q0 -60 -83 -78q-72 -15 -182 -11q-166 0 -228.5 19t-63.5 70q0 35 86 40t86 42v386l-136 182q-262 356 -359 478q-9 12 -56 23.5t-86.5 27.5t-39.5 43q0 92 248 92h67q260 0 260 -116q0 -20 -96 -32q-9 -1 -13 -2l-38 -5l-1 -9l398 -527l372 481
q27 31 41 58z" />
    <glyph glyph-name="ycircumflex" unicode="&#x177;" horiz-adv-x="1125" 
d="M175 1108q16 38 94.5 142.5t165 198t114.5 93.5t193 -202t175 -232l-21 -12q-42 3 -255 148l-36 24v-1l-56 40l-34 -23q-22 -13 -90 -63q-159 -118 -221 -125zM590 205q253 535 253 565t-22 42t-48 14q-70 7 -70 41q0 91 215 91h40q96 0 137.5 -31t41.5 -58t-30 -33
q-62 -11 -92.5 -34.5t-59.5 -86.5t-97 -215t-114 -248l-215 -442q-34 -72 -87.5 -119.5t-126.5 -47.5t-127.5 36.5t-54.5 94t34.5 91t86.5 33.5t93.5 -26t43.5 -64q80 127 107 198q-42 116 -191.5 406.5t-165.5 324t-27.5 46.5t-29.5 22t-30 13t-39 11t-43.5 12t-16.5 31
q0 86 236 86q145 0 186 -15q79 -28 79 -74q0 -31 -59.5 -42.5t-59.5 -43.5q0 -4 35 -95q115 -298 218 -483z" />
    <glyph glyph-name="Ydieresis" unicode="&#x178;" horiz-adv-x="1467" 
d="M994 1538q-50 0 -84.5 34t-34.5 75.5t33.5 76.5t83 35t87 -30t37.5 -78.5t-37 -80.5t-85 -32zM564 1648q0 -42 -34 -76t-82.5 -34t-86.5 30.5t-38 75.5t34.5 80t83.5 35t86 -30.5t37 -80.5zM1169 1252q-147 0 -147 36q0 52 70 84t162 32q253 0 253 -85q0 -48 -116 -79
q-46 -13 -56 -20l-510 -662v-386q0 -19 42 -31t84 -23t42 -28q0 -60 -83 -78q-72 -15 -182 -11q-166 0 -228.5 19t-63.5 70q0 35 86 40t86 42v386l-136 182q-262 356 -359 478q-9 12 -56 23.5t-86.5 27.5t-39.5 43q0 92 248 92h67q260 0 260 -116q0 -20 -96 -32
q-9 -1 -13 -2l-38 -5l-1 -9l398 -527l372 481q27 31 41 58z" />
    <glyph glyph-name="Zacute" unicode="&#x179;" horiz-adv-x="1475" 
d="M920.5 2105.5q34.5 30.5 82 30.5t84.5 -28t37 -79t-128 -217q-191 -247 -244 -274l-14 14v5q0 46 63.5 251.5t74 236t45 61zM1394.5 361q22.5 -24 22.5 -71t-23 -116.5t-66.5 -121.5t-93.5 -52l-1077 -1q-76 0 -76 51q0 102 652 830q250 280 344 389q-96 16 -281 16
l-496 -2l-5 -44q-14 -118 -74 -193q-34 -42 -71.5 -42t-56.5 27t-19 93t18 125.5t60 93.5q74 60 253 60l693 2q171 0 255 -15l-1 1q24 -15 24 -40.5t-30.5 -74t-87.5 -122.5q-75 -99 -264 -324.5t-380.5 -436.5t-238.5 -252q56 -20 345.5 -20t453.5 9q39 47 111 190
q38 65 53 65q34 0 56.5 -24z" />
    <glyph glyph-name="zacute" unicode="&#x17a;" horiz-adv-x="1059" 
d="M708.5 1663.5q34.5 30.5 82 30.5t84.5 -28t37 -79t-128 -217q-191 -247 -244 -274l-14 14v5q0 46 63.5 251.5t74 236t45 61zM887 322q98 0 98 -73q0 -22 -7 -43l-11 -31q-49 -132 -84 -155q-42 -29 -110 -29l-84 4h-8l-167 7l-352 -2q-73 0 -73 54q0 48 213 304
q18 22 173 208l59 70q22 27 71 85q85 100 96 119q-27 4 -68 4l-189 -2h-30l-34 -1l-61 3v2q-77 -195 -157 -195q-35 0 -57.5 18t-22.5 51q0 84 47 161t110 77h689q39 -12 39 -53q0 -52 -355 -465q-13 -15 -98 -114l-45 -52q-14 -17 -43 -48q-60 -64 -82 -98q37 -10 99 -10
h114q114 0 196 8v-1q14 13 36 64.5t46.5 92t51.5 40.5z" />
    <glyph glyph-name="Zdotaccent" unicode="&#x17b;" horiz-adv-x="1475" 
d="M647.5 1570q-42.5 32 -42.5 82t46.5 84.5t93 34.5t94 -31t47.5 -74q0 -89 -91 -119q-25 -9 -65 -9t-82.5 32zM1394.5 361q22.5 -24 22.5 -71t-23 -116.5t-66.5 -121.5t-93.5 -52l-1077 -1q-76 0 -76 51q0 102 652 830q250 280 344 389q-96 16 -281 16l-496 -2l-5 -44
q-14 -118 -74 -193q-34 -42 -71.5 -42t-56.5 27t-19 93t18 125.5t60 93.5q74 60 253 60l693 2q171 0 255 -15l-1 1q24 -15 24 -40.5t-30.5 -74t-87.5 -122.5q-75 -99 -264 -324.5t-380.5 -436.5t-238.5 -252q56 -20 345.5 -20t453.5 9q39 47 111 190q38 65 53 65
q34 0 56.5 -24z" />
    <glyph glyph-name="zdotaccent" unicode="&#x17c;" horiz-adv-x="1059" 
d="M435.5 1128q-42.5 32 -42.5 82t46.5 84.5t93 34.5t94 -31t47.5 -74q0 -89 -91 -119q-25 -9 -65 -9t-82.5 32zM887 322q98 0 98 -73q0 -22 -7 -43l-11 -31q-49 -132 -84 -155q-42 -29 -110 -29l-84 4h-8l-167 7l-352 -2q-73 0 -73 54q0 48 213 304q18 22 173 208l59 70
q22 27 71 85q85 100 96 119q-27 4 -68 4l-189 -2h-30l-34 -1l-61 3v2q-77 -195 -157 -195q-35 0 -57.5 18t-22.5 51q0 84 47 161t110 77h689q39 -12 39 -53q0 -52 -355 -465q-13 -15 -98 -114l-45 -52q-14 -17 -43 -48q-60 -64 -82 -98q37 -10 99 -10h114q114 0 196 8v-1
q14 13 36 64.5t46.5 92t51.5 40.5z" />
    <glyph glyph-name="Zcaron" unicode="&#x17d;" horiz-adv-x="1475" 
d="M1116 1971q-26 -66 -141 -201t-166 -183.5t-62 -48.5t-70.5 54t-162 175.5t-140.5 203.5l28 13q34 -3 246 -144l100 -66l50 36l42 26q147 103 190 125t65 23zM1394.5 361q22.5 -24 22.5 -71t-23 -116.5t-66.5 -121.5t-93.5 -52l-1077 -1q-76 0 -76 51q0 102 652 830
q250 280 344 389q-96 16 -281 16l-496 -2l-5 -44q-14 -118 -74 -193q-34 -42 -71.5 -42t-56.5 27t-19 93t18 125.5t60 93.5q74 60 253 60l693 2q171 0 255 -15l-1 1q24 -15 24 -40.5t-30.5 -74t-87.5 -122.5q-75 -99 -264 -324.5t-380.5 -436.5t-238.5 -252
q56 -20 345.5 -20t453.5 9q39 47 111 190q38 65 53 65q34 0 56.5 -24z" />
    <glyph glyph-name="zcaron" unicode="&#x17e;" horiz-adv-x="1059" 
d="M904 1529q-26 -66 -141 -201t-166 -183.5t-62 -48.5t-70.5 54t-162 175.5t-140.5 203.5l28 13q34 -3 246 -144l100 -66l50 36l42 26q147 103 190 125t65 23zM887 322q98 0 98 -73q0 -22 -7 -43l-11 -31q-49 -132 -84 -155q-42 -29 -110 -29l-84 4h-8l-167 7l-352 -2
q-73 0 -73 54q0 48 213 304q18 22 173 208l59 70q22 27 71 85q85 100 96 119q-27 4 -68 4l-189 -2h-30l-34 -1l-61 3v2q-77 -195 -157 -195q-35 0 -57.5 18t-22.5 51q0 84 47 161t110 77h689q39 -12 39 -53q0 -52 -355 -465q-13 -15 -98 -114l-45 -52q-14 -17 -43 -48
q-60 -64 -82 -98q37 -10 99 -10h114q114 0 196 8v-1q14 13 36 64.5t46.5 92t51.5 40.5z" />
    <glyph glyph-name="florin" unicode="&#x192;" horiz-adv-x="1097" 
d="M1134 1329q0 -53 -42 -93t-95 -40q-86 0 -86 72q0 18 12 64q-33 16 -72 16q-181 0 -181 -294q0 -45 5 -92h160q62 0 62 -30q0 -41 -37.5 -68.5t-58.5 -27.5h-148q-99 -504 -230 -698q-111 -165 -259 -165q-71 0 -115.5 28t-44.5 81.5t39 90.5t89 37q83 0 83 -72
q-10 -19 -10 -64q84 0 143 260q16 68 30 140l84 359h-70q-45 0 -45 44q0 55 45 74q27 11 108 11l43 147q63 253 264 327q62 23 117 23q210 0 210 -130z" />
    <glyph glyph-name="DZ" unicode="&#x1f1;" horiz-adv-x="3218" 
d="M3149.5 361q22.5 -24 22.5 -71t-23 -116.5t-66.5 -121.5t-93.5 -52l-1077 -1q-76 0 -76 51q0 102 652 830q250 280 344 389q-96 16 -281 16l-496 -2l-5 -44q-14 -118 -74 -193q-34 -42 -71.5 -42t-56.5 27t-19 93t18 125.5t60 93.5q74 60 253 60l693 2q171 0 255 -15
l-1 1q24 -15 24 -40.5t-30.5 -74t-87.5 -122.5q-75 -99 -264 -324.5t-380.5 -436.5t-238.5 -252q56 -20 345.5 -20t453.5 9q39 47 111 190q38 65 53 65q34 0 56.5 -24zM1374.5 384q84.5 130 84.5 288t-41.5 260t-114 167.5t-181.5 106.5q-198 76 -516 76q-143 0 -143 -23
v-1117q158 -17 343.5 -17t334.5 64.5t233.5 194.5zM1625.5 998.5q56.5 -111.5 56.5 -252t-43.5 -262t-121 -210t-184.5 -150.5q-213 -125 -505 -125q-103 2 -359 2t-294 8q-77 20 -80 82q0 35 68 44q32 4 43 9q39 16 39 72v974q0 76 -75 82q-63 5 -69 19t-6 37t15 41.5
t54 25.5q50 9 188 9h309q529 0 812 -220q96 -74 152.5 -185.5z" />
    <glyph glyph-name="Dz" unicode="&#x1f2;" horiz-adv-x="2799" 
d="M2642 322q98 0 98 -73q0 -22 -7 -43l-11 -31q-49 -132 -84 -155q-42 -29 -110 -29l-84 4h-8l-167 7l-352 -2q-73 0 -73 54q0 48 213 304q18 22 173 208l59 70q22 27 71 85q85 100 96 119q-27 4 -68 4l-189 -2h-30l-34 -1l-61 3v2q-77 -195 -157 -195q-35 0 -57.5 18
t-22.5 51q0 84 47 161t110 77h689q39 -12 39 -53q0 -52 -355 -465q-13 -15 -98 -114l-45 -52q-14 -17 -43 -48q-60 -64 -82 -98q37 -10 99 -10h114q114 0 196 8v-1q14 13 36 64.5t46.5 92t51.5 40.5zM1374.5 384q84.5 130 84.5 288t-41.5 260t-114 167.5t-181.5 106.5
q-198 76 -516 76q-143 0 -143 -23v-1117q158 -17 343.5 -17t334.5 64.5t233.5 194.5zM1625.5 998.5q56.5 -111.5 56.5 -252t-43.5 -262t-121 -210t-184.5 -150.5q-213 -125 -505 -125q-103 2 -359 2t-294 8q-77 20 -80 82q0 35 68 44q32 4 43 9q39 16 39 72v974q0 76 -75 82
q-63 5 -69 19t-6 37t15 41.5t54 25.5q50 9 188 9h309q529 0 812 -220q96 -74 152.5 -185.5z" />
    <glyph glyph-name="dotlessj" unicode="&#x237;" horiz-adv-x="476" 
d="M106.5 952.5q40.5 10.5 77.5 10.5t53 -0.5t40 -4.5t35 -12q27 -19 27 -58v-736q0 -211 -66.5 -306t-241.5 -115q-3 -1 -9 -1h-8q-98 0 -98 78q0 69 98 80q167 40 167 94q0 35 -10.5 77t-12.5 54l-10 49v566q0 90 -72 98q-7 1 -18 2t-16 1.5t-12.5 2t-11 3.5t-6.5 5
q-7 6 -7 29t30.5 48t71 35.5z" />
    <glyph glyph-name="circumflex" unicode="&#x2c6;" horiz-adv-x="907" 
d="M82 1275q16 38 94.5 142.5t165 198t114.5 93.5t193 -202t175 -232l-21 -12q-42 3 -255 148l-36 24v-1l-56 40l-34 -23q-22 -13 -90 -63q-159 -118 -221 -125z" />
    <glyph glyph-name="caron" unicode="&#x2c7;" horiz-adv-x="761" 
d="M754 1695q-26 -66 -141 -201t-166 -183.5t-62 -48.5t-70.5 54t-162 175.5t-140.5 203.5l28 13q34 -3 246 -144l100 -66l50 36l42 26q147 103 190 125t65 23z" />
    <glyph glyph-name="breve" unicode="&#x2d8;" horiz-adv-x="1003" 
d="M920 417q-4 -171 -115.5 -264t-296 -93t-293.5 94t-113 263h133q8 -84 87 -131t189 -47q162 0 241 91q31 35 35 87h133z" />
    <glyph glyph-name="dotaccent" unicode="&#x2d9;" horiz-adv-x="461" 
d="M141.5 263q-42.5 32 -42.5 82t46.5 84.5t93 34.5t94 -31t47.5 -74q0 -89 -91 -119q-25 -9 -65 -9t-82.5 32z" />
    <glyph glyph-name="ring" unicode="&#x2da;" horiz-adv-x="705" 
d="M233 1256q0 -49 32 -77t84.5 -28t85 30.5t32.5 80t-31.5 76.5t-84 27t-85.5 -30t-33 -79zM356 1453q239 0 239 -189q0 -98 -69.5 -149.5t-176.5 -51.5q-161 0 -221 107q-20 37 -20 86q0 96 70.5 146.5t177.5 50.5z" />
    <glyph glyph-name="ogonek" unicode="&#x2db;" horiz-adv-x="555" 
d="M501 -384q-134 -62 -229.5 -62t-163.5 42t-68 122.5t118 202.5q51 52 119 104h136q-65 -42 -111 -96q-90 -102 -90 -164q0 -40 31.5 -55t81 -15t142.5 33z" />
    <glyph glyph-name="tilde" unicode="&#x2dc;" horiz-adv-x="958" 
d="M182 1319q62 47 139.5 47t222.5 -45t181.5 -45t80.5 23t49 24l20 -7q-39 -75 -107.5 -122.5t-150.5 -47.5t-197 44.5t-166.5 44.5t-94 -22t-55.5 -24l-19 7q35 76 97 123z" />
    <glyph glyph-name="hungarumlaut" unicode="&#x2dd;" horiz-adv-x="858" 
d="M292.5 1673.5q34.5 30.5 82 30.5t84.5 -28t37 -79t-128 -217q-191 -247 -244 -274l-14 14v5q0 46 63.5 251.5t74 236t45 61zM623.5 1673.5q34.5 30.5 82 30.5t84.5 -28t37 -84.5t-227 -337.5q-108 -133 -145 -148l-14 14v5q4 59 63.5 252t72 229.5t47 67z" />
    <glyph glyph-name="dotaccentcmb" unicode="&#x307;" horiz-adv-x="461" 
d="M141.5 263q-42.5 32 -42.5 82t46.5 84.5t93 34.5t94 -31t47.5 -74q0 -89 -91 -119q-25 -9 -65 -9t-82.5 32z" />
    <glyph glyph-name="uni030F" unicode="&#x30f;" horiz-adv-x="861" 
d="M406 1106q-45 18 -180.5 193t-163.5 229.5t-28 87t36.5 60.5t82.5 28t82 -28.5t48 -64.5q51 -150 93.5 -308t43.5 -178v-5zM737 1106q-45 18 -180.5 193t-163.5 229.5t-28 87t36.5 60.5t82.5 28t82 -28.5t48 -64.5q56 -163 96 -312t41 -174v-5z" />
    <glyph glyph-name="uni0311" unicode="&#x311;" horiz-adv-x="994" 
d="M93 60q4 169 113 263t293.5 94t296 -93.5t115.5 -263.5h-133q-8 84 -87 131t-189 47q-163 0 -241 -90q-30 -35 -35 -88h-133z" />
    <glyph glyph-name="uni0326" unicode="&#x326;" horiz-adv-x="459" 
d="M207 27q-117 5 -117 91q0 51 44 79t102 28q127 0 139 -126q0 -89 -57 -154t-140 -65q-39 0 -39 23q0 16 15 28q51 41 53 96z" />
    <glyph glyph-name="endash" unicode="&#x2013;" horiz-adv-x="841" 
d="M132.5 263q-22.5 16 -22.5 44.5t25 47t60 18.5h474q34 0 57 -16t23 -44.5t-25 -47t-61 -18.5h-474q-34 0 -56.5 16z" />
    <glyph glyph-name="emdash" unicode="&#x2014;" horiz-adv-x="1214" 
d="M132.5 263q-22.5 16 -22.5 44.5t25 47t60 18.5h847q34 0 57 -16t23 -44.5t-25 -47t-61 -18.5h-847q-34 0 -56.5 16z" />
    <glyph glyph-name="quoteleft" unicode="&#x2018;" horiz-adv-x="461" 
d="M258 1151q117 -5 117 -91q0 -50 -44.5 -78.5t-101.5 -28.5q-127 0 -139 126q0 89 57 154t141 65q38 0 38 -23q0 -16 -16 -29q-50 -42 -52 -95z" />
    <glyph glyph-name="quoteright" unicode="&#x2019;" horiz-adv-x="467" 
d="M374 1172q0 -89 -57 -154t-141 -65q-38 0 -38 23q0 16 16 29q50 42 52 95q-117 6 -117 90q0 51 44 79.5t102 28.5q127 0 139 -126z" />
    <glyph glyph-name="quotesinglbase" unicode="&#x201a;" horiz-adv-x="399" 
d="M99 123q0 55 27 91t77 36t78.5 -36t28.5 -83l-70 -442q-2 -19 -12 -33.5t-25 -14.5q-29 0 -34 44z" />
    <glyph glyph-name="quotedblleft" unicode="&#x201c;" horiz-adv-x="826" 
d="M258 1151q117 -5 117 -91q0 -50 -44.5 -78.5t-101.5 -28.5q-127 0 -139 126q0 89 57 154t141 65q38 0 38 -23q0 -16 -16 -29q-50 -42 -52 -95zM623 1151q117 -5 117 -91q0 -50 -44.5 -78.5t-101.5 -28.5q-127 0 -139 126q0 89 57 154t140 65q39 0 39 -23q0 -16 -15 -28
q-51 -41 -53 -96z" />
    <glyph glyph-name="quotedblright" unicode="&#x201d;" horiz-adv-x="832" 
d="M739 1172q0 -89 -57 -154t-140 -65q-39 0 -39 23q0 16 15 28q51 41 53 96q-117 6 -117 90q0 51 44 79.5t102 28.5q127 0 139 -126zM374 1172q0 -89 -57 -154t-141 -65q-38 0 -38 23q0 16 16 29q50 42 52 95q-117 6 -117 90q0 51 44 79.5t102 28.5q127 0 139 -126z" />
    <glyph glyph-name="quotedblbase" unicode="&#x201e;" horiz-adv-x="799" 
d="M99 123q0 55 27 91t77 36t78.5 -36t28.5 -83l-70 -442q-2 -19 -12 -33.5t-25 -14.5q-29 0 -34 44zM499 123q0 55 27 91t77 36t78.5 -36t28.5 -83l-70 -442q-2 -19 -12 -33.5t-25 -14.5q-29 0 -34 44z" />
    <glyph glyph-name="dagger" unicode="&#x2020;" horiz-adv-x="845" 
d="M791 792q-26 0 -26 46q-6 45 -49 45h-210v-698q0 -50 66 -58t75.5 -16.5t9.5 -20.5q0 -94 -192 -94l-104 3q-163 0 -163 91q0 29 72 34q31 3 39 6q39 14 39 55v698h-220q-33 0 -43 -25q-7 -16 -9.5 -31.5t-4.5 -24.5t-18 -9q-57 0 -57 124v37q0 69 11 110.5t46 41.5
q20 0 26 -45.5t49 -45.5l220 -1v206q0 54 -65 60.5t-75 13.5t-10 20q0 94 180 94l102 -3q177 0 177 -91q0 -24 -45 -29q-17 -2 -38 -4q-68 -6 -68 -61v-206h210q27 0 35 13.5t10.5 20.5t5.5 22t6.5 25t18.5 10q57 0 57 -133v-36q0 -107 -27 -132q-12 -12 -31 -12z" />
    <glyph glyph-name="daggerdbl" unicode="&#x2021;" horiz-adv-x="989" 
d="M867 351q-26 0 -26 45q-6 46 -49 46h-210v-257q0 -50 66 -58t75.5 -16.5t9.5 -20.5q0 -94 -192 -94l-104 3q-163 0 -163 91q0 29 72 34q31 3 39 6q39 14 39 55v257h-220q-33 0 -43 -25q-7 -16 -9.5 -31.5t-4.5 -24.5t-18 -9q-57 0 -57 111v32q0 68 11 109t46 41
q20 0 26 -45.5t49 -45.5l220 -1v350h-220q-33 0 -43 -25q-7 -16 -9.5 -31.5t-4.5 -24.5t-18 -9q-57 0 -57 111v32q0 68 11 109t46 41q20 0 26 -45.5t49 -45.5l220 -1v206q0 54 -65 60.5t-76 14.5q-9 7 -9 19q0 94 180 94l102 -3q177 0 177 -91q0 -24 -45 -29q-17 -2 -38 -4
q-68 -6 -68 -61v-206h210q27 0 35 13.5t10.5 20.5t5.5 22t6.5 25t18.5 10q57 0 57 -119v-51q0 -123 -58 -123q-26 0 -26 46q-6 45 -49 45h-210v-350h210q27 0 35 13.5t10.5 20.5t5.5 22t6.5 25t18.5 10q57 0 57 -119v-51q0 -123 -58 -123z" />
    <glyph glyph-name="bullet" unicode="&#x2022;" horiz-adv-x="775" 
d="M93 667q0 126 85 206t214.5 80t209 -80.5t79.5 -205.5t-80.5 -205.5t-208.5 -80.5t-213.5 80t-85.5 206z" />
    <glyph glyph-name="ellipsis" unicode="&#x2026;" horiz-adv-x="2052" 
d="M137.5 32q-42.5 32 -42.5 82.5t46 84.5t93 34t94.5 -31t47.5 -74q0 -90 -91 -120q-23 -8 -64 -8t-83.5 32zM1082 224q90 -32 90 -112q0 -45 -42 -78.5t-98 -33.5t-98.5 32t-42.5 81.5t44.5 84t83.5 34.5t63 -8zM1878 224q90 -32 90 -112q0 -45 -42 -78.5t-98 -33.5
t-98.5 32t-42.5 81.5t44.5 84t83.5 34.5t63 -8z" />
    <glyph glyph-name="guilsinglleft" unicode="&#x2039;" horiz-adv-x="732" 
d="M157 372q-115 109 -115 148t106 136t239.5 184.5t169 87.5t59.5 -17t24 -42q0 -70 -236 -252q-85 -66 -137 -95q72 -39 168.5 -126.5t127.5 -119.5q77 -79 77 -110.5t-21.5 -50.5t-47.5 -19t-75 26q-173 91 -339 250z" />
    <glyph glyph-name="guilsinglright" unicode="&#x203a;" horiz-adv-x="728" 
d="M614.5 628q77.5 -74 77.5 -110.5t-105.5 -137t-239.5 -192.5t-169.5 -92t-59.5 17t-24 43q0 72 236 266q79 66 137 100q-127 69 -296 233q-77 75 -77 103.5t20.5 49t47.5 20.5q73 0 303 -172q72 -54 149.5 -128z" />
    <glyph glyph-name="fraction" unicode="&#x2044;" horiz-adv-x="816" 
d="M108 50q-26 -39 -55.5 -39t-49 14.5t-19.5 38.5t14 47l719 1170q28 46 60 46q67 0 67 -55q0 -24 -17 -52z" />
    <glyph glyph-name="foursuperior" unicode="&#x2074;" horiz-adv-x="759" 
d="M127 291q-35 0 -64.5 18.5t-29.5 40t2.5 34t9 26.5t10 21t14 23.5t50.5 83t152 227t127 185.5q102 0 124.5 -23.5t29 -53t6.5 -85.5v-381q33 3 60 3q103 0 103 -57q0 -63 -97 -63l-66 3v-169q9 -6 36 -12q62 -16 62 -42q0 -70 -133 -70h-92q-135 0 -135 70q0 27 74 45
q18 5 26 9v167h-269zM396 405q0 61 3 183t3 183q-154 -269 -207 -366h201z" />
    <glyph glyph-name="Euro" unicode="&#x20ac;" horiz-adv-x="1665" 
d="M68 773q-26 0 -45 19.5t-19 44.5t19 44.5t45 19.5h800q26 0 45 -19.5t19 -44.5t-19 -44.5t-45 -19.5h-800zM68 503q-26 0 -45 19.5t-19 44.5t19 44.5t45 19.5h800q26 0 45 -19.5t19 -44.5t-19 -44.5t-45 -19.5h-800zM1454 262q78 63 101.5 86.5t42 23.5t35 -14t16.5 -34
t-11 -45h1q-81 -144 -259 -225.5t-368 -81.5q-296 0 -517 138t-294 374q-29 95 -29 192q0 302 211 509q109 107 271.5 167.5t348.5 60.5t336.5 -50.5t210.5 -146.5q27 -43 27 -100t-46 -93t-108 -36t-91 10q-11 156 -90 232t-238 76q-290 0 -454 -177q-148 -158 -148 -404.5
t174 -419.5t471 -173q246 0 407 131z" />
    <glyph glyph-name="trademark" unicode="&#x2122;" horiz-adv-x="2050" 
d="M954 1302q0 16 -50 25t-50 24q0 54 123 54q47 0 70 -10.5t38 -38.5l314 -565q72 126 141.5 238.5t159.5 263.5v-1q5 8 15 27.5t17 31t18 25.5q23 28 58 28h43q109 0 109 -53q0 -15 -51 -24t-51 -25v-632q0 -19 51 -25t51 -23q0 -55 -118 -55l-47 2l-49 -2q-117 0 -117 55
q0 15 49.5 22.5t49.5 25.5v531q-172 -311 -234.5 -418.5t-93.5 -122.5q-12 -5 -24 -5t-18.5 3.5t-13 11t-9.5 12t-9 16t-7 12.5l-260 428v-468q0 -19 51.5 -26t51.5 -22q0 -54 -111 -54l-43 1l-46 -2q-108 0 -108 55q0 15 25 19t50 8.5t25 20.5v632zM439 569l-69 -1
q-57 0 -90 11t-33 43q0 16 50 25t50 24v659h-174q-34 0 -55 -66.5t-51 -66.5q-46 0 -46 55q0 86 39 133q15 18 38 20q160 2 260 2h107q101 0 261 -2q35 -3 56 -47t21 -102.5t-46 -58.5q-40 0 -54.5 66.5t-51.5 66.5h-175v-659q0 -17 25.5 -22l51 -10t25.5 -21.5t-10 -27
t-30 -14.5q-30 -7 -84 -7h-15z" />
    <glyph glyph-name="s.alt" horiz-adv-x="984" 
d="M62 196q0 101 101 101q50 0 77.5 -24t48.5 -67.5t39 -61.5q53 -53 152 -53q244 0 244 128q0 98 -202 167q-168 57 -231 84q-208 89 -208 242q0 177 231 243q86 24 147 24q232 0 336 -63q74 -45 74 -114q0 -45 -27 -68.5t-57 -23.5q-96 0 -118 63q-36 103 -167 103
t-195 -50q-37 -28 -37 -70q0 -64 102 -114q53 -25 146 -56q225 -77 302 -136q102 -78 102 -194q0 -182 -237 -252q-93 -28 -187 -28t-175 20q-162 39 -229 125q-32 41 -32 75z" />
    </font>
</defs>
</svg>
