<?xml version="1.0" standalone="no"?>
<!DOCTYPE svg PUBLIC "-//W3C//DTD SVG 1.1//EN" "http://www.w3.org/Graphics/SVG/1.1/DTD/svg11.dtd" >
<svg xmlns="http://www.w3.org/2000/svg" xmlns:xlink="http://www.w3.org/1999/xlink" version="1.1">
<metadata>
Created by FontForge 20161013 at Sun Feb 27 18:44:19 2011
 By ,,,
Copyright (c) 2010 by Font Diner, Inc DBA Tart Workshop. All rights reserved.
</metadata>
<defs>
<font id="CraftyGirls" horiz-adv-x="788" >
  <font-face 
    font-family="Crafty Girls"
    font-weight="400"
    font-stretch="normal"
    units-per-em="1024"
    panose-1="2 0 0 0 0 0 0 0 0 0"
    ascent="819"
    descent="-205"
    x-height="493"
    cap-height="697"
    bbox="-297 -461 1286 999"
    underline-thickness="51"
    underline-position="-152"
    unicode-range="U+0020-FB02"
  />
<missing-glyph horiz-adv-x="389" 
 />
    <glyph glyph-name=".notdef" horiz-adv-x="389" 
 />
    <glyph glyph-name=".null" horiz-adv-x="0" 
 />
    <glyph glyph-name="nonmarkingreturn" horiz-adv-x="341" 
 />
    <glyph glyph-name="space" unicode=" " horiz-adv-x="389" 
 />
    <glyph glyph-name="exclam" unicode="!" horiz-adv-x="225" 
d="M230 650q0 -19 -5 -33t-12.5 -25t-16.5 -21.5t-16 -21.5q-25 -63 -45 -143.5t-25 -163.5q-1 -11 -1 -22q0 -6 1 -11v-6q0 -13 -2 -24q-3 -14 -9.5 -22.5t-22.5 -8.5q-18 1 -24 17q-5 13 -5 31v6q1 22 6 45.5t7 41.5q4 35 9.5 73.5t13.5 76.5t18.5 73t25.5 64q3 6 11.5 21
t19 30t21 27t18.5 12q3 1 6 1q9 0 15 -5q7 -6 12 -12zM90 -42q-12 3 -22 8.5t-18 11.5q1 4 1 7q0 6 -2 9q-3 3 -3 10v4q11 22 27 22h3q17 -2 29 -15q10 -12 10 -28v-2q-1 -18 -25 -27z" />
    <glyph glyph-name="quotedbl" unicode="&#x22;" horiz-adv-x="226" 
d="M210 614q-4 -15 -4 -35q0 -8 1 -17q2 -32 3 -62v-10q0 -24 -4 -42q-5 -22 -24 -25h-6q-12 0 -17 7q-6 9 -7 23v8q0 11 2 23q2 16 4 30q1 14 1 27q0 17 -1 34q-1 6 -1 11q0 22 9 35q14 5 23 5h3q10 -1 18 -12zM72 616q-7 -15 -7 -36q0 -7 1 -15l6 -62v-23q0 -18 -2 -33
q-4 -26 -26 -33q-15 2 -18 13t-11 18q4 15 4 35v5q-1 22 -2 45q-1 15 -1 30q0 7 1 14q0 21 5 34t17 17h5q11 0 28 -9z" />
    <glyph glyph-name="numbersign" unicode="#" horiz-adv-x="498" 
d="M524 433q-5 -7 -8.5 -15t-8.5 -15q-21 -1 -44 -1h-48l-8 -39q-5 -28 -11 -55t-12 -56q20 1 39 2t37 3q11 -10 15 -29v-9q0 -13 -8 -22q-23 -3 -47 -4l-48 -2q-5 -27 -11 -43.5t-11 -32.5t-9 -35.5t-5 -51.5q-10 -6 -24 -15q-8 -5 -15 -5q-6 0 -12 4q-3 8 -9 8v10
q0 17 3 28q3 14 7.5 26t8.5 26q3 11 3 29v9q5 11 8.5 21.5t6.5 21.5q-35 0 -69 0.5t-67 1.5q-2 -10 -4.5 -20.5t-5.5 -23.5q-5 -22 -7.5 -38t-5.5 -31t-8 -30.5t-14 -35.5q-11 -7 -20 -7q-1 -1 -2 -1q-8 0 -14 4q-8 3 -14.5 9.5t-12.5 13.5q10 25 17 44.5t12 37.5t9 36.5
t9 41.5h-20q-9 0 -21 -2t-23 -2t-21 3.5t-16 14.5q1 28 20 40q23 1 46 1.5t47 0.5q8 38 15.5 75t15.5 79h-15q-11 0 -29 -2q-14 -2 -26 -2h-9q-17 1 -27 9q-6 5 -6 15q0 6 2 13q2 6 8 8.5t13 4t14 3.5t11 7q19 -2 38 -3t38 -1q6 19 11.5 37.5t11 38t9 41t4.5 47.5
q4 3 10.5 7.5t13 7.5t14.5 4h2q6 0 11 -3q1 -8 9 -8v-10q0 -17 -2 -28q-4 -14 -8.5 -26t-8.5 -25q-3 -11 -3 -28v-9q-9 -23 -15 -45q37 1 71.5 3.5t66.5 4.5l8 36q5 22 7.5 38t5.5 30t7.5 29.5t13.5 35.5q11 7 20 8h2q8 0 15 -3q8 -4 14.5 -10.5t11.5 -13.5
q-16 -39 -26.5 -75.5t-18.5 -75.5q14 0 29 1h4q12 0 23 -2q12 -3 23 -9t17 -20zM355 402h-136q-5 -29 -10.5 -58.5t-16.5 -56.5q-2 -11 -2.5 -20t-1.5 -17h136q2 16 6 32.5t12 36.5q2 21 5 42t8 41z" />
    <glyph glyph-name="dollar" unicode="$" horiz-adv-x="358" 
d="M382 162q1 -10 1 -19q0 -23 -5 -42q-8 -28 -23 -50t-36.5 -38.5t-45.5 -28.5q-14 0 -25 -2t-19 -8q9 -17 9 -33v-1q-1 -17 -8.5 -27t-21.5 -11q-2 -1 -3 -1q-13 0 -29 11q-1 6 -1 13t1 15t1 17q0 8 -1 17q-14 16 -36 22.5t-42 15.5q-28 26 -41 69q-8 27 -8 57q0 16 2 33
q9 9 17 19t17.5 18.5t22.5 14.5q10 4 25 4h6q5 -10 11 -18.5t8 -21.5q-11 -9 -20.5 -16t-16 -16t-9.5 -20q-2 -7 -2 -16q0 -6 1 -13q3 -24 21 -40t43 -23q20 -7 42 -7q5 0 9 1q27 1 47 12q17 15 30 34t20 44q-2 36 -11.5 62t-29.5 38q-17 35 -43.5 61t-56.5 49.5t-59.5 46.5
t-52.5 52q-3 20 -14 31.5t-20 25.5q5 5 5 10q0 3 -1 6q-4 7 -4 14v4q2 27 15.5 50.5t21.5 46.5q12 3 20.5 9.5t17.5 13t19 11.5t24 6q-2 21 -6 39.5t-12 32.5q3 7 9 11t9 11q8 2 15 2q13 0 19 -8q8 -12 11.5 -31t6.5 -39.5t17 -29.5q8 -6 20.5 -7t23.5 -9t18.5 -19t18.5 -15
q3 -14 8.5 -25.5t10.5 -23t8 -23.5q2 -7 2 -16q0 -6 -1 -12q-7 -13 -17.5 -21.5t-16.5 -22.5q-17 4 -29 12t-18 23q2 11 9 16t10 15q-1 23 -12 41.5t-27.5 30t-36.5 15.5q-8 1 -15 1q-13 0 -25 -4q-21 -8 -32 -25t-24 -34q3 -10 3 -18v-5q-1 -4 -1 -9q0 -6 1 -15
q11 -16 22.5 -32t24.5 -30.5t29 -25.5t37 -18q69 -61 128 -144q15 -21 26.5 -44t13.5 -46z" />
    <glyph glyph-name="percent" unicode="%" horiz-adv-x="425" 
d="M393 695q25 -15 27 -33v-5q0 -15 -9 -31q-10 -19 -25.5 -36.5t-22.5 -31.5q-5 -8 -5.5 -18t-4.5 -19q-12 -27 -27 -51.5t-28.5 -49.5t-25 -52t-16.5 -58q-6 -5 -10.5 -12.5t-9.5 -14.5q-12 -47 -29 -88t-36.5 -80t-39.5 -78t-36 -81q-10 -3 -18 -3q-6 0 -11 2
q-13 3 -24 11q-1 6 -1 12q0 30 24 38v6q0 13 8 19q9 6 16 15q42 103 85 202.5t78 202.5q13 13 22.5 30t17.5 35t16 36.5t18 35.5q-24 -4 -47 -8q-16 -3 -34 -3q-9 0 -19 1q0 -26 -8 -51t-23 -45t-35.5 -33t-44.5 -15q-6 -1 -11 -1q-35 0 -59 24q-29 26 -40 67q5 42 20 66.5
t47 43.5q13 8 26.5 19t30.5 12q12 0 22.5 -5t20 -12t19 -15t21.5 -12q9 -3 17 -4t16 -1q7 0 14.5 -0.5t16.5 -4.5q20 4 36 12t29.5 18t26 21.5t25.5 22.5zM156 598q-15 5 -28 5q-5 0 -10 -1q-18 -3 -30.5 -12t-18.5 -23q-4 -10 -4 -22v-7q3 -20 14.5 -28.5t26.5 -8.5
q14 0 28.5 7.5t24 21t10.5 31.5v1q0 17 -13 36zM440 76q1 -8 1 -15q0 -11 -2 -20q-3 -16 -3 -35q-9 -15 -23.5 -28t-34 -20.5t-42.5 -8.5h-5q-21 0 -42 7q-5 11 -13 19.5t-15.5 17t-13 18t-5.5 22.5q0 15 5.5 29t13.5 27.5t17.5 26t17.5 24.5q11 0 19 3t14.5 6.5t13.5 5.5
q5 1 10 1h6q14 -1 26 -9t22 -19t18.5 -25t14.5 -27zM376 80q-11 15 -23 17h-4q-11 0 -20 -7q-11 -8 -18.5 -23.5t-7.5 -33.5q11 -22 29 -25q4 -1 8 -1q13 0 25 8q14 9 20 27q1 5 1 10q0 14 -10 28z" />
    <glyph glyph-name="ampersand" unicode="&#x26;" horiz-adv-x="684" 
d="M748 447q8 -27 8 -51q0 -20 -6 -38q-13 -38 -44 -62t-76 -33q-27 -5 -56 -5q-20 0 -40 2q21 -41 21 -81q0 -14 -2 -27q-10 -53 -41 -97t-75.5 -76t-86.5 -46q-15 2 -28 2t-24 -2q-23 -4 -48 -4q-109 1 -169 62.5t-65 168.5v13q0 34 9 64q11 34 28 64.5t37.5 58.5t38.5 57
q11 2 17 9.5t17 10.5q-9 16 -17.5 31.5t-16.5 32.5q1 44 18 85.5t47 72t71 44.5q22 8 46 8q20 0 42 -6q12 -3 21.5 -9t18 -13t17.5 -14.5t20 -13.5q6 1 9.5 6t5.5 10.5t4.5 11t7.5 8.5q8 4 18 4h9q15 -3 23 -10q1 -7 1 -14q0 -10 -3 -19q-5 -15 -13.5 -28t-18.5 -25t-16 -25
q-7 -29 -17 -54.5t-23 -48.5q-7 -2 -13 -2q-12 0 -17 8q-8 10 -8 27q0 16 6 34.5t12 29.5q-3 30 -19.5 47t-34.5 33q-7 1 -14 1q-25 0 -51 -9q-33 -11 -55 -35q-21 -24 -28 -51q-4 -13 -4 -25q0 -13 4 -24q8 -23 32 -36q17 -9 44 -9q10 0 22 1q10 -13 10 -24q0 -3 -1 -6
q-4 -13 -16.5 -21t-29.5 -10q-7 -1 -14 -1q-10 0 -19 2q-22 -8 -42.5 -27t-37.5 -44q-20 -28 -37 -62.5t-24 -71.5q-5 -21 -5 -41q0 -18 4 -36q6 -40 32 -79q10 -11 22.5 -19.5t23.5 -17.5q47 -19 96 -19q4 0 8 1q53 1 99 19.5t80.5 53t47.5 82.5q6 21 6 41q0 15 -3 29
q-9 31 -26 60q-12 5 -21.5 10t-19 8t-19.5 5q-7 1 -16 1h-8q-14 -1 -31.5 -9t-33.5 -13q-11 -3 -20 -3q-5 0 -9 1q-13 3 -16 24v6q0 17 14 27q16 11 40 16.5t49.5 8t40.5 5.5q18 -11 46.5 -20.5t61.5 -14.5q29 -5 58 -5q3 0 6 1q32 0 57.5 9.5t40.5 29.5q12 17 12 43
q0 5 -1 11q-12 6 -25 10.5t-22 12.5q-12 -2 -24.5 -6.5t-23.5 -6.5q-4 -1 -9 -1q-6 0 -12 2q-10 3 -18 15q5 31 30 43q20 9 45 9h9q30 -2 58.5 -14t41.5 -28z" />
    <glyph glyph-name="quotesingle" unicode="'" horiz-adv-x="96" 
d="M69 618q3 -25 7 -53.5t5 -55.5v-5q0 -24 -5 -45q-5 -23 -20 -37q-10 5 -21 9t-19 11v12q0 15 2 28q2 18 4 35q2 13 2 26v6q-1 16 -8 33q4 25 16 34q7 4 19 4q8 0 18 -2z" />
    <glyph glyph-name="parenleft" unicode="(" horiz-adv-x="321" 
d="M311 805q11 -6 14 -15v-8q0 -6 -2 -12q-4 -11 -12.5 -21.5t-19.5 -17.5q-1 -1 -3 -1q-1 0 -3 1q-3 1 -4 1q-2 0 -3 -1q-6 -4 -20 -17.5t-29 -29.5t-27 -31t-14 -22q-1 -4 -1 -7t1 -5v-12q-10 -3 -15 -10.5t-12 -12.5q-15 -45 -24 -90t-20 -94q-5 -22 -11.5 -43t-8.5 -44
q-1 -12 -1 -24q0 -21 3 -44q3 -36 11 -72t19.5 -71t24.5 -66q5 -12 15 -23t19 -24q10 -14 18 -28.5t17.5 -27t21.5 -22.5t29 -16q5 -15 5 -26q0 -5 -1 -8q-3 -13 -20 -22q-9 0 -14 4q-3 3 -9 3q-3 0 -7 -1q-48 42 -85.5 100.5t-61.5 129t-32 150.5q-3 30 -3 61q0 50 8 101
q9 16 12.5 32.5t5.5 33t6.5 32t15.5 29.5v3q0 5 -2 8q-2 2 -2 5t1 7q26 87 73.5 151.5t113.5 112.5q8 -2 12 -2q3 0 5 1q4 2 16 5z" />
    <glyph glyph-name="parenright" unicode=")" horiz-adv-x="357" 
d="M306 221q-7 -60 -25.5 -113t-44 -100.5t-55 -88.5t-59.5 -75q-16 1 -26 7t-17 16q1 33 15 47.5t31 26.5q2 7 6.5 12.5t8.5 11t7 12.5q2 4 2 12v5q15 10 25 26t18 34t15.5 36.5t18.5 33.5q2 25 7.5 45t12.5 39q-4 16 -4 31q0 14 3 28q6 29 8 58q1 13 1 26q0 53 -13 103
q-17 61 -35 118l-36 58t-38 56q-10 14 -34 23t-46.5 19.5t-35.5 26.5q-7 8 -7 18q0 11 6 23q9 3 17 3h8q4 -1 8 -1q7 0 14 2q9 -6 17 -14t16 -13q14 -8 28.5 -10t28.5 -14q35 -28 62.5 -70t48.5 -90q9 -23 17.5 -51t22.5 -56q3 -61 7 -125q1 -22 1 -44q0 -45 -5 -92z" />
    <glyph glyph-name="asterisk" unicode="*" horiz-adv-x="387" 
d="M371 481q-5 -23 -21 -35.5t-36 -20.5t-41 -15.5t-35 -21.5q16 -17 29.5 -37l27 -40t28.5 -38.5t34 -32.5v-9q0 -24 -15 -35q-29 10 -49 29.5t-35.5 43t-30.5 48.5t-34 45q-20 -15 -32 -36.5t-23 -45t-23.5 -45t-32.5 -36.5q-16 5 -22 19t-11 29q19 12 31.5 29t22.5 37.5
t18.5 41.5t19.5 41q-11 15 -29 23.5t-37 16t-35.5 17.5t-24.5 28q5 2 6.5 8t4.5 11q36 -10 69.5 -22t60.5 -30q6 21 6 43v4q-1 24 -3 49.5t-3 53.5v9q0 23 4 48q10 10 21 10q4 0 8 -1q16 -5 19 -23q-6 -23 -6 -48t2.5 -51.5t5.5 -52.5q2 -20 2 -39v-13h4q23 0 40 10
q19 11 36 23t35 20q8 3 18 3q11 0 23 -4z" />
    <glyph glyph-name="plus" unicode="+" horiz-adv-x="509" 
d="M494 323q-7 -11 -17 -18.5t-20 -15.5q-18 6 -41 8q-17 1 -35 1h-12q-25 -1 -50.5 -3t-48.5 -2q-6 -24 -7 -48v-17q0 -17 1 -33q2 -26 6 -52.5t7 -53.5q-7 -8 -13 -15t-14 -12h-4q-10 0 -16 4q-6 3 -16 3h-4q-2 24 -3 51t-1 56q-1 9 -1 18q0 19 1 38q1 28 4 54
q-18 3 -35 3q-8 0 -16 -1q-24 -2 -47 -5t-46 -5q-9 -1 -18 -1q-14 0 -29 2v5q0 8 -2 13q-2 4 -2 10q0 4 1 9q6 5 13 8.5t10 11.5q21 -6 42 -6q20 0 41 2l42 4q11 1 21 1q11 0 21 -1l4.5 40.5t4 47t1.5 49.5q0 24 -3 47q-1 8 -4 15q-3 5 -3 12v3q2 10 9.5 18t17.5 11q4 1 8 1
q6 0 11 -1q10 -4 18 -19q-5 -22 -5 -45q0 -3 1 -5q0 -26 2 -53t3 -55v-6q0 -25 -4 -50q28 -3 54 -3q29 0 57 4q53 7 106 9q2 -8 2.5 -18t7.5 -15z" />
    <glyph glyph-name="comma" unicode="," horiz-adv-x="159" 
d="M132 71q12 -16 12 -30v-7q-5 -18 -16 -34.5t-22 -33.5q-9 -13 -9 -28q0 -4 1 -8q-11 -5 -18 -15t-15 -18q-9 -3 -16 -3t-13 3q-12 4 -25 10q-6 10 -6 18v4q2 9 8.5 18t16 17t15.5 16q16 23 27.5 49.5t25.5 41.5h34z" />
    <glyph glyph-name="hyphen" unicode="-" horiz-adv-x="491" 
d="M467 295q-47 -5 -94 -5q-24 -1 -48 -1q-23 0 -47 1q-47 0 -93 2h-89q-9 0 -21 -2t-23 -2t-21 3t-16 14q1 29 20 40q48 3 103 3h110q55 0 109.5 1t102.5 6q11 -9 15 -28v-9q0 -13 -8 -23z" />
    <glyph glyph-name="period" unicode="." horiz-adv-x="109" 
d="M84 -5q-8 0 -13 -2t-10.5 -4.5t-11.5 -3.5q-3 -1 -6 -1q-4 0 -9 1q-17 9 -18 28v9q0 15 2 33q19 11 34 11h4q16 -2 26 -12t11 -26v-3q0 -15 -9 -30z" />
    <glyph glyph-name="slash" unicode="/" horiz-adv-x="538" 
d="M532 725q0 -6 -4.5 -14t-10.5 -17.5t-12 -19.5t-9 -19q-10 -26 -22 -53t-25 -52t-27 -46.5t-27 -35.5q-56 -117 -130 -214q-52 -91 -103 -182t-108 -179q-6 -3 -17 -5q-4 -1 -8 -1q-5 0 -8 2q-12 13 -14 24q-2 4 -2 8q0 6 3 11q3 9 10.5 18t15.5 20q26 36 50 76.5
t47.5 81.5t46.5 79.5t47 69.5v10q1 4 3 7q53 80 101.5 162.5t95.5 168.5q0 11 3 17.5t4 15.5q14 18 23.5 39t13.5 48q16 11 32 11q5 0 10 -1q21 -5 21 -30z" />
    <glyph glyph-name="zero" unicode="0" horiz-adv-x="586" 
d="M557 458q3 -66 4 -135v-9q0 -64 -7 -117q-17 -36 -35.5 -73.5t-42.5 -70.5t-55 -58.5t-74 -35.5q-25 -6 -50 -6q-21 0 -42 4q-47 9 -92 23q-34 17 -59 42t-48 54q-30 104 -30 217q-1 2 -1 4q0 111 31 224q26 47 60.5 84t79.5 63q13 5 23.5 7.5t20.5 5.5q22 6 41 17
q20 6 39 6q24 0 47 -10q39 -18 72 -46q11 -9 21.5 -18.5t19.5 -18.5q13 -12 25 -29.5t22 -38t17.5 -42.5t12.5 -43zM505 415q-4 8 -6 14t-2 13q-1 7 -1 15t-1 19q-14 49 -43.5 81.5t-69.5 60.5q-12 9 -24.5 17.5t-26.5 17.5q-5 1 -11 1q-16 0 -30 -5q-19 -6 -37 -14
q-17 -8 -34.5 -17t-34.5 -16q-33 -25 -53.5 -64.5t-31.5 -87.5t-14 -101q-1 -27 -1 -54q0 -26 1 -52q4 -66 25 -120.5t64 -83.5q14 -5 22 -7.5t18 -13.5q16 0 29 -2.5t26 -4.5t27 -3q6 -1 13 -1q9 0 19 1q8 8 17 12q6 3 15 3q5 0 11 -1q47 32 76 81.5t51 105.5
q5 49 5.5 100.5t1.5 105.5z" />
    <glyph glyph-name="one" unicode="1" horiz-adv-x="328" 
d="M251 53q1 -21 4 -39q2 -10 2 -18q0 -7 -1 -13q-3 -13 -14 -19q-6 -3 -17 -3q-9 0 -21 2q-2 5 -5 10.5t-8 9.5q2 45 2 92q0 59 -3 122q-5 112 -6 237q-12 -9 -31 -22t-41.5 -22t-46.5 -10h-3q-22 0 -42 14v33q13 9 25 11h4q11 0 22 -7q19 5 34 13t29 17q11 23 25 42.5
t22 47.5q4 16 4.5 32.5t0.5 32.5q0 15 1 29.5t7 26.5q4 8 13 10h6q5 0 11 -1q8 -3 16 -7.5t11 -8.5v-22q0 -57 -4 -115q-5 -70 -6 -157q0 -35 1 -74.5t2.5 -80.5t3.5 -82.5t3 -80.5z" />
    <glyph glyph-name="two" unicode="2" horiz-adv-x="558" 
d="M538 10q5 -13 5 -23v-1q-1 -11 -6.5 -19.5t-13.5 -15t-18 -11.5q-12 8 -23.5 17t-23.5 20q-11 10 -20 17.5t-19 14.5t-22.5 13.5t-28.5 14.5q-11 5 -24 12q-12 5 -21 5h-2q-12 -1 -24.5 -10.5t-25.5 -22.5t-27 -26t-30 -21q-14 -7 -26.5 -8.5t-23.5 -5.5q-9 -3 -18 -9
t-19 -7h-6q-20 0 -42 11q-26 12 -46 29q-3 15 -3 28q0 7 1 13q2 18 9 36q45 33 110 45q43 7 86 7q22 0 45 -2q24 19 49 49.5t47 68.5t38.5 80.5t22.5 85.5q6 42 6 85t-13 79q-16 45 -56 63t-94 24q-21 -6 -36.5 -9.5t-40.5 -7.5q-38 -26 -66.5 -62.5t-34.5 -94.5v-5
q0 -20 13 -35q14 -17 28.5 -32t21.5 -30q1 -5 1 -9q0 -12 -13 -26q-5 -1 -10 -1q-6 0 -10 2q-8 2 -14.5 5.5t-12.5 7.5t-14 6q-2 18 -12 27.5t-21 18.5q-11 35 -11 66q0 13 2 25q6 42 26.5 77.5t50.5 63t62 46.5q44 8 82 14q14 2 30 2q25 0 52 -6q47 -10 77.5 -36t47.5 -63
t22 -82q2 -24 2 -48q0 -22 -2 -45q-4 -46 -18.5 -90t-34 -83.5t-41 -73.5t-39.5 -61q25 -17 55 -28t58 -25q8 -18 24 -27t33 -17zM230 50q-11 7 -28 7q-18 0 -37 -3t-37 -8.5t-31 -8.5v-3q0 -5 -4 -6q-5 -2 -6 -8q3 0 3 -3v-7q15 -8 30 -8q4 0 9 1q18 3 35 11.5t33.5 19.5
t32.5 16z" />
    <glyph glyph-name="three" unicode="3" horiz-adv-x="584" 
d="M533 252q12 -41 12 -78q0 -38 -12 -72q-23 -68 -77 -115q-9 -8 -21 -16.5t-25 -17t-26 -15.5t-25 -11q-17 -6 -31 -7q-8 -1 -15 -1t-13 1q-14 1 -28 4.5t-30 6.5q-7 1 -15 1h-14q-8 0 -15 2q-12 4 -26.5 13.5t-28.5 21t-26 24.5t-19 25q-14 21 -23.5 47t-29.5 43
q4 7 11.5 15.5t17 14t20.5 6.5h3q9 0 18 -6q10 -3 10 -14v-1q-1 -5 -1 -9q0 -8 1 -16q9 -25 27 -47t43 -38.5t54 -26t60 -9.5q13 0 34 11t43 26.5t41 33.5t29 33q19 30 22 66v15q0 28 -7 56q-10 35 -30 65t-45 49q-21 -13 -49.5 -26t-59.5 -20q-24 -5 -47 -5q-9 0 -17 1
q-33 2 -61 20q-5 14 -5 29q0 11 3 22q5 28 15 49q19 14 46.5 21.5t56.5 8.5h6q25 0 49 -6q27 -8 46 -24q14 8 26 23t19.5 34t11.5 39q1 11 1 21q0 9 -1 17q-2 12 -9 29.5t-16.5 35.5t-20.5 33t-21 22q-15 10 -35 13q-11 1 -22 1q-9 0 -17 -1q-36 -5 -69 -26t-59.5 -51
t-46 -64.5t-29.5 -65.5h-2q-5 0 -6 -4q-1 -6 -5 -9q-31 6 -35 21q-1 5 -1 10q0 11 5 23q7 19 19.5 39t14.5 37q25 28 62 61.5t80.5 56.5t91.5 27h10q42 0 84 -28q15 -10 27 -27t22 -37t19.5 -42t18.5 -41q1 -11 1 -21q0 -18 -2 -33q-4 -25 -11.5 -45.5t-17.5 -38.5l-20 -36
q23 -29 44.5 -60t42.5 -63zM325 372q-17 4 -30 4q-14 0 -25.5 -1.5t-22 -4t-22.5 -5.5q-2 -6 -6 -15q-1 -4 -1 -7q0 -6 4 -11q15 2 30.5 3.5t29.5 5t25.5 10.5t17.5 21z" />
    <glyph glyph-name="four" unicode="4" horiz-adv-x="652" 
d="M636 207q-9 -18 -21 -21q-6 -2 -13 -2q-6 0 -12 1q-14 3 -28 10t-26 12q-5 -14 -6 -34v-42q1 -22 3 -44t4 -40q1 -9 2 -20.5t1.5 -22t1.5 -19.5v-5q0 -5 -1 -7q-3 -10 -14 -20.5t-24 -14.5q-7 -3 -13 -3t-11 2q-12 4 -16 23v6q0 11 5 24q6 16 7 30v12q0 12 -1 27
q-2 21 -3 41q-1 34 -2 66q-1 9 -1 17q0 23 3 45q-25 5 -54 16.5t-61 16.5q-12 2 -28 4t-31 3q-11 1 -21 1h-10q-15 -1 -26 -5q-14 -5 -24 -20.5t-20 -26.5q-11 -12 -21.5 -23t-19.5 -23q-21 -10 -48 -22t-54 -17q-14 -3 -27 -3q-12 0 -23 2q-24 5 -39 30q0 48 19.5 76.5
t51.5 43.5t72.5 21t82.5 9q22 32 36.5 76t21.5 91q6 41 6 83v12q-1 47 -10 86q8 8 16 15q6 5 19 5h7q21 -32 26 -77q2 -21 2 -44q0 -24 -2 -50q-6 -49 -19.5 -97.5t-28.5 -86.5q53 -7 102.5 -15t105.5 -21q16 94 16 183v25q-3 101 -7 203q5 7 13 9h15q7 -1 14 -4.5t11 -7.5
q5 -56 8 -108t4 -102v-17q0 -43 -2 -85q-3 -52 -9 -106q8 -13 25.5 -17.5t34.5 -9.5t30 -14q11 -8 11 -27v-3zM152 258q-20 -5 -44 -8t-43.5 -10.5t-31.5 -20.5q-11 -11 -11 -29q0 -4 1 -9q46 5 79 23.5t50 53.5z" />
    <glyph glyph-name="five" unicode="5" horiz-adv-x="561" 
d="M523 265q3 -17 3 -36q0 -12 -1 -26q-4 -33 -12 -59q-9 -30 -30 -60.5t-50 -56t-64 -43.5t-73 -23q-8 -2 -14 -6.5t-13 -7.5q-11 1 -22 1h-20q-14 0 -28 3q-2 -1 -4 -1t-2 1q-2 2 -2.5 4.5l-1 5t-3.5 3.5q-39 2 -69 18.5t-48 43.5t-22 62q-1 9 -1 18q0 27 9 55q9 12 28 32
t39 33q16 10 32 10q3 0 7 -1q19 -3 28 -37q-12 -12 -26.5 -22.5t-27 -22.5t-20.5 -29q-6 -14 -6 -33v-10q10 -18 26.5 -33t36.5 -25t42 -14q12 -3 25 -3q9 0 17 1q16 2 34.5 8t36.5 14.5t34.5 18.5t28.5 20q43 37 58 97q8 36 8 75q0 23 -3 48q-20 43 -52 73t-81 44
q-133 -3 -164 -107q-13 -5 -25 -5q-6 0 -11 2q-16 3 -24 20q-1 7 -1 14q0 10 2 19q4 15 5 30q1 18 1 37q0 34 -3 71q-6 57 -11 106q-2 16 -3 32v10q0 10 1 19q2 13 8.5 23.5t20.5 16.5q74 -6 148 -6h38q92 2 198 9q6 -4 10.5 -11.5t6.5 -16.5v-7q0 -5 -1 -10q-3 -9 -9 -15
q-42 0 -86 0.5t-89 0.5t-89.5 -1.5t-86.5 -6.5q4 -53 4.5 -101t5.5 -109q29 26 71 35q25 6 51 6q16 0 33 -2q42 -6 80.5 -24t61.5 -46q6 -8 16 -23t19 -33t16 -36t9 -31z" />
    <glyph glyph-name="six" unicode="6" horiz-adv-x="563" 
d="M527 490q-9 -4 -17 -4q-6 0 -11 3q-11 6 -19 14q-6 58 -37 88q-29 26 -82 26h-11q-7 0 -9 -5.5t-8 -7.5q-30 -4 -52 -16t-40.5 -27t-35.5 -32t-36 -32q-15 -28 -31.5 -58.5t-28 -64.5t-13.5 -71v-9q0 -33 13 -68q9 6 14 18.5t10 28.5q21 27 53.5 50t71.5 35q37 12 79 12
h4q43 -1 86 -20q7 -15 20 -25t26.5 -18.5t25.5 -18.5t18 -25q5 -14 6 -28v-7q0 -11 -1 -22q-2 -16 -3 -33v-12q0 -12 1 -25q-17 -38 -39.5 -70.5t-54 -54.5t-72.5 -30q-16 -3 -35 -3q-27 0 -59 7q-39 9 -67 22t-54 42q-38 42 -62 95.5t-38 118.5q-2 10 -7.5 20.5t-5.5 19.5
v6q0 15 4 29q5 16 13 31t17 29t16 28q10 44 31 77t49 59t61 47t66 41q21 2 42 6t41 7q15 2 30 2h10q19 -1 38 -8q23 -10 37.5 -26t35.5 -31q1 -14 6.5 -28t9.5 -27.5t4 -27.5t-10 -27zM467 216q-8 5 -10 16.5t-3 23.5q-13 10 -27 21t-30.5 20t-35.5 14q-12 3 -25 3
q-8 0 -16 -1q-87 -11 -121 -64q-26 -40 -26 -100q0 -19 3 -40q13 -25 39 -42t59 -24q24 -6 50 -6q9 0 18 1q35 2 68 14q6 12 13.5 23t14.5 22t13 23.5t9 28.5q2 12 2 24v13q0 15 5 30z" />
    <glyph glyph-name="seven" unicode="7" horiz-adv-x="599" 
d="M578 684q11 -15 11 -37v-3q-1 -25 -8.5 -52.5t-18 -54.5t-17.5 -47q-16 -42 -31 -81t-33 -66q8 -8 20 -12t24.5 -7t24 -7.5t18.5 -13.5q2 -8 2 -15q0 -14 -7 -21q-11 -10 -25 -18q-13 1 -23 8t-19.5 14.5t-18.5 12.5q-6 3 -13 3q-4 0 -9 -1q-7 -2 -16 -12.5t-18 -24.5
t-17 -28t-13 -22q-32 -47 -61 -89.5t-63 -87.5q-6 -8 -16.5 -20.5t-21.5 -24.5t-21.5 -20.5t-17.5 -8.5t-15 4t-14 11.5t-9 17.5q-3 6 -3 11q0 4 1 7q1 6 6.5 11t12.5 9.5t14 8.5t11 7q25 24 50.5 58.5t50.5 72.5t48.5 75.5t44.5 67.5q-9 9 -22 14.5t-25 11.5t-20.5 15
t-9.5 26q10 13 24 15q5 1 9 1q10 0 20 -3q14 -4 28.5 -11t25.5 -12q14 13 25 33.5t20 44.5t16.5 49.5t15.5 49.5q3 10 7.5 20t7.5 21t3 24q0 12 -5 26q-45 5 -99 9q-39 2 -78 2h-33q-57 -2 -111.5 -9.5t-99.5 -25.5q-8 -3 -14.5 -7.5t-13 -7.5t-14.5 -4h-3q-7 0 -15 3
q-12 12 -12 22q0 4 2 8q6 13 22.5 22.5t38.5 16.5t39 11q50 12 105 17q49 4 98 4h11q54 -1 105.5 -5t94.5 -10h7q4 0 8 1q5 1 9.5 2.5t9.5 2.5h3q4 0 10 -2z" />
    <glyph glyph-name="eight" unicode="8" horiz-adv-x="598" 
d="M573 157q-2 -32 -13.5 -57t-28.5 -45.5t-37 -38t-38 -32.5q-39 -11 -80 -23q-35 -11 -72 -11h-12q-45 3 -82 19.5t-72 30.5q-12 15 -26.5 29.5t-27.5 31t-23 35t-13 41.5q-2 15 -2 29q0 37 14 69q18 43 48 79q23 5 37 18.5t30 25.5q-39 18 -68.5 46.5t-35.5 73.5
q-1 7 -1 14q0 19 6 36q8 23 21 43.5t28 38.5t26 35q15 2 29.5 9t29 14.5t30 14.5t32.5 9q14 2 27 2q28 0 55 -7q39 -11 75 -18q12 -13 26 -23.5l28 -21t27 -22.5t22 -27q2 -19 2 -36q0 -32 -7 -56q-12 -38 -31 -68q-17 -11 -33.5 -21.5t-36.5 -18.5q27 -17 52 -35.5
t48 -38.5q7 -18 15.5 -35t16 -34t12.5 -35q3 -15 3 -32v-8zM476 552q-17 17 -37.5 35t-45.5 32t-53 21q-17 4 -35 4q-13 0 -27 -2q-23 -3 -48 -16.5t-46.5 -32t-36 -40t-16.5 -41.5v-9q0 -19 7 -35q9 -20 24.5 -35t35.5 -24t40 -11q22 -2 44 -2t46 2q46 5 82.5 23t56.5 50
q12 21 12 50q0 14 -3 31zM509 121q3 17 3 30t-2 24t-6 21t-8 22q-4 10 -7 21.5t-7 18.5q-15 29 -41.5 42t-59 18.5t-68 6.5t-68.5 6q-29 -12 -57.5 -29.5t-49.5 -43t-29 -58.5q-3 -12 -3 -25q0 -23 9 -48q4 -11 11.5 -19.5t15.5 -17.5t16 -18.5t13 -21.5q21 -8 40.5 -17
t40.5 -15.5t44 -9.5q9 -1 18 -1q15 0 31 3q20 7 38 12.5t34.5 11.5t32 14.5t29.5 21.5q6 14 14 26.5t16 24.5z" />
    <glyph glyph-name="nine" unicode="9" horiz-adv-x="535" 
d="M519 273q-12 -27 -23.5 -56.5t-25.5 -59.5t-31.5 -58.5t-40.5 -52.5q-6 -7 -12 -11t-14 -11q-9 -8 -23.5 -20t-31.5 -24t-35 -21t-34 -12q-4 -1 -8 -1q-6 0 -12 2q-11 3 -22 4h-7q-11 0 -22 -2q-10 -3 -17 -3q-4 0 -8 1q-15 3 -29.5 12t-27.5 14q-2 9 -2 17q0 11 4 20
q7 16 21 20q4 1 7 1h5q4 -2 8 -5.5t8.5 -7t12.5 -6.5q2 -1 4 -1q3 0 8 2q4 1 7 1t5 -1q16 -4 32 -4q19 0 37 6q33 11 61.5 33.5t52 52.5t39.5 59q21 38 36 88q10 35 10 70q0 15 -2 30q-12 -13 -23.5 -27.5t-25.5 -27t-33 -22.5t-46 -14q-21 -4 -42 -4q-7 0 -13 1
q-28 1 -54.5 6t-51 13t-44.5 17q-11 15 -26.5 21.5t-29.5 20.5q-23 24 -30 62q-4 22 -4 44q0 16 2 32q5 38 19.5 71.5t34.5 48.5q1 7 4 12q2 3 2 8v4q24 15 46 31t43 33q44 17 79 17q34 0 67 -12q11 -4 25 -6.5t18 -4.5q2 -2 3 -6t3 -6q8 -5 12.5 -7t14.5 -11
q27 -26 48 -53.5t38 -66.5q10 -23 17 -53t11 -63t6 -67v-67zM422 500q-3 30 -18 51.5t-36.5 38t-45 29.5t-42.5 24q-6 -1 -13 -1t-14 1q-5 1 -9 1q-9 0 -15 -4q-17 -8 -35.5 -19t-35 -23.5t-30 -26t-20.5 -25.5q-8 -15 -9.5 -33.5t-14.5 -31.5v-13q0 -33 8 -61
q10 -33 39 -53q16 -11 38.5 -21t46.5 -16.5t48 -8.5q10 -2 20 -2q12 0 23 2q34 6 57 26t36.5 47.5t18.5 59.5q4 22 4 43q0 8 -1 16z" />
    <glyph glyph-name="colon" unicode=":" horiz-adv-x="134" 
d="M114 403q5 -13 5 -25t-5 -24q-10 -23 -33 -25h-5q-20 0 -27 14q-6 10 -6 21q0 6 2 12q5 17 23 28q8 5 19 5q12 0 27 -6zM84 -5q-8 0 -13 -2t-10.5 -4.5t-11.5 -3.5q-3 -1 -6 -1q-4 0 -9 1q-17 9 -18 28v9q0 15 2 33q19 11 34 11h4q16 -2 26 -12t11 -26v-3q0 -15 -9 -30z
" />
    <glyph glyph-name="semicolon" unicode=";" horiz-adv-x="188" 
d="M173 401q-3 -7 -3.5 -15t-0.5 -18q-11 -12 -31 -18q-9 -3 -18 -3q-12 0 -24 4q-1 8 -5 13.5t-9 10.5q0 16 11 27.5t26 16.5q7 2 15 2q7 0 15 -2q15 -4 24 -18zM132 71q12 -16 12 -30v-7q-5 -18 -16 -34.5t-22 -33.5q-9 -13 -9 -28q0 -4 1 -8q-11 -5 -18 -15t-15 -18
q-9 -3 -16 -3t-13 3q-12 4 -25 10q-6 10 -6 18v4q2 9 8.5 18t16 17t15.5 16q16 23 27.5 49.5t25.5 41.5h34z" />
    <glyph glyph-name="less" unicode="&#x3c;" horiz-adv-x="499" 
d="M461 556q11 -8 13 -18v-5q0 -8 -4 -15q-5 -10 -14.5 -16.5t-21.5 -6.5q-37 -27 -78 -49.5t-83.5 -43.5t-85.5 -41.5t-84 -42.5q43 -19 83 -40t80.5 -42.5t82.5 -41.5t88 -36q4 -16 7 -26q2 -6 2 -13q0 -6 -2 -15q-8 -6 -18.5 -9t-21.5 -7q-7 9 -16.5 15.5t-17.5 14.5
q-35 13 -66.5 29t-62 33l-61 34t-64.5 31h-16l-14 -4q-6 12 -18.5 17.5t-26 10t-26 10t-19.5 16.5q-1 6 -1 11q0 10 4 17q5 11 15.5 18t23.5 11.5t25 9.5q25 10 51.5 23.5t53 27.5t53 26.5t52.5 19.5q22 13 43 27.5t43 28t47 24.5t55 17z" />
    <glyph glyph-name="equal" unicode="=" horiz-adv-x="518" 
d="M512 386q-5 -6 -8 -14t-8 -16h-371q-11 0 -30 -2q-12 -2 -23 -2q-7 0 -13 1q-17 1 -27 9q-6 5 -6 15q0 6 2 13q2 6 8 8.5t13.5 4t14.5 3.5t11 7q49 -5 97 -5q35 0 69 3q80 6 148 9q13 -3 27 -3h43q17 -2 31 -8t22 -23zM487 196q-46 -5 -93 -6h-95q-48 1 -94 2
q-23 1 -45 1t-44 -1q-9 0 -20.5 -2t-22.5 -2t-21 3.5t-16 14.5q2 30 20 40q48 3 103 3h110q55 0 109 1t103 6q11 -10 15 -29v-8q0 -14 -9 -23z" />
    <glyph glyph-name="greater" unicode="&#x3e;" horiz-adv-x="482" 
d="M487 294q-9 -10 -22.5 -16t-28.5 -10t-30.5 -7.5t-28.5 -9.5q-28 -12 -60.5 -26t-65.5 -30t-65 -33t-60 -35q-8 -5 -21.5 -13.5t-27.5 -12.5q-9 -2 -16 -2q-6 0 -10 1q-12 3 -15 20q-1 4 -1 7q0 10 7 19q9 11 23 20.5t29.5 16t24.5 11.5q32 15 56.5 24t50.5 23
q5 7 13.5 11t13.5 12q32 5 55.5 18t48.5 25q-15 16 -34 26.5t-39.5 19.5l-41 18t-39.5 20q-9 5 -15.5 13.5t-14.5 13.5q-20 11 -41.5 20t-42.5 18.5t-39.5 21.5t-33.5 30q-1 4 -1 8q0 8 3 13l8 16q18 0 34 -6t31 -14.5t30 -18.5t32 -18q20 -11 41.5 -21.5t41.5 -22.5
q42 -24 85.5 -42t85.5 -41q17 -9 35.5 -20t41.5 -20q-1 -4 -1 -7q0 -5 2 -7q2 -4 2 -9v-4z" />
    <glyph glyph-name="question" unicode="?" horiz-adv-x="428" 
d="M448 498q-5 -15 -10.5 -26.5t-12 -21t-14 -18.5t-16.5 -21q-14 -17 -37 -31.5t-47 -25.5q-26 -13 -56.5 -21t-58 -15.5t-50 -16t-32.5 -21.5q-14 -17 -14 -34q0 -4 1 -7q3 -21 18 -36.5t38 -23.5q16 -6 32 -6q7 0 15 1q10 6 14.5 17t15.5 16q32 -1 44 -23v-3
q0 -17 -11 -29q-13 -13 -32.5 -21t-42.5 -10q-13 -2 -24 -2q-9 0 -17 1q-19 2 -38.5 12t-35.5 23.5t-27 29t-13 29.5v7q0 5 1 9q1 7 3 14t3 16v1q0 8 -4 19q8 13 17 23.5t17 23.5q21 8 42.5 19t43.5 21t45.5 17t48.5 7q20 10 39.5 20.5t37 23.5t31.5 29t23 37q1 10 1 20
q0 11 -1 21q-4 19 -11.5 35t-17 30t-18.5 28q-27 17 -59 20h-18q-23 0 -47 -5q-32 -7 -60.5 -21t-46.5 -31q-1 -14 -4 -22t-6 -14t-5 -12q-1 -4 -1 -9v-6q1 -15 9 -24.5t16.5 -18t13.5 -18.5q1 -4 1 -9q0 -7 -4 -17q-7 -5 -20 -10q-10 -5 -16 -5q-2 0 -4 1q-26 10 -38 35
t-13 55v6q0 26 8 53q8 29 23 48q28 21 68 40.5t84 28.5q26 5 51 5q18 0 36 -2q42 -7 75 -38q18 -17 30.5 -34t20.5 -36.5t12 -43t4 -53.5zM251 -60q-14 -6 -31 -6h-9q-24 2 -44 6q-13 13 -15 38q-1 5 -1 11q0 18 6 34q13 5 30 5h9q23 -2 40.5 -12t24.5 -29q1 -5 1 -12
q0 -15 -11 -35z" />
    <glyph glyph-name="at" unicode="@" horiz-adv-x="599" 
d="M584 385q-4 -33 -15.5 -65.5t-31.5 -57t-49 -37.5q-20 -9 -44 -9q-12 0 -24 2q-22 3 -32.5 16t-24.5 27q-14 -4 -21 -15.5t-16 -20.5q-7 2 -12 2q-3 0 -6 -1q-8 -2 -14.5 -6.5l-13 -9t-14.5 -5.5q-4 -1 -9 -1q-6 0 -13 2q-11 3 -20.5 8t-17 11t-10.5 10q-10 12 -13 31
q-3 15 -3 31v9q1 21 6 41t13 35t27.5 33t44 32t51.5 20q11 3 21 3q14 0 27 -5q5 -2 12 -8t13.5 -14t11.5 -18t6 -20q1 -8 1 -15q0 -9 -1 -18q-3 -16 -3 -31q-1 -2 -1 -4q0 -14 4 -26q3 -15 17 -29q8 -4 14 -4q1 0 2 1q6 0 11.5 2t11 4.5t14.5 2.5q22 18 30 43q5 18 5 37
q0 7 -1 15q-3 26 -13.5 52t-23.5 47q-17 19 -38.5 37t-47 30t-54.5 16q-11 1 -21 1q-20 0 -40 -4q-88 -34 -141.5 -102.5t-61.5 -171.5q-1 -9 -1 -18q0 -38 14 -73q17 -44 51 -75.5t82 -48.5q36 -13 79 -13q12 0 25 1q42 4 77 16t64 34q5 7 7 14t3.5 13.5t4 12t8.5 10.5
q11 2 19 2q17 0 24 -8q8 -10 8 -23v-7q-3 -18 -14.5 -37.5t-23.5 -29.5q-28 -19 -67.5 -33.5t-83.5 -20.5q-29 -5 -57 -5q-16 0 -31 2q-45 3 -82 20q-8 4 -14.5 10t-13.5 11t-14 9q-6 3 -14 3h-4q-15 16 -31.5 32t-30.5 34.5t-24.5 40t-13.5 50.5q2 8 2 16q0 11 -3 20
q-6 16 -6 35q1 25 8 49t16 47.5t17.5 46.5t12.5 47q26 32 58.5 63t71.5 53.5t85 32.5q24 5 50 5q24 0 49 -4q79 -30 127.5 -90.5t73.5 -146.5zM340 409q-50 -9 -78 -43q-26 -32 -26 -78v-10q16 -9 30 -9q8 0 16 3q21 8 36 29t21 51q3 16 3 31q0 13 -2 26z" />
    <glyph glyph-name="A" unicode="A" horiz-adv-x="786" 
d="M784 303q3 -6 3 -12q0 -5 -2 -10q-5 -12 -14 -21q-7 -1 -12 -1q-8 0 -13 2q-11 2 -19.5 6t-17.5 8t-21 5q-8 -41 -13.5 -79.5t-12 -75t-17 -71.5t-28.5 -68q-5 3 -10 3q-4 0 -7 -1q-4 -2 -8 -2q-5 0 -11 3q-10 11 -10 23v3q1 13 7 27.5t14.5 30t11.5 30.5q10 45 13.5 91
t9.5 86q-40 5 -82 5q-14 0 -29 -1q-58 -2 -117 -9.5t-116.5 -20t-109.5 -27.5q4 -39 9.5 -72.5t16.5 -71.5q4 -14 11.5 -30t11.5 -29q1 -6 1 -11q0 -7 -3 -13q-5 -10 -24 -11h-3q-9 0 -16 6q-8 7 -13 17.5t-7 23.5q-1 8 -1 15v8q-9 15 -15.5 33.5t-11 38.5t-7 40.5
t-3.5 38.5q-24 -8 -46 -17t-41 -23q-21 9 -25 19q-2 3 -2 7q0 6 4 12q6 9 20 17.5t30 16t31 14t23 11.5q-2 21 -2 41q0 40 7 79q10 58 31.5 110t52.5 97.5t68 83.5q24 24 51.5 38.5t59.5 22t69 9.5h80q42 -32 69.5 -76.5t44.5 -97t26 -111t14 -119.5q10 -8 24.5 -11l29 -6
t27.5 -8t19 -16zM621 337q4 15 4 30v7q-1 18 -4.5 36.5t-8.5 37t-8 36.5q-1 5 -1 10t1 10t1 10t-1 10q-7 32 -19.5 63.5t-31.5 56.5t-45 40q-25 14 -57 14h-4q-57 -2 -103.5 -32t-80.5 -68q-19 -32 -38 -65.5t-33 -72t-21 -82.5q-4 -26 -4 -54q0 -20 2 -41q60 13 115 23.5
t109.5 17.5t110.5 11q44 2 90 2h27z" />
    <glyph glyph-name="B" unicode="B" horiz-adv-x="748" 
d="M718 566q5 -18 5 -40q0 -13 -2 -27q-5 -37 -13 -66q-13 -44 -40.5 -82t-46.5 -69q10 -19 19.5 -38t17 -40t10.5 -43q2 -12 2 -24t-2 -25q-4 -30 -16 -55.5t-29.5 -46t-38 -37t-40.5 -28.5q-21 0 -47.5 0.5t-52 4t-48 10t-36.5 18.5q-9 8 -13 20q-2 7 -2 13q0 4 1 8
q2 10 11 16q6 4 16 4q5 0 11 -1t13.5 -7t16 -12.5l17 -13t16.5 -7.5q47 2 82.5 9.5t58.5 40.5q10 21 16 48q4 23 4 46v8q-1 27 -9.5 51.5t-24.5 40.5q-17 -6 -39 -18t-46.5 -21.5t-48.5 -11.5q-4 -1 -8 -1q-20 0 -38 12q-6 4 -11.5 12t-9.5 18.5t-5 22.5v5q0 9 2 16
q8 23 29 33t49 13q12 1 24 1q17 0 35 -2q30 -4 57 -9q47 35 71 90.5t30 130.5q-11 29 -28 52.5t-33 47.5q-32 27 -76 38q-38 8 -77 8h-14q-47 -2 -89 -17t-68 -39q-11 -10 -26 -28t-17 -32v-6q0 -14 7 -35q8 -27 13 -53q10 -47 21 -102.5t12 -117.5q1 -40 2 -82v-10
q0 -38 -4 -74q-4 -42 -14 -81.5t-31 -73.5q-27 -17 -48 -17q-5 0 -9 1q-25 4 -44 23.5t-32 48.5t-20 58q-8 26 -15.5 56t-11.5 57q-2 13 -2 25q0 7 1 13q1 19 4 37.5t6 37.5t4 38q2 28 9 57.5t16 56.5t18 51t17 42q11 10 21 19.5t16 23.5q0 22 -9 35.5t-19.5 25t-21 23.5
t-13.5 30q12 10 23 10h5q13 -3 25.5 -13.5t23.5 -24t20 -22.5q33 27 68 53t75 47q38 8 82 8q13 0 27 -1q60 -3 115 -17q20 -14 45 -25.5t42 -31.5q7 -8 16 -19t17.5 -22.5t14.5 -23.5t9 -22zM501 272h-25q-14 1 -26 1t-21.5 -3.5t-11.5 -13.5q7 -10 21 -12q5 -1 10 -1
q9 0 18 3q14 3 24.5 10t10.5 16zM197 -39q26 56 35 126q6 49 6 100q0 21 -1 43q-4 73 -17 144.5t-30 131.5q-24 -40 -42 -93t-26 -111q-8 -50 -8 -101q0 -9 1 -18q1 -61 15 -115q4 -15 9.5 -31t13.5 -31t18.5 -27t25.5 -18z" />
    <glyph glyph-name="C" unicode="C" horiz-adv-x="779" 
d="M731 556q13 -29 13 -54q0 -8 -1 -16q-6 -32 -26 -57.5t-51 -44t-65 -29.5q-22 2 -37 8.5t-37 8.5q-5 8 -12 13t-14.5 9t-15 8.5t-11.5 12.5q-2 15 -4 33q-2 11 -2 22q0 6 1 12q1 15 11 24q8 7 23 7q5 0 11 -1q11 -14 13 -28q1 -7 1 -16q0 -10 -1 -22q14 -11 31 -23
q16 -11 33 -11h3q5 0 19.5 6.5t31 16t30 21t16.5 20.5q2 6 2 13q0 9 -4 18q-5 11 -5 24v8q-11 5 -20.5 15t-19.5 21.5t-20 21.5t-23 16q-8 3 -20 3q-13 0 -24 3q-13 5 -24.5 12t-22.5 8q-10 2 -20 2t-19 -2q-20 -3 -39 -7.5t-38.5 -8.5t-40.5 -4q-68 -29 -127 -71t-97 -109
q-15 -27 -24 -61t-12 -69q-2 -20 -2 -38q0 -16 1 -31q3 -34 14 -59q19 -46 57 -88.5t93 -61.5q25 -9 62 -14.5t79 -7.5q20 -1 41 -1t41 1q41 2 75 9q12 3 27 6t30 7.5t28 9t22 10.5q6 4 11 10.5t11 12.5t14 10q4 2 10 2q3 0 7 -1q16 -5 19 -22q1 -5 1 -9q0 -13 -6 -26
q-44 -26 -101 -44t-121 -25q-43 -5 -86 -5q-23 0 -47 1q-68 4 -133 23q-56 21 -99.5 59.5t-70 91.5t-32.5 120q-2 17 -2 36q0 50 13 107q32 71 76 133t115 101q51 28 104.5 41.5t122.5 25.5q12 2 24 2q11 0 22 -2q22 -4 43.5 -11.5t43 -16t44.5 -12.5q10 -15 22.5 -26
t24.5 -21.5t22.5 -22.5t17.5 -27z" />
    <glyph glyph-name="D" unicode="D" horiz-adv-x="785" 
d="M743 281q-3 -37 -15 -69.5t-29.5 -61.5t-37.5 -54.5t-38 -48.5q-71 -44 -156.5 -78.5t-184.5 -41.5q-2 -14 -13 -22.5t-24 -9.5h-3q-11 0 -20 7q-10 7 -10 25q-12 4 -29 9t-34.5 11t-32.5 13.5t-23 17.5q-6 7 -6 16q0 3 1 6q2 12 20 27q14 -1 24.5 -5.5t20.5 -9.5
t20.5 -9.5t24.5 -5.5v19q0 32 -2 66q-4 42 -9 85t-9 87q-3 34 -3 69v18q2 75 8.5 145t14.5 136h-5q-16 0 -32 -5q-20 -6 -39.5 -12.5t-38.5 -10.5q-9 -2 -17 -2q-11 0 -22 3q-3 8 -3 18v6q1 13 7 20q21 3 40 9t37 12t37.5 11.5t42.5 7.5q10 6 14 18.5t6 26.5t5.5 26.5
t14.5 18.5q6 2 11 2q8 0 13 -4q9 -6 13 -17q2 -8 2 -16q0 -5 -1 -10q-2 -14 -8 -25q16 -7 31 -8h12q9 0 18 1q15 1 31 3q10 1 21 1h11q30 -3 57 -13t52 -22.5t49 -25t49 -20.5q11 -16 26.5 -32t31 -33t29.5 -35.5t23 -39.5q17 -38 24 -89q4 -32 4 -66q0 -19 -1 -39zM686 378
q-1 7 -4 19t-7 24.5t-8 24.5t-7 19q-8 16 -21.5 34t-28.5 34.5t-30 29.5t-27 19q-10 5 -24.5 9.5t-29.5 10.5q-12 5 -22 10t-20 9t-21.5 7.5t-26.5 6.5q-37 8 -73 8t-78 -11q-16 -76 -21 -159q-5 -62 -5 -123q0 -23 1 -45q2 -84 10.5 -165t21.5 -153h17q42 0 79 8
q45 10 84.5 26.5t76 36.5t71.5 39q25 26 45.5 58t33 68t17.5 75q1 15 1 31q0 24 -4 49z" />
    <glyph glyph-name="E" unicode="E" horiz-adv-x="554" 
d="M528 10q-25 -10 -51.5 -24t-55 -26t-59.5 -18q-18 -4 -37 -4q-15 0 -31 2q-50 7 -90 30.5t-77 45.5q-11 20 -25 35t-28 32q-12 35 -21 70q-7 25 -7 50q0 10 1 21q3 27 12.5 49.5t22 42.5t25.5 38.5t24 36.5q-30 34 -38 74q-4 18 -4 36q0 21 5 41q9 37 33.5 69t59.5 51
q43 23 95 29.5t103 10.5q18 -13 39.5 -23t41 -22t35.5 -27t24 -39q-13 -16 -26 -16q-3 0 -7 2q-17 5 -36.5 20t-41.5 31.5t-49 19.5q-11 1 -22 1q-22 0 -44 -4q-34 -8 -64.5 -23.5t-53.5 -38t-33 -47.5q-7 -17 -7 -34q0 -9 2 -19q6 -28 34 -55q27 8 54.5 19t55 18.5
t56.5 7.5q28 0 58 -15q7 -9 14.5 -18t13 -19t8.5 -20v-9q0 -7 -2 -15q-8 -26 -41 -37.5t-73 -12.5h-8q-36 0 -70 8q-39 8 -59 22q-15 -20 -32 -40t-30 -42.5t-19 -48.5q-3 -12 -3 -25q0 -16 4 -34q9 -44 41.5 -82.5t78.5 -62t99 -27.5q7 -1 15 -1q45 0 87 22q8 4 16.5 12.5
t17.5 16t18 13t18 5.5q23 0 28 -15t5 -38zM381 387q-6 19 -23 26q-14 5 -30 5h-7q-21 -2 -40.5 -10t-29.5 -17q26 -9 64 -10h9q32 0 57 6z" />
    <glyph glyph-name="F" unicode="F" horiz-adv-x="538" 
d="M572 694q2 -8 2 -17q0 -8 -2 -15q-4 -16 -23 -21q-4 -1 -7 -1q-6 0 -11 4q-7 5 -19 7q-24 3 -51 3h-20q-39 -2 -78 -6.5t-74.5 -9.5t-60.5 -7q-23 -116 -23 -237q0 -92 13 -188h9q11 0 25 2q18 2 38 4.5t40 2.5t39 -6q3 -9 3 -18q0 -7 -2 -14q-5 -16 -18 -21q-26 2 -60 5
h-13q-27 0 -51 -8q1 -25 7 -48.5t10 -55.5q3 -26 15 -53.5t18 -49.5q2 -9 2 -17q0 -11 -4 -19q-8 -15 -44 -15q-13 25 -21 55t-14 61.5t-11 62.5t-11 59h-17q-3 -1 -7 -1q-7 0 -13 1q-11 1 -19 4.5t-11 11.5q0 9 2.5 15.5t4.5 14.5q8 8 22.5 9t27.5 5q-15 100 -16 210v10
q0 104 19 201q-15 -2 -36 -13.5t-40 -18.5q-12 -4 -22 -4q-7 0 -12 2q-14 4 -17 34q29 20 65.5 32.5t74.5 24.5q2 13 6 27t11 24t19 13q2 1 5 1q10 0 23 -8q7 -4 7 -14v-8q0 -9 3 -15q40 5 77 7t73 3l72 2t75 5q5 -5 10 -8z" />
    <glyph glyph-name="G" unicode="G" horiz-adv-x="864" 
d="M823 342q-8 -31 -20.5 -57t-27 -50.5t-30 -48t-29.5 -48.5q3 -32 8 -67.5t8 -70.5q1 -17 1 -32q0 -19 -2 -38q-3 -34 -18 -63q-29 -29 -55.5 -58.5t-64.5 -48.5q-16 0 -31.5 -5.5t-32.5 -10t-36 -5.5h-5q-17 0 -39 8q-5 2 -10 8.5t-13 11.5q-16 8 -32.5 15.5t-24.5 20.5
q-17 28 -17 55v9q3 31 20 63l18 4h19q9 -9 11 -18v-7q0 -6 -1 -11q-3 -10 -8 -19.5t-9 -18.5q8 -30 28 -44.5t46 -17.5q7 -1 15 -1q19 0 39 5q28 7 54 20.5t46 30.5t30 34q11 20 14 46q2 16 2 32q0 11 -1 22q-2 28 -6.5 55.5t-8.5 51.5q-31 -27 -79.5 -49t-103.5 -31
q-36 -7 -73 -7q-20 0 -39 2q-58 5 -107 32q-6 3 -11 9t-12 11q-15 10 -33.5 24.5t-36 30.5t-33 33t-24.5 32q-11 18 -16.5 38.5t-20.5 35.5q-10 38 -10 75q0 5 1 11q1 42 9 81.5t21 75.5t26 68q51 60 117 106.5t160 76.5q35 12 68 12h3q34 -1 68 -8.5t67 -19.5t65 -24
q9 -14 25 -27.5t29.5 -28.5t19.5 -31q2 -6 2 -11q0 -12 -9 -25h-7q-11 0 -20 5q-11 7 -20 17.5t-17.5 23t-18.5 20.5q-12 9 -25 15t-26.5 10.5t-27.5 9.5t-28 12q-40 2 -76 5q-6 1 -13 1q-29 0 -59 -12q-7 -3 -12.5 -8.5t-13.5 -8.5q-13 -5 -26 -7t-24 -7
q-25 -10 -50.5 -26.5t-48 -36.5t-40 -42t-25.5 -42q-2 -4 -2 -9v-6q0 -5 -2 -11q-3 -11 -11.5 -22t-11.5 -22q-8 -24 -11 -52q-3 -18 -3 -34q0 -9 1 -17q2 -45 15.5 -79.5t34.5 -62.5t46 -52.5t51 -49.5q47 -28 105 -34q21 -2 42 -2q36 0 71 6q55 10 103 34.5t77 58.5
q-1 31 -6.5 70t-8.5 79q-2 21 -2 42q0 17 2 34q2 37 18 63q5 9 14.5 19t21.5 18t26 13q10 4 20 4q4 0 8 -1q25 -3 38 -20.5t19.5 -41.5t8.5 -50.5t4 -47.5zM770 412q-10 7 -15.5 17.5t-21.5 12.5q-20 -15 -26.5 -40.5t-6.5 -54.5q0 -30 4 -60.5t6 -55.5q13 18 25.5 37
t21 40.5t12.5 47.5q2 14 2 30q0 13 -1 26z" />
    <glyph glyph-name="H" unicode="H" horiz-adv-x="810" 
d="M766 189q-13 0 -23 2.5t-20 5.5t-21 5q-5 1 -12 1q-6 0 -14 -1q-5 -19 -5 -38q0 -15 3 -29q6 -35 15 -70.5t16 -72.5q4 -20 4 -40q0 -17 -3 -34q-12 -5 -29 -6h-3q-15 0 -22 10q-1 35 -6.5 70t-12.5 70.5t-13.5 71t-10.5 72.5q-106 -1 -203 -13t-188 -37q-5 -26 -8 -56
t-5 -60.5t-4.5 -59.5t-6.5 -52q-9 -7 -21 -12q-7 -3 -14 -3q-5 0 -11 2q-7 20 -7 44q0 2 1 4q0 26 4 54.5t8 58t4 56.5q-6 2 -12 2q-9 0 -18 -4q-16 -6 -30.5 -15t-27.5 -16q-9 -5 -17 -5q-3 0 -6 1q-10 3 -17 13q-5 6 -5 13q0 5 2 11q3 10 22 17.5t41.5 14.5t43 13.5
t27.5 14.5q5 55 7 109v27q0 40 -3 78q-5 51 -16 97.5t-32 86.5q-7 15 -15.5 30.5t-13.5 31.5q-5 12 -5 23q0 3 1 6q1 13 13 23q27 0 41 -18t23 -43t17 -51t23 -42q16 -82 18.5 -167t4.5 -174q85 21 179 36q73 12 155 12q22 0 44 -1v14q0 21 2 42q3 28 7 56.5t7.5 57
t3.5 57.5q0 57 15.5 115.5t38.5 105.5q6 13 10.5 25.5t10.5 22t16 15.5q8 4 21 4h5q10 -10 10 -25q0 -4 -1 -9q-4 -21 -15 -45t-24 -47t-17 -41q-18 -79 -23 -165.5t-7 -175.5q21 0 48.5 -4t47.5 -12.5t26 -22.5q1 -3 1 -6q0 -12 -19 -29z" />
    <glyph glyph-name="I" unicode="I" horiz-adv-x="275" 
d="M198 226q-2 -60 -4.5 -120t-19.5 -114q1 -8 1 -14q0 -15 -6 -23q-10 -12 -23 -12q-1 -1 -2 -1q-13 0 -25 10q-13 9 -15 27q13 21 19.5 44t9 48.5t2.5 51.5t2 53q4 56 4 114v35q-2 76 -10 152q-3 28 -9 57t-8 57q-2 23 -4 41.5t-13 35.5q2 10 9.5 17.5t17.5 10.5q4 1 9 1
t10 -1q10 -3 18 -12q2 -31 6 -59t7.5 -54.5t5.5 -51.5v-16q0 -17 -2 -33q16 -57 19 -119q1 -45 1 -90v-35z" />
    <glyph glyph-name="J" unicode="J" horiz-adv-x="570" 
d="M487 261q1 -19 1 -38q0 -82 -24 -151q-31 -86 -98 -135q-41 -30 -85 -44q-28 -9 -66 -9q-21 0 -46 3q-14 2 -34 3.5t-33 6.5q-9 3 -14 11.5t-16 18.5q-12 11 -25 22.5t-23 26.5t-13 36q-2 6 -2 13q0 16 6 36q12 14 22 30t21.5 30t26.5 25t37 15q12 -17 12 -30
q0 -6 -2 -11q-8 -18 -23 -34t-29 -33q-12 -13 -12 -30q0 -4 1 -9q2 -12 7.5 -19.5t13 -14t15.5 -13t14 -16.5q41 -11 77 -11q31 0 59 8q60 17 101.5 59.5t62.5 106.5q18 53 18 114q0 11 -1 23q-2 31 -4 67t-6 74q-3 42 -7 84.5t-9 75.5q-3 20 -10 42.5t-14 51.5q-5 20 -7 38
q-2 7 -2 14q0 8 2 15q3 12 14 16h6q10 0 27 -6q18 -48 28 -102.5t16 -114t9 -121.5t8 -124z" />
    <glyph glyph-name="K" unicode="K" horiz-adv-x="629" 
d="M655 669q-17 -52 -42.5 -96t-54.5 -84.5t-60.5 -78.5t-60.5 -78q-14 -9 -25 -20.5t-21.5 -23.5t-21.5 -23.5t-25 -19.5q75 -51 139 -110.5t115 -133.5q-4 -7 -4 -16q0 -1 1 -2v-3q0 -9 -4 -16q-16 -12 -26 -12h-2q-11 1 -19 9t-15 21t-15 25q-19 29 -44 56t-53.5 51.5
t-59 45t-60.5 35.5q-22 -8 -41.5 -18.5t-45.5 -15.5q-4 -57 -15.5 -115.5t-24.5 -118.5q-9 -2 -17.5 -4t-19.5 -3q-20 21 -20 44v2q1 24 10 50t20 54q8 22 8 45q0 6 -1 13q-11 0 -22.5 2t-24.5 4t-27 4h-30q-18 18 -24 49q-2 9 -2 17q0 20 10 37q26 14 54 25q23 9 56 9h13
q-1 48 -1.5 104t-5 112.5t-14.5 109.5t-29 95q11 16 23 21q5 2 11 2q5 0 11 -2q10 -5 17.5 -18.5t11.5 -32.5q5 -32 14.5 -70t11.5 -80q5 -62 6 -124v-30q0 -43 -2 -77q16 -8 37 -10t36 -10q16 5 27.5 15t22 21t20.5 22t24 19q16 26 35.5 48t39 44.5t36.5 47t29 54.5
q12 6 19 16.5t18 16.5q8 37 24.5 64t35.5 53q5 1 9 1q11 0 18 -4q9 -6 17 -14zM157 198v3q0 15 -10 19q-6 1 -12 1q-7 0 -15 -2q-15 -4 -29 -12.5t-18 -15.5q18 -2 43 -3h4q22 0 37 10z" />
    <glyph glyph-name="L" unicode="L" horiz-adv-x="510" 
d="M557 -26q0 -5 -3.5 -11.5t-9 -12.5t-13 -9.5t-15.5 -3.5q-14 1 -28.5 17.5t-31.5 26.5q-23 12 -53 20t-61 11.5t-60 4.5h-9q-24 0 -44 -3l-24.5 -49t-31.5 -51.5t-42.5 -43.5t-55.5 -26q-14 -3 -26 -3q-39 0 -54 36v5q0 41 17 69q17 30 45 52t62 37.5t66 30.5
q26 87 33 188q2 31 2 62q0 72 -11 148q-4 26 -10.5 56.5t-13.5 60.5q-4 18 -9 35.5t-9 33.5t-4 30t6 25q4 7 10 10h4q7 0 12 -2q4 -3 10 -3q3 0 7 1q19 -71 35.5 -148.5t23.5 -157.5q4 -51 4 -102q0 -30 -1 -59q-4 -82 -25 -161q39 -11 80 -17t84 -10q18 -8 36 -19.5
t41 -20.5q10 -4 22 -7.5t21.5 -8t16.5 -12t7 -19.5zM152 -16q-37 0 -64.5 -24.5t-32.5 -65.5q39 8 60 33.5t37 56.5z" />
    <glyph glyph-name="M" unicode="M" horiz-adv-x="1075" 
d="M1013 363q-2 -50 -13.5 -97.5t-28 -91t-35.5 -82t-36 -70.5q-2 -23 -10.5 -40t-26.5 -24q-29 6 -34 21q-2 6 -2 13q0 10 5 23q7 20 21 43t23 44q19 42 37.5 92t29.5 104q11 51 11 105v5q-1 56 -21 112q-4 11 -8.5 18.5t-9.5 15t-10.5 16t-11.5 20.5q-17 11 -32 23.5
t-32 23.5h-10q-28 0 -50 -4q-26 -6 -48 -17t-41.5 -27t-40.5 -36q-7 -6 -20 -18.5t-25.5 -26.5t-23 -27t-11.5 -21q-2 -8 -2 -17q0 -8 2 -15q2 -18 7 -36.5t9.5 -38t6.5 -37.5q1 -10 1 -20v-16q-2 -20 -4 -34q-3 -14 -12 -30t-22.5 -29.5t-29.5 -21.5q-13 -6 -26 -6h-7
q-25 3 -34.5 29t-9.5 61q0 34 6.5 70.5t13.5 60.5q6 19 18 35.5t16 37.5v4q0 28 -13 57q-15 30 -38.5 54.5t-52 41.5t-53.5 20q-10 1 -19 1q-22 0 -40 -7q-26 -10 -45.5 -30.5t-33 -48.5t-23 -59.5t-17 -64t-13.5 -61.5q3 -27 4.5 -56t3.5 -58.5t5 -59t10 -57.5q2 -9 7 -17
t7 -17q1 -7 1 -15v-10q-1 -4 -1 -7q0 -9 3 -18q4 -14 16.5 -27t21.5 -25.5t9 -23.5q0 -12 -20 -24q-22 5 -37.5 24.5t-26.5 39.5q-12 25 -19.5 57.5t-12 67.5t-7 71t-4.5 68q-1 16 -4 25t-3 28q1 48 10.5 92.5t23.5 84.5q9 26 14.5 43.5t13 31.5t18.5 26.5t31 29.5
q14 11 31 26t32 20q17 6 34 6h3q18 -1 37 -5t38 -10t39 -11q7 -11 17 -19.5t21.5 -16t23 -14.5t21.5 -16q2 -21 11.5 -34t15.5 -30q27 20 52 42t51.5 43.5t56 40.5t64.5 34q9 4 26 4t35 -2.5t33.5 -6.5t22.5 -8q71 -45 108 -126q33 -72 33 -163q0 -12 -1 -25zM512 353
q-8 -27 -16 -58q-5 -17 -5 -34q0 -16 4 -32q14 1 20 15.5t7 34.5v5q0 17 -3 35q-3 21 -7 34z" />
    <glyph glyph-name="N" unicode="N" horiz-adv-x="750" 
d="M703 561q1 -10 1 -21v-16q-2 -20 -5.5 -40t-8 -39.5t-7.5 -37.5q-8 -46 -17 -91.5t-26 -88.5q-28 -69 -52.5 -138.5t-58.5 -132.5q-12 -3 -20 -3q-2 0 -3 1q-9 0 -23 2q-5 12 -5 24v7q2 15 8.5 32.5t17 36.5t19.5 41q12 28 25 55.5t22 54.5q24 80 45.5 152t27.5 152
q1 8 1 16q0 20 -4 39q-5 26 -18 46.5t-34.5 33.5t-51.5 16h-9q-24 0 -53 -9q-34 -11 -62 -22q-30 -12 -53.5 -33t-42 -49.5t-33 -62t-24.5 -69.5q-3 -10 -3 -22q0 -13 -4 -24q-5 -14 -12 -27.5t-13.5 -27.5t-11.5 -30.5t-6 -35.5v-29q1 -17 3 -31q2 -10 2 -20v-6
q-1 -3 -1 -6q0 -10 2 -18q2 -7 5.5 -12t4.5 -11v-5q0 -6 -1 -12q-2 -7 -2 -13v-4q0 -5 4 -8.5t6 -8.5q8 -33 12.5 -65t14.5 -62q-12 -11 -23 -18q-7 -4 -17 -4q-8 0 -17 2q-18 63 -30 136.5t-23 150.5t-23.5 153t-33.5 142q-5 15 -12.5 31t-14 31t-10.5 29q-4 11 -4 19v4
l2.5 10t5.5 11.5t12 8.5q4 2 9 2q6 0 12 -2q10 -2 16 -13t10.5 -26t8 -32.5t8.5 -32.5q7 -20 15 -37.5t8 -45.5q7 -9 10 -21.5t5 -26t5 -25.5t10 -21q13 37 26.5 74t28.5 72t32.5 67.5t39.5 60.5q20 7 35 17t29 23q41 15 80 22.5t77 21.5q32 -11 60.5 -23.5t51 -31.5
t37 -44.5t18.5 -61.5z" />
    <glyph glyph-name="O" unicode="O" horiz-adv-x="810" 
d="M774 352q-1 -33 -9.5 -63t-20.5 -57.5t-26.5 -52.5t-26.5 -47q-16 -8 -28.5 -20.5l-25.5 -25.5t-27 -25t-33 -19q-8 -4 -21 -4t-26 -3q-9 -3 -22 -7t-27.5 -8t-29.5 -7q-12 -2 -23 -2h-8q-9 1 -17 5t-16 6q-20 3 -41 3h-16q-7 -1 -14 -1q-22 0 -43 4q-10 2 -19 8
q-6 4 -12 4q-5 0 -9 -2q-18 15 -39 28t-41 26.5t-39 29t-32 37.5q-19 31 -27 68t-9 78v14q0 34 4 69q4 43 9 85q23 42 45 85.5t52 78.5q26 17 52.5 31t61.5 29q26 11 58.5 17.5t67.5 8.5h21q25 0 50 -2q36 -4 70 -14q13 -4 32.5 -12.5t39 -18t37 -20t28.5 -19.5
q15 -12 24.5 -26.5t18 -29.5t16 -30t18.5 -28q1 -23 5.5 -44t8.5 -42t7 -42q2 -16 2 -32v-11zM718 403q-11 104 -62 161t-142 86q-18 5 -38.5 11.5t-35.5 8.5h-2q-5 0 -9 -3q-5 -4 -12 -4q-8 0 -13.5 3.5t-10.5 3.5q-94 -4 -164.5 -55.5t-102.5 -131.5q-11 -45 -19 -87
q-8 -38 -8 -75v-9q1 -65 30 -112t74.5 -76.5t102.5 -42.5q45 -10 91 -10q12 0 25 1q59 3 113.5 22.5t95.5 54.5q18 22 35 50.5t30 61.5t20 69q4 21 4 44q0 15 -2 29z" />
    <glyph glyph-name="P" unicode="P" horiz-adv-x="665" 
d="M638 452q-1 -17 -4.5 -38.5t-11.5 -38.5q-12 -27 -36.5 -51t-55.5 -42t-67 -27q-23 -6 -46 -6q-13 0 -26 2q-12 2 -29.5 10t-30.5 20.5t-17 29.5q-1 4 -1 8q0 13 11 29q9 3 17 3h8l22 -6q3 -3 4 -8t2.5 -10t3.5 -9.5t7 -5.5q9 -1 17 -1q39 0 71 12q39 14 64.5 42t35.5 67
q6 21 6 44q0 19 -4 39q-6 34 -23.5 58.5t-42.5 43t-54 32.5t-57 27q-11 1 -21 1q-45 0 -85 -14q-49 -18 -88 -41q27 -81 40.5 -166.5t15.5 -174.5v-40q0 -70 -5 -142q-7 -92 -21 -185q-8 -14 -26 -16q-3 -1 -6 -1q-14 0 -25 10q-6 17 -6 31q0 4 1 9q2 17 12 34
q8 66 13 128.5t7 131.5v27q0 72 -9 140q-11 79 -31 158q-10 -5 -19.5 -14t-17.5 -22t-12.5 -29.5t-4.5 -35.5q29 -3 36 -16q3 -7 3 -13q0 -7 -4 -14q-8 -14 -27 -21q-8 -3 -16 -3q-13 0 -28 7q-5 16 -12 30.5t-8 29.5v10q0 20 6 38q8 23 21 43.5t28.5 38t27.5 31.5
q-3 9 -7.5 17.5t-8 17t-5.5 18.5q-1 3 -1 7q0 6 2 13q14 6 24 9q3 1 7 1q7 0 16 -3t10.5 -14t6.5 -19q19 4 36 11.5t32.5 16l31 17t33.5 15.5q69 -1 130 -18.5t105 -52t68 -86.5q19 -42 19 -96q0 -14 -1 -28z" />
    <glyph glyph-name="Q" unicode="Q" horiz-adv-x="877" 
d="M825 337q0 -54 -11.5 -98.5t-32 -82t-47 -68t-56.5 -55.5q6 -11 13.5 -26t17 -29t21 -24t25.5 -11q9 0 14 2.5t9.5 6t10.5 7t16 4.5q16 -10 20 -23q1 -5 1 -10q0 -8 -3 -15q-6 -12 -18 -21t-27 -11q-9 -1 -18 -1q-22 0 -39 9q-24 13 -42 33.5t-32 42t-26 33.5
q-46 -24 -101 -33q-41 -7 -83 -7q-14 0 -28 1q-57 3 -111 16t-98 33q-33 24 -58.5 56.5t-48.5 66.5q-15 47 -22 105q-5 40 -5 80q0 17 1 35q3 57 16 110.5t37 91.5q10 16 23 29t27 24t27.5 21.5t25.5 22.5q41 14 80.5 28t83.5 25h15q40 0 84 -4q52 -5 98 -13
q23 -11 44.5 -23.5t52.5 -16.5q20 -18 41 -34.5t39 -35.5t31.5 -44t19.5 -60q5 -32 9 -68.5t4 -68.5zM768 267q3 22 3 46v13q-1 32 -4.5 64t-9 61.5t-9.5 52.5q-30 41 -76 73t-101.5 50.5t-118.5 22.5h-24q-51 0 -104 -12q-48 -20 -88 -46t-70 -64q-17 -33 -28 -74.5
t-15 -86.5q-3 -27 -3 -54q0 -18 1 -36q3 -46 14.5 -86.5t32.5 -72.5t52 -51q54 -33 124 -44q59 -10 119 -10h21q26 11 55.5 18t54.5 19q0 12 -10 27t-22 29.5t-22 28.5q-9 13 -9 23v2q1 16 10 23q7 4 17 4h6q13 -2 24.5 -15t21.5 -30.5t17.5 -34t13.5 -24.5q46 30 81 74
t46 110z" />
    <glyph glyph-name="R" unicode="R" horiz-adv-x="746" 
d="M710 504q-1 -45 -15.5 -78t-37.5 -59.5t-52 -48.5t-59 -44q17 -40 33.5 -79t30.5 -79.5t24.5 -83t15.5 -89.5q-10 -8 -20 -15q-7 -4 -14 -4q-5 0 -10 2q-10 4 -14 11.5t-5 17.5t-1.5 21.5t-2.5 22.5t-9 19.5t-11 21.5q-8 21 -9.5 47t-10.5 50q-14 34 -31 60t-30 46
q-11 0 -24 -3.5t-26.5 -7t-28.5 -4.5q-4 -1 -8 -1q-11 0 -23 3q-10 3 -20 9t-18.5 13.5t-13.5 16.5t-5 18q0 8 5 18t13.5 19.5t18.5 16.5t20 9q9 2 18 2q7 0 15 -1q16 -3 32 -9.5t30.5 -14t25.5 -13.5q31 16 63.5 38t55.5 51.5t32 67.5q3 13 3 28q0 27 -11 59
q-20 39 -63.5 65t-96.5 36q-33 6 -66 6q-22 0 -44 -2q-57 -7 -104 -32q7 -13 8 -31t9 -29q-4 -19 -4 -39q0 -2 1 -4q0 -23 2 -45.5t5.5 -44.5t5.5 -41q3 -31 4 -75.5t2 -92.5t1.5 -94t2.5 -79q1 -19 3.5 -40t4.5 -40.5t2 -35.5t-4 -24t-15 -14q-10 -6 -16 -6h-2
q-15 1 -21 13t-6 29q-1 3 -1 7q0 14 2 31q2 21 2 40q1 11 1 22q0 26 -4 50q-5 33 -7 59q-4 43 -4 83q0 16 1 32q1 28 1 55t-1 54q-2 58 -10 123t-20 114q-11 -7 -26 -13.5t-30.5 -14.5t-30 -18.5t-23.5 -23.5q-5 -7 -8.5 -18.5t-8.5 -21.5l-10.5 -21t-8.5 -22q-3 -9 -3 -19
v-5q1 -13 9 -27q11 -2 19 -2q9 0 16 3q11 5 21.5 11t22.5 10q4 2 10 2q8 0 18 -4q5 -6 6 -15q1 -5 1 -11q0 -5 -1 -11q-13 -16 -35.5 -25.5t-46.5 -11.5h-11q-19 0 -37 6q-23 7 -37 25q-6 23 -6 47q0 10 1 20q3 34 15.5 66t31.5 58.5t42 42.5q18 12 43 26t53 27t57 23.5
t54 16.5q9 2 25.5 6t34.5 7t34 5h11q7 0 12 -1q18 -5 38 -7.5t40.5 -5.5t39.5 -7.5t36 -13.5q6 -3 12.5 -10.5t13.5 -12.5q19 -12 39 -27.5t36 -36t26 -45.5t10 -55zM429 290q-4 3 -12.5 6t-17.5 5h-7q-5 0 -9 -1q-8 -2 -11 -10q2 -5 10.5 -8t18.5 -3q9 0 17.5 3t10.5 8z
" />
    <glyph glyph-name="S" unicode="S" horiz-adv-x="520" 
d="M459 602q5 -22 5 -43q0 -9 -1 -18q-3 -30 -15.5 -53.5t-33 -38t-48.5 -14.5q-11 4 -12.5 13t-1.5 14q1 9 5.5 13t10.5 6.5t12.5 5t11.5 8.5q4 4 8.5 12.5t8 17.5t5.5 18t2 16q-1 17 -14.5 32.5t-33 28t-42 20t-40.5 9.5q-8 1 -16 1q-22 0 -42 -6q-28 -8 -48 -25t-30 -42
q-6 -15 -6 -31q0 -13 4 -27q25 -44 61.5 -76.5t75.5 -63t75.5 -63t62.5 -75.5q12 -27 19.5 -61t7.5 -68q0 -35 -11 -65.5t-36 -49.5q-19 -14 -44.5 -25.5t-52.5 -19.5t-53 -12q-22 -3 -39 -3h-9q-18 1 -37 10.5t-35.5 24t-31 30.5t-23.5 29q-7 10 -15.5 18t-10.5 15
q-6 16 -6 32q0 7 1 13q3 23 13.5 43.5t25 37.5t29.5 28q34 -5 39 -18q1 -4 1 -8q0 -10 -7 -21q-10 -17 -25.5 -33.5t-20.5 -29.5q4 -23 13.5 -39.5t23 -29.5t30 -23t33.5 -19q14 -1 26 -1q14 0 27 2q22 3 41 10.5t35.5 17t34.5 18.5q24 30 27 64v12q0 28 -10 56
q-12 33 -33.5 62.5t-43.5 49.5q-9 8 -17.5 18t-16.5 15q-32 24 -65 45.5t-59 48.5q-14 15 -28 37t-23.5 48t-10.5 55v4q0 27 12 53q7 15 19 25.5t26.5 19.5l29 18t26.5 21q33 6 61 6q13 0 25 -1q39 -4 71.5 -17.5t57.5 -35t45 -46.5z" />
    <glyph glyph-name="T" unicode="T" horiz-adv-x="567" 
d="M604 632q-8 -5 -17 -5q-8 0 -15 3q-19 6 -39 8q-19 2 -39 2q-22 0 -45 -2q-44 -5 -79 -10q-6 -27 -6 -53q0 -2 1 -4q0 -29 2 -58t5.5 -59t3.5 -60q1 -53 1 -107t1.5 -108t5.5 -107t12 -102q-4 -8 -11 -14t-16 -9q-7 -2 -13 -2h-5q-9 1 -18 8q-5 82 -7.5 169.5t-4.5 173.5
t-6 167t-12 152q-42 -1 -81 -14t-76.5 -31t-74.5 -37t-76 -32q-11 8 -16 18q-5 7 -5 16q0 4 1 7q2 8 7.5 12t13.5 7t17.5 5t18.5 6q14 6 31 15t33.5 18.5t30.5 17.5t22 12q57 18 137 34t164 23q13 1 33 2q13 1 27 1h14q21 -1 41 -4.5t32.5 -10.5t15.5 -18q1 -3 1 -5
q0 -11 -10 -25z" />
    <glyph glyph-name="U" unicode="U" horiz-adv-x="688" 
d="M629 425q2 -27 2 -56v-37q-3 -50 -11 -97t-22 -87.5t-32 -66.5q-8 -11 -17.5 -19.5t-19 -16.5t-18 -16t-12.5 -18q-22 -10 -45 -20.5t-47 -19t-48 -13.5q-18 -5 -37 -5q-6 0 -13 1q-38 2 -67 14.5t-52.5 32t-42.5 44.5t-36 52q-18 45 -24 90.5t-9 93.5q-1 11 -5 21.5
t-5 22.5q-1 17 -1 34q0 18 1 35q3 35 8 69.5t10.5 69t8.5 69.5q1 5 1 10q0 6 -1 11q-1 7 -1 14q0 4 1 7q0 10 2.5 19.5t10.5 18.5q11 3 24 4h1q11 0 18 -7q5 -18 5 -36q0 -19 -2.5 -38t-6.5 -39t-6 -41q-3 -35 -6.5 -71.5t-4.5 -74.5q-1 -19 -1 -38q0 -20 1 -40q1 -40 8 -83
q9 -60 35.5 -110t68.5 -77q10 -7 26.5 -11.5t35.5 -6.5q13 -1 26 -1h13q19 1 36 5q56 13 95.5 49t63.5 87.5t33 113.5q6 43 6 88q0 20 -1 40q-2 26 -4.5 53.5t-5.5 53.5q-5 42 -16.5 81t-23.5 73q13 20 25 25q5 2 10 2q6 0 12 -4q9 -7 16.5 -22.5t13 -35.5t9 -41.5
t4.5 -40.5v-8q0 -9 -1 -18q-2 -9 -2 -16v-5q2 -18 8 -34t8 -33z" />
    <glyph glyph-name="V" unicode="V" horiz-adv-x="716" 
d="M750 717q21 0 28 -11q5 -8 5 -17q0 -4 -1 -8q-4 -14 -16 -25q-11 -9 -26 -9h-6q-37 -21 -66 -49t-54 -60.5t-48.5 -66.5t-49.5 -65q-17 -42 -39.5 -82.5t-43.5 -84.5q-5 -11 -11 -21.5t-10.5 -21.5t-7.5 -24q-2 -8 -2 -17q0 -6 1 -13q1 -20 7.5 -41t14 -43t14.5 -44.5
t11 -45.5q5 -30 5 -62q0 -33 -2 -65q-8 -8 -16 -18.5t-16.5 -20.5t-19.5 -16q-9 -5 -21 -5h-4q-25 2 -40.5 30t-23 67t-7.5 82q-1 3 -1 7q0 38 5 65q9 24 21.5 49.5t12.5 50.5q-1 19 -16.5 43t-27.5 47q-11 23 -21.5 45.5t-21.5 41.5q-12 21 -24.5 39t-24 35t-22 34.5
t-20.5 38.5q-3 8 -10.5 12.5t-12.5 11.5q-6 19 -16.5 35.5t-23 32.5t-25.5 31t-25 31q-9 12 -18.5 24t-18 26t-14.5 30t-6 34q7 3 14 3q9 0 19 -6q17 -11 32.5 -30.5t29.5 -41.5t25 -36q21 -19 38.5 -40t28.5 -50q54 -66 96.5 -143.5t87.5 -153.5q22 39 49 87t56 98.5
t61 99.5t65 89q9 11 23 23.5t29 24.5t30.5 22.5t27.5 19.5t21 18t22 9zM386 -155q13 18 15 43v13q0 19 -3 39q-5 27 -13.5 52.5t-15.5 45.5q-6 -20 -11 -47.5t-5 -54.5q0 -28 7.5 -52.5t25.5 -38.5z" />
    <glyph glyph-name="W" unicode="W" horiz-adv-x="1027" 
d="M964 494q7 -46 7 -91q0 -21 -1 -41q-5 -66 -13 -132q-10 -31 -23.5 -58t-22.5 -59q-29 -34 -63 -62.5t-71 -54.5q-20 -1 -34 -6.5t-26 -13.5q-26 -3 -50 -3q-52 0 -98 12q-69 17 -110 65q-38 -33 -88.5 -52t-111.5 -29q-59 17 -99 46t-62 88q-16 43 -19 92q-2 26 -2 53
q0 24 1 49q3 48 18 102t32 99q9 21 15 36.5t13 28.5t15.5 26t20.5 29q5 7 16 20t23 22t24 10q11 0 17 -19q2 -6 2 -12q0 -5 -2 -10q-4 -9 -11.5 -16.5t-16 -14.5t-12.5 -14q-7 -10 -11 -22.5t-16 -17.5q-14 -41 -30 -87.5t-27.5 -96t-14.5 -100.5q-1 -11 -1 -22
q0 -39 10 -78q6 -24 17 -45t23 -42q19 -24 46 -33q24 -9 51 -9h6q29 1 59 11.5t55 27.5q14 8 22.5 19.5t14.5 20.5q-10 23 -15.5 54.5t-5.5 63.5q-1 2 -1 5q0 29 6 56q6 28 20.5 46.5t38.5 22.5q4 1 8 1q21 0 49 -15q17 -29 20 -64q1 -7 1 -13q0 -30 -11 -64q-5 -16 -13 -29
t-15 -24.5t-11 -23.5q-2 -7 -2 -14q0 -6 1 -12q3 -11 9.5 -18t15 -13t18 -11.5t17.5 -14.5q32 -13 65 -14q6 -1 12 -1q26 0 51 6q30 6 58 20t52 32q47 37 74.5 93.5t35.5 137.5q3 32 3 68t-3 70.5t-10 65.5t-17 53q-3 6 -8 13t-10 13.5t-8.5 13.5t-3.5 14q2 14 14 22t20 8
q16 0 29 -20.5t22 -48t14.5 -55t7.5 -40.5zM509 287q-11 12 -18 12q-3 0 -5 -2q-9 -7 -12 -25q-2 -14 -2 -31v-11q1 -23 4 -37q17 16 21.5 42.5t11.5 51.5z" />
    <glyph glyph-name="X" unicode="X" horiz-adv-x="716" 
d="M674 3q17 -18 17 -33q0 -3 -1 -7q-6 -17 -22 -23q-8 -3 -15 -3q-10 0 -20 5q-18 8 -22 35q-31 24 -57.5 51.5t-51 57t-49.5 58.5t-53 56v4q0 8 -3 13q-5 5 -7 14q-57 -68 -117.5 -130.5t-129.5 -117.5q-3 -5 -5 -11.5t-5 -11.5q-17 -8 -29.5 -19.5t-27.5 -20.5
q-13 4 -24 9t-16 17q4 17 15 27.5t23 19.5t24 19t18 25q14 7 25 16.5t22 20t22.5 19.5t27.5 14q15 23 33.5 43.5t37 40t35.5 40.5t31 46q-72 106 -150 204.5t-147 207.5q5 14 14 23q7 7 20 7h6q7 -2 18 -15t22.5 -30t21.5 -33t15 -23q32 -44 55.5 -77.5t54.5 -65.5
q11 -20 25 -37t29 -33t28.5 -33t24.5 -38q15 9 25.5 23t20 29t19.5 29t25 23q14 36 32.5 67t36.5 63t33 67t22 77q19 8 31 8q4 0 7 -1q12 -4 14 -17q1 -4 1 -8q0 -11 -4 -26q-6 -20 -15 -40.5t-18.5 -39.5t-15.5 -30q-13 -23 -21 -44.5t-16 -35.5q-4 -7 -11 -13t-12 -14
t-6 -16.5t-4 -13.5q-11 -17 -26 -34t-29.5 -34t-27.5 -33.5t-21 -32.5q49 -85 110.5 -155t136.5 -129z" />
    <glyph glyph-name="Y" unicode="Y" horiz-adv-x="726" 
d="M808 -176q-5 -6 -11 -12t-13.5 -10t-15.5 -4q-1 -1 -2 -1q-8 0 -17 5q-5 10 -6.5 20t-2.5 19.5t-3 18.5t-8 17q-8 11 -20 17t-25.5 10.5t-28.5 8t-28 8.5q-17 -32 -22.5 -69t-17.5 -76q-9 -33 -20 -60t-25.5 -49.5t-35 -41.5t-48.5 -37q-11 -6 -20 -13.5t-20 -14
t-24.5 -11t-32.5 -4.5q-29 0 -50.5 15.5t-41.5 32.5q-2 12 -5.5 20.5t-11.5 18.5q-1 10 -1 19q0 32 8 60q10 37 28.5 70t44.5 61t56 52q33 26 75.5 49t98.5 25q3 33 4 70v24q0 25 -1 50q-1 38 -2.5 75.5t-2.5 72.5q-8 -6 -11.5 -14t-5 -16t-3 -16.5t-4.5 -16.5
q-15 -34 -35.5 -63t-44 -55.5t-49 -51t-51.5 -49.5q-17 -8 -36.5 -13.5t-39.5 -7.5q-14 -2 -28 -2h-11q-20 1 -38 8q-37 31 -57.5 73t-30.5 91t-12 101q-1 26 -1 52t1 51q1 47 8.5 89t16.5 82.5t18.5 80t15.5 81.5q9 8 22 11h5q9 0 16 -6q1 -10 1 -20q0 -17 -2 -35
q-4 -28 -10 -57.5t-12.5 -60t-10.5 -61.5q-9 -77 -10 -151q-1 -9 -1 -18q0 -66 10 -130q3 -21 10.5 -42.5t18.5 -39.5t26 -30.5t34 -14.5q29 1 45.5 9.5t39.5 18.5q51 34 85 82t57.5 104t40.5 118t33 124q-1 12 -1 24q0 13 1 26q2 25 4.5 51t4.5 53v17q0 17 -2 34
q3 11 12 17.5t22 9.5q17 -13 23 -32q4 -16 4 -35v-6q-1 -23 -6 -47t-8 -46q-3 -26 -3 -54q0 -25 3 -52q5 -56 5 -116q1 -42 1 -85q0 -42 -1 -84v-41q0 -62 2 -119q33 -5 65 -13t58 -25t43.5 -45t20.5 -73zM557 -90q-42 -1 -85.5 -22.5t-80 -54t-61.5 -72.5t-29 -77
q-1 -8 -1 -15q0 -9 2 -16q2 -14 8 -23.5t14.5 -16t18.5 -12.5q9 1 18 1h13q10 0 18 3q41 18 71.5 49t51 71.5t31 87.5t11.5 97z" />
    <glyph glyph-name="Z" unicode="Z" horiz-adv-x="707" 
d="M679 675q-15 -45 -36.5 -84t-44.5 -76t-46.5 -74t-42.5 -77q17 -10 40.5 -13.5t46.5 -6.5q3 -8 7 -14.5t6 -15.5q-6 -10 -14 -17.5t-19 -12.5q-25 8 -47.5 18t-53.5 12q-42 -52 -80.5 -106t-82.5 -105q19 3 40 3q15 0 31 -1q37 -5 73.5 -14.5t70.5 -22t62 -22.5
q22 -8 46 -20t37 -25q9 -11 9 -21q0 -4 -1 -7q-4 -14 -37 -27q-23 22 -55.5 40.5t-70 32.5t-77.5 22.5t-78 11.5q-25 2 -55 2q-31 0 -49 -9q-8 -4 -13.5 -10t-10 -13t-10 -15t-13.5 -15q-30 -29 -68.5 -50.5t-81.5 -29.5q-32 17 -34 41q-1 4 -1 7q0 21 12 41q14 23 39 42.5
t47 28.5q11 4 22.5 6t23.5 3t23.5 2.5t21.5 5.5q15 6 28 17.5t24.5 25.5t22 29t22.5 28q14 15 29.5 28t23.5 26q5 7 5.5 15t4.5 15q10 16 24.5 27.5t19.5 32.5q-8 8 -20 11t-24.5 5.5t-23 7t-13.5 16.5q2 14 10.5 20t16.5 13q12 -1 23 -6.5t21.5 -10.5t21.5 -8q5 -2 11 -2
q5 0 10 1q10 2 14.5 9t7.5 15t7.5 16t13.5 13q7 31 21.5 55t30 46.5t30 46t22.5 53.5q-48 10 -100 10t-103 -6t-98.5 -17t-86.5 -24q-6 -2 -17 -9t-23.5 -14.5t-23.5 -13.5t-16 -6q-12 0 -20 10q-7 8 -7 18v2q0 5 4.5 10.5t10.5 10.5t12 9t10 6q17 8 37.5 14t41 11.5
t40.5 11.5t35 14q82 13 162 15h54q55 0 115 -2q10 7 22 7q4 0 9 -1q17 -3 22 -16zM175 30q-28 -10 -53 -21.5t-38 -35.5q58 16 91 57z" />
    <glyph glyph-name="bracketleft" unicode="[" horiz-adv-x="281" 
d="M270 -48q6 -9 6 -21v-5q-2 -16 -7 -27q-15 0 -35 -1.5t-41 -4t-41 -3.5q-9 -1 -16 -1q-10 0 -18 1q-12 1 -20 12.5t-11 28.5q-2 11 -2 22q0 6 1 12q1 17 8 29v111q1 59 1.5 122.5t1.5 128.5v32q0 49 -1 95q-2 62 -5.5 119t-9.5 105q3 11 3 21q0 7 -1 15q-4 17 -9 34
t-7 34q-1 4 -1 9q0 12 5 24q16 0 35 1.5t39.5 3t40 2.5t36.5 2q3 0 5 4q2 2 4 2h1q16 -2 23.5 -15.5t12.5 -25.5q-3 -8 -9 -13t-9 -13q-29 0 -54 2q-9 1 -18 1q-18 0 -38 -3q-6 -9 -6 -18q0 -5 2 -9q4 -13 6 -27q9 -94 11 -189v-191q-2 -95 -3 -189q-1 -32 -1 -63
q0 -63 2 -124q1 -6 3.5 -10t3.5 -7v-6q-2 -3 -8 -7q9 -2 18 -2q5 0 10 1q15 1 30.5 2.5t31.5 2.5h3q15 0 27 -4z" />
    <glyph glyph-name="backslash" unicode="\" horiz-adv-x="538" 
d="M517 -111q-4 -2 -9 -2q-4 0 -8 1q-11 2 -17 5q-56 88 -107 179t-103 182q-38 49 -70 102t-61 112q-13 14 -26.5 35.5t-26.5 46.5t-25 52t-22 53q-4 9 -10 19t-12 19.5t-10.5 17.5t-4.5 14q0 25 21 30q5 1 11 1q16 0 32 -11q4 -27 13.5 -48t22.5 -39q2 -9 5 -15
q2 -5 2 -13v-5q48 -86 96.5 -168.5t100.5 -162.5q4 -6 4 -14v-3q24 -31 47 -69.5t46 -79.5t47 -81.5t50 -76.5q8 -11 16 -20t12 -18q2 -5 2 -11q0 -4 -1 -8q-3 -11 -15 -24z" />
    <glyph glyph-name="bracketright" unicode="]" horiz-adv-x="269" 
d="M202 -137q-2 -14 -8.5 -20t-16.5 -8t-23 -2.5t-26 -1.5q-21 -2 -38.5 -5.5t-30.5 -3.5t-22 7t-15 25q4 18 14.5 25.5t25.5 10t31.5 3t32.5 5.5q7 193 7 382v48q-1 212 -6 423h-29q-14 -2 -26 -3.5t-24 -1.5q-3 -1 -6 -1q-10 0 -22 2q-7 5 -11 13.5t-4 17.5t4 17t13 12
q14 -4 29 -4q9 0 18 2q25 3 49 6q15 2 29 2h14q20 -2 34 -17q1 -24 1 -49q0 -24 -1 -47q-1 -48 -2 -95q-1 -52 -1 -109q0 -29 1 -58q0 -90 1 -183v-187q-1 -93 -4 -178q0 -5 2 -8t4.5 -5t4.5 -5q1 -2 1 -5v-4z" />
    <glyph glyph-name="asciicircum" unicode="^" horiz-adv-x="477" 
d="M440 214q-3 -1 -7 -1q-10 0 -18 8q-12 9 -21.5 23t-16.5 29.5t-11 24.5q-15 32 -24 56t-22 51q-8 5 -12 13.5t-12 12.5q-5 32 -18 55.5t-25 48.5q-16 -15 -27 -34t-20 -39.5t-17.5 -41t-19.5 -39.5q-5 -8 -13.5 -14.5t-13.5 -15.5q-11 -20 -20 -41.5t-18.5 -42.5
t-21.5 -39.5t-30 -33.5h-5q-10 0 -16 3q-8 3 -16 7q0 18 6 34.5t14.5 31.5t18.5 30t18 31q11 20 21.5 41.5t22.5 42.5q24 42 42 85.5t41 84.5q9 17 20 36t20 41q4 -1 7 -1q5 0 8 2t8 2h4q10 -9 16 -22.5t10 -28.5t8 -30.5t10 -28.5q23 -57 55 -125.5t68 -125.5
q5 -8 13.5 -21.5t12.5 -27.5q2 -8 2 -15q0 -6 -1 -11q-3 -12 -20 -15z" />
    <glyph glyph-name="underscore" unicode="_" horiz-adv-x="977" 
d="M976 30q-13 -12 -29 -15q-14 -4 -30 -4q-2 0 -4 1q-18 0 -38.5 2t-42.5 2q-100 0 -201 -2.5t-198 -7.5q-18 9 -46 9q-29 0 -61 -3l-64 -6q-20 -3 -38 -3q-9 0 -18 1q-12 1 -32.5 2t-43.5 2.5t-46.5 4.5t-42.5 8.5t-30 14.5q-11 8 -11 19v2q1 21 10 27q6 4 13 4q2 0 5 -1
q9 -2 18.5 -7.5t14.5 -6.5q13 -4 27 -4q6 0 12 1q13 1 26 1h12q24 -2 48.5 -9.5t50.5 -7.5q40 0 82 6.5t86 6.5q61 0 126 -1t128 -1q21 -1 42 -1q41 0 81 1q60 1 111 5q8 3 19 8t23 7q6 1 12 1q5 0 11 -1q10 -2 16 -13q-1 -6 -1 -10q0 -7 2 -11t2 -11q0 -4 -1 -10z" />
    <glyph glyph-name="grave" unicode="`" 
d="M477 528q-12 -12 -24 -12q-1 0 -1 1q-14 0 -28 7.5t-28 20t-26 24.5q-12 11 -28 25.5t-24 28.5q-6 8 -6 17q0 4 2 8q4 12 33 18q7 -12 17.5 -22t21 -19.5t20.5 -19.5t18 -23q6 -7 14.5 -11.5t16.5 -10t14 -13t8 -19.5z" />
    <glyph glyph-name="a" unicode="a" horiz-adv-x="678" 
d="M668 24q-3 -12 -7 -22t-13 -14q-5 -2 -12 -2q-5 0 -10 1q-14 2 -29 8t-28.5 14t-20.5 15q-14 13 -22.5 30t-15.5 34.5t-12.5 32.5t-13.5 24q-11 -5 -18 -13t-13.5 -18t-13 -20.5t-15.5 -18.5q-21 -21 -50.5 -37.5t-63.5 -25.5q-29 -8 -60 -8q-5 0 -10 1q-36 1 -70 16
q-35 24 -63.5 61t-45.5 82t-19 96q-1 6 -1 12q0 44 16 90q6 16 16.5 35.5t23.5 37.5t27.5 33t28.5 24q36 22 79 29q23 3 46 3q19 0 39 -2q43 -6 83.5 -22.5t73.5 -40.5q9 9 22.5 19.5t28.5 17.5q13 5 26 5h5q15 -1 29 -15q8 -31 8 -61v-15q-3 -37 -13 -71.5t-24.5 -65.5
t-27.5 -58q15 -47 33.5 -90t49.5 -74h11q16 0 24 -4q11 -7 22 -23zM535 436q-20 -29 -22 -64v-16q0 -28 5 -61q6 12 14 31.5t13 40.5q3 17 3 33v7q-1 18 -13 29zM468 222q-4 41 -8 86q-3 26 -3 51q0 17 1 33q-13 20 -35 36t-48 26t-55 14q-17 2 -32 2q-12 0 -24 -1
q-35 -4 -61 -16.5t-46 -30.5q-11 -20 -24 -44t-22.5 -51t-13.5 -56q-1 -11 -1 -21q0 -19 4 -38q4 -16 12.5 -35.5t20 -38.5t25 -35t26.5 -25q20 -14 47 -18q17 -3 36 -3q10 0 20 1q33 10 58 28t46 40t39.5 47t37.5 49z" />
    <glyph glyph-name="b" unicode="b" horiz-adv-x="687" 
d="M650 152q-5 -53 -25.5 -89.5t-53 -62t-74 -43t-87.5 -32.5h-8q-45 0 -80 11q-39 11 -70 29t-57 41t-53 46q-8 -15 -11 -41.5t-8.5 -49.5t-17.5 -34q-6 -4 -13 -4q-11 0 -27 9q-4 10 -4 19v4q1 11 3 22t4 23q1 8 1 16v9q16 66 29 145t14 156q0 18 -2 36t-4 35.5t-2 34.5
q0 16 5 31q-5 13 -8 31.5t-5 39t-4.5 42t-6.5 41.5q-2 15 -5 34q-3 11 -3 21q0 6 1 11q2 14 13 19q3 1 7 1q11 0 31 -9q16 -83 26 -175t11 -183q16 16 30.5 35t30 37.5t33 35.5t39.5 29q29 15 59 21q19 3 39 3q10 0 21 -1q29 -3 56 -13.5t49 -26.5q28 -20 53 -53t43 -73.5
t27 -86.5q5 -31 5 -62q0 -15 -1 -29zM570 79q20 50 20 101v8q-2 54 -20 102t-49 86t-68 60q-23 6 -43 6q-13 0 -24 -2q-31 -6 -56 -19.5t-46.5 -32t-40.5 -35.5q-11 -23 -27 -43.5t-29.5 -42.5t-19.5 -46q-3 -11 -3 -22q0 -16 5 -33q-5 -12 -5 -24q0 -1 1 -2q0 -13 4.5 -25
t11.5 -22t15 -18q13 -13 31 -26t36.5 -25t37 -22t32.5 -17q18 -3 35 -3t34 3q34 6 65 20t57 33.5t46 40.5z" />
    <glyph glyph-name="c" unicode="c" horiz-adv-x="638" 
d="M595 362q-19 2 -30 9.5t-19 17t-15 19.5t-19 17q-23 14 -55 25.5t-67.5 18t-71.5 6.5q-37 0 -70 -9q-23 -7 -45.5 -22t-41.5 -35.5t-33.5 -44t-20.5 -46.5q-11 -39 -11 -77q0 -13 2 -25q4 -51 24 -94.5t54.5 -74.5t81.5 -43q33 -8 66 -8q3 -1 5 -1q30 0 59 6
q30 6 56.5 17.5t47.5 25.5q5 4 10 10.5t10.5 12.5t12.5 10t17 4q17 -1 26 -14q6 -8 6 -20q0 -6 -2 -13q-2 -5 -10 -11t-17.5 -12.5t-19 -12t-13.5 -7.5q-11 -6 -27 -8.5t-30 -8.5t-24 -11.5t-20.5 -11t-22 -9.5t-27.5 -5q-13 -1 -27 -1q-48 0 -94 15q-58 18 -99 50
q-7 5 -12 14.5t-12 15.5q-14 13 -28 23t-22 30q-10 24 -15 54.5t-8 56.5q-3 23 -3 45q0 46 13 89q19 62 56 106q8 8 19 14.5t22 16.5t17.5 20.5t15.5 15.5q6 3 18.5 8t27 9.5t29 8t25.5 4.5q22 3 41 3q22 0 41 -3q37 -7 72 -20q21 -7 38 -13.5t32 -14t29.5 -17t30.5 -22.5
q11 -9 24 -19.5t20 -21.5q5 -9 5 -17v-5q-3 -11 -22 -20z" />
    <glyph glyph-name="d" unicode="d" horiz-adv-x="718" 
d="M738 -61q1 -6 1 -11q0 -20 -9 -28q-11 -10 -26 -10q-2 0 -4 1q-18 1 -38.5 10.5t-33.5 21.5q-17 14 -32 35.5t-28 46t-24 49.5t-20 46q-13 -20 -31 -43.5t-39.5 -47t-46 -44.5t-50.5 -36q-20 -11 -52 -21.5t-62 -11.5h-6q-22 0 -40 6q-21 7 -40 18t-36.5 25t-34.5 28
q-20 28 -34.5 65.5t-20.5 78.5q-5 29 -5 59q0 11 1 23q2 42 16 81q24 42 58 74.5t76 56.5q30 3 63 6q28 2 55 2h11q32 -1 62.5 -7t55.5 -21q13 -8 20 -18.5t23 -11.5v101q-1 11 -1 21q0 46 6 90q6 54 27 98t69 64h5q22 0 36 -8q15 -10 24 -25.5t14.5 -34.5t13.5 -36
q-8 -122 -30.5 -233t-66.5 -205q5 -35 15 -65t23 -57t28.5 -52t30.5 -50q8 -5 18.5 -8t21.5 -5.5t21 -6t16 -10.5zM584 424q2 7 2 14q0 6 -1 12q-2 8 -2 16q0 6 1 12q3 23 9.5 47.5t10.5 48.5q1 12 1 24t-1 23q-4 23 -20 44q-3 1 -6 1q-9 0 -18 -8q-11 -11 -16 -20
q-16 -33 -20 -76q-3 -29 -3 -59q0 -15 1 -30q2 -46 7.5 -91.5t8.5 -84.5q17 18 21 45.5t12 54.5q2 8 6.5 13.5t6.5 13.5zM501 190v6q0 13 -3 27q-4 16 -10.5 31.5t-15.5 28t-18 21.5q-9 8 -25.5 18.5t-36 20.5t-38.5 16.5t-34 7.5q-14 1 -27 1q-61 0 -105 -23
q-54 -28 -81 -77q-25 -46 -25 -103q0 -6 1 -11q2 -64 37 -131q15 -20 36.5 -35.5t47.5 -22.5q22 -7 47 -7h7q28 1 56 15q28 13 59.5 39t59.5 56.5t47 62.5t21 59z" />
    <glyph glyph-name="e" unicode="e" horiz-adv-x="599" 
d="M542 95q-7 -28 -27 -50t-40 -37q-18 -14 -41 -21t-43 -19q-38 -2 -72 -3.5t-68 -3.5q-43 11 -79.5 31.5t-64.5 52.5q-13 15 -28 41t-26 57.5t-16 65.5q-2 12 -2 25q0 20 5 38q2 9 12 21t18 29q26 51 57.5 89t80.5 61q31 15 75 22q29 4 58 4q16 0 32 -1q45 -4 85.5 -19
t63.5 -42q15 -18 24.5 -41.5t11.5 -48.5v-11q0 -19 -5 -37q-7 -23 -25 -40q-23 -22 -56.5 -39.5t-72 -29t-80.5 -15.5q-20 -3 -39 -3q-22 0 -42 3q-40 5 -74.5 20.5t-59.5 43.5q-1 -11 -1 -21q0 -26 7 -52q10 -37 30 -67t49.5 -50.5t64.5 -26.5q21 -4 45 -4q3 0 6 1
q26 0 51.5 4.5t48.5 13.5t40 22q15 11 24.5 27t25.5 30q5 1 10 1q13 0 21 -4q10 -6 16 -17zM502 342q-2 19 -12.5 31.5t-17.5 32.5q-20 19 -51 27t-65 8q-35 0 -70.5 -5.5t-64.5 -13.5q-29 -24 -54 -51.5t-40 -65.5q17 -30 43 -46.5t59 -23.5q31 -7 66 -7q2 0 5 1q38 0 78 3
q16 11 38.5 21t42 22.5t32.5 28.5q11 14 11 32v6z" />
    <glyph glyph-name="f" unicode="f" horiz-adv-x="407" 
d="M515 546q-5 -8 -11.5 -16t-14.5 -13t-16 -5q-1 0 -2 1q-9 0 -19 9q-1 6 -1 11q0 10 4 18q6 11 14 21t15.5 21t7.5 26q-1 25 -20 44t-46.5 29.5t-58.5 12.5h-8q-26 0 -48 -9q-19 -8 -35 -22t-32 -31q-29 -32 -50 -79.5t-23 -104.5q8 -11 20 -14q8 -2 18 -2h6q13 1 27 3.5
t29 2.5q9 -8 17 -17q7 -8 7 -23v-4q-11 -8 -25 -9q-9 -1 -19 -1h-12q-17 1 -34 3q-12 1 -23 1h-11q-4 -32 -4 -63q0 -13 1 -25q2 -43 8.5 -84.5t16.5 -82t21 -80.5q0 -26 5.5 -48.5t12 -44.5t11.5 -43q2 -13 2 -28q0 -9 -1 -19q-13 -10 -27 -10q-11 0 -23 6
q-28 122 -53 246.5t-34 265.5q-12 -2 -31.5 -6t-36.5 -4q-2 -1 -3 -1q-16 0 -26 8q-10 6 -10 23v6q25 12 55 14t56 10q4 57 21.5 112t48 99.5t74.5 72.5t103 30h7q17 0 36 -3q22 -5 43.5 -13t40 -20t30.5 -27q24 -32 25 -69v-3q0 -35 -25 -72z" />
    <glyph glyph-name="g" unicode="g" horiz-adv-x="554" 
d="M564 -106q-1 -33 -8.5 -59.5t-20 -48t-30 -41t-38.5 -38.5q-10 -9 -17.5 -15t-16 -10.5t-19.5 -8.5t-27 -10q-11 -4 -20 -9.5t-17 -6.5q-12 -2 -24 -2q-10 0 -20 2q-22 2 -44 7t-44.5 9t-44.5 4q-21 11 -39 32.5t-31 48.5t-19 57q-6 24 -6 48q0 6 1 12q1 29 12.5 55
t34.5 44q6 5 15.5 8.5t17.5 8.5q17 10 31.5 20.5t31 18t37.5 11.5q17 3 39 3h12q3 4 3 9t-2 10q-4 8 -4 17v4q-16 -1 -32 -1q-51 0 -97 13q-60 16 -99 49q-16 25 -29 57t-19 67q-5 26 -5 53v16q2 35 16 67q26 35 55.5 65.5t58.5 61.5q27 13 62 20q28 5 55 5h13
q33 -2 63.5 -12t50.5 -29q10 -1 20 -1q14 0 27 2q22 4 43 8t40 4q18 0 34 -10q1 -6 1 -11q0 -10 -3 -18q-4 -13 -15 -18q-9 1 -21 2h-25q-13 -1 -25.5 -3.5t-21.5 -8.5q31 -47 38 -100q2 -17 2 -34q0 -36 -10 -70q-14 -50 -44.5 -90.5t-72.5 -59.5q-1 -6 -1 -15t0.5 -19.5
t1.5 -21t2 -18.5q76 -5 121 -41t73 -89zM417 218q16 27 20 56q1 11 1 23q0 17 -3 33q-5 28 -16.5 55t-25.5 50q-14 6 -23.5 15t-18.5 17.5t-19 15.5t-25 9t-29 2q-26 0 -51 -8q-39 -13 -69 -39.5t-49.5 -62.5t-24.5 -75q-1 -12 -1 -24q0 -27 8 -54q12 -39 45 -70
q36 -18 83 -25q25 -4 53 -4q23 0 48 3q26 17 53 35.5t44 47.5zM504 -106q-8 22 -32 38.5t-56.5 27.5t-68.5 16q-22 3 -43 3q-12 0 -24 -1q-23 -2 -39 -10t-29.5 -17.5t-26.5 -19.5t-29 -17q-17 -24 -19 -53q-1 -7 -1 -14q0 -22 6 -42q7 -27 21.5 -50t32.5 -35q27 -5 56 -10
t58 -5q2 -1 5 -1q26 0 53 6q28 5 52 20q15 9 33 28t31.5 42.5t20.5 48.5q3 11 3 22q0 12 -4 23z" />
    <glyph glyph-name="h" unicode="h" horiz-adv-x="562" 
d="M521 251v-11q0 -34 -5 -68q-6 -40 -15 -78.5t-20 -75t-20 -68.5q-10 -2 -18 -5q-5 -2 -12 -2q-4 0 -10 1q-6 5 -10.5 11.5t-9.5 11.5q14 40 28.5 89t22.5 100q6 39 6 77v24q-3 49 -24 91q-17 18 -38.5 32t-48.5 22q-37 -6 -68 -15t-55 -32q-34 -33 -51 -86t-25 -115
t-11 -126.5t-10 -120.5q-18 -12 -29 -12q-3 0 -5 1q-12 3 -17.5 16.5t-5.5 34.5q0 20 2 42t4.5 41.5t3.5 30.5q4 60 5 124v42q0 41 -1 82q-2 61 -5.5 116.5t-7.5 100.5q-10 17 -10 47t-3 63q-2 17 -7 36t-5 33t11 21q5 3 15 3q11 0 28 -4q11 -43 18 -92t11 -100.5t6.5 -103
t5.5 -100.5q14 39 47 69t76 45q35 12 73 12h19q48 -4 92 -33q27 -36 49.5 -76.5t23.5 -94.5z" />
    <glyph glyph-name="i" unicode="i" horiz-adv-x="217" 
d="M103 648q20 12 33 12h5q13 -3 18 -14q2 -7 2 -16v-9q-3 -15 -11 -24q-8 -8 -19 -8q-2 0 -3 1q-14 1 -31 21q-1 4 -1 7q0 8 4 13q3 5 3 13v4zM183 -54q-10 -4 -18 -4q-6 0 -10 3q-11 5 -18 17.5t-11 28t-9 28.5q-17 43 -29 98t-17 114q-4 49 -4 99v20q1 59 10 110
q13 12 28 12h4q17 -2 24 -18q3 -6 3 -13t-2 -15q-5 -17 -7 -36q-2 -22 -2 -49v-18q1 -38 2 -63q0 -21 1.5 -46.5t5.5 -51.5t9.5 -51t13.5 -45q6 -17 16 -32.5t16.5 -29.5t6.5 -28q0 -15 -13 -30z" />
    <glyph glyph-name="j" unicode="j" horiz-adv-x="252" 
d="M96 638h-3q-12 0 -21 8q-10 8 -13 20q-1 5 -1 9q0 7 3 14q5 11 21 16q6 2 11 2q11 0 18 -6q10 -10 12 -23v-6q0 -11 -5 -20q-7 -13 -22 -14zM166 63q-5 -68 -14.5 -125.5t-29.5 -111.5q-7 -18 -12 -29.5t-11 -21.5t-14 -19.5t-20 -23.5q-25 -29 -55.5 -54t-67 -40
t-79.5 -16q-3 -1 -7 -1q-40 0 -85 17q-13 5 -26 13t-23.5 18.5t-15.5 22.5q-3 7 -3 14q0 5 1 9q7 22 19 22t26 -9.5t27 -22.5t22 -16q33 -14 62 -14q8 0 16 1q35 5 64.5 22.5t54.5 42.5t47 48q6 26 17.5 46.5t22.5 40.5q15 72 26 152q8 67 8 136v26q-1 20 -5 42.5t-5 47.5
q-2 30 -3 59t-4 56.5t-9 51.5t-18 44q4 23 24 30q6 1 11 1q14 0 25 -11q5 -29 12 -55.5t18 -48.5q7 -96 8 -179v-28q0 -69 -4 -137z" />
    <glyph glyph-name="k" unicode="k" horiz-adv-x="464" 
d="M454 -32q-3 -14 -6 -26.5t-11 -20.5q-52 15 -89.5 45t-68.5 66t-60 74.5t-63 71.5q-10 -24 -14 -54.5t-6 -62.5t-4.5 -64t-8.5 -59q-14 -9 -24 -9t-26 2q-7 10 -8 20v8q0 6 1 13q1 10 4.5 20.5t5.5 22.5q9 47 13 104t5 118v24q0 49 -2 98q-2 60 -6 114q-3 35 -9.5 67.5
t-14 65t-14.5 65.5t-12 69q8 8 20 15q5 2 11 2q8 0 16 -4q21 -53 33.5 -112t19 -121.5t9 -127.5t4.5 -130q21 9 42.5 26.5t43 39.5t41.5 46t37 45q4 6 12.5 15t19 17.5t21.5 15t21 6.5q14 -1 23 -9q7 -7 7 -19v-6q-1 -8 -5.5 -13.5t-10.5 -9t-12.5 -7t-11.5 -7.5
q-19 -17 -38.5 -40t-41 -47t-44 -46.5t-47.5 -36.5q35 -61 78.5 -112t88.5 -102q26 -8 43 -23t38 -27z" />
    <glyph glyph-name="l" unicode="l" horiz-adv-x="224" 
d="M178 -51q-3 -8 -10.5 -14t-16.5 -8q-5 -1 -11 -1q-4 0 -8 1q-10 1 -17 8q-11 100 -23 198.5t-17 195.5q-3 54 -3 107q0 43 2 86q4 96 24 192q10 3 19 3q6 0 12 -1q13 -5 22 -15q-15 -95 -19 -191q-3 -48 -3 -96q0 -47 3 -95q4 -95 16.5 -188t29.5 -182z" />
    <glyph glyph-name="m" unicode="m" horiz-adv-x="904" 
d="M845 438q15 -47 17 -92v-21q0 -35 -5 -69q-7 -44 -20 -87t-29 -85q-11 -30 -27 -57.5t-33 -49.5q-5 2 -8 2h-4q-3 -2 -9 -2h-6q-9 6 -12 17q-2 6 -2 13q0 4 1 8q1 10 6.5 20t13.5 15q17 43 33 87.5t34 86.5q2 28 5 58q2 22 2 43v14q-1 28 -7.5 53t-22.5 43q-10 7 -24 12
t-30 7q-8 1 -16 1t-15 -1q-16 -2 -29 -9q-24 -17 -42 -39.5t-38 -44.5q-8 -21 -18 -41.5t-19 -41.5t-16.5 -43t-10.5 -47q-3 -23 -3 -44q0 -4 1 -7q0 -24 1 -48t2 -49v-6q0 -22 -4 -47q-14 -14 -37 -17q-16 14 -21 32t-5 39q0 20 3 41.5t3 41.5q0 49 -2.5 100t-11.5 96.5
t-28 84t-52 63.5q-13 3 -25 3q-10 0 -19 -2q-19 -5 -34.5 -15t-28.5 -23t-26 -23q-7 -17 -16 -33.5t-18.5 -34t-17.5 -36.5t-12 -40q-5 -28 -5 -57q0 -8 1 -15q1 -37 7 -74t14 -73.5t13 -70.5q-7 -16 -25 -24q-6 -3 -12 -3q-12 0 -23 10q-15 49 -23.5 112.5t-17 130.5
t-20 131t-33.5 114q-3 7 -7 13t-7 12.5t-4 14.5v4q0 7 2 16q15 12 27 12q3 0 5 -1q14 -3 24 -17t17.5 -36t13 -46t10.5 -46t10 -36q25 52 56.5 96.5t76.5 76.5q20 3 35 10.5t32 13.5q41 -5 69.5 -22.5t48 -44t31 -61t18.5 -73.5q33 48 66 93.5t78 80.5q24 6 48 6q15 0 29 -2
q38 -6 74 -14q13 -15 26 -29t27 -28z" />
    <glyph glyph-name="n" unicode="n" horiz-adv-x="610" 
d="M564 357q-1 -44 -3 -89.5t-8 -89t-17 -83t-29 -72.5q1 -6 1 -12q0 -12 -4 -21q-7 -15 -18 -22q-9 -7 -20 -7q-2 0 -4 1q-14 1 -25 14q-1 8 -1 14t1 12q2 10 6.5 19t9.5 16.5t10 15.5q17 45 28 103.5t12 116.5v4q0 56 -13 105q-14 51 -47 82q-5 5 -15 8t-21 4h-8
q-8 0 -15 -1q-12 -1 -21 -4q-40 -14 -75.5 -46.5t-61.5 -77t-39 -96.5q-12 -43 -12 -88q0 -10 1 -20q1 -23 7 -44.5t12.5 -42.5t12.5 -42.5t8 -44.5q-8 -11 -19 -18q-9 -6 -22 -6q-6 0 -12 1q-18 37 -23.5 79t-13.5 85q-7 37 -15.5 78t-18 80.5t-20 77t-20.5 68.5
q-4 12 -8.5 22t-6.5 19q-1 5 -1 9t1 9q2 8 12 18q8 3 15 3q9 0 16 -4q11 -8 17 -22t9 -31t6 -30q9 -32 18.5 -59.5t11.5 -47.5q20 40 43.5 76.5t52.5 67t65.5 53.5t83.5 37h5q42 0 69 -15q28 -16 46.5 -41.5t31 -57.5t25.5 -63z" />
    <glyph glyph-name="o" unicode="o" horiz-adv-x="655" 
d="M606 324q8 -43 8 -80q0 -35 -7 -65q-15 -63 -52.5 -107t-94 -70.5t-122.5 -38.5q-67 2 -122.5 17t-97.5 47q-18 13 -29.5 31.5t-20.5 38.5t-17.5 41.5t-19.5 42.5q8 50 16 99t24 91q23 28 53 56t66 49.5t77 32.5q28 8 58 8q13 0 27 -2q16 -2 37.5 -8t43 -14t41 -18
t31.5 -20q10 -9 18 -19t15.5 -20.5t17 -19.5t23.5 -15q7 -14 12.5 -29.5t14.5 -27.5zM556 177q3 18 3 36q0 14 -1 29q-5 34 -6 66q-15 10 -26 25t-21 31t-20.5 31t-25.5 26q-32 12 -60.5 25.5t-60.5 14.5h-6q-40 0 -68 -13q-31 -14 -59 -33q-20 -14 -36 -26t-28.5 -26
t-22.5 -30.5t-17 -38.5q-9 -38 -9 -72q0 -25 5 -48q12 -54 47 -94q21 -11 44 -23.5t48.5 -22t52.5 -13.5q14 -3 29 -3q13 0 27 2q34 5 69 19t64 35t50 47t28 56z" />
    <glyph glyph-name="p" unicode="p" horiz-adv-x="699" 
d="M624 116q-4 -6 -10.5 -15t-14 -18t-14.5 -16.5t-13 -11.5q-5 -3 -14.5 -6.5t-20.5 -7t-22.5 -6.5t-19.5 -5q-5 -1 -8.5 -4.5t-6.5 -4.5h-3q-5 0 -8 2q-4 1 -10 1h-4q-10 -1 -19.5 -5t-17.5 -4q-14 0 -34 6t-34 12q-11 6 -19 15.5t-21 18.5q-12 9 -22.5 15.5t-17.5 14
t-7 18.5l-1 1q0 11 8 28q10 3 18 3q9 0 16 -3q13 -8 24 -20.5t22.5 -25.5t27.5 -18q30 -10 58 -10q18 0 35 5q43 10 74.5 38.5t50 70.5t19.5 89v7q0 29 -7 53q-8 26 -21 48t-30 40.5t-34 36.5q-47 25 -93 25q-6 0 -12 -1q-52 -4 -101 -27q-33 -15 -65 -31.5t-52 -42.5
q11 -53 20.5 -109.5t14.5 -114.5q3 -44 3 -89v-30q-2 -61 -14 -122q-4 -21 -7 -43t-6.5 -42.5t-9 -38.5t-14.5 -32q-12 -18 -34 -30t-45 -14h-7q-19 0 -35 9q-20 10 -26 38q-18 79 -19 164v11q0 79 13 155q13 82 40 156t64 132q0 21 -11.5 43t-21.5 42t-11 39q-1 1 -1 2
q0 17 17 31q7 -5 16.5 -6t14.5 -6q5 -26 15.5 -46.5t21.5 -39.5q15 5 28 13.5t26.5 17.5t27 17t29.5 13q5 2 11 2h3q1 -1 3 -1q5 0 11 2q13 5 26.5 12t29 12.5t34.5 9.5q9 1 21 1q10 0 21 -1q33 -9 57 -17.5t43.5 -20.5t36.5 -28.5t35 -41.5q22 -31 34.5 -69.5t13.5 -79.5
v-4q0 -40 -10 -80q-11 -42 -35 -81zM175 -68q5 39 8 85q1 32 1 64v26q-1 45 -4 85t-8 69q-3 16 -10 32t-9 17q-2 -1 -3 -4t-3 -5q-17 -40 -33 -91t-28 -107t-17 -114q-4 -34 -4 -67q0 -23 2 -46q2 -28 9.5 -58t30.5 -49q18 3 29.5 20t19 40.5t12 51t7.5 51.5z" />
    <glyph glyph-name="q" unicode="q" horiz-adv-x="669" 
d="M787 -146q-2 -29 -10 -61t-23.5 -59t-37.5 -44q-22 -16 -50 -16h-3q-15 0 -25.5 4.5t-18.5 11.5t-15.5 14.5t-17.5 15.5q-17 51 -34 104t-30.5 108t-21.5 111q-8 49 -8 98v11q-21 -16 -42.5 -34.5t-45.5 -35.5t-52.5 -29t-63.5 -15q-10 -1 -20 -1q-15 0 -27 2
q-22 3 -41 9t-36 14t-33 16q-19 10 -33 19.5t-24.5 21t-19 27t-16.5 36.5q-13 33 -13 66q0 16 3 32q9 49 32.5 93t55.5 80t59 60q46 17 99 27q35 6 69 6q16 0 32 -1q48 -5 87.5 -26.5t59.5 -66.5q5 12 7.5 26.5t5.5 28t8.5 25t15.5 17.5q5 1 10 1q6 0 11 -2q8 -3 16 -5
q3 -13 3 -27v-13q-3 -20 -8.5 -40t-12 -40t-9.5 -41q-8 -46 -8 -95q0 -3 1 -6v-4q0 -51 -13 -99q5 -28 5 -61v-6q-1 -3 -1 -6q0 -33 6 -60q14 0 27 12.5t26.5 25t29.5 19.5q5 2 10 2q11 0 24 -9q1 -6 1 -10q0 -11 -4 -17q-7 -10 -16 -16t-19 -11.5t-15 -15.5
q30 -12 56.5 -27.5t48 -35.5t36.5 -47t23 -61zM486 396q-5 11 -9 23.5t-8 19.5q-9 16 -27.5 27t-40.5 17.5t-46 8.5q-16 1 -30 1h-13q-39 -4 -75.5 -21.5t-65.5 -44.5t-50 -61.5t-29 -71.5q-4 -21 -4 -42q0 -17 3 -34q6 -39 30 -73q15 -3 27 -9.5t23.5 -14t22.5 -14t24 -9.5
q23 -6 45 -6q17 0 34 4q37 9 69 28t58.5 44t47.5 47q25 42 29 90v15q0 39 -15 76zM676 -59q-11 3 -26.5 11.5t-30.5 13.5q-11 4 -20 4q-4 0 -7 -1q-12 -2 -16 -18q-1 -3 -1 -6q0 -8 6 -17q7 -12 12 -24q7 -21 13.5 -48.5t13.5 -54.5t15.5 -50t20.5 -34q36 7 53.5 37.5
t19.5 66.5v7q0 32 -12 63q-14 34 -41 50z" />
    <glyph glyph-name="r" unicode="r" horiz-adv-x="518" 
d="M516 411q-17 -9 -28 -9q-4 0 -6 2q-11 4 -15.5 16t-7.5 27.5t-14 24.5q-8 7 -14.5 8.5t-12.5 2t-13.5 1t-18.5 5.5q-24 -10 -50 -17.5t-50 -17t-44.5 -22t-32.5 -31.5q4 -56 12.5 -109t14.5 -104.5t8 -104.5v-15q0 -46 -8 -94q-10 -16 -27 -25.5t-36 -18.5
q-36 2 -54.5 20t-27.5 43.5t-13 53.5t-11 51q8 36 10 75t6.5 75.5t17 67.5t41.5 51q4 10 4 21q0 6 -1 13q-4 18 -11.5 36.5t-15.5 35.5t-10 33q-1 4 -1 8q0 11 4 19q6 12 27 19q11 -7 17.5 -17t12 -22t10 -24.5t11.5 -23.5q33 10 67.5 26.5t82.5 27.5q13 3 25 9t22 8
q10 1 19 1q21 0 41 -4q29 -7 48.5 -23t26.5 -41q3 -9 3 -19q0 -18 -8 -39zM173 -13q8 33 9 74v16q0 33 -3 67q-4 43 -11 84.5t-15 75.5q-12 -31 -21 -76t-9 -91t11 -87t39 -63z" />
    <glyph glyph-name="s" unicode="s" horiz-adv-x="531" 
d="M515 404q-7 -16 -17 -27q-9 -10 -29 -10h-7q-19 26 -35.5 53t-41.5 47q-39 13 -80 18q-11 1 -23 1q-32 0 -67 -9q-18 -5 -40.5 -16t-30.5 -21q-6 -8 -15.5 -16t-18 -17t-13.5 -20q-4 -8 -4 -18q0 -4 1 -9q1 -9 6.5 -18t14 -18t18 -16t18.5 -11q13 -6 27 -8.5t28 -4.5
t27.5 -5t24.5 -12q47 -1 95 -18.5t82 -45.5q32 -43 32 -86v-7q-3 -46 -32 -81.5t-77 -55.5q-37 -15 -78 -15q-12 0 -25 1q-29 10 -55 22.5t-46.5 30.5t-34.5 42.5t-18 58.5h3q6 0 12 3l16 6q7 2 13 2h3q7 -1 13 -8q8 -5 12 -15q1 -5 1 -9q0 -7 -3 -13q21 -30 56 -44
q28 -12 57 -12q6 0 13 1q35 3 66 21.5t45 53.5q-2 19 -10 36t-20 31q-28 16 -61.5 26t-68 18.5t-68 17.5t-63 23t-52 35t-34.5 54v40q5 19 14 33.5t20 27.5t23 24.5t23 24.5q11 6 22.5 11t23 10.5t21.5 12.5t17 17q14 -4 30 -4q2 0 4 1q18 0 36.5 2.5t35.5 4.5h14q9 0 17 -1
q47 -8 81 -31.5t66 -48.5q1 -11 6 -18.5t10.5 -14l11 -13t8.5 -14.5z" />
    <glyph glyph-name="t" unicode="t" horiz-adv-x="445" 
d="M396 513q14 -20 14 -31v-2q-2 -12 -14.5 -17t-32 -5.5t-40.5 -0.5q-22 0 -41 -1.5t-30 -8.5q-13 -52 -13 -109q-1 -4 -1 -8q0 -53 8 -105q7 -56 20.5 -106t29.5 -87q12 -10 21.5 -28.5t28.5 -34.5q8 -7 16.5 -12t15.5 -10.5t11 -12.5q3 -6 3 -14v-5q-1 -15 -13 -23
q-10 -7 -21 -7h-6q-9 2 -13 10.5t-17 19.5q-5 5 -13.5 7.5t-12.5 5.5q-15 13 -27.5 32.5t-23 40.5t-19 43t-14.5 42q-8 23 -15 51t-12 62q-2 17 -2 34q0 11 1 21q1 17 1 35v17q-1 28 -3 61q-1 9 -1 19q0 23 4 47q-3 1 -7 1q-11 0 -24 -8q-18 -10 -37.5 -22.5t-38.5 -22.5
q-17 -8 -31 -8h-6q-14 2 -20 13q-6 9 -6 18q0 2 1 5q1 11 12 19q7 6 20 6q5 0 10 -1q28 23 63.5 36t73.5 24q5 40 15.5 87t18.5 91q2 11 2 22q0 10 1 19.5t4.5 16.5t12.5 12q5 -2 12 -2q6 0 12 -1t11 -4t8 -10q-9 -45 -18.5 -101.5t-14.5 -112.5q12 -1 24 -1q21 0 45 3
q23 2 44 2q12 0 24 -1z" />
    <glyph glyph-name="u" unicode="u" horiz-adv-x="593" 
d="M547 307v-11q0 -22 -3 -42q-2 -15 -2 -27q0 -9 1 -17q-12 -52 -37 -99t-61 -81.5t-83 -52.5q-34 -13 -72 -13q-15 0 -31 2q-52 6 -88.5 32t-60.5 66t-36 91.5t-15 107.5q-1 17 -1 36t1 40q1 20 1 41q0 20 -1 40q-1 18 -5 39q-3 12 -3 21q0 6 1 10q3 12 10.5 18t17.5 7h3
q8 0 16 -3q9 -5 17 -15q1 -32 1 -65t-1 -66q-1 -19 -1 -37q0 -46 4 -89q5 -60 23 -110.5t60 -83.5q12 -9 27.5 -14t32.5 -7t35.5 -2.5t35.5 -0.5q54 20 86.5 59.5t57.5 87.5q6 36 10 67.5t6 62.5v63q-2 31 -6 68q-7 9 -11 23q-3 10 -3 21v5q1 13 7 23t20 12h4q12 0 18 -5
q7 -6 10 -16q3 -9 3 -20v-3q-1 -13 -2 -23q0 -13 2 -31.5t4.5 -38t5 -38.5t2.5 -32z" />
    <glyph glyph-name="v" unicode="v" horiz-adv-x="546" 
d="M538 489q3 -9 3 -17v-6q-2 -10 -6.5 -17.5t-10.5 -14t-12 -12.5q-24 -61 -53.5 -115.5t-60 -107.5t-60.5 -107.5t-54 -114.5q-8 -3 -15 -3q-4 0 -7 1q-10 2 -21 5q-18 68 -46 127t-58.5 115t-59.5 113.5t-50 122.5q0 5 -2.5 7.5t-5.5 4.5t-6 4.5t-3 7.5v4q0 12 5 20
q5 10 14 15q6 3 13 3q3 0 6 -1q10 -2 19 -11q3 -14 9 -26t12.5 -23t11.5 -23.5t7 -27.5q20 -35 35.5 -74t31.5 -77q16 -17 28 -38t23.5 -42.5t22 -44t23.5 -42.5q26 47 55.5 93.5t57 94.5t51 98t37.5 105q8 3 13 9t13 8q11 -2 21.5 -5t18.5 -8z" />
    <glyph glyph-name="w" unicode="w" horiz-adv-x="927" 
d="M880 269q3 -19 3 -37q0 -27 -7 -53q-12 -44 -38.5 -80t-64.5 -61.5t-83 -37.5q-32 -8 -62 -8q-12 0 -23 1q-42 4 -79 20.5t-68.5 42.5t-53.5 59q-24 -18 -44.5 -46.5t-44.5 -53t-55 -38.5q-18 -9 -41 -9q-17 0 -37 5q-39 9 -63 35.5t-38 63.5t-20 82t-8 93q-1 24 -1 55
q-1 5 -1 10q0 25 3 51q2 30 8 57t18 44q7 2 13 2q7 0 12 -3l16 -12q4 -8 4 -15v-2q-1 -8 -3.5 -16t-6 -15.5t-4.5 -16.5q-5 -30 -5 -63q-1 -7 -1 -13q0 -27 2 -53q2 -33 7 -65.5t10 -62.5q4 -23 14 -44t25 -35t36 -19q9 -3 18 -3q14 0 30 5q12 4 29 18t33.5 31.5t30.5 35.5
t21 30q8 14 9 27v8q0 9 -1 18q-3 13 -7.5 27.5t-7.5 32.5q-8 40 -9 77v8q0 32 7 60q8 30 27 52.5t51 34.5q33 -10 50 -31.5t22 -48.5q2 -14 2 -27q0 -16 -3 -32q-5 -31 -15.5 -61.5t-23.5 -58t-24 -46.5q14 -41 42 -72t66.5 -48t85.5 -17q1 -1 2 -1q46 0 96 21q44 33 78 67
q7 25 14 55.5t10 62.5q2 17 2 34q0 14 -1 28q-3 30 -16 56q-5 10 -12 17t-14.5 13t-14.5 13t-12 16q9 29 24 35q4 1 9 1q10 0 21 -7q15 -12 30 -36t24.5 -52t12.5 -56q1 -8 1 -15q0 -19 -6 -34zM432 429q-14 -10 -21 -29t-7 -41q-1 -3 -1 -6q0 -20 4 -41q3 -25 10 -45
q6 16 16 37.5t16 44.5q5 17 5 33q0 6 -1 11q-2 21 -21 36z" />
    <glyph glyph-name="x" unicode="x" horiz-adv-x="531" 
d="M505 -15v-9q0 -18 -6 -31q-9 -17 -34 -21q-12 6 -20.5 15.5t-16 19t-16.5 18t-24 11.5q-23 42 -52.5 76.5t-61.5 67.5q-92 -75 -170 -164q-7 0 -9 3h-3q-2 0 -5 -3q-12 -18 -30 -30q-18 0 -29 13t-12 28v3q0 13 9 25q8 11 29 11h3q48 38 92 80t82 90q-38 54 -77 113
t-74 125q-7 14 -18 32t-15 33q-2 5 -2 10q0 8 5 14q5 5 22 5q8 0 18 -1q13 -17 23.5 -36.5l21 -39t23 -37t29.5 -30.5q6 -21 15.5 -38.5t21 -33t23.5 -30.5t21 -32q44 51 78.5 110t71.5 117q-1 4 -1 8q0 5 2 9q2 5 2 12v5q10 6 21 9q7 2 13 2q4 0 8 -1q10 -2 16.5 -9
t8.5 -21q-18 -41 -39 -78.5t-43.5 -73t-46.5 -70t-48 -69.5q23 -27 45.5 -56.5t45.5 -57.5t48.5 -52t54.5 -41z" />
    <glyph glyph-name="y" unicode="y" horiz-adv-x="584" 
d="M629 57q16 -20 20 -52q1 -11 1 -20q0 -21 -5 -38q-8 -26 -25 -36q-6 -4 -12 -4q-14 0 -33 17v8q0 7 1 12q2 7 5 14t5.5 13.5t2.5 15.5q-1 22 -7.5 35t-18.5 20t-30 10t-41 5q-2 -58 -6 -119t-14.5 -118.5t-29.5 -108.5t-50.5 -89.5t-77.5 -60.5t-110 -22
q-45 9 -73.5 33.5t-50.5 56.5q-11 49 -16 96q-1 12 -1 24q0 37 11 78q2 9 8 23.5t13 29.5t15 28.5t14 21.5q7 9 17.5 14t19.5 13q13 13 22.5 28.5t27.5 28.5q11 8 27 15t30 15q38 20 73.5 32.5t83.5 24.5q0 27 -0.5 56.5t-1.5 59t-3 58t-5 53.5q-14 -8 -22 -20t-14.5 -26
t-12.5 -28t-15 -26q-10 -13 -26.5 -22.5t-33.5 -21.5t-34 -24.5t-37 -21t-44 -10.5q-5 -1 -11 -1q-20 0 -44 7q-30 21 -45 51.5t-18 66.5q-2 13 -2 28q0 22 4 46q5 38 14.5 76t21.5 73.5t21 63.5q11 7 24 7q5 0 10 -1q5 -7 10 -13t10 -14q-10 -38 -25.5 -82t-24.5 -89
q-6 -32 -6 -63q0 -12 1 -24q3 -42 31 -76q11 -2 20 -2q6 0 12 1q14 2 25 6.5t20.5 11t19.5 13.5q16 11 32.5 18.5t27.5 21.5q12 14 21 31.5t17.5 34.5t18 32.5t24.5 25.5q9 36 20 72q10 32 10 68v7l22 10q6 3 12 3t12 -3q8 -11 11.5 -25.5t4.5 -31.5v-8q0 -13 -1 -26
q-2 -17 -4 -32q3 -34 4 -68t2 -70t2 -74t5 -79q13 -3 22.5 -5.5t18.5 -5t19 -4.5t24 -3q7 -6 14 -10t14.5 -8t15 -10.5t16.5 -17.5zM428 7q0 3 1 9t1 12t-2.5 10.5t-9.5 5.5q-12 -5 -23.5 -9t-23.5 -6.5t-24.5 -5t-22.5 -6.5q-8 -4 -18.5 -12t-21.5 -15q-15 -9 -32 -20
t-32.5 -23t-29.5 -25t-23 -25q-14 -20 -25 -49t-17 -61q-5 -28 -5 -56v-9q1 -33 11 -60t30 -45t53 -21q9 -1 17 -1q32 0 56 13q29 15 50 40t35.5 55.5t28.5 56.5q11 57 20 119q7 50 7 104v24z" />
    <glyph glyph-name="z" unicode="z" horiz-adv-x="542" 
d="M528 3q4 -9 4 -18q0 -5 -1 -9q-4 -12 -9 -23q-7 -1 -13 -1q-13 0 -25 3q-19 4 -37.5 9.5l-37 11t-38.5 7.5q-44 3 -89 5h-39q-26 0 -51 -1q-45 -2 -87 -8t-78 -19q-3 6 -8.5 9.5t-8.5 10.5q1 11 7.5 16t6.5 17q149 77 244 204q-8 5 -21 5.5t-26 2t-22 7.5q-8 4 -8 19v3
q8 12 21 14q7 1 14 1h13q14 -2 29 -5q7 -1 13 -1q7 0 13 1q11 2 25 17t25 30q25 32 47 68t27 89q-42 3 -81 3q-40 0 -76 -3q-74 -5 -150 -30q-8 -5 -16 -12.5t-17 -13t-19 -7.5h-4q-8 0 -18 6q-2 9 -3 20q-1 2 -1 3q0 9 7 14q44 33 92 45.5t100.5 16.5t110.5 4q57 0 122 7
q4 -6 10 -9.5t10 -10.5q-2 -35 -11.5 -66.5t-23 -60t-30.5 -54.5t-35 -50q6 -5 16 -5h4q12 1 26 3q10 2 20 2h5q12 -1 19 -10q3 -8 3 -14q0 -5 -1 -9q-4 -10 -9 -20q-6 0 -12 -3t-11 -4h-5q-20 0 -40 7q-15 4 -28 4q-7 0 -14 -1q-14 -3 -27 -14t-25.5 -25.5t-23.5 -29
t-21 -24.5q-28 -29 -53.5 -48t-50.5 -39q40 -1 89.5 -3t100 -6t98 -11t83.5 -17z" />
    <glyph glyph-name="braceleft" unicode="{" horiz-adv-x="405" 
d="M440 -107q1 -4 1 -8q0 -8 -3 -14q-5 -8 -8 -18q-17 -4 -38 -4q-4 -1 -8 -1q-17 0 -34 2q-22 2 -42 7t-35 13q-18 9 -30.5 31t-20.5 49.5t-12.5 57.5t-6.5 56q-3 23 -3 47q0 4 1 8v19q0 18 -1 37q-1 27 -5.5 53.5t-15.5 49.5q-37 -11 -73 -11q-19 0 -37 3q-53 9 -84 48
q-1 6 -1 12q0 19 8 33q10 18 28 28.5t41 13.5q10 1 21 1q13 0 26 -2q23 -3 44 -11.5t34 -21.5q24 20 29 59q3 26 3 56q0 13 -1 27q-2 44 -3 89q-1 4 -1 8q0 39 13 69q11 26 25.5 45.5t38.5 37.5q13 11 38 21t48 12h5q20 0 33 -11q11 -9 11 -28q0 -8 -2 -17q-8 -6 -15 -6
q-2 -1 -5 -1q-4 0 -9 1q-7 1 -14 3h-17q-5 -1 -13.5 -5.5t-16.5 -10t-15.5 -11.5t-11.5 -10q-18 -22 -24 -52.5t-6 -65.5t2 -72q1 -18 1 -36t-1 -35q-2 -35 -10.5 -64.5t-31.5 -49.5q15 -26 19.5 -70t6.5 -94.5t6 -100.5t17.5 -87t42.5 -54q14 -9 35 -9q19 0 44 8
q9 -5 18.5 -9.5t14.5 -14.5zM136 324q-3 8 -11 12.5t-18 6.5q-7 1 -16 1h-5q-11 -1 -20 -3q4 -9 12.5 -13t19.5 -5h20q10 1 18 1z" />
    <glyph glyph-name="bar" unicode="|" horiz-adv-x="162" 
d="M126 683q-31 -165 -31 -330q0 -17 1 -34q3 -183 27 -355q-6 -15 -24 -20q-5 -1 -9 -1q-13 0 -23 10q-6 96 -12.5 190.5t-7.5 187.5q-1 16 -1 32q0 76 6 152q7 91 28 182q8 3 15 3t12 -3q11 -5 19 -14z" />
    <glyph glyph-name="braceright" unicode="}" horiz-adv-x="435" 
d="M471 320q-14 -21 -35 -33.5t-46 -17.5q-19 -5 -39 -5q-8 0 -15 1q-28 2 -56 11q-14 -20 -18.5 -45.5t-5.5 -53.5q-1 -19 -1 -38q0 -10 1 -19v-9q0 -25 -3 -49q-2 -24 -6 -53.5t-12.5 -57.5t-21 -50.5t-30.5 -32.5q-14 -8 -33.5 -12.5t-40.5 -6.5q-15 -2 -31 -2h-12
q-22 1 -40 5q-3 9 -7 17q-4 6 -4 15q0 3 1 8q5 10 14.5 14t18.5 9q24 -8 43 -8q21 0 35 9q28 17 42 53t18 85t6 99.5t7 95t20 71.5q-3 11 -10 20.5t-13.5 18.5t-12.5 19t-8 22q-3 21 -3 42q0 18 2 36q4 40 6 79q1 11 1 23q0 26 -3 51q-5 35 -26 63q-19 25 -51.5 33.5
t-68.5 10.5q-2 9 -3 17v3q0 6 3 13q9 24 33 25h4q22 0 47 -9q26 -10 50 -26t33 -27q13 -27 24.5 -55t22.5 -58q1 -13 1 -27q0 -21 -2 -42q-5 -37 -7 -71q-1 -12 -1 -23q0 -22 3 -41q5 -29 26 -47q21 18 57 27q25 6 50 6h19q34 -4 58 -23q20 -18 20 -51v-9zM390 340
q-9 2 -20 3h-5q-8 0 -16 -1q-10 -2 -18 -6.5t-11 -12.5q7 0 18 -1h21q10 1 18.5 5t12.5 13z" />
    <glyph glyph-name="asciitilde" unicode="~" horiz-adv-x="564" 
d="M589 334q-17 -15 -35 -30t-39 -27q-38 -8 -74 -8q-29 0 -57 6q-62 11 -113 35q-20 10 -38.5 19.5t-41.5 10.5h-8q-17 0 -34 -3q-21 -5 -38 -16t-29 -28t-14 -39q-11 -1 -19 -3q-5 -2 -11 -2q-5 0 -11 1q-12 12 -12 23l1 1q0 11 6.5 22t14.5 21.5t10 22.5q20 22 48.5 34.5
t61.5 17.5q16 2 33 2t34 -2q35 -5 67 -18q3 -7 9 -10t8 -10q15 -4 36.5 -10t44.5 -11t46 -7q10 -2 20 -2q12 0 22 2q19 3 31 13.5t14 31.5q12 7 25 8h4q10 0 18 -3q9 -5 15 -15q5 -9 5 -23v-4z" />
    <glyph glyph-name="uni00A0" unicode="&#xa0;" horiz-adv-x="389" 
 />
    <glyph glyph-name="exclamdown" unicode="&#xa1;" horiz-adv-x="197" 
d="M123 596q-11 1 -22.5 10.5t-17.5 22.5q-5 10 -5 20v7q2 14 19 24q9 3 17 3q15 0 25 -8q16 -13 21 -31q1 -6 1 -12q0 -12 -5 -22q-8 -14 -28 -14h-5zM147 28q0 -20 -5.5 -41t-14.5 -33q-8 -12 -20 -12h-1q-13 1 -26 26v6q0 7 2 11q2 6 5 13q-4 24 -4 52q-1 9 -1 18
q0 19 1 38q1 28 2 58v11q0 24 -2 47t-9 48q-7 21 -7 41v5q1 20 7 43q4 17 4 33q0 5 -1 11q-2 10 -5 16q-3 4 -3 9q0 2 1 5q3 13 11 21.5t19 11.5h6q7 0 15 -3q10 -6 16 -20q-7 -29 -7 -74v-11q1 -53 4.5 -111.5t8 -116.5t4.5 -102z" />
    <glyph glyph-name="cent" unicode="&#xa2;" horiz-adv-x="415" 
d="M410 246q-2 -28 -17.5 -49.5t-39.5 -35.5t-53.5 -21.5t-59.5 -7.5q4 -8 4 -22v-6q-1 -18 -7.5 -32.5t-19.5 -19.5q-4 -1 -8 -1q-11 0 -26 11q-4 17 -4 31v10q0 16 -6 33q-53 18 -87 54.5t-63 78.5q-8 32 -8 61q0 7 1 14q2 35 12.5 65.5t27 57.5t33.5 50q30 11 55 26.5
t59 23.5q-5 15 -6.5 34.5t-13.5 28.5q7 7 11 16t7.5 16.5t10.5 11.5q5 3 13 3h5q15 -2 19.5 -13t5.5 -26t2 -31t10 -27q40 -5 67 -22.5t53 -37.5q13 -26 15 -54v-8q0 -24 -8 -45q-9 -25 -27 -43.5t-44 -23.5q-17 1 -31.5 4t-31.5 3q-11 10 -15 25q-1 3 -1 7q0 11 9 21
q12 -1 21 -1q8 0 15.5 1l15 2t18.5 2q16 15 19 33v8q0 13 -5 25q-8 15 -24 26.5t-36 14.5q-8 1 -15 1q-16 0 -33 -4q-25 -6 -47.5 -17t-41 -23t-27.5 -21q-8 -18 -16 -36.5t-13.5 -37.5t-6.5 -40v-5q0 -19 6 -38q6 -23 23.5 -43t41 -34.5t51.5 -22.5q22 -7 44 -7h10
q23 2 46.5 10.5t40.5 22.5q5 9 5 17q0 7 2 14q7 3 13.5 6t13.5 7q11 -4 20 -8.5t16 -11.5z" />
    <glyph glyph-name="sterling" unicode="&#xa3;" horiz-adv-x="561" 
d="M543 30q-16 -16 -38 -27.5t-44 -11.5q-11 1 -16 3.5t-10 5.5q-8 4 -11 6q-4 1 -7.5 1.5t-8.5 1.5q-7 2 -14 3t-14 5q-13 7 -24.5 17t-22.5 21q-12 11 -23 21t-20 10q-7 0 -15 -3.5t-16 -6.5q-21 -10 -31 -15.5t-18.5 -11.5t-16.5 -12.5t-18 -15.5q-11 -9 -20.5 -16.5
t-20.5 -15.5q-40 17 -40 46q0 10 4 21q21 11 32.5 18t16.5 19q11 8 20.5 11.5t18.5 7.5q15 6 29 12.5t27 14.5q-27 40 -52.5 84.5t-42.5 94.5q-14 0 -31 1h-13q-13 0 -28 -1q-9 0 -20.5 -2t-22.5 -2q-12 0 -21.5 3.5t-15.5 14.5q0 28 20 40q35 2 64 2q28 0 54 1
q-2 7 -2.5 13.5t-1.5 13.5q-2 23 -2 45q0 72 26 120q34 62 107 77q11 3 22.5 4t22.5 1q20 0 40.5 -3t40.5 -7l17 -3q16 -9 42 -29t48 -51t33 -72q4 -17 4 -35q0 -28 -10 -59l-8 -8q-8 -7 -13.5 -13.5t-7.5 -18.5q-8 -6 -11.5 -8t-7.5 -4q-6 -4 -13 -7t-18 -3l-11 2
q-10 11 -11 21q-1 3 -1 6q0 6 2 12q3 8 9.5 15.5t13.5 14.5q11 11 21 24q8 10 8 23v5q-3 27 -11 47t-20 36t-25.5 27.5t-26.5 20.5q-21 4 -34.5 6.5t-30.5 7.5q-55 -6 -84 -22.5t-40 -48.5q-10 -26 -11 -60v-11q0 -30 5 -68q1 -3 1.5 -5.5t0.5 -5.5q27 0 57.5 1.5t68.5 5.5
q11 -10 15 -29q1 -5 1 -9q0 -13 -9 -23q-40 -4 -67 -5h-49q20 -55 51.5 -100t61.5 -70q11 1 20.5 1.5t20.5 0.5q51 0 94.5 -12t73.5 -35q9 -19 10 -35v-8q0 -13 -2 -28zM485 64q-6 2 -7 9q-24 7 -44.5 11.5t-38.5 4.5q-9 0 -13 -1q11 -6 23 -13q14 -8 28 -15.5t29 -7.5
q10 0 22 5z" />
    <glyph glyph-name="currency" unicode="&#xa4;" horiz-adv-x="567" 
d="M539 615q3 -8 3 -16q0 -10 -4 -18q-8 -16 -20 -30.5t-22.5 -30.5t-10.5 -36q1 -23 14 -40t26 -40q1 -16 1 -32q0 -17 -1 -34q-2 -34 -8 -66.5t-17 -61.5t-28 -50q13 -17 30.5 -29.5t32.5 -27.5q0 -20 -6 -33q-8 -5 -18.5 -6.5t-21.5 -3.5q-14 14 -27 28t-27 29
q-26 -18 -58.5 -29.5t-67.5 -15.5q-22 -3 -46 -3q-12 0 -25 1q-37 2 -70 13q-8 -9 -14.5 -20.5t-13.5 -22t-16 -19t-23 -11.5q-24 12 -24 24q-1 0 -1 1q0 11 9 22q8 12 19 24q10 11 10 23v2q-1 14 -16 24.5t-27 26.5q-16 20 -27 48.5t-15 61.5q-3 21 -3 43q0 12 1 25
q2 34 14 66q10 28 28.5 50.5t34.5 46.5q-4 11 -12 18.5t-15.5 15.5t-11.5 19q-2 6 -2 15q0 7 1 15q11 9 21 9h4q11 -2 20.5 -10t18 -19t16.5 -17q32 19 73 30t82 11t78.5 -13t61.5 -41q17 23 34.5 44t28.5 50q4 1 8 1q8 0 14 -3q7 -5 15 -8zM469 310q1 12 1 24q0 34 -8 64
q-12 41 -35 71t-57 47q-32 15 -70 15h-5q-17 -1 -35 -1.5t-32 -5.5q-21 -6 -43 -22.5t-41.5 -38t-34.5 -44.5t-21 -42q-13 -39 -13 -74q0 -14 2 -28q8 -46 35 -80t68.5 -53t90.5 -19q45 0 80.5 14.5t60.5 40t39.5 59.5t17.5 73z" />
    <glyph glyph-name="yen" unicode="&#xa5;" horiz-adv-x="534" 
d="M508 330v-9q0 -15 -5 -23q-7 -10 -19 -13q-9 -3 -20 -3q-5 0 -9 1l-34 2q-8 1 -17 1q-8 0 -16 -1q-16 -1 -27 -8q-12 5 -27 7h-8q-11 0 -22 -4q-3 -10 -3 -20q0 -2 1 -3q0 -12 1 -23.5t2 -23.5v-8q0 -8 -1 -16q19 -5 41 -6h43q22 1 45 2h8q19 0 37 -2q5 -9 8 -22
q1 -5 1 -10q0 -7 -3 -15q-24 -4 -45 -4q-22 0 -43 1.5t-42 2.5q-11 1 -23 1q-11 0 -24 -1q-2 -16 -2 -31v-10q1 -21 4 -42.5t5.5 -44.5t2.5 -49q-6 -8 -15 -10q-7 -3 -15 -3q-2 0 -3 1q-9 0 -17 3.5t-13 8.5q1 15 1 28q0 12 -1 23q-1 20 -2 38.5t-2.5 38.5t-2.5 49
q-13 4 -28 4q-10 0 -22 -2q-29 -4 -57 -6q-8 -1 -16 -1q-18 0 -34 4q-22 6 -27 31q4 2 6 6t4 7q18 -1 37 -1q20 0 42 1q43 2 88 7q4 10 4 20v2q-1 11 -3 22t-3 22v5q0 8 2 16q-17 3 -32 3h-12q-21 -2 -41.5 -4.5t-41.5 -3.5h-6q-18 0 -37 5q0 8 -5 18q-3 4 -3 7q0 5 4 8
q14 11 34.5 13.5t43.5 2.5t47 0.5t46 7.5q-5 22 -14.5 40.5t-21.5 35t-25.5 33t-25.5 35.5q-14 20 -22.5 34t-17.5 36q-10 15 -24 20q-1 19 -15 35t-27 31t-17 31q-1 3 -1 6q0 13 14 27q30 -13 53.5 -38.5t43 -56t37.5 -62.5t39 -57q17 -20 35 -43.5t36 -43.5
q15 15 27.5 32.5t23 37t20 40.5t19.5 41q19 19 32.5 42.5t20.5 54.5q11 11 20 24.5t27 18.5q8 -5 15 -10t12 -13q-15 -41 -35.5 -77t-42 -70t-42.5 -69t-37 -75q-8 -6 -14.5 -14t-9.5 -19q13 -4 31 -4q5 0 11 1q24 1 50 2.5t52 2.5h3q23 0 41 -6z" />
    <glyph glyph-name="brokenbar" unicode="&#xa6;" horiz-adv-x="149" 
d="M107 461q-6 -19 -8.5 -29.5t-10.5 -25.5h-30q-8 9 -10 20.5t-10 21.5q5 11 7 27.5t2 36.5q0 19 -0.5 40t-0.5 41q-1 21 -7 36q-4 8 -4 17q0 6 2 12q2 12 9 21t16 12q3 1 8 1q4 0 10 -1q9 -4 16 -18q2 -15 2 -35v-14q-1 -29 -2 -59v-20q0 -20 1 -38q2 -28 10 -46zM113 -6
q-8 -8 -12 -21.5t-12 -21.5q-5 -1 -10 -1q-4 0 -8 1q-7 2 -12.5 6.5t-10 10.5t-8.5 12q10 44 10 92v20q-3 59 -7 122q4 6 9.5 12t12.5 9q5 2 11 2h3q7 -1 13 -9q7 -27 9 -57t2.5 -60t2 -60t7.5 -57z" />
    <glyph glyph-name="section" unicode="&#xa7;" horiz-adv-x="413" 
d="M416 233q2 -11 2 -22q0 -28 -11 -53q-15 -36 -55 -52q13 -12 19 -30t6 -36v-3q-1 -21 -6.5 -40.5t-14.5 -34.5q-20 -10 -40.5 -26t-46.5 -21q-8 -1 -18 -1h-10q-17 1 -33.5 5t-31.5 9t-24 11q-15 9 -27.5 23.5t-19.5 32.5q-6 14 -6 30q0 3 1 7q1 19 15 37q6 1 11 1
q6 0 10 -1q8 -3 19 -3q0 -8 2.5 -13.5t5.5 -10.5t4 -10v-3q0 -4 -2 -10q9 -19 28 -29t41 -11q3 -1 7 -1q18 0 36 6q21 7 35 22q1 8 1 16q0 12 -2 22q-5 17 -15 30t-24.5 22.5t-29.5 16.5q-18 25 -40.5 44.5t-46 38t-46.5 37.5t-41 43q-1 14 -10 31.5t-20 29.5q-2 12 -2 22v7
q1 12 2.5 22.5t3.5 22.5v10q0 7 -1 16q10 17 21.5 30.5t25.5 26.5q-15 18 -26 41t-15 48q-2 9 -2 19q0 14 4 29q6 23 26 43q28 28 74 43q26 8 55 8q20 0 41 -4q24 -12 46 -24.5t40.5 -29t32.5 -37.5t22 -49q-8 -11 -8.5 -27t-1.5 -32t-6 -29.5t-21 -18.5q-10 2 -18 2h-3
q-2 -1 -3 -1q-7 0 -13 2q-4 9 -4 18q0 3 1 7q2 12 6 24t7 25q2 6 2 12q0 7 -2 14t-6 11.5t-8 8.5t-7 10q-2 4 -2 10v4q-14 16 -33 27.5t-40 16.5q-13 2 -26 2q-9 0 -17 -1q-22 -3 -41 -15q-36 -23 -37 -46q-1 -2 -1 -4q0 -22 16 -42q16 -22 42.5 -43t46.5 -39
q21 -20 43.5 -38.5t39.5 -35.5q14 -14 20.5 -27.5t26.5 -18.5q7 -14 19 -27.5t24 -28.5t21.5 -31.5t12.5 -36.5zM356 180q-4 55 -27 92t-53.5 65.5t-64 54t-59.5 58.5h-10q-10 -7 -16 -9t-14 -7q-13 -19 -14 -43v-6q0 -22 7 -42q8 -24 23.5 -43.5t36.5 -26.5v-3q0 -8 4 -14
q14 -11 32 -23t34 -23q10 -7 18 -15.5t15.5 -16t14 -13t13.5 -6.5h6q12 0 23 7q12 9 31 14z" />
    <glyph glyph-name="dieresis" unicode="&#xa8;" 
d="M503 598v-4q0 -17 -8 -23q-8 -8 -20 -8l-1 1q-12 0 -24.5 7.5t-17.5 17.5q-4 5 -4 11q0 4 2 8q3 10 23 17q12 4 21 4q10 0 17 -5q11 -9 12 -26zM292 615q20 12 33 12h5q13 -3 18 -14q2 -7 2 -16v-9q-3 -15 -11 -23t-20 -8h-2q-14 1 -31 21q-1 4 -1 7q0 8 4 13q3 5 3 13v4
z" />
    <glyph glyph-name="copyright" unicode="&#xa9;" horiz-adv-x="560" 
d="M545 372q-1 -8 -6 -14.5t-8 -15.5q-6 -17 -11.5 -37t-13.5 -34q-20 -38 -52.5 -64t-60.5 -48q-22 -6 -47.5 -10t-51.5 -5q-13 -1 -26 -1t-26 1q-26 1 -48 6q-31 18 -59 38t-53 44q-25 42 -43.5 91t-23.5 102q8 32 18.5 60.5t20.5 58.5q23 27 44 54t55 47q33 19 74 26
q25 4 50 4q16 0 33 -1q41 -5 78.5 -20.5t64.5 -40.5q7 -12 16 -21.5l18 -19t17.5 -20.5t14.5 -26q8 -21 13.5 -50.5t7.5 -55.5l4 -26q1 -9 1 -16v-6zM506 370q-5 21 -7 41.5t-4 39.5t-6 36.5t-13 33.5q-7 12 -17 21t-20.5 17.5t-19.5 18t-12 23.5q-26 14 -59.5 25t-68.5 12
h-10q-15 0 -31 -2q-22 -3 -42 -7q-31 -18 -58.5 -43.5t-46.5 -58t-27 -72.5q-5 -21 -5 -45q0 -21 4 -45q13 -27 24 -55.5t27 -51.5q15 -8 30 -25t34 -28q26 -14 51 -18q16 -4 37 -4q10 0 20 1q14 1 30 1t27 1q15 2 27 8t22 13.5t19.5 15t20.5 12.5q25 27 41 63t33 72z
M412 351q0 -11 -9 -24t-22 -25t-28 -21.5t-25 -13.5q-20 -4 -38 -4q-11 0 -21 1q-28 4 -51.5 17t-40.5 33.5t-26 46.5q-3 8 -5 22.5t-3 31.5v10q0 11 1 22q2 15 7 26q2 5 9.5 11.5t13.5 13.5q5 6 10.5 13t10.5 12q6 6 17 12.5t22.5 12t22.5 9.5t18 5q10 1 20 1q38 0 64 -19
q32 -24 42 -67q-6 -5 -13.5 -9.5t-18.5 -6.5q-8 31 -31 47q-20 13 -48 13h-11q-17 -2 -35 -12t-32.5 -25.5t-22.5 -34.5q-8 -17 -8 -34v-4q2 -42 27 -68t62 -37q7 -1 13 -1q14 0 26 4q15 5 32 10q9 4 14 13.5t8.5 19.5t9 17.5t16.5 7.5q8 -1 15.5 -9.5t7.5 -16.5z" />
    <glyph glyph-name="ordfeminine" unicode="&#xaa;" horiz-adv-x="270" 
d="M262 243q-8 -5 -19 -8q-7 -2 -15 -2q-6 0 -13 1q-7 6 -8 19q-1 5 -1 11q0 9 1 19q-29 -15 -63 -19q-13 -1 -25 -1q-21 0 -40 4q-30 7 -50.5 25t-23.5 48q7 14 13.5 28.5t11.5 31.5q16 13 36.5 21t42.5 10h9q18 0 36 -5q22 -6 42 -20q-6 41 -28 71q-22 29 -56 29h-2
q-12 -1 -21.5 -7t-18.5 -12q-9 -5 -17 -6q-1 -1 -3 -1q-7 0 -16 7q2 22 12.5 34t24 21t29.5 13q13 3 26 3h6q23 -2 41.5 -15.5t35.5 -26.5q10 -9 21 -15q9 -28 16.5 -60.5t12 -66.5t5.5 -67v-17q0 -24 -2 -47zM199 349q-8 13 -29.5 21.5t-43.5 10.5h-8q-18 0 -33 -6
q-18 -8 -18 -27v-1q0 -15 20 -24t43 -11h9q18 0 36 6q21 8 24 31z" />
    <glyph glyph-name="guillemotleft" unicode="&#xab;" horiz-adv-x="423" 
d="M434 29q-1 -13 -6.5 -21t-10.5 -16q-5 -1 -10 -1q-8 0 -14 3q-10 3 -23 5q-12 18 -28 33t-33.5 29.5t-36 29.5t-36.5 35q-7 7 -17.5 19t-21 24.5t-17.5 24t-7 18.5q0 9 6.5 16.5t15 15t17.5 13.5t14 12q23 26 41.5 55.5t32.5 58.5q9 0 13 5t10 8q1 7 4 13l6 12t5 13t2 16
q11 3 22 3h12q18 -3 23 -17q-10 -36 -29 -63.5t-40.5 -52t-42.5 -50t-35 -58.5q34 -44 72 -82.5t88 -67.5q2 -13 10 -19t14 -14zM246 35q2 -10 2 -19q0 -17 -8 -30q-11 -15 -28 -15q-4 0 -9 1q-12 2 -17 14.5t-13 22.5q-15 18 -36 38t-43 39.5t-42.5 37.5t-35.5 32
q-1 5 -1 9q0 11 5 18q5 9 6 23q25 26 47.5 55.5t43 61t40 63.5t39.5 64q8 3 15 3q8 0 15 -3q15 -6 17 -20v-4q0 -6 -6 -12q-8 -7 -14 -18t-14.5 -26t-18 -31t-19 -32.5t-18.5 -30.5q-6 -10 -14 -18t-13 -15q-10 -17 -19.5 -35t-23.5 -29q15 -18 33.5 -34t36.5 -31.5
t35.5 -32t31.5 -36.5q5 -3 13 -4.5t13 -5.5z" />
    <glyph glyph-name="logicalnot" unicode="&#xac;" horiz-adv-x="529" 
d="M514 116q-7 -2 -8.5 -8.5t-5.5 -11.5q-5 -2 -14 -3h-7q-5 0 -10 1q-9 1 -16.5 5.5t-9.5 13.5q-1 3 -1 5q0 5 3 10q2 5 2 12v3q-1 3 -5.5 6.5t-4.5 6.5q0 5 4 10q2 4 2 8v2q-2 22 -4 46.5t-4 48t-3.5 44t-1.5 35.5q-36 6 -73 6q-16 0 -32 -1q-54 -4 -107 -10t-105 -10
q-21 -2 -42 -2q-31 0 -62 4q-4 7 -4 16q0 5 2 11q4 15 9 23q90 1 167 6t160 14q26 3 52 4.5t42 12.5q5 -4 15 -4q3 0 6 1h6q10 0 16 -4q7 -6 10.5 -14.5t9.5 -15.5q-6 -30 -7 -65v-18q0 -27 2 -54q3 -36 8 -70.5t11 -63.5z" />
    <glyph glyph-name="sfthyphen" unicode="&#xad;" horiz-adv-x="491" 
d="M467 295q-47 -5 -94 -5q-24 -1 -48 -1q-23 0 -47 1q-47 0 -93 2h-89q-9 0 -21 -2t-23 -2t-21 3t-16 14q1 29 20 40q48 3 103 3h110q55 0 109.5 1t102.5 6q11 -9 15 -28v-9q0 -13 -8 -23z" />
    <glyph glyph-name="registered" unicode="&#xae;" horiz-adv-x="565" 
d="M549 400q-2 -32 -13.5 -59.5t-16.5 -54.5q-26 -30 -56 -60t-56 -50q-14 -3 -28.5 -8.5t-29.5 -10t-30 -6.5q-6 -1 -11 -1q-10 0 -20 3q-8 -4 -15 -6q-5 -1 -11 -1h-6q-34 2 -65 14.5t-59 30t-51.5 38.5t-42.5 41q-14 36 -17 70t-6 70q8 10 8 21v2q-1 1 -1 3q0 10 3 19
q3 18 11.5 33t17.5 29.5t18 28.5t14 31q22 27 53.5 44t63.5 34q19 0 31.5 6t30.5 8q16 4 29 4q9 0 17 -2q19 -4 36 -11.5l34 -15t38 -10.5q37 -22 64.5 -52t49.5 -67q4 -29 11 -56q5 -22 5 -45v-14zM510 400q0 5 -2 7.5t-2 6.5v3q0 4 2 8q2 5 2 10q0 17 -7 34t-9 37
q-13 12 -24 28.5t-26 30.5q-16 16 -33.5 23.5t-39.5 18.5q-15 7 -26.5 15t-22.5 10q-11 3 -22 3t-22 -3q-23 -5 -47 -7q-27 -14 -56 -26.5t-50 -33.5q-13 -19 -23 -40t-27 -35q-1 -16 -8.5 -31.5t-9.5 -35.5q-3 -19 -3 -38q0 -27 6 -52q10 -43 33 -68q23 -18 50.5 -32
t50.5 -32q37 -11 77 -11q14 0 29 2q55 5 100 25l37.5 37.5t35 42t26 48t11.5 55.5zM415 494q1 -9 1 -17q0 -16 -4 -28q-8 -20 -17 -42q-11 -8 -21.5 -16.5t-27.5 -10.5q21 -20 37.5 -43.5t27.5 -52.5q-2 -13 -11 -18t-19 -10q-14 5 -23 18q-2 25 -14.5 44t-33 29.5
t-45.5 12.5h-12q-20 0 -42 -5q-1 -5 -1 -12q0 -6 1 -14q3 -17 4 -32v-5q0 -13 -4 -22q-5 -9 -21 -9h-6q-12 6 -12 17v4q3 14 3 31q0 45 -4 97q-2 30 -2 58q0 20 1 40v3q0 4 -1 7l-6 6q3 5 5.5 11.5t3.5 13.5q19 2 35 6q9 2 19 2q7 0 15 -1q23 5 46 5h8q27 -1 50.5 -9
t41.5 -22.5t28 -35.5zM374 460q2 7 2 13q0 8 -3 15q-5 11 -15.5 18.5t-25 11.5t-29.5 6q-10 1 -20 1q-16 0 -32 -3q-25 -5 -42 -7q3 -15 3 -32q0 -11 -1 -22q-2 -14 -2 -28q0 -17 2 -35q26 0 53 2.5t49.5 9t38.5 18.5t22 32z" />
    <glyph glyph-name="macron" unicode="&#xaf;" 
d="M518 583q-18 -11 -36 -11t-38 1.5t-41 4t-42 2.5q-12 0 -24.5 -1.5t-23.5 -1.5q-4 -1 -8 -1q-8 0 -14 1q-11 1 -21 6q-1 5 -1 8q0 15 9 22q11 9 30 11q7 1 15 1q13 0 28 -2q24 -3 48.5 -5.5t46.5 -2.5q21 0 35 8q4 -6 15 -6q10 0 15 -4q2 -7 6 -12q2 -4 2 -10q0 -4 -1 -8
z" />
    <glyph glyph-name="degree" unicode="&#xb0;" horiz-adv-x="194" 
d="M189 602q-2 -19 -15 -35t-31 -27t-38 -16q-13 -3 -24 -3q-7 0 -13 1q-10 2 -20 8t-18 14t-14 16.5t-8 14.5q-3 11 -3 21q0 8 2 16q4 18 15.5 32.5t28 24.5t34.5 13q8 1 16 1q12 0 24 -2q19 -5 34 -15.5t24 -26.5q6 -13 6 -29v-8zM142 605q0 18 -14 27q-13 7 -28 7h-3
q-18 -1 -32 -12q-13 -10 -13 -29v-3q5 -17 20 -23q9 -4 19 -4q5 0 11 1q15 3 27.5 12.5t12.5 23.5z" />
    <glyph glyph-name="plusminus" unicode="&#xb1;" horiz-adv-x="509" 
d="M494 375q-7 -11 -17 -18.5t-20 -15.5q-18 6 -41 8q-17 1 -35 1h-12q-25 -1 -50.5 -3t-48.5 -2q-6 -24 -7 -40v-11q0 -11 1 -22q2 -16 6 -34.5t7 -45.5q-7 -7 -13 -14.5t-14 -12.5h-4q-10 0 -16 4q-6 3 -16 3h-4q-2 24 -3 43t-1 38q-1 6 -1 13q0 13 1 26q1 20 4 46
q-18 3 -35 3q-8 0 -16 -1q-24 -2 -47 -5t-46 -5q-9 -1 -18 -1q-14 0 -29 2v5q0 8 -2 13q-2 4 -2 10q0 4 1 9q6 5 13 8.5t10 11.5q21 -6 42 -6q20 0 41 2l42 4q11 1 21 1q11 0 21 -1q2 18 4.5 32.5t4 29.5t1.5 32q0 16 -3 39q-1 8 -4 15q-3 5 -3 12v3q2 10 9.5 18t17.5 11
q4 1 8 1q6 0 11 -1q10 -4 18 -19q-5 -22 -5 -39q0 -1 1 -3q0 -18 2 -35.5t3 -37.5v-4q0 -19 -4 -44q28 -3 54 -3q29 0 57 4q53 7 106 9q2 -8 2.5 -18t7.5 -15zM467 60q-47 -5 -94 -5q-24 -1 -48 -1q-23 0 -47 1q-47 0 -93 2h-89q-9 0 -21 -2t-23 -2t-21 3t-16 14q1 29 20 41
q48 2 102.5 2.5t110.5 0.5q55 0 109.5 1t102.5 6q11 -10 15 -29v-9q0 -13 -8 -23z" />
    <glyph glyph-name="twosuperior" unicode="&#xb2;" horiz-adv-x="355" 
d="M360 291q-8 -11 -15.5 -23t-21.5 -17q-17 7 -29.5 18t-24.5 23t-26 22t-34 14q-16 -12 -33.5 -27t-37.5 -26.5t-42 -15.5q-7 -1 -14 -1q-17 0 -36 7q-10 11 -19.5 19t-11.5 24v3q0 22 14 38q14 17 37 27.5t52 14.5q18 2 35 2q10 0 20 -1q26 35 40 78q13 39 13 91v8
q-14 17 -26 26q-11 7 -22 7h-5q-13 -2 -21.5 -12t-15 -23.5t-12 -27.5t-13 -22.5t-17.5 -8.5t-25 14q0 25 9.5 52.5t27 49t42.5 33.5q16 7 35 7q10 0 20 -2q13 -2 24 -9t21 -16t18.5 -20t16.5 -21q4 -25 4 -49q0 -34 -8 -65q-14 -54 -40 -97q16 -11 33.5 -20.5t34 -20
t30.5 -23t23 -30.5zM132 342q-17 -2 -33 -4.5t-20 -16.5q3 -10 12 -11q2 -1 5 -1q6 0 13 4q9 4 16 12t7 17z" />
    <glyph glyph-name="threesuperior" unicode="&#xb3;" horiz-adv-x="319" 
d="M272 304q-15 -19 -37.5 -35t-48.5 -25t-54 -9t-54 12q-10 5 -16.5 12.5t-12.5 15t-13.5 14.5t-17.5 12q-3 12 -3 25q0 12 3 25q11 7 21 8h5q8 0 21 -2q17 -38 47 -56q15 -10 32 -10q18 0 38 10q9 4 19.5 13.5t18.5 20.5t13.5 23.5t5.5 22.5q0 8 -2.5 13.5t-5.5 10.5
t-6 11t-3 15q-18 -3 -40 -7q-18 -3 -34 -3h-7q-19 1 -31 10q-12 8 -12 30v3q16 4 40 17.5t45 32t34 40.5q9 15 9 30q0 5 -1 11q-4 16 -20 20q-4 1 -8 1q-11 0 -19 -6q-12 -9 -19.5 -21.5t-11.5 -27t-5 -23.5q-14 -8 -26 -8q-5 0 -9 1q-16 4 -22 24q4 31 20 57.5t39 42
t52 18.5h7q26 0 52 -15q19 -15 26 -37q4 -16 4 -32q0 -7 -1 -15q-3 -24 -13.5 -46t-25.5 -37q52 -38 58 -89v-13q0 -44 -31 -85z" />
    <glyph glyph-name="acute" unicode="&#xb4;" 
d="M481 660q-21 -43 -54.5 -72.5t-66.5 -60.5q-11 -3 -24 -6q-5 -2 -10 -2q-8 0 -16 4q-2 7 -2 14q0 8 4 15q7 10 19 16.5t25 12.5t21 16q15 20 32 36.5t31 36.5q9 4 18 4q3 0 7 -1q11 -2 16 -13z" />
    <glyph glyph-name="mu" unicode="&#xb5;" horiz-adv-x="465" 
d="M470 343q0 -63 -12 -128.5t-42 -117.5t-81 -83q-43 -26 -104 -26q-12 0 -25 1q-23 13 -47.5 24t-45.5 26q1 -51 2 -104.5t18 -102.5q-6 -5 -8 -14.5t-3 -20t-3.5 -19.5t-9.5 -13q-17 -1 -24 -1l-1 -1q-7 0 -18 5q-5 70 -8 148.5t-5.5 158.5t-4 158t-2.5 147q-1 20 -6 39
q-4 15 -4 29v5q0 17 3.5 41t11 41t20.5 20h2q12 0 30 -21q1 -7 1 -13q0 -9 -2 -17q-3 -11 -3 -24v-7q1 -7 5.5 -13t4.5 -13v-34q-2 -18 -4 -35.5t-3 -34.5v-11q0 -11 1 -22q2 -16 9 -30.5t7 -30.5v-8q0 -10 -1 -21q-3 -15 -4 -30q-2 -12 -2 -23q0 -4 1 -8q0 -15 6 -30
q6 -13 18 -24.5t26.5 -21.5t29.5 -19t27 -18h13q23 0 43 6q25 7 45 21.5t35.5 34.5t27.5 41q5 27 10.5 53.5t19.5 46.5q-3 29 -3.5 61t-2 64t-6.5 62.5t-15 56.5v3q0 5 4 8q4 1 4 7q0 3 -1 6q9 4 19 7.5t21 5.5q14 -14 18.5 -39t5.5 -52t2 -53t10 -43z" />
    <glyph glyph-name="paragraph" unicode="&#xb6;" horiz-adv-x="652" 
d="M657 609q-9 -22 -25 -25q-7 -2 -14 -2q-11 0 -23 4q-20 5 -41.5 13t-39.5 10q-7 -16 -14.5 -33.5t-9.5 -36.5q0 -4 3.5 -9.5t3.5 -10.5q-1 -25 -1 -54v-28q1 -45 4.5 -90.5t9.5 -90t14 -82.5q10 -54 15.5 -96t20.5 -84q-3 -10 -10.5 -17t-17.5 -10q-7 -2 -14 -2
q-4 0 -7 1q-12 1 -21 8q-1 75 -13.5 154t-23.5 160.5t-13 164.5q-1 9 -1 18q0 74 18 148q-39 6 -84 7h-10q-39 0 -70 -7q13 -43 19 -90t9.5 -96.5t5.5 -100.5t6 -101q1 -11 2.5 -20.5t11.5 -19.5q-5 -12 -9.5 -28.5t-7.5 -36t-4.5 -40t-2.5 -39.5q0 -9 4 -17q3 -7 3 -13v-3
q-1 -6 -4.5 -16t-8.5 -20t-12 -17t-15 -7q-16 0 -22 11q-5 9 -5 24v5q1 18 5.5 40.5t8.5 44t6 40.5q1 5 1 9q0 12 -4 20q-46 11 -86 27t-73 40t-57 56t-38 74q2 24 5.5 47t7.5 56q11 27 22.5 54.5t25 52t31 45.5t41.5 36q7 4 15 6t15.5 4.5t14.5 7t12 12.5q54 6 111 15
q30 5 62 5q28 0 58 -4q22 -3 44 -9t43 -12t41 -10q13 -3 26 -3q7 0 13 1q11 -11 24.5 -17.5t18.5 -22.5zM283 218v25q0 87 -6 173q-7 97 -27 196q-30 -8 -48 -22t-43 -21q-16 -25 -33 -53t-29 -58t-15 -61q-1 -7 -1 -15q0 -23 8 -47q7 -21 21 -36t31 -28t36.5 -24t38.5 -23
q6 1 10 1q5 0 10 -1q8 -2 15.5 -5t15.5 -4q1 -1 3 -1q6 0 13 4z" />
    <glyph glyph-name="periodcentered" unicode="&#xb7;" horiz-adv-x="141" 
d="M116 336q-4 -8 -4 -21q0 -6 1 -12q-11 -12 -31 -18q-9 -3 -19 -3q-11 0 -24 4q-1 8 -5 13l-8 10q0 17 10.5 28.5t25.5 16.5q7 2 15 2q7 0 15 -2q15 -4 24 -18z" />
    <glyph glyph-name="cedilla" unicode="&#xb8;" 
d="M490 -60q0 -29 -16.5 -49t-40.5 -29q-22 -9 -45 -9q-4 0 -8 1q-28 1 -51 16q-1 9 -4 16.5t-5 14.5q-1 4 -1 8v5q1 6 7 13q7 3 12 3q3 0 6 -1q8 -2 15 -7.5t13 -12t11 -12.5q16 3 22 4.5t21 5.5q7 7 10 18q2 8 2 17v5q-1 11 -5 22t-10 18h-11q-11 0 -20 -1
q-14 -2 -26 -6.5t-24 -9.5t-26 -10q-7 3 -9.5 9t-7.5 11q19 32 41.5 59.5t42.5 57.5q6 1 10 1q14 0 20 -7v-6q0 -16 -5 -26q-6 -13 -12 -25q24 0 41.5 -8t29 -21.5t17.5 -30.5t6 -34z" />
    <glyph glyph-name="onesuperior" unicode="&#xb9;" horiz-adv-x="206" 
d="M175 642q1 -25 1 -49q0 -23 -1 -45q-2 -45 -4.5 -88t-4.5 -87q-2 -24 -2 -50q0 -21 1 -42q-7 -8 -11.5 -17t-15.5 -13q-9 3 -17.5 6.5t-16.5 7.5q-8 22 -8 47v11q2 31 7 65.5t9 69.5q1 12 1 23q0 23 -5 44h-5q-9 0 -21 -6q-15 -8 -31 -10q-25 14 -25 26q0 11 12.5 20
t31 15.5t31.5 11.5v10q0 16 4 31q6 19 17 31q9 10 22 10h2q14 -1 29 -22z" />
    <glyph glyph-name="ordmasculine" unicode="&#xba;" horiz-adv-x="325" 
d="M319 397q-3 -32 -25 -60t-53 -47t-65 -28q-21 -5 -40 -5q-12 0 -23 2q-17 3 -34 14t-31 25t-24.5 28t-13.5 25q-5 17 -5 35q0 14 4 28q7 31 26 56t47 42t60 22q14 2 27 2q20 0 40 -4q33 -8 58.5 -26t40.5 -45q12 -23 12 -52q0 -6 -1 -12zM261 403v3q0 23 -14 39
q-15 17 -37 25q-19 7 -40 7h-8q-27 -2 -49 -13t-36 -31t-14 -48v-4q7 -25 24.5 -39t39.5 -18q11 -2 22 -2q12 0 24 2q23 4 42.5 15t32 27.5t13.5 36.5z" />
    <glyph glyph-name="guillemotright" unicode="&#xbb;" horiz-adv-x="430" 
d="M414 203q-29 -20 -49.5 -46.5t-38 -56.5t-34 -61.5t-35.5 -59.5q-11 -7 -20 -7q-7 0 -12 3q-15 8 -21 24q-3 8 -3 16q0 7 3 15q5 16 26 19q25 50 56.5 92t57.5 92q-10 16 -23.5 32.5t-28.5 33t-30.5 33.5t-28.5 35q-6 8 -14.5 16.5t-16 16.5t-12 15.5t-4.5 14.5
q2 17 18 25q10 4 21 4q7 0 15 -2q30 -58 74.5 -100.5t92.5 -83.5q3 -15 6 -36q2 -13 2 -23q0 -6 -1 -11zM223 226q-1 -14 -15 -24t-28 -29q-8 -11 -11 -25t-9 -19q-9 -8 -20 -16q-10 -8 -10 -25v-6q-18 -9 -30 -23t-22 -30.5t-19.5 -33t-22.5 -30.5q-27 1 -37 10q-9 7 -9 19
v2q1 13 10 29.5t21 32.5t25 30.5t20 23.5q9 11 15 23.5t12 20.5q11 13 26.5 32t23.5 35q-13 31 -33 54.5t-40 46t-38 48.5t-26 61q7 12 21 15q5 1 12 1q8 0 17 -2q14 -29 36 -57.5t44 -53.5q8 -8 14 -16.5t13 -16.5q3 -4 10 -5t10 -5q1 -1 1 -3q0 -1 -1 -3q-1 -3 -1 -4
q0 -2 1 -3q4 -8 11 -14t13.5 -12t11 -12.5t4.5 -15.5z" />
    <glyph glyph-name="onequarter" unicode="&#xbc;" horiz-adv-x="689" 
d="M683 161v-9q0 -13 -4 -21q-7 -10 -18 -14q-10 -4 -22 -4q-1 0 -3 1h-27q-1 -5 -1 -11q0 -14 4 -31q4 -26 5 -50v-3q0 -23 -8 -40q-8 -18 -36 -19q-18 15 -22 33q-5 15 -5 32q0 2 1 4q0 19 1 40v2q0 20 -9 40q-8 1 -16 1q-24 0 -46 -5q-31 -6 -60 -11q-25 -5 -47 -5h-8
q-27 1 -50 16q2 15 6.5 27t13.5 20q6 1 11 4q2 1 6 1q2 0 6 -1q33 25 59 58.5t47 72.5t36 81t25 85q11 11 21 11q9 0 17.5 -4.5t18 -10.5t20.5 -9q-3 -30 -3 -58q0 -4 1 -9q0 -32 1.5 -64.5t3.5 -65.5q1 -23 1 -47v-24q7 -3 15 -3h4q10 1 21 3h9q6 0 12 -1q10 -2 19 -12z
M543 168q-1 11 -1 23v11q1 11 1 22v11q-1 15 -3.5 28.5t-10.5 24.5q-19 -32 -40.5 -61.5t-39.5 -62.5q13 -3 28 -3q9 0 19 1q26 3 47 6zM486 666q-5 -23 -14.5 -41.5t-20.5 -36t-20.5 -35.5t-14.5 -41q-17 -21 -29.5 -45.5t-23.5 -50.5t-23 -51.5t-28 -46.5q-6 -31 -24 -50
q-30 -73 -63.5 -142t-73.5 -132q-10 -4 -18 -4q-12 0 -19 8q-12 13 -19 29q8 12 14 24.5t19 19.5q40 80 80.5 158.5t76.5 162.5q23 18 27 50q7 6 14 12.5t13 14.5q6 30 17.5 54.5t24.5 48t25 47.5t20 53q11 3 24 9q6 3 11 3q8 0 15 -5q2 -3 3.5 -7.5t6.5 -5.5zM185 659
q1 -25 1 -49q0 -23 -1 -45q-2 -45 -4.5 -88t-4.5 -87q-1 -29 -1 -60v-32q-7 -8 -11.5 -17t-15.5 -13q-9 2 -17 5.5t-16 7.5q-8 22 -8 47v11q2 32 6.5 66t8.5 69q1 12 1 23q0 23 -5 45h-4q-10 0 -22 -6q-15 -9 -31 -11q-25 14 -25 26q0 11 12.5 20t31 16t31.5 12v10
q0 16 4 31q6 19 17 31q9 10 22 10h2q14 -1 29 -22z" />
    <glyph glyph-name="onehalf" unicode="&#xbd;" horiz-adv-x="682" 
d="M666 22q-8 -11 -15.5 -23t-21.5 -17q-17 7 -29.5 18t-24.5 23t-26 22t-33 14q-17 -12 -34.5 -27.5t-37.5 -26.5t-42 -15q-7 -1 -15 -1q-16 0 -35 6q-10 12 -19.5 20t-10.5 24v6q0 20 13 35q14 17 37.5 27t51.5 14q16 2 32 2q11 0 23 -1q26 35 40 78t14 100q-26 33 -50 33
h-4q-13 -2 -21 -12t-14.5 -23.5t-12.5 -27.5t-13.5 -22.5t-17.5 -8.5t-25 14q0 25 10 52.5t27.5 49t42.5 33.5q16 7 34 7q10 0 20 -2q26 -5 45 -25.5t35 -41.5q4 -26 4 -50q0 -33 -7 -63q-14 -54 -40 -97q15 -11 32.5 -20.5t34 -20t30.5 -23t23 -30.5zM439 72
q-17 -1 -33 -3.5t-21 -16.5q3 -11 12 -12h4q7 0 15 3q9 4 16 12t7 17zM486 651q-5 -24 -14.5 -42.5t-20.5 -35.5t-20.5 -35t-14.5 -41q-17 -21 -29.5 -45.5t-23.5 -50.5t-23 -51.5t-28 -46.5q-6 -30 -24 -50q-30 -73 -63.5 -142t-73.5 -132q-10 -4 -18 -4q-12 0 -19 8
q-12 13 -19 29q8 11 14 24t19 20q40 80 80.5 158.5t76.5 161.5q11 9 18 21.5t9 29.5l14 12t13 14q6 30 17.5 55t24.5 48.5t25 47.5t20 53q11 3 24 9q6 3 11 3q8 0 15 -5q2 -4 3.5 -8t6.5 -5zM185 644q1 -25 1 -49t-1 -46q-2 -45 -4.5 -88t-4.5 -86q-1 -29 -1 -60v-32
q-7 -8 -11.5 -17t-15.5 -13q-9 2 -17 5.5t-16 7.5q-8 22 -8 47v11q2 32 6.5 66t8.5 69q1 12 1 23q0 23 -5 45h-4q-10 0 -22 -6q-15 -9 -31 -11q-25 14 -25 26q0 11 12.5 20t31 16t31.5 12v10q0 16 4 31q6 19 17 30q9 10 22 10h2q14 -1 29 -21z" />
    <glyph glyph-name="threequarters" unicode="&#xbe;" horiz-adv-x="813" 
d="M787 161q1 -6 1 -12q0 -11 -4 -18q-7 -10 -18 -14q-10 -4 -22 -4q-1 0 -3 1h-27q-1 -6 -1 -12q0 -14 3 -30q4 -26 5 -50v-5q0 -21 -7 -37q-9 -19 -37 -20q-18 15 -22 33q-5 15 -5 32q0 2 1 4q0 19 1 40v2q0 20 -9 40q-8 1 -16 1q-24 0 -46 -5q-31 -6 -60 -11
q-26 -5 -51 -5q-2 0 -4 1q-27 0 -50 16q2 14 7 26t13 20q6 1 11 4q3 1 7 1q2 0 6 -1q65 51 105.5 131t61.5 166q11 11 20 11t18 -4.5t18 -10.5t21 -9q-3 -35 -3 -67t1.5 -64.5t3.5 -65.5q1 -23 1 -47v-24q7 -3 15 -3h4q10 1 21 3h9q6 0 12 -1q10 -2 19 -12zM647 168
q-1 11 -1 23v11q1 17 1 33q0 15 -3 28.5t-11 24.5q-19 -32 -40 -61.5t-40 -62.5q13 -3 28 -3q9 0 19 1q26 3 47 6zM590 666q-5 -23 -14.5 -41.5t-20.5 -35.5t-20.5 -35.5t-14.5 -41.5q-17 -21 -29 -45.5t-23.5 -50.5t-23.5 -51t-28 -47q-15 -45 -35.5 -85.5t-41.5 -81.5
q-20 -40 -38 -81t-45 -76q-10 -4 -18 -4q-12 0 -19 8q-13 13 -20 29q40 55 75.5 125.5t68.5 138.5q18 38 36 75t37 79q12 26 28 53t32 55.5t30.5 58t23.5 61.5q11 3 27 9q5 1 10 1q9 0 16 -7q0 -8 7 -10zM282 291q-15 -19 -37 -35t-48.5 -25t-54.5 -9t-53 13q-10 5 -17 12.5
t-13 15t-13.5 14.5t-17.5 11q-2 13 -2 25q0 13 2 25q11 7 21 9h7q8 0 19 -2q17 -38 47 -57q15 -9 33 -9q17 0 37 9q9 4 19.5 13.5t18.5 21t13.5 23.5t5.5 22q0 9 -2.5 14.5t-5.5 10.5t-6 10.5t-3 14.5q-18 -2 -40 -6q-18 -3 -34 -3h-7q-19 1 -31 10q-11 8 -11 27v6
q16 4 40 17.5t45 31.5t34 40q9 15 9 30q0 5 -1 11q-2 9 -8 14t-12 6q-4 1 -8 1q-11 0 -19 -6q-12 -8 -19.5 -21t-12 -27.5t-5.5 -23.5q-14 -7 -27 -7q-4 0 -8 1q-16 3 -22 23q4 31 20 57.5t39 42t52 18.5h8q25 0 52 -14q19 -15 25 -37q4 -15 4 -31q0 -8 -1 -16
q-3 -24 -13 -46.5t-25 -36.5q51 -39 57 -89v-14q0 -43 -31 -85z" />
    <glyph glyph-name="questiondown" unicode="&#xbf;" horiz-adv-x="428" 
d="M270 615q-13 -5 -30 -5q-4 0 -8 1q-23 1 -41 11t-24 29q-2 5 -2 11q0 16 12 37q18 8 35 8h9q22 -3 37 -15t20 -32q1 -5 1 -11q0 -16 -9 -34zM387 358q-8 -12 -16.5 -23t-16.5 -24q-21 -8 -42.5 -19t-44 -21t-46 -17t-48.5 -7q-20 -10 -39 -20.5t-36.5 -23.5t-31.5 -29
t-23 -37q-1 -11 -1 -20q0 -12 2 -21q3 -19 10.5 -35t17 -30.5t18.5 -27.5q27 -17 60 -19q8 -1 17 -1q23 0 47 5q31 7 59.5 21t46.5 31q1 14 4 22t6 14l6 12q1 4 1 11v5q-1 15 -9 24t-16.5 17.5t-12.5 18.5q-2 4 -2 10q0 7 3 16q8 5 21 11q10 4 16 4q2 0 4 -1
q26 -10 38 -34.5t13 -54.5v-6q0 -27 -7 -53q-9 -30 -24 -49q-27 -20 -67 -39.5t-84 -28.5q-26 -5 -53 -5q-17 0 -34 2q-44 6 -77 37q-18 17 -30.5 34t-20 36.5t-11 43t-4.5 53.5q5 15 10.5 26.5t11.5 21t14 18.5t17 21q12 16 32 28.5t43 22.5t49 18t50 15q33 9 64.5 21
t42.5 26q13 18 13 35v7q-3 20 -18 36t-38 24q-17 6 -34 6q-6 0 -13 -1q-10 -7 -14.5 -18t-16.5 -16q-31 1 -43 24v4q0 14 7 24q8 10 20.5 16.5t26 9.5t23.5 6q14 2 27 2q24 0 46 -6q32 -10 54 -31t31 -52q5 -17 5 -37q0 -16 -3 -33z" />
    <glyph glyph-name="Agrave" unicode="&#xc0;" horiz-adv-x="786" 
d="M784 303q3 -6 3 -12q0 -5 -2 -10q-5 -12 -14 -21q-7 -1 -12 -1q-8 0 -13 2q-11 2 -19.5 6t-17.5 8t-21 5q-8 -41 -13.5 -79.5t-12 -75t-17 -71.5t-28.5 -68q-5 3 -10 3q-4 0 -7 -1q-4 -2 -8 -2q-5 0 -11 3q-10 11 -10 23v3q1 13 7 27.5t14.5 30t11.5 30.5q10 45 13.5 91
t9.5 86q-40 5 -82 5q-14 0 -29 -1q-58 -2 -117 -9.5t-116.5 -20t-109.5 -27.5q4 -39 9.5 -72.5t16.5 -71.5q4 -14 11.5 -30t11.5 -29q1 -6 1 -11q0 -7 -3 -13q-5 -10 -24 -11h-3q-9 0 -16 6q-8 7 -13 17.5t-7 23.5q-1 8 -1 15v8q-9 15 -15.5 33.5t-11 38.5t-7 40.5
t-3.5 38.5q-24 -8 -46 -17t-41 -23q-21 9 -25 19q-2 3 -2 7q0 6 4 12q6 9 20 17.5t30 16t31 14t23 11.5q-2 21 -2 41q0 40 7 79q10 58 31.5 110t52.5 97.5t68 83.5q24 24 51.5 38.5t59.5 22t69 9.5h80q42 -32 69.5 -76.5t44.5 -97t26 -111t14 -119.5q10 -8 24.5 -11l29 -6
t27.5 -8t19 -16zM621 337q4 15 4 30v7q-1 18 -4.5 36.5t-8.5 37t-8 36.5q-1 5 -1 10t1 10t1 10t-1 10q-7 32 -19.5 63.5t-31.5 56.5t-45 40q-25 14 -57 14h-4q-57 -2 -103.5 -32t-80.5 -68q-19 -32 -38 -65.5t-33 -72t-21 -82.5q-4 -26 -4 -54q0 -20 2 -41q60 13 115 23.5
t109.5 17.5t110.5 11q44 2 90 2h27zM477 845q-12 -12 -24 -12q-1 0 -1 1q-14 0 -28 7.5t-28 20t-26 24.5q-12 11 -28 25.5t-24 28.5q-6 8 -6 17q0 4 2 8q4 12 33 18q7 -12 17.5 -22t21 -19.5t20.5 -19.5t18 -23q6 -7 14.5 -11.5t16.5 -10t14 -13t8 -19.5z" />
    <glyph glyph-name="Aacute" unicode="&#xc1;" horiz-adv-x="786" 
d="M784 303q3 -6 3 -12q0 -5 -2 -10q-5 -12 -14 -21q-7 -1 -12 -1q-8 0 -13 2q-11 2 -19.5 6t-17.5 8t-21 5q-8 -41 -13.5 -79.5t-12 -75t-17 -71.5t-28.5 -68q-5 3 -10 3q-4 0 -7 -1q-4 -2 -8 -2q-5 0 -11 3q-10 11 -10 23v3q1 13 7 27.5t14.5 30t11.5 30.5q10 45 13.5 91
t9.5 86q-40 5 -82 5q-14 0 -29 -1q-58 -2 -117 -9.5t-116.5 -20t-109.5 -27.5q4 -39 9.5 -72.5t16.5 -71.5q4 -14 11.5 -30t11.5 -29q1 -6 1 -11q0 -7 -3 -13q-5 -10 -24 -11h-3q-9 0 -16 6q-8 7 -13 17.5t-7 23.5q-1 8 -1 15v8q-9 15 -15.5 33.5t-11 38.5t-7 40.5
t-3.5 38.5q-24 -8 -46 -17t-41 -23q-21 9 -25 19q-2 3 -2 7q0 6 4 12q6 9 20 17.5t30 16t31 14t23 11.5q-2 21 -2 41q0 40 7 79q10 58 31.5 110t52.5 97.5t68 83.5q24 24 51.5 38.5t59.5 22t69 9.5h80q42 -32 69.5 -76.5t44.5 -97t26 -111t14 -119.5q10 -8 24.5 -11l29 -6
t27.5 -8t19 -16zM621 337q4 15 4 30v7q-1 18 -4.5 36.5t-8.5 37t-8 36.5q-1 5 -1 10t1 10t1 10t-1 10q-7 32 -19.5 63.5t-31.5 56.5t-45 40q-25 14 -57 14h-4q-57 -2 -103.5 -32t-80.5 -68q-19 -32 -38 -65.5t-33 -72t-21 -82.5q-4 -26 -4 -54q0 -20 2 -41q60 13 115 23.5
t109.5 17.5t110.5 11q44 2 90 2h27zM563 967q-21 -43 -54.5 -72.5t-66.5 -60.5q-11 -3 -24 -6q-5 -2 -10 -2q-8 0 -16 4q-2 7 -2 14q0 8 4 15q7 10 19 16.5t25 12.5t21 16q15 20 32 36.5t31 36.5q9 4 18 4q3 0 7 -1q11 -2 16 -13z" />
    <glyph glyph-name="Acircumflex" unicode="&#xc2;" horiz-adv-x="786" 
d="M784 303q3 -6 3 -12q0 -5 -2 -10q-5 -12 -14 -21q-7 -1 -12 -1q-8 0 -13 2q-11 2 -19.5 6t-17.5 8t-21 5q-8 -41 -13.5 -79.5t-12 -75t-17 -71.5t-28.5 -68q-5 3 -10 3q-4 0 -7 -1q-4 -2 -8 -2q-5 0 -11 3q-10 11 -10 23v3q1 13 7 27.5t14.5 30t11.5 30.5q10 45 13.5 91
t9.5 86q-40 5 -82 5q-14 0 -29 -1q-58 -2 -117 -9.5t-116.5 -20t-109.5 -27.5q4 -39 9.5 -72.5t16.5 -71.5q4 -14 11.5 -30t11.5 -29q1 -6 1 -11q0 -7 -3 -13q-5 -10 -24 -11h-3q-9 0 -16 6q-8 7 -13 17.5t-7 23.5q-1 8 -1 15v8q-9 15 -15.5 33.5t-11 38.5t-7 40.5
t-3.5 38.5q-24 -8 -46 -17t-41 -23q-21 9 -25 19q-2 3 -2 7q0 6 4 12q6 9 20 17.5t30 16t31 14t23 11.5q-2 21 -2 41q0 40 7 79q10 58 31.5 110t52.5 97.5t68 83.5q24 24 51.5 38.5t59.5 22t69 9.5h80q42 -32 69.5 -76.5t44.5 -97t26 -111t14 -119.5q10 -8 24.5 -11l29 -6
t27.5 -8t19 -16zM621 337q4 15 4 30v7q-1 18 -4.5 36.5t-8.5 37t-8 36.5q-1 5 -1 10t1 10t1 10t-1 10q-7 32 -19.5 63.5t-31.5 56.5t-45 40q-25 14 -57 14h-4q-57 -2 -103.5 -32t-80.5 -68q-19 -32 -38 -65.5t-33 -72t-21 -82.5q-4 -26 -4 -54q0 -20 2 -41q60 13 115 23.5
t109.5 17.5t110.5 11q44 2 90 2h27zM567 829q-15 -9 -27 -9q-7 0 -14 4q-17 9 -31 28t-26 41t-25 36q-14 -7 -24 -27t-20.5 -37.5t-23.5 -24.5q-4 -3 -8 -3q-10 0 -25 15q20 40 45.5 73.5t45.5 73.5h5q12 0 20 -7q10 -9 17.5 -22.5t14 -28.5t13.5 -25q16 -24 32.5 -36.5
t30.5 -27.5v-23z" />
    <glyph glyph-name="Atilde" unicode="&#xc3;" horiz-adv-x="786" 
d="M784 303q3 -6 3 -12q0 -5 -2 -10q-5 -12 -14 -21q-7 -1 -12 -1q-8 0 -13 2q-11 2 -19.5 6t-17.5 8t-21 5q-8 -41 -13.5 -79.5t-12 -75t-17 -71.5t-28.5 -68q-5 3 -10 3q-4 0 -7 -1q-4 -2 -8 -2q-5 0 -11 3q-10 11 -10 23v3q1 13 7 27.5t14.5 30t11.5 30.5q10 45 13.5 91
t9.5 86q-40 5 -82 5q-14 0 -29 -1q-58 -2 -117 -9.5t-116.5 -20t-109.5 -27.5q4 -39 9.5 -72.5t16.5 -71.5q4 -14 11.5 -30t11.5 -29q1 -6 1 -11q0 -7 -3 -13q-5 -10 -24 -11h-3q-9 0 -16 6q-8 7 -13 17.5t-7 23.5q-1 8 -1 15v8q-9 15 -15.5 33.5t-11 38.5t-7 40.5
t-3.5 38.5q-24 -8 -46 -17t-41 -23q-21 9 -25 19q-2 3 -2 7q0 6 4 12q6 9 20 17.5t30 16t31 14t23 11.5q-2 21 -2 41q0 40 7 79q10 58 31.5 110t52.5 97.5t68 83.5q24 24 51.5 38.5t59.5 22t69 9.5h80q42 -32 69.5 -76.5t44.5 -97t26 -111t14 -119.5q10 -8 24.5 -11l29 -6
t27.5 -8t19 -16zM621 337q4 15 4 30v7q-1 18 -4.5 36.5t-8.5 37t-8 36.5q-1 5 -1 10t1 10t1 10t-1 10q-7 32 -19.5 63.5t-31.5 56.5t-45 40q-25 14 -57 14h-4q-57 -2 -103.5 -32t-80.5 -68q-19 -32 -38 -65.5t-33 -72t-21 -82.5q-4 -26 -4 -54q0 -20 2 -41q60 13 115 23.5
t109.5 17.5t110.5 11q44 2 90 2h27zM597 922q2 -6 2 -12q0 -4 -1 -7q-2 -10 -5.5 -19t-8 -18t-7.5 -17q-35 -15 -68 -15q-2 -1 -4 -1q-31 0 -59 9q-31 8 -59.5 22t-53.5 28h-10q-27 0 -41 -15q-9 -10 -9 -23q0 -12 6 -25l-16 -8q-6 -3 -16 -3h-5q-13 18 -13 37q0 8 3 16
q7 27 24 44q14 5 27 11t26 13h4q18 0 40 -8q23 -10 47.5 -21.5t48.5 -22t45 -11.5q2 -1 5 -1q17 0 32 10q16 10 26 40q11 0 19 -2q4 -2 10 -2q5 0 11 1z" />
    <glyph glyph-name="Adieresis" unicode="&#xc4;" horiz-adv-x="786" 
d="M784 303q3 -6 3 -12q0 -5 -2 -10q-5 -12 -14 -21q-7 -1 -12 -1q-8 0 -13 2q-11 2 -19.5 6t-17.5 8t-21 5q-8 -41 -13.5 -79.5t-12 -75t-17 -71.5t-28.5 -68q-5 3 -10 3q-4 0 -7 -1q-4 -2 -8 -2q-5 0 -11 3q-10 11 -10 23v3q1 13 7 27.5t14.5 30t11.5 30.5q10 45 13.5 91
t9.5 86q-40 5 -82 5q-14 0 -29 -1q-58 -2 -117 -9.5t-116.5 -20t-109.5 -27.5q4 -39 9.5 -72.5t16.5 -71.5q4 -14 11.5 -30t11.5 -29q1 -6 1 -11q0 -7 -3 -13q-5 -10 -24 -11h-3q-9 0 -16 6q-8 7 -13 17.5t-7 23.5q-1 8 -1 15v8q-9 15 -15.5 33.5t-11 38.5t-7 40.5
t-3.5 38.5q-24 -8 -46 -17t-41 -23q-21 9 -25 19q-2 3 -2 7q0 6 4 12q6 9 20 17.5t30 16t31 14t23 11.5q-2 21 -2 41q0 40 7 79q10 58 31.5 110t52.5 97.5t68 83.5q24 24 51.5 38.5t59.5 22t69 9.5h80q42 -32 69.5 -76.5t44.5 -97t26 -111t14 -119.5q10 -8 24.5 -11l29 -6
t27.5 -8t19 -16zM621 337q4 15 4 30v7q-1 18 -4.5 36.5t-8.5 37t-8 36.5q-1 5 -1 10t1 10t1 10t-1 10q-7 32 -19.5 63.5t-31.5 56.5t-45 40q-25 14 -57 14h-4q-57 -2 -103.5 -32t-80.5 -68q-19 -32 -38 -65.5t-33 -72t-21 -82.5q-4 -26 -4 -54q0 -20 2 -41q60 13 115 23.5
t109.5 17.5t110.5 11q44 2 90 2h27zM523 864v-4q0 -17 -8 -23q-8 -8 -20 -8l-1 1q-12 0 -24.5 7.5t-17.5 17.5q-4 5 -4 11q0 4 2 8q3 10 23 17q12 4 21 4q10 0 17 -5q11 -9 12 -26zM312 881q20 12 33 12h5q13 -3 18 -14q2 -7 2 -16v-9q-3 -15 -11 -23t-20 -8h-2
q-14 1 -31 21q-1 4 -1 7q0 8 4 13q3 5 3 13v4z" />
    <glyph glyph-name="Aring" unicode="&#xc5;" horiz-adv-x="786" 
d="M784 303q3 -6 3 -12q0 -5 -2 -10q-5 -12 -14 -21q-7 -1 -12 -1q-8 0 -13 2q-11 2 -19.5 6t-17.5 8t-21 5q-8 -41 -13.5 -79.5t-12 -75t-17 -71.5t-28.5 -68q-5 3 -10 3q-4 0 -7 -1q-4 -2 -8 -2q-5 0 -11 3q-10 11 -10 23v3q1 13 7 27.5t14.5 30t11.5 30.5q10 45 13.5 91
t9.5 86q-40 5 -82 5q-14 0 -29 -1q-58 -2 -117 -9.5t-116.5 -20t-109.5 -27.5q4 -39 9.5 -72.5t16.5 -71.5q4 -14 11.5 -30t11.5 -29q1 -6 1 -11q0 -7 -3 -13q-5 -10 -24 -11h-3q-9 0 -16 6q-8 7 -13 17.5t-7 23.5q-1 8 -1 15v8q-9 15 -15.5 33.5t-11 38.5t-7 40.5
t-3.5 38.5q-24 -8 -46 -17t-41 -23q-21 9 -25 19q-2 3 -2 7q0 6 4 12q6 9 20 17.5t30 16t31 14t23 11.5q-2 21 -2 41q0 40 7 79q10 58 31.5 110t52.5 97.5t68 83.5q25 26 53.5 40t63.5 22q-18 8 -33 23.5t-18 26.5t-3 21q0 8 2 16q4 18 15 32.5t27.5 24.5t35.5 13q8 1 16 1
q12 0 23 -2q19 -5 34 -15.5t24 -26.5q7 -14 7 -33v-4q-2 -22 -19 -40t-39 -29q17 1 34 1q18 0 37 -1q42 -32 69.5 -76.5t44.5 -97t26 -111t14 -119.5q10 -8 24.5 -11l29 -6t27.5 -8t19 -16zM470 820q0 18 -14 27q-13 7 -28 7h-3q-18 -1 -32 -12q-13 -10 -13 -29v-3
q5 -17 20 -23q9 -4 19 -4q5 0 11 1q15 3 27.5 12.5t12.5 23.5zM621 337q4 15 4 30v7q-1 18 -4.5 36.5t-8.5 37t-8 36.5q-1 5 -1 10t1 10t1 10t-1 10q-7 32 -19.5 63.5t-31.5 56.5t-45 40q-25 14 -57 14h-4q-57 -2 -103.5 -32t-80.5 -68q-19 -32 -38 -65.5t-33 -72t-21 -82.5
q-4 -26 -4 -54q0 -20 2 -41q60 13 115 23.5t109.5 17.5t110.5 11q44 2 90 2h27z" />
    <glyph glyph-name="AE" unicode="&#xc6;" horiz-adv-x="1276" 
d="M1285 352q1 -5 1 -10q0 -13 -10 -23q-15 -14 -37.5 -23.5t-46.5 -17t-37 -16.5q-89 -11 -181 -17q-62 -4 -125 -4q-31 0 -62 1q0 -33 -2 -61.5t-4.5 -55.5t-3.5 -54q-1 -12 -1 -24q0 -15 1 -32q25 -1 46 -1h22q30 1 58.5 3t56.5 5t58 6q17 4 32 10.5t30 12.5t31.5 10.5
t36.5 6.5q9 -9 10 -19v-5q0 -8 -3 -16q-4 -10 -11.5 -18t-15.5 -12q-88 -20 -189 -34q-71 -11 -151 -11q-33 0 -68 2q-12 7 -15 16q-2 5 -2 11q0 4 1 9q2 10 6.5 22t6.5 25q7 38 7 81v16q-1 22 -1 44q0 30 1 60q-75 -5 -150 -11.5t-147 -18.5t-138 -31t-123 -50
q5 -51 12.5 -99t27.5 -91q-1 -11 -8.5 -18t-16.5 -9q-4 -2 -7 -2q-6 0 -11 3q-9 3 -14 13q-3 3 -3 7q0 3 1 6q3 8 5 13q-11 13 -15.5 31.5t-7 38t-5.5 37.5t-12 30q-14 -1 -27.5 -12t-27 -20t-26.5 -10q-1 -1 -2 -1q-12 0 -24 17q7 17 19 29t26.5 22t30.5 18t31 17
q0 25 4 48t10 45t13 44t13 47q6 23 7.5 47t12.5 47q10 19 17.5 34t15 28.5t15.5 25.5t19 26q27 34 58.5 72.5t68.5 60.5q13 8 34 14t45 9.5t48 5.5q16 1 30 1h14q26 -1 53.5 -7.5t52 -19.5t45 -32t32.5 -44q20 -3 41 -3q16 0 33 2q38 4 77 11t77.5 15.5t76.5 14.5
q7 8 18 12.5t22.5 8.5t22.5 8t20 11q31 -14 31 -27v-1q-2 -14 -20 -25.5t-43.5 -20l-40.5 -13.5q-59 -13 -131.5 -26.5t-146.5 -20.5q9 -24 15 -54t10 -62t5 -65q1 -16 1 -32t-1 -31q59 -2 115 -3q16 -1 33 -1q38 0 76 3q53 3 103.5 12.5t100.5 28.5q3 11 13.5 18.5
t22.5 9.5q3 1 7 1q7 0 14 -3q10 -4 13 -16zM731 299v13q0 40 -5 85q-6 52 -21.5 99.5t-41.5 85.5t-63 55q-34 15 -71 17h-12q-31 0 -59 -6q-35 -8 -64.5 -23t-47.5 -32q-36 -34 -65.5 -78.5t-52 -96t-37 -108.5t-19.5 -115q9 1 22 3.5t26 6t25.5 9t20.5 11.5q51 14 108 25
t116.5 20t120 16t120.5 13z" />
    <glyph glyph-name="Ccedilla" unicode="&#xc7;" horiz-adv-x="780" 
d="M744 526q0 -28 -18 -55.5t-38 -41.5t-41.5 -20t-45.5 -20q-22 2 -37 8.5t-37 8.5q-9 14 -25 21.5t-28 18.5l-4 28t-2 27t3.5 24.5t12.5 20.5h30q11 -14 13 -28q1 -7 1 -17q0 -9 -1 -22q13 -10 28.5 -21.5t35.5 -11.5q5 0 20 6t32 15.5t31 21t17 21.5q1 6 1 11v6
q-1 7 -3.5 14t-3.5 15q-1 5 -1 10v7q-11 5 -20.5 15t-19 21t-20 21.5t-23.5 16.5q-8 3 -20 3q-13 0 -24 3q-14 5 -26 12t-24 8q-8 1 -16 1q-12 0 -23 -2q-19 -3 -37.5 -7t-38 -8t-39.5 -4q-18 -11 -37.5 -20t-39.5 -18.5t-39.5 -21t-36.5 -27.5q-26 -22 -46 -53.5
t-34.5 -67.5t-22.5 -73.5t-8 -72.5q0 -46 16.5 -77.5t37.5 -62.5q11 -17 21.5 -31t23.5 -25t29 -20.5t39 -17.5q46 -16 100 -21q32 -3 64 -3q22 0 45 2q54 3 106 14t93 28q8 6 12 15t12 15q8 1 15 3q4 1 8 1q5 0 10 -1q10 -11 12 -26v-7q0 -11 -5 -23q-24 -14 -54 -25.5
t-63 -21.5t-68 -18.5t-69 -15.5q-21 -12 -27 -40q7 -2 13 -2t11.5 0.5t11.5 0.5t14 -2q37 -9 53 -36q13 -24 13 -51v-7q-2 -32 -19.5 -61t-46.5 -42q-26 -3 -48.5 -6t-48.5 -8q-12 5 -25.5 12.5t-23 17.5t-11.5 23q-1 3 -1 5q0 11 8 23q8 2 17 2q10 0 20 -3q18 -5 29 -16h8
q18 0 36 8q22 9 34 24q10 12 10 26v4q-2 16 -27 28q-17 0 -29 -4t-23 -9.5t-22.5 -10.5t-26.5 -6q-16 15 -16 29q0 1 1 3q1 15 10 31t19.5 32t12.5 32q-35 14 -76.5 20.5t-83.5 12.5q-56 22 -99.5 60.5t-70 91.5t-32.5 120q-2 17 -2 36q0 50 13 107q16 35 34 68.5t41 63.5
t51.5 56t64.5 46q42 23 88.5 37.5t105.5 25.5q21 4 41 4h16q27 -3 52.5 -9t50 -15t50.5 -16l35 -35t32.5 -37.5t24.5 -41.5q8 -20 8 -42v-5z" />
    <glyph glyph-name="Egrave" unicode="&#xc8;" horiz-adv-x="554" 
d="M528 10q-25 -10 -51.5 -24t-55 -26t-59.5 -18q-18 -4 -37 -4q-15 0 -31 2q-50 7 -90 30.5t-77 45.5q-11 20 -25 35t-28 32q-12 35 -21 70q-7 25 -7 50q0 10 1 21q3 27 12.5 49.5t22 42.5t25.5 38.5t24 36.5q-30 34 -38 74q-4 18 -4 36q0 21 5 41q9 37 33.5 69t59.5 51
q43 23 95 29.5t103 10.5q18 -13 39.5 -23t41 -22t35.5 -27t24 -39q-13 -16 -26 -16q-3 0 -7 2q-17 5 -36.5 20t-41.5 31.5t-49 19.5q-11 1 -22 1q-22 0 -44 -4q-34 -8 -64.5 -23.5t-53.5 -38t-33 -47.5q-7 -17 -7 -34q0 -9 2 -19q6 -28 34 -55q27 8 54.5 19t55 18.5
t56.5 7.5q28 0 58 -15q7 -9 14.5 -18t13 -19t8.5 -20v-9q0 -7 -2 -15q-8 -26 -41 -37.5t-73 -12.5h-8q-36 0 -70 8q-39 8 -59 22q-15 -20 -32 -40t-30 -42.5t-19 -48.5q-3 -12 -3 -25q0 -16 4 -34q9 -44 41.5 -82.5t78.5 -62t99 -27.5q7 -1 15 -1q45 0 87 22q8 4 16.5 12.5
t17.5 16t18 13t18 5.5q23 0 28 -15t5 -38zM381 387q-6 19 -23 26q-14 5 -30 5h-7q-21 -2 -40.5 -10t-29.5 -17q26 -9 64 -10h9q32 0 57 6zM396 794q-12 -12 -24 -12q-1 0 -1 1q-14 0 -28 7.5t-28 20t-26 24.5q-12 11 -28 25.5t-24 28.5q-6 8 -6 17q0 4 2 8q4 12 33 18
q7 -12 17.5 -22t21 -19.5t20.5 -19.5t18 -23q6 -7 14.5 -11.5t16.5 -10t14 -13t8 -19.5z" />
    <glyph glyph-name="Eacute" unicode="&#xc9;" horiz-adv-x="554" 
d="M528 10q-25 -10 -51.5 -24t-55 -26t-59.5 -18q-18 -4 -37 -4q-15 0 -31 2q-50 7 -90 30.5t-77 45.5q-11 20 -25 35t-28 32q-12 35 -21 70q-7 25 -7 50q0 10 1 21q3 27 12.5 49.5t22 42.5t25.5 38.5t24 36.5q-30 34 -38 74q-4 18 -4 36q0 21 5 41q9 37 33.5 69t59.5 51
q43 23 95 29.5t103 10.5q18 -13 39.5 -23t41 -22t35.5 -27t24 -39q-13 -16 -26 -16q-3 0 -7 2q-17 5 -36.5 20t-41.5 31.5t-49 19.5q-11 1 -22 1q-22 0 -44 -4q-34 -8 -64.5 -23.5t-53.5 -38t-33 -47.5q-7 -17 -7 -34q0 -9 2 -19q6 -28 34 -55q27 8 54.5 19t55 18.5
t56.5 7.5q28 0 58 -15q7 -9 14.5 -18t13 -19t8.5 -20v-9q0 -7 -2 -15q-8 -26 -41 -37.5t-73 -12.5h-8q-36 0 -70 8q-39 8 -59 22q-15 -20 -32 -40t-30 -42.5t-19 -48.5q-3 -12 -3 -25q0 -16 4 -34q9 -44 41.5 -82.5t78.5 -62t99 -27.5q7 -1 15 -1q45 0 87 22q8 4 16.5 12.5
t17.5 16t18 13t18 5.5q23 0 28 -15t5 -38zM381 387q-6 19 -23 26q-14 5 -30 5h-7q-21 -2 -40.5 -10t-29.5 -17q26 -9 64 -10h9q32 0 57 6zM421 906q-21 -43 -54.5 -72.5t-66.5 -60.5q-11 -3 -24 -6q-5 -2 -10 -2q-8 0 -16 4q-2 7 -2 14q0 8 4 15q7 10 19 16.5t25 12.5t21 16
q15 20 32 36.5t31 36.5q9 4 18 4q3 0 7 -1q11 -2 16 -13z" />
    <glyph glyph-name="Ecircumflex" unicode="&#xca;" horiz-adv-x="554" 
d="M528 10q-25 -10 -51.5 -24t-55 -26t-59.5 -18q-18 -4 -37 -4q-15 0 -31 2q-50 7 -90 30.5t-77 45.5q-11 20 -25 35t-28 32q-12 35 -21 70q-7 25 -7 50q0 10 1 21q3 27 12.5 49.5t22 42.5t25.5 38.5t24 36.5q-30 34 -38 74q-4 18 -4 36q0 21 5 41q9 37 33.5 69t59.5 51
q43 23 95 29.5t103 10.5q18 -13 39.5 -23t41 -22t35.5 -27t24 -39q-13 -16 -26 -16q-3 0 -7 2q-17 5 -36.5 20t-41.5 31.5t-49 19.5q-11 1 -22 1q-22 0 -44 -4q-34 -8 -64.5 -23.5t-53.5 -38t-33 -47.5q-7 -17 -7 -34q0 -9 2 -19q6 -28 34 -55q27 8 54.5 19t55 18.5
t56.5 7.5q28 0 58 -15q7 -9 14.5 -18t13 -19t8.5 -20v-9q0 -7 -2 -15q-8 -26 -41 -37.5t-73 -12.5h-8q-36 0 -70 8q-39 8 -59 22q-15 -20 -32 -40t-30 -42.5t-19 -48.5q-3 -12 -3 -25q0 -16 4 -34q9 -44 41.5 -82.5t78.5 -62t99 -27.5q7 -1 15 -1q45 0 87 22q8 4 16.5 12.5
t17.5 16t18 13t18 5.5q23 0 28 -15t5 -38zM381 387q-6 19 -23 26q-14 5 -30 5h-7q-21 -2 -40.5 -10t-29.5 -17q26 -9 64 -10h9q32 0 57 6zM446 809q-15 -9 -27 -9q-7 0 -14 4q-17 9 -31 28t-26 41t-25 36q-14 -7 -24 -27t-20.5 -37.5t-23.5 -24.5q-4 -3 -8 -3q-10 0 -25 15
q20 40 45.5 73.5t45.5 73.5h5q12 0 20 -7q10 -9 17.5 -22.5t14 -28.5t13.5 -25q16 -24 32.5 -36.5t30.5 -27.5v-23z" />
    <glyph glyph-name="Edieresis" unicode="&#xcb;" horiz-adv-x="554" 
d="M528 10q-25 -10 -51.5 -24t-55 -26t-59.5 -18q-18 -4 -37 -4q-15 0 -31 2q-50 7 -90 30.5t-77 45.5q-11 20 -25 35t-28 32q-12 35 -21 70q-7 25 -7 50q0 10 1 21q3 27 12.5 49.5t22 42.5t25.5 38.5t24 36.5q-30 34 -38 74q-4 18 -4 36q0 21 5 41q9 37 33.5 69t59.5 51
q43 23 95 29.5t103 10.5q18 -13 39.5 -23t41 -22t35.5 -27t24 -39q-13 -16 -26 -16q-3 0 -7 2q-17 5 -36.5 20t-41.5 31.5t-49 19.5q-11 1 -22 1q-22 0 -44 -4q-34 -8 -64.5 -23.5t-53.5 -38t-33 -47.5q-7 -17 -7 -34q0 -9 2 -19q6 -28 34 -55q27 8 54.5 19t55 18.5
t56.5 7.5q28 0 58 -15q7 -9 14.5 -18t13 -19t8.5 -20v-9q0 -7 -2 -15q-8 -26 -41 -37.5t-73 -12.5h-8q-36 0 -70 8q-39 8 -59 22q-15 -20 -32 -40t-30 -42.5t-19 -48.5q-3 -12 -3 -25q0 -16 4 -34q9 -44 41.5 -82.5t78.5 -62t99 -27.5q7 -1 15 -1q45 0 87 22q8 4 16.5 12.5
t17.5 16t18 13t18 5.5q23 0 28 -15t5 -38zM381 387q-6 19 -23 26q-14 5 -30 5h-7q-21 -2 -40.5 -10t-29.5 -17q26 -9 64 -10h9q32 0 57 6zM432 813v-4q0 -17 -8 -23q-8 -8 -20 -8l-1 1q-12 0 -24.5 7.5t-17.5 17.5q-4 5 -4 11q0 4 2 8q3 10 23 17q12 4 21 4q10 0 17 -5
q11 -9 12 -26zM221 830q20 12 33 12h5q13 -3 18 -14q2 -7 2 -16v-9q-3 -15 -11 -23t-20 -8h-2q-14 1 -31 21q-1 4 -1 7q0 8 4 13q3 5 3 13v4z" />
    <glyph glyph-name="Igrave" unicode="&#xcc;" horiz-adv-x="275" 
d="M198 226q-2 -60 -4.5 -120t-19.5 -114q1 -8 1 -14q0 -15 -6 -23q-10 -12 -23 -12q-1 -1 -2 -1q-13 0 -25 10q-13 9 -15 27q13 21 19.5 44t9 48.5t2.5 51.5t2 53q4 56 4 114v35q-2 76 -10 152q-3 28 -9 57t-8 57q-2 23 -4 41.5t-13 35.5q2 10 9.5 17.5t17.5 10.5q4 1 9 1
t10 -1q10 -3 18 -12q2 -31 6 -59t7.5 -54.5t5.5 -51.5v-16q0 -17 -2 -33q16 -57 19 -119q1 -45 1 -90v-35zM140 825q-12 -12 -24 -12q-1 0 -1 1q-14 0 -28 7.5t-28 20t-26 24.5q-12 11 -28 25.5t-24 28.5q-6 8 -6 17q0 4 2 8q4 12 33 18q7 -12 17.5 -22t21 -19.5t20.5 -19.5
t18 -23q6 -7 14.5 -11.5t16.5 -10t14 -13t8 -19.5z" />
    <glyph glyph-name="Iacute" unicode="&#xcd;" horiz-adv-x="275" 
d="M198 226q-2 -60 -4.5 -120t-19.5 -114q1 -8 1 -14q0 -15 -6 -23q-10 -12 -23 -12q-1 -1 -2 -1q-13 0 -25 10q-13 9 -15 27q13 21 19.5 44t9 48.5t2.5 51.5t2 53q4 56 4 114v35q-2 76 -10 152q-3 28 -9 57t-8 57q-2 23 -4 41.5t-13 35.5q2 10 9.5 17.5t17.5 10.5q4 1 9 1
t10 -1q10 -3 18 -12q2 -31 6 -59t7.5 -54.5t5.5 -51.5v-16q0 -17 -2 -33q16 -57 19 -119q1 -45 1 -90v-35zM246 926q-21 -43 -54.5 -72.5t-66.5 -60.5q-11 -3 -24 -6q-5 -2 -10 -2q-8 0 -16 4q-2 7 -2 14q0 8 4 15q7 10 19 16.5t25 12.5t21 16q15 20 32 36.5t31 36.5
q9 4 18 4q3 0 7 -1q11 -2 16 -13z" />
    <glyph glyph-name="Icircumflex" unicode="&#xce;" horiz-adv-x="275" 
d="M198 226q-2 -60 -4.5 -120t-19.5 -114q1 -8 1 -14q0 -15 -6 -23q-10 -12 -23 -12q-1 -1 -2 -1q-13 0 -25 10q-13 9 -15 27q13 21 19.5 44t9 48.5t2.5 51.5t2 53q4 56 4 114v35q-2 76 -10 152q-3 28 -9 57t-8 57q-2 23 -4 41.5t-13 35.5q2 10 9.5 17.5t17.5 10.5q4 1 9 1
t10 -1q10 -3 18 -12q2 -31 6 -59t7.5 -54.5t5.5 -51.5v-16q0 -17 -2 -33q16 -57 19 -119q1 -45 1 -90v-35zM220 788q-15 -9 -27 -9q-7 0 -14 4q-17 9 -31 28t-26 41t-25 36q-14 -7 -24 -27t-20.5 -37.5t-23.5 -24.5q-4 -3 -8 -3q-10 0 -25 15q20 40 45.5 73.5t45.5 73.5h5
q12 0 20 -7q10 -9 17.5 -22.5t14 -28.5t13.5 -25q16 -24 32.5 -36.5t30.5 -27.5v-23z" />
    <glyph glyph-name="Idieresis" unicode="&#xcf;" horiz-adv-x="275" 
d="M198 226q-2 -60 -4.5 -120t-19.5 -114q1 -8 1 -14q0 -15 -6 -23q-10 -12 -23 -12q-1 -1 -2 -1q-13 0 -25 10q-13 9 -15 27q13 21 19.5 44t9 48.5t2.5 51.5t2 53q4 56 4 114v35q-2 76 -10 152q-3 28 -9 57t-8 57q-2 23 -4 41.5t-13 35.5q2 10 9.5 17.5t17.5 10.5q4 1 9 1
t10 -1q10 -3 18 -12q2 -31 6 -59t7.5 -54.5t5.5 -51.5v-16q0 -17 -2 -33q16 -57 19 -119q1 -45 1 -90v-35zM228 823v-4q0 -17 -8 -23q-8 -8 -20 -8l-1 1q-12 0 -24.5 7.5t-17.5 17.5q-4 5 -4 11q0 4 2 8q3 10 23 17q12 4 21 4q10 0 17 -5q11 -9 12 -26zM17 840q20 12 33 12
h5q13 -3 18 -14q2 -7 2 -16v-9q-3 -15 -11 -23t-20 -8h-2q-14 1 -31 21q-1 4 -1 7q0 8 4 13q3 5 3 13v4z" />
    <glyph glyph-name="Eth" unicode="&#xd0;" horiz-adv-x="760" 
d="M717 292q-3 -37 -15 -69.5t-29.5 -61.5t-37.5 -54.5t-38 -48.5q-26 -14 -53.5 -29.5t-56.5 -30t-60 -27.5t-64 -20q-15 -3 -30.5 -4t-30.5 -2t-29.5 -4t-26.5 -10q-24 3 -47.5 7t-45.5 10.5t-41 17t-33 25.5q11 25 33 37q17 -4 29 -11t31 -9q-3 73 -7.5 140.5
t-12.5 140.5q-14 0 -28.5 -3t-28.5 -4q-9 -1 -18 -1h-10q-14 1 -25 8q-1 6 -1 12q0 15 9 23q11 9 29 11h15q10 0 21 -1q6 -1 12 -1q11 0 19 3q3 38 6 78t6 79t6.5 74.5t7.5 65.5h-5q-9 0 -18 -2q-13 -4 -26 -6q-8 -2 -16 -2q-4 0 -8 1q-12 1 -20 13q3 21 17 30.5t33 14.5
t39 8.5t34 13.5q18 -2 35 -2h11q22 1 43 2.5t41 3.5h17q12 0 24 -1q31 -3 57 -13t51 -22t49 -24.5t50 -20.5q11 -17 26.5 -33t31 -33t29.5 -35.5t23 -39.5q17 -38 24 -89q4 -32 4 -66q0 -19 -1 -39zM660 389q-5 34 -19 64.5t-33 56.5t-41.5 47.5t-43.5 39.5q-27 8 -52 18
t-45 25q-48 8 -96 13q-12 1 -24 1q-36 0 -73 -11q-10 -73 -20 -145q-8 -56 -8 -120q0 -19 1 -39q9 -4 20 -4q7 0 15 2q20 4 39 8q10 2 19 2q7 0 13 -1q13 -3 14 -24v-3q0 -18 -11 -23q-11 -6 -28 -6q-1 0 -3 1q-19 0 -40 2q-6 1 -11 1q-15 0 -27 -5q10 -75 14.5 -150.5
t18.5 -140.5h17q42 0 79 8q45 10 84.5 26.5t76 36.5t71.5 39q22 25 42.5 54.5t34 64t19.5 75.5q2 16 2 34q0 25 -5 53z" />
    <glyph glyph-name="Ntilde" unicode="&#xd1;" horiz-adv-x="750" 
d="M703 561q1 -10 1 -21v-16q-2 -20 -5.5 -40t-8 -39.5t-7.5 -37.5q-8 -46 -17 -91.5t-26 -88.5q-28 -69 -52.5 -138.5t-58.5 -132.5q-12 -3 -20 -3q-2 0 -3 1q-9 0 -23 2q-5 12 -5 24v7q2 15 8.5 32.5t17 36.5t19.5 41q12 28 25 55.5t22 54.5q24 80 45.5 152t27.5 152
q1 8 1 16q0 20 -4 39q-5 26 -18 46.5t-34.5 33.5t-51.5 16h-9q-24 0 -53 -9q-34 -11 -62 -22q-30 -12 -53.5 -33t-42 -49.5t-33 -62t-24.5 -69.5q-3 -10 -3 -22q0 -13 -4 -24q-5 -14 -12 -27.5t-13.5 -27.5t-11.5 -30.5t-6 -35.5v-29q1 -17 3 -31q2 -10 2 -20v-6
q-1 -3 -1 -6q0 -10 2 -18q2 -7 5.5 -12t4.5 -11v-5q0 -6 -1 -12q-2 -7 -2 -13v-4q0 -5 4 -8.5t6 -8.5q8 -33 12.5 -65t14.5 -62q-12 -11 -23 -18q-7 -4 -17 -4q-8 0 -17 2q-18 63 -30 136.5t-23 150.5t-23.5 153t-33.5 142q-5 15 -12.5 31t-14 31t-10.5 29q-4 11 -4 19v4
l2.5 10t5.5 11.5t12 8.5q4 2 9 2q6 0 12 -2q10 -2 16 -13t10.5 -26t8 -32.5t8.5 -32.5q7 -20 15 -37.5t8 -45.5q7 -9 10 -21.5t5 -26t5 -25.5t10 -21q13 37 26.5 74t28.5 72t32.5 67.5t39.5 60.5q20 7 35 17t29 23q41 15 80 22.5t77 21.5q32 -11 60.5 -23.5t51 -31.5
t37 -44.5t18.5 -61.5zM568 892q2 -6 2 -12q0 -4 -1 -7q-2 -10 -5.5 -19t-8 -18t-7.5 -17q-35 -15 -68 -15q-2 -1 -4 -1q-31 0 -59 9q-31 8 -59.5 22t-53.5 28h-10q-27 0 -41 -15q-9 -10 -9 -23q0 -12 6 -25l-16 -8q-6 -3 -16 -3h-5q-13 18 -13 37q0 8 3 16q7 27 24 44
q14 5 27 11t26 13h4q18 0 40 -8q23 -10 47.5 -21.5t48.5 -22t45 -11.5q2 -1 5 -1q17 0 32 10q16 10 26 40q11 0 19 -2q4 -2 10 -2q5 0 11 1z" />
    <glyph glyph-name="Ograve" unicode="&#xd2;" horiz-adv-x="810" 
d="M774 352q-1 -33 -9.5 -63t-20.5 -57.5t-26.5 -52.5t-26.5 -47q-16 -8 -28.5 -20.5l-25.5 -25.5t-27 -25t-33 -19q-8 -4 -21 -4t-26 -3q-9 -3 -22 -7t-27.5 -8t-29.5 -7q-12 -2 -23 -2h-8q-9 1 -17 5t-16 6q-20 3 -41 3h-16q-7 -1 -14 -1q-22 0 -43 4q-10 2 -19 8
q-6 4 -12 4q-5 0 -9 -2q-18 15 -39 28t-41 26.5t-39 29t-32 37.5q-19 31 -27 68t-9 78v14q0 34 4 69q4 43 9 85q23 42 45 85.5t52 78.5q26 17 52.5 31t61.5 29q26 11 58.5 17.5t67.5 8.5h21q25 0 50 -2q36 -4 70 -14q13 -4 32.5 -12.5t39 -18t37 -20t28.5 -19.5
q15 -12 24.5 -26.5t18 -29.5t16 -30t18.5 -28q1 -23 5.5 -44t8.5 -42t7 -42q2 -16 2 -32v-11zM718 403q-11 104 -62 161t-142 86q-18 5 -38.5 11.5t-35.5 8.5h-2q-5 0 -9 -3q-5 -4 -12 -4q-8 0 -13.5 3.5t-10.5 3.5q-94 -4 -164.5 -55.5t-102.5 -131.5q-11 -45 -19 -87
q-8 -38 -8 -75v-9q1 -65 30 -112t74.5 -76.5t102.5 -42.5q45 -10 91 -10q12 0 25 1q59 3 113.5 22.5t95.5 54.5q18 22 35 50.5t30 61.5t20 69q4 21 4 44q0 15 -2 29zM497 815q-12 -12 -24 -12q-1 0 -1 1q-14 0 -28 7.5t-28 20t-26 24.5q-12 11 -28 25.5t-24 28.5q-6 8 -6 17
q0 4 2 8q4 12 33 18q7 -12 17.5 -22t21 -19.5t20.5 -19.5t18 -23q6 -7 14.5 -11.5t16.5 -10t14 -13t8 -19.5z" />
    <glyph glyph-name="Oacute" unicode="&#xd3;" horiz-adv-x="810" 
d="M774 352q-1 -33 -9.5 -63t-20.5 -57.5t-26.5 -52.5t-26.5 -47q-16 -8 -28.5 -20.5l-25.5 -25.5t-27 -25t-33 -19q-8 -4 -21 -4t-26 -3q-9 -3 -22 -7t-27.5 -8t-29.5 -7q-12 -2 -23 -2h-8q-9 1 -17 5t-16 6q-20 3 -41 3h-16q-7 -1 -14 -1q-22 0 -43 4q-10 2 -19 8
q-6 4 -12 4q-5 0 -9 -2q-18 15 -39 28t-41 26.5t-39 29t-32 37.5q-19 31 -27 68t-9 78v14q0 34 4 69q4 43 9 85q23 42 45 85.5t52 78.5q26 17 52.5 31t61.5 29q26 11 58.5 17.5t67.5 8.5h21q25 0 50 -2q36 -4 70 -14q13 -4 32.5 -12.5t39 -18t37 -20t28.5 -19.5
q15 -12 24.5 -26.5t18 -29.5t16 -30t18.5 -28q1 -23 5.5 -44t8.5 -42t7 -42q2 -16 2 -32v-11zM718 403q-11 104 -62 161t-142 86q-18 5 -38.5 11.5t-35.5 8.5h-2q-5 0 -9 -3q-5 -4 -12 -4q-8 0 -13.5 3.5t-10.5 3.5q-94 -4 -164.5 -55.5t-102.5 -131.5q-11 -45 -19 -87
q-8 -38 -8 -75v-9q1 -65 30 -112t74.5 -76.5t102.5 -42.5q45 -10 91 -10q12 0 25 1q59 3 113.5 22.5t95.5 54.5q18 22 35 50.5t30 61.5t20 69q4 21 4 44q0 15 -2 29zM522 926q-21 -43 -54.5 -72.5t-66.5 -60.5q-11 -3 -24 -6q-5 -2 -10 -2q-8 0 -16 4q-2 7 -2 14q0 8 4 15
q7 10 19 16.5t25 12.5t21 16q15 20 32 36.5t31 36.5q9 4 18 4q3 0 7 -1q11 -2 16 -13z" />
    <glyph glyph-name="Ocircumflex" unicode="&#xd4;" horiz-adv-x="810" 
d="M774 352q-1 -33 -9.5 -63t-20.5 -57.5t-26.5 -52.5t-26.5 -47q-16 -8 -28.5 -20.5l-25.5 -25.5t-27 -25t-33 -19q-8 -4 -21 -4t-26 -3q-9 -3 -22 -7t-27.5 -8t-29.5 -7q-12 -2 -23 -2h-8q-9 1 -17 5t-16 6q-20 3 -41 3h-16q-7 -1 -14 -1q-22 0 -43 4q-10 2 -19 8
q-6 4 -12 4q-5 0 -9 -2q-18 15 -39 28t-41 26.5t-39 29t-32 37.5q-19 31 -27 68t-9 78v14q0 34 4 69q4 43 9 85q23 42 45 85.5t52 78.5q26 17 52.5 31t61.5 29q26 11 58.5 17.5t67.5 8.5h21q25 0 50 -2q36 -4 70 -14q13 -4 32.5 -12.5t39 -18t37 -20t28.5 -19.5
q15 -12 24.5 -26.5t18 -29.5t16 -30t18.5 -28q1 -23 5.5 -44t8.5 -42t7 -42q2 -16 2 -32v-11zM718 403q-11 104 -62 161t-142 86q-18 5 -38.5 11.5t-35.5 8.5h-2q-5 0 -9 -3q-5 -4 -12 -4q-8 0 -13.5 3.5t-10.5 3.5q-94 -4 -164.5 -55.5t-102.5 -131.5q-11 -45 -19 -87
q-8 -38 -8 -75v-9q1 -65 30 -112t74.5 -76.5t102.5 -42.5q45 -10 91 -10q12 0 25 1q59 3 113.5 22.5t95.5 54.5q18 22 35 50.5t30 61.5t20 69q4 21 4 44q0 15 -2 29zM537 809q-15 -9 -27 -9q-7 0 -14 4q-17 9 -31 28t-26 41t-25 36q-14 -7 -24 -27t-20.5 -37.5t-23.5 -24.5
q-4 -3 -8 -3q-10 0 -25 15q20 40 45.5 73.5t45.5 73.5h5q12 0 20 -7q10 -9 17.5 -22.5t14 -28.5t13.5 -25q16 -24 32.5 -36.5t30.5 -27.5v-23z" />
    <glyph glyph-name="Otilde" unicode="&#xd5;" horiz-adv-x="810" 
d="M774 352q-1 -33 -9.5 -63t-20.5 -57.5t-26.5 -52.5t-26.5 -47q-16 -8 -28.5 -20.5l-25.5 -25.5t-27 -25t-33 -19q-8 -4 -21 -4t-26 -3q-9 -3 -22 -7t-27.5 -8t-29.5 -7q-12 -2 -23 -2h-8q-9 1 -17 5t-16 6q-20 3 -41 3h-16q-7 -1 -14 -1q-22 0 -43 4q-10 2 -19 8
q-6 4 -12 4q-5 0 -9 -2q-18 15 -39 28t-41 26.5t-39 29t-32 37.5q-19 31 -27 68t-9 78v14q0 34 4 69q4 43 9 85q23 42 45 85.5t52 78.5q26 17 52.5 31t61.5 29q26 11 58.5 17.5t67.5 8.5h21q25 0 50 -2q36 -4 70 -14q13 -4 32.5 -12.5t39 -18t37 -20t28.5 -19.5
q15 -12 24.5 -26.5t18 -29.5t16 -30t18.5 -28q1 -23 5.5 -44t8.5 -42t7 -42q2 -16 2 -32v-11zM718 403q-11 104 -62 161t-142 86q-18 5 -38.5 11.5t-35.5 8.5h-2q-5 0 -9 -3q-5 -4 -12 -4q-8 0 -13.5 3.5t-10.5 3.5q-94 -4 -164.5 -55.5t-102.5 -131.5q-11 -45 -19 -87
q-8 -38 -8 -75v-9q1 -65 30 -112t74.5 -76.5t102.5 -42.5q45 -10 91 -10q12 0 25 1q59 3 113.5 22.5t95.5 54.5q18 22 35 50.5t30 61.5t20 69q4 21 4 44q0 15 -2 29zM597 902q2 -6 2 -12q0 -4 -1 -7q-2 -10 -5.5 -19t-8 -18t-7.5 -17q-35 -15 -68 -15q-2 -1 -4 -1
q-31 0 -59 9q-31 8 -59.5 22t-53.5 28h-10q-27 0 -41 -15q-9 -10 -9 -23q0 -12 6 -25l-16 -8q-6 -3 -16 -3h-5q-13 18 -13 37q0 8 3 16q7 27 24 44q14 5 27 11t26 13h4q18 0 40 -8q23 -10 47.5 -21.5t48.5 -22t45 -11.5q2 -1 5 -1q17 0 32 10q16 10 26 40q11 0 19 -2
q4 -2 10 -2q5 0 11 1z" />
    <glyph glyph-name="Odieresis" unicode="&#xd6;" horiz-adv-x="810" 
d="M774 352q-1 -33 -9.5 -63t-20.5 -57.5t-26.5 -52.5t-26.5 -47q-16 -8 -28.5 -20.5l-25.5 -25.5t-27 -25t-33 -19q-8 -4 -21 -4t-26 -3q-9 -3 -22 -7t-27.5 -8t-29.5 -7q-12 -2 -23 -2h-8q-9 1 -17 5t-16 6q-20 3 -41 3h-16q-7 -1 -14 -1q-22 0 -43 4q-10 2 -19 8
q-6 4 -12 4q-5 0 -9 -2q-18 15 -39 28t-41 26.5t-39 29t-32 37.5q-19 31 -27 68t-9 78v14q0 34 4 69q4 43 9 85q23 42 45 85.5t52 78.5q26 17 52.5 31t61.5 29q26 11 58.5 17.5t67.5 8.5h21q25 0 50 -2q36 -4 70 -14q13 -4 32.5 -12.5t39 -18t37 -20t28.5 -19.5
q15 -12 24.5 -26.5t18 -29.5t16 -30t18.5 -28q1 -23 5.5 -44t8.5 -42t7 -42q2 -16 2 -32v-11zM718 403q-11 104 -62 161t-142 86q-18 5 -38.5 11.5t-35.5 8.5h-2q-5 0 -9 -3q-5 -4 -12 -4q-8 0 -13.5 3.5t-10.5 3.5q-94 -4 -164.5 -55.5t-102.5 -131.5q-11 -45 -19 -87
q-8 -38 -8 -75v-9q1 -65 30 -112t74.5 -76.5t102.5 -42.5q45 -10 91 -10q12 0 25 1q59 3 113.5 22.5t95.5 54.5q18 22 35 50.5t30 61.5t20 69q4 21 4 44q0 15 -2 29zM513 834v-4q0 -17 -8 -23q-8 -8 -20 -8l-1 1q-12 0 -24.5 7.5t-17.5 17.5q-4 5 -4 11q0 4 2 8q3 10 23 17
q12 4 21 4q10 0 17 -5q11 -9 12 -26zM302 851q20 12 33 12h5q13 -3 18 -14q2 -7 2 -16v-9q-3 -15 -11 -23t-20 -8h-2q-14 1 -31 21q-1 4 -1 7q0 8 4 13q3 5 3 13v4z" />
    <glyph glyph-name="multiply" unicode="&#xd7;" horiz-adv-x="439" 
d="M423 123v-8q0 -15 -5 -25q-8 -14 -28 -17q-10 4 -17 12t-13.5 16.5t-14 15.5t-19.5 9q-20 35 -44.5 64t-50.5 56q-38 -32 -74 -65.5t-68 -71.5q-5 1 -7 3q-1 1 -2 1q-2 0 -5 -4q-5 -7 -11 -13.5t-14 -11.5q-15 0 -24.5 11t-9.5 24q-1 1 -1 2q0 12 8 21q7 9 24 9h3
q40 32 76.5 67t68.5 75q-32 45 -64.5 94.5t-61.5 103.5q-6 12 -15.5 26.5t-12.5 27.5q-2 4 -2 8q0 7 5 12t20 5q6 0 14 -1q11 -14 19.5 -30.5t17.5 -33t19.5 -31t24.5 -25.5q4 -18 12.5 -32t17.5 -26.5t18.5 -25t17.5 -27.5q37 42 66 91.5t60 97.5q-1 4 -1 7q0 4 2 8
q1 3 1 9v4q14 9 29 9h7q18 -3 20 -26q-29 -68 -68.5 -126t-78.5 -116q19 -23 37.5 -47t38 -47.5t40.5 -43.5t45 -35z" />
    <glyph glyph-name="Oslash" unicode="&#xd8;" horiz-adv-x="810" 
d="M774 308q-1 -33 -9.5 -63.5t-20.5 -58t-26.5 -52.5t-26.5 -47q-16 -8 -28.5 -20.5l-25.5 -25.5t-27 -25t-33 -19q-7 -4 -18 -4q-2 0 -3 1h-3q-11 0 -23 -4q-9 -3 -22 -7t-27.5 -8t-29.5 -6q-12 -2 -22 -2h-9q-9 0 -17 4t-16 6q-20 3 -41 3h-16q-7 -1 -14 -1q-22 0 -43 4
q-7 2 -14 5.5t-15 5.5q-17 -29 -33.5 -56.5t-34.5 -55.5q-6 -2 -17 -5q-4 -1 -7 -1q-6 0 -9 3q-12 13 -14 23q-2 4 -2 8q0 6 3 11q3 9 10.5 18t15.5 20q11 14 20.5 29.5t19.5 31.5q-31 20 -62.5 40.5t-51.5 53.5q-19 31 -27 68t-9 78v14q0 34 4 69q4 43 9 85q23 42 45 85.5
t52 78.5q26 17 52.5 31t61.5 29q26 11 58.5 17.5t67.5 8.5h21q25 0 50 -2q36 -4 70 -14q5 -2 10.5 -3.5t11.5 -4.5q11 17 19.5 36.5t12.5 44.5q15 11 31 11q5 0 11 -1q21 -6 21 -30q0 -6 -4.5 -14t-10.5 -17.5t-12 -19.5t-10 -19q-1 -5 -5 -15q19 -10 35.5 -20t26.5 -18
q15 -12 24.5 -26.5t18 -29.5t16 -30t18.5 -28q1 -23 5.5 -44t8.5 -42t7 -41q2 -16 2 -32v-11zM718 358q-8 81 -40.5 132.5t-89.5 83.5q-17 -35 -35.5 -66.5t-35.5 -50.5q-28 -58 -60 -111.5t-70 -102.5q-29 -50 -56.5 -99t-56.5 -99q44 -15 93 -18q14 -1 28 -1q35 0 69 6
q47 7 90.5 25t76.5 47q18 22 35 50.5t30 61.5t20 69q4 21 4 44q0 15 -2 29zM538 597l-12 4l-12 4q-18 6 -38.5 12t-35.5 8h-3q-4 0 -8 -2q-5 -4 -12 -4h-3q-6 0 -10 3q-6 3 -11 3q-47 -2 -88.5 -16t-76 -39t-60.5 -58.5t-42 -73.5q-11 -45 -19 -86q-8 -38 -8 -75v-9
q2 -73 36.5 -123t88.5 -79q31 54 61 107t62 94v4q0 8 3 13q50 75 96.5 153.5t91.5 159.5z" />
    <glyph glyph-name="Ugrave" unicode="&#xd9;" horiz-adv-x="688" 
d="M629 425q2 -27 2 -56v-37q-3 -50 -11 -97t-22 -87.5t-32 -66.5q-8 -11 -17.5 -19.5t-19 -16.5t-18 -16t-12.5 -18q-22 -10 -45 -20.5t-47 -19t-48 -13.5q-18 -5 -37 -5q-6 0 -13 1q-38 2 -67 14.5t-52.5 32t-42.5 44.5t-36 52q-18 45 -24 90.5t-9 93.5q-1 11 -5 21.5
t-5 22.5q-1 17 -1 34q0 18 1 35q3 35 8 69.5t10.5 69t8.5 69.5q1 5 1 10q0 6 -1 11q-1 7 -1 14q0 4 1 7q0 10 2.5 19.5t10.5 18.5q11 3 24 4h1q11 0 18 -7q5 -18 5 -36q0 -19 -2.5 -38t-6.5 -39t-6 -41q-3 -35 -6.5 -71.5t-4.5 -74.5q-1 -19 -1 -38q0 -20 1 -40q1 -40 8 -83
q9 -60 35.5 -110t68.5 -77q10 -7 26.5 -11.5t35.5 -6.5q13 -1 26 -1h13q19 1 36 5q56 13 95.5 49t63.5 87.5t33 113.5q6 43 6 88q0 20 -1 40q-2 26 -4.5 53.5t-5.5 53.5q-5 42 -16.5 81t-23.5 73q13 20 25 25q5 2 10 2q6 0 12 -4q9 -7 16.5 -22.5t13 -35.5t9 -41.5
t4.5 -40.5v-8q0 -9 -1 -18q-2 -9 -2 -16v-5q2 -18 8 -34t8 -33zM406 733q-12 -12 -24 -12q-1 0 -1 1q-14 0 -28 7.5t-28 20t-26 24.5q-12 11 -28 25.5t-24 28.5q-6 8 -6 17q0 4 2 8q4 12 33 18q7 -12 17.5 -22t21 -19.5t20.5 -19.5t18 -23q6 -7 14.5 -11.5t16.5 -10t14 -13
t8 -19.5z" />
    <glyph glyph-name="Uacute" unicode="&#xda;" horiz-adv-x="688" 
d="M629 425q2 -27 2 -56v-37q-3 -50 -11 -97t-22 -87.5t-32 -66.5q-8 -11 -17.5 -19.5t-19 -16.5t-18 -16t-12.5 -18q-22 -10 -45 -20.5t-47 -19t-48 -13.5q-18 -5 -37 -5q-6 0 -13 1q-38 2 -67 14.5t-52.5 32t-42.5 44.5t-36 52q-18 45 -24 90.5t-9 93.5q-1 11 -5 21.5
t-5 22.5q-1 17 -1 34q0 18 1 35q3 35 8 69.5t10.5 69t8.5 69.5q1 5 1 10q0 6 -1 11q-1 7 -1 14q0 4 1 7q0 10 2.5 19.5t10.5 18.5q11 3 24 4h1q11 0 18 -7q5 -18 5 -36q0 -19 -2.5 -38t-6.5 -39t-6 -41q-3 -35 -6.5 -71.5t-4.5 -74.5q-1 -19 -1 -38q0 -20 1 -40q1 -40 8 -83
q9 -60 35.5 -110t68.5 -77q10 -7 26.5 -11.5t35.5 -6.5q13 -1 26 -1h13q19 1 36 5q56 13 95.5 49t63.5 87.5t33 113.5q6 43 6 88q0 20 -1 40q-2 26 -4.5 53.5t-5.5 53.5q-5 42 -16.5 81t-23.5 73q13 20 25 25q5 2 10 2q6 0 12 -4q9 -7 16.5 -22.5t13 -35.5t9 -41.5
t4.5 -40.5v-8q0 -9 -1 -18q-2 -9 -2 -16v-5q2 -18 8 -34t8 -33zM472 855q-21 -43 -54.5 -72.5t-66.5 -60.5q-11 -3 -24 -6q-5 -2 -10 -2q-8 0 -16 4q-2 7 -2 14q0 8 4 15q7 10 19 16.5t25 12.5t21 16q15 20 32 36.5t31 36.5q9 4 18 4q3 0 7 -1q11 -2 16 -13z" />
    <glyph glyph-name="Ucircumflex" unicode="&#xdb;" horiz-adv-x="688" 
d="M629 425q2 -27 2 -56v-37q-3 -50 -11 -97t-22 -87.5t-32 -66.5q-8 -11 -17.5 -19.5t-19 -16.5t-18 -16t-12.5 -18q-22 -10 -45 -20.5t-47 -19t-48 -13.5q-18 -5 -37 -5q-6 0 -13 1q-38 2 -67 14.5t-52.5 32t-42.5 44.5t-36 52q-18 45 -24 90.5t-9 93.5q-1 11 -5 21.5
t-5 22.5q-1 17 -1 34q0 18 1 35q3 35 8 69.5t10.5 69t8.5 69.5q1 5 1 10q0 6 -1 11q-1 7 -1 14q0 4 1 7q0 10 2.5 19.5t10.5 18.5q11 3 24 4h1q11 0 18 -7q5 -18 5 -36q0 -19 -2.5 -38t-6.5 -39t-6 -41q-3 -35 -6.5 -71.5t-4.5 -74.5q-1 -19 -1 -38q0 -20 1 -40q1 -40 8 -83
q9 -60 35.5 -110t68.5 -77q10 -7 26.5 -11.5t35.5 -6.5q13 -1 26 -1h13q19 1 36 5q56 13 95.5 49t63.5 87.5t33 113.5q6 43 6 88q0 20 -1 40q-2 26 -4.5 53.5t-5.5 53.5q-5 42 -16.5 81t-23.5 73q13 20 25 25q5 2 10 2q6 0 12 -4q9 -7 16.5 -22.5t13 -35.5t9 -41.5
t4.5 -40.5v-8q0 -9 -1 -18q-2 -9 -2 -16v-5q2 -18 8 -34t8 -33zM466 727q-15 -9 -27 -9q-7 0 -14 4q-17 9 -31 28t-26 41t-25 36q-14 -7 -24 -27t-20.5 -37.5t-23.5 -24.5q-4 -3 -8 -3q-10 0 -25 15q20 40 45.5 73.5t45.5 73.5h5q12 0 20 -7q10 -9 17.5 -22.5t14 -28.5
t13.5 -25q16 -24 32.5 -36.5t30.5 -27.5v-23z" />
    <glyph glyph-name="Udieresis" unicode="&#xdc;" horiz-adv-x="688" 
d="M629 425q2 -27 2 -56v-37q-3 -50 -11 -97t-22 -87.5t-32 -66.5q-8 -11 -17.5 -19.5t-19 -16.5t-18 -16t-12.5 -18q-22 -10 -45 -20.5t-47 -19t-48 -13.5q-18 -5 -37 -5q-6 0 -13 1q-38 2 -67 14.5t-52.5 32t-42.5 44.5t-36 52q-18 45 -24 90.5t-9 93.5q-1 11 -5 21.5
t-5 22.5q-1 17 -1 34q0 18 1 35q3 35 8 69.5t10.5 69t8.5 69.5q1 5 1 10q0 6 -1 11q-1 7 -1 14q0 4 1 7q0 10 2.5 19.5t10.5 18.5q11 3 24 4h1q11 0 18 -7q5 -18 5 -36q0 -19 -2.5 -38t-6.5 -39t-6 -41q-3 -35 -6.5 -71.5t-4.5 -74.5q-1 -19 -1 -38q0 -20 1 -40q1 -40 8 -83
q9 -60 35.5 -110t68.5 -77q10 -7 26.5 -11.5t35.5 -6.5q13 -1 26 -1h13q19 1 36 5q56 13 95.5 49t63.5 87.5t33 113.5q6 43 6 88q0 20 -1 40q-2 26 -4.5 53.5t-5.5 53.5q-5 42 -16.5 81t-23.5 73q13 20 25 25q5 2 10 2q6 0 12 -4q9 -7 16.5 -22.5t13 -35.5t9 -41.5
t4.5 -40.5v-8q0 -9 -1 -18q-2 -9 -2 -16v-5q2 -18 8 -34t8 -33zM463 793v-4q0 -17 -8 -23q-8 -8 -20 -8l-1 1q-12 0 -24.5 7.5t-17.5 17.5q-4 5 -4 11q0 4 2 8q3 10 23 17q12 4 21 4q10 0 17 -5q11 -9 12 -26zM252 810q20 12 33 12h5q13 -3 18 -14q2 -7 2 -16v-9
q-3 -15 -11 -23t-20 -8h-2q-14 1 -31 21q-1 4 -1 7q0 8 4 13q3 5 3 13v4z" />
    <glyph glyph-name="Yacute" unicode="&#xdd;" horiz-adv-x="726" 
d="M807 -176q-5 -6 -11 -12t-13.5 -10t-15.5 -4q-1 -1 -2 -1q-8 0 -17 5q-5 10 -6.5 20t-2.5 19.5t-3 18.5t-8 17q-8 11 -20 17t-25.5 10.5t-28.5 8t-28 8.5q-17 -32 -22.5 -69t-17.5 -76q-9 -33 -20 -60t-25.5 -49.5t-35 -41.5t-48.5 -37q-11 -6 -20 -13.5t-20 -14
t-24.5 -11t-32.5 -4.5q-29 0 -50.5 15.5t-41.5 32.5q-2 12 -5.5 20.5t-11.5 18.5q-1 10 -1 19q0 32 8 60q10 37 28.5 70t44.5 61t56 52q33 26 75.5 49t98.5 25q3 33 4 70v24q0 25 -1 50q-1 38 -2.5 75.5t-2.5 72.5q-8 -6 -11.5 -14t-5 -16t-3 -16.5t-4.5 -16.5
q-15 -34 -35.5 -63t-44 -55.5t-49 -51t-51.5 -49.5q-17 -8 -36.5 -13.5t-39.5 -7.5q-14 -2 -28 -2h-11q-20 1 -38 8q-37 31 -57.5 73t-30.5 91t-12 101q-1 26 -1 52t1 51q1 47 8.5 89t16.5 82.5t18.5 80t15.5 81.5q9 8 22 11h5q9 0 16 -6q1 -10 1 -20q0 -17 -2 -35
q-4 -28 -10 -57.5t-12.5 -60t-10.5 -61.5q-9 -77 -10 -151q-1 -9 -1 -18q0 -66 10 -130q3 -21 10.5 -42.5t18.5 -39.5t26 -30.5t34 -14.5q29 1 45.5 9.5t39.5 18.5q51 34 85 82t57.5 104t40.5 118t33 124q-1 12 -1 24q0 13 1 26q2 25 4.5 51t4.5 53v17q0 17 -2 34
q3 11 12 17.5t22 9.5q17 -13 23 -32q4 -16 4 -35v-6q-1 -23 -6 -47t-8 -46q-3 -26 -3 -54q0 -25 3 -52q5 -56 5 -116q1 -42 1 -85q0 -42 -1 -84v-41q0 -62 2 -119q33 -5 65 -13t58 -25t43.5 -45t20.5 -73zM556 -90q-42 -1 -85.5 -22.5t-80 -54t-61.5 -72.5t-29 -77
q-1 -8 -1 -15q0 -9 2 -16q2 -14 8 -23.5t14.5 -16t18.5 -12.5q9 1 18 1h13q10 0 18 3q41 18 71.5 49t51 71.5t31 87.5t11.5 97zM531 855q-21 -43 -54.5 -72.5t-66.5 -60.5q-11 -3 -24 -6q-5 -2 -10 -2q-8 0 -16 4q-2 7 -2 14q0 8 4 15q7 10 19 16.5t25 12.5t21 16
q15 20 32 36.5t31 36.5q9 4 18 4q3 0 7 -1q11 -2 16 -13z" />
    <glyph glyph-name="Thorn" unicode="&#xde;" horiz-adv-x="775" 
d="M745 377q-9 -46 -36.5 -84.5t-68.5 -64.5t-93 -38q-35 -8 -71 -8q-19 0 -38 2q-39 4 -71.5 18t-72.5 22q-1 -10 -1 -21q0 -19 3 -40q5 -35 13 -71t17 -71.5t15 -64.5q1 -9 6 -15t9.5 -11.5t8 -11.5t3.5 -15q-2 -16 -10.5 -24.5t-19.5 -10.5q-4 -1 -8 -1q-8 0 -16 4
q-13 4 -23 15v4q0 6 3 10q3 5 3 13q-6 7 -9.5 18t-5.5 23.5t-4.5 25.5t-6.5 26q-3 7 -9 13t-8 11q-1 2 -1 4q0 3 2 7q2 5 2 9v3q-3 29 -13.5 62t-13.5 65q-5 50 -8 103t-4.5 105.5t-1.5 102.5t1 94q-54 -12 -96.5 -34t-77.5 -53h-17q-8 -2 -15 -2q-2 -1 -3 -1q-6 0 -10 3
q-5 2 -8 10q6 23 22 37t35 24.5t39 20.5t34 25q31 5 55.5 16.5t51.5 20.5q4 20 7 44.5t9.5 44t19.5 28.5q5 3 13 3q10 0 25 -7q3 -10 3 -19v-7q-2 -12 -6 -24t-7.5 -24t-3.5 -26q52 3 104.5 8.5t101.5 5.5q48 0 91.5 -9.5t77.5 -37.5q21 -17 39 -44.5t30.5 -61.5t16.5 -72
q1 -14 1 -28q0 -24 -4 -49zM688 481q-3 15 -11 32.5t-19.5 34.5t-25 31t-27.5 22q-33 19 -76 25q-30 3 -61 3h-28q-45 -3 -88.5 -10.5t-77.5 -13.5v-85q-2 -29 -2 -57q0 -9 1 -18q0 -37 3.5 -73t14.5 -75q31 -21 68 -34.5t76 -17.5q17 -2 33 -2q23 0 45 3q38 6 72 24
q6 4 12 6t11 5q23 13 41 34.5t29 48.5t14 57q1 9 1 18q0 21 -5 42z" />
    <glyph glyph-name="germandbls" unicode="&#xdf;" horiz-adv-x="657" 
d="M608 93q-5 -33 -20 -63.5t-37 -54.5t-48.5 -40.5t-54.5 -22.5q-15 -3 -34 -3q-13 0 -28 2q-36 4 -63 17t-36 34q-2 5 -2 11q0 16 19 36q21 -6 37.5 -15.5t33 -15.5t34.5 -6q1 -1 2 -1q17 0 40 11q18 9 36.5 24t32.5 34.5t23 42.5q8 20 8 41v5q-1 28 -11.5 53t-26.5 46.5
t-35 39.5t-37 32q-12 -6 -30 -17.5t-38.5 -23t-42.5 -20t-43 -9.5h-7q-11 0 -22 3q-14 3 -24.5 11.5t-15.5 21.5q-5 10 -5 22q0 4 1 9q0 3 3 8.5t6.5 12.5t7 13t6.5 9q9 9 24.5 17t34 14t38.5 10q16 2 29 2h8q11 0 24 -6q10 -4 20 -4h6q25 5 33 25.5t17 45.5q3 8 9 13.5
t8 12.5q3 12 3 25v9q-1 2 -1 5q0 14 8 25q-8 27 -19.5 51.5t-28.5 42.5t-41 29.5t-58 13.5q-91 -15 -142 -67t-72 -140q-12 -47 -15 -92q-1 -21 -1 -41q0 -24 2 -48q3 -44 12 -88t22 -89q8 -27 12 -51.5t15 -48.5q5 -11 11.5 -22t11 -21.5t5.5 -21.5v-3q0 -10 -5 -19
q-9 -3 -16 -3q-14 0 -24 11q-15 15 -24.5 40.5t-16 55.5t-13.5 53q-4 14 -12.5 28t-10.5 25q-1 5 -1 9t1 8v17q-5 33 -14 62.5t-9 61.5v12q0 52 8 109q9 63 29 119.5t52 100t78 63.5q9 4 22 6.5t25 6.5q21 8 45 16q15 5 36 5q10 0 22 -1q53 -5 89 -37t68 -80q9 -36 10 -72
v-9q0 -31 -6 -60q-7 -34 -20 -64t-31 -52q3 -14 11 -23t17 -16.5t18.5 -14t17.5 -16.5q5 -6 10.5 -22t12.5 -32q6 -14 12.5 -27.5t11 -29.5t5.5 -34v-10q0 -15 -2 -32zM367 323q-10 0 -24 -1t-27 -4t-23 -9.5t-12 -18.5q11 -3 22 -3q15 0 30 7q23 12 34 29z" />
    <glyph glyph-name="agrave" unicode="&#xe0;" horiz-adv-x="678" 
d="M668 24q-3 -12 -7 -22t-13 -14q-5 -2 -12 -2q-5 0 -10 1q-14 2 -29 8t-28.5 14t-20.5 15q-14 13 -22.5 30t-15.5 34.5t-12.5 32.5t-13.5 24q-11 -5 -18 -13t-13.5 -18t-13 -20.5t-15.5 -18.5q-21 -21 -50.5 -37.5t-63.5 -25.5q-29 -8 -60 -8q-5 0 -10 1q-36 1 -70 16
q-35 24 -63.5 61t-45.5 82t-19 96q-1 6 -1 12q0 44 16 90q6 16 16.5 35.5t23.5 37.5t27.5 33t28.5 24q36 22 79 29q23 3 46 3q19 0 39 -2q43 -6 83.5 -22.5t73.5 -40.5q9 9 22.5 19.5t28.5 17.5q13 5 26 5h5q15 -1 29 -15q8 -31 8 -61v-15q-3 -37 -13 -71.5t-24.5 -65.5
t-27.5 -58q15 -47 33.5 -90t49.5 -74h11q16 0 24 -4q11 -7 22 -23zM535 436q-20 -29 -22 -64v-16q0 -28 5 -61q6 12 14 31.5t13 40.5q3 17 3 33v7q-1 18 -13 29zM468 222q-4 41 -8 86q-3 26 -3 51q0 17 1 33q-13 20 -35 36t-48 26t-55 14q-17 2 -32 2q-12 0 -24 -1
q-35 -4 -61 -16.5t-46 -30.5q-11 -20 -24 -44t-22.5 -51t-13.5 -56q-1 -11 -1 -21q0 -19 4 -38q4 -16 12.5 -35.5t20 -38.5t25 -35t26.5 -25q20 -14 47 -18q17 -3 36 -3q10 0 20 1q33 10 58 28t46 40t39.5 47t37.5 49zM355 620q-12 -12 -24 -12q-1 0 -1 1q-14 0 -28 7.5
t-28 20t-26 24.5q-12 11 -28 25.5t-24 28.5q-6 8 -6 17q0 4 2 8q4 12 33 18q7 -12 17.5 -22t21 -19.5t20.5 -19.5t18 -23q6 -7 14.5 -11.5t16.5 -10t14 -13t8 -19.5z" />
    <glyph glyph-name="aacute" unicode="&#xe1;" horiz-adv-x="678" 
d="M668 24q-3 -12 -7 -22t-13 -14q-5 -2 -12 -2q-5 0 -10 1q-14 2 -29 8t-28.5 14t-20.5 15q-14 13 -22.5 30t-15.5 34.5t-12.5 32.5t-13.5 24q-11 -5 -18 -13t-13.5 -18t-13 -20.5t-15.5 -18.5q-21 -21 -50.5 -37.5t-63.5 -25.5q-29 -8 -60 -8q-5 0 -10 1q-36 1 -70 16
q-35 24 -63.5 61t-45.5 82t-19 96q-1 6 -1 12q0 44 16 90q6 16 16.5 35.5t23.5 37.5t27.5 33t28.5 24q36 22 79 29q23 3 46 3q19 0 39 -2q43 -6 83.5 -22.5t73.5 -40.5q9 9 22.5 19.5t28.5 17.5q13 5 26 5h5q15 -1 29 -15q8 -31 8 -61v-15q-3 -37 -13 -71.5t-24.5 -65.5
t-27.5 -58q15 -47 33.5 -90t49.5 -74h11q16 0 24 -4q11 -7 22 -23zM535 436q-20 -29 -22 -64v-16q0 -28 5 -61q6 12 14 31.5t13 40.5q3 17 3 33v7q-1 18 -13 29zM468 222q-4 41 -8 86q-3 26 -3 51q0 17 1 33q-13 20 -35 36t-48 26t-55 14q-17 2 -32 2q-12 0 -24 -1
q-35 -4 -61 -16.5t-46 -30.5q-11 -20 -24 -44t-22.5 -51t-13.5 -56q-1 -11 -1 -21q0 -19 4 -38q4 -16 12.5 -35.5t20 -38.5t25 -35t26.5 -25q20 -14 47 -18q17 -3 36 -3q10 0 20 1q33 10 58 28t46 40t39.5 47t37.5 49zM431 742q-21 -43 -54.5 -72.5t-66.5 -60.5
q-11 -3 -24 -6q-5 -2 -10 -2q-8 0 -16 4q-2 7 -2 14q0 8 4 15q7 10 19 16.5t25 12.5t21 16q15 20 32 36.5t31 36.5q9 4 18 4q3 0 7 -1q11 -2 16 -13z" />
    <glyph glyph-name="acircumflex" unicode="&#xe2;" horiz-adv-x="678" 
d="M668 24q-3 -12 -7 -22t-13 -14q-5 -2 -12 -2q-5 0 -10 1q-14 2 -29 8t-28.5 14t-20.5 15q-14 13 -22.5 30t-15.5 34.5t-12.5 32.5t-13.5 24q-11 -5 -18 -13t-13.5 -18t-13 -20.5t-15.5 -18.5q-21 -21 -50.5 -37.5t-63.5 -25.5q-29 -8 -60 -8q-5 0 -10 1q-36 1 -70 16
q-35 24 -63.5 61t-45.5 82t-19 96q-1 6 -1 12q0 44 16 90q6 16 16.5 35.5t23.5 37.5t27.5 33t28.5 24q36 22 79 29q23 3 46 3q19 0 39 -2q43 -6 83.5 -22.5t73.5 -40.5q9 9 22.5 19.5t28.5 17.5q13 5 26 5h5q15 -1 29 -15q8 -31 8 -61v-15q-3 -37 -13 -71.5t-24.5 -65.5
t-27.5 -58q15 -47 33.5 -90t49.5 -74h11q16 0 24 -4q11 -7 22 -23zM535 436q-20 -29 -22 -64v-16q0 -28 5 -61q6 12 14 31.5t13 40.5q3 17 3 33v7q-1 18 -13 29zM468 222q-4 41 -8 86q-3 26 -3 51q0 17 1 33q-13 20 -35 36t-48 26t-55 14q-17 2 -32 2q-12 0 -24 -1
q-35 -4 -61 -16.5t-46 -30.5q-11 -20 -24 -44t-22.5 -51t-13.5 -56q-1 -11 -1 -21q0 -19 4 -38q4 -16 12.5 -35.5t20 -38.5t25 -35t26.5 -25q20 -14 47 -18q17 -3 36 -3q10 0 20 1q33 10 58 28t46 40t39.5 47t37.5 49zM415 604q-15 -9 -27 -9q-7 0 -14 4q-17 9 -31 28
t-26 41t-25 36q-14 -7 -24 -27t-20.5 -37.5t-23.5 -24.5q-4 -3 -8 -3q-10 0 -25 15q20 40 45.5 73.5t45.5 73.5h5q12 0 20 -7q10 -9 17.5 -22.5t14 -28.5t13.5 -25q16 -24 32.5 -36.5t30.5 -27.5v-23z" />
    <glyph glyph-name="atilde" unicode="&#xe3;" horiz-adv-x="678" 
d="M668 24q-3 -12 -7 -22t-13 -14q-5 -2 -12 -2q-5 0 -10 1q-14 2 -29 8t-28.5 14t-20.5 15q-14 13 -22.5 30t-15.5 34.5t-12.5 32.5t-13.5 24q-11 -5 -18 -13t-13.5 -18t-13 -20.5t-15.5 -18.5q-21 -21 -50.5 -37.5t-63.5 -25.5q-29 -8 -60 -8q-5 0 -10 1q-36 1 -70 16
q-35 24 -63.5 61t-45.5 82t-19 96q-1 6 -1 12q0 44 16 90q6 16 16.5 35.5t23.5 37.5t27.5 33t28.5 24q36 22 79 29q23 3 46 3q19 0 39 -2q43 -6 83.5 -22.5t73.5 -40.5q9 9 22.5 19.5t28.5 17.5q13 5 26 5h5q15 -1 29 -15q8 -31 8 -61v-15q-3 -37 -13 -71.5t-24.5 -65.5
t-27.5 -58q15 -47 33.5 -90t49.5 -74h11q16 0 24 -4q11 -7 22 -23zM535 436q-20 -29 -22 -64v-16q0 -28 5 -61q6 12 14 31.5t13 40.5q3 17 3 33v7q-1 18 -13 29zM468 222q-4 41 -8 86q-3 26 -3 51q0 17 1 33q-13 20 -35 36t-48 26t-55 14q-17 2 -32 2q-12 0 -24 -1
q-35 -4 -61 -16.5t-46 -30.5q-11 -20 -24 -44t-22.5 -51t-13.5 -56q-1 -11 -1 -21q0 -19 4 -38q4 -16 12.5 -35.5t20 -38.5t25 -35t26.5 -25q20 -14 47 -18q17 -3 36 -3q10 0 20 1q33 10 58 28t46 40t39.5 47t37.5 49zM486 697q2 -6 2 -12q0 -4 -1 -7q-2 -10 -5.5 -19
t-8 -18t-7.5 -17q-35 -15 -68 -15q-2 -1 -4 -1q-31 0 -59 9q-31 8 -59.5 22t-53.5 28h-10q-27 0 -41 -15q-9 -10 -9 -23q0 -12 6 -25l-16 -8q-6 -3 -16 -3h-5q-13 18 -13 37q0 8 3 16q7 27 24 44q14 5 27 11t26 13h4q18 0 40 -8q23 -10 47.5 -21.5t48.5 -22t45 -11.5
q2 -1 5 -1q17 0 32 10q16 10 26 40q11 0 19 -2q4 -2 10 -2q5 0 11 1z" />
    <glyph glyph-name="adieresis" unicode="&#xe4;" horiz-adv-x="678" 
d="M668 24q-3 -12 -7 -22t-13 -14q-5 -2 -12 -2q-5 0 -10 1q-14 2 -29 8t-28.5 14t-20.5 15q-14 13 -22.5 30t-15.5 34.5t-12.5 32.5t-13.5 24q-11 -5 -18 -13t-13.5 -18t-13 -20.5t-15.5 -18.5q-21 -21 -50.5 -37.5t-63.5 -25.5q-29 -8 -60 -8q-5 0 -10 1q-36 1 -70 16
q-35 24 -63.5 61t-45.5 82t-19 96q-1 6 -1 12q0 44 16 90q6 16 16.5 35.5t23.5 37.5t27.5 33t28.5 24q36 22 79 29q23 3 46 3q19 0 39 -2q43 -6 83.5 -22.5t73.5 -40.5q9 9 22.5 19.5t28.5 17.5q13 5 26 5h5q15 -1 29 -15q8 -31 8 -61v-15q-3 -37 -13 -71.5t-24.5 -65.5
t-27.5 -58q15 -47 33.5 -90t49.5 -74h11q16 0 24 -4q11 -7 22 -23zM535 436q-20 -29 -22 -64v-16q0 -28 5 -61q6 12 14 31.5t13 40.5q3 17 3 33v7q-1 18 -13 29zM468 222q-4 41 -8 86q-3 26 -3 51q0 17 1 33q-13 20 -35 36t-48 26t-55 14q-17 2 -32 2q-12 0 -24 -1
q-35 -4 -61 -16.5t-46 -30.5q-11 -20 -24 -44t-22.5 -51t-13.5 -56q-1 -11 -1 -21q0 -19 4 -38q4 -16 12.5 -35.5t20 -38.5t25 -35t26.5 -25q20 -14 47 -18q17 -3 36 -3q10 0 20 1q33 10 58 28t46 40t39.5 47t37.5 49zM391 659v-4q0 -17 -8 -23q-8 -8 -20 -8l-1 1
q-12 0 -24.5 7.5t-17.5 17.5q-4 5 -4 11q0 4 2 8q3 10 23 17q12 4 21 4q10 0 17 -5q11 -9 12 -26zM180 676q20 12 33 12h5q13 -3 18 -14q2 -7 2 -16v-9q-3 -15 -11 -23t-20 -8h-2q-14 1 -31 21q-1 4 -1 7q0 8 4 13q3 5 3 13v4z" />
    <glyph glyph-name="aring" unicode="&#xe5;" horiz-adv-x="678" 
d="M668 24q-3 -12 -7 -22t-13 -14q-5 -2 -12 -2q-5 0 -10 1q-14 2 -29 8t-28.5 14t-20.5 15q-14 13 -22.5 30t-15.5 34.5t-12.5 32.5t-13.5 24q-11 -5 -18 -13t-13.5 -18t-13 -20.5t-15.5 -18.5q-21 -21 -50.5 -37.5t-63.5 -25.5q-29 -8 -60 -8q-5 0 -10 1q-36 1 -70 16
q-35 24 -63.5 61t-45.5 82t-19 96q-1 6 -1 12q0 44 16 90q6 16 16.5 35.5t23.5 37.5t27.5 33t28.5 24q40 24 87 30q-14 9 -24.5 21.5t-12.5 21.5q-3 11 -3 21q0 8 2 16q4 18 15 32.5t27.5 24.5t35.5 13q8 1 16 1q12 0 23 -2q19 -5 34 -15.5t24 -26.5q6 -13 6 -29v-8
q-2 -23 -20 -41.5t-41 -29.5q42 -6 81 -22.5t71 -39.5q9 9 22.5 19.5t28.5 17.5q13 5 26 5h5q15 -1 29 -15q8 -31 8 -61v-15q-3 -37 -13 -71.5t-24.5 -65.5t-27.5 -58q15 -47 33.5 -90t49.5 -74h11q16 0 24 -4q11 -7 22 -23zM535 436q-20 -29 -22 -64v-16q0 -28 5 -61
q6 12 14 31.5t13 40.5q3 17 3 33v7q-1 18 -13 29zM337 595q0 17 -14 26q-13 7 -28 7h-3q-18 -1 -32 -11.5t-14 -31.5q5 -17 20 -23q10 -4 20 -4q5 0 11 1q15 3 27.5 12.5t12.5 23.5zM468 222q-4 41 -8 86q-3 26 -3 51q0 17 1 33q-13 20 -35 36t-48 26t-55 14q-17 2 -32 2
q-12 0 -24 -1q-35 -4 -61 -16.5t-46 -30.5q-11 -20 -24 -44t-22.5 -51t-13.5 -56q-1 -11 -1 -21q0 -19 4 -38q4 -16 12.5 -35.5t20 -38.5t25 -35t26.5 -25q20 -14 47 -18q17 -3 36 -3q10 0 20 1q33 10 58 28t46 40t39.5 47t37.5 49z" />
    <glyph glyph-name="ae" unicode="&#xe6;" horiz-adv-x="1075" 
d="M1032 62q-48 -47 -110 -87q-42 -13 -91 -13q-2 0 -4 1q-51 0 -99 11.5t-88.5 33.5t-65.5 54q-7 17 -13.5 32.5t-23.5 21.5q-27 -51 -72 -83.5t-105 -50.5q-36 6 -70 6q-35 0 -67 11q-13 5 -24.5 15t-25.5 18q-13 7 -21.5 11.5t-15.5 9t-15.5 11t-21.5 18.5
q-15 14 -28.5 30t-23.5 36t-14 45q-2 13 -2 27t2 30q5 45 26 91t50 72q31 26 70 41t84 26q18 3 36 3q29 0 55 -8q41 -12 73 -35q8 1 14 5q4 2 11 2h5q16 -11 28.5 -26t23 -31.5t21 -33.5t24.5 -30q11 24 27.5 43.5t35.5 36t39 32t38 32.5q47 11 95 18q28 4 56 4q20 0 40 -2
q43 -4 74.5 -25.5t48.5 -53.5q15 -30 15 -66v-4q-1 -38 -24 -75q-26 -40 -75.5 -61t-107.5 -26q-24 -2 -48 -2q-35 0 -72 5q-61 7 -109 24q0 -19 4.5 -37.5t15.5 -35.5q5 -8 12.5 -12.5t11.5 -11.5q1 -3 1 -6v-4q-1 -2 -1 -3q0 -4 3 -7q2 -2 11.5 -9t21 -15t22.5 -15t15 -8
q8 -2 22 -4.5t25 -5.5q39 -8 75 -8q25 0 48 4q57 9 91 54q4 9 4.5 21t8.5 16q13 5 24 5q12 0 23 -5q7 -13 9 -26q1 -4 1 -9q0 -10 -3 -22zM965 393q-23 20 -53 33q-28 11 -62 11h-5q-93 -3 -157.5 -46.5t-90.5 -114.5q28 -19 68.5 -30.5t84.5 -13.5h18q35 0 69 6
q42 7 73.5 26t47.5 51q10 20 10 47q0 14 -3 31zM511 246q-4 20 -12 34t-9 36q-18 21 -40 42t-47.5 37t-54.5 25q-24 7 -49 7h-12q-50 -4 -88 -22.5t-63.5 -49t-36.5 -72.5q-8 -30 -8 -63q0 -15 2 -31q11 -26 28.5 -44.5t34.5 -38.5q25 -16 56.5 -31t65.5 -23q28 -8 58 -8
q5 0 10 1q35 1 68 17q19 18 37 37t31.5 41t21 48t7.5 58z" />
    <glyph glyph-name="ccedilla" unicode="&#xe7;" horiz-adv-x="564" 
d="M542 161q-20 -21 -38 -43.5t-40 -41.5t-50 -32.5t-66 -16.5q-20 -11 -26 -40q7 -2 13 -2t11.5 0.5t11.5 0.5t14 -2q36 -9 52 -36q14 -25 14 -53v-5q-2 -32 -19.5 -61t-46.5 -42q-26 -3 -48.5 -6t-48.5 -8q-12 5 -25.5 12.5t-23 17.5t-12.5 23q-1 3 -1 6q0 10 8 22
q9 2 17 2q11 0 21 -3q18 -5 29 -16h8q18 0 36 8q22 9 34 24q10 12 10 25v5q-3 16 -28 28q-17 0 -28.5 -4t-22.5 -9.5t-22.5 -10.5t-26.5 -6q-16 15 -16 29q0 1 1 3q1 15 9.5 31t19.5 32t13 32q-9 7 -18.5 9.5t-19.5 3.5l-20 2t-19 5q-24 10 -42 28t-42 26q-32 32 -51.5 76
t-21.5 107q5 19 11.5 33t8.5 41q15 37 43 69.5t65.5 55.5t83.5 35q33 8 70 8q12 0 25 -1q26 -2 57 -16.5t54 -33.5q7 -6 16.5 -17t17.5 -22t13.5 -21.5t5.5 -16.5q-1 -16 -11 -22q-7 -4 -15 -4q-4 0 -8 1q-13 3 -23 13t-10 25q-14 8 -26.5 18t-26 18.5t-28 14.5t-32.5 6h-7
q-16 0 -35 -3q-24 -5 -42 -10q-39 -11 -69 -38t-51 -49q-4 -20 -9 -38.5t-9 -36t-5 -34.5q-1 -4 -1 -8q0 -13 4 -27q10 -38 38.5 -66.5t66.5 -45.5t81 -22q14 -2 28 -2q28 0 53 7q38 10 67 36t40 70q8 5 15 11.5t19 8.5q14 -8 22 -20q5 -8 5 -22q0 -7 -1 -15z" />
    <glyph glyph-name="egrave" unicode="&#xe8;" horiz-adv-x="599" 
d="M542 95q-7 -28 -27 -50t-40 -37q-18 -14 -41 -21t-43 -19q-38 -2 -72 -3.5t-68 -3.5q-43 11 -79.5 31.5t-64.5 52.5q-13 15 -28 41t-26 57.5t-16 65.5q-2 12 -2 25q0 20 5 38q2 9 12 21t18 29q26 51 57.5 89t80.5 61q31 15 75 22q29 4 58 4q16 0 32 -1q45 -4 85.5 -19
t63.5 -42q15 -18 24.5 -41.5t11.5 -48.5v-11q0 -19 -5 -37q-7 -23 -25 -40q-23 -22 -56.5 -39.5t-72 -29t-80.5 -15.5q-20 -3 -39 -3q-22 0 -42 3q-40 5 -74.5 20.5t-59.5 43.5q-1 -11 -1 -21q0 -26 7 -52q10 -37 30 -67t49.5 -50.5t64.5 -26.5q21 -4 45 -4q3 0 6 1
q26 0 51.5 4.5t48.5 13.5t40 22q15 11 24.5 27t25.5 30q5 1 10 1q13 0 21 -4q10 -6 16 -17zM502 342q-2 19 -12.5 31.5t-17.5 32.5q-20 19 -51 27t-65 8q-35 0 -70.5 -5.5t-64.5 -13.5q-29 -24 -54 -51.5t-40 -65.5q17 -30 43 -46.5t59 -23.5q31 -7 66 -7q2 0 5 1q38 0 78 3
q16 11 38.5 21t42 22.5t32.5 28.5q11 14 11 32v6zM376 589q-12 -12 -24 -12q-1 0 -1 1q-14 0 -28 7.5t-28 20t-26 24.5q-12 11 -28 25.5t-24 28.5q-6 8 -6 17q0 4 2 8q4 12 33 18q7 -12 17.5 -22t21 -19.5t20.5 -19.5t18 -23q6 -7 14.5 -11.5t16.5 -10t14 -13t8 -19.5z" />
    <glyph glyph-name="eacute" unicode="&#xe9;" horiz-adv-x="599" 
d="M542 95q-7 -28 -27 -50t-40 -37q-18 -14 -41 -21t-43 -19q-38 -2 -72 -3.5t-68 -3.5q-43 11 -79.5 31.5t-64.5 52.5q-13 15 -28 41t-26 57.5t-16 65.5q-2 12 -2 25q0 20 5 38q2 9 12 21t18 29q26 51 57.5 89t80.5 61q31 15 75 22q29 4 58 4q16 0 32 -1q45 -4 85.5 -19
t63.5 -42q15 -18 24.5 -41.5t11.5 -48.5v-11q0 -19 -5 -37q-7 -23 -25 -40q-23 -22 -56.5 -39.5t-72 -29t-80.5 -15.5q-20 -3 -39 -3q-22 0 -42 3q-40 5 -74.5 20.5t-59.5 43.5q-1 -11 -1 -21q0 -26 7 -52q10 -37 30 -67t49.5 -50.5t64.5 -26.5q21 -4 45 -4q3 0 6 1
q26 0 51.5 4.5t48.5 13.5t40 22q15 11 24.5 27t25.5 30q5 1 10 1q13 0 21 -4q10 -6 16 -17zM502 342q-2 19 -12.5 31.5t-17.5 32.5q-20 19 -51 27t-65 8q-35 0 -70.5 -5.5t-64.5 -13.5q-29 -24 -54 -51.5t-40 -65.5q17 -30 43 -46.5t59 -23.5q31 -7 66 -7q2 0 5 1q38 0 78 3
q16 11 38.5 21t42 22.5t32.5 28.5q11 14 11 32v6zM431 711q-21 -43 -54.5 -72.5t-66.5 -60.5q-11 -3 -24 -6q-5 -2 -10 -2q-8 0 -16 4q-2 7 -2 14q0 8 4 15q7 10 19 16.5t25 12.5t21 16q15 20 32 36.5t31 36.5q9 4 18 4q3 0 7 -1q11 -2 16 -13z" />
    <glyph glyph-name="ecircumflex" unicode="&#xea;" horiz-adv-x="599" 
d="M542 95q-7 -28 -27 -50t-40 -37q-18 -14 -41 -21t-43 -19q-38 -2 -72 -3.5t-68 -3.5q-43 11 -79.5 31.5t-64.5 52.5q-13 15 -28 41t-26 57.5t-16 65.5q-2 12 -2 25q0 20 5 38q2 9 12 21t18 29q26 51 57.5 89t80.5 61q31 15 75 22q29 4 58 4q16 0 32 -1q45 -4 85.5 -19
t63.5 -42q15 -18 24.5 -41.5t11.5 -48.5v-11q0 -19 -5 -37q-7 -23 -25 -40q-23 -22 -56.5 -39.5t-72 -29t-80.5 -15.5q-20 -3 -39 -3q-22 0 -42 3q-40 5 -74.5 20.5t-59.5 43.5q-1 -11 -1 -21q0 -26 7 -52q10 -37 30 -67t49.5 -50.5t64.5 -26.5q21 -4 45 -4q3 0 6 1
q26 0 51.5 4.5t48.5 13.5t40 22q15 11 24.5 27t25.5 30q5 1 10 1q13 0 21 -4q10 -6 16 -17zM502 342q-2 19 -12.5 31.5t-17.5 32.5q-20 19 -51 27t-65 8q-35 0 -70.5 -5.5t-64.5 -13.5q-29 -24 -54 -51.5t-40 -65.5q17 -30 43 -46.5t59 -23.5q31 -7 66 -7q2 0 5 1q38 0 78 3
q16 11 38.5 21t42 22.5t32.5 28.5q11 14 11 32v6zM446 584q-15 -9 -27 -9q-7 0 -14 4q-17 9 -31 28t-26 41t-25 36q-14 -7 -24 -27t-20.5 -37.5t-23.5 -24.5q-4 -3 -8 -3q-10 0 -25 15q20 40 45.5 73.5t45.5 73.5h5q12 0 20 -7q10 -9 17.5 -22.5t14 -28.5t13.5 -25
q16 -24 32.5 -36.5t30.5 -27.5v-23z" />
    <glyph glyph-name="edieresis" unicode="&#xeb;" horiz-adv-x="599" 
d="M542 95q-7 -28 -27 -50t-40 -37q-18 -14 -41 -21t-43 -19q-38 -2 -72 -3.5t-68 -3.5q-43 11 -79.5 31.5t-64.5 52.5q-13 15 -28 41t-26 57.5t-16 65.5q-2 12 -2 25q0 20 5 38q2 9 12 21t18 29q26 51 57.5 89t80.5 61q31 15 75 22q29 4 58 4q16 0 32 -1q45 -4 85.5 -19
t63.5 -42q15 -18 24.5 -41.5t11.5 -48.5v-11q0 -19 -5 -37q-7 -23 -25 -40q-23 -22 -56.5 -39.5t-72 -29t-80.5 -15.5q-20 -3 -39 -3q-22 0 -42 3q-40 5 -74.5 20.5t-59.5 43.5q-1 -11 -1 -21q0 -26 7 -52q10 -37 30 -67t49.5 -50.5t64.5 -26.5q21 -4 45 -4q3 0 6 1
q26 0 51.5 4.5t48.5 13.5t40 22q15 11 24.5 27t25.5 30q5 1 10 1q13 0 21 -4q10 -6 16 -17zM502 342q-2 19 -12.5 31.5t-17.5 32.5q-20 19 -51 27t-65 8q-35 0 -70.5 -5.5t-64.5 -13.5q-29 -24 -54 -51.5t-40 -65.5q17 -30 43 -46.5t59 -23.5q31 -7 66 -7q2 0 5 1q38 0 78 3
q16 11 38.5 21t42 22.5t32.5 28.5q11 14 11 32v6zM432 629v-4q0 -17 -8 -23q-8 -8 -20 -8l-1 1q-12 0 -24.5 7.5t-17.5 17.5q-4 5 -4 11q0 4 2 8q3 10 23 17q12 4 21 4q10 0 17 -5q11 -9 12 -26zM221 646q20 12 33 12h5q13 -3 18 -14q2 -7 2 -16v-9q-3 -15 -11 -23t-20 -8
h-2q-14 1 -31 21q-1 4 -1 7q0 8 4 13q3 5 3 13v4z" />
    <glyph glyph-name="igrave" unicode="&#xec;" horiz-adv-x="217" 
d="M183 -54q-10 -4 -18 -4q-6 0 -10 3q-11 5 -18 17.5t-11 28t-9 28.5q-17 43 -29 98t-17 114q-4 49 -4 99v20q1 59 10 110q13 12 28 12h4q17 -2 24 -18q3 -6 3 -13t-2 -15q-5 -17 -7 -36q-2 -22 -2 -49v-18q1 -38 2 -63q0 -21 1.5 -46.5t5.5 -51.5t9.5 -51t13.5 -45
q6 -17 16 -32.5t16.5 -29.5t6.5 -28q0 -15 -13 -30zM140 589q-12 -12 -24 -12q-1 0 -1 1q-14 0 -28 7.5t-28 20t-26 24.5q-12 11 -28 25.5t-24 28.5q-6 8 -6 17q0 4 2 8q4 12 33 18q7 -12 17.5 -22t21 -19.5t20.5 -19.5t18 -23q6 -7 14.5 -11.5t16.5 -10t14 -13t8 -19.5z
" />
    <glyph glyph-name="iacute" unicode="&#xed;" horiz-adv-x="217" 
d="M182 -54q-10 -4 -18 -4q-6 0 -10 3q-11 5 -18 17.5t-11 28t-9 28.5q-17 43 -29 98t-17 114q-4 49 -4 99v20q1 59 10 110q13 12 28 12h4q17 -2 24 -18q3 -6 3 -13t-2 -15q-5 -17 -7 -36q-2 -22 -2 -49v-18q1 -38 2 -63q0 -21 1.5 -46.5t5.5 -51.5t9.5 -51t13.5 -45
q6 -17 16 -32.5t16.5 -29.5t6.5 -28q0 -15 -13 -30zM245 732q-21 -43 -54.5 -72.5t-66.5 -60.5q-11 -3 -24 -6q-5 -2 -10 -2q-8 0 -16 4q-2 7 -2 14q0 8 4 15q7 10 19 16.5t25 12.5t21 16q15 20 32 36.5t31 36.5q9 4 18 4q3 0 7 -1q11 -2 16 -13z" />
    <glyph glyph-name="icircumflex" unicode="&#xee;" horiz-adv-x="217" 
d="M183 -54q-10 -4 -18 -4q-6 0 -10 3q-11 5 -18 17.5t-11 28t-9 28.5q-17 43 -29 98t-17 114q-4 49 -4 99v20q1 59 10 110q13 12 28 12h4q17 -2 24 -18q3 -6 3 -13t-2 -15q-5 -17 -7 -36q-2 -22 -2 -49v-18q1 -38 2 -63q0 -21 1.5 -46.5t5.5 -51.5t9.5 -51t13.5 -45
q6 -17 16 -32.5t16.5 -29.5t6.5 -28q0 -15 -13 -30zM241 563q-15 -9 -27 -9q-7 0 -14 4q-17 9 -31 28t-26 41t-25 36q-14 -7 -24 -27t-20.5 -37.5t-23.5 -24.5q-4 -3 -8 -3q-10 0 -25 15q20 40 45.5 73.5t45.5 73.5h5q12 0 20 -7q10 -9 17.5 -22.5t14 -28.5t13.5 -25
q16 -24 32.5 -36.5t30.5 -27.5v-23z" />
    <glyph glyph-name="idieresis" unicode="&#xef;" horiz-adv-x="217" 
d="M182 -54q-10 -4 -18 -4q-6 0 -10 3q-11 5 -18 17.5t-11 28t-9 28.5q-17 43 -29 98t-17 114q-4 49 -4 99v20q1 59 10 110q13 12 28 12h4q17 -2 24 -18q3 -6 3 -13t-2 -15q-5 -17 -7 -36q-2 -22 -2 -49v-18q1 -38 2 -63q0 -21 1.5 -46.5t5.5 -51.5t9.5 -51t13.5 -45
q6 -17 16 -32.5t16.5 -29.5t6.5 -28q0 -15 -13 -30zM227 629v-4q0 -17 -8 -23q-8 -8 -20 -8l-1 1q-12 0 -24.5 7.5t-17.5 17.5q-4 5 -4 11q0 4 2 8q3 10 23 17q12 4 21 4q10 0 17 -5q11 -9 12 -26zM16 646q20 12 33 12h5q13 -3 18 -14q2 -7 2 -16v-9q-3 -15 -11 -23t-20 -8
h-2q-14 1 -31 21q-1 4 -1 7q0 8 4 13q3 5 3 13v4z" />
    <glyph glyph-name="eth" unicode="&#xf0;" horiz-adv-x="519" 
d="M487 313q1 -4 1 -7q0 -5 -2 -6q-5 -2 -5 -10q0 -32 -5 -67.5t-14.5 -70t-22.5 -65t-29 -51.5q-8 -11 -19.5 -19t-22.5 -15.5t-20.5 -17t-14.5 -22.5q-25 -8 -48 -13t-42 -13q-48 0 -87 16.5t-64.5 45.5t-35.5 69q-5 19 -5 41t5 45v6q0 41 14 77q15 37 41.5 65.5t62.5 48
t76 28.5q34 8 70 8h13q42 -2 81 -16q-6 63 -37 116t-70 91q-11 -10 -17.5 -33t-14 -46t-18.5 -40q-9 -14 -25 -14h-5q-8 1 -16.5 6.5t-10.5 16.5v5q0 10 6 16q7 7 11 16q9 22 17.5 51t18.5 56q-13 13 -32 13h-7q-24 -3 -48 -7q-14 -9 -22.5 -23t-16.5 -29t-16.5 -30
t-21.5 -25q-9 3 -16 7.5t-14 9.5q3 42 22 75t49.5 53t69.5 25q10 1 21 1q30 0 62 -10q10 9 15 25t11.5 30t17.5 22q6 3 14 3t19 -3q9 -15 9 -27v-3q-2 -14 -8.5 -26.5t-15 -25t-12.5 -25.5q15 -23 33.5 -41t37.5 -36q12 -24 24.5 -50t23 -54t17.5 -57t8 -60q1 -10 6 -14
q4 -4 4 -13v-3zM420 283q-10 12 -28 20.5t-38.5 13t-41.5 5.5h-11q-15 0 -28 -2q-8 0 -14 -2.5t-12 -4.5t-13 -3q-3 -1 -7 -1t-10 1q-20 -9 -40.5 -28t-37 -44t-27.5 -53t-12 -56v-19q1 -14 3 -21q1 -2 8 -6.5t9 -9.5q8 -25 18.5 -37.5t27.5 -26.5q19 -2 34 -7l30 -10
q48 11 84.5 39.5t61.5 67.5t36 87q9 37 9 76q0 10 -1 21z" />
    <glyph glyph-name="ntilde" unicode="&#xf1;" horiz-adv-x="610" 
d="M564 357q-1 -44 -3 -89.5t-8 -89t-17 -83t-29 -72.5q1 -6 1 -12q0 -12 -4 -21q-7 -15 -18 -22q-9 -7 -20 -7q-2 0 -4 1q-14 1 -25 14q-1 8 -1 14t1 12q2 10 6.5 19t9.5 16.5t10 15.5q17 45 28 103.5t12 116.5v4q0 56 -13 105q-14 51 -47 82q-5 5 -15 8t-21 4h-8
q-8 0 -15 -1q-12 -1 -21 -4q-40 -14 -75.5 -46.5t-61.5 -77t-39 -96.5q-12 -43 -12 -88q0 -10 1 -20q1 -23 7 -44.5t12.5 -42.5t12.5 -42.5t8 -44.5q-8 -11 -19 -18q-9 -6 -22 -6q-6 0 -12 1q-18 37 -23.5 79t-13.5 85q-7 37 -15.5 78t-18 80.5t-20 77t-20.5 68.5
q-4 12 -8.5 22t-6.5 19q-1 5 -1 9t1 9q2 8 12 18q8 3 15 3q9 0 16 -4q11 -8 17 -22t9 -31t6 -30q9 -32 18.5 -59.5t11.5 -47.5q20 40 43.5 76.5t52.5 67t65.5 53.5t83.5 37h5q42 0 69 -15q28 -16 46.5 -41.5t31 -57.5t25.5 -63zM465 707q2 -6 2 -12q0 -4 -1 -7
q-2 -10 -5.5 -19t-8 -18t-7.5 -17q-35 -15 -68 -15q-2 -1 -4 -1q-31 0 -59 9q-31 8 -59.5 22t-53.5 28h-10q-27 0 -41 -15q-9 -10 -9 -23q0 -12 6 -25l-16 -8q-6 -3 -16 -3h-5q-13 18 -13 37q0 8 3 16q7 27 24 44q14 5 27 11t26 13h4q18 0 40 -8q23 -10 47.5 -21.5t48.5 -22
t45 -11.5q2 -1 5 -1q17 0 32 10q16 10 26 40q11 0 19 -2q4 -2 10 -2q5 0 11 1z" />
    <glyph glyph-name="ograve" unicode="&#xf2;" horiz-adv-x="655" 
d="M606 324q8 -43 8 -80q0 -35 -7 -65q-15 -63 -52.5 -107t-94 -70.5t-122.5 -38.5q-67 2 -122.5 17t-97.5 47q-18 13 -29.5 31.5t-20.5 38.5t-17.5 41.5t-19.5 42.5q8 50 16 99t24 91q23 28 53 56t66 49.5t77 32.5q28 8 58 8q13 0 27 -2q16 -2 37.5 -8t43 -14t41 -18
t31.5 -20q10 -9 18 -19t15.5 -20.5t17 -19.5t23.5 -15q7 -14 12.5 -29.5t14.5 -27.5zM556 177q3 18 3 36q0 14 -1 29q-5 34 -6 66q-15 10 -26 25t-21 31t-20.5 31t-25.5 26q-32 12 -60.5 25.5t-60.5 14.5h-6q-40 0 -68 -13q-31 -14 -59 -33q-20 -14 -36 -26t-28.5 -26
t-22.5 -30.5t-17 -38.5q-9 -38 -9 -72q0 -25 5 -48q12 -54 47 -94q21 -11 44 -23.5t48.5 -22t52.5 -13.5q14 -3 29 -3q13 0 27 2q34 5 69 19t64 35t50 47t28 56zM396 610q-12 -12 -24 -12q-1 0 -1 1q-14 0 -28 7.5t-28 20t-26 24.5q-12 11 -28 25.5t-24 28.5q-6 8 -6 17
q0 4 2 8q4 12 33 18q7 -12 17.5 -22t21 -19.5t20.5 -19.5t18 -23q6 -7 14.5 -11.5t16.5 -10t14 -13t8 -19.5z" />
    <glyph glyph-name="oacute" unicode="&#xf3;" horiz-adv-x="655" 
d="M606 324q8 -43 8 -80q0 -35 -7 -65q-15 -63 -52.5 -107t-94 -70.5t-122.5 -38.5q-67 2 -122.5 17t-97.5 47q-18 13 -29.5 31.5t-20.5 38.5t-17.5 41.5t-19.5 42.5q8 50 16 99t24 91q23 28 53 56t66 49.5t77 32.5q28 8 58 8q13 0 27 -2q16 -2 37.5 -8t43 -14t41 -18
t31.5 -20q10 -9 18 -19t15.5 -20.5t17 -19.5t23.5 -15q7 -14 12.5 -29.5t14.5 -27.5zM556 177q3 18 3 36q0 14 -1 29q-5 34 -6 66q-15 10 -26 25t-21 31t-20.5 31t-25.5 26q-32 12 -60.5 25.5t-60.5 14.5h-6q-40 0 -68 -13q-31 -14 -59 -33q-20 -14 -36 -26t-28.5 -26
t-22.5 -30.5t-17 -38.5q-9 -38 -9 -72q0 -25 5 -48q12 -54 47 -94q21 -11 44 -23.5t48.5 -22t52.5 -13.5q14 -3 29 -3q13 0 27 2q34 5 69 19t64 35t50 47t28 56zM431 732q-21 -43 -54.5 -72.5t-66.5 -60.5q-11 -3 -24 -6q-5 -2 -10 -2q-8 0 -16 4q-2 7 -2 14q0 8 4 15
q7 10 19 16.5t25 12.5t21 16q15 20 32 36.5t31 36.5q9 4 18 4q3 0 7 -1q11 -2 16 -13z" />
    <glyph glyph-name="ocircumflex" unicode="&#xf4;" horiz-adv-x="655" 
d="M606 324q8 -43 8 -80q0 -35 -7 -65q-15 -63 -52.5 -107t-94 -70.5t-122.5 -38.5q-67 2 -122.5 17t-97.5 47q-18 13 -29.5 31.5t-20.5 38.5t-17.5 41.5t-19.5 42.5q8 50 16 99t24 91q23 28 53 56t66 49.5t77 32.5q28 8 58 8q13 0 27 -2q16 -2 37.5 -8t43 -14t41 -18
t31.5 -20q10 -9 18 -19t15.5 -20.5t17 -19.5t23.5 -15q7 -14 12.5 -29.5t14.5 -27.5zM556 177q3 18 3 36q0 14 -1 29q-5 34 -6 66q-15 10 -26 25t-21 31t-20.5 31t-25.5 26q-32 12 -60.5 25.5t-60.5 14.5h-6q-40 0 -68 -13q-31 -14 -59 -33q-20 -14 -36 -26t-28.5 -26
t-22.5 -30.5t-17 -38.5q-9 -38 -9 -72q0 -25 5 -48q12 -54 47 -94q21 -11 44 -23.5t48.5 -22t52.5 -13.5q14 -3 29 -3q13 0 27 2q34 5 69 19t64 35t50 47t28 56zM456 604q-15 -9 -27 -9q-7 0 -14 4q-17 9 -31 28t-26 41t-25 36q-14 -7 -24 -27t-20.5 -37.5t-23.5 -24.5
q-4 -3 -8 -3q-10 0 -25 15q20 40 45.5 73.5t45.5 73.5h5q12 0 20 -7q10 -9 17.5 -22.5t14 -28.5t13.5 -25q16 -24 32.5 -36.5t30.5 -27.5v-23z" />
    <glyph glyph-name="otilde" unicode="&#xf5;" horiz-adv-x="655" 
d="M606 324q8 -43 8 -80q0 -35 -7 -65q-15 -63 -52.5 -107t-94 -70.5t-122.5 -38.5q-67 2 -122.5 17t-97.5 47q-18 13 -29.5 31.5t-20.5 38.5t-17.5 41.5t-19.5 42.5q8 50 16 99t24 91q23 28 53 56t66 49.5t77 32.5q28 8 58 8q13 0 27 -2q16 -2 37.5 -8t43 -14t41 -18
t31.5 -20q10 -9 18 -19t15.5 -20.5t17 -19.5t23.5 -15q7 -14 12.5 -29.5t14.5 -27.5zM556 177q3 18 3 36q0 14 -1 29q-5 34 -6 66q-15 10 -26 25t-21 31t-20.5 31t-25.5 26q-32 12 -60.5 25.5t-60.5 14.5h-6q-40 0 -68 -13q-31 -14 -59 -33q-20 -14 -36 -26t-28.5 -26
t-22.5 -30.5t-17 -38.5q-9 -38 -9 -72q0 -25 5 -48q12 -54 47 -94q21 -11 44 -23.5t48.5 -22t52.5 -13.5q14 -3 29 -3q13 0 27 2q34 5 69 19t64 35t50 47t28 56zM517 697q2 -6 2 -12q0 -4 -1 -7q-2 -10 -5.5 -19t-8 -18t-7.5 -17q-35 -15 -68 -15q-2 -1 -4 -1q-31 0 -59 9
q-31 8 -59.5 22t-53.5 28h-10q-27 0 -41 -15q-9 -10 -9 -23q0 -12 6 -25l-16 -8q-6 -3 -16 -3h-5q-13 18 -13 37q0 8 3 16q7 27 24 44q14 5 27 11t26 13h4q18 0 40 -8q23 -10 47.5 -21.5t48.5 -22t45 -11.5q2 -1 5 -1q17 0 32 10q16 10 26 40q11 0 19 -2q4 -2 10 -2
q5 0 11 1z" />
    <glyph glyph-name="odieresis" unicode="&#xf6;" horiz-adv-x="655" 
d="M606 324q8 -43 8 -80q0 -35 -7 -65q-15 -63 -52.5 -107t-94 -70.5t-122.5 -38.5q-67 2 -122.5 17t-97.5 47q-18 13 -29.5 31.5t-20.5 38.5t-17.5 41.5t-19.5 42.5q8 50 16 99t24 91q23 28 53 56t66 49.5t77 32.5q28 8 58 8q13 0 27 -2q16 -2 37.5 -8t43 -14t41 -18
t31.5 -20q10 -9 18 -19t15.5 -20.5t17 -19.5t23.5 -15q7 -14 12.5 -29.5t14.5 -27.5zM556 177q3 18 3 36q0 14 -1 29q-5 34 -6 66q-15 10 -26 25t-21 31t-20.5 31t-25.5 26q-32 12 -60.5 25.5t-60.5 14.5h-6q-40 0 -68 -13q-31 -14 -59 -33q-20 -14 -36 -26t-28.5 -26
t-22.5 -30.5t-17 -38.5q-9 -38 -9 -72q0 -25 5 -48q12 -54 47 -94q21 -11 44 -23.5t48.5 -22t52.5 -13.5q14 -3 29 -3q13 0 27 2q34 5 69 19t64 35t50 47t28 56zM432 649v-4q0 -17 -8 -23q-8 -8 -20 -8l-1 1q-12 0 -24.5 7.5t-17.5 17.5q-4 5 -4 11q0 4 2 8q3 10 23 17
q12 4 21 4q10 0 17 -5q11 -9 12 -26zM221 666q20 12 33 12h5q13 -3 18 -14q2 -7 2 -16v-9q-3 -15 -11 -23t-20 -8h-2q-14 1 -31 21q-1 4 -1 7q0 8 4 13q3 5 3 13v4z" />
    <glyph glyph-name="divide" unicode="&#xf7;" horiz-adv-x="518" 
d="M304 489q5 -13 5 -25t-5 -23q-11 -23 -34 -25h-5q-20 0 -27 14q-6 9 -6 20q0 6 2 12q5 17 23 28q9 5 20 5q12 0 27 -6zM502 304q-5 -6 -8.5 -14t-8.5 -16h-371q-11 0 -29 -2q-14 -2 -26 -2h-10q-17 1 -27 9q-7 5 -7 15q0 6 2 13t8.5 9.5t14 4t14.5 3.5t10 7q51 -5 100 -5
q34 0 66 2q81 6 148 10q13 -3 27 -3h43q17 -2 31.5 -8t22.5 -23zM285 122q-8 0 -13 -2t-10.5 -4.5t-11.5 -3.5q-3 -1 -6 -1q-4 0 -9 1q-17 9 -18 28v13q0 14 1 29q19 11 34 11h4q17 -2 27 -12t11 -26v-3q0 -15 -9 -30z" />
    <glyph glyph-name="oslash" unicode="&#xf8;" horiz-adv-x="640" 
d="M620 528q-3 -23 -13.5 -37.5t-24.5 -26t-28.5 -22.5t-24.5 -27q7 -11 17.5 -24.5t20.5 -28.5t18 -32t11 -36q2 -13 2 -26t-2 -26q-4 -27 -12 -53.5t-18 -52t-17 -49.5q-17 -18 -37.5 -32.5t-35.5 -34.5q-18 -3 -36.5 -10.5t-37.5 -14t-40 -11.5q-17 -4 -36 -4h-7
q-43 2 -82.5 14t-68.5 33q-12 -7 -20.5 -18.5t-16 -23.5t-16 -23.5t-20.5 -18.5q-23 5 -31 14q-6 7 -6 16v4q2 11 10.5 23t19 24t20.5 23t13 20q-14 39 -34 71t-36 69v10q0 87 33 147q34 63 91 104q32 17 70 26t80 14q21 -2 45 -4t47 -7.5t43 -15.5t32 -26q9 4 22.5 17.5
t27 29t25.5 27.5t19 13h16q6 -2 14 -7zM523 324q-12 8 -19 20t-22 17q-71 -71 -141.5 -140.5t-132.5 -150.5q30 -20 70 -26q21 -3 42 -3q18 0 36 2q39 5 73 19.5t53 37.5q17 20 30 46.5t20 55.5q5 24 5 49v12q-2 31 -14 61zM452 415q-22 24 -54 33q-27 8 -57 8h-9
q-35 -2 -68.5 -11t-58.5 -20q-46 -32 -74 -87q-22 -42 -22 -93q0 -17 2 -34q12 -9 18.5 -23.5t12 -30t13 -29t20.5 -21.5q30 43 65 81t72 74.5t72.5 73.5t67.5 79z" />
    <glyph glyph-name="ugrave" unicode="&#xf9;" horiz-adv-x="593" 
d="M547 307v-11q0 -22 -3 -42q-2 -15 -2 -27q0 -9 1 -17q-12 -52 -37 -99t-61 -81.5t-83 -52.5q-34 -13 -72 -13q-15 0 -31 2q-52 6 -88.5 32t-60.5 66t-36 91.5t-15 107.5q-1 17 -1 36t1 40q1 20 1 41q0 20 -1 40q-1 18 -5 39q-3 12 -3 21q0 6 1 10q3 12 10.5 18t17.5 7h3
q8 0 16 -3q9 -5 17 -15q1 -32 1 -65t-1 -66q-1 -19 -1 -37q0 -46 4 -89q5 -60 23 -110.5t60 -83.5q12 -9 27.5 -14t32.5 -7t35.5 -2.5t35.5 -0.5q54 20 86.5 59.5t57.5 87.5q6 36 10 67.5t6 62.5v63q-2 31 -6 68q-7 9 -11 23q-3 10 -3 21v5q1 13 7 23t20 12h4q12 0 18 -5
q7 -6 10 -16q3 -9 3 -20v-3q-1 -13 -2 -23q0 -13 2 -31.5t4.5 -38t5 -38.5t2.5 -32zM365 559q-12 -12 -24 -12q-1 0 -1 1q-14 0 -28 7.5t-28 20t-26 24.5q-12 11 -28 25.5t-24 28.5q-6 8 -6 17q0 4 2 8q4 12 33 18q7 -12 17.5 -22t21 -19.5t20.5 -19.5t18 -23
q6 -7 14.5 -11.5t16.5 -10t14 -13t8 -19.5z" />
    <glyph glyph-name="uacute" unicode="&#xfa;" horiz-adv-x="593" 
d="M547 307v-11q0 -22 -3 -42q-2 -15 -2 -27q0 -9 1 -17q-12 -52 -37 -99t-61 -81.5t-83 -52.5q-34 -13 -72 -13q-15 0 -31 2q-52 6 -88.5 32t-60.5 66t-36 91.5t-15 107.5q-1 17 -1 36t1 40q1 20 1 41q0 20 -1 40q-1 18 -5 39q-3 12 -3 21q0 6 1 10q3 12 10.5 18t17.5 7h3
q8 0 16 -3q9 -5 17 -15q1 -32 1 -65t-1 -66q-1 -19 -1 -37q0 -46 4 -89q5 -60 23 -110.5t60 -83.5q12 -9 27.5 -14t32.5 -7t35.5 -2.5t35.5 -0.5q54 20 86.5 59.5t57.5 87.5q6 36 10 67.5t6 62.5v63q-2 31 -6 68q-7 9 -11 23q-3 10 -3 21v5q1 13 7 23t20 12h4q12 0 18 -5
q7 -6 10 -16q3 -9 3 -20v-3q-1 -13 -2 -23q0 -13 2 -31.5t4.5 -38t5 -38.5t2.5 -32zM431 691q-21 -43 -54.5 -72.5t-66.5 -60.5q-11 -3 -24 -6q-5 -2 -10 -2q-8 0 -16 4q-2 7 -2 14q0 8 4 15q7 10 19 16.5t25 12.5t21 16q15 20 32 36.5t31 36.5q9 4 18 4q3 0 7 -1
q11 -2 16 -13z" />
    <glyph glyph-name="ucircumflex" unicode="&#xfb;" horiz-adv-x="593" 
d="M547 307v-11q0 -22 -3 -42q-2 -15 -2 -27q0 -9 1 -17q-12 -52 -37 -99t-61 -81.5t-83 -52.5q-34 -13 -72 -13q-15 0 -31 2q-52 6 -88.5 32t-60.5 66t-36 91.5t-15 107.5q-1 17 -1 36t1 40q1 20 1 41q0 20 -1 40q-1 18 -5 39q-3 12 -3 21q0 6 1 10q3 12 10.5 18t17.5 7h3
q8 0 16 -3q9 -5 17 -15q1 -32 1 -65t-1 -66q-1 -19 -1 -37q0 -46 4 -89q5 -60 23 -110.5t60 -83.5q12 -9 27.5 -14t32.5 -7t35.5 -2.5t35.5 -0.5q54 20 86.5 59.5t57.5 87.5q6 36 10 67.5t6 62.5v63q-2 31 -6 68q-7 9 -11 23q-3 10 -3 21v5q1 13 7 23t20 12h4q12 0 18 -5
q7 -6 10 -16q3 -9 3 -20v-3q-1 -13 -2 -23q0 -13 2 -31.5t4.5 -38t5 -38.5t2.5 -32zM405 553q-15 -9 -27 -9q-7 0 -14 4q-17 9 -31 28t-26 41t-25 36q-14 -7 -24 -27t-20.5 -37.5t-23.5 -24.5q-4 -3 -8 -3q-10 0 -25 15q20 40 45.5 73.5t45.5 73.5h5q12 0 20 -7
q10 -9 17.5 -22.5t14 -28.5t13.5 -25q16 -24 32.5 -36.5t30.5 -27.5v-23z" />
    <glyph glyph-name="udieresis" unicode="&#xfc;" horiz-adv-x="593" 
d="M547 307v-11q0 -22 -3 -42q-2 -15 -2 -27q0 -9 1 -17q-12 -52 -37 -99t-61 -81.5t-83 -52.5q-34 -13 -72 -13q-15 0 -31 2q-52 6 -88.5 32t-60.5 66t-36 91.5t-15 107.5q-1 17 -1 36t1 40q1 20 1 41q0 20 -1 40q-1 18 -5 39q-3 12 -3 21q0 6 1 10q3 12 10.5 18t17.5 7h3
q8 0 16 -3q9 -5 17 -15q1 -32 1 -65t-1 -66q-1 -19 -1 -37q0 -46 4 -89q5 -60 23 -110.5t60 -83.5q12 -9 27.5 -14t32.5 -7t35.5 -2.5t35.5 -0.5q54 20 86.5 59.5t57.5 87.5q6 36 10 67.5t6 62.5v63q-2 31 -6 68q-7 9 -11 23q-3 10 -3 21v5q1 13 7 23t20 12h4q12 0 18 -5
q7 -6 10 -16q3 -9 3 -20v-3q-1 -13 -2 -23q0 -13 2 -31.5t4.5 -38t5 -38.5t2.5 -32zM412 629v-4q0 -17 -8 -23q-8 -8 -20 -8l-1 1q-12 0 -24.5 7.5t-17.5 17.5q-4 5 -4 11q0 4 2 8q3 10 23 17q12 4 21 4q10 0 17 -5q11 -9 12 -26zM201 646q20 12 33 12h5q13 -3 18 -14
q2 -7 2 -16v-9q-3 -15 -11 -23t-20 -8h-2q-14 1 -31 21q-1 4 -1 7q0 8 4 13q3 5 3 13v4z" />
    <glyph glyph-name="yacute" unicode="&#xfd;" horiz-adv-x="584" 
d="M627 57q16 -20 20 -52q1 -11 1 -20q0 -21 -5 -38q-8 -26 -25 -36q-6 -4 -12 -4q-14 0 -33 17v8q0 7 1 12q2 7 5 14t5.5 13.5t2.5 15.5q-1 22 -7.5 35t-18.5 20t-30 10t-41 5q-2 -58 -6 -119t-14.5 -118.5t-29.5 -108.5t-50.5 -89.5t-77.5 -60.5t-110 -22
q-45 9 -73.5 33.5t-50.5 56.5q-11 49 -16 96q-1 12 -1 24q0 37 11 78q2 9 8 23.5t13 29.5t15 28.5t14 21.5q7 9 17.5 14t19.5 13q13 13 22.5 28.5t27.5 28.5q11 8 27 15t30 15q38 20 73.5 32.5t83.5 24.5q0 27 -0.5 56.5t-1.5 59t-3 58t-5 53.5q-14 -8 -22 -20t-14.5 -26
t-12.5 -28t-15 -26q-10 -13 -26.5 -22.5t-33.5 -21.5t-34 -24.5t-37 -21t-44 -10.5q-5 -1 -11 -1q-20 0 -44 7q-30 21 -45 51.5t-18 66.5q-2 13 -2 28q0 22 4 46q5 38 14.5 76t21.5 73.5t21 63.5q11 7 24 7q5 0 10 -1q5 -7 10 -13t10 -14q-10 -38 -25.5 -82t-24.5 -89
q-6 -32 -6 -63q0 -12 1 -24q3 -42 31 -76q11 -2 20 -2q6 0 12 1q14 2 25 6.5t20.5 11t19.5 13.5q16 11 32.5 18.5t27.5 21.5q12 14 21 31.5t17.5 34.5t18 32.5t24.5 25.5q9 36 20 72q10 32 10 68v7l22 10q6 3 12 3t12 -3q8 -11 11.5 -25.5t4.5 -31.5v-8q0 -13 -1 -26
q-2 -17 -4 -32q3 -34 4 -68t2 -70t2 -74t5 -79q13 -3 22.5 -5.5t18.5 -5t19 -4.5t24 -3q7 -6 14 -10t14.5 -8t15 -10.5t16.5 -17.5zM426 7q0 3 1 9t1 12t-2.5 10.5t-9.5 5.5q-12 -5 -23.5 -9t-23.5 -6.5t-24.5 -5t-22.5 -6.5q-8 -4 -18.5 -12t-21.5 -15q-15 -9 -32 -20
t-32.5 -23t-29.5 -25t-23 -25q-14 -20 -25 -49t-17 -61q-5 -28 -5 -56v-9q1 -33 11 -60t30 -45t53 -21q9 -1 17 -1q32 0 56 13q29 15 50 40t35.5 55.5t28.5 56.5q11 57 20 119q7 50 7 104v24zM460 752q-21 -43 -54.5 -72.5t-66.5 -60.5q-11 -3 -24 -6q-5 -2 -10 -2
q-8 0 -16 4q-2 7 -2 14q0 8 4 15q7 10 19 16.5t25 12.5t21 16q15 20 32 36.5t31 36.5q9 4 18 4q3 0 7 -1q11 -2 16 -13z" />
    <glyph glyph-name="thorn" unicode="&#xfe;" horiz-adv-x="738" 
d="M663 399q22 -32 34 -71q11 -37 11 -77v-3q-1 -41 -13 -83t-36 -80q-4 -6 -11 -15t-14.5 -17.5t-14.5 -16t-13 -11.5q-5 -3 -14.5 -6.5t-21 -6.5t-22.5 -5.5t-20 -4.5q-5 -1 -8.5 -4.5t-6.5 -4.5h-3q-5 0 -8 2q-6 2 -14 2q-10 -1 -19.5 -5t-17.5 -4q-14 1 -34 7t-33 13
q-11 6 -19 16t-20 19t-22.5 15.5t-17 14t-7.5 19.5v2q0 11 8 27q9 3 16 3q10 0 18 -5q13 -8 24 -20.5t22 -26t27 -18.5q31 -11 60 -11q17 0 32 4q43 9 75.5 37t52 69.5t21.5 88.5v8q0 28 -6 52q-7 26 -19.5 48.5t-29 41.5t-33.5 37q-49 26 -95 26h-10q-51 -3 -102 -25
q-32 -14 -64.5 -29.5t-53.5 -41.5q10 -53 18 -109.5t12 -114.5q1 -32 1 -64q0 -28 -1 -55q-3 -61 -16 -122q-9 -43 -15 -85.5t-25 -70.5q-12 -18 -34.5 -29.5t-45.5 -12.5q-3 -1 -6 -1q-20 0 -37 11q-19 11 -25 39q-16 73 -16 150q0 7 1 14q1 84 16.5 165.5t44 155
t66.5 130.5q-4 14 -7.5 25.5t-6.5 21.5q-5 20 -13.5 44t-18.5 48.5t-22 47.5t-24 40q-11 15 -24 27t-23 24.5t-13 26.5q-2 4 -2 9q0 10 6 23q12 9 22 9q2 0 5 -1q12 -3 21.5 -13.5t18 -24.5t16.5 -25q32 -42 59.5 -100t48.5 -123q14 5 27.5 13t26.5 16.5t27 16t30 12.5
q5 2 11 2h3q1 -1 3 -1q5 0 11 2q13 4 27 11t29.5 12t34.5 8q9 2 19 2q11 0 23 -2q32 -10 56 -19t43.5 -21t36 -29.5t33.5 -42.5zM211 240q-3 16 -9.5 32t-8.5 18q-2 -2 -3.5 -5l-2.5 -5q-18 -39 -35 -90t-30.5 -106.5t-20.5 -113.5q-5 -41 -5 -79q0 -17 1 -33q2 -29 9 -59
t29 -50q18 3 29.5 19.5t19.5 40.5t13 51t9 51q6 39 9.5 84.5t4.5 90.5v15q0 37 -2 70q-3 40 -7 69z" />
    <glyph glyph-name="ydieresis" unicode="&#xff;" horiz-adv-x="584" 
d="M629 57q16 -20 20 -52q1 -11 1 -20q0 -21 -5 -38q-8 -26 -25 -36q-6 -4 -12 -4q-14 0 -33 17v8q0 7 1 12q2 7 5 14t5.5 13.5t2.5 15.5q-1 22 -7.5 35t-18.5 20t-30 10t-41 5q-2 -58 -6 -119t-14.5 -118.5t-29.5 -108.5t-50.5 -89.5t-77.5 -60.5t-110 -22
q-45 9 -73.5 33.5t-50.5 56.5q-11 49 -16 96q-1 12 -1 24q0 37 11 78q2 9 8 23.5t13 29.5t15 28.5t14 21.5q7 9 17.5 14t19.5 13q13 13 22.5 28.5t27.5 28.5q11 8 27 15t30 15q38 20 73.5 32.5t83.5 24.5q0 27 -0.5 56.5t-1.5 59t-3 58t-5 53.5q-14 -8 -22 -20t-14.5 -26
t-12.5 -28t-15 -26q-10 -13 -26.5 -22.5t-33.5 -21.5t-34 -24.5t-37 -21t-44 -10.5q-5 -1 -11 -1q-20 0 -44 7q-30 21 -45 51.5t-18 66.5q-2 13 -2 28q0 22 4 46q5 38 14.5 76t21.5 73.5t21 63.5q11 7 24 7q5 0 10 -1q5 -7 10 -13t10 -14q-10 -38 -25.5 -82t-24.5 -89
q-6 -32 -6 -63q0 -12 1 -24q3 -42 31 -76q11 -2 20 -2q6 0 12 1q14 2 25 6.5t20.5 11t19.5 13.5q16 11 32.5 18.5t27.5 21.5q12 14 21 31.5t17.5 34.5t18 32.5t24.5 25.5q9 36 20 72q10 32 10 68v7l22 10q6 3 12 3t12 -3q8 -11 11.5 -25.5t4.5 -31.5v-8q0 -13 -1 -26
q-2 -17 -4 -32q3 -34 4 -68t2 -70t2 -74t5 -79q13 -3 22.5 -5.5t18.5 -5t19 -4.5t24 -3q7 -6 14 -10t14.5 -8t15 -10.5t16.5 -17.5zM428 7q0 3 1 9t1 12t-2.5 10.5t-9.5 5.5q-12 -5 -23.5 -9t-23.5 -6.5t-24.5 -5t-22.5 -6.5q-8 -4 -18.5 -12t-21.5 -15q-15 -9 -32 -20
t-32.5 -23t-29.5 -25t-23 -25q-14 -20 -25 -49t-17 -61q-5 -28 -5 -56v-9q1 -33 11 -60t30 -45t53 -21q9 -1 17 -1q32 0 56 13q29 15 50 40t35.5 55.5t28.5 56.5q11 57 20 119q7 50 7 104v24zM432 659v-4q0 -17 -8 -23q-8 -8 -20 -8l-1 1q-12 0 -24.5 7.5t-17.5 17.5
q-4 5 -4 11q0 4 2 8q3 10 23 17q12 4 21 4q10 0 17 -5q11 -9 12 -26zM221 676q20 12 33 12h5q13 -3 18 -14q2 -7 2 -16v-9q-3 -15 -11 -23t-20 -8h-2q-14 1 -31 21q-1 4 -1 7q0 8 4 13q3 5 3 13v4z" />
    <glyph glyph-name="dotlessi" unicode="&#x131;" horiz-adv-x="217" 
d="M183 -54q-10 -4 -18 -4q-6 0 -10 3q-11 5 -18 17.5t-11 28t-9 28.5q-17 43 -29 98t-17 114q-4 49 -4 99v20q1 59 10 110q13 12 28 12h4q17 -2 24 -18q3 -6 3 -13t-2 -15q-5 -17 -7 -36q-2 -22 -2 -49v-18q1 -38 2 -63q0 -21 1.5 -46.5t5.5 -51.5t9.5 -51t13.5 -45
q6 -17 16 -32.5t16.5 -29.5t6.5 -28q0 -15 -13 -30z" />
    <glyph glyph-name="Lslash" unicode="&#x141;" horiz-adv-x="510" 
d="M557 -26q0 -5 -3.5 -11.5t-9 -12.5t-13 -9.5t-15.5 -3.5q-14 1 -28.5 17.5t-31.5 26.5q-23 12 -53 20t-61 11.5t-60 4.5h-9q-24 0 -44 -3l-24.5 -49t-31.5 -51.5t-42.5 -43.5t-55.5 -26q-14 -3 -26 -3q-39 0 -54 36v5q0 41 17 69q17 30 45 52t62 37.5t66 30.5
q33 110 35 239q-14 -5 -30.5 -10t-36.5 -12q-9 -3 -19 -8.5t-20 -9.5t-19 -4q-1 0 -2 1q-11 0 -20 8q-3 11 -3 19q0 15 9 26q42 16 75 27.5t65 22.5q-2 24 -4 48.5t-6 50.5t-10.5 56.5t-13.5 60.5q-4 18 -9 35.5t-9 33.5t-4 30t6 25q4 7 10 10h4q7 0 12 -2q4 -3 10 -3
q3 0 7 1q21 -76 37.5 -158.5t23.5 -168.5q46 16 108 43q14 -5 24 -22q5 -10 5 -19q0 -7 -3 -14q-44 -20 -74 -31t-57 -19v-17q0 -51 -5 -102q-6 -60 -22 -120q39 -11 80 -17t84 -10q18 -8 36 -19.5t41 -20.5q10 -4 22 -7.5t21.5 -8t16.5 -12t7 -19.5zM152 -16
q-37 0 -64.5 -24.5t-32.5 -65.5q39 8 60 33.5t37 56.5z" />
    <glyph glyph-name="lslash" unicode="&#x142;" horiz-adv-x="224" 
d="M274 357q-48 -22 -79.5 -33t-61.5 -20q5 -92 16.5 -180.5t28.5 -174.5q-3 -8 -10.5 -14t-16.5 -8q-5 -1 -11 -1q-4 0 -8 1q-10 1 -17 8q-10 91 -20.5 177.5t-16.5 174.5q-13 -4 -27 -9t-31 -10q-9 -3 -19 -8.5t-20 -9.5t-19 -4q-1 0 -2 1q-11 0 -20 8q-3 10 -3 19
q0 14 9 25q38 15 68.5 25.5t59.5 20.5q-3 49 -3 98q0 44 3 88q4 91 24 183q10 3 19 3q6 0 12 -1q13 -5 22 -15q-14 -85 -18 -168q-4 -58 -4 -116q0 -26 1 -52q26 9 55 20.5t63 26.5q14 -6 24 -22q5 -10 5 -19q0 -7 -3 -14z" />
    <glyph glyph-name="OE" unicode="&#x152;" horiz-adv-x="1212" 
d="M1186 10q-25 -10 -51.5 -24t-55 -26t-59.5 -18q-18 -4 -37 -4q-15 0 -31 2q-50 7 -90 30.5t-77 45.5q-11 20 -25 35t-28 32q-9 23 -15 47q-7 -12 -13.5 -23.5t-12.5 -22.5q-16 -8 -28.5 -20.5l-25.5 -25.5t-27 -25t-33 -19q-8 -3 -21 -3t-26 -4q-9 -3 -22 -7t-27.5 -8
t-29.5 -6q-12 -2 -22 -2h-9q-9 1 -17 4.5t-16 5.5q-22 3 -46 3h-21q-25 0 -47 4q-10 2 -19 8q-7 3 -13 3q-4 0 -8 -1q-18 15 -39 27.5t-41 26t-39 29.5t-32 37q-19 31 -27 68.5t-9 78.5v14q0 34 4 69q4 42 9 84q23 42 45 85.5t52 78.5q26 17 52.5 31t61.5 29
q26 11 58.5 17.5t67.5 8.5h21q25 0 50 -2q36 -4 70 -14q13 -4 32.5 -12t39 -18t37 -20.5t28.5 -19.5q14 -11 23.5 -25t18 -29t16 -29.5t17.5 -27.5q-2 11 -2 23q0 16 4 32q5 27 18 51t32.5 44t43.5 34q43 23 95 29.5t103 10.5q18 -13 39.5 -23t41 -22t35.5 -27t24 -39
q-13 -16 -26 -16q-3 0 -7 2q-17 5 -36.5 20t-41.5 31.5t-49 19.5q-11 1 -22 1q-22 0 -44 -4q-34 -8 -64.5 -23.5t-53.5 -38t-33 -47.5q-7 -17 -7 -34q0 -9 2 -19q6 -28 34 -55q27 8 54.5 19t55 18.5t56.5 7.5q28 0 58 -15q7 -9 14.5 -18t13 -19t8.5 -20v-9q0 -7 -2 -15
q-8 -26 -41 -37.5t-73 -12.5h-8q-36 0 -70 8q-39 8 -59 22q-15 -20 -32 -40t-30 -42.5t-19 -48.5q-3 -12 -3 -25q0 -16 4 -34q9 -44 41.5 -82.5t78.5 -62t99 -27.5q7 -1 15 -1q45 0 87 22q8 4 16.5 12.5t17.5 16t18 13t18 5.5q23 0 28 -15t5 -38zM1039 387q-6 19 -23 26
q-15 5 -31 5h-7q-20 -2 -39.5 -10t-29.5 -17q26 -9 64 -10h9q32 0 57 6zM789 391q-14 16 -22.5 33t-13.5 34q2 -25 7.5 -49t9.5 -48q5 8 9.5 15t9.5 15zM718 355q-11 104 -62 161t-142 86q-18 6 -38.5 12t-35.5 8q-2 1 -4 1q-4 0 -7 -3q-5 -4 -12 -4q-8 0 -13 4q-5 2 -9 2
h-2q-47 -2 -88.5 -16t-76 -39t-60.5 -58.5t-42 -73.5q-11 -45 -19 -86q-8 -38 -8 -75v-9q1 -65 30 -112.5t74.5 -77t102.5 -42.5q45 -10 91 -10q12 0 25 1q59 3 113.5 22.5t95.5 54.5q18 23 35 51.5t30 61t20 68.5q4 21 4 44q0 15 -2 29z" />
    <glyph glyph-name="oe" unicode="&#x153;" horiz-adv-x="1040" 
d="M996 41q-31 -28 -77.5 -46.5t-99.5 -23.5q-12 -1 -24 -1q-14 0 -27 2q-24 3 -47 10t-44 15.5t-42 16.5q-8 18 -22.5 29t-27.5 25q-6 -6 -6 -13q0 -1 1 -1q0 -8 2 -16t4 -15q1 -3 1 -7t-2 -8q-20 -19 -34 -19q-3 0 -5 1q-16 5 -24.5 24t-10.5 47q-1 10 -1 21q0 15 2 29
q-17 -25 -36.5 -46t-37.5 -44q-36 -30 -87 -41q-32 -7 -65 -7q-19 0 -38 3q-52 6 -97.5 29.5t-69.5 62.5q-10 31 -20 63.5t-15 64.5q-5 25 -5 49q0 7 1 14q1 30 15 59q13 26 26.5 48t30.5 43q16 20 42.5 35.5t47.5 30.5q14 10 35.5 24.5t51.5 16.5q15 1 30 1q29 0 57 -3
q42 -4 77 -22q22 -11 37.5 -23.5t36.5 -29.5q3 17 8.5 31.5t14.5 25.5h5q8 0 13 2q3 1 5 1q5 0 10 -3q3 -10 3 -20q0 -9 -2 -18q-6 -19 -7 -39q8 1 15 7.5t13.5 14.5t13 17t14.5 14q17 4 33 11.5t32.5 15t33 13t35.5 7.5q8 1 15 1q38 0 71 -17q39 -21 61 -55t23 -76v-2
q0 -42 -29 -82q-14 -4 -28 -12.5t-29 -18t-30.5 -17.5t-33.5 -12q-26 -5 -50 -5h-13q-31 2 -59 10t-52 21t-43 28q-5 -17 -5 -30q0 -14 3.5 -26.5t9.5 -25t12 -25.5q20 -42 48 -72t69 -49q26 -11 54 -19q19 -5 42 -5q11 0 24 1q26 2 55 10t46 20q6 4 11 10t12 11t17 8
q5 2 13 2q4 0 10 -1q0 -9 1.5 -15t3 -11t1.5 -10q0 -6 -3 -14zM880 345q3 15 3 29q0 25 -11 43q-17 28 -46 42q-19 9 -43 9h-8q-28 -2 -55 -12.5t-50.5 -27.5t-38 -36.5t-16.5 -38.5v-5q0 -17 14 -30q22 -21 57 -29q26 -7 53 -7q10 0 20 1q37 3 70 18.5t51 43.5zM505 358
q-5 10 -8 19.5t-5 21.5q-17 1 -23 11.5t-14 21.5q-32 21 -67 29q-22 4 -43 4q-15 0 -29 -2q-36 -5 -70 -20.5t-62 -38.5t-48.5 -53t-28.5 -63q-6 -27 -6 -54q0 -25 6 -50q11 -51 34 -103q19 -10 37.5 -21t38.5 -19.5t42 -13.5q16 -4 32 -4q7 0 14 1q30 3 55 15t44.5 31
t34.5 42.5t26 48.5q20 47 29 98t11 99z" />
    <glyph glyph-name="Scaron" unicode="&#x160;" horiz-adv-x="520" 
d="M457 602q5 -22 5 -43q0 -9 -1 -18q-3 -30 -15.5 -53.5t-33 -38t-48.5 -14.5q-11 4 -12.5 13t-1.5 14q1 9 5.5 13t10.5 6.5t12.5 5t11.5 8.5q4 4 8.5 12.5t8 17.5t5.5 18t2 16q-1 17 -14.5 32.5t-33 28t-42 20t-40.5 9.5q-8 1 -16 1q-22 0 -42 -6q-28 -8 -48 -25t-30 -42
q-6 -15 -6 -31q0 -13 4 -27q25 -44 61.5 -76.5t75.5 -63t75.5 -63t62.5 -75.5q12 -27 19.5 -61t7.5 -68q0 -35 -11 -65.5t-36 -49.5q-19 -14 -44.5 -25.5t-52.5 -19.5t-53 -12q-22 -3 -39 -3h-9q-18 1 -37 10.5t-35.5 24t-31 30.5t-23.5 29q-7 10 -15.5 18t-10.5 15
q-6 16 -6 32q0 7 1 13q3 23 13.5 43.5t25 37.5t29.5 28q34 -5 39 -18q1 -4 1 -8q0 -10 -7 -21q-10 -17 -25.5 -33.5t-20.5 -29.5q4 -23 13.5 -39.5t23 -29.5t30 -23t33.5 -19q14 -1 26 -1q14 0 27 2q22 3 41 10.5t35.5 17t34.5 18.5q24 30 27 64v12q0 28 -10 56
q-12 33 -33.5 62.5t-43.5 49.5q-9 8 -17.5 18t-16.5 15q-32 24 -65 45.5t-59 48.5q-14 15 -28 37t-23.5 48t-10.5 55v4q0 27 12 53q7 15 19 25.5t26.5 19.5l29 18t26.5 21q33 6 61 6q13 0 25 -1q39 -4 71.5 -17.5t57.5 -35t45 -46.5zM382 927q-20 -39 -45 -73t-45 -74h-5
q-12 0 -20 7q-11 9 -18.5 22.5t-13.5 28.5t-13 26q-16 23 -33 36t-31 27v24q14 8 26 8q8 0 16 -4q17 -9 31 -27.5t26 -41.5t25 -36q13 7 23 27.5t20.5 38t23.5 24.5q3 2 7 2q11 0 26 -15z" />
    <glyph glyph-name="scaron" unicode="&#x161;" horiz-adv-x="531" 
d="M515 404q-7 -16 -17 -27q-9 -10 -29 -10h-7q-19 26 -35.5 53t-41.5 47q-39 13 -80 18q-11 1 -23 1q-32 0 -67 -9q-18 -5 -40.5 -16t-30.5 -21q-6 -8 -15.5 -16t-18 -17t-13.5 -20q-4 -8 -4 -18q0 -4 1 -9q1 -9 6.5 -18t14 -18t18 -16t18.5 -11q13 -6 27 -8.5t28 -4.5
t27.5 -5t24.5 -12q47 -1 95 -18.5t82 -45.5q32 -43 32 -86v-7q-3 -46 -32 -81.5t-77 -55.5q-37 -15 -78 -15q-12 0 -25 1q-29 10 -55 22.5t-46.5 30.5t-34.5 42.5t-18 58.5h3q6 0 12 3l16 6q7 2 13 2h3q7 -1 13 -8q8 -5 12 -15q1 -5 1 -9q0 -7 -3 -13q21 -30 56 -44
q28 -12 57 -12q6 0 13 1q35 3 66 21.5t45 53.5q-2 19 -10 36t-20 31q-28 16 -61.5 26t-68 18.5t-68 17.5t-63 23t-52 35t-34.5 54v40q5 19 14 33.5t20 27.5t23 24.5t23 24.5q11 6 22.5 11t23 10.5t21.5 12.5t17 17q14 -4 30 -4q2 0 4 1q18 0 36.5 2.5t35.5 4.5h14q9 0 17 -1
q47 -8 81 -31.5t66 -48.5q1 -11 6 -18.5t10.5 -14l11 -13t8.5 -14.5zM394 764q-20 -39 -45 -73t-45 -74h-5q-12 0 -20 7q-11 9 -18.5 22.5t-13.5 28.5t-13 26q-16 23 -33 36t-31 27v24q14 8 26 8q8 0 16 -4q17 -9 31 -27.5t26 -41.5t25 -36q13 7 23 27.5t20.5 38t23.5 24.5
q3 2 7 2q11 0 26 -15z" />
    <glyph glyph-name="Ydieresis" unicode="&#x178;" horiz-adv-x="726" 
d="M808 -176q-5 -6 -11 -12t-13.5 -10t-15.5 -4q-1 -1 -2 -1q-8 0 -17 5q-5 10 -6.5 20t-2.5 19.5t-3 18.5t-8 17q-8 11 -20 17t-25.5 10.5t-28.5 8t-28 8.5q-17 -32 -22.5 -69t-17.5 -76q-9 -33 -20 -60t-25.5 -49.5t-35 -41.5t-48.5 -37q-11 -6 -20 -13.5t-20 -14
t-24.5 -11t-32.5 -4.5q-29 0 -50.5 15.5t-41.5 32.5q-2 12 -5.5 20.5t-11.5 18.5q-1 10 -1 19q0 32 8 60q10 37 28.5 70t44.5 61t56 52q33 26 75.5 49t98.5 25q3 33 4 70v24q0 25 -1 50q-1 38 -2.5 75.5t-2.5 72.5q-8 -6 -11.5 -14t-5 -16t-3 -16.5t-4.5 -16.5
q-15 -34 -35.5 -63t-44 -55.5t-49 -51t-51.5 -49.5q-17 -8 -36.5 -13.5t-39.5 -7.5q-14 -2 -28 -2h-11q-20 1 -38 8q-37 31 -57.5 73t-30.5 91t-12 101q-1 26 -1 52t1 51q1 47 8.5 89t16.5 82.5t18.5 80t15.5 81.5q9 8 22 11h5q9 0 16 -6q1 -10 1 -20q0 -17 -2 -35
q-4 -28 -10 -57.5t-12.5 -60t-10.5 -61.5q-9 -77 -10 -151q-1 -9 -1 -18q0 -66 10 -130q3 -21 10.5 -42.5t18.5 -39.5t26 -30.5t34 -14.5q29 1 45.5 9.5t39.5 18.5q51 34 85 82t57.5 104t40.5 118t33 124q-1 12 -1 24q0 13 1 26q2 25 4.5 51t4.5 53v17q0 17 -2 34
q3 11 12 17.5t22 9.5q17 -13 23 -32q4 -16 4 -35v-6q-1 -23 -6 -47t-8 -46q-3 -26 -3 -54q0 -25 3 -52q5 -56 5 -116q1 -42 1 -85q0 -42 -1 -84v-41q0 -62 2 -119q33 -5 65 -13t58 -25t43.5 -45t20.5 -73zM557 -90q-42 -1 -85.5 -22.5t-80 -54t-61.5 -72.5t-29 -77
q-1 -8 -1 -15q0 -9 2 -16q2 -14 8 -23.5t14.5 -16t18.5 -12.5q9 1 18 1h13q10 0 18 3q41 18 71.5 49t51 71.5t31 87.5t11.5 97zM503 793v-4q0 -17 -8 -23q-8 -8 -20 -8l-1 1q-12 0 -24.5 7.5t-17.5 17.5q-4 5 -4 11q0 4 2 8q3 10 23 17q12 4 21 4q10 0 17 -5q11 -9 12 -26z
M292 810q20 12 33 12h5q13 -3 18 -14q2 -7 2 -16v-9q-3 -15 -11 -23t-20 -8h-2q-14 1 -31 21q-1 4 -1 7q0 8 4 13q3 5 3 13v4z" />
    <glyph glyph-name="Zcaron" unicode="&#x17d;" horiz-adv-x="707" 
d="M677 675q-15 -45 -36.5 -84t-44.5 -76t-46.5 -74t-42.5 -77q17 -10 40.5 -13.5t46.5 -6.5q3 -8 7 -14.5t6 -15.5q-6 -10 -14 -17.5t-19 -12.5q-25 8 -47.5 18t-53.5 12q-42 -52 -80.5 -106t-82.5 -105q19 3 40 3q15 0 31 -1q37 -5 73.5 -14.5t70.5 -22t62 -22.5
q22 -8 46 -20t37 -25q9 -11 9 -21q0 -4 -1 -7q-4 -14 -37 -27q-23 22 -55.5 40.5t-70 32.5t-77.5 22.5t-78 11.5q-25 2 -55 2q-31 0 -49 -9q-8 -4 -13.5 -10t-10 -13t-10 -15t-13.5 -15q-30 -29 -68.5 -50.5t-81.5 -29.5q-32 17 -34 41q-1 4 -1 7q0 21 12 41q14 23 39 42.5
t47 28.5q11 4 22.5 6t23.5 3t23.5 2.5t21.5 5.5q15 6 28 17.5t24.5 25.5t22 29t22.5 28q14 15 29.5 28t23.5 26q5 7 5.5 15t4.5 15q10 16 24.5 27.5t19.5 32.5q-8 8 -20 11t-24.5 5.5t-23 7t-13.5 16.5q2 14 10.5 20t16.5 13q12 -1 23 -6.5t21.5 -10.5t21.5 -8q5 -2 11 -2
q5 0 10 1q10 2 14.5 9t7.5 15t7.5 16t13.5 13q7 31 21.5 55t30 46.5t30 46t22.5 53.5q-48 10 -100 10t-103 -6t-98.5 -17t-86.5 -24q-6 -2 -17 -9t-23.5 -14.5t-23.5 -13.5t-16 -6q-12 0 -20 10q-7 8 -7 18v2q0 5 4.5 10.5t10.5 10.5t12 9t10 6q17 8 37.5 14t41 11.5
t40.5 11.5t35 14q82 13 162 15h54q55 0 115 -2q10 7 22 7q4 0 9 -1q17 -3 22 -16zM173 30q-28 -10 -53 -21.5t-38 -35.5q58 16 91 57zM504 897q-20 -39 -45 -73t-45 -74h-5q-12 0 -20 7q-11 9 -18.5 22.5t-13.5 28.5t-13 26q-16 23 -33 36t-31 27v24q14 8 26 8q8 0 16 -4
q17 -9 31 -27.5t26 -41.5t25 -36q13 7 23 27.5t20.5 38t23.5 24.5q3 2 7 2q11 0 26 -15z" />
    <glyph glyph-name="zcaron" unicode="&#x17e;" horiz-adv-x="542" 
d="M528 3q4 -9 4 -18q0 -5 -1 -9q-4 -12 -9 -23q-7 -1 -13 -1q-13 0 -25 3q-19 4 -37.5 9.5l-37 11t-38.5 7.5q-44 3 -89 5h-39q-26 0 -51 -1q-45 -2 -87 -8t-78 -19q-3 6 -8.5 9.5t-8.5 10.5q1 11 7.5 16t6.5 17q149 77 244 204q-8 5 -21 5.5t-26 2t-22 7.5q-8 4 -8 19v3
q8 12 21 14q7 1 14 1h13q14 -2 29 -5q7 -1 13 -1q7 0 13 1q11 2 25 17t25 30q25 32 47 68t27 89q-42 3 -81 3q-40 0 -76 -3q-74 -5 -150 -30q-8 -5 -16 -12.5t-17 -13t-19 -7.5h-4q-8 0 -18 6q-2 9 -3 20q-1 2 -1 3q0 9 7 14q44 33 92 45.5t100.5 16.5t110.5 4q57 0 122 7
q4 -6 10 -9.5t10 -10.5q-2 -35 -11.5 -66.5t-23 -60t-30.5 -54.5t-35 -50q6 -5 16 -5h4q12 1 26 3q10 2 20 2h5q12 -1 19 -10q3 -8 3 -14q0 -5 -1 -9q-4 -10 -9 -20q-6 0 -12 -3t-11 -4h-5q-20 0 -40 7q-15 4 -28 4q-7 0 -14 -1q-14 -3 -27 -14t-25.5 -25.5t-23.5 -29
t-21 -24.5q-28 -29 -53.5 -48t-50.5 -39q40 -1 89.5 -3t100 -6t98 -11t83.5 -17zM394 743q-20 -39 -45 -73t-45 -74h-5q-12 0 -20 7q-11 9 -18.5 22.5t-13.5 28.5t-13 26q-16 23 -33 36t-31 27v24q14 8 26 8q8 0 16 -4q17 -9 31 -27.5t26 -41.5t25 -36q13 7 23 27.5t20.5 38
t23.5 24.5q3 2 7 2q11 0 26 -15z" />
    <glyph glyph-name="circumflex" unicode="&#x2c6;" 
d="M506 512q-15 -9 -27 -9q-7 0 -14 4q-17 9 -31 28t-26 41t-25 36q-14 -7 -24 -27t-20.5 -37.5t-23.5 -24.5q-4 -3 -8 -3q-10 0 -25 15q20 40 45.5 73.5t45.5 73.5h5q12 0 20 -7q10 -9 17.5 -22.5t14 -28.5t13.5 -25q16 -24 32.5 -36.5t30.5 -27.5v-23z" />
    <glyph glyph-name="caron" unicode="&#x2c7;" 
d="M506 651q-20 -39 -45 -73t-45 -74h-5q-12 0 -20 7q-11 9 -18.5 22.5t-13.5 28.5t-13 26q-16 23 -33 36t-31 27v24q14 8 26 8q8 0 16 -4q17 -9 31 -27.5t26 -41.5t25 -36q13 7 23 27.5t20.5 38t23.5 24.5q3 2 7 2q11 0 26 -15z" />
    <glyph glyph-name="breve" unicode="&#x2d8;" 
d="M494 636q-1 -23 -16.5 -41.5t-38.5 -27.5q-20 -9 -43 -9q-4 0 -8 1q-28 1 -53 18q-9 6 -19.5 17.5t-18 24.5t-8.5 27q-1 1 -1 3q0 11 8 19q7 7 14 8h1q7 0 12 -4q6 -5 9 -12t3 -15q0 -6 6.5 -14.5t16.5 -16t22 -12.5t23 -5q12 8 17.5 10.5t17.5 10.5q7 20 15 36t26 24h3
q16 0 17 -12v-4q0 -12 -5 -26z" />
    <glyph glyph-name="dotaccent" unicode="&#x2d9;" 
d="M439 613q-4 -10 -4 -23q0 -5 1 -11q-11 -12 -31 -18q-9 -3 -19 -3q-12 0 -24 4q-1 8 -4.5 13.5t-8.5 10.5q0 16 11 27.5t26 16.5q8 2 16 2q6 0 13 -1q15 -4 24 -18z" />
    <glyph glyph-name="ring" unicode="&#x2da;" 
d="M486 602q-2 -19 -15 -35t-31 -27t-38 -16q-13 -3 -24 -3q-7 0 -13 1q-10 2 -20 8t-18 14t-14 16.5t-8 14.5q-3 10 -3 20q0 8 3 17q4 18 15 32.5t27.5 24.5t34.5 13q8 1 16 1q12 0 24 -2q19 -5 34 -15.5t24 -26.5q6 -13 6 -29v-8zM439 605q0 18 -14 27q-13 7 -28 7h-3
q-18 -1 -32 -12q-13 -10 -13 -29v-3q5 -17 20 -23q9 -4 19 -4q5 0 11 1q15 3 27.5 12.5t12.5 23.5z" />
    <glyph glyph-name="ogonek" unicode="&#x2db;" 
d="M488 -16q7 -7 7 -13t-5 -11q-12 -11 -31 -18q-22 -17 -50 -21q-9 -1 -18 -1q-18 0 -35 5q-25 8 -42.5 27t-19.5 48v5q0 8 3 21q3 15 10.5 29.5t18.5 25.5t26 12h4q8 0 12 -3q5 -5 5 -11q0 -7 -4.5 -14.5t-11.5 -13.5q-6 -4 -9.5 -14.5t-3.5 -22.5q0 -13 4 -24.5t12 -18.5
q7 -1 12 -2t9.5 -1.5t9.5 -1.5t13 -2q23 11 44 18q11 4 23 4q9 0 17 -2z" />
    <glyph glyph-name="tilde" unicode="&#x2dc;" 
d="M577 646q2 -6 2 -12q0 -4 -1 -7q-2 -10 -5.5 -19t-8 -18t-7.5 -17q-35 -15 -68 -15q-2 -1 -4 -1q-31 0 -59 9q-31 8 -59.5 22t-53.5 28h-10q-27 0 -41 -15q-9 -10 -9 -23q0 -12 6 -25l-16 -8q-6 -3 -16 -3h-5q-13 18 -13 37q0 8 3 16q7 27 24 44q14 5 27 11t26 13h4
q18 0 40 -8q23 -10 47.5 -21.5t48.5 -22t45 -11.5q2 -1 5 -1q17 0 32 10q16 10 26 40q11 0 19 -2q4 -2 10 -2q5 0 11 1z" />
    <glyph glyph-name="hungarumlaut" unicode="&#x2dd;" 
d="M526 613q-4 -10 -4 -23q0 -5 1 -11q-11 -12 -31 -18q-9 -3 -19 -3q-11 0 -23 4q-2 8 -5.5 13.5t-8.5 10.5q0 16 11 27.5t26 16.5q8 2 16 2q6 0 13 -1q15 -4 24 -18zM352 613q-4 -10 -4 -23q0 -5 1 -11q-11 -12 -31 -18q-9 -3 -19 -3q-12 0 -24 4q-1 8 -4.5 13.5
t-8.5 10.5q0 16 11 27.5t26 16.5q8 2 16 2q6 0 13 -1q15 -4 24 -18z" />
    <glyph glyph-name="endash" unicode="&#x2013;" horiz-adv-x="491" 
d="M467 295q-47 -5 -94 -5q-24 -1 -48 -1q-23 0 -47 1q-47 0 -93 2h-89q-9 0 -21 -2t-23 -2t-21 3t-16 14q1 29 20 40q48 3 103 3h110q55 0 109.5 1t102.5 6q11 -9 15 -28v-9q0 -13 -8 -23z" />
    <glyph glyph-name="emdash" unicode="&#x2014;" horiz-adv-x="1007" 
d="M991 305q-13 -12 -29 -16q-14 -4 -30 -4q-2 0 -4 1q-18 0 -38.5 2.5t-42.5 2.5q-99 0 -200 -2.5t-198 -7.5q-18 9 -46 9q-29 0 -61.5 -3t-64.5 -6q-20 -3 -38 -3q-9 0 -18 1q-18 1 -53 2.5t-69.5 6t-59.5 14.5q-24 10 -24 28v1q1 21 10 27q6 4 14 4h4q9 -2 18.5 -7.5
t14.5 -6.5q13 -4 27 -4q6 0 12 1q10 1 19 1q10 0 19 -1q24 -2 49 -9.5t51 -7.5q39 1 81 7t86 6q62 0 127 -1t128 -1q21 -1 42 -1q41 0 81 1q60 1 111 5q8 3 19 8t23 7q5 1 11 1q5 0 11 -1q10 -2 16 -13v-10q1 -5 1.5 -9.5t1.5 -9.5v-3q0 -4 -1 -9z" />
    <glyph glyph-name="quoteleft" unicode="&#x2018;" horiz-adv-x="119" 
d="M113 455q-9 -7 -16 -7q-3 0 -6 2q-10 5 -17.5 17t-13 28t-11.5 29q-6 14 -14 27.5t-15 25.5t-11 24q-4 9 -4 17v3q11 11 21 16q4 2 9 2t12 -3q6 -20 23 -46.5t32 -53t21 -48.5q2 -6 2 -11q0 -14 -12 -22z" />
    <glyph glyph-name="quoteright" unicode="&#x2019;" horiz-adv-x="129" 
d="M124 621v-3q0 -8 -3 -17q-5 -12 -12 -24t-15 -25.5t-14 -27.5q-5 -13 -10.5 -29t-13 -28t-17.5 -17q-3 -2 -7 -2q-7 0 -16 7q-11 8 -11 21q0 6 2 12q6 22 21 48.5t31.5 53t22.5 46.5q7 3 13 3q5 0 9 -2q9 -5 20 -16z" />
    <glyph glyph-name="quotesinglbase" unicode="&#x201a;" horiz-adv-x="129" 
d="M124 150v-3q0 -8 -3 -17q-5 -12 -12 -24.5t-15 -26t-14 -27.5q-5 -13 -10.5 -29t-13 -28t-17.5 -16q-3 -2 -7 -2q-7 0 -16 7q-11 8 -11 21q0 6 2 12q6 22 21 48.5t31.5 53t22.5 46.5q7 3 13 3q5 0 9 -2q9 -5 20 -16z" />
    <glyph glyph-name="quotedblleft" unicode="&#x201c;" horiz-adv-x="251" 
d="M246 455q-9 -7 -17 -7q-3 0 -6 2q-10 5 -17.5 17t-13 28t-11.5 29q-6 14 -14 27.5t-15 25.5t-11 24q-4 9 -4 17v3q11 11 21 16q4 2 9 2q6 0 13 -3q6 -20 22.5 -46.5t31.5 -53t21 -48.5q2 -6 2 -12q0 -13 -11 -21zM117 448q-5 -2 -9 -2h-3q-5 1 -9.5 4t-9 6.5t-9.5 4.5
q-5 17 -16 36.5t-22.5 39.5t-21.5 38.5t-11 32.5q-1 2 -1 4q0 11 8 19t33 8q1 -22 18.5 -48t34.5 -52t26 -50q2 -8 2 -16q0 -14 -10 -25z" />
    <glyph glyph-name="quotedblright" unicode="&#x201d;" horiz-adv-x="261" 
d="M215 639q25 0 34 -8q7 -7 7 -18v-5q-2 -14 -11.5 -32.5t-21.5 -38.5t-23 -39.5t-16 -36.5q-5 -1 -9.5 -4.5t-9 -6.5t-9.5 -4h-3q-4 0 -9 2q-10 11 -10 25q0 8 3 16q8 24 25 50t34.5 52t18.5 48zM124 621v-3q0 -8 -3 -17q-5 -12 -12 -24t-15 -25.5t-14 -27.5
q-5 -13 -10.5 -29t-13 -28t-17.5 -17q-3 -2 -7 -2q-7 0 -16 7q-11 8 -11 21q0 6 2 12q6 22 21 48.5t31.5 53t22.5 46.5q7 3 13 3q5 0 9 -2q9 -5 20 -16z" />
    <glyph glyph-name="quotedblbase" unicode="&#x201e;" horiz-adv-x="261" 
d="M215 168q25 0 34 -8q7 -7 7 -18v-5q-2 -14 -11.5 -32.5t-21.5 -38.5t-23 -39.5t-16 -36.5q-5 -1 -9.5 -4.5t-9 -6.5t-9.5 -4h-3q-4 0 -9 2q-10 11 -10 25q0 8 3 16q8 24 25 50t34.5 52t18.5 48zM124 150v-3q0 -8 -3 -17q-5 -12 -12 -24.5t-15 -26t-14 -27.5
q-5 -13 -10.5 -29t-13 -28t-17.5 -16q-3 -2 -7 -2q-7 0 -16 7q-11 8 -11 21q0 6 2 12q6 22 21 48.5t31.5 53t22.5 46.5q7 3 13 3q5 0 9 -2q9 -5 20 -16z" />
    <glyph glyph-name="bullet" unicode="&#x2022;" horiz-adv-x="214" 
d="M189 306q-2 -16 -12.5 -29.5t-25.5 -22.5t-32 -13q-10 -3 -19 -3q-6 0 -12 1q-16 3 -31.5 18.5t-18.5 26.5q-3 8 -3 17q0 6 2 13q4 15 13 27.5t23 21t29 10.5q6 1 12 1q11 0 21 -2q16 -4 28.5 -13t19.5 -22q6 -12 6 -27v-4z" />
    <glyph glyph-name="ellipsis" unicode="&#x2026;" horiz-adv-x="396" 
d="M84 -5q-8 0 -13 -2t-10.5 -4.5t-11.5 -3.5q-3 -1 -6 -1q-4 0 -9 1q-17 9 -18 28v9q0 15 2 33q19 11 34 11h4q16 -2 26 -12t11 -26v-3q0 -15 -9 -30zM227 -5q-8 0 -13 -2t-10.5 -4.5t-11.5 -3.5q-3 -1 -6 -1q-4 0 -9 1q-17 9 -18 28v9q0 15 2 33q19 11 34 11h4
q16 -2 26 -12t11 -26v-3q0 -15 -9 -30zM371 -5q-8 0 -13 -2t-10.5 -4.5t-11.5 -3.5q-3 -1 -6 -1q-4 0 -9 1q-17 9 -18 28v9q0 15 2 33q19 11 34 11h4q16 -2 26 -12t11 -26v-3q0 -15 -9 -30z" />
    <glyph glyph-name="perthousand" unicode="&#x2030;" horiz-adv-x="660" 
d="M675 76q1 -8 1 -15q0 -11 -2 -20q-2 -12 -2 -26v-9q-9 -15 -23.5 -28t-34 -20.5t-42.5 -8.5h-5q-21 0 -42 7q-5 11 -13 19.5t-15.5 17t-13 18t-5.5 22.5q0 15 5 29t13.5 27.5t17.5 26t17 24.5q11 0 19 3t15 6.5t14 5.5q5 1 10 1h6q14 -1 26 -9t22 -19t18 -25t14 -27z
M612 80q-11 15 -23 17h-4q-11 0 -20 -7q-12 -8 -19.5 -23.5t-7.5 -33.5q11 -22 29 -25q4 -1 8 -1q13 0 25 8q14 9 20 27q1 5 1 11q0 13 -9 27zM393 695q25 -15 27 -33v-5q0 -15 -9 -31q-10 -19 -25.5 -36.5t-22.5 -31.5q-5 -8 -5.5 -18t-4.5 -19q-12 -27 -27 -51.5
t-28.5 -49.5t-25 -52t-16.5 -58q-6 -5 -10.5 -12.5t-9.5 -14.5q-12 -47 -29 -88t-36.5 -80t-39.5 -78t-36 -81q-10 -3 -18 -3q-6 0 -11 2q-13 3 -24 11q-1 6 -1 12q0 30 24 38v6q0 13 8 19q9 6 16 15q42 103 85 202.5t78 202.5q13 13 22.5 30t17.5 35t16 36.5t18 35.5
q-24 -4 -47 -8q-16 -3 -34 -3q-9 0 -19 1q0 -26 -8 -51t-23 -45t-35.5 -33t-44.5 -15q-6 -1 -11 -1q-35 0 -59 24q-29 26 -40 67q5 42 20 66.5t47 43.5q13 8 26.5 19t30.5 12q12 0 22.5 -5t20 -12t19 -15t21.5 -12q9 -3 17 -4t16 -1q7 0 14.5 -0.5t16.5 -4.5q20 4 36 12
t29.5 18t26 21.5t25.5 22.5zM156 598q-15 5 -28 5q-5 0 -10 -1q-18 -3 -30.5 -12t-18.5 -23q-4 -10 -4 -22v-7q3 -20 14.5 -28.5t26.5 -8.5q14 0 28.5 7.5t24 21t10.5 31.5v1q0 17 -13 36zM440 76q1 -8 1 -15q0 -11 -2 -20q-3 -16 -3 -35q-9 -15 -23.5 -28t-34 -20.5
t-42.5 -8.5h-5q-21 0 -42 7q-5 11 -13 19.5t-15.5 17t-13 18t-5.5 22.5q0 15 5.5 29t13.5 27.5t17.5 26t17.5 24.5q11 0 19 3t14.5 6.5t13.5 5.5q5 1 10 1h6q14 -1 26 -9t22 -19t18.5 -25t14.5 -27zM376 80q-11 15 -23 17h-4q-11 0 -20 -7q-11 -8 -18.5 -23.5t-7.5 -33.5
q11 -22 29 -25q4 -1 8 -1q13 0 25 8q14 9 20 27q1 5 1 10q0 14 -10 28z" />
    <glyph glyph-name="guilsinglleft" unicode="&#x2039;" horiz-adv-x="238" 
d="M246 35q2 -10 2 -19q0 -17 -8 -30q-11 -15 -28 -15q-4 0 -9 1q-12 2 -17 14.5t-13 22.5q-15 18 -36 38t-43 39.5t-42.5 37.5t-35.5 32q-1 5 -1 9q0 11 5 18q5 9 6 23q25 26 47.5 55.5t43 61t40 63.5t39.5 64q8 3 15 3q8 0 15 -3q15 -6 17 -20v-4q0 -6 -6 -12
q-8 -7 -14 -18t-14.5 -26t-18 -31t-19 -32.5t-18.5 -30.5q-6 -10 -14 -18t-13 -15q-10 -17 -19.5 -35t-23.5 -29q15 -18 33.5 -34t36.5 -31.5t35.5 -32t31.5 -36.5q5 -3 13 -4.5t13 -5.5z" />
    <glyph glyph-name="guilsinglright" unicode="&#x203a;" horiz-adv-x="239" 
d="M223 226q-1 -14 -15 -24t-28 -29q-8 -11 -11 -25t-9 -19q-9 -8 -20 -16q-10 -8 -10 -25v-6q-18 -9 -30 -23t-22 -30.5t-19.5 -33t-22.5 -30.5q-27 1 -37 10q-9 7 -9 19v2q1 13 10 29.5t21 32.5t25 30.5t20 23.5q9 11 15 23.5t12 20.5q11 13 26.5 32t23.5 35
q-13 31 -33 54.5t-40 46t-38 48.5t-26 61q7 12 21 15q5 1 12 1q8 0 17 -2q14 -29 36 -57.5t44 -53.5q8 -8 14 -16.5t13 -16.5q3 -4 10 -5t10 -5q1 -1 1 -3q0 -1 -1 -3q-1 -3 -1 -4q0 -2 1 -3q4 -8 11 -14t13.5 -12t11 -12.5t4.5 -15.5z" />
    <glyph glyph-name="fraction" unicode="&#x2044;" horiz-adv-x="442" 
d="M417 651q-5 -24 -14.5 -42.5t-20.5 -35.5t-20.5 -35t-14.5 -41q-17 -21 -29.5 -45.5t-23.5 -50.5t-23 -51.5t-28 -46.5q-6 -30 -24 -50q-30 -73 -63.5 -142t-73.5 -132q-10 -4 -18 -4q-12 0 -19 8q-12 13 -19 29q8 11 14 24t19 20q40 80 80.5 158.5t76.5 161.5
q11 9 18 21.5t9 29.5l14 12t13 14q6 30 17.5 55t24.5 48.5t25 47.5t20 53q11 3 24 9q6 3 11 3q8 0 15 -5q2 -4 3.5 -8t6.5 -5z" />
    </font>
</defs>
</svg>
