<?xml version="1.0" standalone="no"?>
<!DOCTYPE svg PUBLIC "-//W3C//DTD SVG 1.1//EN" "http://www.w3.org/Graphics/SVG/1.1/DTD/svg11.dtd" >
<svg xmlns="http://www.w3.org/2000/svg" xmlns:xlink="http://www.w3.org/1999/xlink" version="1.1">
<metadata>
Created by FontForge 20161013 at Fri Apr 22 19:28:44 2011
 By ,,,
Copyright (c) 2011 by vernon adams. All rights reserved.
</metadata>
<defs>
<font id="Damion" horiz-adv-x="480" >
  <font-face 
    font-family="Damion"
    font-weight="400"
    font-stretch="normal"
    units-per-em="2048"
    panose-1="2 0 0 0 0 0 0 0 0 0"
    ascent="1638"
    descent="-410"
    x-height="692"
    cap-height="1443"
    bbox="-319.455 -746 2684 2068"
    underline-thickness="102"
    underline-position="-307"
    unicode-range="U+0020-FB02"
  />
<missing-glyph 
 />
    <glyph glyph-name=".notdef" 
 />
    <glyph glyph-name=".null" horiz-adv-x="0" 
 />
    <glyph glyph-name="nonmarkingreturn" 
 />
    <glyph glyph-name="space" unicode=" " 
 />
    <glyph glyph-name="space" unicode="&#xa0;" 
 />
    <glyph glyph-name="exclam" unicode="!" horiz-adv-x="959" 
d="M639 139q-4 -31 -19 -59t-37 -49.5t-50 -34t-58 -12.5q-45 0 -72 29.5t-27 72.5q0 33 14 63t37.5 53.5t53.5 37.5t62 14q45 0 71 -28t26 -71v-7.5t-1 -8.5zM1110 1200q-55 -105 -100 -188.5t-88 -162.5t-88 -162.5t-100 -188.5q-15 -29 -43 -43.5t-52 -14.5
q-20 0 -32.5 8.5t-12.5 26.5q0 12 5 23q30 70 56 129.5t49.5 114.5t45.5 107t45.5 106.5t49.5 114.5t56 130q8 18 22.5 32t33.5 23.5t40 14t42 4.5q32 0 54.5 -12t22.5 -38q0 -11 -6 -24z" />
    <glyph glyph-name="quotedbl" unicode="&#x22;" horiz-adv-x="852" 
d="M1059 1368q-41 -71 -87 -142.5t-92.5 -142.5t-92 -140t-87.5 -134q-17 -26 -42.5 -40t-48.5 -14q-17 0 -28 7.5t-11 22.5q0 6 2.5 11.5t4.5 12.5q37 75 74.5 150.5t73 147t67.5 138t59 123.5q8 16 21.5 28t30.5 20t36.5 11.5t38.5 3.5q35 0 61 -11.5t26 -33.5q0 -4 -1 -9
t-5 -9zM759 1368q-38 -70 -78 -141.5t-81.5 -142.5t-82 -140.5t-77.5 -134.5q-15 -26 -38 -40t-45 -14q-17 0 -27 7.5t-10 21.5q0 6 2.5 12t4.5 13q31 75 62.5 150.5t61.5 147t57.5 138t50.5 123.5q15 33 48 48t71 15q35 0 61 -11.5t26 -33.5q0 -4 -1 -9t-5 -9z" />
    <glyph glyph-name="numbersign" unicode="#" horiz-adv-x="1381" 
d="M1067 823h-258q-32 -64 -65 -127t-65 -127h258q32 64 65 127t65 127zM1456 946q13 0 18.5 -6.5t5.5 -17.5q0 -14 -7.5 -31.5t-18.5 -32.5t-24 -25t-23 -10h-218q-33 -64 -66.5 -127t-66.5 -127h204q13 0 18.5 -7t5.5 -18q0 -14 -7 -30t-17 -30t-22 -23.5t-22 -9.5h-221
q-29 -56 -59.5 -116t-60.5 -118.5t-59 -114t-56 -102.5q-8 -15 -31.5 -23t-46.5 -8q-21 0 -33.5 5.5t-12.5 17.5q0 2 2 8q26 50 55 106t59 113.5t60.5 116.5t59.5 115h-258q-29 -56 -60 -118t-61.5 -122t-59.5 -114.5t-53 -96.5q-9 -15 -30.5 -22t-44.5 -7q-21 0 -33.5 5
t-12.5 16q0 2 2 8q21 44 49.5 99t60 114.5t63.5 120.5t61 117h-225q-16 0 -16 20q0 11 6 28t15 32.5t20.5 26.5t22.5 11h238q34 64 67 127t67 127h-221q-14 0 -19.5 7.5t-5.5 18.5q0 14 7 31t17.5 31.5t22.5 24.5t23 10h237q28 53 57 108.5t57.5 110.5t55.5 106.5t51 96.5
q8 15 31 22.5t46 7.5q21 0 34 -6t13 -17q0 -5 -1 -7q-20 -42 -46.5 -93.5t-56 -107t-60 -112t-58.5 -109.5h258q27 53 56.5 110.5t58 113.5t55 107t47.5 91q8 15 30.5 23t45.5 8q21 0 34 -6t13 -18q0 -4 -1 -7q-22 -43 -48.5 -94.5t-55.5 -106.5t-58.5 -111.5t-57.5 -109.5
h205z" />
    <glyph glyph-name="dollar" unicode="$" horiz-adv-x="1300" 
d="M807 942q-2 -6 -2 -12v-12q0 -32 19 -63.5t62 -59.5q45 90 90 178t90 178q-48 -19 -92.5 -43t-80 -51t-58.5 -56t-28 -59zM1034 391q1 3 1 6.5v6.5q0 20 -8 36t-25 32.5t-42.5 34t-61.5 40.5l-96 -188t-96 -189q61 6 117 25t100.5 48t73.5 66.5t37 81.5zM1421 1573
q-24 -48 -48.5 -95t-49.5 -95h9q43 0 80 -8.5t63 -27t41 -47.5t15 -69q0 -88 -58 -167t-169 -146q-45 -27 -77 -27q-29 0 -45 18.5t-16 45.5q0 31 21.5 65t69.5 57q17 8 33.5 19.5t29 25t20.5 27t8 26.5q0 18 -14 23.5t-34 5.5q-17 0 -34.5 -2t-36.5 -5q-121 -235 -238 -467
l133 -84q78 -43 114 -95.5t36 -109.5q0 -18 -3 -34q-14 -80 -69.5 -156.5t-142.5 -136.5t-201 -97t-245 -37h-5l-94 -185q-14 -33 -35.5 -47.5t-41.5 -14.5q-24 0 -42 10.5t-18 30.5q0 10 6 21l96 193q-74 9 -127 27.5t-86.5 45t-49 58.5t-15.5 68q0 53 31.5 109.5t87 107.5
t131 91.5t164.5 61.5h6q20 0 29 -17.5t9 -38.5t-4 -35.5t-14.5 -26t-29 -21.5t-47.5 -21q-66 -26 -104.5 -63t-38.5 -72q0 -32 35 -56.5t116 -33.5q55 110 110 219t111 220q-54 33 -90.5 65t-58.5 63.5t-31.5 65t-9.5 69.5q0 54 23.5 106t64.5 100.5t96 91.5t118 79.5
t130.5 64t134.5 44.5l107 213q14 32 37.5 47t46.5 15q26 0 44.5 -11.5t18.5 -33.5q0 -2 -0.5 -4.5t-0.5 -4.5z" />
    <glyph glyph-name="percent" unicode="%" horiz-adv-x="1769" 
d="M1530 427q0 45 -24.5 71.5t-70.5 26.5q-42 0 -81 -29.5t-69 -75t-48.5 -101.5t-18.5 -109q0 -23 5 -45t16 -39.5t28 -28t41 -10.5q45 0 85.5 30.5t71 79t48 109t17.5 121.5zM701 857q0 63 -22.5 93t-63.5 30q-48 0 -89 -28.5t-71 -74t-47.5 -103.5t-17.5 -117
q0 -23 6 -45.5t17 -40.5t28 -29.5t39 -11.5q46 0 86.5 29.5t70.5 76.5t47 105.5t17 115.5zM529 -233q-9 -14 -22.5 -20t-29.5 -6q-15 0 -30.5 5.5t-28 15t-20.5 22.5t-8 29q0 22 15 44l742 1075q-39 -21 -75.5 -36t-75 -25.5t-79.5 -17.5t-89 -12q0 -91 -31 -170
t-81.5 -137.5t-115.5 -92.5t-132 -34q-54 0 -93 20.5t-65 55.5t-38.5 82t-12.5 100q0 80 30.5 158t83 139.5t123.5 99t152 37.5q72 0 118 -42t62 -118q67 17 123 39.5t108 50t104 60t112 70.5q21 17 41 25t37 8q30 0 49.5 -20.5t19.5 -52.5q0 -28 -16 -59l-704 -1038
q59 19 115.5 35.5t106 30t90 23.5t67.5 16q-6 30 -6 62q0 88 28.5 171t78 147t116 102.5t142.5 38.5q49 0 91 -15t72.5 -43.5t48 -68.5t17.5 -90q0 -93 -29.5 -178.5t-80.5 -150.5t-119.5 -103.5t-147.5 -38.5q-58 0 -102 22t-72 60q-160 -53 -271.5 -102.5t-182.5 -87.5
q-83 -45 -135 -85z" />
    <glyph glyph-name="ampersand" unicode="&#x26;" horiz-adv-x="1119" 
d="M479 361q-123 -101 -123 -154q0 -29 23 -40.5t53 -11.5q50 0 102 26q17 8 55 33t98 68l-121 160q-42 -43 -87 -81zM967 700q-16 -13 -32.5 -18.5t-32.5 -5.5q-18 0 -34.5 6.5t-29 17t-19.5 23.5t-7 27q0 12 16 31.5t34.5 43t34.5 50t16 52.5q0 30 -21.5 48.5t-52.5 18.5
q-40 0 -86.5 -22t-86 -56.5t-66 -76.5t-26.5 -82q0 -72 59 -144l169 -207q24 30 43.5 60.5t33.5 54.5h174q-27 -65 -66 -128.5t-92 -126.5q16 -25 30 -46l29 -43.5t33.5 -48.5t44.5 -60q8 -11 12 -23t4 -22q0 -32 -22.5 -54.5t-54.5 -22.5q-22 0 -45.5 13t-46.5 43l-103 140
q-110 -82 -163 -112q-104 -58 -190 -58q-52 0 -97.5 15.5t-79.5 44t-53.5 69.5t-19.5 92q0 37 25.5 86.5t66 100t89.5 96.5t97 77q13 8 13 13q-34 53 -49.5 103t-15.5 98q0 53 20 102t55 91t81.5 76.5t98.5 59t107 37.5t108 13q76 0 138 -30.5t94 -98.5q13 -27 13 -59
q0 -36 -15 -72t-37 -69.5t-47.5 -63.5t-47.5 -53z" />
    <glyph glyph-name="quotesingle" unicode="'" horiz-adv-x="671" 
d="M858 1368q-37 -70 -77.5 -141.5t-82.5 -142.5t-82.5 -140.5t-77.5 -134.5q-15 -26 -39.5 -40t-47.5 -14q-18 0 -29.5 8.5t-11.5 25.5q0 5 1 10t4 10q32 75 64 150.5t62 147t58 138t51 123.5q7 16 19.5 28t29 20t35.5 11.5t38 3.5q36 0 63.5 -12t27.5 -34q0 -4 -1 -9
t-4 -8z" />
    <glyph glyph-name="parenleft" unicode="(" horiz-adv-x="914" 
d="M929 1535q34 42 65 58t57 16q18 0 32.5 -6t25 -14.5t16.5 -19t6 -19.5t-6 -15q-129 -149 -231 -306t-173 -321.5t-109 -337.5t-38 -354q0 -56 1.5 -98t5 -79t11 -73.5t19.5 -80.5q1 -4 1 -12q0 -15 -7 -27.5t-18.5 -22t-26.5 -14.5t-31 -5q-27 0 -53.5 18t-36.5 63
q-9 39 -16.5 85t-13 94.5t-8.5 98t-3 94.5q0 161 32.5 319t98 315.5t165.5 317.5t235 326z" />
    <glyph glyph-name="parenright" unicode=")" horiz-adv-x="680" 
d="M360 -115q-50 -57 -89.5 -79.5t-67.5 -22.5q-29 0 -44 17t-15 39q0 12 4.5 24t15.5 22q127 146 229 302.5t173 321.5t109.5 337t38.5 350q0 168 -36 339q-3 10 -3 19q0 33 24 53.5t55 20.5q29 0 57 -21.5t39 -71.5q40 -196 40 -379q0 -165 -33 -321.5t-99 -312
t-165.5 -313.5t-232.5 -324z" />
    <glyph glyph-name="asterisk" unicode="*" horiz-adv-x="696" 
d="M966 1053l-285 -58l80 -204l-150 -70l-41 229l-233 -229l-72 102l258 185l-224 69l113 140l189 -111l98 262h155l-156 -274l283 98z" />
    <glyph glyph-name="plus" unicode="+" horiz-adv-x="1277" 
d="M1226 640h-384l-184 -384h-128l184 384h-384l60 128h384l184 384h128l-184 -384h384z" />
    <glyph glyph-name="comma" unicode="," horiz-adv-x="737" 
d="M602 233q-80 -118 -157.5 -231t-156.5 -231q-17 -24 -36 -35t-36 -11q-15 0 -25 7.5t-10 21.5q0 10 4 17q43 118 83.5 231t83.5 231q8 22 24.5 38t37 26.5t44 15.5t46.5 5q42 0 73.5 -15.5t31.5 -43.5q0 -13 -7 -26z" />
    <glyph glyph-name="hyphen" unicode="-" horiz-adv-x="985" 
d="M961 430q17 0 27 -14.5t10 -33.5q0 -25 -19 -47.5t-63 -22.5h-451q-17 0 -25.5 12t-8.5 29q0 13 5.5 26.5t17 24.5t29.5 18.5t44 7.5h434z" />
    <glyph glyph-name="period" unicode="." horiz-adv-x="732" 
d="M580 139q0 -31 -11.5 -59t-31 -49.5t-45.5 -34t-55 -12.5q-24 0 -45 9.5t-36.5 25.5t-24.5 37.5t-9 45.5q0 30 11.5 57.5t31.5 48.5t47 33.5t58 12.5q49 0 79.5 -33t30.5 -82z" />
    <glyph glyph-name="slash" unicode="/" horiz-adv-x="892" 
d="M1244 1476q-237 -404 -473.5 -808t-473.5 -808q-14 -25 -34 -35t-42 -10q-29 0 -53 15t-24 39q0 5 1 11.5t4 10.5q235 407 467 809.5t467 809.5q14 23 35.5 33.5t45.5 10.5q38 0 59.5 -18t21.5 -45q0 -10 -1 -15z" />
    <glyph glyph-name="zero" unicode="0" horiz-adv-x="896" 
d="M769 601q0 71 -26 102t-67 31q-65 0 -125.5 -36.5t-107.5 -97t-75.5 -138.5t-28.5 -160q0 -32 5 -63t17.5 -56t34 -40t55.5 -15q52 0 96 23.5t79.5 62.5t62 89t44.5 102.5t27 103.5t9 92zM957 601q0 -65 -17.5 -136t-50.5 -141t-80 -133t-106.5 -111t-130 -76.5
t-149.5 -28.5q-62 0 -111.5 23t-84.5 64.5t-54 100.5t-19 131q0 63 18 133t51.5 137.5t81 129.5t106.5 108.5t128.5 74.5t146.5 28q60 0 110 -22.5t86 -62.5t55.5 -96t19.5 -123z" />
    <glyph glyph-name="one" unicode="1" horiz-adv-x="736" 
d="M258 97q28 45 51 86.5t43.5 80.5t40 76.5t40.5 75.5l137 249q-13 -5 -43.5 -17t-65 -25.5t-65 -25.5t-42.5 -16q-3 -2 -7.5 -2.5t-6.5 -0.5q-16 0 -28.5 13.5t-12.5 35.5q0 19 12 42t43 48q67 45 134 81q28 15 59 29.5t61.5 26t60 18.5t54.5 7q29 0 50.5 -15.5
t21.5 -53.5q0 -12 -2 -27.5t-10 -32.5q-15 -31 -36.5 -79.5t-46.5 -106t-52.5 -121.5t-55 -126t-53.5 -118.5t-47 -99.5q-15 -30 -35.5 -53t-43 -38.5t-46.5 -23.5t-45 -8q-32 0 -54.5 16.5t-22.5 49.5q0 11 2 26t11 29z" />
    <glyph glyph-name="two" unicode="2" horiz-adv-x="896" 
d="M859 167q4 1 7 1.5t6 0.5q21 0 35 -16t14 -39q0 -33 -23.5 -59t-59.5 -43.5t-79 -26.5t-82 -9q-32 0 -63 3.5t-68 14.5t-83 32t-109 56q-59 -37 -92.5 -58t-51.5 -31t-25 -12t-12 -2q-12 0 -24.5 7.5t-23.5 19.5t-18 27.5t-7 32.5q0 14 6.5 28t22.5 25q66 36 134 76.5
t131 85t118 91.5t96 94.5t64.5 95t23.5 93.5q0 45 -22 63.5t-58 18.5q-29 0 -62.5 -10t-67.5 -25.5t-67.5 -33t-62 -33t-50.5 -25.5t-34 -10q-16 0 -30 7t-24 18.5t-15.5 25.5t-5.5 29q0 25 23 51.5t61 51.5t87 47t100.5 39t102 26.5t92.5 9.5q49 0 92.5 -12.5t75.5 -40
t50.5 -72.5t18.5 -110q0 -55 -17.5 -110t-63.5 -113.5t-124.5 -120.5t-200.5 -131q43 -19 92 -32t88 -13q29 0 52 1t44 3.5t42 5.5t47 7z" />
    <glyph glyph-name="three" unicode="3" horiz-adv-x="800" 
d="M552 238q0 24 -4.5 46.5t-19.5 39t-43 26.5t-75 10q-16 0 -33.5 -2.5t-37.5 -2.5q-28 0 -41 17t-13 37q0 26 25.5 46.5t73.5 28.5q69 11 119 36t82.5 53.5t48 55t15.5 41.5q0 29 -20.5 47.5t-49.5 18.5q-50 0 -89 -8t-72 -17t-61 -17t-55 -8q-29 0 -51 18.5t-22 45.5
q0 22 19 47q28 21 67.5 40t84.5 33.5t93.5 23.5t95.5 9t89 -10.5t73.5 -34.5t50 -62.5t18.5 -95.5q0 -78 -65 -147.5t-187 -111.5q51 -12 84 -33t52.5 -46.5t27 -54t7.5 -54.5q0 -79 -24 -143.5t-65 -116t-96.5 -91.5t-119.5 -70t-133 -51t-136 -35q-16 -3 -28 -5t-23 -2
q-38 0 -56.5 16t-18.5 38q0 23 20 46.5t59 34.5q42 9 90.5 25.5t96.5 41t92 55.5t78 68.5t55 81t22 92.5z" />
    <glyph glyph-name="four" unicode="4" horiz-adv-x="976" 
d="M983 723q-21 -46 -44 -94.5t-45.5 -96.5t-44 -94t-40.5 -87q-46 -97 -89 -188h179q20 0 31 -15.5t11 -36.5q0 -19 -6.5 -38.5t-19.5 -35.5t-33.5 -26.5t-47.5 -10.5h-183l-154 -341q-18 -35 -43.5 -50t-51.5 -15q-33 0 -56.5 20t-23.5 51q0 7 2 14t5 15l132 306h-267
q-15 0 -28 1.5t-23.5 6.5t-16.5 13.5t-6 23.5q0 17 7.5 40t26.5 58q21 39 48.5 93.5t57.5 116t60.5 126.5t58.5 125.5t50 113t36 88.5q15 42 46 59.5t63 17.5q34 0 60.5 -16.5t27.5 -41.5q-1 -5 -1.5 -9.5t-2.5 -9.5q-34 -83 -72 -167.5t-76.5 -166.5t-76.5 -159t-71 -146
q26 1 47.5 1h38.5h76l28 -1l12 29q12 28 34.5 75.5t51 109.5t60 128.5t63 133.5t59.5 125q26 60 58.5 87.5t58.5 27.5q23 0 39 -19t16 -54q0 -19 -5 -41t-16 -46z" />
    <glyph glyph-name="five" unicode="5" horiz-adv-x="884" 
d="M846 269q0 -79 -24 -144.5t-65 -119t-96.5 -95.5t-119.5 -74t-133 -54t-136 -36q-16 -3 -28 -5t-23 -2q-38 0 -56.5 16t-18.5 38q0 23 20 46.5t59 34.5q41 9 88.5 26.5t94 42t90 57t76.5 71t53.5 83t21.5 94.5q0 31 -11.5 53.5t-31.5 36.5t-47 21t-59 7q-35 0 -73 -7.5
t-76 -20.5q-18 -6 -31.5 -14.5t-25 -16t-21 -12.5t-19.5 -5q-32 0 -50.5 23t-18.5 55q0 23 10 44l169 377q11 24 22 41.5t25.5 28t32.5 15.5t42 5h471q28 0 43.5 -22.5t15.5 -51.5q0 -18 -6.5 -36t-20 -33t-35 -24t-50.5 -9h-385q-25 -50 -49 -96q-20 -39 -41 -80.5
t-35 -68.5q54 34 106 49.5t99 15.5q54 0 99.5 -18.5t78 -52.5t51 -80.5t18.5 -102.5z" />
    <glyph glyph-name="six" unicode="6" horiz-adv-x="980" 
d="M356 280q0 -58 38 -95t101 -37q53 0 105 32t93.5 81t67 107.5t25.5 111.5q0 47 -29.5 67.5t-77.5 20.5q-29 0 -63 -7t-70 -20t-72 -31t-70 -40q-48 -105 -48 -190zM171 300q0 47 16 113.5t50.5 145.5t87.5 166t127 175t169.5 173.5t214.5 160.5q14 10 33 10q16 0 31.5 -7
t28 -19t20 -27.5t7.5 -31.5q0 -17 -8.5 -33.5t-29.5 -30.5q-94 -63 -163.5 -125.5t-119.5 -119.5t-82.5 -105.5t-52.5 -81.5q57 26 119.5 40.5t122.5 14.5q47 0 89.5 -12.5t74 -40t50 -71.5t18.5 -106q0 -68 -19 -133t-52.5 -121.5t-80 -104t-102 -81.5t-118 -53t-128.5 -19
q-68 0 -124 24.5t-96 68t-61.5 102.5t-21.5 129z" />
    <glyph glyph-name="seven" unicode="7" horiz-adv-x="870" 
d="M822 880q90 0 129.5 -21t39.5 -57q0 -35 -32 -81.5t-89 -99.5q-15 -17 -47 -63t-73 -108t-88.5 -133.5t-93 -140.5t-86.5 -128t-70 -96q-46 -59 -85 -83.5t-68 -24.5q-36 0 -56 22.5t-20 51.5q0 31 23 57q22 30 53 74t67.5 95.5t77 108t80 113.5t77.5 110.5t70.5 98.5
t57.5 79t39 52l-222 -1q-100 0 -157.5 4t-87 14t-37 27t-7.5 42q0 29 13.5 46.5t34 27t44.5 12.5t45 3q17 0 28.5 -1t16.5 -1z" />
    <glyph glyph-name="eight" unicode="8" horiz-adv-x="964" 
d="M698 282q0 54 -26 99t-72 86q-56 -44 -104 -80.5t-83 -67.5t-55 -57t-20 -47q0 -43 40.5 -69t108.5 -26q43 0 81.5 12t67 33t45.5 51t17 66zM934 907q-28 23 -58 33t-62 10q-49 0 -96 -20.5t-83.5 -51t-59 -65t-22.5 -62.5q0 -82 98 -149q60 22 114 56t95.5 71.5t66 74.5
t24.5 66q0 22 -17 37zM909 1089q64 -18 108.5 -40t72 -47.5t39.5 -53t12 -55.5q0 -42 -22 -84.5t-56 -83t-76 -76.5t-83 -64t-76 -46.5t-54 -23.5q102 -84 102 -217q0 -72 -31.5 -131t-86 -102t-129.5 -66.5t-162 -23.5q-65 0 -121 16.5t-97 46.5t-65 71.5t-24 90.5
q0 88 69 162q33 35 258 178q-57 52 -85.5 108t-28.5 113q0 44 15.5 86.5t43 80.5t66 70.5t85 56t99 37t108.5 13.5q61 0 119 -16z" />
    <glyph glyph-name="nine" unicode="9" horiz-adv-x="1037" 
d="M889 601q0 4 0.5 7.5t0.5 8.5q0 51 -34 83.5t-92 32.5q-38 0 -77 -17.5t-75.5 -46.5t-69 -67.5t-56.5 -80t-38 -84t-14 -80.5q0 -55 26 -79.5t69 -24.5q29 0 64 8.5t72.5 24t76 37t74.5 48.5q63 128 73 230zM1072 581q-10 -92 -60 -212t-144 -250t-234 -262.5
t-331 -249.5q-8 -8 -17 -9t-17 -1q-31 0 -55 23t-24 54q0 17 10 37t35 35q100 60 176.5 120t132 114t93 100t61.5 78q-60 -26 -124 -40.5t-124 -14.5q-43 0 -80.5 12.5t-65.5 39t-44 68t-16 100.5q0 76 22 148.5t61 137.5t92.5 119t115.5 93.5t130.5 61.5t137.5 22
q63 0 113 -21t85 -58t54 -88.5t19 -112.5q0 -11 -0.5 -22t-1.5 -22z" />
    <glyph glyph-name="colon" unicode=":" horiz-adv-x="815" 
d="M579 139q-6 -31 -21.5 -59t-38 -49.5t-50 -34t-57.5 -12.5q-44 0 -70 28t-26 70q0 33 15 64t39 55t55 38.5t64 14.5q45 0 68.5 -24.5t23.5 -65.5q0 -6 -0.5 -12.5t-1.5 -12.5zM811 573q-5 -29 -21 -56t-39 -47t-51.5 -32t-58.5 -12q-44 0 -70 26t-26 68q0 33 15.5 64
t40 55t56 38.5t64.5 14.5q43 0 67.5 -25t24.5 -68q0 -6 -0.5 -12.5t-1.5 -13.5z" />
    <glyph glyph-name="semicolon" unicode=";" horiz-adv-x="711" 
d="M579 233l-403 -512h-103l256 512h250zM705 573q-4 -29 -18.5 -56t-36 -47t-49 -32t-57.5 -12q-45 0 -71.5 28t-26.5 71q0 33 13 62.5t35.5 52t51.5 35.5t61 13q45 0 72 -25.5t27 -72.5v-8t-1 -9z" />
    <glyph glyph-name="less" unicode="&#x3c;" horiz-adv-x="1329" 
d="M1124 184q-186 106 -371.5 212.5t-371.5 213.5q-33 18 -33 55q0 29 21 56t65 45q260 106 517.5 212.5t517.5 213.5q13 5 22 5q19 0 29.5 -13.5t10.5 -34.5q0 -16 -7 -34.5t-22 -37t-38.5 -36.5t-57.5 -33q-203 -81 -403.5 -160t-402.5 -160q147 -81 293 -161.5
t293 -161.5q29 -17 41.5 -36t12.5 -39q0 -21 -9.5 -41t-24 -35.5t-31.5 -25t-32 -9.5q-13 0 -19 5z" />
    <glyph glyph-name="equal" unicode="=" horiz-adv-x="1510" 
d="M1337 494h-836q-26 0 -34.5 19t-1 41.5t32 41.5t64.5 19h835q28 0 37 -19t0.5 -41.5t-33.5 -41.5t-64 -19zM1526 870h-836q-31 0 -47.5 19t-12 41.5t33 41.5t86.5 19h836q34 0 43 -19t-1.5 -41.5t-37.5 -41.5t-64 -19z" />
    <glyph glyph-name="greater" unicode="&#x3e;" horiz-adv-x="1355" 
d="M1298 610q-257 -107 -511 -213t-510 -213q-9 -3 -18 -3q-24 0 -40.5 16.5t-16.5 42.5q0 30 29 65t101 60q201 81 399 161.5t399 161.5q-150 81 -298 162t-297 162q-24 13 -34.5 32.5t-10.5 42.5q0 19 6.5 38.5t17.5 35t26 25t33 9.5q9 0 18 -3l756 -426q22 -13 34 -29
t12 -32q0 -24 -23 -48t-72 -47z" />
    <glyph glyph-name="question" unicode="?" horiz-adv-x="903" 
d="M481 139q-8 -31 -26 -59t-42 -49.5t-53 -34t-58 -12.5q-42 0 -65 24.5t-23 62.5q0 34 16.5 67t43 59t60 41.5t66.5 15.5q42 0 63.5 -23t21.5 -58q0 -18 -4 -34zM733 640q-41 -29 -77.5 -61t-66.5 -65t-51.5 -64.5t-33.5 -59.5q-8 -17 -30 -25t-40 -8q-20 0 -35 9.5
t-15 27.5q0 3 2 11q20 75 85 150t156 144q39 25 83 56t82.5 64t66.5 64.5t35 58.5q5 22 5 36q0 31 -17 45t-46 14t-68.5 -12.5t-81 -36t-81 -56t-69.5 -72.5q-22 -29 -54 -29q-13 0 -26 3.5t-23 10t-16.5 16t-6.5 20.5q0 14 7.5 27.5t20.5 29.5q49 60 109 106.5t123 78.5
t125 48.5t116 16.5q38 0 70 -9t55 -27t36 -45.5t13 -65.5q0 -60 -19.5 -107.5t-62 -92.5t-109.5 -93t-161 -108z" />
    <glyph glyph-name="at" unicode="@" horiz-adv-x="1856" 
d="M1274 1008q-84 0 -171.5 -31.5t-164.5 -88.5t-137 -137.5t-90 -177.5q-76 -243 149 -243q86 0 167.5 37.5t156 117.5t140 204t119.5 298l-15 3q-16 4 -40.5 7.5t-55 7t-58.5 3.5zM825 -155q-220 0 -360 59t-210 159.5t-77 233.5t39 281q44 142 115 262t160 217.5
t193.5 172t214.5 125t222.5 76t219.5 25.5q108 0 204.5 -18.5t174.5 -57t135 -96t86.5 -135t28.5 -176t-38 -217.5q-33 -107 -79.5 -190t-101.5 -145t-113.5 -104.5t-115.5 -68.5t-109.5 -37.5t-94.5 -11.5q-35 0 -51.5 9.5t-22 25.5t-1.5 37t12 45l72 232
q-30 -59 -80 -120.5t-116.5 -112.5t-149.5 -83.5t-179 -32.5q-86 0 -145 27.5t-90 78.5t-33 123t26 162q20 65 59.5 130t94 125t121.5 111.5t141.5 89.5t155.5 60t162 22q16 0 44.5 -2t60.5 -5.5t64 -8t54 -8.5q29 -5 42 -16t18.5 -26.5t7 -34.5t5.5 -40l-208 -670
q61 0 116 24.5t104 78t91.5 137t79.5 201.5q35 111 35 195.5t-26.5 146.5t-76 103.5t-113 67t-137.5 36t-151 10.5q-151 0 -294.5 -50t-266.5 -145t-218.5 -232.5t-149.5 -311.5q-43 -138 -33 -248.5t72.5 -187t178 -117.5t284.5 -41q87 0 161 11t133 27.5t104 35.5
q46 20 75 36t45 28l15 12l63 -92q-55 -45 -126.5 -81.5t-155 -62t-176.5 -39.5t-191 -14z" />
    <glyph glyph-name="A" unicode="A" horiz-adv-x="1323" 
d="M1076 285q-5 -19 -10.5 -43.5t-5.5 -46.5q0 -20 6 -34t26 -14q27 0 64.5 19.5t80.5 52t89 75t91 88t86 91.5t73 86l37 -133q-66 -88 -136 -169t-142.5 -143t-145.5 -99t-145 -37q-42 0 -71.5 13.5t-47.5 37t-26.5 54t-8.5 64.5q0 13 1 37t2.5 49.5t3 46.5t1.5 27
l-355 -22l-165 -2q-42 -91 -83 -161q-18 -30 -38 -59t-40 -51.5t-40 -36t-39 -13.5q-30 0 -49 9t-30 22.5t-15.5 30.5t-4.5 32q0 26 7 51.5t20 48.5l132 222q9 14 36.5 67t71 130.5t100.5 171.5t123.5 190.5t141 187.5t153 161.5t158.5 113t159 42.5q74 0 145.5 -46
t136.5 -151q7 -14 7 -24q0 -13 -7 -26t-18.5 -23t-25.5 -16t-29 -6q-18 0 -41.5 8t-44.5 34q-31 36 -64.5 52.5t-66.5 16.5q-47 0 -96 -26.5t-98.5 -72t-98.5 -105t-95 -125.5t-89 -135t-81 -132t-69.5 -116t-55.5 -89h183l309 23q9 20 24 54.5t33.5 77.5t40.5 93
t44.5 100.5t44.5 100t41 91.5q13 38 38.5 54t54.5 16q15 0 30 -4.5t27.5 -14t20.5 -24t9 -34.5q0 -19 -16.5 -65t-42 -108t-57 -134.5t-62 -145t-56.5 -139t-40 -116.5z" />
    <glyph glyph-name="B" unicode="B" horiz-adv-x="1293" 
d="M874 924q89 36 156 74t112 75.5t68 72.5t23 64q0 10 -10 23t-30.5 24t-51.5 18.5t-72 7.5q-110 0 -204 -26.5t-171 -64.5t-136 -79.5t-99 -72.5q-25 -19 -43.5 -37.5t-36 -33t-37.5 -23.5t-48 -9q-42 0 -65.5 20t-23.5 56q0 43 34 91.5t94 96.5t141 91.5t174.5 76.5
t195 53t203.5 20q105 0 181 -17t124.5 -47t72 -71t23.5 -89t-32 -100t-91.5 -104t-145 -99.5t-192.5 -86.5q106 -35 172.5 -73.5t104 -80t50.5 -86t13 -91.5q0 -69 -38 -136t-105.5 -126.5t-160 -110t-201.5 -87t-230 -57t-245 -20.5q-44 0 -89 5t-82.5 18t-61 35t-23.5 57
q0 4 0.5 7.5t1.5 8.5q4 8 9 19.5t23 22.5t56.5 18.5t110.5 7.5q125 229 206.5 394.5t136.5 272.5t92.5 158t73.5 51q16 0 31 -5t26.5 -13.5t18.5 -21t7 -27.5q-8 -10 -9 -20.5t-1 -23.5zM819 733q-45 -102 -84.5 -183t-74.5 -148.5t-66.5 -126t-61.5 -114.5
q116 10 216.5 40.5t175 75.5t117 101t42.5 118q0 28 -12.5 59t-42.5 62t-81 61t-128 55z" />
    <glyph glyph-name="C" unicode="C" horiz-adv-x="1039" 
d="M1364 1263q0 -27 -8.5 -65t-24.5 -79t-38.5 -81.5t-51.5 -73t-63 -52.5t-73 -20q-9 0 -23.5 1.5t-29 7t-25 16.5t-10.5 29q0 12 6.5 28t23.5 37q18 20 39 47.5t38 57.5t28.5 59t11.5 52q0 29 -13.5 46.5t-46.5 17.5q-43 0 -97 -28t-113 -77t-120 -114.5t-118 -140
t-107.5 -155t-88 -159t-59 -151t-21.5 -131.5q0 -73 39 -117t129 -44q42 0 125 32.5t138.5 65t112 72t107.5 76t93 66t69 41.5q5 4 12 4q15 0 20.5 -24.5t5.5 -55.5q0 -17 -4.5 -41.5t-28.5 -56.5q-11 -13 -41 -44t-75 -70t-103 -81t-125.5 -77t-174 -69t-185.5 -34
q-93 0 -159 22.5t-108 62.5t-61.5 95.5t-19.5 121.5q0 82 25 176t69.5 191t106 194t135 185.5t156.5 164.5t170 132t175 88t173 32q42 0 80 -9.5t66.5 -30.5t45 -55.5t16.5 -84.5z" />
    <glyph glyph-name="D" unicode="D" horiz-adv-x="1397" 
d="M928 901q-17 -31 -44.5 -82t-63 -114t-77 -135.5t-86 -145.5t-91 -143.5t-90.5 -130.5q108 11 208 55t187.5 109.5t160 147t124 169t80 175.5t28.5 166q0 66 -16.5 122t-50 97t-85.5 64t-122 23q-65 0 -130.5 -12.5t-125.5 -33.5t-110.5 -49.5t-86.5 -61.5
q-40 -44 -70.5 -88t-60 -79t-63.5 -57t-80 -22q-86 0 -86 76q0 48 31 103.5t86.5 110t132 105t168.5 89t196 61.5t214 23q128 0 223 -38t157.5 -104.5t93 -156.5t30.5 -194t-35.5 -218t-104 -224t-169 -209t-231 -174t-289 -119t-342.5 -44q-40 0 -63 25.5t-23 62.5
q0 29 10 56t26 50l411 817q29 45 57.5 72t53 42t43.5 19.5t29 4.5q45 0 64 -26t19 -62q0 -29 -10 -61t-27 -61z" />
    <glyph glyph-name="E" unicode="E" horiz-adv-x="1155" 
d="M1078 825q16 0 31 -4t27 -11t19 -16.5t7 -19.5q0 -16 -20 -32.5t-69 -30.5t-130.5 -23t-205.5 -9q-67 0 -133 -18.5t-118 -54.5t-84.5 -88t-32.5 -119q0 -54 15.5 -103t47 -86t79 -59t112.5 -22q131 0 218 15.5t145.5 39t96 50.5t70 50.5t67 39t86.5 15.5q42 0 66 -20.5
t24 -58.5q0 -26 -27.5 -58t-78 -65.5t-121.5 -64.5t-158 -55.5t-187 -39.5t-208 -15q-99 0 -186 26.5t-152 79.5t-102.5 132.5t-37.5 186.5q0 92 42 167.5t114.5 132.5t169 94t205.5 51q-84 63 -118 123.5t-34 119.5q0 58 29 107.5t79.5 90.5t117.5 72.5t144 53t159.5 33
t162.5 11.5q82 0 155.5 -17t131.5 -53t95 -91t45 -130q0 -21 -10 -43t-30.5 -40.5t-50 -30t-68.5 -11.5q-21 0 -33.5 5t-19 14t-8 21.5t-1.5 27.5q0 47 -11 81t-36.5 55.5t-66.5 32t-102 10.5q-73 0 -152 -15.5t-145 -45t-108.5 -70.5t-42.5 -92q0 -60 27.5 -103t73 -70.5
t104.5 -40t122 -12.5z" />
    <glyph glyph-name="F" unicode="F" horiz-adv-x="855" 
d="M1182 826q-12 -29 -23 -46t-24 -26.5t-29.5 -12.5t-38.5 -3q-94 8 -161.5 12t-119.5 4q-51 0 -89.5 -4t-75.5 -14q-15 -24 -45 -76t-66.5 -118.5t-74.5 -141.5t-70 -144q-69 -150 -123.5 -224t-92.5 -74q-46 0 -66.5 16.5t-20.5 48.5q0 38 27.5 106.5t76.5 166.5
q18 36 39.5 77t43.5 82t43 80t38 70.5t28.5 53.5t14.5 29q3 8 4.5 11t2 4.5t0.5 2t1 4.5h-18q-38 0 -61 6t-23 26q0 11 9 28q21 39 47 59.5t50.5 29.5t45 9.5t31.5 0.5l54 110l54 110q51 101 103.5 169t114.5 109t137 58.5t171 17.5q88 0 140.5 -5t73.5 -10
q40 -11 56.5 -37.5t16.5 -58.5q0 -25 -8.5 -50t-23 -45.5t-33 -33.5t-37.5 -13q-11 0 -19 4q-22 10 -39.5 17.5t-35.5 12t-40.5 6.5t-55.5 2q-34 0 -80.5 -1.5t-113.5 -4.5q-27 -47 -50.5 -87.5t-46 -80t-46 -80t-51.5 -88.5q37 13 80.5 23.5t89 17.5t91.5 11t88 4
q76 0 109.5 -12t33.5 -49q0 -8 -1 -23.5t-12 -35.5z" />
    <glyph glyph-name="G" unicode="G" horiz-adv-x="1336" 
d="M1245 435q-4 -5 -14.5 -31.5t-25.5 -66.5t-32.5 -89.5t-36 -101t-35.5 -101t-30.5 -89.5t-22.5 -67t-11 -32q-5 -16 -16 -35.5t-26 -37t-33 -29t-37 -11.5q-32 0 -46.5 18t-14.5 66v14t1 15q1 16 15 60t33.5 99.5t42 115t40.5 106.5q-53 -50 -115 -99.5t-127 -89
t-131 -64.5t-127 -25q-70 0 -120.5 26t-83.5 68t-49 95t-16 106v13t1 12q6 96 32.5 197t69.5 201t99.5 195.5t123 180.5t141.5 156.5t154 123t159.5 80.5t159.5 29q91 0 176 -42t159 -136q17 -21 21.5 -42.5t4.5 -40.5q0 -45 -25.5 -71t-60.5 -26q-32 0 -59.5 28.5
t-61.5 81.5q-32 48 -70.5 69.5t-83.5 21.5q-70 0 -149.5 -49t-157.5 -129.5t-149.5 -184t-126.5 -212t-87.5 -214t-32.5 -189.5q0 -28 4.5 -57.5t17 -53.5t34 -39.5t54.5 -15.5q37 0 84 21t97.5 55t101.5 77t95 87t78 84.5t51 70.5l93 235q17 38 44.5 54t56.5 16q14 0 28 -4
t25 -12.5t17.5 -22t6.5 -31.5q0 -48 -10 -90t-25.5 -82t-34.5 -80.5t-37 -84.5z" />
    <glyph glyph-name="H" unicode="H" horiz-adv-x="1467" 
d="M1401 405q-5 0 -8.5 -0.5t-7.5 -0.5q-49 -110 -86.5 -193t-57.5 -120q-17 -31 -38.5 -54t-45.5 -38.5t-48.5 -23t-45.5 -7.5q-31 0 -52 15t-21 45q0 26 16 61l144 305q-109 -4 -209.5 -7t-193.5 -5q-47 -96 -101 -180.5t-114 -147.5t-125 -99.5t-135 -36.5q-54 0 -100 28
q-14 6 -30.5 22.5t-30.5 39.5t-23.5 50t-9.5 55q0 20 7 38.5t20 35.5q6 7 14 18t19 21.5t23.5 17.5t27.5 7q6 0 12 -1.5t11 -5.5q10 -6 19.5 -27t21 -43.5t25.5 -40.5t33 -18q27 0 54.5 20.5t56 57t57.5 87.5t58 111q-32 10 -45 28.5t-13 38.5q0 12 9 24t25 21.5t37.5 16.5
t47.5 8q36 88 69 183t63 186t55 174.5t44 149.5t31 109t15 54q8 31 30.5 45t48.5 14q39 0 59.5 -25.5t20.5 -92.5v-16.5t-1 -18.5q-2 -26 -10 -70.5t-21 -102.5t-32 -127.5t-42.5 -145t-52 -155.5t-61.5 -159h68t83.5 -0.5t105.5 -2t135 -3.5q1 0 2 -0.5t2 -0.5
q88 185 167 348.5t145 286t117 193.5t84 71q35 0 52.5 -16.5t17.5 -44.5q0 -15 -3.5 -26.5t-9.5 -25.5q-26 -63 -66 -155t-87 -198.5t-97.5 -221t-97.5 -221.5q30 -6 49.5 -16.5t19.5 -27.5q0 -22 -23 -41.5t-77 -22.5z" />
    <glyph glyph-name="I" unicode="I" horiz-adv-x="1075" 
d="M778 8q-66 7 -117.5 9.5t-96.5 2.5q-30 0 -58.5 -1t-57 -1.5t-59 -1.5t-64.5 -1q-33 0 -51 19t-18 47q0 11 3 23q3 10 23.5 21.5t54 22t78.5 18.5t96 12q52 113 108.5 228.5t113.5 225t111 209.5t101 182.5t84.5 143.5t61.5 93q-51 -11 -99 -23.5t-108 -24.5
q-12 -4 -24 -4q-29 0 -45 20.5t-16 49.5q0 13 23.5 30.5t65 36t98 36t123 31.5t140 22.5t148.5 8.5q70 0 109.5 -14.5t39.5 -49.5q0 -17 -10 -34.5t-26.5 -31.5t-39.5 -22.5t-48 -8.5q-14 0 -26 1.5t-26 1.5q-37 0 -69 -1.5t-61 -3.5q2 -10 2 -15q0 -14 -5 -26.5t-10 -23.5
q-31 -65 -75 -156.5t-94 -194.5t-101.5 -209t-97.5 -200t-83 -167.5t-56 -111.5q56 -5 103 -13.5t80.5 -21t52.5 -29.5t19 -38q0 -15 -10 -29.5t-26 -26t-36 -18t-41 -6.5q-23 0 -43.5 6t-40.5 8z" />
    <glyph glyph-name="J" unicode="J" horiz-adv-x="1257" 
d="M1264 636q-62 -137 -134.5 -260.5t-155 -216.5t-172.5 -147.5t-186 -54.5q-56 0 -113 18t-116.5 56.5t-120 99t-122.5 146.5q-15 17 -21 34t-6 37q0 15 9.5 37t27.5 42.5t44 35t59 14.5q20 0 37 -7t31 -24q80 -160 158.5 -234t155.5 -74q56 0 111.5 36.5t110.5 106
t110.5 169.5t111.5 227l287 595q-107 1 -176.5 1h-95.5q-18 0 -32.5 8t-25 20t-16.5 27t-6 29q0 28 22 45.5t70 17.5q9 0 18.5 -0.5t18.5 -0.5q74 0 148.5 4t148 8.5t147 8.5t145.5 4q57 0 93.5 -3.5t57.5 -10t29 -16.5t8 -22q0 -16 -7.5 -33t-28.5 -31.5t-59.5 -23.5
t-100.5 -9q-29 0 -63.5 -2.5t-75.5 -7.5z" />
    <glyph glyph-name="K" unicode="K" horiz-adv-x="1596" 
d="M288 -54q-14 6 -29.5 22t-29.5 38t-23 48.5t-9 53.5q0 40 28 79q6 7 14.5 18t20 21.5t24.5 17.5t27 7q6 0 12 -1.5t11 -5.5q10 -6 19 -27t20 -43.5t25 -40.5t32 -18q34 0 72 33.5t77 91.5t79 135.5t78.5 165.5t74.5 182t68.5 184t60 172t48 146.5t33.5 106.5t16 53
q9 31 31.5 45t48.5 14q38 0 58 -23.5t20 -85.5q0 -10 -0.5 -21t-1.5 -23q-3 -29 -13.5 -80.5t-28.5 -118.5t-43 -147t-56 -166q143 122 253.5 213t194 156.5t142.5 108t99.5 67t64.5 34.5t38 10q15 0 26 -8t18.5 -19t11 -22.5t3.5 -18.5q0 -17 -8.5 -32.5t-25.5 -26.5
q-70 -49 -147 -108t-154.5 -121.5t-152.5 -125.5t-141.5 -119t-121 -101t-91.5 -73q53 -71 102.5 -135t95 -124.5t88 -118.5t80.5 -117q13 -20 18.5 -39.5t5.5 -35.5q0 -27 -12 -47t-28.5 -33t-34 -19.5t-29.5 -6.5q-33 0 -62.5 23.5t-50.5 59.5q-31 41 -51.5 70t-37.5 54.5
t-33.5 52.5t-41 65.5t-60.5 92.5t-90 134q-53 -110 -113.5 -210t-127.5 -176t-140 -120.5t-150 -44.5q-27 0 -52.5 7t-48.5 21z" />
    <glyph glyph-name="L" unicode="L" horiz-adv-x="1297" 
d="M326 209q0 -13 14 -26.5t43.5 -25.5t76 -19.5t111.5 -8.5q-30 16 -60.5 33.5t-58.5 32t-51 24t-39 9.5q-36 0 -36 -19zM1215 1322q15 30 36 53t45 38t49 22.5t47 7.5q32 0 54 -16.5t22 -48.5q0 -25 -13 -54q-56 -120 -114 -241.5t-116.5 -237.5t-114.5 -223.5
t-108 -199.5t-97.5 -165t-82.5 -121q87 6 159 16t139 23t134.5 28.5t145.5 31.5q5 2 11 3t11 1q31 0 49 -24.5t18 -55.5q0 -19 -36 -40.5t-98.5 -42.5t-147 -40.5t-182.5 -34t-205 -23t-213 -8.5q-123 0 -212 17t-146.5 47t-85 71t-27.5 89q0 47 17.5 79.5t48 52.5t72 29
t89.5 9q39 0 81 -14t82.5 -36.5t77 -50t63.5 -55.5q23 60 55.5 134t70.5 155.5t80 167t84 168.5t82 160t74 141t60.5 113t41.5 75z" />
    <glyph glyph-name="M" unicode="M" horiz-adv-x="1821" 
d="M1485 71q9 86 22 199t28 236.5t30.5 248.5t30.5 234q-53 -102 -107 -205t-102.5 -195.5t-89 -167.5t-65.5 -121q-23 -31 -46 -59t-45.5 -49t-44.5 -33.5t-43 -12.5q-28 0 -44.5 12t-16.5 36q0 5 0.5 9.5t2.5 9.5q-6 142 -9 286.5t-3 284.5v66t1 65q-40 -90 -87 -187
t-98 -191.5t-105 -182t-108 -159t-106.5 -122t-100.5 -70.5q-42 -17 -73 -24.5t-55 -7.5q-36 0 -53.5 14.5t-17.5 35.5q0 25 21 52t59 42q46 18 100.5 79.5t112.5 149.5t117 196t114.5 219t104.5 217.5t87 192.5t62.5 143.5t30.5 71.5q14 31 39 45t51 14q36 0 50 -19.5
t14 -69.5q8 -63 13.5 -118.5t9.5 -114t5.5 -126t1.5 -155.5q0 -63 -2.5 -139t-2.5 -170q120 218 212.5 384.5t161 279t115.5 170t75 57.5h7q3 0 6 0.5t6 0.5q24 0 38 -30t14 -78q-4 -49 -12 -122t-18.5 -160.5t-22.5 -184.5t-24 -192.5t-22.5 -185.5t-17.5 -163
q-2 -13 -2 -26.5v-27.5q0 -26 1 -52.5t1 -52.5q0 -30 -3 -60.5t-16.5 -55t-42.5 -40t-80 -15.5q-27 0 -43 20.5t-16 73.5z" />
    <glyph glyph-name="N" unicode="N" horiz-adv-x="1527" 
d="M1065 1347q16 -69 32 -151t31.5 -170.5t31 -180t31 -180t30 -171t29.5 -152.5q101 199 194.5 377t174.5 319.5t147 241t114 142.5q21 20 44 28t45 8q32 0 54.5 -16t22.5 -41q0 -15 -5 -25t-16 -22q-41 -47 -77 -86.5t-70.5 -83t-69 -97.5t-71.5 -129q-45 -83 -90 -170.5
t-87 -174t-80.5 -167.5t-70.5 -149.5t-58 -122t-43 -83.5q-29 -62 -66.5 -92t-68.5 -31h-7q-20 1 -39 8t-35 21t-27.5 35.5t-15.5 50.5q-16 63 -28.5 123.5t-23.5 124t-22.5 133t-24.5 151.5t-29.5 179t-38.5 215q-30 -100 -73 -219.5t-95 -241t-112 -235t-126 -201.5
t-135.5 -141t-139.5 -53q-12 0 -28 5.5t-30.5 16t-24.5 25.5t-10 33q0 14 5.5 25.5t15.5 27.5q13 21 41 36.5t64.5 34.5t79.5 44.5t86 67.5q24 23 57 82.5t71.5 141t80 179t81.5 196.5t76 193.5t64.5 170t46.5 126t22 61.5q10 30 32.5 44t48.5 15q-1 0 -2 -1q3 0 6.5 0.5
t6.5 0.5q22 0 43.5 -21.5t30.5 -74.5z" />
    <glyph glyph-name="O" unicode="O" horiz-adv-x="1341" 
d="M235 459q0 146 43.5 275.5t117 239t170 196.5t202 147.5t214 93t206.5 32.5q87 0 165.5 -20t140 -61t102.5 -103.5t55 -146.5q1 -5 1 -9v-9q0 -39 -22.5 -59.5t-48.5 -20.5q-29 0 -54 31t-48 88q-37 70 -107 102t-158 32q-77 0 -161.5 -28t-167 -79t-157.5 -122.5
t-132 -158t-90.5 -186.5t-33.5 -207q0 -89 22 -150t58 -99t81 -55t91 -17q103 0 196.5 56t164.5 160.5t113 255t42 339.5q0 19 -0.5 37.5t-0.5 38.5q0 50 18 73.5t41 23.5q39 0 63.5 -21.5t38.5 -57t19.5 -81t5.5 -93.5q0 -136 -29 -256.5t-80.5 -223t-122 -184t-152.5 -138
t-172.5 -87t-182.5 -30.5q-85 0 -166 24.5t-144.5 81t-102 149t-38.5 227.5z" />
    <glyph glyph-name="P" unicode="P" horiz-adv-x="1191" 
d="M763 537q-19 -42 -42 -101t-50 -123t-57.5 -127t-64 -112.5t-69 -80.5t-72.5 -31q-31 0 -51 9.5t-31 24t-15.5 32t-4.5 33.5q0 24 7.5 49t18.5 46l383 705q25 44 47.5 69t42 37t34.5 14.5t25 2.5q18 0 33 -12.5t15 -45.5q0 -32 -17 -88t-63 -144q78 6 154 26.5
t136.5 56.5t97.5 87.5t37 119.5q0 60 -19.5 114.5t-57 96t-92.5 66t-127 24.5q-98 0 -168.5 -18.5t-121 -48.5t-84.5 -69t-58.5 -79t-43.5 -79t-39.5 -69t-46.5 -48.5t-64 -18.5q-49 0 -72.5 25t-23.5 71t25 100.5t71 109.5t111.5 105.5t147.5 89.5t178.5 62.5t203.5 23.5
q100 0 192.5 -28.5t163.5 -85.5t113.5 -142.5t42.5 -200.5q0 -105 -50.5 -189.5t-136 -143t-197.5 -90t-236 -31.5q-26 0 -52.5 1t-52.5 5z" />
    <glyph glyph-name="Q" unicode="Q" horiz-adv-x="1315" 
d="M210 459q0 146 43.5 275.5t117 239t170 196.5t202 147.5t214 93t206.5 32.5q87 0 165.5 -20t140 -61t102.5 -103.5t55 -146.5q1 -5 1 -9v-9q0 -39 -22.5 -59.5t-48.5 -20.5q-29 0 -54 31t-48 88q-37 70 -107 102t-158 32q-77 0 -161.5 -28t-167 -79t-157.5 -122.5
t-132 -158t-90.5 -186.5t-33.5 -207q0 -89 22 -150t58 -99t81 -55t91 -17h5q-3 11 -4.5 22.5t-1.5 21.5q0 22 7.5 38.5t20 28t29 17.5t33.5 6q31 0 59.5 -19.5t41.5 -59.5q90 60 152.5 137.5t100.5 177.5t55 225.5t17 281.5q0 55 24 81t55 26q33 0 53.5 -21.5t32.5 -57
t16.5 -81t4.5 -93.5q0 -156 -38 -292t-104 -246t-154 -192t-188 -129q17 -80 44.5 -134t61.5 -87t72.5 -47t79.5 -14q34 0 69 7.5t65.5 19.5t55 26.5t38.5 28.5q6 3 10.5 5.5t10.5 2.5q16 0 28.5 -15t12.5 -38q0 -20 -11 -42.5t-37 -46.5q-58 -66 -124 -98t-134 -32
q-62 0 -122 26t-113.5 77.5t-98.5 128.5t-77 179q-22 -3 -43 -5t-43 -2q-85 0 -166 24.5t-144.5 81t-102 149t-38.5 227.5z" />
    <glyph glyph-name="R" unicode="R" horiz-adv-x="1219" 
d="M707 651q6 -1 12.5 -1h13.5q87 0 164.5 37.5t135.5 95.5t91.5 129t33.5 138q0 48 -17.5 91t-55 75t-96 51t-139.5 19q-91 0 -156.5 -17t-113 -44t-80 -62t-56 -72t-42.5 -72t-39.5 -62t-45.5 -44t-62 -17q-50 0 -75 25.5t-25 71.5q0 43 23.5 93t67 100t106.5 96.5
t141.5 82t171.5 57t197 21.5q102 0 195.5 -26t165.5 -77.5t114.5 -129.5t42.5 -182q0 -70 -25.5 -133.5t-68.5 -119t-100.5 -102t-122.5 -82.5t-133.5 -61t-132.5 -36q9 -47 29.5 -105.5t50 -111t65.5 -89.5t76 -40q8 -1 15 -1h14q73 0 130 24t95 53q45 33 78 77
q31 35 63 35q20 0 34 -14t14 -38q0 -23 -14.5 -53.5t-49.5 -63.5q-103 -97 -201.5 -141.5t-186.5 -44.5q-72 0 -133 41t-111 111t-91 163.5t-73 197.5q-18 -41 -37 -96.5t-41 -114.5t-46 -116.5t-53 -103t-62 -73.5t-72 -28q-32 0 -52 10t-31 25t-15.5 33t-4.5 34q0 23 6 47
t17 45l295 540q38 68 76.5 131.5t75 112.5t69 78.5t58.5 29.5q7 0 17 -2.5t18 -9t14 -19t6 -31.5t-11 -53t-29 -78t-42 -96.5t-50 -107.5z" />
    <glyph glyph-name="S" unicode="S" horiz-adv-x="1196" 
d="M535 557q29 0 42.5 -23.5t13.5 -53.5q0 -15 -3 -26t-12 -20.5t-24 -18t-39 -18.5q-56 -24 -88 -57.5t-32 -66.5q0 -21 14 -40t44 -33.5t77.5 -23t114.5 -8.5q69 0 131 16.5t108.5 46.5t74 71t27.5 89q0 36 -30 75t-95 81q-115 75 -174.5 121t-73.5 58q-75 66 -112 127
t-37 127q0 61 29.5 119t79.5 109t115.5 94.5t137 74.5t144 48.5t137.5 17.5q49 0 90.5 -11t72.5 -34.5t48.5 -60.5t17.5 -89q0 -75 -43 -143t-131 -127q-39 -27 -72 -27q-34 0 -54 24.5t-20 57.5q0 28 16.5 56t53.5 48q29 15 51.5 40.5t22.5 49.5q0 23 -15.5 30t-37.5 7
q-42 0 -91.5 -10.5t-99 -28.5t-96 -43t-82 -54t-57 -61.5t-21.5 -64.5q0 -22 9 -41t26.5 -38t42.5 -39.5t58 -44.5l234 -173q45 -33 80.5 -64.5t59.5 -63t37 -63.5t13 -68q0 -80 -41.5 -156.5t-118 -136.5t-184 -97t-238.5 -37q-122 0 -207.5 19.5t-140.5 53t-80 77
t-25 91.5q0 50 25.5 101.5t72 97.5t111.5 82t143 55z" />
    <glyph glyph-name="T" unicode="T" horiz-adv-x="1015" 
d="M529 47q-15 -30 -36 -53t-45 -38t-49 -22.5t-47 -7.5q-32 0 -54 16.5t-22 48.5q0 11 2.5 24.5t10.5 29.5q76 157 151.5 302t146 271t133.5 229.5t114.5 177t88 113.5t53.5 40q35 0 52 -20t17 -47q0 -22 -11 -44q-25 -51 -56.5 -115.5t-66.5 -137t-73 -150t-75 -154
t-72.5 -148t-66 -132.5t-55 -108.5t-40.5 -74.5zM1698 1217q0 -18 -13.5 -50.5t-38 -63.5t-59 -54t-76.5 -23q-10 0 -25 1.5t-29.5 7.5t-24.5 17t-10 29q0 9 9 25.5t19.5 35.5t19.5 37t9 30q0 34 -48 49.5t-161 15.5q-113 -4 -204 -13.5t-168 -24t-144 -33.5t-132 -40.5
t-131.5 -46t-141.5 -49.5q-7 -2 -13.5 -4t-11.5 -2q-16 0 -29 7t-22.5 19t-15 27t-5.5 31q0 26 42 58.5t115 65.5t172 64.5t213.5 56t239 39t248.5 14.5q107 0 185 -17t129 -47t76 -71.5t26 -90.5z" />
    <glyph glyph-name="U" unicode="U" horiz-adv-x="1195" 
d="M575 1355q26 52 58.5 70t63.5 18q17 0 32.5 -3.5t27.5 -12t19 -23t7 -35.5q0 -26 -11 -60t-36 -82q-100 -177 -168 -373t-109 -392q-4 -25 -5 -48t-1 -44q0 -59 15 -100t39.5 -66t54.5 -36t60 -11q113 0 217 81t185.5 229.5t133 357t59.5 464.5q1 27 10 47.5t23 33.5
t32.5 19.5t37.5 6.5q24 0 39.5 -17.5t24.5 -46.5t12.5 -67.5t3.5 -80.5q0 -177 -32.5 -335.5t-89.5 -293t-134.5 -242t-168.5 -183t-190.5 -116t-199.5 -40.5q-62 0 -124.5 26t-112.5 76t-81 122t-31 164q0 17 1 35.5t4 37.5q13 77 28.5 146.5t35.5 137t45 136.5t57.5 145.5
t74 163.5t93.5 191z" />
    <glyph glyph-name="V" unicode="V" horiz-adv-x="968" 
d="M1261 1219q-2 -20 -19.5 -64t-45 -104.5t-64.5 -133.5t-79 -151t-87 -158t-90 -154q-75 -124 -145.5 -226t-128.5 -171q8 -15 8 -30q0 -23 -19.5 -41t-51 -30t-71.5 -18.5t-82 -6.5q-32 0 -48.5 14.5t-16.5 37.5q0 28 13.5 46t32.5 26q-3 21 -10 63t-15 97t-17 119
t-17 129t-15 127.5t-10 113.5q-5 72 -8 136t-3 121q0 54 3 99.5t8 80.5q6 36 24.5 69.5t44 60t55.5 42t59 15.5q33 0 46.5 -27.5t13.5 -77.5q0 -32 -5 -72.5t-11 -76.5q-6 -38 -10 -62l-5 -23q-3 -18 -4 -42.5t-1 -55.5q0 -64 5 -147t13 -169.5t18.5 -168.5t21.5 -144
q69 90 140 202.5t131 234.5q51 101 100.5 207t100.5 207q92 169 168 169q32 0 53 -10t21 -39q0 -9 -1 -14z" />
    <glyph glyph-name="W" unicode="W" horiz-adv-x="1372" 
d="M1643 1191q-48 -268 -271 -704q-61 -124 -109 -218t-92 -157.5t-88.5 -95.5t-98.5 -32q-37 0 -63 18t-45 69.5t-32 144.5t-23 244l-223 -327q-30 -44 -56.5 -74.5t-52 -49t-52.5 -26.5t-57 -8q-43 0 -71.5 25t-28.5 73q0 71 0.5 156.5t4.5 191t12.5 233t24.5 283.5
q-35 -41 -59 -59t-39 -18q-13 0 -19 11t-6 30q0 33 17 84t49 109t79.5 115.5t109.5 102.5q12 8 27 8q18 0 34.5 -13t29 -34t20 -47t7.5 -51q0 -24 -3 -40q-5 -22 -9.5 -39t-9.5 -41t-11 -62.5t-14 -103.5q-10 -82 -15.5 -165t-9.5 -167.5t-7.5 -170.5t-7.5 -174
q22 27 51 69.5t60 90t61 95.5t54 87q25 38 39 62l14 25q37 94 75 185t75 181q36 88 76 136t87 48q38 0 61 -13.5t23 -34.5q0 -35 -17.5 -82.5t-40.5 -101.5t-45.5 -111t-33.5 -109q-5 -87 -8 -148t-3 -112q0 -63 1 -132t9 -132q40 58 83.5 125.5t86.5 139.5t83 147.5
t74 150.5t59 147.5t38 138.5l13 75q0 4 1 8t1 8q6 30 13 54t18.5 40.5t29 25.5t43.5 9q43 0 62.5 -9t19.5 -40q0 -10 -1.5 -20t-3.5 -24z" />
    <glyph glyph-name="X" unicode="X" horiz-adv-x="1087" 
d="M1198 1367q21 21 46 37.5t51 28t51 18t45 6.5q23 0 32.5 -8t9.5 -22q0 -21 -18.5 -53.5t-44 -67t-53 -66.5t-45.5 -52q-136 -152 -256.5 -285t-229.5 -248q23 -82 43 -143t39 -110.5t38 -91.5t42 -84.5t50 -90t62 -108.5q5 -9 5 -18q0 -12 -8.5 -21t-21 -15.5t-28 -10
t-29.5 -3.5q-39 0 -77 26.5t-80 88t-89.5 162.5t-106.5 250q-110 -115 -194.5 -199.5t-149 -144.5t-113 -98t-86 -59.5t-67.5 -29.5t-59 -8q-23 0 -40.5 13t-17.5 47q0 31 19.5 55t46.5 42.5t54.5 32t42.5 24.5q46 31 101.5 79.5t119.5 111.5t135 138.5t148 161.5
q-48 141 -79 252.5t-54 207.5q-15 62 -27 110.5t-12 77.5q0 27 19.5 61t48.5 64.5t62 51t60 20.5q31 0 54 -32.5t23 -112.5q0 -15 -1.5 -23.5t-4.5 -14.5t-7 -12t-9 -16q-1 -3 -1 -13q0 -38 25 -144t70 -275q0 -2 2 -8l60 71q57 58 104.5 115.5t93.5 114t95.5 112
t110.5 108.5z" />
    <glyph glyph-name="Y" unicode="Y" horiz-adv-x="969" 
d="M638 665q-60 70 -108 153t-69 179q-17 58 -23.5 108t-6.5 93q0 57 14.5 103t39 77.5t56.5 48.5t68 17q73 0 73 -77q0 -14 -5.5 -35.5t-11.5 -47.5t-11.5 -55t-5.5 -57q0 -59 13.5 -118t37 -113t53.5 -100.5t63 -80.5l74 48q59 38 117.5 79t105.5 87q37 44 65.5 86t49 79
t32.5 67t17 50q9 42 18 72t26 49t47.5 28t82.5 9q48 0 48 -68q0 -4 -4 -35t-23.5 -84t-60 -125t-113.5 -157q-47 -45 -99.5 -86t-109 -78.5t-114.5 -72.5t-115 -69l-44 -26l-202 -382q-29 -56 -41.5 -85.5t-14.5 -40.5q0 -53 -15.5 -91t-39 -63.5t-51.5 -37.5t-53 -12
q-37 0 -63.5 22t-26.5 65q0 16 1 26t7 26t19.5 43.5t38.5 80.5z" />
    <glyph glyph-name="Z" unicode="Z" horiz-adv-x="1646" 
d="M1496 1270q16 12 36 12q26 0 48 -19.5t22 -48.5q0 -17 -10.5 -36t-35.5 -37q-41 -30 -81.5 -66.5t-77.5 -71.5q-74 -76 -148.5 -161t-150 -175.5t-152.5 -183.5t-156 -186q38 -9 74.5 -29t73 -39.5t73 -34.5t74.5 -15q83 0 146.5 29t114.5 78t92 114t80 138
q13 18 29.5 25.5t33.5 7.5q19 0 37 -7.5t32 -18.5t23 -24t9 -24q0 -4 -4 -12q-39 -107 -102 -199.5t-143.5 -160.5t-176.5 -107t-201 -39q-23 0 -46.5 10.5t-49 26.5t-54 34.5t-61 34.5t-70 26.5t-80.5 10.5q-17 0 -38.5 -3.5t-42.5 -9.5t-39 -13.5t-28 -14.5
q-39 -27 -78 -54.5t-78 -54.5q-14 -9 -27 -9q-14 0 -27 8t-23 20.5t-16 28t-6 31.5q0 14 4.5 25.5t17.5 22.5q37 30 73 60.5t73 61.5q19 13 35.5 25t36 29.5t45 43.5t61.5 67t85.5 99.5t117 141t156 191.5t203.5 252q-20 -2 -39 -4t-39 -2q-47 0 -98.5 11.5t-104 25
t-104.5 25t-100 11.5q-32 0 -64.5 -16t-63 -35t-57.5 -35t-47 -16q-18 0 -29 11.5t-11 30.5q0 11 5 26t17 29q29 34 68 65t82.5 54.5t90.5 37.5t92 14q19 0 37 -3q93 -13 157 -28t111.5 -27.5t83.5 -20.5t73 -8q45 0 79.5 2t62.5 8t50.5 16.5t44.5 27.5z" />
    <glyph glyph-name="bracketleft" unicode="[" horiz-adv-x="966" 
d="M1448 1573q24 0 36 -13.5t12 -33.5q0 -15 -7.5 -31.5t-22 -30t-36.5 -22t-52 -8.5h-196q-192 -378 -380.5 -752t-380.5 -752h197q21 0 31 -11.5t10 -28.5q0 -15 -7.5 -31.5t-22 -31t-35 -23.5t-46.5 -9h-368q225 445 449.5 889t450.5 889h368z" />
    <glyph glyph-name="backslash" unicode="\" horiz-adv-x="892" 
d="M1244 1476q-237 -404 -473.5 -808t-473.5 -808q-14 -25 -34 -35t-42 -10q-29 0 -53 15t-24 39q0 5 1 11.5t4 10.5q235 407 467 809.5t467 809.5q14 23 35.5 33.5t45.5 10.5q38 0 59.5 -18t21.5 -45q0 -10 -1 -15z" />
    <glyph glyph-name="bracketright" unicode="]" horiz-adv-x="784" 
d="M1232 1573q-224 -445 -449 -889t-449 -889h-372q-26 0 -38 11t-12 28q0 15 9 32t25 31.5t39 23.5t51 9h196q379 754 758 1504h-197q-31 0 -45.5 13.5t-14.5 32.5q0 15 8.5 31.5t25 30t41 22.5t55.5 9h369z" />
    <glyph glyph-name="asciicircum" unicode="^" horiz-adv-x="1070" 
d="M1124 815q1 -3 1 -6.5v-6.5q0 -19 -10 -35.5t-25.5 -28.5t-34.5 -19t-37 -7q-22 0 -39 12t-21 38q-29 121 -57 241.5t-57 241.5q-57 -60 -107.5 -114t-100 -106.5t-100.5 -106.5t-108 -114q-41 -47 -80.5 -67t-68.5 -20q-20 0 -33 9t-13 25q0 10 6.5 23.5t20.5 29.5
q71 76 136 146t129.5 138.5t129.5 138t136 145.5h205q16 -76 32.5 -144t32 -134.5t31.5 -134.5t32 -144z" />
    <glyph glyph-name="underscore" unicode="_" horiz-adv-x="1024" 
d="M34 -143q-23 0 -33 8t-10 22q0 13 8.5 27.5t23.5 27.5t34.5 21.5t40.5 8.5h900q17 0 24.5 -8.5t7.5 -21.5t-7 -28t-20 -27.5t-30.5 -21t-38.5 -8.5h-900z" />
    <glyph glyph-name="grave" unicode="`" horiz-adv-x="1044" 
d="M631 942q2 -13 3 -24t1 -21q0 -37 -15 -54t-35 -17t-41.5 17t-35.5 51q-29 63 -59 125t-59 125q-12 27 -12 52q0 24 9 44.5t23.5 35t33 23t37.5 8.5q32 0 61.5 -26t43.5 -89q11 -63 22.5 -125t22.5 -125z" />
    <glyph glyph-name="a" unicode="a" horiz-adv-x="984" 
d="M500 546q-47 0 -91 -24t-78 -63t-54 -87.5t-20 -97.5q0 -20 2.5 -41.5t11.5 -39.5t25.5 -30t44.5 -12q22 0 51.5 19.5t61 50t61.5 67t54 71.5t39 63t15 41q0 19 -13 34.5t-32 26.5t-40.5 16.5t-37.5 5.5zM1193 288q-18 -17 -48 -47t-68.5 -65t-82 -70.5t-89 -64.5
t-89.5 -47.5t-83 -18.5q-35 0 -60 15t-41.5 39t-24.5 54.5t-8 62.5q0 21 3 41.5t10 38.5q-31 -42 -70.5 -86.5t-85 -81t-95 -60t-100.5 -23.5q-26 0 -60.5 10.5t-65.5 34.5t-52 62t-21 93q0 41 12.5 98t38 118.5t65 121.5t93.5 107.5t123 77t154 29.5q44 0 77 -11t56 -24
q26 -16 46 -35q17 9 35 17q15 7 31.5 12.5t28.5 5.5q38 0 62 -21t24 -46q0 -7 -1 -11q-5 -19 -15.5 -48t-23.5 -64.5t-26.5 -74t-24.5 -75.5t-18 -69.5t-7 -55.5q0 -30 10 -49.5t34 -19.5q15 0 35.5 9.5t44.5 25.5t49.5 36.5t49.5 41.5q56 50 119 114q16 13 31 13
q20 0 33.5 -19.5t13.5 -43.5q0 -28 -19 -47z" />
    <glyph glyph-name="b" unicode="b" horiz-adv-x="906" 
d="M607 561q-57 0 -114 -27.5t-102.5 -72.5t-74.5 -101.5t-29 -114.5q0 -16 3 -32.5t12.5 -30.5t27.5 -23t48 -9q58 0 112.5 27.5t97.5 72.5t69 101.5t26 113.5q0 15 -2.5 32t-10.5 31t-23 23.5t-40 9.5zM691 158q-85 -102 -180.5 -149.5t-206.5 -47.5q-61 0 -103 17.5
t-68 47.5t-37.5 70t-11.5 85q0 51 13 105.5t34 105.5q14 33 23 55t15 37.5t10.5 27t9.5 24t12 29t19 42.5l292 649q6 13 17.5 25t26.5 21.5t32.5 15t35.5 5.5q46 0 64.5 -18t18.5 -44q0 -20 -10 -43.5t-22 -43.5q-74 -142 -140 -288.5t-140 -289.5q32 25 68 48.5t75 42
t81 30t86 11.5q31 0 63 -12t58.5 -35t43 -56.5t16.5 -77.5q0 -10 -6 -40t-17.5 -67.5t-28 -77t-36.5 -69.5q7 -11 18 -13.5t25 -2.5q46 0 91.5 12t86 29.5t74.5 36.5t57 33q12 13 26 13q17 0 29.5 -15t12.5 -39q0 -23 -9.5 -45.5t-34.5 -49.5q-45 -27 -90.5 -51t-92.5 -41.5
t-95.5 -28t-98.5 -10.5q-32 0 -59 9t-47 28z" />
    <glyph glyph-name="c" unicode="c" horiz-adv-x="645" 
d="M669 635q0 -31 -7 -68.5t-23 -70.5t-41 -55t-62 -22q-20 0 -25.5 6t-5.5 21q0 9 0.5 26.5t0.5 33.5q0 18 -5 30.5t-25 12.5q-23 0 -51.5 -17.5t-57 -45.5t-55.5 -63.5t-48.5 -72t-34 -70.5t-12.5 -58q0 -35 24.5 -55t66.5 -20q45 0 96 15t101.5 38t97.5 50t85.5 51.5
t64.5 42t34 21.5q16 8 30 8q12 0 20.5 -5.5t13.5 -13t7 -16t2 -14.5q0 -9 -2 -21.5t-15 -28.5q-5 -6 -32.5 -30.5t-71 -57.5t-100 -70.5t-121 -68.5t-133.5 -51.5t-136 -20.5q-51 0 -90.5 16t-66.5 43.5t-41 64.5t-14 78q0 45 21 103.5t58 119.5t87 120t108.5 105t122 74
t128.5 28q22 0 41.5 -5t34 -15.5t23 -28.5t8.5 -43z" />
    <glyph glyph-name="d" unicode="d" horiz-adv-x="967" 
d="M714 203q-1 -2 -1 -5t-1 -5q0 -18 9 -37.5t29 -19.5q8 0 12 2q57 17 115.5 54t112.5 81t99.5 90t75.5 82q14 17 31 17q15 0 26.5 -14t11.5 -38q0 -19 -10.5 -45t-34.5 -56q-59 -65 -121 -125t-125 -106.5t-125.5 -74.5t-122.5 -28q-73 0 -115 41.5t-42 124.5v10.5t1 10.5
q-23 -42 -59 -76.5t-79 -59t-89 -38t-89 -13.5q-37 0 -68 10t-53.5 32t-35 56t-12.5 82q0 84 26 159.5t69 139t98.5 114t115 86t118.5 54.5t108 19q57 0 98 -19q20 -10 37 -27q4 9 8 17q10 24 18 41.5t11 25.5q3 9 17 42t32.5 77.5t40 95.5t39.5 96l31 77.5t16 41.5
q7 25 19 48.5t28.5 41t38.5 28t50 10.5q38 0 63 -16.5t25 -63.5q0 -19 -5 -39t-11.5 -39t-14 -37.5t-13.5 -34.5q-50 -100 -105 -217.5t-109 -236.5t-103 -232t-86 -204zM684 594q-60 -2 -126 -26q-76 -26 -139 -77.5t-106.5 -126.5t-49.5 -172q0 -40 34 -40q42 0 80 17.5
t72.5 47t64.5 67.5t55.5 79t46 81.5t35.5 75.5q5 11 14 31q8 19 19 43z" />
    <glyph glyph-name="e" unicode="e" horiz-adv-x="704" 
d="M518 590q-5 1 -9 1h-9q-38 0 -71 -15t-60.5 -39.5t-49 -55.5t-38.5 -61.5t-28.5 -58.5t-17.5 -47q35 18 72.5 41t70.5 44t57.5 38t34.5 23q45 28 62 52.5t17 42.5q0 15 -9.5 24t-21.5 11zM554 728q83 0 124 -40t41 -111q0 -42 -22 -88t-76 -93.5t-144.5 -97t-226.5 -99.5
q5 -29 31 -45.5t69 -16.5q46 0 98.5 13.5t104 34.5t100.5 45.5t88.5 46.5t66 38t35.5 20q9 6 16.5 7t13.5 1q12 0 20 -5.5t13.5 -13t7.5 -16t2 -14.5q0 -9 -2 -21.5t-15 -28.5q-5 -5 -33.5 -27t-73.5 -52t-104.5 -63.5t-126 -61.5t-138.5 -46.5t-142 -18.5q-60 0 -106.5 23
t-79 62t-49.5 90t-17 107q0 43 17 94.5t49 103.5t78.5 101.5t104.5 87.5t127.5 61t148.5 23z" />
    <glyph glyph-name="f" unicode="f" horiz-adv-x="506" 
d="M795 568q-52 -2 -98.5 -3t-90.5 -1.5t-87 -0.5h-87q-26 -51 -58.5 -118.5t-68 -141.5t-71 -149.5t-67.5 -143t-58 -122t-42 -86.5q-11 -23 -27 -42.5t-35 -33.5t-39 -21.5t-37 -7.5q-24 0 -43 12t-19 38q0 13 6 30.5t17 40.5l353 748h-53q-55 0 -75 17t-20 40
q0 24 25 46.5t73 22.5h118q71 143 142.5 236t140.5 147t134.5 75t125.5 21q28 0 53.5 -11t45 -33t31.5 -55.5t12 -78.5q0 -43 -12 -95q-3 -14 -12 -23.5t-20 -15.5t-22 -8.5t-19 -2.5q-20 0 -37 9.5t-17 29.5q0 13 1.5 24t1.5 22q0 42 -15.5 60t-41.5 18q-31 0 -72.5 -27
t-84 -72t-81.5 -102.5t-64 -117.5h233q31 0 58 -1t47.5 -6t32 -16.5t11.5 -33.5q0 -11 -4 -22t-13.5 -20.5t-26.5 -16t-44 -8.5z" />
    <glyph glyph-name="g" unicode="g" horiz-adv-x="944" 
d="M569 727q44 0 77 -11t56 -24q26 -16 46 -35q14 9 30 17q14 7 31 12.5t34 5.5q44 0 68 -18t24 -43q0 -13 -7 -26l-234 -443l19 17q118 69 194 108.5t121 58.5t64.5 23.5t24.5 4.5q23 0 35.5 -17.5t12.5 -43.5q0 -29 -16.5 -59t-50.5 -43q-45 -23 -105 -49.5t-125 -58.5
t-130.5 -71.5t-122.5 -87.5l-194 -351q-24 -57 -43.5 -93t-38.5 -57t-39 -29t-46 -8q-39 0 -61.5 27t-22.5 65q0 40 19 93t53.5 114.5t83.5 129t109 137.5l124 158q-38 -35 -75 -60t-71 -40.5t-63.5 -22.5t-51.5 -7q-40 0 -74 18.5t-58.5 51.5t-38.5 78t-14 98
q0 110 42.5 199t109 151.5t147 96.5t157.5 34zM531 551q-47 0 -91 -23.5t-78 -62t-54 -88.5t-20 -103q0 -16 2.5 -34.5t11 -34.5t25 -26.5t45.5 -10.5q21 0 49.5 18.5t59 47t59.5 63t52.5 67.5t37.5 59.5t14 39.5q0 22 -12 38.5t-29.5 27.5t-37 16.5t-34.5 5.5z" />
    <glyph glyph-name="h" unicode="h" horiz-adv-x="898" 
d="M9 158q24 51 55 113.5t62.5 124t59.5 117t47 94.5l330 649q6 13 18.5 25t28.5 21.5t34 15t36 5.5q44 0 61 -16.5t17 -40.5q0 -22 -11 -46.5t-25 -45.5q-44 -75 -84.5 -151.5t-81 -154t-81.5 -154t-86 -151.5q28 27 59.5 56t68.5 53t81 39.5t98 15.5q32 0 61 -6t51 -19.5
t35 -37t13 -57.5q0 -45 -13.5 -82.5t-34.5 -71t-46 -64t-47.5 -62t-39 -65.5t-20.5 -74q0 -2 -0.5 -4t-0.5 -4q0 -20 13.5 -25t34.5 -5q27 0 58 10.5t62.5 28t63 39.5t60 45t52.5 44.5t41 37.5q9 8 19 12t19 4q18 0 30.5 -13.5t12.5 -36.5q0 -21 -14.5 -48t-49.5 -54
q-55 -48 -112 -92t-115 -78t-115.5 -54t-112.5 -20q-71 0 -114 32.5t-43 102.5q0 51 17.5 96.5t43 88t54.5 82t51 77.5q12 17 18.5 31.5t6.5 31.5q0 15 -8 24.5t-25 9.5q-59 0 -109 -29t-92 -74t-78 -98.5t-67 -102.5q-14 -22 -28.5 -50.5t-30 -58.5t-32.5 -59.5
t-35.5 -52.5t-39 -37t-42.5 -14q-35 0 -54 20.5t-19 51.5q0 23 8 48.5t26 62.5z" />
    <glyph glyph-name="i" unicode="i" 
d="M346 865q0 23 8.5 47.5t25.5 44.5t42.5 33t60.5 13q58 0 81 -22.5t23 -56.5q0 -19 -7.5 -42t-22.5 -42.5t-39 -32.5t-57 -13q-62 0 -87 19.5t-28 51.5zM236 640q17 28 39 40t45 12q38 0 65.5 -24.5t27.5 -62.5q-1 -9 -2.5 -18t-6.5 -18q-14 -26 -23 -44t-16.5 -33.5
t-14.5 -30.5t-17 -36q-12 -25 -27 -54.5t-28.5 -60.5t-23 -61t-9.5 -55q0 -27 13.5 -35.5t38.5 -8.5q28 0 58.5 12t61.5 31t61 43.5t56.5 49.5t49 48t37.5 41q20 19 40 19q18 0 29.5 -16t11.5 -41q0 -23 -11.5 -49t-37.5 -49q-51 -52 -104 -99.5t-108.5 -84t-111.5 -58.5
t-113 -22q-81 0 -127.5 41.5t-46.5 129.5q0 46 13 90t31 85.5t38 80t34 73.5q5 13 17.5 40t26.5 55q16 33 34 70z" />
    <glyph glyph-name="j" unicode="j" horiz-adv-x="486" 
d="M401 865q1 23 10.5 47.5t27.5 44.5t44 33t61 13q55 0 77.5 -20.5t22.5 -51.5q0 -20 -7.5 -43.5t-23 -44.5t-40.5 -35t-60 -14q-62 0 -86.5 19.5t-25.5 51.5zM225 127q60 51 153.5 115.5t227.5 145.5q15 9 29 9q22 0 36.5 -18t14.5 -44t-20 -56.5t-67 -54.5l-338 -232
q-22 -20 -39.5 -34.5t-35 -28t-36 -27t-41.5 -29.5q-49 -84 -88 -142.5t-77 -95t-78 -53.5t-91 -17q-47 0 -65.5 18.5t-18.5 51.5q0 31 29 62.5t68 65t78.5 71t60.5 81.5q27 56 57.5 120t61.5 130t62.5 131.5t60 125t54 110.5t44.5 87q20 38 51.5 55.5t61.5 17.5
q32 0 55 -18t23 -51q0 -22 -3.5 -40t-13.5 -40.5t-26.5 -54t-42.5 -79.5t-62 -116.5t-85 -165.5z" />
    <glyph glyph-name="k" unicode="k" horiz-adv-x="960" 
d="M375 512q38 39 80.5 77.5t89 69t97.5 49.5t107 19q33 0 68 -7.5t63.5 -24.5t46.5 -44t18 -66q0 -64 -29.5 -116t-76.5 -93t-104.5 -72.5t-112.5 -53.5q-14 -6 -26 -15.5t-20.5 -20t-13.5 -21t-5 -17.5q0 -12 7.5 -20.5t26.5 -8.5q37 0 84 15t109.5 45.5t143 77.5
t185.5 111q17 10 32 10q19 0 30 -14t11 -37q0 -28 -20.5 -63.5t-68.5 -67.5q-67 -41 -137 -85t-144 -80.5t-152 -60t-160 -23.5q-142 0 -142 123q0 65 27.5 114.5t67 86.5t82.5 63.5t74 47.5q24 14 45 30t37.5 33t26 34.5t9.5 35.5q0 29 -27 29q-100 0 -280 -193
q-41 -44 -75 -85.5t-63.5 -81.5t-56.5 -77.5t-53 -71.5q-78 -88 -139 -88q-29 0 -42 10.5t-13 39.5v8t1 9q2 20 17 61t37.5 93t50 111t54.5 115.5t51 106l40 82.5l316 645q6 13 18.5 25t28 21.5t33 15t35.5 5.5q45 0 62.5 -17t17.5 -41q0 -22 -10.5 -46t-24.5 -45
q-42 -75 -83.5 -159.5t-82.5 -171.5t-83 -171.5t-85 -159.5z" />
    <glyph glyph-name="l" unicode="l" horiz-adv-x="528" 
d="M273 289q-11 -23 -21.5 -53.5t-10.5 -54.5q0 -15 6 -24t23 -9q21 0 52.5 12.5t68 33t76 47t78.5 55t74.5 57t63.5 52.5q8 7 19 10t19 3q20 0 33 -14t13 -37q0 -21 -14 -47t-49 -51q-64 -59 -129 -112t-129.5 -93.5t-128 -64.5t-123.5 -24q-41 0 -68.5 11t-44 30t-23.5 45
t-7 55q0 49 14.5 100.5t34.5 94.5q35 78 71 155t66 141l303 645q18 39 48.5 55t61.5 16t56.5 -17t25.5 -55q0 -18 -8.5 -38t-21.5 -43q-25 -47 -59.5 -115t-74 -148t-81 -166.5t-81 -168.5t-74 -155.5t-59.5 -127.5z" />
    <glyph glyph-name="m" unicode="m" horiz-adv-x="1312" 
d="M422 34q0 48 21.5 98t54.5 103t72 107.5t74 111.5q10 16 16 30.5t6 29.5q0 16 -9 26.5t-26 10.5q-41 0 -79 -17.5t-73 -46t-66.5 -65.5t-59 -76.5t-51.5 -78.5t-44 -71q-18 -33 -33 -72t-32.5 -72t-39.5 -55.5t-55 -22.5q-36 0 -57 23t-21 55q0 18 13 56t33.5 88.5
t46.5 107.5t51.5 113t48 105.5t37.5 84.5q18 43 47.5 64t58.5 21q25 0 44.5 -18.5t19.5 -53.5q0 -26 -12 -57q27 25 58 54t67.5 53.5t81.5 40.5t101 16q28 0 53 -7t44.5 -22t32 -39t14.5 -58q23 23 50 45.5t58.5 40.5t68.5 29t82 11q33 0 63 -7t53.5 -23.5t37 -42.5
t13.5 -64q0 -60 -27.5 -114t-64.5 -99q-12 -15 -32 -38t-39 -49t-33 -53.5t-14 -51.5q0 -22 13.5 -28t35.5 -6q42 0 91 25t95.5 60.5t87 74t64.5 64.5q6 7 14 10t16 3q18 0 32.5 -16t14.5 -42q0 -20 -12 -44t-41 -47q-54 -52 -110.5 -99.5t-114 -84t-115 -58.5t-114.5 -22
q-74 0 -119.5 35t-45.5 111q0 50 19 94t47 84.5t59 78.5t54 76q10 16 16 30.5t6 29.5q0 16 -9 26.5t-26 10.5q-41 0 -79 -17.5t-73 -46t-66.5 -65.5t-59 -76.5t-51.5 -78.5t-44 -71q-18 -33 -33 -72t-32.5 -72t-39.5 -55.5t-55 -22.5q-12 0 -26 4.5t-25.5 12.5t-19 19
t-8.5 24z" />
    <glyph glyph-name="n" unicode="n" horiz-adv-x="951" 
d="M265 607q20 43 50 64t59 21q24 0 43 -17.5t19 -51.5q0 -13 -3 -28t-11 -32q22 28 63 57.5t90.5 53t102 38.5t99.5 15q53 0 88.5 -25.5t35.5 -86.5q0 -36 -11 -75t-28.5 -78t-39 -76.5t-42.5 -70.5l-38.5 -60.5t-27.5 -45.5q-13 -16 -13 -37q0 -8 5 -14t16 -6q7 0 16 1.5
t22 10.5q54 20 110.5 50t108.5 63.5t95.5 67t72.5 60.5q8 7 16 10t15 3q17 0 26.5 -13t9.5 -33q0 -31 -19.5 -69t-61.5 -71q-57 -41 -104.5 -75t-97 -63.5t-106 -55t-132.5 -47.5q-26 -8 -47.5 -12t-39.5 -4q-53 0 -77.5 29.5t-24.5 82.5q0 7 0.5 13.5t1.5 14.5
q2 31 16.5 68t35 76t43.5 77.5t42.5 73t32.5 61.5t13 44q0 15 -8.5 25.5t-25.5 10.5q-64 0 -121.5 -38t-107.5 -93.5t-92 -117.5t-74 -111q-20 -33 -36.5 -70.5t-34.5 -70t-40.5 -54t-56.5 -21.5q-35 0 -55 22t-20 54q0 17 14 55t36 88t49.5 107.5t55 114t52.5 106.5t41 85z
" />
    <glyph glyph-name="o" unicode="o" horiz-adv-x="848" 
d="M488 551q-47 0 -90.5 -23.5t-77 -62t-53.5 -87t-20 -99.5q0 -19 3 -41.5t12.5 -42t27.5 -32.5t48 -13q46 0 89.5 24.5t77.5 64t54 89.5t20 101q0 20 -2.5 41.5t-12 39.5t-27.5 29.5t-49 11.5zM540 727q38 0 81.5 -10t80.5 -34t61.5 -63.5t24.5 -97.5q0 -30 -8 -68.5
t-24 -80.5q10 -12 23 -17t28 -5q21 0 46.5 12t52.5 31t54 43t51 48t43.5 45.5t32.5 36.5q7 7 17 7q14 0 25 -14.5t11 -40.5t-15.5 -60t-57.5 -71q-24 -26 -55 -60t-66 -64t-73 -51t-76 -21q-26 0 -50.5 8t-49.5 26q-36 -56 -82 -102t-102.5 -79t-122 -51.5t-139.5 -18.5
q-28 0 -65 11t-70.5 36.5t-56.5 66.5t-23 100q0 40 13 96t39.5 115.5t67 118t96.5 105t128 75t160 28.5z" />
    <glyph glyph-name="p" unicode="p" horiz-adv-x="979" 
d="M1162 470q14 8 26 13t23 5q22 0 33 -16.5t11 -40.5q0 -26 -13.5 -53t-40.5 -45q-107 -80 -191 -146t-158.5 -113.5t-145.5 -73.5t-152 -26q-76 0 -117.5 28t-41.5 77v7.5t1 8.5q4 30 31 69t65 81t81 85t79.5 81.5t60.5 70.5t24 52q0 12 -10 19t-33 7q-40 0 -82.5 -17.5
t-84 -47t-81 -67.5t-74 -79t-63 -82.5t-48.5 -76.5q-6 -11 -17 -31t-24 -45t-27.5 -51.5t-26.5 -50t-21.5 -42t-13.5 -25.5q-5 -9 -16.5 -34t-26.5 -58.5t-31.5 -70.5t-31 -70t-25.5 -58t-14 -34q-10 -26 -23.5 -49t-31 -40.5t-40 -28t-50.5 -10.5q-36 0 -59.5 14.5
t-23.5 55.5q0 20 6 41t15 41.5t18.5 40t17.5 37.5q54 100 110 200.5t107.5 199t95.5 193.5t73 182q8 18 22 51t32 65t40.5 55.5t48.5 23.5q40 0 58 -15.5t18 -45.5q0 -6 -2 -19t-5 -27.5t-6.5 -27.5t-6.5 -19q37 34 80 67.5t89 60.5t94 44t96 17q33 0 65.5 -8t58 -23.5
t41.5 -39t16 -54.5q0 -41 -24.5 -87.5t-61.5 -93.5t-80 -91.5t-80.5 -81t-63 -62t-26.5 -34.5q0 -12 9 -19.5t30 -7.5q17 0 50 16t92.5 55.5t151 106t225.5 167.5z" />
    <glyph glyph-name="q" unicode="q" horiz-adv-x="852" 
d="M645 502q-8 19 -23 35q-13 14 -34 25t-53 11q-58 0 -108 -32t-87 -81.5t-58 -109.5t-21 -116q0 -44 14.5 -63t39.5 -19q34 0 70.5 21t77 64t85.5 109t97 156zM427 -264q-9 -22 -22 -48.5t-13 -47.5q0 -23 22 -23q16 0 36.5 22t44 59t49 85t51 100.5t50 105t45.5 99
t37.5 83t27.5 55.5q22 28 54 52t69.5 48t79.5 48.5t85 53.5q13 6 24 6q20 0 30.5 -19.5t10.5 -48.5q0 -19 -4.5 -39.5t-14 -40t-24 -36t-33.5 -26.5l-141 -86q-22 -16 -43.5 -56t-44.5 -94.5t-49 -119t-57.5 -129t-68.5 -124.5t-82.5 -106.5t-100.5 -74.5t-122 -28
q-30 0 -55.5 9t-44.5 25.5t-30 39.5t-11 52q0 19 1 32t6 29.5t17 41t33 66.5l170 336q-32 -29 -66.5 -45.5t-72.5 -16.5q-48 0 -83 20t-58 53t-34 76.5t-11 90.5q0 86 26 158t67.5 128.5t94 99t104.5 70.5t98.5 42t77.5 14q42 0 72.5 -14t50.5 -31q24 -20 39 -45
q16 15 31 27q13 11 26.5 19.5t23.5 8.5q33 0 51.5 -19.5t18.5 -48.5q0 -23 -13 -49z" />
    <glyph glyph-name="r" unicode="r" horiz-adv-x="843" 
d="M454 583q39 24 80.5 44t80.5 34.5t74.5 23t63.5 8.5q45 0 69.5 -21.5t24.5 -72.5q0 -11 -1 -23.5t-4 -26.5q-5 -26 -30 -61t-58.5 -73t-72 -76.5l-71 -71t-54 -56.5t-21.5 -33q0 -8 1 -11t9 -3q54 23 120.5 55.5t132.5 66.5t125 66.5t100 56.5q9 5 18.5 8.5t17.5 3.5
q18 0 30 -12t12 -32q0 -23 -19.5 -52.5t-65.5 -61.5q-35 -22 -78.5 -49.5t-91 -57t-96 -57.5t-93.5 -50t-84.5 -35.5t-68.5 -13.5q-69 0 -103.5 33t-34.5 85q0 8 1 12q7 44 26 85t43 78t50 70.5t47.5 63t35.5 54.5t14 46q0 5 -2 10t-9 5q-12 0 -39.5 -9t-58.5 -24t-59 -34.5
t-40 -41.5q-16 -28 -37 -71t-43.5 -90t-43.5 -93t-36 -79q-12 -29 -31.5 -52t-42.5 -39t-47 -25t-44 -9q-23 0 -36.5 12t-13.5 39q0 11 3.5 27.5t14.5 36.5q18 34 36.5 74t42.5 91.5t55.5 118t74.5 153.5q-14 12 -23.5 29.5t-9.5 43.5q0 24 10 41.5t27 28.5t39.5 16.5
t47.5 5.5q26 0 52 -4.5t46.5 -13.5t33.5 -22t13 -30q0 -3 -2 -8t-4.5 -11t-4.5 -11t-2 -8q0 -2 1 -2h1z" />
    <glyph glyph-name="s" unicode="s" horiz-adv-x="611" 
d="M392 563q61 -32 109 -73t81.5 -86.5t51 -92.5t17.5 -92q0 -57 -32.5 -102.5t-85 -77t-120 -48t-136.5 -16.5q-52 0 -101 11.5t-89.5 35.5t-69.5 61.5t-41 89.5q-2 8 -2 13q0 27 19 46.5t42 19.5q11 0 24.5 -4t20.5 -18q13 -24 36.5 -43t52.5 -32.5t61.5 -21t63.5 -7.5
q32 0 61.5 6t52 19t35.5 33t13 49q0 51 -23 94t-59.5 79.5t-83 68t-92.5 60.5q-5 3 -15 17.5t-10 29.5q0 12 6 19q16 21 37 43t45 40.5t52 30t58 11.5q22 0 41 -6t32 -15.5t20.5 -21t7.5 -21.5q0 -14 -7 -27t-18.5 -25t-26 -24t-28.5 -23z" />
    <glyph glyph-name="t" unicode="t" horiz-adv-x="528" 
d="M403 556q-37 -72 -70 -140.5t-62 -126.5q-12 -24 -23.5 -55.5t-11.5 -55.5q0 -14 6.5 -22t21.5 -8q21 0 53 12.5t69 33t78 47t80.5 55t75.5 57t64 52.5q16 11 30 11q17 0 28 -15t11 -38t-11 -47t-40 -47q-65 -59 -131.5 -112t-132 -93.5t-129.5 -64.5t-124 -24
q-40 0 -67 10.5t-43.5 29t-23.5 43t-7 52.5q0 50 17 104t38 97q30 62 59.5 123t57.5 117h-43q-56 0 -77 18t-21 41q0 10 6.5 24.5t19 27t30.5 21.5t41 9h108l211 419q20 38 49.5 54.5t61.5 16.5q30 0 55 -16t25 -53q0 -19 -8.5 -38.5t-22.5 -45.5q-9 -17 -22 -40.5
t-27.5 -50t-30 -55.5t-30.5 -56q-34 -64 -72 -135h326q24 0 44 -2.5t34.5 -10t22.5 -20.5t8 -35q0 -11 -3.5 -22t-13 -20t-26 -15t-42.5 -8z" />
    <glyph glyph-name="u" unicode="u" horiz-adv-x="928" 
d="M1170 239q-44 -50 -102.5 -97.5t-120.5 -84.5t-122 -59.5t-108 -22.5t-78 27t-30 92q0 46 16 107q-26 -39 -65 -79t-89 -73t-112 -53.5t-135 -20.5q-33 0 -63.5 7t-53.5 24t-37 45.5t-14 71.5q0 1 4 30.5t25.5 93t66.5 164.5t127 245q21 38 48.5 54.5t59.5 16.5
q14 0 29 -3.5t28 -11t21 -19t8 -26.5q0 -10 -3 -19q-5 -17 -21.5 -44.5t-38.5 -63t-46.5 -76.5t-45.5 -85t-36 -89.5t-17 -88.5q0 -18 10 -33t33 -15q65 0 124 36t109 89.5t90.5 115t67.5 112.5q19 34 33.5 73t31.5 72t39 55t55 22q36 0 57 -23t21 -55q0 -18 -13.5 -49.5
t-34 -72t-44.5 -86.5t-44.5 -93.5t-34 -93t-13.5 -84.5q0 -36 44 -36q31 0 77 18t96.5 50.5t101 76.5t89.5 95z" />
    <glyph glyph-name="v" unicode="v" horiz-adv-x="800" 
d="M970 224q-75 -57 -150 -89.5t-166 -32.5q-30 0 -58 11t-73 39q-66 -87 -132.5 -132t-138.5 -45q-35 0 -67 12.5t-56 37.5t-38.5 62t-14.5 86q0 60 13.5 129.5t32.5 135.5t37.5 122t29.5 89q20 42 50.5 60.5t59.5 18.5q13 0 26.5 -4.5t24.5 -12.5t18 -19t7 -24
q0 -11 -4 -19q-15 -48 -35.5 -104.5t-38.5 -113.5t-30.5 -111.5t-12.5 -99.5q0 -7 2 -18.5t5 -22t8 -18t11 -7.5q26 0 58 29t70 80q33 35 62.5 82.5t56 97.5t51 98.5t48 87t46.5 62t47 23.5q41 0 58 -26.5t17 -63.5q0 -42 -13.5 -77t-36.5 -72.5t-54.5 -83t-68.5 -108.5
q16 -21 50 -21q36 0 74.5 9t76.5 25.5t75.5 40t72.5 51.5q15 9 28 9q18 0 29.5 -16t11.5 -41q0 -27 -16 -58.5t-53 -57.5z" />
    <glyph glyph-name="w" unicode="w" horiz-adv-x="1139" 
d="M152 489q31 69 51 111.5t36.5 66t33 31.5t41.5 8q38 0 65.5 -24.5t27.5 -62.5q0 -9 -2.5 -18t-6.5 -18l-170 -402q-4 -8 -5.5 -17.5t-1.5 -15.5q0 -13 5.5 -19.5t11.5 -6.5q11 0 22.5 5t27 17.5t38 34t55.5 54.5q31 33 64 79.5t64.5 98t58.5 104t47 97.5q15 30 27 48.5
t23.5 28.5t23.5 13.5t28 3.5q61 0 61 -53q-2 -8 -2.5 -18t-5.5 -23l-156 -461q0 -25 25 -25q18 2 47.5 18.5t59.5 42t56 59t38 69.5q22 66 44.5 133t48 121.5t55 90t65.5 38.5q32 0 52.5 -20.5t20.5 -53.5q0 -39 -10.5 -84t-27.5 -90t-40.5 -87t-48.5 -76q7 -21 29 -21
q39 0 73.5 6t67 17.5t65 27.5t67.5 37q16 11 32 11q20 0 36 -15t16 -39q0 -22 -19.5 -45t-51.5 -45t-72.5 -41t-82 -33.5t-80 -23t-67.5 -8.5q-56 0 -115 32q-70 -84 -145.5 -128t-153.5 -44q-72 0 -103.5 37.5t-31.5 109.5q-75 -76 -140.5 -111.5t-134.5 -35.5
q-44 0 -73.5 10.5t-47.5 29.5t-25.5 44.5t-7.5 55.5q0 49 14 103.5t33.5 105.5t39 94.5t31.5 70.5z" />
    <glyph glyph-name="x" unicode="x" horiz-adv-x="723" 
d="M325 716q25 0 43 -4t30 -17.5t18 -36t6 -58.5v-115l222 186q51 42 102 42q30 0 50 -14t20 -37q0 -14 -9.5 -30t-28.5 -32l-332 -280l12 -136q0 -49 35 -49q38 0 95 28.5t132 82.5l115 84q18 11 37 11q21 0 34.5 -14.5t13.5 -37.5q0 -25 -18.5 -58t-66.5 -66
q-75 -53 -131.5 -89t-103 -58.5t-86 -32.5t-79.5 -10q-90 0 -134.5 51t-44.5 165l-218 -188q-19 -15 -38.5 -21.5t-36.5 -6.5q-32 0 -54 17t-22 42q0 28 36 55l308 268v243q0 45 14 69t31 34.5t32 11.5t17 1z" />
    <glyph glyph-name="y" unicode="y" horiz-adv-x="896" 
d="M709 634q28 22 47.5 33.5t33.5 17t25.5 6.5t23.5 1q21 0 30 -15.5t9 -32.5q0 -14 -5 -26l-224 -467q48 36 110.5 70.5t120 62t99 44.5t47.5 17q25 0 44 -19t19 -48q0 -26 -19.5 -55t-68.5 -56q-70 -39 -122 -66.5t-92 -49.5t-71 -40t-58.5 -37t-54 -40.5t-57.5 -50.5
q-23 -60 -45.5 -115t-41 -97t-30.5 -68t-13 -28q-81 -168 -178 -168q-40 0 -65 26.5t-25 71.5q0 42 10.5 83.5t37 91.5t70 111.5t109.5 144.5l200 405q-150 -178 -272 -272t-228 -94q-34 0 -58 15.5t-24 51.5q0 50 24 113q14 34 28 62.5t29 57t31.5 61.5t36 74.5t43 96
t52.5 127.5q20 39 52 56.5t62 17.5q31 0 52.5 -14.5t21.5 -38.5q0 -12 -4 -21l-183 -381q-14 -29 -14 -46q0 -15 12 -15q11 0 28 11t32 25z" />
    <glyph glyph-name="z" unicode="z" horiz-adv-x="847" 
d="M432 -84v15.5t-1 15.5q-70 -36 -124.5 -68t-92 -59t-57 -48.5t-19.5 -34.5q0 -26 19.5 -43.5t54.5 -17.5q27 0 64 22.5t71 57.5t58.5 77.5t26.5 82.5zM1038 476q8 7 16.5 8.5t16.5 2.5q23 0 41 -18t18 -39q0 -9 -3.5 -16t-10.5 -15q-32 -36 -76.5 -73t-105 -79
t-139.5 -91t-181 -109q0 -6 0.5 -12.5t0.5 -13.5q0 -51 -19.5 -105t-53 -106t-78 -98.5t-94 -81.5t-101.5 -55.5t-100 -20.5t-87.5 11.5t-67.5 33t-43 51t-15 65.5q0 33 24 71t76 81.5t134 94t197 109.5q-17 7 -35.5 8t-35.5 1q-23 0 -53 -1t-61 -1q-24 0 -46 1t-39.5 4
t-27.5 9.5t-10 17.5q0 21 11 43.5t40.5 54t80 76t129.5 108.5l213 157q-7 0 -109 -3t-285 -3q-26 0 -38 14t-12 27q1 15 6.5 33t15.5 33.5t24.5 26.5t33.5 11q20 0 65 0.5t102 0.5t119 1t116 1t93 0.5t51 0.5q18 0 29 -6t17 -15t8 -19.5t2 -19.5q0 -18 -7.5 -36t-24 -38
t-43.5 -42.5t-65 -50.5q-7 -5 -24.5 -18t-41.5 -30.5t-52.5 -38.5t-56.5 -42q-67 -49 -147 -108h21q64 0 120 -18t94 -49q85 47 155.5 89t128 80.5t104.5 74.5t86 71z" />
    <glyph glyph-name="braceleft" unicode="{" horiz-adv-x="810" 
d="M1405 1509q14 0 21.5 -11t7.5 -28q0 -16 -7 -35t-20.5 -35.5t-34.5 -27.5t-49 -11q-69 0 -112 -6.5t-72.5 -25t-51.5 -51.5t-50 -85l-147 -277q-39 -71 -67 -113.5t-54.5 -66.5t-56.5 -35t-74 -17q24 -23 33.5 -48.5t9.5 -52.5q0 -35 -13.5 -71t-33.5 -74l-216 -409
q-11 -23 -10 -32q0 -29 40 -41.5t118 -12.5q21 0 31 -12t10 -29t-8.5 -35.5t-24 -34.5t-38.5 -26.5t-51 -10.5q-124 0 -187 36.5t-63 109.5q0 11 1.5 21.5t3.5 21.5q3 14 6.5 26t10.5 30.5t20.5 46t36.5 72.5t57.5 111t84.5 160q18 35 32 72t14 65q0 23 -13 37t-45 14
q-22 0 -32.5 12.5t-10.5 30.5q0 15 7.5 32.5t22 31.5t36.5 23.5t52 9.5q33 0 60 9.5t52 29.5t48.5 51.5t47.5 75.5l157 302q47 88 87.5 144t88.5 88t111.5 43.5t156.5 11.5z" />
    <glyph glyph-name="bar" unicode="|" horiz-adv-x="918" 
d="M992 1573l-541 -1778h-156l533 1778h164z" />
    <glyph glyph-name="braceright" unicode="}" horiz-adv-x="1018" 
d="M37 -201q-15 0 -22.5 11t-7.5 28q0 16 7 35.5t20.5 35.5t34 27t48.5 11q68 0 110.5 6.5t72 25t51.5 51.5t49 85l144 277q39 70 66 113t53.5 67t56 35t73.5 17q-24 23 -34.5 47.5t-10.5 51.5q0 32 13 70t33 77l212 409q9 18 9 30q0 30 -40 43t-119 13q-21 0 -31 12t-10 29
t8 36t24 34.5t38 26t51 10.5q124 0 187.5 -37t63.5 -111q0 -22 -4 -41q-3 -14 -6 -26t-10 -30t-19.5 -46t-35 -73t-56.5 -111t-83 -160q-18 -35 -32 -71t-14 -64q0 -24 13 -38.5t47 -14.5q22 0 32.5 -13t10.5 -32q0 -15 -7.5 -32t-22 -31t-36.5 -23t-51 -9q-65 0 -111.5 -39
t-94.5 -127l-154 -302q-45 -89 -85 -145t-88 -87.5t-111 -43t-155 -11.5z" />
    <glyph glyph-name="asciitilde" unicode="~" horiz-adv-x="1393" 
d="M1240 1391q-72 -106 -149.5 -154.5t-165.5 -48.5q-82 0 -208 57q-128 69 -193 76q-28 0 -52.5 -5t-48.5 -17t-48 -31.5t-49 -47.5l-83 77q72 106 146 152t164 46q76 0 209 -64q64 -37 116.5 -55t91.5 -18q46 0 87.5 24.5t95.5 86.5z" />
    <glyph glyph-name="exclamdown" unicode="&#xa1;" horiz-adv-x="545" 
d="M476 1119q7 31 24.5 59t41.5 49.5t53 34t59 12.5q42 0 66.5 -26t24.5 -65q0 -35 -16.5 -67t-42.5 -57t-59 -40t-66 -15q-42 0 -65.5 24t-23.5 62q0 7 1 14t3 15zM-96 58q64 105 117 188.5t103.5 162.5t103.5 162.5t119 188.5q17 29 45.5 43.5t54.5 14.5q18 0 29.5 -8
t11.5 -24q0 -5 -1 -12t-5 -14q-56 -105 -100 -188.5t-85 -162.5t-85 -162.5t-100 -188.5q-9 -18 -25 -32t-35.5 -23.5t-41 -14t-41.5 -4.5q-31 0 -52 11t-21 34q0 8 2 14.5t6 14.5z" />
    <glyph glyph-name="cent" unicode="&#xa2;" horiz-adv-x="645" 
d="M213 153q55 89 110 177.5t111 178.5q-45 -30 -90.5 -73t-82.5 -87.5t-60.5 -84.5t-23.5 -64q0 -34 36 -47zM745 635q-9 -31 -26 -68.5t-42 -70.5t-56 -55t-68 -22q-15 0 -20.5 3t-5.5 11q0 2 3.5 13t8 25.5t8.5 30.5t4 27q0 12 -8 16l-241 -393q41 8 87.5 26t92.5 40.5
t89.5 47t78 45.5t58.5 35.5t31 18.5q10 5 18 6.5t14 1.5q19 0 25.5 -11.5t6.5 -23.5q0 -8 -4.5 -25t-28.5 -39q-7 -6 -35 -28t-72 -52t-100 -64.5t-118 -65.5t-126.5 -54t-124.5 -31l-92 -152q-13 -20 -32.5 -29.5t-34.5 -9.5q-13 0 -22 5.5t-9 16.5q0 4 1 8t5 9
q23 38 46.5 75.5t47.5 75.5q-63 10 -93.5 48t-30.5 92q0 23 5.5 47t14.5 48q15 41 47 88.5t75.5 96.5t96 97.5t109.5 90t115.5 73.5t114.5 50l110 175q13 20 32 30.5t34 10.5q11 0 18 -4.5t7 -15.5q0 -10 -7 -21l-97 -157h8q36 0 61 -14t25 -48q0 -15 -4 -30z" />
    <glyph glyph-name="sterling" unicode="&#xa3;" horiz-adv-x="912" 
d="M1109 727q-28 -53 -63 -76.5t-70 -23.5q-24 0 -44 11t-20 31q0 10 6 21q31 59 45.5 103.5t14.5 74.5q0 31 -12.5 47t-35.5 16q-10 0 -27 -5q-13 -4 -32 -23.5t-41 -49t-46 -65.5t-46 -73q-54 -87 -112 -195h151q22 0 34.5 -16.5t12.5 -38.5q0 -15 -6.5 -30t-21 -27
t-36.5 -19.5t-52 -7.5h-148l-127 -234l101 -12q12 -2 23.5 -2h22.5q62 0 119 11.5t115 22.5q3 0 6 0.5t5 0.5q26 0 40 -15.5t14 -37.5q0 -16 -6.5 -33t-22.5 -32.5t-41.5 -27.5t-62.5 -19q-60 -11 -117.5 -17.5t-113.5 -6.5q-72 0 -137 10t-125 36q-92 -45 -189 -45
q-67 0 -105 24.5t-38 69.5q0 27 13.5 47t35.5 33t50 19.5t56 6.5q23 0 53.5 -2t58.5 -4q33 -3 67 -6l122 213h-115q-26 0 -38.5 13.5t-12.5 33.5q0 15 7 31.5t21.5 30t36 22t51.5 8.5h119q39 79 76 148q16 29 32.5 59t32.5 57t30 49.5t25 36.5q74 107 158.5 155.5
t175.5 48.5q46 0 79 -15.5t54.5 -42t31.5 -61.5t10 -73q0 -39 -11 -79.5t-31 -75.5z" />
    <glyph glyph-name="currency" unicode="&#xa4;" horiz-adv-x="1323" 
d="M807 699q57 0 109 24t92.5 64t64.5 92.5t24 109.5t-22 107.5t-59.5 88t-88 59.5t-107.5 22t-109.5 -24t-92 -64.5t-63.5 -93t-24 -109.5t22 -107.5t60 -88t88 -59t106 -21.5zM456 742q-68 104 -68 228q0 127 75 238l-194 194l124 124l194 -193q112 76 239 76
q125 0 229 -68l186 185l124 -124l-187 -187q61 -97 61 -222q0 -124 -76 -236l202 -202l-124 -125l-203 203q-110 -75 -234 -75q-125 0 -222 61l-189 -189l-124 125z" />
    <glyph glyph-name="yen" unicode="&#xa5;" horiz-adv-x="893" 
d="M1241 586h-519l-188 -355q-29 -56 -41.5 -85.5t-14.5 -40.5q0 -53 -15.5 -91t-39 -63.5t-51.5 -37.5t-53 -12q-37 0 -63.5 22t-26.5 65q0 16 1 26t7 26t19.5 43.5t38.5 80.5l223 422h-397l43 142h346q-22 29 -41 60.5t-35 65.5h-237l42 142l144 1q-17 48 -23 89.5
t-6 76.5q0 56 14.5 101t39.5 76t57 47.5t67 16.5q73 0 73 -77q0 -14 -5.5 -35t-11.5 -46.5t-11.5 -54t-5.5 -57.5q0 -54 13.5 -107.5t36.5 -102t53 -91t63 -73.5l74 48q59 38 118 79t105 87q37 37 66 73.5t49.5 68.5t32.5 57.5t17 42.5l7 27q9 34 18 59t26 41t45.5 23.5
t77.5 7.5q48 0 48 -68q0 -5 -3 -29t-18 -64.5t-46.5 -95t-88.5 -121.5h94l-42 -142h-204q-45 -34 -90.5 -65.5t-93.5 -60.5h355z" />
    <glyph glyph-name="brokenbar" unicode="&#xa6;" horiz-adv-x="867" 
d="M991 1573l-215 -693h-156l207 693h164zM661 488l-211 -693h-156l206 693h161z" />
    <glyph glyph-name="section" unicode="&#xa7;" horiz-adv-x="1100" 
d="M998 692q3 16 3 30t-4.5 27.5t-15.5 28t-29 30.5t-45 36q-64 0 -116 -11t-89 -32.5t-57 -53t-20 -71.5q0 -39 25 -72t79 -63q53 0 99 10.5t81 30t58 47.5t31 63zM1491 1339q14 -3 20.5 -14t6.5 -25q0 -17 -7.5 -35.5t-21.5 -34.5t-33.5 -26.5t-42.5 -10.5q-12 0 -21 3
q-103 25 -220 25q-110 0 -169.5 -31t-59.5 -97q0 -67 118 -172q112 -100 112 -196q0 -39 -16.5 -84.5t-57 -85.5t-108.5 -68.5t-171 -34.5q32 -40 50 -79t18 -80q0 -8 -1 -17t-3 -18q-13 -64 -48 -113.5t-90 -83.5t-128 -51.5t-162 -17.5q-82 0 -167 8t-174 25q-23 5 -32 16
t-9 26t9 32t24 30.5t35.5 22.5t44.5 9h8.5t8.5 -1q65 -10 132.5 -15.5t145.5 -5.5q99 0 148 30t62 93q1 3 1 10q0 60 -126 179q-116 110 -116 212q0 21 4 37q24 116 115 176t234 71q-29 47 -41 78t-12 60q0 20 4 37q52 250 469 250q66 0 132 -9t135 -24z" />
    <glyph glyph-name="dieresis" unicode="&#xa8;" horiz-adv-x="1004" 
d="M921 1014q-5 -25 -19 -48t-33.5 -40.5t-44 -28t-49.5 -10.5q-37 0 -58.5 20.5t-21.5 54.5q0 31 13 58.5t34 47.5t48.5 32t56.5 12q37 0 56.5 -20.5t19.5 -54.5q0 -5 -0.5 -11t-1.5 -12zM1224 1014q-5 -25 -19 -48t-33.5 -40.5t-44 -28t-49.5 -10.5q-37 0 -58.5 20.5
t-21.5 54.5q0 31 13 58.5t34 47.5t48.5 32t56.5 12q37 0 56.5 -20.5t19.5 -54.5q0 -5 -0.5 -11t-1.5 -12z" />
    <glyph glyph-name="copyright" unicode="&#xa9;" horiz-adv-x="1685" 
d="M904 1131q72 0 148 -19t154 -61v-126q-74 39 -147 58.5t-140 19.5q-56 0 -104 -16t-83.5 -48.5t-56 -81t-20.5 -113.5t20.5 -113.5t56 -81t83.5 -48.5t104 -16q67 0 140 19.5t147 58.5v-126q-78 -42 -154 -61t-148 -19q-90 0 -168 30.5t-135 83t-90 123t-33 150.5
t33 150.5t90 123t135 83t168 30.5zM889 0q-95 0 -187 23.5t-175 68t-153 109t-121 147t-80 182t-29 213.5t30 213.5t83 182.5t124.5 148.5t154 110.5t173 68.5t180.5 23.5q91 0 181.5 -24t173.5 -69t154 -110.5t123.5 -148.5t82.5 -182.5t30 -212.5q0 -111 -28 -209.5
t-78.5 -181t-120 -148t-152 -111t-176 -69.5t-190.5 -24zM1486 742q0 97 -24.5 180.5t-67.5 153t-101 123.5t-124 90.5t-138 56t-142 19.5q-72 0 -144 -19.5t-138.5 -56.5t-124 -91t-99.5 -123.5t-66.5 -153t-24.5 -179.5q0 -128 43 -240.5t121.5 -196.5t188.5 -132.5
t244 -48.5t244 48.5t188.5 132.5t121.5 196.5t43 240.5z" />
    <glyph glyph-name="ordfeminine" unicode="&#xaa;" horiz-adv-x="870" 
d="M546 1172q-40 0 -77.5 -20.5t-66 -53.5t-45.5 -74t-17 -83q0 -17 2 -35t9.5 -33.5t21.5 -25.5t38 -10q19 0 44 16.5t51.5 42t52.5 57t46.5 61t33 53.5t12.5 35q0 16 -11 29t-27 22t-34.5 14t-32.5 5zM976 814q-22 -21 -53.5 -43.5t-67 -41.5t-71.5 -31t-67 -12
q-39 0 -64.5 24t-25.5 83q0 21 3 52.5t11 54.5q-26 -36 -59.5 -74t-72 -68.5t-81 -50.5t-85.5 -20q-22 0 -51 9t-55.5 29.5t-44.5 52.5t-18 79q0 35 10.5 83.5t32.5 100.5t55.5 103t79 91.5t104.5 65.5t131 25q37 0 65 -9.5t48 -20.5q23 -13 39 -30q15 8 30 15q13 5 26.5 10
t24.5 5q32 0 52.5 -18t20.5 -39q0 -6 -1 -9q-8 -24 -24 -67.5t-33.5 -92t-34 -95t-26.5 -74.5q-9 -29 -9 -47q0 -32 27 -32q20 0 53 18t81 56q7 6 14 8.5t12 2.5q17 0 28.5 -16.5t11.5 -36.5q0 -24 -16 -40z" />
    <glyph glyph-name="guillemotleft" unicode="&#xab;" horiz-adv-x="1333" 
d="M656 130q-81 46 -149.5 86.5t-119.5 70.5q-60 35 -109 65q-28 17 -28 48q0 25 18 48t56 39q91 40 174 75q36 16 73 31.5t72 30t65 27.5t53 21q11 5 19 5q16 0 25 -14t9 -37q0 -13 -1 -27.5t-7.5 -29t-21 -27t-41.5 -22.5q-14 -7 -34 -15t-42 -17t-46 -18t-46 -18
q-52 -20 -107 -41v0q0 -1 57 -29q58 -27 185 -95q25 -14 35.5 -31t10.5 -34q0 -18 -8 -35.5t-20.5 -31t-27.5 -21.5t-28 -8q-11 0 -16 4zM1116 130q-82 46 -150.5 86.5t-119.5 70.5q-59 35 -108 65q-28 17 -28 48q0 25 18 48t56 39q91 40 174 75q36 16 73 31.5t71.5 30
t65 27.5t52.5 21q12 5 19 5q17 0 26 -14t9 -37q0 -13 -1.5 -27.5t-8 -29t-20.5 -27t-41 -22.5q-15 -7 -35 -15t-42 -17t-45.5 -18t-45.5 -18q-52 -20 -107 -41v0q0 -1 57 -29q58 -27 184 -95q25 -14 36 -31t11 -34q0 -18 -8 -35.5t-21 -31t-27.5 -21.5t-27.5 -8q-11 0 -16 4
z" />
    <glyph glyph-name="logicalnot" unicode="&#xac;" horiz-adv-x="1636" 
d="M92 1018v151h1354v-831h-176v680h-1178z" />
    <glyph glyph-name="registered" unicode="&#xae;" horiz-adv-x="1695" 
d="M1078 353l-232 344h-69v-322h-146v794h195q76 0 148 -8t128.5 -32.5t90.5 -69t34 -117.5q0 -52 -11.5 -90.5t-37.5 -66.5t-68 -47t-104 -32l202 -280zM777 1056v-251l131 -1q54 0 88 11.5t53.5 29.5t26.5 41t7 45q0 25 -6.5 47.5t-24.5 40t-50.5 27.5t-84.5 10h-140z
M899 0q-95 0 -187 23.5t-175 68t-153 109t-121 147t-80 182t-29 213.5t30 213.5t83 182.5t124.5 148.5t154 110.5t173 68.5t180.5 23.5q91 0 181.5 -24t173.5 -69t154 -110.5t123.5 -148.5t82.5 -182.5t30 -212.5q0 -111 -28 -209.5t-78.5 -181t-120 -148t-152 -111
t-176 -69.5t-190.5 -24zM1496 742q0 97 -24.5 180.5t-67.5 153t-101 123.5t-124 90.5t-138 56t-142 19.5q-72 0 -144 -19.5t-138.5 -56.5t-124 -91t-99.5 -123.5t-66.5 -153t-24.5 -179.5q0 -128 43 -240.5t121.5 -196.5t188.5 -132.5t244 -48.5t244 48.5t188.5 132.5
t121.5 196.5t43 240.5z" />
    <glyph glyph-name="degree" unicode="&#xb0;" horiz-adv-x="1221" 
d="M887 1122q-28 0 -51.5 -11.5t-41 -29.5t-27.5 -40t-10 -42q0 -23 15.5 -38.5t50.5 -15.5q28 0 52 11.5t41 29t27 39t10 41.5q0 23 -15.5 39.5t-50.5 16.5zM1042 1031q-13 -36 -40.5 -68.5t-62.5 -57t-74 -39t-76 -14.5q-59 0 -95 35t-36 89q0 44 24.5 87t62.5 76.5
t84.5 54t90.5 20.5q30 0 54.5 -9.5t42 -26t27 -39t9.5 -49.5q0 -26 -11 -59z" />
    <glyph glyph-name="plusminus" unicode="&#xb1;" horiz-adv-x="1076" 
d="M659 577v-344h-141v344h-313v133h313v344h141v-344h314v-133h-314zM239 -56v139h701v-139h-701z" />
    <glyph glyph-name="twosuperior" unicode="&#xb2;" horiz-adv-x="896" 
d="M859 167q4 1 7 1.5t6 0.5q21 0 35 -16t14 -39q0 -33 -23.5 -59t-59.5 -43.5t-79 -26.5t-82 -9q-32 0 -63 3.5t-68 14.5t-83 32t-109 56q-59 -37 -92.5 -58t-51.5 -31t-25 -12t-12 -2q-12 0 -24.5 7.5t-23.5 19.5t-18 27.5t-7 32.5q0 14 6.5 28t22.5 25q66 36 134 76.5
t131 85t118 91.5t96 94.5t64.5 95t23.5 93.5q0 45 -22 63.5t-58 18.5q-29 0 -62.5 -10t-67.5 -25.5t-67.5 -33t-62 -33t-50.5 -25.5t-34 -10q-16 0 -30 7t-24 18.5t-15.5 25.5t-5.5 29q0 25 23 51.5t61 51.5t87 47t100.5 39t102 26.5t92.5 9.5q49 0 92.5 -12.5t75.5 -40
t50.5 -72.5t18.5 -110q0 -55 -17.5 -110t-63.5 -113.5t-124.5 -120.5t-200.5 -131q43 -19 92 -32t88 -13q29 0 52 1t44 3.5t42 5.5t47 7z" />
    <glyph glyph-name="threesuperior" unicode="&#xb3;" horiz-adv-x="800" 
d="M552 238q0 24 -4.5 46.5t-19.5 39t-43 26.5t-75 10q-16 0 -33.5 -2.5t-37.5 -2.5q-28 0 -41 17t-13 37q0 26 25.5 46.5t73.5 28.5q69 11 119 36t82.5 53.5t48 55t15.5 41.5q0 29 -20.5 47.5t-49.5 18.5q-50 0 -89 -8t-72 -17t-61 -17t-55 -8q-29 0 -51 18.5t-22 45.5
q0 22 19 47q28 21 67.5 40t84.5 33.5t93.5 23.5t95.5 9t89 -10.5t73.5 -34.5t50 -62.5t18.5 -95.5q0 -78 -65 -147.5t-187 -111.5q51 -12 84 -33t52.5 -46.5t27 -54t7.5 -54.5q0 -79 -24 -143.5t-65 -116t-96.5 -91.5t-119.5 -70t-133 -51t-136 -35q-16 -3 -28 -5t-23 -2
q-38 0 -56.5 16t-18.5 38q0 23 20 46.5t59 34.5q42 9 90.5 25.5t96.5 41t92 55.5t78 68.5t55 81t22 92.5z" />
    <glyph glyph-name="acute" unicode="&#xb4;" horiz-adv-x="1044" 
d="M545 942q36 63 72.5 125t71.5 125q38 63 78 89t72 26q30 0 49 -19t19 -50q0 -20 -9 -44t-32 -50q-54 -63 -108.5 -125t-108.5 -125q-26 -34 -55 -51t-49 -17q-31 0 -31 32q0 29 31 84z" />
    <glyph glyph-name="mu" unicode="&#xb5;" horiz-adv-x="928" 
d="M1170 239q-44 -50 -102.5 -97.5t-120.5 -84.5t-122 -59.5t-108 -22.5t-78 27t-30 92q0 46 16 107q-26 -39 -65 -79t-89 -73t-112 -53.5t-135 -20.5q-26 0 -49.5 4t-44.5 13l-146 -363q-6 -13 -17.5 -25t-26.5 -21.5t-32.5 -15t-35.5 -5.5q-46 0 -64.5 18t-18.5 44
q0 20 10 43.5t22 43.5q61 117 105 205.5t75.5 156t54 118.5t41 93.5t35 81t37 81t46.5 92.5t64 117q21 38 48.5 54.5t59.5 16.5q14 0 29 -3.5t28 -11t21 -19t8 -26.5q0 -10 -3 -19q-5 -17 -21.5 -44.5t-38.5 -63t-46.5 -76.5t-45.5 -85t-36 -89.5t-17 -88.5q0 -18 10 -33
t33 -15q65 0 124 36t109 89.5t90.5 115t67.5 112.5q19 34 33.5 73t31.5 72t39 55t55 22q36 0 57 -23t21 -55q0 -18 -13.5 -49.5t-34 -72t-44.5 -86.5t-44.5 -93.5t-34 -93t-13.5 -84.5q0 -36 44 -36q31 0 77 18t96.5 50.5t101 76.5t89.5 95z" />
    <glyph glyph-name="mu" unicode="&#x3bc;" horiz-adv-x="928" 
d="M1170 239q-44 -50 -102.5 -97.5t-120.5 -84.5t-122 -59.5t-108 -22.5t-78 27t-30 92q0 46 16 107q-26 -39 -65 -79t-89 -73t-112 -53.5t-135 -20.5q-26 0 -49.5 4t-44.5 13l-146 -363q-6 -13 -17.5 -25t-26.5 -21.5t-32.5 -15t-35.5 -5.5q-46 0 -64.5 18t-18.5 44
q0 20 10 43.5t22 43.5q61 117 105 205.5t75.5 156t54 118.5t41 93.5t35 81t37 81t46.5 92.5t64 117q21 38 48.5 54.5t59.5 16.5q14 0 29 -3.5t28 -11t21 -19t8 -26.5q0 -10 -3 -19q-5 -17 -21.5 -44.5t-38.5 -63t-46.5 -76.5t-45.5 -85t-36 -89.5t-17 -88.5q0 -18 10 -33
t33 -15q65 0 124 36t109 89.5t90.5 115t67.5 112.5q19 34 33.5 73t31.5 72t39 55t55 22q36 0 57 -23t21 -55q0 -18 -13.5 -49.5t-34 -72t-44.5 -86.5t-44.5 -93.5t-34 -93t-13.5 -84.5q0 -36 44 -36q31 0 77 18t96.5 50.5t101 76.5t89.5 95z" />
    <glyph glyph-name="paragraph" unicode="&#xb6;" horiz-adv-x="1241" 
d="M1612 1368l-70 -135h-127l-742 -1434h-148l742 1434h-204l-743 -1434h-147l438 848q-266 0 -266 190q0 63 25 126t73 129q55 75 120.5 127.5t141 85.5t159.5 48t175 15h573z" />
    <glyph glyph-name="periodcentered" unicode="&#xb7;" horiz-adv-x="732" 
d="M580 845q0 -31 -11.5 -59t-31 -49.5t-45.5 -34t-55 -12.5q-24 0 -45 9.5t-36.5 25.5t-24.5 37.5t-9 45.5q0 30 11.5 57.5t31.5 48.5t47 33.5t58 12.5q49 0 79.5 -33t30.5 -82z" />
    <glyph glyph-name="cedilla" unicode="&#xb8;" horiz-adv-x="1135" 
d="M627 -225q0 -48 -19 -90.5t-51.5 -74.5t-76 -50.5t-91.5 -18.5q-51 0 -81.5 17.5t-30.5 43.5q0 7 3.5 16t9.5 16.5t15 12.5t20 5q17 0 36 -6.5t36 -6.5q25 0 46 9.5t36.5 25.5t24 38t8.5 46q0 29 -9.5 41t-31.5 17q-17 0 -36.5 -4.5t-38 -9.5t-35 -9.5t-28.5 -4.5
q-20 0 -20 17q0 18 26 64l73 131h114l-88 -131q19 6 40 13t38 7q51 0 81 -30t30 -84z" />
    <glyph glyph-name="onesuperior" unicode="&#xb9;" horiz-adv-x="736" 
d="M258 97q28 45 51 86.5t43.5 80.5t40 76.5t40.5 75.5l137 249q-13 -5 -43.5 -17t-65 -25.5t-65 -25.5t-42.5 -16q-3 -2 -7.5 -2.5t-6.5 -0.5q-16 0 -28.5 13.5t-12.5 35.5q0 19 12 42t43 48q67 45 134 81q28 15 59 29.5t61.5 26t60 18.5t54.5 7q29 0 50.5 -15.5
t21.5 -53.5q0 -12 -2 -27.5t-10 -32.5q-15 -31 -36.5 -79.5t-46.5 -106t-52.5 -121.5t-55 -126t-53.5 -118.5t-47 -99.5q-15 -30 -35.5 -53t-43 -38.5t-46.5 -23.5t-45 -8q-32 0 -54.5 16.5t-22.5 49.5q0 11 2 26t11 29z" />
    <glyph glyph-name="ordmasculine" unicode="&#xba;" horiz-adv-x="848" 
d="M589 1174q-39 0 -76 -20t-65 -52t-45 -73t-17 -84q0 -16 2.5 -35t10.5 -35.5t23 -27.5t41 -11q39 0 76 20.5t65 54t45 75.5t17 85q0 17 -2 35.5t-10 33.5t-23.5 24.5t-41.5 9.5zM843 1150q0 -93 -35 -177t-96 -147t-144 -100.5t-179 -37.5q-23 0 -54.5 9.5t-59.5 31
t-47.5 56t-19.5 84.5q0 34 11 81t33 97.5t56.5 100t82 88.5t107.5 63t135 24q32 0 69 -8.5t68.5 -28.5t52 -53.5t20.5 -82.5z" />
    <glyph glyph-name="guillemotright" unicode="&#xbb;" horiz-adv-x="1570" 
d="M468 132q-8 -4 -19 -4q-19 0 -32.5 16.5t-13.5 41.5t18.5 53t69.5 49q79 34 136.5 57t94 38t54.5 22l17 7l-26 12q-26 12 -61.5 29.5t-72.5 36l-61 30.5q-20 11 -28.5 22.5t-8.5 25.5q0 18 7.5 37t19 34.5t25.5 26t27 10.5q7 0 16 -4q18 -9 42 -21.5t51.5 -27t57 -30
t57.5 -31.5q65 -35 136 -75q20 -10 29.5 -24t9.5 -31q0 -25 -16.5 -46t-44.5 -33q-63 -30 -140 -65l-154 -70t-190 -86zM921 132q-7 -4 -19 -4q-19 0 -32 16.5t-13 41.5t18.5 53t69.5 49q79 34 136 57t94 38t54 22l17 7l-26 12q-25 12 -60.5 29.5t-72.5 36l-61 30.5
q-21 11 -29 22.5t-8 25.5q0 18 7 37t18.5 34.5t25.5 26t27 10.5q8 0 16 -4q18 -9 42.5 -21.5t52 -27t56.5 -30t57 -31.5q66 -35 136 -75q20 -10 29.5 -24t9.5 -31q0 -25 -16.5 -46t-43.5 -33q-64 -30 -141 -65q-65 -30 -153 -70t-191 -86z" />
    <glyph glyph-name="onequarter" unicode="&#xbc;" horiz-adv-x="2423" 
d="M568 662q28 45 51 86.5t43.5 80.5t40 76.5t40.5 75.5l137 249q-13 -5 -43.5 -17t-65 -25.5t-65 -25.5t-42.5 -16q-3 -2 -7.5 -2.5t-6.5 -0.5q-16 0 -28.5 13.5t-12.5 35.5q0 19 12 42t43 48q67 45 134 81q28 15 59 29.5t61.5 26t60 18.5t54.5 7q29 0 50.5 -15.5
t21.5 -53.5q0 -12 -2 -27.5t-10 -32.5q-15 -31 -36.5 -79.5t-46.5 -106t-52.5 -121.5t-55 -126t-53.5 -118.5t-47 -99.5q-15 -30 -35.5 -53t-43 -38.5t-46.5 -23.5t-45 -8q-32 0 -54.5 16.5t-22.5 49.5q0 11 2 26t11 29zM1758 1476q-237 -404 -473.5 -808t-473.5 -808
q-14 -25 -34 -35t-42 -10q-29 0 -53 15t-24 39q0 5 1 11.5t4 10.5q235 407 467 809.5t467 809.5q14 23 35.5 33.5t45.5 10.5q38 0 59.5 -18t21.5 -45q0 -10 -1 -15zM2156 723q-21 -46 -44 -94.5t-45.5 -96.5t-44 -94t-40.5 -87q-46 -97 -89 -188h179q20 0 31 -15.5t11 -36.5
q0 -19 -6.5 -38.5t-19.5 -35.5t-33.5 -26.5t-47.5 -10.5h-183l-154 -341q-18 -35 -43.5 -50t-51.5 -15q-33 0 -56.5 20t-23.5 51q0 7 2 14t5 15l132 306h-267q-15 0 -28 1.5t-23.5 6.5t-16.5 13.5t-6 23.5q0 17 7.5 40t26.5 58q21 39 48.5 93.5t57.5 116t60.5 126.5
t58.5 125.5t50 113t36 88.5q15 42 46 59.5t63 17.5q34 0 60.5 -16.5t27.5 -41.5q-1 -5 -1.5 -9.5t-2.5 -9.5q-34 -83 -72 -167.5t-76.5 -166.5t-76.5 -159t-71 -146q26 1 47.5 1h38.5h76l28 -1l12 29q12 28 34.5 75.5t51 109.5t60 128.5t63 133.5t59.5 125q26 60 58.5 87.5
t58.5 27.5q23 0 39 -19t16 -54q0 -19 -5 -41t-16 -46z" />
    <glyph glyph-name="onehalf" unicode="&#xbd;" horiz-adv-x="2157" 
d="M454 660q28 45 51 86.5t43.5 80.5t40 76.5t40.5 75.5l137 249q-13 -5 -43.5 -17t-65 -25.5t-65 -25.5t-42.5 -16q-3 -2 -7.5 -2.5t-6.5 -0.5q-16 0 -28.5 13.5t-12.5 35.5q0 19 12 42t43 48q67 45 134 81q28 15 59 29.5t61.5 26t60 18.5t54.5 7q29 0 50.5 -15.5
t21.5 -53.5q0 -12 -2 -27.5t-10 -32.5q-15 -31 -36.5 -79.5t-46.5 -106t-52.5 -121.5t-55 -126t-53.5 -118.5t-47 -99.5q-15 -30 -35.5 -53t-43 -38.5t-46.5 -23.5t-45 -8q-32 0 -54.5 16.5t-22.5 49.5q0 11 2 26t11 29zM1570 1476q-237 -404 -473.5 -808t-473.5 -808
q-14 -25 -34 -35t-42 -10q-29 0 -53 15t-24 39q0 5 1 11.5t4 10.5q235 407 467 809.5t467 809.5q14 23 35.5 33.5t45.5 10.5q38 0 59.5 -18t21.5 -45q0 -10 -1 -15zM1921 167q4 1 7 1.5t6 0.5q21 0 35 -16t14 -39q0 -33 -23.5 -59t-59.5 -43.5t-79 -26.5t-82 -9
q-32 0 -63 3.5t-68 14.5t-83 32t-109 56q-59 -37 -92.5 -58t-51.5 -31t-25 -12t-12 -2q-12 0 -24.5 7.5t-23.5 19.5t-18 27.5t-7 32.5q0 14 6.5 28t22.5 25q66 36 134 76.5t131 85t118 91.5t96 94.5t64.5 95t23.5 93.5q0 45 -22 63.5t-58 18.5q-29 0 -62.5 -10t-67.5 -25.5
t-67.5 -33t-62 -33t-50.5 -25.5t-34 -10q-16 0 -30 7t-24 18.5t-15.5 25.5t-5.5 29q0 25 23 51.5t61 51.5t87 47t100.5 39t102 26.5t92.5 9.5q49 0 92.5 -12.5t75.5 -40t50.5 -72.5t18.5 -110q0 -55 -17.5 -110t-63.5 -113.5t-124.5 -120.5t-200.5 -131q43 -19 92 -32
t88 -13q29 0 52 1t44 3.5t42 5.5t47 7z" />
    <glyph glyph-name="threequarters" unicode="&#xbe;" horiz-adv-x="2673" 
d="M996 776q0 24 -4.5 46.5t-19.5 39t-43 26.5t-75 10q-16 0 -33.5 -2.5t-37.5 -2.5q-28 0 -41 17t-13 37q0 26 25.5 46.5t73.5 28.5q69 11 119 36t82.5 53.5t48 55t15.5 41.5q0 29 -20.5 47.5t-49.5 18.5q-50 0 -89 -8t-72 -17t-61 -17t-55 -8q-29 0 -51 18.5t-22 45.5
q0 22 19 47q28 21 67.5 40t84.5 33.5t93.5 23.5t95.5 9t89 -10.5t73.5 -34.5t50 -62.5t18.5 -95.5q0 -78 -65 -147.5t-187 -111.5q51 -12 84 -33t52.5 -46.5t27 -54t7.5 -54.5q0 -79 -24 -143.5t-65 -116t-96.5 -91.5t-119.5 -70t-133 -51t-136 -35q-16 -3 -28 -5t-23 -2
q-38 0 -56.5 16t-18.5 38q0 23 20 46.5t59 34.5q42 9 90.5 25.5t96.5 41t92 55.5t78 68.5t55 81t22 92.5zM2085 1476q-237 -404 -473.5 -808t-473.5 -808q-14 -25 -34 -35t-42 -10q-29 0 -53 15t-24 39q0 5 1 11.5t4 10.5q235 407 467 809.5t467 809.5q14 23 35.5 33.5
t45.5 10.5q38 0 59.5 -18t21.5 -45q0 -10 -1 -15zM2481 723q-21 -46 -44 -94.5t-45.5 -96.5t-44 -94t-40.5 -87q-46 -97 -89 -188h179q20 0 31 -15.5t11 -36.5q0 -19 -6.5 -38.5t-19.5 -35.5t-33.5 -26.5t-47.5 -10.5h-183l-154 -341q-18 -35 -43.5 -50t-51.5 -15
q-33 0 -56.5 20t-23.5 51q0 7 2 14t5 15l132 306h-267q-15 0 -28 1.5t-23.5 6.5t-16.5 13.5t-6 23.5q0 17 7.5 40t26.5 58q21 39 48.5 93.5t57.5 116t60.5 126.5t58.5 125.5t50 113t36 88.5q15 42 46 59.5t63 17.5q34 0 60.5 -16.5t27.5 -41.5q-1 -5 -1.5 -9.5t-2.5 -9.5
q-34 -83 -72 -167.5t-76.5 -166.5t-76.5 -159t-71 -146q26 1 47.5 1h38.5h76l28 -1l12 29q12 28 34.5 75.5t51 109.5t60 128.5t63 133.5t59.5 125q26 60 58.5 87.5t58.5 27.5q23 0 39 -19t16 -54q0 -19 -5 -41t-16 -46z" />
    <glyph glyph-name="questiondown" unicode="&#xbf;" horiz-adv-x="943" 
d="M713 1024q7 31 23.5 59t40 49.5t51.5 34t57 12.5q42 0 67.5 -26.5t25.5 -65.5q0 -34 -15.5 -66t-40.5 -57t-57 -40t-65 -15q-43 0 -66.5 24.5t-23.5 62.5q0 13 3 28zM486 523q39 29 73.5 61t63 65t49 64.5t30.5 59.5q6 17 27.5 25t40.5 8q21 0 36.5 -10t15.5 -29
q0 -6 -1 -9q-16 -75 -77.5 -150t-149.5 -144q-48 -32 -94 -67t-83 -71t-59.5 -71t-22.5 -65q0 -33 18 -48.5t49 -15.5q29 0 67.5 12.5t79 36t78.5 56t66 72.5q20 29 53 29q27 0 50.5 -14.5t23.5 -37.5q0 -14 -6.5 -27t-18.5 -28q-47 -60 -104.5 -106.5t-119 -78.5
t-122.5 -48.5t-115 -16.5q-39 0 -72.5 9.5t-57.5 29t-37.5 49t-13.5 70.5q0 58 18.5 104t58.5 90t103 90.5t153 105.5z" />
    <glyph glyph-name="Agrave" unicode="&#xc0;" horiz-adv-x="1323" 
d="M1076 285q-5 -19 -10.5 -43.5t-5.5 -46.5q0 -20 6 -34t26 -14q27 0 64.5 19.5t80.5 52t89 75t91 88t86 91.5t73 86l37 -133q-66 -88 -136 -169t-142.5 -143t-145.5 -99t-145 -37q-42 0 -71.5 13.5t-47.5 37t-26.5 54t-8.5 64.5q0 13 1 37t2.5 49.5t3 46.5t1.5 27
l-355 -22l-165 -2q-42 -91 -83 -161q-18 -30 -38 -59t-40 -51.5t-40 -36t-39 -13.5q-30 0 -49 9t-30 22.5t-15.5 30.5t-4.5 32q0 26 7 51.5t20 48.5l132 222q9 14 36.5 67t71 130.5t100.5 171.5t123.5 190.5t141 187.5t153 161.5t158.5 113t159 42.5q74 0 145.5 -46
t136.5 -151q7 -14 7 -24q0 -13 -7 -26t-18.5 -23t-25.5 -16t-29 -6q-18 0 -41.5 8t-44.5 34q-31 36 -64.5 52.5t-66.5 16.5q-47 0 -96 -26.5t-98.5 -72t-98.5 -105t-95 -125.5t-89 -135t-81 -132t-69.5 -116t-55.5 -89h183l309 23q9 20 24 54.5t33.5 77.5t40.5 93
t44.5 100.5t44.5 100t41 91.5q13 38 38.5 54t54.5 16q15 0 30 -4.5t27.5 -14t20.5 -24t9 -34.5q0 -19 -16.5 -65t-42 -108t-57 -134.5t-62 -145t-56.5 -139t-40 -116.5zM1384 1631q2 -13 3 -24t1 -21q0 -37 -15 -54t-35 -17t-41.5 17t-35.5 51q-29 63 -59 125t-59 125
q-12 27 -12 52q0 24 9 44.5t23.5 35t33 23t37.5 8.5q32 0 61.5 -26t43.5 -89q11 -63 22.5 -125t22.5 -125z" />
    <glyph glyph-name="Aacute" unicode="&#xc1;" horiz-adv-x="1323" 
d="M1076 285q-5 -19 -10.5 -43.5t-5.5 -46.5q0 -20 6 -34t26 -14q27 0 64.5 19.5t80.5 52t89 75t91 88t86 91.5t73 86l37 -133q-66 -88 -136 -169t-142.5 -143t-145.5 -99t-145 -37q-42 0 -71.5 13.5t-47.5 37t-26.5 54t-8.5 64.5q0 13 1 37t2.5 49.5t3 46.5t1.5 27
l-355 -22l-165 -2q-42 -91 -83 -161q-18 -30 -38 -59t-40 -51.5t-40 -36t-39 -13.5q-30 0 -49 9t-30 22.5t-15.5 30.5t-4.5 32q0 26 7 51.5t20 48.5l132 222q9 14 36.5 67t71 130.5t100.5 171.5t123.5 190.5t141 187.5t153 161.5t158.5 113t159 42.5q74 0 145.5 -46
t136.5 -151q7 -14 7 -24q0 -13 -7 -26t-18.5 -23t-25.5 -16t-29 -6q-18 0 -41.5 8t-44.5 34q-31 36 -64.5 52.5t-66.5 16.5q-47 0 -96 -26.5t-98.5 -72t-98.5 -105t-95 -125.5t-89 -135t-81 -132t-69.5 -116t-55.5 -89h183l309 23q9 20 24 54.5t33.5 77.5t40.5 93
t44.5 100.5t44.5 100t41 91.5q13 38 38.5 54t54.5 16q15 0 30 -4.5t27.5 -14t20.5 -24t9 -34.5q0 -19 -16.5 -65t-42 -108t-57 -134.5t-62 -145t-56.5 -139t-40 -116.5zM1253 1664q36 63 72.5 125t71.5 125q38 63 78 89t72 26q30 0 49 -19t19 -50q0 -20 -9 -44t-32 -50
q-54 -63 -108.5 -125t-108.5 -125q-26 -34 -55 -51t-49 -17q-31 0 -31 32q0 29 31 84z" />
    <glyph glyph-name="Acircumflex" unicode="&#xc2;" horiz-adv-x="1323" 
d="M1076 285q-5 -19 -10.5 -43.5t-5.5 -46.5q0 -20 6 -34t26 -14q27 0 64.5 19.5t80.5 52t89 75t91 88t86 91.5t73 86l37 -133q-66 -88 -136 -169t-142.5 -143t-145.5 -99t-145 -37q-42 0 -71.5 13.5t-47.5 37t-26.5 54t-8.5 64.5q0 13 1 37t2.5 49.5t3 46.5t1.5 27
l-355 -22l-165 -2q-42 -91 -83 -161q-18 -30 -38 -59t-40 -51.5t-40 -36t-39 -13.5q-30 0 -49 9t-30 22.5t-15.5 30.5t-4.5 32q0 26 7 51.5t20 48.5l132 222q9 14 36.5 67t71 130.5t100.5 171.5t123.5 190.5t141 187.5t153 161.5t158.5 113t159 42.5q74 0 145.5 -46
t136.5 -151q7 -14 7 -24q0 -13 -7 -26t-18.5 -23t-25.5 -16t-29 -6q-18 0 -41.5 8t-44.5 34q-31 36 -64.5 52.5t-66.5 16.5q-47 0 -96 -26.5t-98.5 -72t-98.5 -105t-95 -125.5t-89 -135t-81 -132t-69.5 -116t-55.5 -89h183l309 23q9 20 24 54.5t33.5 77.5t40.5 93
t44.5 100.5t44.5 100t41 91.5q13 38 38.5 54t54.5 16q15 0 30 -4.5t27.5 -14t20.5 -24t9 -34.5q0 -19 -16.5 -65t-42 -108t-57 -134.5t-62 -145t-56.5 -139t-40 -116.5zM1037 1654q68 59 116 101.5t81 71.5t54 46t36 26.5t27 12t26 2.5q27 0 43.5 -13t33.5 -45t40.5 -86
t64.5 -137q3 -8 3 -15q0 -12 -7.5 -21.5t-19.5 -16.5t-27 -11t-30 -4q-22 0 -40.5 7.5t-26.5 24.5q-7 16 -19 43.5t-24 53.5q-14 31 -30 64q-36 -33 -69 -64q-28 -26 -57 -53.5t-47 -43.5q-26 -23 -55 -23q-17 0 -32.5 4.5t-27.5 12t-19 17.5t-7 20q0 14 13 26z" />
    <glyph glyph-name="Atilde" unicode="&#xc3;" horiz-adv-x="1323" 
d="M1076 285q-5 -19 -10.5 -43.5t-5.5 -46.5q0 -20 6 -34t26 -14q27 0 64.5 19.5t80.5 52t89 75t91 88t86 91.5t73 86l37 -133q-66 -88 -136 -169t-142.5 -143t-145.5 -99t-145 -37q-42 0 -71.5 13.5t-47.5 37t-26.5 54t-8.5 64.5q0 13 1 37t2.5 49.5t3 46.5t1.5 27
l-355 -22l-165 -2q-42 -91 -83 -161q-18 -30 -38 -59t-40 -51.5t-40 -36t-39 -13.5q-30 0 -49 9t-30 22.5t-15.5 30.5t-4.5 32q0 26 7 51.5t20 48.5l132 222q9 14 36.5 67t71 130.5t100.5 171.5t123.5 190.5t141 187.5t153 161.5t158.5 113t159 42.5q74 0 145.5 -46
t136.5 -151q7 -14 7 -24q0 -13 -7 -26t-18.5 -23t-25.5 -16t-29 -6q-18 0 -41.5 8t-44.5 34q-31 36 -64.5 52.5t-66.5 16.5q-47 0 -96 -26.5t-98.5 -72t-98.5 -105t-95 -125.5t-89 -135t-81 -132t-69.5 -116t-55.5 -89h183l309 23q9 20 24 54.5t33.5 77.5t40.5 93
t44.5 100.5t44.5 100t41 91.5q13 38 38.5 54t54.5 16q15 0 30 -4.5t27.5 -14t20.5 -24t9 -34.5q0 -19 -16.5 -65t-42 -108t-57 -134.5t-62 -145t-56.5 -139t-40 -116.5zM1600 1721q-18 -38 -38 -70.5t-44 -56.5t-52.5 -38t-62.5 -14q-6 0 -12 0.5t-12 1.5q-12 1 -37 10.5
t-54.5 21t-60 22t-53.5 14.5q-2 0 -4 0.5t-4 0.5q-9 0 -15 -4.5t-10.5 -11t-7.5 -13.5t-6 -12q-12 -23 -37.5 -33t-46.5 -10q-23 0 -40 9t-17 24q0 7 2 10q18 39 41 72t50 56t56 36t59 13q20 0 45 -10.5t53 -22.5t57.5 -22.5t59.5 -10.5q21 0 36 10.5t23 27.5q11 26 34 37.5
t46 11.5t39 -10.5t16 -27.5v-2q0 -2 -1 -3.5t-2 -5.5z" />
    <glyph glyph-name="Adieresis" unicode="&#xc4;" horiz-adv-x="1323" 
d="M1076 285q-5 -19 -10.5 -43.5t-5.5 -46.5q0 -20 6 -34t26 -14q27 0 64.5 19.5t80.5 52t89 75t91 88t86 91.5t73 86l37 -133q-66 -88 -136 -169t-142.5 -143t-145.5 -99t-145 -37q-42 0 -71.5 13.5t-47.5 37t-26.5 54t-8.5 64.5q0 13 1 37t2.5 49.5t3 46.5t1.5 27
l-355 -22l-165 -2q-42 -91 -83 -161q-18 -30 -38 -59t-40 -51.5t-40 -36t-39 -13.5q-30 0 -49 9t-30 22.5t-15.5 30.5t-4.5 32q0 26 7 51.5t20 48.5l132 222q9 14 36.5 67t71 130.5t100.5 171.5t123.5 190.5t141 187.5t153 161.5t158.5 113t159 42.5q74 0 145.5 -46
t136.5 -151q7 -14 7 -24q0 -13 -7 -26t-18.5 -23t-25.5 -16t-29 -6q-18 0 -41.5 8t-44.5 34q-31 36 -64.5 52.5t-66.5 16.5q-47 0 -96 -26.5t-98.5 -72t-98.5 -105t-95 -125.5t-89 -135t-81 -132t-69.5 -116t-55.5 -89h183l309 23q9 20 24 54.5t33.5 77.5t40.5 93
t44.5 100.5t44.5 100t41 91.5q13 38 38.5 54t54.5 16q15 0 30 -4.5t27.5 -14t20.5 -24t9 -34.5q0 -19 -16.5 -65t-42 -108t-57 -134.5t-62 -145t-56.5 -139t-40 -116.5zM1285 1664q-5 -25 -19 -48t-33.5 -40.5t-44 -28t-49.5 -10.5q-37 0 -58.5 20.5t-21.5 54.5
q0 31 13 58.5t34 47.5t48.5 32t56.5 12q37 0 56.5 -20.5t19.5 -54.5q0 -5 -0.5 -11t-1.5 -12zM1588 1664q-5 -25 -19 -48t-33.5 -40.5t-44 -28t-49.5 -10.5q-37 0 -58.5 20.5t-21.5 54.5q0 31 13 58.5t34 47.5t48.5 32t56.5 12q37 0 56.5 -20.5t19.5 -54.5q0 -5 -0.5 -11
t-1.5 -12z" />
    <glyph glyph-name="Aring" unicode="&#xc5;" horiz-adv-x="1323" 
d="M1076 285q-5 -19 -10.5 -43.5t-5.5 -46.5q0 -20 6 -34t26 -14q27 0 64.5 19.5t80.5 52t89 75t91 88t86 91.5t73 86l37 -133q-66 -88 -136 -169t-142.5 -143t-145.5 -99t-145 -37q-42 0 -71.5 13.5t-47.5 37t-26.5 54t-8.5 64.5q0 13 1 37t2.5 49.5t3 46.5t1.5 27
l-355 -22l-165 -2q-42 -91 -83 -161q-18 -30 -38 -59t-40 -51.5t-40 -36t-39 -13.5q-30 0 -49 9t-30 22.5t-15.5 30.5t-4.5 32q0 26 7 51.5t20 48.5l132 222q9 14 36.5 67t71 130.5t100.5 171.5t123.5 190.5t141 187.5t153 161.5t158.5 113t159 42.5q74 0 145.5 -46
t136.5 -151q7 -14 7 -24q0 -13 -7 -26t-18.5 -23t-25.5 -16t-29 -6q-18 0 -41.5 8t-44.5 34q-31 36 -64.5 52.5t-66.5 16.5q-47 0 -96 -26.5t-98.5 -72t-98.5 -105t-95 -125.5t-89 -135t-81 -132t-69.5 -116t-55.5 -89h183l309 23q9 20 24 54.5t33.5 77.5t40.5 93
t44.5 100.5t44.5 100t41 91.5q13 38 38.5 54t54.5 16q15 0 30 -4.5t27.5 -14t20.5 -24t9 -34.5q0 -19 -16.5 -65t-42 -108t-57 -134.5t-62 -145t-56.5 -139t-40 -116.5zM1298 1829q-26 0 -48 -10.5t-38 -27.5t-25 -37.5t-9 -40.5q0 -26 17 -43.5t54 -17.5q27 0 49 10.5
t37.5 27t24.5 36.5t9 40q0 26 -16.5 44.5t-54.5 18.5zM1461 1738q-10 -36 -34.5 -68.5t-57 -57t-70.5 -39t-75 -14.5q-31 0 -57.5 10.5t-45.5 29t-29.5 43.5t-10.5 54q0 43 22 83.5t57 72t78 50.5t85 19q31 0 57.5 -10.5t45.5 -28.5t30 -43t11 -55q0 -22 -6 -46z" />
    <glyph glyph-name="AE" unicode="&#xc6;" horiz-adv-x="2029" 
d="M1817 825q57 0 85.5 -15t28.5 -36q0 -20 -10.5 -34t-28 -24t-41 -16.5t-48.5 -11.5q-26 -5 -94 -7t-173 -2q-42 -74 -81 -143.5t-74 -136.5q-31 -58 -44.5 -99.5t-13.5 -70.5q0 -35 16 -55t43 -30t62.5 -13t74.5 -3q18 0 35.5 0.5t35.5 0.5q123 0 209 28t148.5 70.5
t106 91.5t81 91.5t75 70.5t86.5 28q38 0 58 -16.5t20 -46.5q0 -41 -31.5 -93t-87.5 -106t-133 -105t-168 -91t-192.5 -64.5t-206.5 -24.5q-53 0 -109 3t-109.5 11.5t-101 23.5t-83.5 39t-57 57.5t-21 79.5q0 59 37 133q-19 0 -33 -1t-18 -1l-328 -22l-166 -2
q-28 -46 -55.5 -86t-53.5 -75q-23 -30 -47.5 -59t-48.5 -51.5t-46 -36t-41 -13.5q-26 0 -42.5 6.5t-26 17.5t-13.5 24t-4 27q0 29 13 61t33 58l169 222q11 14 48 69t93.5 134t129.5 176t155.5 195.5t172.5 191.5t180.5 165.5t178 116t166.5 43.5q34 0 69.5 -10t67 -33
t56.5 -61.5t39 -96.5q50 56 115.5 100t138 74t147.5 46t145 16q85 0 154.5 -17.5t119.5 -53t77.5 -90.5t27.5 -130l-2 -11q-5 -26 -21.5 -51.5t-41 -46t-55.5 -33.5t-65 -13q-31 0 -41.5 12.5t-10.5 34.5q0 24 7.5 57t7.5 66q0 28 -15 48.5t-41 33.5t-61.5 19t-77.5 6
q-59 0 -131 -17.5t-141 -48.5t-126.5 -74.5t-87.5 -95.5l-160 -274h196zM1476 985q28 45 52.5 82.5t42.5 67t28.5 49.5t10.5 30q0 4 -1 5q-24 37 -54.5 53t-65.5 16q-47 0 -100.5 -27.5t-111 -74.5t-116.5 -108.5t-116.5 -130t-112.5 -139.5t-103.5 -136t-89.5 -120t-71 -92
h183l313 23q18 30 54 89t80.5 130t91.5 146t86 137z" />
    <glyph glyph-name="Ccedilla" unicode="&#xc7;" horiz-adv-x="1039" 
d="M1364 1263q0 -27 -8.5 -65t-24.5 -79t-38.5 -81.5t-51.5 -73t-63 -52.5t-73 -20q-9 0 -23.5 1.5t-29 7t-25 16.5t-10.5 29q0 12 6.5 28t23.5 37q18 20 39 47.5t38 57.5t28.5 59t11.5 52q0 29 -13.5 46.5t-46.5 17.5q-43 0 -97 -28t-113 -77t-120 -114.5t-118 -140
t-107.5 -155t-88 -159t-59 -151t-21.5 -131.5q0 -73 39 -117t129 -44q42 0 125 32.5t138.5 65t112 72t107.5 76t93 66t69 41.5q5 4 12 4q15 0 20.5 -24.5t5.5 -55.5q0 -17 -4.5 -41.5t-28.5 -56.5q-11 -13 -41 -44t-75 -70t-103 -81t-125.5 -77t-174 -69t-185.5 -34
q-93 0 -159 22.5t-108 62.5t-61.5 95.5t-19.5 121.5q0 82 25 176t69.5 191t106 194t135 185.5t156.5 164.5t170 132t175 88t173 32q42 0 80 -9.5t66.5 -30.5t45 -55.5t16.5 -84.5zM584 -225q0 -48 -19 -90.5t-51.5 -74.5t-76 -50.5t-91.5 -18.5q-51 0 -81.5 17.5t-30.5 43.5
q0 7 3.5 16t9.5 16.5t15 12.5t20 5q17 0 36 -6.5t36 -6.5q25 0 46 9.5t36.5 25.5t24 38t8.5 46q0 29 -9.5 41t-31.5 17q-17 0 -36.5 -4.5t-38 -9.5t-35 -9.5t-28.5 -4.5q-20 0 -20 17q0 18 26 64l73 131h114l-88 -131q19 6 40 13t38 7q51 0 81 -30t30 -84z" />
    <glyph glyph-name="Egrave" unicode="&#xc8;" horiz-adv-x="1155" 
d="M1078 825q16 0 31 -4t27 -11t19 -16.5t7 -19.5q0 -16 -20 -32.5t-69 -30.5t-130.5 -23t-205.5 -9q-67 0 -133 -18.5t-118 -54.5t-84.5 -88t-32.5 -119q0 -54 15.5 -103t47 -86t79 -59t112.5 -22q131 0 218 15.5t145.5 39t96 50.5t70 50.5t67 39t86.5 15.5q42 0 66 -20.5
t24 -58.5q0 -26 -27.5 -58t-78 -65.5t-121.5 -64.5t-158 -55.5t-187 -39.5t-208 -15q-99 0 -186 26.5t-152 79.5t-102.5 132.5t-37.5 186.5q0 92 42 167.5t114.5 132.5t169 94t205.5 51q-84 63 -118 123.5t-34 119.5q0 58 29 107.5t79.5 90.5t117.5 72.5t144 53t159.5 33
t162.5 11.5q82 0 155.5 -17t131.5 -53t95 -91t45 -130q0 -21 -10 -43t-30.5 -40.5t-50 -30t-68.5 -11.5q-21 0 -33.5 5t-19 14t-8 21.5t-1.5 27.5q0 47 -11 81t-36.5 55.5t-66.5 32t-102 10.5q-73 0 -152 -15.5t-145 -45t-108.5 -70.5t-42.5 -92q0 -60 27.5 -103t73 -70.5
t104.5 -40t122 -12.5zM1334 1677q2 -13 3 -24t1 -21q0 -37 -15 -54t-35 -17t-41.5 17t-35.5 51q-29 63 -59 125t-59 125q-12 27 -12 52q0 24 9 44.5t23.5 35t33 23t37.5 8.5q32 0 61.5 -26t43.5 -89q11 -63 22.5 -125t22.5 -125z" />
    <glyph glyph-name="Eacute" unicode="&#xc9;" horiz-adv-x="1155" 
d="M1078 825q16 0 31 -4t27 -11t19 -16.5t7 -19.5q0 -16 -20 -32.5t-69 -30.5t-130.5 -23t-205.5 -9q-67 0 -133 -18.5t-118 -54.5t-84.5 -88t-32.5 -119q0 -54 15.5 -103t47 -86t79 -59t112.5 -22q131 0 218 15.5t145.5 39t96 50.5t70 50.5t67 39t86.5 15.5q42 0 66 -20.5
t24 -58.5q0 -26 -27.5 -58t-78 -65.5t-121.5 -64.5t-158 -55.5t-187 -39.5t-208 -15q-99 0 -186 26.5t-152 79.5t-102.5 132.5t-37.5 186.5q0 92 42 167.5t114.5 132.5t169 94t205.5 51q-84 63 -118 123.5t-34 119.5q0 58 29 107.5t79.5 90.5t117.5 72.5t144 53t159.5 33
t162.5 11.5q82 0 155.5 -17t131.5 -53t95 -91t45 -130q0 -21 -10 -43t-30.5 -40.5t-50 -30t-68.5 -11.5q-21 0 -33.5 5t-19 14t-8 21.5t-1.5 27.5q0 47 -11 81t-36.5 55.5t-66.5 32t-102 10.5q-73 0 -152 -15.5t-145 -45t-108.5 -70.5t-42.5 -92q0 -60 27.5 -103t73 -70.5
t104.5 -40t122 -12.5zM1115 1659q36 63 72.5 125t71.5 125q38 63 78 89t72 26q30 0 49 -19t19 -50q0 -20 -9 -44t-32 -50q-54 -63 -108.5 -125t-108.5 -125q-26 -34 -55 -51t-49 -17q-31 0 -31 32q0 29 31 84z" />
    <glyph glyph-name="Ecircumflex" unicode="&#xca;" horiz-adv-x="1155" 
d="M1078 825q16 0 31 -4t27 -11t19 -16.5t7 -19.5q0 -16 -20 -32.5t-69 -30.5t-130.5 -23t-205.5 -9q-67 0 -133 -18.5t-118 -54.5t-84.5 -88t-32.5 -119q0 -54 15.5 -103t47 -86t79 -59t112.5 -22q131 0 218 15.5t145.5 39t96 50.5t70 50.5t67 39t86.5 15.5q42 0 66 -20.5
t24 -58.5q0 -26 -27.5 -58t-78 -65.5t-121.5 -64.5t-158 -55.5t-187 -39.5t-208 -15q-99 0 -186 26.5t-152 79.5t-102.5 132.5t-37.5 186.5q0 92 42 167.5t114.5 132.5t169 94t205.5 51q-84 63 -118 123.5t-34 119.5q0 58 29 107.5t79.5 90.5t117.5 72.5t144 53t159.5 33
t162.5 11.5q82 0 155.5 -17t131.5 -53t95 -91t45 -130q0 -21 -10 -43t-30.5 -40.5t-50 -30t-68.5 -11.5q-21 0 -33.5 5t-19 14t-8 21.5t-1.5 27.5q0 47 -11 81t-36.5 55.5t-66.5 32t-102 10.5q-73 0 -152 -15.5t-145 -45t-108.5 -70.5t-42.5 -92q0 -60 27.5 -103t73 -70.5
t104.5 -40t122 -12.5zM1061 1648q68 59 116 101.5t81 71.5t54 46t36 26.5t27 12t26 2.5q27 0 43.5 -13t33.5 -45t40.5 -86t64.5 -137q3 -8 3 -15q0 -12 -7.5 -21.5t-19.5 -16.5t-27 -11t-30 -4q-22 0 -40.5 7.5t-26.5 24.5q-7 16 -19 43.5t-24 53.5q-14 31 -30 64
q-36 -33 -69 -64q-28 -26 -57 -53.5t-47 -43.5q-26 -23 -55 -23q-17 0 -32.5 4.5t-27.5 12t-19 17.5t-7 20q0 14 13 26z" />
    <glyph glyph-name="Edieresis" unicode="&#xcb;" horiz-adv-x="1155" 
d="M1078 825q16 0 31 -4t27 -11t19 -16.5t7 -19.5q0 -16 -20 -32.5t-69 -30.5t-130.5 -23t-205.5 -9q-67 0 -133 -18.5t-118 -54.5t-84.5 -88t-32.5 -119q0 -54 15.5 -103t47 -86t79 -59t112.5 -22q131 0 218 15.5t145.5 39t96 50.5t70 50.5t67 39t86.5 15.5q42 0 66 -20.5
t24 -58.5q0 -26 -27.5 -58t-78 -65.5t-121.5 -64.5t-158 -55.5t-187 -39.5t-208 -15q-99 0 -186 26.5t-152 79.5t-102.5 132.5t-37.5 186.5q0 92 42 167.5t114.5 132.5t169 94t205.5 51q-84 63 -118 123.5t-34 119.5q0 58 29 107.5t79.5 90.5t117.5 72.5t144 53t159.5 33
t162.5 11.5q82 0 155.5 -17t131.5 -53t95 -91t45 -130q0 -21 -10 -43t-30.5 -40.5t-50 -30t-68.5 -11.5q-21 0 -33.5 5t-19 14t-8 21.5t-1.5 27.5q0 47 -11 81t-36.5 55.5t-66.5 32t-102 10.5q-73 0 -152 -15.5t-145 -45t-108.5 -70.5t-42.5 -92q0 -60 27.5 -103t73 -70.5
t104.5 -40t122 -12.5zM1272 1702q-5 -25 -19 -48t-33.5 -40.5t-44 -28t-49.5 -10.5q-37 0 -58.5 20.5t-21.5 54.5q0 31 13 58.5t34 47.5t48.5 32t56.5 12q37 0 56.5 -20.5t19.5 -54.5q0 -5 -0.5 -11t-1.5 -12zM1575 1702q-5 -25 -19 -48t-33.5 -40.5t-44 -28t-49.5 -10.5
q-37 0 -58.5 20.5t-21.5 54.5q0 31 13 58.5t34 47.5t48.5 32t56.5 12q37 0 56.5 -20.5t19.5 -54.5q0 -5 -0.5 -11t-1.5 -12z" />
    <glyph glyph-name="Igrave" unicode="&#xcc;" horiz-adv-x="1075" 
d="M778 8q-66 7 -117.5 9.5t-96.5 2.5q-30 0 -58.5 -1t-57 -1.5t-59 -1.5t-64.5 -1q-33 0 -51 19t-18 47q0 11 3 23q3 10 23.5 21.5t54 22t78.5 18.5t96 12q52 113 108.5 228.5t113.5 225t111 209.5t101 182.5t84.5 143.5t61.5 93q-51 -11 -99 -23.5t-108 -24.5
q-12 -4 -24 -4q-29 0 -45 20.5t-16 49.5q0 13 23.5 30.5t65 36t98 36t123 31.5t140 22.5t148.5 8.5q70 0 109.5 -14.5t39.5 -49.5q0 -17 -10 -34.5t-26.5 -31.5t-39.5 -22.5t-48 -8.5q-14 0 -26 1.5t-26 1.5q-37 0 -69 -1.5t-61 -3.5q2 -10 2 -15q0 -14 -5 -26.5t-10 -23.5
q-31 -65 -75 -156.5t-94 -194.5t-101.5 -209t-97.5 -200t-83 -167.5t-56 -111.5q56 -5 103 -13.5t80.5 -21t52.5 -29.5t19 -38q0 -15 -10 -29.5t-26 -26t-36 -18t-41 -6.5q-23 0 -43.5 6t-40.5 8zM1378 1683q2 -13 3 -24t1 -21q0 -37 -15 -54t-35 -17t-41.5 17t-35.5 51
q-29 63 -59 125t-59 125q-12 27 -12 52q0 24 9 44.5t23.5 35t33 23t37.5 8.5q32 0 61.5 -26t43.5 -89q11 -63 22.5 -125t22.5 -125z" />
    <glyph glyph-name="Iacute" unicode="&#xcd;" horiz-adv-x="1075" 
d="M778 8q-66 7 -117.5 9.5t-96.5 2.5q-30 0 -58.5 -1t-57 -1.5t-59 -1.5t-64.5 -1q-33 0 -51 19t-18 47q0 11 3 23q3 10 23.5 21.5t54 22t78.5 18.5t96 12q52 113 108.5 228.5t113.5 225t111 209.5t101 182.5t84.5 143.5t61.5 93q-51 -11 -99 -23.5t-108 -24.5
q-12 -4 -24 -4q-29 0 -45 20.5t-16 49.5q0 13 23.5 30.5t65 36t98 36t123 31.5t140 22.5t148.5 8.5q70 0 109.5 -14.5t39.5 -49.5q0 -17 -10 -34.5t-26.5 -31.5t-39.5 -22.5t-48 -8.5q-14 0 -26 1.5t-26 1.5q-37 0 -69 -1.5t-61 -3.5q2 -10 2 -15q0 -14 -5 -26.5t-10 -23.5
q-31 -65 -75 -156.5t-94 -194.5t-101.5 -209t-97.5 -200t-83 -167.5t-56 -111.5q56 -5 103 -13.5t80.5 -21t52.5 -29.5t19 -38q0 -15 -10 -29.5t-26 -26t-36 -18t-41 -6.5q-23 0 -43.5 6t-40.5 8zM1356 1663q36 63 72.5 125t71.5 125q38 63 78 89t72 26q30 0 49 -19t19 -50
q0 -20 -9 -44t-32 -50q-54 -63 -108.5 -125t-108.5 -125q-26 -34 -55 -51t-49 -17q-31 0 -31 32q0 29 31 84z" />
    <glyph glyph-name="Icircumflex" unicode="&#xce;" horiz-adv-x="1075" 
d="M778 8q-66 7 -117.5 9.5t-96.5 2.5q-30 0 -58.5 -1t-57 -1.5t-59 -1.5t-64.5 -1q-33 0 -51 19t-18 47q0 11 3 23q3 10 23.5 21.5t54 22t78.5 18.5t96 12q52 113 108.5 228.5t113.5 225t111 209.5t101 182.5t84.5 143.5t61.5 93q-51 -11 -99 -23.5t-108 -24.5
q-12 -4 -24 -4q-29 0 -45 20.5t-16 49.5q0 13 23.5 30.5t65 36t98 36t123 31.5t140 22.5t148.5 8.5q70 0 109.5 -14.5t39.5 -49.5q0 -17 -10 -34.5t-26.5 -31.5t-39.5 -22.5t-48 -8.5q-14 0 -26 1.5t-26 1.5q-37 0 -69 -1.5t-61 -3.5q2 -10 2 -15q0 -14 -5 -26.5t-10 -23.5
q-31 -65 -75 -156.5t-94 -194.5t-101.5 -209t-97.5 -200t-83 -167.5t-56 -111.5q56 -5 103 -13.5t80.5 -21t52.5 -29.5t19 -38q0 -15 -10 -29.5t-26 -26t-36 -18t-41 -6.5q-23 0 -43.5 6t-40.5 8zM1085 1621q68 59 116 101.5t81 71.5t54 46t36 26.5t27 12t26 2.5
q27 0 43.5 -13t33.5 -45t40.5 -86t64.5 -137q3 -8 3 -15q0 -12 -7.5 -21.5t-19.5 -16.5t-27 -11t-30 -4q-22 0 -40.5 7.5t-26.5 24.5q-7 16 -19 43.5t-24 53.5q-14 31 -30 64q-36 -33 -69 -64q-28 -26 -57 -53.5t-47 -43.5q-26 -23 -55 -23q-17 0 -32.5 4.5t-27.5 12
t-19 17.5t-7 20q0 14 13 26z" />
    <glyph glyph-name="Idieresis" unicode="&#xcf;" horiz-adv-x="1075" 
d="M778 8q-66 7 -117.5 9.5t-96.5 2.5q-30 0 -58.5 -1t-57 -1.5t-59 -1.5t-64.5 -1q-33 0 -51 19t-18 47q0 11 3 23q3 10 23.5 21.5t54 22t78.5 18.5t96 12q52 113 108.5 228.5t113.5 225t111 209.5t101 182.5t84.5 143.5t61.5 93q-51 -11 -99 -23.5t-108 -24.5
q-12 -4 -24 -4q-29 0 -45 20.5t-16 49.5q0 13 23.5 30.5t65 36t98 36t123 31.5t140 22.5t148.5 8.5q70 0 109.5 -14.5t39.5 -49.5q0 -17 -10 -34.5t-26.5 -31.5t-39.5 -22.5t-48 -8.5q-14 0 -26 1.5t-26 1.5q-37 0 -69 -1.5t-61 -3.5q2 -10 2 -15q0 -14 -5 -26.5t-10 -23.5
q-31 -65 -75 -156.5t-94 -194.5t-101.5 -209t-97.5 -200t-83 -167.5t-56 -111.5q56 -5 103 -13.5t80.5 -21t52.5 -29.5t19 -38q0 -15 -10 -29.5t-26 -26t-36 -18t-41 -6.5q-23 0 -43.5 6t-40.5 8zM1335 1689q-5 -25 -19 -48t-33.5 -40.5t-44 -28t-49.5 -10.5
q-37 0 -58.5 20.5t-21.5 54.5q0 31 13 58.5t34 47.5t48.5 32t56.5 12q37 0 56.5 -20.5t19.5 -54.5q0 -5 -0.5 -11t-1.5 -12zM1638 1689q-5 -25 -19 -48t-33.5 -40.5t-44 -28t-49.5 -10.5q-37 0 -58.5 20.5t-21.5 54.5q0 31 13 58.5t34 47.5t48.5 32t56.5 12q37 0 56.5 -20.5
t19.5 -54.5q0 -5 -0.5 -11t-1.5 -12z" />
    <glyph glyph-name="Eth" unicode="&#xd0;" horiz-adv-x="1216" 
d="M911 735q17 0 27 -14.5t10 -33.5q0 -25 -19 -47.5t-63 -22.5h-148q-33 -58 -69 -119.5t-73.5 -122t-76 -118t-75.5 -107.5q108 11 208 55t187.5 109.5t160 147t124 169t80 175.5t28.5 166q0 66 -16.5 122t-50 97t-85.5 64t-122 23q-65 0 -130.5 -12.5t-125.5 -33.5
t-110.5 -49.5t-86.5 -61.5q-40 -44 -70.5 -88t-60 -79t-63.5 -57t-80 -22q-86 0 -86 76q0 48 31 103.5t86.5 110t132 105t168.5 89t196 61.5t214 23q128 0 223 -38t157.5 -104.5t93 -156.5t30.5 -194t-35.5 -218t-104 -224t-169 -209t-231 -174t-289 -119t-342.5 -44
q-40 0 -63 25.5t-23 62.5q0 29 10 56t26 50l232 461h-197q-17 0 -25.5 12t-8.5 29q0 13 5.5 26.5t17 24.5t29.5 18.5t44 7.5h194l120 238q29 45 57.5 72t53 42t43.5 19.5t29 4.5q45 0 64 -26t19 -62q0 -29 -10 -61t-27 -61l-91 -166h126z" />
    <glyph glyph-name="Ntilde" unicode="&#xd1;" horiz-adv-x="1527" 
d="M1065 1347q16 -69 32 -151t31.5 -170.5t31 -180t31 -180t30 -171t29.5 -152.5q101 199 194.5 377t174.5 319.5t147 241t114 142.5q21 20 44 28t45 8q32 0 54.5 -16t22.5 -41q0 -15 -5 -25t-16 -22q-41 -47 -77 -86.5t-70.5 -83t-69 -97.5t-71.5 -129q-45 -83 -90 -170.5
t-87 -174t-80.5 -167.5t-70.5 -149.5t-58 -122t-43 -83.5q-29 -62 -66.5 -92t-68.5 -31h-7q-20 1 -39 8t-35 21t-27.5 35.5t-15.5 50.5q-16 63 -28.5 123.5t-23.5 124t-22.5 133t-24.5 151.5t-29.5 179t-38.5 215q-30 -100 -73 -219.5t-95 -241t-112 -235t-126 -201.5
t-135.5 -141t-139.5 -53q-12 0 -28 5.5t-30.5 16t-24.5 25.5t-10 33q0 14 5.5 25.5t15.5 27.5q13 21 41 36.5t64.5 34.5t79.5 44.5t86 67.5q24 23 57 82.5t71.5 141t80 179t81.5 196.5t76 193.5t64.5 170t46.5 126t22 61.5q10 30 32.5 44t48.5 15q-1 0 -2 -1q3 0 6.5 0.5
t6.5 0.5q22 0 43.5 -21.5t30.5 -74.5zM1802 1695q-18 -38 -38 -70.5t-44 -56.5t-52.5 -38t-62.5 -14q-6 0 -12 0.5t-12 1.5q-12 1 -37 10.5t-54.5 21t-60 22t-53.5 14.5q-2 0 -4 0.5t-4 0.5q-9 0 -15 -4.5t-10.5 -11t-7.5 -13.5t-6 -12q-12 -23 -37.5 -33t-46.5 -10
q-23 0 -40 9t-17 24q0 7 2 10q18 39 41 72t50 56t56 36t59 13q20 0 45 -10.5t53 -22.5t57.5 -22.5t59.5 -10.5q21 0 36 10.5t23 27.5q11 26 34 37.5t46 11.5t39 -10.5t16 -27.5v-2q0 -2 -1 -3.5t-2 -5.5z" />
    <glyph glyph-name="Ograve" unicode="&#xd2;" horiz-adv-x="1341" 
d="M235 459q0 146 43.5 275.5t117 239t170 196.5t202 147.5t214 93t206.5 32.5q87 0 165.5 -20t140 -61t102.5 -103.5t55 -146.5q1 -5 1 -9v-9q0 -39 -22.5 -59.5t-48.5 -20.5q-29 0 -54 31t-48 88q-37 70 -107 102t-158 32q-77 0 -161.5 -28t-167 -79t-157.5 -122.5
t-132 -158t-90.5 -186.5t-33.5 -207q0 -89 22 -150t58 -99t81 -55t91 -17q103 0 196.5 56t164.5 160.5t113 255t42 339.5q0 19 -0.5 37.5t-0.5 38.5q0 50 18 73.5t41 23.5q39 0 63.5 -21.5t38.5 -57t19.5 -81t5.5 -93.5q0 -136 -29 -256.5t-80.5 -223t-122 -184t-152.5 -138
t-172.5 -87t-182.5 -30.5q-85 0 -166 24.5t-144.5 81t-102 149t-38.5 227.5zM1319 1650q2 -13 3 -24t1 -21q0 -37 -15 -54t-35 -17t-41.5 17t-35.5 51q-29 63 -59 125t-59 125q-12 27 -12 52q0 24 9 44.5t23.5 35t33 23t37.5 8.5q32 0 61.5 -26t43.5 -89q11 -63 22.5 -125
t22.5 -125z" />
    <glyph glyph-name="Oacute" unicode="&#xd3;" horiz-adv-x="1341" 
d="M235 459q0 146 43.5 275.5t117 239t170 196.5t202 147.5t214 93t206.5 32.5q87 0 165.5 -20t140 -61t102.5 -103.5t55 -146.5q1 -5 1 -9v-9q0 -39 -22.5 -59.5t-48.5 -20.5q-29 0 -54 31t-48 88q-37 70 -107 102t-158 32q-77 0 -161.5 -28t-167 -79t-157.5 -122.5
t-132 -158t-90.5 -186.5t-33.5 -207q0 -89 22 -150t58 -99t81 -55t91 -17q103 0 196.5 56t164.5 160.5t113 255t42 339.5q0 19 -0.5 37.5t-0.5 38.5q0 50 18 73.5t41 23.5q39 0 63.5 -21.5t38.5 -57t19.5 -81t5.5 -93.5q0 -136 -29 -256.5t-80.5 -223t-122 -184t-152.5 -138
t-172.5 -87t-182.5 -30.5q-85 0 -166 24.5t-144.5 81t-102 149t-38.5 227.5zM1266 1657q36 63 72.5 125t71.5 125q38 63 78 89t72 26q30 0 49 -19t19 -50q0 -20 -9 -44t-32 -50q-54 -63 -108.5 -125t-108.5 -125q-26 -34 -55 -51t-49 -17q-31 0 -31 32q0 29 31 84z" />
    <glyph glyph-name="Ocircumflex" unicode="&#xd4;" horiz-adv-x="1341" 
d="M235 459q0 146 43.5 275.5t117 239t170 196.5t202 147.5t214 93t206.5 32.5q87 0 165.5 -20t140 -61t102.5 -103.5t55 -146.5q1 -5 1 -9v-9q0 -39 -22.5 -59.5t-48.5 -20.5q-29 0 -54 31t-48 88q-37 70 -107 102t-158 32q-77 0 -161.5 -28t-167 -79t-157.5 -122.5
t-132 -158t-90.5 -186.5t-33.5 -207q0 -89 22 -150t58 -99t81 -55t91 -17q103 0 196.5 56t164.5 160.5t113 255t42 339.5q0 19 -0.5 37.5t-0.5 38.5q0 50 18 73.5t41 23.5q39 0 63.5 -21.5t38.5 -57t19.5 -81t5.5 -93.5q0 -136 -29 -256.5t-80.5 -223t-122 -184t-152.5 -138
t-172.5 -87t-182.5 -30.5q-85 0 -166 24.5t-144.5 81t-102 149t-38.5 227.5zM993 1641q68 59 116 101.5t81 71.5t54 46t36 26.5t27 12t26 2.5q27 0 43.5 -13t33.5 -45t40.5 -86t64.5 -137q3 -8 3 -15q0 -12 -7.5 -21.5t-19.5 -16.5t-27 -11t-30 -4q-22 0 -40.5 7.5
t-26.5 24.5q-7 16 -19 43.5t-24 53.5q-14 31 -30 64q-36 -33 -69 -64q-28 -26 -57 -53.5t-47 -43.5q-26 -23 -55 -23q-17 0 -32.5 4.5t-27.5 12t-19 17.5t-7 20q0 14 13 26z" />
    <glyph glyph-name="Otilde" unicode="&#xd5;" horiz-adv-x="1341" 
d="M235 459q0 146 43.5 275.5t117 239t170 196.5t202 147.5t214 93t206.5 32.5q87 0 165.5 -20t140 -61t102.5 -103.5t55 -146.5q1 -5 1 -9v-9q0 -39 -22.5 -59.5t-48.5 -20.5q-29 0 -54 31t-48 88q-37 70 -107 102t-158 32q-77 0 -161.5 -28t-167 -79t-157.5 -122.5
t-132 -158t-90.5 -186.5t-33.5 -207q0 -89 22 -150t58 -99t81 -55t91 -17q103 0 196.5 56t164.5 160.5t113 255t42 339.5q0 19 -0.5 37.5t-0.5 38.5q0 50 18 73.5t41 23.5q39 0 63.5 -21.5t38.5 -57t19.5 -81t5.5 -93.5q0 -136 -29 -256.5t-80.5 -223t-122 -184t-152.5 -138
t-172.5 -87t-182.5 -30.5q-85 0 -166 24.5t-144.5 81t-102 149t-38.5 227.5zM1642 1721q-18 -38 -38 -70.5t-44 -56.5t-52.5 -38t-62.5 -14q-6 0 -12 0.5t-12 1.5q-12 1 -37 10.5t-54.5 21t-60 22t-53.5 14.5q-2 0 -4 0.5t-4 0.5q-9 0 -15 -4.5t-10.5 -11t-7.5 -13.5t-6 -12
q-12 -23 -37.5 -33t-46.5 -10q-23 0 -40 9t-17 24q0 7 2 10q18 39 41 72t50 56t56 36t59 13q20 0 45 -10.5t53 -22.5t57.5 -22.5t59.5 -10.5q21 0 36 10.5t23 27.5q11 26 34 37.5t46 11.5t39 -10.5t16 -27.5v-2q0 -2 -1 -3.5t-2 -5.5z" />
    <glyph glyph-name="Odieresis" unicode="&#xd6;" horiz-adv-x="1341" 
d="M235 459q0 146 43.5 275.5t117 239t170 196.5t202 147.5t214 93t206.5 32.5q87 0 165.5 -20t140 -61t102.5 -103.5t55 -146.5q1 -5 1 -9v-9q0 -39 -22.5 -59.5t-48.5 -20.5q-29 0 -54 31t-48 88q-37 70 -107 102t-158 32q-77 0 -161.5 -28t-167 -79t-157.5 -122.5
t-132 -158t-90.5 -186.5t-33.5 -207q0 -89 22 -150t58 -99t81 -55t91 -17q103 0 196.5 56t164.5 160.5t113 255t42 339.5q0 19 -0.5 37.5t-0.5 38.5q0 50 18 73.5t41 23.5q39 0 63.5 -21.5t38.5 -57t19.5 -81t5.5 -93.5q0 -136 -29 -256.5t-80.5 -223t-122 -184t-152.5 -138
t-172.5 -87t-182.5 -30.5q-85 0 -166 24.5t-144.5 81t-102 149t-38.5 227.5zM1257 1683q-5 -25 -19 -48t-33.5 -40.5t-44 -28t-49.5 -10.5q-37 0 -58.5 20.5t-21.5 54.5q0 31 13 58.5t34 47.5t48.5 32t56.5 12q37 0 56.5 -20.5t19.5 -54.5q0 -5 -0.5 -11t-1.5 -12z
M1560 1683q-5 -25 -19 -48t-33.5 -40.5t-44 -28t-49.5 -10.5q-37 0 -58.5 20.5t-21.5 54.5q0 31 13 58.5t34 47.5t48.5 32t56.5 12q37 0 56.5 -20.5t19.5 -54.5q0 -5 -0.5 -11t-1.5 -12z" />
    <glyph glyph-name="multiply" unicode="&#xd7;" horiz-adv-x="1261" 
d="M417 965l317 -317l317 317l102 -102l-317 -317l317 -317l-102 -102l-317 317l-317 -317l-102 102l317 317l-317 317z" />
    <glyph glyph-name="Oslash" unicode="&#xd8;" horiz-adv-x="1160" 
d="M396 214q32 -26 70 -37.5t77 -11.5q100 0 192 53.5t162.5 154t114 244.5t47.5 326zM312 339q101 113 205.5 229t209 232.5t207.5 230.5t201 224q-47 12 -102 12q-77 0 -161.5 -28t-167 -79t-157.5 -122.5t-132 -158t-90.5 -186.5t-33.5 -207q0 -86 21 -147zM54 459
q0 146 43.5 275.5t117 239t170 196.5t202 147.5t214 93t206.5 32.5q69 0 133 -12.5t118 -38.5l95 106q26 29 66 29q16 0 32.5 -5.5t29.5 -15t21 -22t8 -26.5q0 -11 -4 -19l-3 -7l-120 -132q16 -19 32 -42.5t28.5 -50t20 -55t7.5 -58.5q0 -39 -22.5 -59.5t-48.5 -20.5
q-29 0 -54 31t-48 88q-11 21 -29 42l-66 -74q23 -36 32 -90.5t9 -114.5q0 -136 -29 -256.5t-80.5 -223t-122 -184t-152.5 -138t-172.5 -87t-182.5 -30.5q-70 0 -137 16.5t-125 52.5q-35 -39 -70.5 -77.5t-68.5 -76.5q-27 -31 -64 -31q-16 0 -31 5.5t-27 14.5t-19 20.5
t-7 23.5q0 8 2.5 15.5t7.5 12.5q42 47 84.5 94.5t87.5 98.5q-39 56 -61.5 133t-22.5 180z" />
    <glyph glyph-name="Ugrave" unicode="&#xd9;" horiz-adv-x="1195" 
d="M575 1355q26 52 58.5 70t63.5 18q17 0 32.5 -3.5t27.5 -12t19 -23t7 -35.5q0 -26 -11 -60t-36 -82q-100 -177 -168 -373t-109 -392q-4 -25 -5 -48t-1 -44q0 -59 15 -100t39.5 -66t54.5 -36t60 -11q113 0 217 81t185.5 229.5t133 357t59.5 464.5q1 27 10 47.5t23 33.5
t32.5 19.5t37.5 6.5q24 0 39.5 -17.5t24.5 -46.5t12.5 -67.5t3.5 -80.5q0 -177 -32.5 -335.5t-89.5 -293t-134.5 -242t-168.5 -183t-190.5 -116t-199.5 -40.5q-62 0 -124.5 26t-112.5 76t-81 122t-31 164q0 17 1 35.5t4 37.5q13 77 28.5 146.5t35.5 137t45 136.5t57.5 145.5
t74 163.5t93.5 191zM1117 1558q2 -13 3 -24t1 -21q0 -37 -15 -54t-35 -17t-41.5 17t-35.5 51q-29 63 -59 125t-59 125q-12 27 -12 52q0 24 9 44.5t23.5 35t33 23t37.5 8.5q32 0 61.5 -26t43.5 -89q11 -63 22.5 -125t22.5 -125z" />
    <glyph glyph-name="Uacute" unicode="&#xda;" horiz-adv-x="1195" 
d="M575 1355q26 52 58.5 70t63.5 18q17 0 32.5 -3.5t27.5 -12t19 -23t7 -35.5q0 -26 -11 -60t-36 -82q-100 -177 -168 -373t-109 -392q-4 -25 -5 -48t-1 -44q0 -59 15 -100t39.5 -66t54.5 -36t60 -11q113 0 217 81t185.5 229.5t133 357t59.5 464.5q1 27 10 47.5t23 33.5
t32.5 19.5t37.5 6.5q24 0 39.5 -17.5t24.5 -46.5t12.5 -67.5t3.5 -80.5q0 -177 -32.5 -335.5t-89.5 -293t-134.5 -242t-168.5 -183t-190.5 -116t-199.5 -40.5q-62 0 -124.5 26t-112.5 76t-81 122t-31 164q0 17 1 35.5t4 37.5q13 77 28.5 146.5t35.5 137t45 136.5t57.5 145.5
t74 163.5t93.5 191zM1025 1558q36 63 72.5 125t71.5 125q38 63 78 89t72 26q30 0 49 -19t19 -50q0 -20 -9 -44t-32 -50q-54 -63 -108.5 -125t-108.5 -125q-26 -34 -55 -51t-49 -17q-31 0 -31 32q0 29 31 84z" />
    <glyph glyph-name="Ucircumflex" unicode="&#xdb;" horiz-adv-x="1195" 
d="M575 1355q26 52 58.5 70t63.5 18q17 0 32.5 -3.5t27.5 -12t19 -23t7 -35.5q0 -26 -11 -60t-36 -82q-100 -177 -168 -373t-109 -392q-4 -25 -5 -48t-1 -44q0 -59 15 -100t39.5 -66t54.5 -36t60 -11q113 0 217 81t185.5 229.5t133 357t59.5 464.5q1 27 10 47.5t23 33.5
t32.5 19.5t37.5 6.5q24 0 39.5 -17.5t24.5 -46.5t12.5 -67.5t3.5 -80.5q0 -177 -32.5 -335.5t-89.5 -293t-134.5 -242t-168.5 -183t-190.5 -116t-199.5 -40.5q-62 0 -124.5 26t-112.5 76t-81 122t-31 164q0 17 1 35.5t4 37.5q13 77 28.5 146.5t35.5 137t45 136.5t57.5 145.5
t74 163.5t93.5 191zM850 1690q68 59 116 101.5t81 71.5t54 46t36 26.5t27 12t26 2.5q27 0 43.5 -13t33.5 -45t40.5 -86t64.5 -137q3 -8 3 -15q0 -12 -7.5 -21.5t-19.5 -16.5t-27 -11t-30 -4q-22 0 -40.5 7.5t-26.5 24.5q-7 16 -19 43.5t-24 53.5q-14 31 -30 64
q-36 -33 -69 -64q-28 -26 -57 -53.5t-47 -43.5q-26 -23 -55 -23q-17 0 -32.5 4.5t-27.5 12t-19 17.5t-7 20q0 14 13 26z" />
    <glyph glyph-name="Udieresis" unicode="&#xdc;" horiz-adv-x="1195" 
d="M575 1355q26 52 58.5 70t63.5 18q17 0 32.5 -3.5t27.5 -12t19 -23t7 -35.5q0 -26 -11 -60t-36 -82q-100 -177 -168 -373t-109 -392q-4 -25 -5 -48t-1 -44q0 -59 15 -100t39.5 -66t54.5 -36t60 -11q113 0 217 81t185.5 229.5t133 357t59.5 464.5q1 27 10 47.5t23 33.5
t32.5 19.5t37.5 6.5q24 0 39.5 -17.5t24.5 -46.5t12.5 -67.5t3.5 -80.5q0 -177 -32.5 -335.5t-89.5 -293t-134.5 -242t-168.5 -183t-190.5 -116t-199.5 -40.5q-62 0 -124.5 26t-112.5 76t-81 122t-31 164q0 17 1 35.5t4 37.5q13 77 28.5 146.5t35.5 137t45 136.5t57.5 145.5
t74 163.5t93.5 191zM1068 1619q-5 -25 -19 -48t-33.5 -40.5t-44 -28t-49.5 -10.5q-37 0 -58.5 20.5t-21.5 54.5q0 31 13 58.5t34 47.5t48.5 32t56.5 12q37 0 56.5 -20.5t19.5 -54.5q0 -5 -0.5 -11t-1.5 -12zM1371 1619q-5 -25 -19 -48t-33.5 -40.5t-44 -28t-49.5 -10.5
q-37 0 -58.5 20.5t-21.5 54.5q0 31 13 58.5t34 47.5t48.5 32t56.5 12q37 0 56.5 -20.5t19.5 -54.5q0 -5 -0.5 -11t-1.5 -12z" />
    <glyph glyph-name="Yacute" unicode="&#xdd;" horiz-adv-x="969" 
d="M638 665q-60 70 -108 153t-69 179q-17 58 -23.5 108t-6.5 93q0 57 14.5 103t39 77.5t56.5 48.5t68 17q73 0 73 -77q0 -14 -5.5 -35.5t-11.5 -47.5t-11.5 -55t-5.5 -57q0 -59 13.5 -118t37 -113t53.5 -100.5t63 -80.5l74 48q59 38 117.5 79t105.5 87q37 44 65.5 86t49 79
t32.5 67t17 50q9 42 18 72t26 49t47.5 28t82.5 9q48 0 48 -68q0 -4 -4 -35t-23.5 -84t-60 -125t-113.5 -157q-47 -45 -99.5 -86t-109 -78.5t-114.5 -72.5t-115 -69l-44 -26l-202 -382q-29 -56 -41.5 -85.5t-14.5 -40.5q0 -53 -15.5 -91t-39 -63.5t-51.5 -37.5t-53 -12
q-37 0 -63.5 22t-26.5 65q0 16 1 26t7 26t19.5 43.5t38.5 80.5zM985 1558q36 63 72.5 125t71.5 125q38 63 78 89t72 26q30 0 49 -19t19 -50q0 -20 -9 -44t-32 -50q-54 -63 -108.5 -125t-108.5 -125q-26 -34 -55 -51t-49 -17q-31 0 -31 32q0 29 31 84z" />
    <glyph glyph-name="Thorn" unicode="&#xde;" horiz-adv-x="1088" 
d="M1102 858q0 44 -10.5 85.5t-31.5 77.5t-51.5 64.5t-70.5 46.5q-35 -80 -75 -167.5t-76.5 -167t-66 -141t-43.5 -88.5q78 6 154 26.5t136.5 56.5t97.5 87.5t37 119.5zM608 411q-19 -42 -38.5 -92t-40.5 -99.5t-45 -96t-51.5 -82.5t-59.5 -57.5t-69 -21.5q-31 0 -51 9.5
t-31 24t-15.5 32t-4.5 33.5q0 24 7.5 49t18.5 46l528 1001q-87 -5 -150 -26t-108.5 -52t-76.5 -69t-54 -77t-41.5 -75.5t-38.5 -65t-45 -46t-62 -17.5q-49 0 -72.5 25t-23.5 71t25 100.5t71 109.5t111.5 105.5t147.5 89.5t178.5 62.5t203.5 23.5q2 0 5 -0.5t6 -0.5h7l3 5
q25 44 47.5 69t42 37t34.5 14.5t25 2.5q18 0 33 -12.5t15 -45.5q0 -7 -9.5 -32t-24.5 -63q70 -21 130 -58t104 -91t69 -124.5t25 -157.5q0 -105 -50.5 -189.5t-136 -143t-197.5 -90t-236 -31.5q-26 0 -52.5 1t-52.5 5z" />
    <glyph glyph-name="germandbls" unicode="&#xdf;" horiz-adv-x="1044" 
d="M828 721q68 -21 97 -63.5t29 -97.5q0 -50 -21.5 -106.5t-58.5 -111t-86 -103t-103 -83.5q40 12 71.5 22t62.5 22t63.5 26.5t73.5 35t93 49t122 67.5l-14 -157q-146 -79 -269 -126.5t-224 -73t-181 -33.5t-140 -8q-43 0 -70 20.5t-27 59.5q0 24 10.5 43t28 32.5t39 21
t43.5 7.5q53 0 101.5 18.5t91 49.5t77.5 70.5t60 81.5t38.5 83.5t13.5 75.5q0 42 -15.5 57.5t-38.5 15.5q-11 0 -22.5 -3.5t-22.5 -7.5t-21.5 -7.5t-19.5 -3.5q-21 0 -35 18t-14 41q0 25 11 38.5t28.5 23t39.5 18.5t43 25q83 62 146.5 124.5t106.5 119t65 104t22 80.5
q0 24 -13.5 37.5t-41.5 13.5q-39 0 -84 -27t-93 -77t-96.5 -120.5t-93.5 -156.5l-460 -885q-40 -78 -68.5 -136.5t-50 -100.5t-39 -70t-35 -44.5t-37.5 -23t-47 -6.5q-40 0 -62.5 22t-22.5 54t9.5 63t30.5 73t55.5 100t85.5 143q54 91 100.5 169.5t88.5 150.5t81 139.5
t78 137t79.5 143t85.5 157.5q52 97 111.5 181t125.5 146t138.5 97t152.5 35q61 0 104 -14t70 -39t39.5 -59.5t12.5 -76.5q0 -41 -16 -88t-44 -95t-66 -94.5t-82.5 -87.5t-93 -73.5t-96.5 -52.5z" />
    <glyph glyph-name="agrave" unicode="&#xe0;" horiz-adv-x="984" 
d="M524 546q-47 0 -91 -24t-78 -63t-54 -87.5t-20 -97.5q0 -20 2.5 -41.5t11.5 -39.5t25.5 -30t44.5 -12q22 0 51.5 19.5t61 50t61.5 67t54 71.5t39 63t15 41q0 19 -13 34.5t-32 26.5t-40.5 16.5t-37.5 5.5zM1217 288q-18 -17 -48 -47t-68.5 -65t-82 -70.5t-89 -64.5
t-89.5 -47.5t-83 -18.5q-35 0 -60 15t-41.5 39t-24.5 54.5t-8 62.5q0 21 3 41.5t10 38.5q-31 -42 -70.5 -86.5t-85 -81t-95 -60t-100.5 -23.5q-26 0 -60.5 10.5t-65.5 34.5t-52 62t-21 93q0 41 12.5 98t38 118.5t65 121.5t93.5 107.5t123 77t154 29.5q44 0 77 -11t56 -24
q26 -16 46 -35q17 9 35 17q15 7 31.5 12.5t28.5 5.5q38 0 62 -21t24 -46q0 -7 -1 -11q-5 -19 -15.5 -48t-23.5 -64.5t-26.5 -74t-24.5 -75.5t-18 -69.5t-7 -55.5q0 -30 10 -49.5t34 -19.5q15 0 35.5 9.5t44.5 25.5t49.5 36.5t49.5 41.5q56 50 119 114q16 13 31 13
q20 0 33.5 -19.5t13.5 -43.5q0 -28 -19 -47zM617 942q2 -13 3 -24t1 -21q0 -37 -15 -54t-35 -17t-41.5 17t-35.5 51q-29 63 -59 125t-59 125q-12 27 -12 52q0 24 9 44.5t23.5 35t33 23t37.5 8.5q32 0 61.5 -26t43.5 -89q11 -63 22.5 -125t22.5 -125z" />
    <glyph glyph-name="aacute" unicode="&#xe1;" horiz-adv-x="984" 
d="M524 546q-47 0 -91 -24t-78 -63t-54 -87.5t-20 -97.5q0 -20 2.5 -41.5t11.5 -39.5t25.5 -30t44.5 -12q22 0 51.5 19.5t61 50t61.5 67t54 71.5t39 63t15 41q0 19 -13 34.5t-32 26.5t-40.5 16.5t-37.5 5.5zM1217 288q-18 -17 -48 -47t-68.5 -65t-82 -70.5t-89 -64.5
t-89.5 -47.5t-83 -18.5q-35 0 -60 15t-41.5 39t-24.5 54.5t-8 62.5q0 21 3 41.5t10 38.5q-31 -42 -70.5 -86.5t-85 -81t-95 -60t-100.5 -23.5q-26 0 -60.5 10.5t-65.5 34.5t-52 62t-21 93q0 41 12.5 98t38 118.5t65 121.5t93.5 107.5t123 77t154 29.5q44 0 77 -11t56 -24
q26 -16 46 -35q17 9 35 17q15 7 31.5 12.5t28.5 5.5q38 0 62 -21t24 -46q0 -7 -1 -11q-5 -19 -15.5 -48t-23.5 -64.5t-26.5 -74t-24.5 -75.5t-18 -69.5t-7 -55.5q0 -30 10 -49.5t34 -19.5q15 0 35.5 9.5t44.5 25.5t49.5 36.5t49.5 41.5q56 50 119 114q16 13 31 13
q20 0 33.5 -19.5t13.5 -43.5q0 -28 -19 -47zM704 942q36 63 72.5 125t71.5 125q38 63 78 89t72 26q30 0 49 -19t19 -50q0 -20 -9 -44t-32 -50q-54 -63 -108.5 -125t-108.5 -125q-26 -34 -55 -51t-49 -17q-31 0 -31 32q0 29 31 84z" />
    <glyph glyph-name="acircumflex" unicode="&#xe2;" horiz-adv-x="984" 
d="M524 546q-47 0 -91 -24t-78 -63t-54 -87.5t-20 -97.5q0 -20 2.5 -41.5t11.5 -39.5t25.5 -30t44.5 -12q22 0 51.5 19.5t61 50t61.5 67t54 71.5t39 63t15 41q0 19 -13 34.5t-32 26.5t-40.5 16.5t-37.5 5.5zM1217 288q-18 -17 -48 -47t-68.5 -65t-82 -70.5t-89 -64.5
t-89.5 -47.5t-83 -18.5q-35 0 -60 15t-41.5 39t-24.5 54.5t-8 62.5q0 21 3 41.5t10 38.5q-31 -42 -70.5 -86.5t-85 -81t-95 -60t-100.5 -23.5q-26 0 -60.5 10.5t-65.5 34.5t-52 62t-21 93q0 41 12.5 98t38 118.5t65 121.5t93.5 107.5t123 77t154 29.5q44 0 77 -11t56 -24
q26 -16 46 -35q17 9 35 17q15 7 31.5 12.5t28.5 5.5q38 0 62 -21t24 -46q0 -7 -1 -11q-5 -19 -15.5 -48t-23.5 -64.5t-26.5 -74t-24.5 -75.5t-18 -69.5t-7 -55.5q0 -30 10 -49.5t34 -19.5q15 0 35.5 9.5t44.5 25.5t49.5 36.5t49.5 41.5q56 50 119 114q16 13 31 13
q20 0 33.5 -19.5t13.5 -43.5q0 -28 -19 -47zM472 939q68 59 116 101.5t81 71.5t54 46t36 26.5t27 12t26 2.5q27 0 43.5 -13t33.5 -45t40.5 -86t64.5 -137q3 -8 3 -15q0 -12 -7.5 -21.5t-19.5 -16.5t-27 -11t-30 -4q-22 0 -40.5 7.5t-26.5 24.5q-7 16 -19 43.5t-24 53.5
q-14 31 -30 64q-36 -33 -69 -64q-28 -26 -57 -53.5t-47 -43.5q-26 -23 -55 -23q-17 0 -32.5 4.5t-27.5 12t-19 17.5t-7 20q0 14 13 26z" />
    <glyph glyph-name="atilde" unicode="&#xe3;" horiz-adv-x="984" 
d="M524 546q-47 0 -91 -24t-78 -63t-54 -87.5t-20 -97.5q0 -20 2.5 -41.5t11.5 -39.5t25.5 -30t44.5 -12q22 0 51.5 19.5t61 50t61.5 67t54 71.5t39 63t15 41q0 19 -13 34.5t-32 26.5t-40.5 16.5t-37.5 5.5zM1217 288q-18 -17 -48 -47t-68.5 -65t-82 -70.5t-89 -64.5
t-89.5 -47.5t-83 -18.5q-35 0 -60 15t-41.5 39t-24.5 54.5t-8 62.5q0 21 3 41.5t10 38.5q-31 -42 -70.5 -86.5t-85 -81t-95 -60t-100.5 -23.5q-26 0 -60.5 10.5t-65.5 34.5t-52 62t-21 93q0 41 12.5 98t38 118.5t65 121.5t93.5 107.5t123 77t154 29.5q44 0 77 -11t56 -24
q26 -16 46 -35q17 9 35 17q15 7 31.5 12.5t28.5 5.5q38 0 62 -21t24 -46q0 -7 -1 -11q-5 -19 -15.5 -48t-23.5 -64.5t-26.5 -74t-24.5 -75.5t-18 -69.5t-7 -55.5q0 -30 10 -49.5t34 -19.5q15 0 35.5 9.5t44.5 25.5t49.5 36.5t49.5 41.5q56 50 119 114q16 13 31 13
q20 0 33.5 -19.5t13.5 -43.5q0 -28 -19 -47zM1048 986q-18 -38 -38 -70.5t-44 -56.5t-52.5 -38t-62.5 -14q-6 0 -12 0.5t-12 1.5q-12 1 -37 10.5t-54.5 21t-60 22t-53.5 14.5q-2 0 -4 0.5t-4 0.5q-9 0 -15 -4.5t-10.5 -11t-7.5 -13.5t-6 -12q-12 -23 -37.5 -33t-46.5 -10
q-23 0 -40 9t-17 24q0 7 2 10q18 39 41 72t50 56t56 36t59 13q20 0 45 -10.5t53 -22.5t57.5 -22.5t59.5 -10.5q21 0 36 10.5t23 27.5q11 26 34 37.5t46 11.5t39 -10.5t16 -27.5v-2q0 -2 -1 -3.5t-2 -5.5z" />
    <glyph glyph-name="adieresis" unicode="&#xe4;" horiz-adv-x="984" 
d="M524 546q-47 0 -91 -24t-78 -63t-54 -87.5t-20 -97.5q0 -20 2.5 -41.5t11.5 -39.5t25.5 -30t44.5 -12q22 0 51.5 19.5t61 50t61.5 67t54 71.5t39 63t15 41q0 19 -13 34.5t-32 26.5t-40.5 16.5t-37.5 5.5zM1217 288q-18 -17 -48 -47t-68.5 -65t-82 -70.5t-89 -64.5
t-89.5 -47.5t-83 -18.5q-35 0 -60 15t-41.5 39t-24.5 54.5t-8 62.5q0 21 3 41.5t10 38.5q-31 -42 -70.5 -86.5t-85 -81t-95 -60t-100.5 -23.5q-26 0 -60.5 10.5t-65.5 34.5t-52 62t-21 93q0 41 12.5 98t38 118.5t65 121.5t93.5 107.5t123 77t154 29.5q44 0 77 -11t56 -24
q26 -16 46 -35q17 9 35 17q15 7 31.5 12.5t28.5 5.5q38 0 62 -21t24 -46q0 -7 -1 -11q-5 -19 -15.5 -48t-23.5 -64.5t-26.5 -74t-24.5 -75.5t-18 -69.5t-7 -55.5q0 -30 10 -49.5t34 -19.5q15 0 35.5 9.5t44.5 25.5t49.5 36.5t49.5 41.5q56 50 119 114q16 13 31 13
q20 0 33.5 -19.5t13.5 -43.5q0 -28 -19 -47zM681 923q-5 -25 -19 -48t-33.5 -40.5t-44 -28t-49.5 -10.5q-37 0 -58.5 20.5t-21.5 54.5q0 31 13 58.5t34 47.5t48.5 32t56.5 12q37 0 56.5 -20.5t19.5 -54.5q0 -5 -0.5 -11t-1.5 -12zM984 923q-5 -25 -19 -48t-33.5 -40.5
t-44 -28t-49.5 -10.5q-37 0 -58.5 20.5t-21.5 54.5q0 31 13 58.5t34 47.5t48.5 32t56.5 12q37 0 56.5 -20.5t19.5 -54.5q0 -5 -0.5 -11t-1.5 -12z" />
    <glyph glyph-name="aring" unicode="&#xe5;" horiz-adv-x="984" 
d="M524 546q-47 0 -91 -24t-78 -63t-54 -87.5t-20 -97.5q0 -20 2.5 -41.5t11.5 -39.5t25.5 -30t44.5 -12q22 0 51.5 19.5t61 50t61.5 67t54 71.5t39 63t15 41q0 19 -13 34.5t-32 26.5t-40.5 16.5t-37.5 5.5zM1217 288q-18 -17 -48 -47t-68.5 -65t-82 -70.5t-89 -64.5
t-89.5 -47.5t-83 -18.5q-35 0 -60 15t-41.5 39t-24.5 54.5t-8 62.5q0 21 3 41.5t10 38.5q-31 -42 -70.5 -86.5t-85 -81t-95 -60t-100.5 -23.5q-26 0 -60.5 10.5t-65.5 34.5t-52 62t-21 93q0 41 12.5 98t38 118.5t65 121.5t93.5 107.5t123 77t154 29.5q44 0 77 -11t56 -24
q26 -16 46 -35q17 9 35 17q15 7 31.5 12.5t28.5 5.5q38 0 62 -21t24 -46q0 -7 -1 -11q-5 -19 -15.5 -48t-23.5 -64.5t-26.5 -74t-24.5 -75.5t-18 -69.5t-7 -55.5q0 -30 10 -49.5t34 -19.5q15 0 35.5 9.5t44.5 25.5t49.5 36.5t49.5 41.5q56 50 119 114q16 13 31 13
q20 0 33.5 -19.5t13.5 -43.5q0 -28 -19 -47zM767 1107q-26 0 -48 -10.5t-38 -27.5t-25 -37.5t-9 -40.5q0 -26 17 -43.5t54 -17.5q27 0 49 10.5t37.5 27t24.5 36.5t9 40q0 26 -16.5 44.5t-54.5 18.5zM930 1016q-10 -36 -34.5 -68.5t-57 -57t-70.5 -39t-75 -14.5
q-31 0 -57.5 10.5t-45.5 29t-29.5 43.5t-10.5 54q0 43 22 83.5t57 72t78 50.5t85 19q31 0 57.5 -10.5t45.5 -28.5t30 -43t11 -55q0 -22 -6 -46z" />
    <glyph glyph-name="ae" unicode="&#xe6;" horiz-adv-x="1357" 
d="M1171 590q-5 1 -9 1h-9q-38 0 -71 -15t-60.5 -39.5t-49 -55.5t-38.5 -61.5t-28.5 -58.5t-17.5 -47q35 18 72.5 41t70.5 44t57.5 38t34.5 23q45 28 62 52.5t17 42.5q0 15 -9.5 24t-21.5 11zM583 546q-47 0 -91 -24t-78 -63t-54 -87.5t-20 -97.5q0 -20 2.5 -41.5
t11.5 -39.5t25.5 -30t44.5 -12q23 0 53.5 20.5t63 53t64 71.5t56 76t40 67t15.5 44q-16 17 -36 31q-17 12 -41.5 22t-55.5 10zM1207 728q83 0 124 -40t41 -111q0 -42 -22 -88t-76 -93.5t-144.5 -97t-226.5 -99.5q5 -29 31 -45.5t69 -16.5q46 0 98.5 13.5t104 34.5
t100.5 45.5t88.5 46.5t66 38t35.5 20q9 6 16.5 7t13.5 1q12 0 20 -5.5t13.5 -13t7.5 -16t2 -14.5q0 -9 -2 -21.5t-15 -28.5q-5 -5 -33.5 -27t-73.5 -52t-104.5 -63.5t-126 -61.5t-138.5 -46.5t-142 -18.5q-49 0 -89 18.5t-69.5 51t-47.5 75.5t-23 92q-33 -41 -74 -83.5
t-87.5 -76.5t-97.5 -55.5t-102 -21.5q-26 0 -60.5 10.5t-65.5 34.5t-52 62t-21 93q0 41 12.5 98t38 118.5t65 121.5t93.5 107.5t123 77t154 29.5q76 0 133 -31.5t113 -91.5q66 55 148.5 89.5t181.5 34.5z" />
    <glyph glyph-name="ccedilla" unicode="&#xe7;" horiz-adv-x="645" 
d="M669 635q0 -31 -7 -68.5t-23 -70.5t-41 -55t-62 -22q-20 0 -25.5 6t-5.5 21q0 9 0.5 26.5t0.5 33.5q0 18 -5 30.5t-25 12.5q-23 0 -51.5 -17.5t-57 -45.5t-55.5 -63.5t-48.5 -72t-34 -70.5t-12.5 -58q0 -35 24.5 -55t66.5 -20q45 0 96 15t101.5 38t97.5 50t85.5 51.5
t64.5 42t34 21.5q16 8 30 8q12 0 20.5 -5.5t13.5 -13t7 -16t2 -14.5q0 -9 -2 -21.5t-15 -28.5q-5 -6 -32.5 -30.5t-71 -57.5t-100 -70.5t-121 -68.5t-133.5 -51.5t-136 -20.5q-51 0 -90.5 16t-66.5 43.5t-41 64.5t-14 78q0 45 21 103.5t58 119.5t87 120t108.5 105t122 74
t128.5 28q22 0 41.5 -5t34 -15.5t23 -28.5t8.5 -43zM436 -225q0 -48 -19 -90.5t-51.5 -74.5t-76 -50.5t-91.5 -18.5q-51 0 -81.5 17.5t-30.5 43.5q0 7 3.5 16t9.5 16.5t15 12.5t20 5q17 0 36 -6.5t36 -6.5q25 0 46 9.5t36.5 25.5t24 38t8.5 46q0 29 -9.5 41t-31.5 17
q-17 0 -36.5 -4.5t-38 -9.5t-35 -9.5t-28.5 -4.5q-20 0 -20 17q0 18 26 64l73 131h114l-88 -131q19 6 40 13t38 7q51 0 81 -30t30 -84z" />
    <glyph glyph-name="egrave" unicode="&#xe8;" horiz-adv-x="704" 
d="M544 590q-5 1 -9 1h-9q-38 0 -71 -15t-60.5 -39.5t-49 -55.5t-38.5 -61.5t-28.5 -58.5t-17.5 -47q35 18 72.5 41t70.5 44t57.5 38t34.5 23q45 28 62 52.5t17 42.5q0 15 -9.5 24t-21.5 11zM580 728q83 0 124 -40t41 -111q0 -42 -22 -88t-76 -93.5t-144.5 -97t-226.5 -99.5
q5 -29 31 -45.5t69 -16.5q46 0 98.5 13.5t104 34.5t100.5 45.5t88.5 46.5t66 38t35.5 20q9 6 16.5 7t13.5 1q12 0 20 -5.5t13.5 -13t7.5 -16t2 -14.5q0 -9 -2 -21.5t-15 -28.5q-5 -5 -33.5 -27t-73.5 -52t-104.5 -63.5t-126 -61.5t-138.5 -46.5t-142 -18.5q-60 0 -106.5 23
t-79 62t-49.5 90t-17 107q0 43 17 94.5t49 103.5t78.5 101.5t104.5 87.5t127.5 61t148.5 23zM746 942q2 -13 3 -24t1 -21q0 -37 -15 -54t-35 -17t-41.5 17t-35.5 51q-29 63 -59 125t-59 125q-12 27 -12 52q0 24 9 44.5t23.5 35t33 23t37.5 8.5q32 0 61.5 -26t43.5 -89
q11 -63 22.5 -125t22.5 -125z" />
    <glyph glyph-name="eacute" unicode="&#xe9;" horiz-adv-x="704" 
d="M544 590q-5 1 -9 1h-9q-38 0 -71 -15t-60.5 -39.5t-49 -55.5t-38.5 -61.5t-28.5 -58.5t-17.5 -47q35 18 72.5 41t70.5 44t57.5 38t34.5 23q45 28 62 52.5t17 42.5q0 15 -9.5 24t-21.5 11zM580 728q83 0 124 -40t41 -111q0 -42 -22 -88t-76 -93.5t-144.5 -97t-226.5 -99.5
q5 -29 31 -45.5t69 -16.5q46 0 98.5 13.5t104 34.5t100.5 45.5t88.5 46.5t66 38t35.5 20q9 6 16.5 7t13.5 1q12 0 20 -5.5t13.5 -13t7.5 -16t2 -14.5q0 -9 -2 -21.5t-15 -28.5q-5 -5 -33.5 -27t-73.5 -52t-104.5 -63.5t-126 -61.5t-138.5 -46.5t-142 -18.5q-60 0 -106.5 23
t-79 62t-49.5 90t-17 107q0 43 17 94.5t49 103.5t78.5 101.5t104.5 87.5t127.5 61t148.5 23zM692 942q36 63 72.5 125t71.5 125q38 63 78 89t72 26q30 0 49 -19t19 -50q0 -20 -9 -44t-32 -50q-54 -63 -108.5 -125t-108.5 -125q-26 -34 -55 -51t-49 -17q-31 0 -31 32
q0 29 31 84z" />
    <glyph glyph-name="ecircumflex" unicode="&#xea;" horiz-adv-x="704" 
d="M544 590q-5 1 -9 1h-9q-38 0 -71 -15t-60.5 -39.5t-49 -55.5t-38.5 -61.5t-28.5 -58.5t-17.5 -47q35 18 72.5 41t70.5 44t57.5 38t34.5 23q45 28 62 52.5t17 42.5q0 15 -9.5 24t-21.5 11zM580 728q83 0 124 -40t41 -111q0 -42 -22 -88t-76 -93.5t-144.5 -97t-226.5 -99.5
q5 -29 31 -45.5t69 -16.5q46 0 98.5 13.5t104 34.5t100.5 45.5t88.5 46.5t66 38t35.5 20q9 6 16.5 7t13.5 1q12 0 20 -5.5t13.5 -13t7.5 -16t2 -14.5q0 -9 -2 -21.5t-15 -28.5q-5 -5 -33.5 -27t-73.5 -52t-104.5 -63.5t-126 -61.5t-138.5 -46.5t-142 -18.5q-60 0 -106.5 23
t-79 62t-49.5 90t-17 107q0 43 17 94.5t49 103.5t78.5 101.5t104.5 87.5t127.5 61t148.5 23zM380 904q68 59 116 101.5t81 71.5t54 46t36 26.5t27 12t26 2.5q27 0 43.5 -13t33.5 -45t40.5 -86t64.5 -137q3 -8 3 -15q0 -12 -7.5 -21.5t-19.5 -16.5t-27 -11t-30 -4
q-22 0 -40.5 7.5t-26.5 24.5q-7 16 -19 43.5t-24 53.5q-14 31 -30 64q-36 -33 -69 -64q-28 -26 -57 -53.5t-47 -43.5q-26 -23 -55 -23q-17 0 -32.5 4.5t-27.5 12t-19 17.5t-7 20q0 14 13 26z" />
    <glyph glyph-name="edieresis" unicode="&#xeb;" horiz-adv-x="704" 
d="M544 590q-5 1 -9 1h-9q-38 0 -71 -15t-60.5 -39.5t-49 -55.5t-38.5 -61.5t-28.5 -58.5t-17.5 -47q35 18 72.5 41t70.5 44t57.5 38t34.5 23q45 28 62 52.5t17 42.5q0 15 -9.5 24t-21.5 11zM580 728q83 0 124 -40t41 -111q0 -42 -22 -88t-76 -93.5t-144.5 -97t-226.5 -99.5
q5 -29 31 -45.5t69 -16.5q46 0 98.5 13.5t104 34.5t100.5 45.5t88.5 46.5t66 38t35.5 20q9 6 16.5 7t13.5 1q12 0 20 -5.5t13.5 -13t7.5 -16t2 -14.5q0 -9 -2 -21.5t-15 -28.5q-5 -5 -33.5 -27t-73.5 -52t-104.5 -63.5t-126 -61.5t-138.5 -46.5t-142 -18.5q-60 0 -106.5 23
t-79 62t-49.5 90t-17 107q0 43 17 94.5t49 103.5t78.5 101.5t104.5 87.5t127.5 61t148.5 23zM634 923q-5 -25 -19 -48t-33.5 -40.5t-44 -28t-49.5 -10.5q-37 0 -58.5 20.5t-21.5 54.5q0 31 13 58.5t34 47.5t48.5 32t56.5 12q37 0 56.5 -20.5t19.5 -54.5q0 -5 -0.5 -11
t-1.5 -12zM937 923q-5 -25 -19 -48t-33.5 -40.5t-44 -28t-49.5 -10.5q-37 0 -58.5 20.5t-21.5 54.5q0 31 13 58.5t34 47.5t48.5 32t56.5 12q37 0 56.5 -20.5t19.5 -54.5q0 -5 -0.5 -11t-1.5 -12z" />
    <glyph glyph-name="igrave" unicode="&#xec;" 
d="M247 640q17 28 39 40t45 12q38 0 65.5 -24.5t27.5 -62.5q-1 -9 -2.5 -18t-6.5 -18q-14 -26 -23 -44t-16.5 -33.5t-14.5 -30.5t-17 -36q-12 -25 -27 -54.5t-28.5 -60.5t-23 -61t-9.5 -55q0 -27 13.5 -33.5t38.5 -6.5q42 0 89.5 24.5t92 59.5t82 73t60.5 64l32 -136
q-51 -52 -104 -99t-108.5 -83t-111.5 -57.5t-113 -21.5q-80 0 -127 40.5t-47 127.5q0 46 13 90t31 85.5t38 80t34 73.5q5 13 17.5 40t26.5 55q16 33 34 70zM525 942q2 -13 3 -24t1 -21q0 -37 -15 -54t-35 -17t-41.5 17t-35.5 51q-29 63 -59 125t-59 125q-12 27 -12 52
q0 24 9 44.5t23.5 35t33 23t37.5 8.5q32 0 61.5 -26t43.5 -89q11 -63 22.5 -125t22.5 -125z" />
    <glyph glyph-name="iacute" unicode="&#xed;" 
d="M247 640q17 28 39 40t45 12q38 0 65.5 -24.5t27.5 -62.5q-1 -9 -2.5 -18t-6.5 -18q-14 -26 -23 -44t-16.5 -33.5t-14.5 -30.5t-17 -36q-12 -25 -27 -54.5t-28.5 -60.5t-23 -61t-9.5 -55q0 -27 13.5 -33.5t38.5 -6.5q42 0 89.5 24.5t92 59.5t82 73t60.5 64l32 -136
q-51 -52 -104 -99t-108.5 -83t-111.5 -57.5t-113 -21.5q-80 0 -127 40.5t-47 127.5q0 46 13 90t31 85.5t38 80t34 73.5q5 13 17.5 40t26.5 55q16 33 34 70zM469 942q36 63 72.5 125t71.5 125q38 63 78 89t72 26q30 0 49 -19t19 -50q0 -20 -9 -44t-32 -50
q-54 -63 -108.5 -125t-108.5 -125q-26 -34 -55 -51t-49 -17q-31 0 -31 32q0 29 31 84z" />
    <glyph glyph-name="icircumflex" unicode="&#xee;" 
d="M247 640q17 28 39 40t45 12q38 0 65.5 -24.5t27.5 -62.5q-1 -9 -2.5 -18t-6.5 -18q-14 -26 -23 -44t-16.5 -33.5t-14.5 -30.5t-17 -36q-12 -25 -27 -54.5t-28.5 -60.5t-23 -61t-9.5 -55q0 -27 13.5 -33.5t38.5 -6.5q42 0 89.5 24.5t92 59.5t82 73t60.5 64l32 -136
q-51 -52 -104 -99t-108.5 -83t-111.5 -57.5t-113 -21.5q-80 0 -127 40.5t-47 127.5q0 46 13 90t31 85.5t38 80t34 73.5q5 13 17.5 40t26.5 55q16 33 34 70zM187 867q68 59 116 101.5t81 71.5t54 46t36 26.5t27 12t26 2.5q27 0 43.5 -13t33.5 -45t40.5 -86t64.5 -137
q3 -8 3 -15q0 -12 -7.5 -21.5t-19.5 -16.5t-27 -11t-30 -4q-22 0 -40.5 7.5t-26.5 24.5q-7 16 -19 43.5t-24 53.5q-14 31 -30 64q-36 -33 -69 -64q-28 -26 -57 -53.5t-47 -43.5q-26 -23 -55 -23q-17 0 -32.5 4.5t-27.5 12t-19 17.5t-7 20q0 14 13 26z" />
    <glyph glyph-name="idieresis" unicode="&#xef;" 
d="M247 640q17 28 39 40t45 12q38 0 65.5 -24.5t27.5 -62.5q-1 -9 -2.5 -18t-6.5 -18q-14 -26 -23 -44t-16.5 -33.5t-14.5 -30.5t-17 -36q-12 -25 -27 -54.5t-28.5 -60.5t-23 -61t-9.5 -55q0 -27 13.5 -33.5t38.5 -6.5q42 0 89.5 24.5t92 59.5t82 73t60.5 64l32 -136
q-51 -52 -104 -99t-108.5 -83t-111.5 -57.5t-113 -21.5q-80 0 -127 40.5t-47 127.5q0 46 13 90t31 85.5t38 80t34 73.5q5 13 17.5 40t26.5 55q16 33 34 70zM427 919q-5 -25 -19 -48t-33.5 -40.5t-44 -28t-49.5 -10.5q-37 0 -58.5 20.5t-21.5 54.5q0 31 13 58.5t34 47.5
t48.5 32t56.5 12q37 0 56.5 -20.5t19.5 -54.5q0 -5 -0.5 -11t-1.5 -12zM730 919q-5 -25 -19 -48t-33.5 -40.5t-44 -28t-49.5 -10.5q-37 0 -58.5 20.5t-21.5 54.5q0 31 13 58.5t34 47.5t48.5 32t56.5 12q37 0 56.5 -20.5t19.5 -54.5q0 -5 -0.5 -11t-1.5 -12z" />
    <glyph glyph-name="eth" unicode="&#xf0;" horiz-adv-x="981" 
d="M749 278q44 101 50 230q-45 54 -105.5 86t-119.5 32q-30 0 -63 -15.5t-60.5 -47t-45.5 -79.5t-18 -112q0 -44 11.5 -84.5t32.5 -72t52 -50.5t70 -19q31 0 61 10t56 27.5t46.5 41.5t32.5 53zM1044 1044q17 0 27 -14.5t10 -33.5q0 -25 -19 -47.5t-63 -22.5h-63
q34 -85 49 -167.5t15 -161.5q0 -85 -15 -160.5t-42 -138.5q-30 -70 -77.5 -129t-106 -102.5t-124.5 -68t-134 -24.5q-74 0 -133 24.5t-100 67.5t-63.5 102.5t-22.5 130.5q0 48 11.5 100t34.5 107q31 73 71.5 124t86 83.5t94 47.5t95.5 15q60 0 116 -14.5t103 -40.5
q-8 36 -23.5 89t-50.5 116h-172q-17 0 -25.5 12t-8.5 29q0 13 5.5 26.5t17 24.5t29.5 18.5t44 7.5h28q-11 13 -28.5 29.5t-34 33.5t-28.5 33.5t-12 28.5q0 20 12.5 40t31.5 36.5t42 26.5t43 10q8 0 16 -1t13 -9q59 -54 104.5 -111t80.5 -117h166z" />
    <glyph glyph-name="ntilde" unicode="&#xf1;" horiz-adv-x="951" 
d="M265 607q20 43 50 64t59 21q24 0 43 -17.5t19 -51.5q0 -13 -3 -28t-11 -32q22 28 63 57.5t90.5 53t102 38.5t99.5 15q53 0 88.5 -25.5t35.5 -86.5q0 -36 -11 -75t-28.5 -78t-39 -76.5t-42.5 -70.5l-38.5 -60.5t-27.5 -45.5q-13 -16 -13 -37q0 -8 5 -14t16 -6q7 0 16 1.5
t22 10.5q54 20 110.5 50t108.5 63.5t95.5 67t72.5 60.5q8 7 16 10t15 3q17 0 26.5 -13t9.5 -33q0 -31 -19.5 -69t-61.5 -71q-57 -41 -104.5 -75t-97 -63.5t-106 -55t-132.5 -47.5q-26 -8 -47.5 -12t-39.5 -4q-53 0 -77.5 29.5t-24.5 82.5q0 7 0.5 13.5t1.5 14.5
q2 31 16.5 68t35 76t43.5 77.5t42.5 73t32.5 61.5t13 44q0 15 -8.5 25.5t-25.5 10.5q-64 0 -121.5 -38t-107.5 -93.5t-92 -117.5t-74 -111q-20 -33 -36.5 -70.5t-34.5 -70t-40.5 -54t-56.5 -21.5q-35 0 -55 22t-20 54q0 17 14 55t36 88t49.5 107.5t55 114t52.5 106.5t41 85z
M1212 986q-18 -38 -38 -70.5t-44 -56.5t-52.5 -38t-62.5 -14q-6 0 -12 0.5t-12 1.5q-12 1 -37 10.5t-54.5 21t-60 22t-53.5 14.5q-2 0 -4 0.5t-4 0.5q-9 0 -15 -4.5t-10.5 -11t-7.5 -13.5t-6 -12q-12 -23 -37.5 -33t-46.5 -10q-23 0 -40 9t-17 24q0 7 2 10q18 39 41 72
t50 56t56 36t59 13q20 0 45 -10.5t53 -22.5t57.5 -22.5t59.5 -10.5q21 0 36 10.5t23 27.5q11 26 34 37.5t46 11.5t39 -10.5t16 -27.5v-2q0 -2 -1 -3.5t-2 -5.5z" />
    <glyph glyph-name="ograve" unicode="&#xf2;" horiz-adv-x="848" 
d="M519 551q-47 0 -90.5 -23.5t-77 -62t-53.5 -87t-20 -99.5q0 -19 3 -41.5t12.5 -42t27.5 -32.5t48 -13q46 0 89.5 24.5t77.5 64t54 89.5t20 101q0 20 -2.5 41.5t-12 39.5t-27.5 29.5t-49 11.5zM571 727q38 0 81.5 -10t80.5 -34t61.5 -63.5t24.5 -97.5q0 -30 -8 -68.5
t-24 -80.5q10 -12 23 -17t28 -5q21 0 46.5 12t52.5 31t54 43t51 48t43.5 45.5t32.5 36.5q7 7 17 7q14 0 25 -14.5t11 -40.5t-15.5 -60t-57.5 -71q-24 -26 -55 -60t-66 -64t-73 -51t-76 -21q-26 0 -50.5 8t-49.5 26q-36 -56 -82 -102t-102.5 -79t-122 -51.5t-139.5 -18.5
q-28 0 -65 11t-70.5 36.5t-56.5 66.5t-23 100q0 40 13 96t39.5 115.5t67 118t96.5 105t128 75t160 28.5zM782 942q2 -13 3 -24t1 -21q0 -37 -15 -54t-35 -17t-41.5 17t-35.5 51q-29 63 -59 125t-59 125q-12 27 -12 52q0 24 9 44.5t23.5 35t33 23t37.5 8.5q32 0 61.5 -26
t43.5 -89q11 -63 22.5 -125t22.5 -125z" />
    <glyph glyph-name="oacute" unicode="&#xf3;" horiz-adv-x="848" 
d="M519 551q-47 0 -90.5 -23.5t-77 -62t-53.5 -87t-20 -99.5q0 -19 3 -41.5t12.5 -42t27.5 -32.5t48 -13q46 0 89.5 24.5t77.5 64t54 89.5t20 101q0 20 -2.5 41.5t-12 39.5t-27.5 29.5t-49 11.5zM571 727q38 0 81.5 -10t80.5 -34t61.5 -63.5t24.5 -97.5q0 -30 -8 -68.5
t-24 -80.5q10 -12 23 -17t28 -5q21 0 46.5 12t52.5 31t54 43t51 48t43.5 45.5t32.5 36.5q7 7 17 7q14 0 25 -14.5t11 -40.5t-15.5 -60t-57.5 -71q-24 -26 -55 -60t-66 -64t-73 -51t-76 -21q-26 0 -50.5 8t-49.5 26q-36 -56 -82 -102t-102.5 -79t-122 -51.5t-139.5 -18.5
q-28 0 -65 11t-70.5 36.5t-56.5 66.5t-23 100q0 40 13 96t39.5 115.5t67 118t96.5 105t128 75t160 28.5zM635 942q36 63 72.5 125t71.5 125q38 63 78 89t72 26q30 0 49 -19t19 -50q0 -20 -9 -44t-32 -50q-54 -63 -108.5 -125t-108.5 -125q-26 -34 -55 -51t-49 -17
q-31 0 -31 32q0 29 31 84z" />
    <glyph glyph-name="ocircumflex" unicode="&#xf4;" horiz-adv-x="848" 
d="M519 551q-47 0 -90.5 -23.5t-77 -62t-53.5 -87t-20 -99.5q0 -19 3 -41.5t12.5 -42t27.5 -32.5t48 -13q46 0 89.5 24.5t77.5 64t54 89.5t20 101q0 20 -2.5 41.5t-12 39.5t-27.5 29.5t-49 11.5zM571 727q38 0 81.5 -10t80.5 -34t61.5 -63.5t24.5 -97.5q0 -30 -8 -68.5
t-24 -80.5q10 -12 23 -17t28 -5q21 0 46.5 12t52.5 31t54 43t51 48t43.5 45.5t32.5 36.5q7 7 17 7q14 0 25 -14.5t11 -40.5t-15.5 -60t-57.5 -71q-24 -26 -55 -60t-66 -64t-73 -51t-76 -21q-26 0 -50.5 8t-49.5 26q-36 -56 -82 -102t-102.5 -79t-122 -51.5t-139.5 -18.5
q-28 0 -65 11t-70.5 36.5t-56.5 66.5t-23 100q0 40 13 96t39.5 115.5t67 118t96.5 105t128 75t160 28.5zM420 901q68 59 116 101.5t81 71.5t54 46t36 26.5t27 12t26 2.5q27 0 43.5 -13t33.5 -45t40.5 -86t64.5 -137q3 -8 3 -15q0 -12 -7.5 -21.5t-19.5 -16.5t-27 -11t-30 -4
q-22 0 -40.5 7.5t-26.5 24.5q-7 16 -19 43.5t-24 53.5q-14 31 -30 64q-36 -33 -69 -64q-28 -26 -57 -53.5t-47 -43.5q-26 -23 -55 -23q-17 0 -32.5 4.5t-27.5 12t-19 17.5t-7 20q0 14 13 26z" />
    <glyph glyph-name="otilde" unicode="&#xf5;" horiz-adv-x="848" 
d="M519 551q-47 0 -90.5 -23.5t-77 -62t-53.5 -87t-20 -99.5q0 -19 3 -41.5t12.5 -42t27.5 -32.5t48 -13q46 0 89.5 24.5t77.5 64t54 89.5t20 101q0 20 -2.5 41.5t-12 39.5t-27.5 29.5t-49 11.5zM571 727q38 0 81.5 -10t80.5 -34t61.5 -63.5t24.5 -97.5q0 -30 -8 -68.5
t-24 -80.5q10 -12 23 -17t28 -5q21 0 46.5 12t52.5 31t54 43t51 48t43.5 45.5t32.5 36.5q7 7 17 7q14 0 25 -14.5t11 -40.5t-15.5 -60t-57.5 -71q-24 -26 -55 -60t-66 -64t-73 -51t-76 -21q-26 0 -50.5 8t-49.5 26q-36 -56 -82 -102t-102.5 -79t-122 -51.5t-139.5 -18.5
q-28 0 -65 11t-70.5 36.5t-56.5 66.5t-23 100q0 40 13 96t39.5 115.5t67 118t96.5 105t128 75t160 28.5zM973 986q-18 -38 -38 -70.5t-44 -56.5t-52.5 -38t-62.5 -14q-6 0 -12 0.5t-12 1.5q-12 1 -37 10.5t-54.5 21t-60 22t-53.5 14.5q-2 0 -4 0.5t-4 0.5q-9 0 -15 -4.5
t-10.5 -11t-7.5 -13.5t-6 -12q-12 -23 -37.5 -33t-46.5 -10q-23 0 -40 9t-17 24q0 7 2 10q18 39 41 72t50 56t56 36t59 13q20 0 45 -10.5t53 -22.5t57.5 -22.5t59.5 -10.5q21 0 36 10.5t23 27.5q11 26 34 37.5t46 11.5t39 -10.5t16 -27.5v-2q0 -2 -1 -3.5t-2 -5.5z" />
    <glyph glyph-name="odieresis" unicode="&#xf6;" horiz-adv-x="848" 
d="M519 551q-47 0 -90.5 -23.5t-77 -62t-53.5 -87t-20 -99.5q0 -19 3 -41.5t12.5 -42t27.5 -32.5t48 -13q46 0 89.5 24.5t77.5 64t54 89.5t20 101q0 20 -2.5 41.5t-12 39.5t-27.5 29.5t-49 11.5zM571 727q38 0 81.5 -10t80.5 -34t61.5 -63.5t24.5 -97.5q0 -30 -8 -68.5
t-24 -80.5q10 -12 23 -17t28 -5q21 0 46.5 12t52.5 31t54 43t51 48t43.5 45.5t32.5 36.5q7 7 17 7q14 0 25 -14.5t11 -40.5t-15.5 -60t-57.5 -71q-24 -26 -55 -60t-66 -64t-73 -51t-76 -21q-26 0 -50.5 8t-49.5 26q-36 -56 -82 -102t-102.5 -79t-122 -51.5t-139.5 -18.5
q-28 0 -65 11t-70.5 36.5t-56.5 66.5t-23 100q0 40 13 96t39.5 115.5t67 118t96.5 105t128 75t160 28.5zM639 923q-5 -25 -19 -48t-33.5 -40.5t-44 -28t-49.5 -10.5q-37 0 -58.5 20.5t-21.5 54.5q0 31 13 58.5t34 47.5t48.5 32t56.5 12q37 0 56.5 -20.5t19.5 -54.5
q0 -5 -0.5 -11t-1.5 -12zM942 923q-5 -25 -19 -48t-33.5 -40.5t-44 -28t-49.5 -10.5q-37 0 -58.5 20.5t-21.5 54.5q0 31 13 58.5t34 47.5t48.5 32t56.5 12q37 0 56.5 -20.5t19.5 -54.5q0 -5 -0.5 -11t-1.5 -12z" />
    <glyph glyph-name="divide" unicode="&#xf7;" horiz-adv-x="815" 
d="M579 139q-6 -31 -21.5 -59t-38 -49.5t-50 -34t-57.5 -12.5q-44 0 -70 28t-26 70q0 33 15 64t39 55t55 38.5t64 14.5q45 0 68.5 -24.5t23.5 -65.5q0 -6 -0.5 -12.5t-1.5 -12.5zM811 573q-5 -29 -21 -56t-39 -47t-51.5 -32t-58.5 -12q-44 0 -70 26t-26 68q0 33 15.5 64
t40 55t56 38.5t64.5 14.5q43 0 67.5 -25t24.5 -68q0 -6 -0.5 -12.5t-1.5 -13.5z" />
    <glyph glyph-name="oslash" unicode="&#xf8;" horiz-adv-x="848" 
d="M519 551q-47 0 -90.5 -23.5t-77 -62t-53.5 -87t-20 -99.5v-17.5t2 -18.5l254 307q-4 0 -7.5 0.5t-7.5 0.5zM603 490q-37 -45 -70.5 -85t-66.5 -79t-67.5 -80t-72.5 -87q16 -9 43 -9q46 0 89.5 24.5t77.5 64t54 89.5t20 101q0 15 -1 31t-6 30zM571 727q47 0 97 -15l57 70
q10 11 22 17t23 6q19 0 32.5 -12.5t13.5 -29.5q0 -6 -4 -14t-4 -13l-56 -67q29 -24 48 -60t19 -87q0 -30 -8 -68.5t-24 -80.5q10 -12 23 -17t28 -5q26 0 56.5 13t63 34t65.5 47t62 52.5t53 50t40 39.5q7 7 17 7q14 0 25 -14.5t11 -40.5t-15.5 -60t-57.5 -71l-66.5 -66.5
t-80 -70.5t-89.5 -56t-94 -23q-26 0 -50.5 8t-49.5 26q-36 -56 -82 -102t-102.5 -79t-122 -51.5t-139.5 -18.5q-20 0 -43.5 5.5t-48.5 16.5l-51 -61q-21 -25 -44 -25q-18 0 -30.5 12t-12.5 28q0 7 1.5 13.5t8.5 14.5l57 69q-23 26 -37.5 60t-14.5 81q0 40 13 96t39.5 115.5
t67 118t96.5 105t128 75t160 28.5z" />
    <glyph glyph-name="ugrave" unicode="&#xf9;" horiz-adv-x="928" 
d="M1194 239q-44 -50 -102.5 -97.5t-120.5 -84.5t-122 -59.5t-108 -22.5t-78 27t-30 92q0 46 16 107q-26 -39 -65 -79t-89 -73t-112 -53.5t-135 -20.5q-33 0 -63.5 7t-53.5 24t-37 45.5t-14 71.5q0 1 4 30.5t25.5 93t66.5 164.5t127 245q21 38 48.5 54.5t59.5 16.5
q14 0 29 -3.5t28 -11t21 -19t8 -26.5q0 -10 -3 -19q-5 -17 -21.5 -44.5t-38.5 -63t-46.5 -76.5t-45.5 -85t-36 -89.5t-17 -88.5q0 -18 10 -33t33 -15q65 0 124 36t109 89.5t90.5 115t67.5 112.5q19 34 33.5 73t31.5 72t39 55t55 22q36 0 57 -23t21 -55q0 -18 -13.5 -49.5
t-34 -72t-44.5 -86.5t-44.5 -93.5t-34 -93t-13.5 -84.5q0 -36 44 -36q31 0 77 18t96.5 50.5t101 76.5t89.5 95zM840 942q2 -13 3 -24t1 -21q0 -37 -15 -54t-35 -17t-41.5 17t-35.5 51q-29 63 -59 125t-59 125q-12 27 -12 52q0 24 9 44.5t23.5 35t33 23t37.5 8.5
q32 0 61.5 -26t43.5 -89q11 -63 22.5 -125t22.5 -125z" />
    <glyph glyph-name="uacute" unicode="&#xfa;" horiz-adv-x="928" 
d="M1194 239q-44 -50 -102.5 -97.5t-120.5 -84.5t-122 -59.5t-108 -22.5t-78 27t-30 92q0 46 16 107q-26 -39 -65 -79t-89 -73t-112 -53.5t-135 -20.5q-33 0 -63.5 7t-53.5 24t-37 45.5t-14 71.5q0 1 4 30.5t25.5 93t66.5 164.5t127 245q21 38 48.5 54.5t59.5 16.5
q14 0 29 -3.5t28 -11t21 -19t8 -26.5q0 -10 -3 -19q-5 -17 -21.5 -44.5t-38.5 -63t-46.5 -76.5t-45.5 -85t-36 -89.5t-17 -88.5q0 -18 10 -33t33 -15q65 0 124 36t109 89.5t90.5 115t67.5 112.5q19 34 33.5 73t31.5 72t39 55t55 22q36 0 57 -23t21 -55q0 -18 -13.5 -49.5
t-34 -72t-44.5 -86.5t-44.5 -93.5t-34 -93t-13.5 -84.5q0 -36 44 -36q31 0 77 18t96.5 50.5t101 76.5t89.5 95zM687 942q36 63 72.5 125t71.5 125q38 63 78 89t72 26q30 0 49 -19t19 -50q0 -20 -9 -44t-32 -50q-54 -63 -108.5 -125t-108.5 -125q-26 -34 -55 -51t-49 -17
q-31 0 -31 32q0 29 31 84z" />
    <glyph glyph-name="ucircumflex" unicode="&#xfb;" horiz-adv-x="928" 
d="M1194 239q-44 -50 -102.5 -97.5t-120.5 -84.5t-122 -59.5t-108 -22.5t-78 27t-30 92q0 46 16 107q-26 -39 -65 -79t-89 -73t-112 -53.5t-135 -20.5q-33 0 -63.5 7t-53.5 24t-37 45.5t-14 71.5q0 1 4 30.5t25.5 93t66.5 164.5t127 245q21 38 48.5 54.5t59.5 16.5
q14 0 29 -3.5t28 -11t21 -19t8 -26.5q0 -10 -3 -19q-5 -17 -21.5 -44.5t-38.5 -63t-46.5 -76.5t-45.5 -85t-36 -89.5t-17 -88.5q0 -18 10 -33t33 -15q65 0 124 36t109 89.5t90.5 115t67.5 112.5q19 34 33.5 73t31.5 72t39 55t55 22q36 0 57 -23t21 -55q0 -18 -13.5 -49.5
t-34 -72t-44.5 -86.5t-44.5 -93.5t-34 -93t-13.5 -84.5q0 -36 44 -36q31 0 77 18t96.5 50.5t101 76.5t89.5 95zM482 897q68 59 116 101.5t81 71.5t54 46t36 26.5t27 12t26 2.5q27 0 43.5 -13t33.5 -45t40.5 -86t64.5 -137q3 -8 3 -15q0 -12 -7.5 -21.5t-19.5 -16.5t-27 -11
t-30 -4q-22 0 -40.5 7.5t-26.5 24.5q-7 16 -19 43.5t-24 53.5q-14 31 -30 64q-36 -33 -69 -64q-28 -26 -57 -53.5t-47 -43.5q-26 -23 -55 -23q-17 0 -32.5 4.5t-27.5 12t-19 17.5t-7 20q0 14 13 26z" />
    <glyph glyph-name="udieresis" unicode="&#xfc;" horiz-adv-x="928" 
d="M1194 239q-44 -50 -102.5 -97.5t-120.5 -84.5t-122 -59.5t-108 -22.5t-78 27t-30 92q0 46 16 107q-26 -39 -65 -79t-89 -73t-112 -53.5t-135 -20.5q-33 0 -63.5 7t-53.5 24t-37 45.5t-14 71.5q0 1 4 30.5t25.5 93t66.5 164.5t127 245q21 38 48.5 54.5t59.5 16.5
q14 0 29 -3.5t28 -11t21 -19t8 -26.5q0 -10 -3 -19q-5 -17 -21.5 -44.5t-38.5 -63t-46.5 -76.5t-45.5 -85t-36 -89.5t-17 -88.5q0 -18 10 -33t33 -15q65 0 124 36t109 89.5t90.5 115t67.5 112.5q19 34 33.5 73t31.5 72t39 55t55 22q36 0 57 -23t21 -55q0 -18 -13.5 -49.5
t-34 -72t-44.5 -86.5t-44.5 -93.5t-34 -93t-13.5 -84.5q0 -36 44 -36q31 0 77 18t96.5 50.5t101 76.5t89.5 95zM711 919q-5 -25 -19 -48t-33.5 -40.5t-44 -28t-49.5 -10.5q-37 0 -58.5 20.5t-21.5 54.5q0 31 13 58.5t34 47.5t48.5 32t56.5 12q37 0 56.5 -20.5t19.5 -54.5
q0 -5 -0.5 -11t-1.5 -12zM1014 919q-5 -25 -19 -48t-33.5 -40.5t-44 -28t-49.5 -10.5q-37 0 -58.5 20.5t-21.5 54.5q0 31 13 58.5t34 47.5t48.5 32t56.5 12q37 0 56.5 -20.5t19.5 -54.5q0 -5 -0.5 -11t-1.5 -12z" />
    <glyph glyph-name="yacute" unicode="&#xfd;" horiz-adv-x="896" 
d="M741 634q28 22 47.5 33.5t33.5 17t25.5 6.5t23.5 1q21 0 30 -15.5t9 -32.5q0 -14 -5 -26l-224 -467q48 36 110.5 70.5t120 62t99 44.5t47.5 17q25 0 44 -19t19 -48q0 -26 -19.5 -55t-68.5 -56q-70 -39 -122 -66.5t-92 -49.5t-71 -40t-58.5 -37t-54 -40.5t-57.5 -50.5
q-23 -60 -45.5 -115t-41 -97t-30.5 -68t-13 -28q-81 -168 -178 -168q-40 0 -65 26.5t-25 71.5q0 42 10.5 83.5t37 91.5t70 111.5t109.5 144.5l200 405q-150 -178 -272 -272t-228 -94q-34 0 -58 15.5t-24 51.5q0 50 24 113q14 34 28 62.5t29 57t31.5 61.5t36 74.5t43 96
t52.5 127.5q20 39 52 56.5t62 17.5q31 0 52.5 -14.5t21.5 -38.5q0 -12 -4 -21l-183 -381q-14 -29 -14 -46q0 -15 12 -15q11 0 28 11t32 25zM657 942q36 63 72.5 125t71.5 125q38 63 78 89t72 26q30 0 49 -19t19 -50q0 -20 -9 -44t-32 -50q-54 -63 -108.5 -125t-108.5 -125
q-26 -34 -55 -51t-49 -17q-31 0 -31 32q0 29 31 84z" />
    <glyph glyph-name="thorn" unicode="&#xfe;" horiz-adv-x="980" 
d="M684 561q-57 0 -114 -27.5t-102.5 -72.5t-74.5 -101.5t-29 -114.5q0 -16 3 -32.5t12.5 -30.5t27.5 -23t48 -9q58 0 112.5 27.5t97.5 72.5t69 101.5t26 113.5q0 15 -2.5 32t-10.5 31t-23 23.5t-40 9.5zM-63 -164q42 88 87.5 184.5t92 195.5t92.5 198.5t88 192.5l292 649
q6 13 17.5 25t26.5 21.5t32.5 15t35.5 5.5q46 0 64.5 -18t18.5 -44q0 -20 -10 -43.5t-22 -43.5q-74 -142 -140 -288.5t-140 -289.5q32 25 68 48.5t75 42t81 30t86 11.5q31 0 63 -12t58.5 -35t43 -56.5t16.5 -77.5q0 -10 -6 -40t-17.5 -67.5t-28 -77t-36.5 -69.5
q7 -11 18 -13.5t25 -2.5q46 0 91.5 12t86 29.5t74.5 36.5t57 33q12 13 26 13q17 0 29.5 -15t12.5 -39q0 -23 -9.5 -45.5t-34.5 -49.5q-45 -27 -90.5 -51t-92.5 -41.5t-95.5 -28t-98.5 -10.5q-32 0 -59 9t-47 28q-85 -102 -180.5 -149.5t-206.5 -47.5q-57 0 -97 15t-66 41
l-118 -263q-6 -13 -17.5 -25t-26.5 -21.5t-32.5 -15t-35.5 -5.5q-46 0 -64.5 18t-18.5 44q0 20 11 43t21 44z" />
    <glyph glyph-name="ydieresis" unicode="&#xff;" horiz-adv-x="896" 
d="M741 634q28 22 47.5 33.5t33.5 17t25.5 6.5t23.5 1q21 0 30 -15.5t9 -32.5q0 -14 -5 -26l-224 -467q48 36 110.5 70.5t120 62t99 44.5t47.5 17q25 0 44 -19t19 -48q0 -26 -19.5 -55t-68.5 -56q-70 -39 -122 -66.5t-92 -49.5t-71 -40t-58.5 -37t-54 -40.5t-57.5 -50.5
q-23 -60 -45.5 -115t-41 -97t-30.5 -68t-13 -28q-81 -168 -178 -168q-40 0 -65 26.5t-25 71.5q0 42 10.5 83.5t37 91.5t70 111.5t109.5 144.5l200 405q-150 -178 -272 -272t-228 -94q-34 0 -58 15.5t-24 51.5q0 50 24 113q14 34 28 62.5t29 57t31.5 61.5t36 74.5t43 96
t52.5 127.5q20 39 52 56.5t62 17.5q31 0 52.5 -14.5t21.5 -38.5q0 -12 -4 -21l-183 -381q-14 -29 -14 -46q0 -15 12 -15q11 0 28 11t32 25zM701 930q-5 -25 -19 -48t-33.5 -40.5t-44 -28t-49.5 -10.5q-37 0 -58.5 20.5t-21.5 54.5q0 31 13 58.5t34 47.5t48.5 32t56.5 12
q37 0 56.5 -20.5t19.5 -54.5q0 -5 -0.5 -11t-1.5 -12zM1004 930q-5 -25 -19 -48t-33.5 -40.5t-44 -28t-49.5 -10.5q-37 0 -58.5 20.5t-21.5 54.5q0 31 13 58.5t34 47.5t48.5 32t56.5 12q37 0 56.5 -20.5t19.5 -54.5q0 -5 -0.5 -11t-1.5 -12z" />
    <glyph glyph-name="dotlessi" unicode="&#x131;" 
d="M247 640q17 28 39 40t45 12q38 0 65.5 -24.5t27.5 -62.5q-1 -9 -2.5 -18t-6.5 -18q-14 -26 -23 -44t-16.5 -33.5t-14.5 -30.5t-17 -36q-12 -25 -27 -54.5t-28.5 -60.5t-23 -61t-9.5 -55q0 -27 13.5 -33.5t38.5 -6.5q42 0 89.5 24.5t92 59.5t82 73t60.5 64l32 -136
q-51 -52 -104 -99t-108.5 -83t-111.5 -57.5t-113 -21.5q-80 0 -127 40.5t-47 127.5q0 46 13 90t31 85.5t38 80t34 73.5q5 13 17.5 40t26.5 55q16 33 34 70z" />
    <glyph glyph-name="Lslash" unicode="&#x141;" horiz-adv-x="1168" 
d="M196 209q0 -13 14 -26.5t43.5 -25.5t76 -19.5t111.5 -8.5q-30 16 -60.5 33.5t-58.5 32t-51 24t-39 9.5q-36 0 -36 -19zM1085 1322q15 30 36 53t45 38t49 22.5t47 7.5q32 0 54 -16.5t22 -48.5q0 -25 -13 -54q-56 -120 -114 -242q-43 -90 -86 -176q53 14 97 26q52 14 86 23
q3 1 8 1q18 0 30.5 -17t12.5 -39q0 -21 -14.5 -41.5t-49.5 -29.5q-36 -10 -89 -24q-53 -15 -114 -31q-19 -5 -39 -10q-37 -72 -73 -142q-56 -108 -108 -200t-97.5 -165t-82.5 -121q87 6 159 16t139 23t134.5 28.5t145.5 31.5q5 2 11 3t11 1q31 0 49 -24.5t18 -55.5
q0 -19 -36 -40.5t-98.5 -42.5t-147 -40.5t-182.5 -34t-205 -23t-213 -8.5q-123 0 -212 17t-146.5 47t-85 71t-27.5 89q0 47 17.5 79.5t48 52.5t72 29t89.5 9q39 0 81 -14t82.5 -36.5t77 -50t63.5 -55.5q23 60 55.5 134t70.5 156q38 80 80 166q8 16 9 19q-14 -4 -27 -7
q-53 -14 -89 -24q-3 -1 -10 -1q-16 0 -26 14.5t-10 34.5q0 23 16.5 47t58.5 35q35 9 87 23q34 9 71 19q2 4 4 9q42 83 82 160t74 141t60.5 113t41.5 75z" />
    <glyph glyph-name="lslash" unicode="&#x142;" horiz-adv-x="528" 
d="M273 289q-11 -23 -21.5 -53.5t-10.5 -54.5q0 -15 6 -24t23 -9q21 0 52.5 12.5t68 33t76 47t78.5 55t74.5 57t63.5 52.5q8 7 19 10t19 3q20 0 33 -14t13 -37q0 -21 -14 -47t-49 -51q-64 -59 -129 -112t-129.5 -93.5t-128 -64.5t-123.5 -24q-41 0 -68.5 11t-44 30t-23.5 45
t-7 55q0 49 14.5 100.5t34.5 94.5q35 78 71 155t66 141l70 150q-39 -10 -78 -21q-3 -1 -10 -1q-16 0 -26 14.5t-10 34.5q0 23 16.5 47t58.5 35q58 15 115 30l167 356q18 39 48.5 55t61.5 16t56.5 -17t25.5 -55q0 -18 -8.5 -38t-21.5 -43q-26 -47 -60 -115q-24 -47 -50 -100
q42 11 85 23q3 1 8 1q18 0 30.5 -17t12.5 -39q0 -21 -14.5 -41.5t-49.5 -29.5q-71 -19 -141 -38q-17 -36 -35 -74q-42 -86 -81.5 -168t-74 -155.5t-59.5 -127.5z" />
    <glyph glyph-name="OE" unicode="&#x152;" horiz-adv-x="1581" 
d="M436 486q0 -90 41.5 -154t109.5 -104.5t156.5 -59t182.5 -18.5l247 1117q-77 -1 -161.5 -29.5t-166 -80t-156 -122.5t-130.5 -157.5t-89.5 -185.5t-33.5 -206zM1508 825q57 0 85.5 -15t28.5 -36q0 -20 -10.5 -34t-28 -24t-41 -16.5t-48.5 -11.5q-27 -5 -97.5 -7
t-179.5 -2l-134 -550q131 0 218 15.5t145.5 39t96 50.5t70 50.5t67 39t86.5 15.5q42 0 66 -20.5t24 -58.5q0 -26 -28 -58t-81.5 -65.5t-130.5 -64.5t-174.5 -55.5t-214.5 -39.5t-250 -15q-167 0 -309.5 26.5t-246.5 85.5t-163 153.5t-59 231.5q0 146 46.5 275.5t127 239
t188 196.5t229.5 147.5t251.5 93t253.5 32.5q123 0 223.5 -17t174.5 -53t118.5 -91t55.5 -130v-11q0 -20 -12 -40t-33.5 -36.5t-50.5 -27t-63 -10.5q-21 0 -33.5 5t-18.5 14t-8 21t-2 26v31v18.5t-2 18.5q-3 30 -27.5 51t-64.5 35t-92 20.5t-110 6.5l-91 -449h249z" />
    <glyph glyph-name="oe" unicode="&#x153;" horiz-adv-x="1180" 
d="M1070 532q0 20 -14.5 28t-33.5 8q-37 0 -68.5 -14t-58 -36.5t-48 -50.5t-37.5 -56t-27 -54t-17 -43q100 48 160 82t92 58.5t42 42.5t10 35zM504 551q-44 0 -84 -24t-71 -62.5t-49.5 -87.5t-18.5 -100q0 -19 2 -41t10.5 -41t25 -32t46.5 -13q43 0 83.5 24.5t71.5 64.5
t49.5 90.5t18.5 103.5q0 19 -2.5 39.5t-11.5 38t-25.5 29t-44.5 11.5zM1075 727q37 0 68 -10t53 -28.5t34 -45.5t12 -60q0 -42 -18 -88t-68 -95t-140 -99.5t-235 -101.5q5 -29 31 -45.5t69 -16.5q41 0 88 15.5t93.5 39.5t90.5 52.5t79.5 54t59.5 44t32 22.5q8 5 16 6.5
t14 1.5q12 0 20 -5.5t13.5 -13t7.5 -16t2 -14.5q0 -9 -2 -21.5t-15 -28.5q-5 -6 -31.5 -30.5t-68.5 -57.5t-97 -70.5t-116 -68.5t-126.5 -51.5t-128.5 -20.5q-80 0 -136.5 39.5t-85.5 102.5q-59 -55 -135 -90t-170 -35q-27 0 -61 10.5t-65 34.5t-52 62.5t-21 93.5
q0 40 12 95.5t36.5 114.5t62.5 117t89.5 104t117.5 74.5t148 28.5q31 0 61 -9t55 -29t43 -51.5t26 -76.5q68 73 153 119.5t185 46.5z" />
    <glyph glyph-name="Scaron" unicode="&#x160;" horiz-adv-x="1196" 
d="M535 557q29 0 42.5 -23.5t13.5 -53.5q0 -15 -3 -26t-12 -20.5t-24 -18t-39 -18.5q-56 -24 -88 -57.5t-32 -66.5q0 -21 14 -40t44 -33.5t77.5 -23t114.5 -8.5q69 0 131 16.5t108.5 46.5t74 71t27.5 89q0 36 -30 75t-95 81q-115 75 -174.5 121t-73.5 58q-75 66 -112 127
t-37 127q0 61 29.5 119t79.5 109t115.5 94.5t137 74.5t144 48.5t137.5 17.5q49 0 90.5 -11t72.5 -34.5t48.5 -60.5t17.5 -89q0 -75 -43 -143t-131 -127q-39 -27 -72 -27q-34 0 -54 24.5t-20 57.5q0 28 16.5 56t53.5 48q29 15 51.5 40.5t22.5 49.5q0 23 -15.5 30t-37.5 7
q-42 0 -91.5 -10.5t-99 -28.5t-96 -43t-82 -54t-57 -61.5t-21.5 -64.5q0 -22 9 -41t26.5 -38t42.5 -39.5t58 -44.5l234 -173q45 -33 80.5 -64.5t59.5 -63t37 -63.5t13 -68q0 -80 -41.5 -156.5t-118 -136.5t-184 -97t-238.5 -37q-122 0 -207.5 19.5t-140.5 53t-80 77
t-25 91.5q0 50 25.5 101.5t72 97.5t111.5 82t143 55zM1455 1846q-73 -60 -124 -102t-86.5 -71t-58 -46t-38 -26.5t-27.5 -12t-26 -2.5q-27 0 -42.5 13t-30.5 45t-34 86t-53 137q-4 10 -4 14q0 12 8.5 22t21.5 17t28.5 11t30.5 4q21 0 40 -7.5t25 -24.5q6 -16 16 -43t20 -53
q9 -27 17 -46l8 -19q38 33 73 64q30 26 61 53t51 44q27 23 56 23q16 0 31 -4.5t26 -11.5t18 -16.5t7 -19.5q0 -16 -14 -28z" />
    <glyph glyph-name="scaron" unicode="&#x161;" horiz-adv-x="611" 
d="M392 563q61 -32 109 -73t81.5 -86.5t51 -92.5t17.5 -92q0 -57 -32.5 -102.5t-85 -77t-120 -48t-136.5 -16.5q-52 0 -101 11.5t-89.5 35.5t-69.5 61.5t-41 89.5q-2 8 -2 13q0 27 19 46.5t42 19.5q11 0 24.5 -4t20.5 -18q13 -24 36.5 -43t52.5 -32.5t61.5 -21t63.5 -7.5
q32 0 61.5 6t52 19t35.5 33t13 49q0 51 -23 94t-59.5 79.5t-83 68t-92.5 60.5q-5 3 -15 17.5t-10 29.5q0 12 6 19q16 21 37 43t45 40.5t52 30t58 11.5q22 0 41 -6t32 -15.5t20.5 -21t7.5 -21.5q0 -14 -7 -27t-18.5 -25t-26 -24t-28.5 -23zM882 1111q-73 -60 -124 -102
t-86.5 -71t-58 -46t-38 -26.5t-27.5 -12t-26 -2.5q-27 0 -42.5 13t-30.5 45t-34 86t-53 137q-4 10 -4 14q0 12 8.5 22t21.5 17t28.5 11t30.5 4q21 0 40 -7.5t25 -24.5q6 -16 16 -43t20 -53q9 -27 17 -46l8 -19q38 33 73 64q30 26 61 53t51 44q27 23 56 23q16 0 31 -4.5
t26 -11.5t18 -16.5t7 -19.5q0 -16 -14 -28z" />
    <glyph glyph-name="Ydieresis" unicode="&#x178;" horiz-adv-x="969" 
d="M638 665q-60 70 -108 153t-69 179q-17 58 -23.5 108t-6.5 93q0 57 14.5 103t39 77.5t56.5 48.5t68 17q73 0 73 -77q0 -14 -5.5 -35.5t-11.5 -47.5t-11.5 -55t-5.5 -57q0 -59 13.5 -118t37 -113t53.5 -100.5t63 -80.5l74 48q59 38 117.5 79t105.5 87q37 44 65.5 86t49 79
t32.5 67t17 50q9 42 18 72t26 49t47.5 28t82.5 9q48 0 48 -68q0 -4 -4 -35t-23.5 -84t-60 -125t-113.5 -157q-47 -45 -99.5 -86t-109 -78.5t-114.5 -72.5t-115 -69l-44 -26l-202 -382q-29 -56 -41.5 -85.5t-14.5 -40.5q0 -53 -15.5 -91t-39 -63.5t-51.5 -37.5t-53 -12
q-37 0 -63.5 22t-26.5 65q0 16 1 26t7 26t19.5 43.5t38.5 80.5zM1100 1643q-5 -25 -19 -48t-33.5 -40.5t-44 -28t-49.5 -10.5q-37 0 -58.5 20.5t-21.5 54.5q0 31 13 58.5t34 47.5t48.5 32t56.5 12q37 0 56.5 -20.5t19.5 -54.5q0 -5 -0.5 -11t-1.5 -12zM1403 1643
q-5 -25 -19 -48t-33.5 -40.5t-44 -28t-49.5 -10.5q-37 0 -58.5 20.5t-21.5 54.5q0 31 13 58.5t34 47.5t48.5 32t56.5 12q37 0 56.5 -20.5t19.5 -54.5q0 -5 -0.5 -11t-1.5 -12z" />
    <glyph glyph-name="Zcaron" unicode="&#x17d;" horiz-adv-x="1646" 
d="M1496 1270q16 12 36 12q26 0 48 -19.5t22 -48.5q0 -17 -10.5 -36t-35.5 -37q-41 -30 -81.5 -66.5t-77.5 -71.5q-74 -76 -148.5 -161t-150 -175.5t-152.5 -183.5t-156 -186q38 -9 74.5 -29t73 -39.5t73 -34.5t74.5 -15q83 0 146.5 29t114.5 78t92 114t80 138
q13 18 29.5 25.5t33.5 7.5q19 0 37 -7.5t32 -18.5t23 -24t9 -24q0 -4 -4 -12q-39 -107 -102 -199.5t-143.5 -160.5t-176.5 -107t-201 -39q-23 0 -46.5 10.5t-49 26.5t-54 34.5t-61 34.5t-70 26.5t-80.5 10.5q-17 0 -38.5 -3.5t-42.5 -9.5t-39 -13.5t-28 -14.5
q-39 -27 -78 -54.5t-78 -54.5q-14 -9 -27 -9q-14 0 -27 8t-23 20.5t-16 28t-6 31.5q0 14 4.5 25.5t17.5 22.5q37 30 73 60.5t73 61.5q19 13 35.5 25t36 29.5t45 43.5t61.5 67t85.5 99.5t117 141t156 191.5t203.5 252q-20 -2 -39 -4t-39 -2q-47 0 -98.5 11.5t-104 25
t-104.5 25t-100 11.5q-32 0 -64.5 -16t-63 -35t-57.5 -35t-47 -16q-18 0 -29 11.5t-11 30.5q0 11 5 26t17 29q29 34 68 65t82.5 54.5t90.5 37.5t92 14q19 0 37 -3q93 -13 157 -28t111.5 -27.5t83.5 -20.5t73 -8q45 0 79.5 2t62.5 8t50.5 16.5t44.5 27.5zM1514 1656
q-73 -60 -124 -102t-86.5 -71t-58 -46t-38 -26.5t-27.5 -12t-26 -2.5q-27 0 -42.5 13t-30.5 45t-34 86t-53 137q-4 10 -4 14q0 12 8.5 22t21.5 17t28.5 11t30.5 4q21 0 40 -7.5t25 -24.5q6 -16 16 -43t20 -53q9 -27 17 -46l8 -19q38 33 73 64q30 26 61 53t51 44q27 23 56 23
q16 0 31 -4.5t26 -11.5t18 -16.5t7 -19.5q0 -16 -14 -28z" />
    <glyph glyph-name="zcaron" unicode="&#x17e;" horiz-adv-x="778" 
d="M420 -84v15.5t-1 15.5q-70 -36 -124.5 -68t-92 -59t-57 -48.5t-19.5 -34.5q0 -26 19.5 -43.5t54.5 -17.5q27 0 64 22.5t71 57.5t58.5 77.5t26.5 82.5zM1026 476q8 7 16.5 8.5t16.5 2.5q23 0 41 -18t18 -39q0 -9 -3.5 -16t-10.5 -15q-32 -36 -76.5 -73t-105 -79
t-139.5 -91t-181 -109q0 -6 0.5 -12.5t0.5 -13.5q0 -51 -19.5 -105t-53 -106t-78 -98.5t-94 -81.5t-101.5 -55.5t-100 -20.5t-87.5 11.5t-67.5 33t-43 51t-15 65.5q0 33 24 71t76 81.5t134 94t197 109.5q-17 7 -35.5 8t-35.5 1q-23 0 -53 -1t-61 -1q-24 0 -46 1t-39.5 4
t-27.5 9.5t-10 17.5q0 21 11 43.5t40.5 54t80 76t129.5 108.5l213 157q-7 0 -109 -3t-285 -3q-26 0 -38 14t-12 27q1 15 6.5 33t15.5 33.5t24.5 26.5t33.5 11q20 0 65 0.5t102 0.5t119 1t116 1t93 0.5t51 0.5q18 0 29 -6t17 -15t8 -19.5t2 -19.5q0 -18 -7.5 -36t-24 -38
t-43.5 -42.5t-65 -50.5q-7 -5 -24.5 -18t-41.5 -30.5t-52.5 -38.5t-56.5 -42q-67 -49 -147 -108h21q64 0 120 -18t94 -49q85 47 155.5 89t128 80.5t104.5 74.5t86 71zM782 1111q-73 -60 -124 -102t-86.5 -71t-58 -46t-38 -26.5t-27.5 -12t-26 -2.5q-27 0 -42.5 13t-30.5 45
t-34 86t-53 137q-4 10 -4 14q0 12 8.5 22t21.5 17t28.5 11t30.5 4q21 0 40 -7.5t25 -24.5q6 -16 16 -43t20 -53q9 -27 17 -46l8 -19q38 33 73 64q30 26 61 53t51 44q27 23 56 23q16 0 31 -4.5t26 -11.5t18 -16.5t7 -19.5q0 -16 -14 -28z" />
    <glyph glyph-name="florin" unicode="&#x192;" horiz-adv-x="566" 
d="M835 1062h307q22 0 27.5 -14.5t-1.5 -32.5q-8 -21 -28 -39.5t-46 -18.5h-307l-335 -741q-105 -229 -237 -345t-268 -116q-93 0 -189 38l-41 28l-16 14q-30 26 -16 60q5 15 16 28.5t25.5 24.5t30 17.5t30.5 6.5q18 0 33 -12l27 -22q56 -47 121 -47q32 0 65 12.5t64.5 38.5
t60 64.5t52.5 91.5l387 859h-233q-23 0 -28.5 15t1.5 34q8 20 27.5 38t47.5 18h233q51 140 119 252.5t145 191t160.5 121t165.5 42.5q48 0 94 -14.5t90 -46.5l41 -29q11 -9 12.5 -24t-3.5 -29t-14.5 -27.5t-22 -24.5t-27 -17.5t-29.5 -6.5q-14 0 -27 8l-16 10
q-77 49 -139 49q-48 0 -93 -27.5t-88.5 -84t-87.5 -142t-90 -201.5z" />
    <glyph glyph-name="uni0200" unicode="&#x200;" horiz-adv-x="1323" 
d="M1076 285q-5 -19 -10.5 -43.5t-5.5 -46.5q0 -20 6 -34t26 -14q27 0 64.5 19.5t80.5 52t89 75t91 88t86 91.5t73 86l37 -133q-66 -88 -136 -169t-142.5 -143t-145.5 -99t-145 -37q-42 0 -71.5 13.5t-47.5 37t-26.5 54t-8.5 64.5q0 13 1 37t2.5 49.5t3 46.5t1.5 27
l-355 -22l-165 -2q-42 -91 -83 -161q-18 -30 -38 -59t-40 -51.5t-40 -36t-39 -13.5q-30 0 -49 9t-30 22.5t-15.5 30.5t-4.5 32q0 26 7 51.5t20 48.5l132 222q9 14 36.5 67t71 130.5t100.5 171.5t123.5 190.5t141 187.5t153 161.5t158.5 113t159 42.5q74 0 145.5 -46
t136.5 -151q7 -14 7 -24q0 -13 -7 -26t-18.5 -23t-25.5 -16t-29 -6q-18 0 -41.5 8t-44.5 34q-31 36 -64.5 52.5t-66.5 16.5q-47 0 -96 -26.5t-98.5 -72t-98.5 -105t-95 -125.5t-89 -135t-81 -132t-69.5 -116t-55.5 -89h183l309 23q9 20 24 54.5t33.5 77.5t40.5 93
t44.5 100.5t44.5 100t41 91.5q13 38 38.5 54t54.5 16q15 0 30 -4.5t27.5 -14t20.5 -24t9 -34.5q0 -19 -16.5 -65t-42 -108t-57 -134.5t-62 -145t-56.5 -139t-40 -116.5zM1109 1688q4 -17 6.5 -31t2.5 -25q0 -31 -12.5 -45.5t-31.5 -14.5q-20 0 -43.5 17t-40.5 51
q-35 63 -71 125t-71 125q-10 17 -14 32t-4 31q0 44 28 72t65 28q32 0 64 -26t52 -89q17 -63 34.5 -125t35.5 -125zM1465 1688q4 -17 6.5 -31t2.5 -25q0 -31 -12.5 -45.5t-31.5 -14.5q-20 0 -43.5 17t-40.5 51q-35 63 -71 125t-71 125q-10 17 -14 32t-4 31q0 44 28 72t65 28
q32 0 64 -26t52 -89q17 -63 34.5 -125t35.5 -125z" />
    <glyph glyph-name="uni0201" unicode="&#x201;" horiz-adv-x="984" 
d="M524 546q-47 0 -91 -24t-78 -63t-54 -87.5t-20 -97.5q0 -20 2.5 -41.5t11.5 -39.5t25.5 -30t44.5 -12q22 0 51.5 19.5t61 50t61.5 67t54 71.5t39 63t15 41q0 19 -13 34.5t-32 26.5t-40.5 16.5t-37.5 5.5zM1217 288q-18 -17 -48 -47t-68.5 -65t-82 -70.5t-89 -64.5
t-89.5 -47.5t-83 -18.5q-35 0 -60 15t-41.5 39t-24.5 54.5t-8 62.5q0 21 3 41.5t10 38.5q-31 -42 -70.5 -86.5t-85 -81t-95 -60t-100.5 -23.5q-26 0 -60.5 10.5t-65.5 34.5t-52 62t-21 93q0 41 12.5 98t38 118.5t65 121.5t93.5 107.5t123 77t154 29.5q44 0 77 -11t56 -24
q26 -16 46 -35q17 9 35 17q15 7 31.5 12.5t28.5 5.5q38 0 62 -21t24 -46q0 -7 -1 -11q-5 -19 -15.5 -48t-23.5 -64.5t-26.5 -74t-24.5 -75.5t-18 -69.5t-7 -55.5q0 -30 10 -49.5t34 -19.5q15 0 35.5 9.5t44.5 25.5t49.5 36.5t49.5 41.5q56 50 119 114q16 13 31 13
q20 0 33.5 -19.5t13.5 -43.5q0 -28 -19 -47zM452 942q4 -17 6.5 -31t2.5 -25q0 -31 -12.5 -45.5t-31.5 -14.5q-20 0 -43.5 17t-40.5 51q-35 63 -71 125t-71 125q-10 17 -14 32t-4 31q0 44 28 72t65 28q32 0 64 -26t52 -89q17 -63 34.5 -125t35.5 -125zM808 942
q4 -17 6.5 -31t2.5 -25q0 -31 -12.5 -45.5t-31.5 -14.5q-20 0 -43.5 17t-40.5 51q-35 63 -71 125t-71 125q-10 17 -14 32t-4 31q0 44 28 72t65 28q32 0 64 -26t52 -89q17 -63 34.5 -125t35.5 -125z" />
    <glyph glyph-name="uni0202" unicode="&#x202;" horiz-adv-x="1323" 
d="M1076 285q-5 -19 -10.5 -43.5t-5.5 -46.5q0 -20 6 -34t26 -14q27 0 64.5 19.5t80.5 52t89 75t91 88t86 91.5t73 86l37 -133q-66 -88 -136 -169t-142.5 -143t-145.5 -99t-145 -37q-42 0 -71.5 13.5t-47.5 37t-26.5 54t-8.5 64.5q0 13 1 37t2.5 49.5t3 46.5t1.5 27
l-355 -22l-165 -2q-42 -91 -83 -161q-18 -30 -38 -59t-40 -51.5t-40 -36t-39 -13.5q-30 0 -49 9t-30 22.5t-15.5 30.5t-4.5 32q0 26 7 51.5t20 48.5l132 222q9 14 36.5 67t71 130.5t100.5 171.5t123.5 190.5t141 187.5t153 161.5t158.5 113t159 42.5q74 0 145.5 -46
t136.5 -151q7 -14 7 -24q0 -13 -7 -26t-18.5 -23t-25.5 -16t-29 -6q-18 0 -41.5 8t-44.5 34q-31 36 -64.5 52.5t-66.5 16.5q-47 0 -96 -26.5t-98.5 -72t-98.5 -105t-95 -125.5t-89 -135t-81 -132t-69.5 -116t-55.5 -89h183l309 23q9 20 24 54.5t33.5 77.5t40.5 93
t44.5 100.5t44.5 100t41 91.5q13 38 38.5 54t54.5 16q15 0 30 -4.5t27.5 -14t20.5 -24t9 -34.5q0 -19 -16.5 -65t-42 -108t-57 -134.5t-62 -145t-56.5 -139t-40 -116.5zM1477 1591q-5 -17 -26.5 -26.5t-43.5 -9.5q-19 0 -32 7t-13 21q0 6 2 13.5t2 13.5q0 26 -21.5 43
t-67.5 17q-28 0 -51 -7t-40 -18.5t-28 -26.5t-15 -31q-6 -19 -25.5 -28t-39.5 -9t-35.5 7.5t-15.5 23.5q0 2 2 10q11 39 40 73.5t67.5 60.5t83.5 41t89 15q85 0 130 -40.5t45 -100.5q0 -25 -7 -49z" />
    <glyph glyph-name="uni0203" unicode="&#x203;" horiz-adv-x="984" 
d="M524 546q-47 0 -91 -24t-78 -63t-54 -87.5t-20 -97.5q0 -20 2.5 -41.5t11.5 -39.5t25.5 -30t44.5 -12q22 0 51.5 19.5t61 50t61.5 67t54 71.5t39 63t15 41q0 19 -13 34.5t-32 26.5t-40.5 16.5t-37.5 5.5zM1217 288q-18 -17 -48 -47t-68.5 -65t-82 -70.5t-89 -64.5
t-89.5 -47.5t-83 -18.5q-35 0 -60 15t-41.5 39t-24.5 54.5t-8 62.5q0 21 3 41.5t10 38.5q-31 -42 -70.5 -86.5t-85 -81t-95 -60t-100.5 -23.5q-26 0 -60.5 10.5t-65.5 34.5t-52 62t-21 93q0 41 12.5 98t38 118.5t65 121.5t93.5 107.5t123 77t154 29.5q44 0 77 -11t56 -24
q26 -16 46 -35q17 9 35 17q15 7 31.5 12.5t28.5 5.5q38 0 62 -21t24 -46q0 -7 -1 -11q-5 -19 -15.5 -48t-23.5 -64.5t-26.5 -74t-24.5 -75.5t-18 -69.5t-7 -55.5q0 -30 10 -49.5t34 -19.5q15 0 35.5 9.5t44.5 25.5t49.5 36.5t49.5 41.5q56 50 119 114q16 13 31 13
q20 0 33.5 -19.5t13.5 -43.5q0 -28 -19 -47zM916 874q-5 -17 -26.5 -26.5t-43.5 -9.5q-19 0 -32 7t-13 21q0 6 2 13.5t2 13.5q0 26 -21.5 43t-67.5 17q-28 0 -51 -7t-40 -18.5t-28 -26.5t-15 -31q-6 -19 -25.5 -28t-39.5 -9t-35.5 7.5t-15.5 23.5q0 2 2 10q11 39 40 73.5
t67.5 60.5t83.5 41t89 15q85 0 130 -40.5t45 -100.5q0 -25 -7 -49z" />
    <glyph glyph-name="uni0204" unicode="&#x204;" horiz-adv-x="1155" 
d="M1078 825q16 0 31 -4t27 -11t19 -16.5t7 -19.5q0 -16 -20 -32.5t-69 -30.5t-130.5 -23t-205.5 -9q-67 0 -133 -18.5t-118 -54.5t-84.5 -88t-32.5 -119q0 -54 15.5 -103t47 -86t79 -59t112.5 -22q131 0 218 15.5t145.5 39t96 50.5t70 50.5t67 39t86.5 15.5q42 0 66 -20.5
t24 -58.5q0 -26 -27.5 -58t-78 -65.5t-121.5 -64.5t-158 -55.5t-187 -39.5t-208 -15q-99 0 -186 26.5t-152 79.5t-102.5 132.5t-37.5 186.5q0 92 42 167.5t114.5 132.5t169 94t205.5 51q-84 63 -118 123.5t-34 119.5q0 58 29 107.5t79.5 90.5t117.5 72.5t144 53t159.5 33
t162.5 11.5q82 0 155.5 -17t131.5 -53t95 -91t45 -130q0 -21 -10 -43t-30.5 -40.5t-50 -30t-68.5 -11.5q-21 0 -33.5 5t-19 14t-8 21.5t-1.5 27.5q0 47 -11 81t-36.5 55.5t-66.5 32t-102 10.5q-73 0 -152 -15.5t-145 -45t-108.5 -70.5t-42.5 -92q0 -60 27.5 -103t73 -70.5
t104.5 -40t122 -12.5zM1094 1655q4 -17 6.5 -31t2.5 -25q0 -31 -12.5 -45.5t-31.5 -14.5q-20 0 -43.5 17t-40.5 51q-35 63 -71 125t-71 125q-10 17 -14 32t-4 31q0 44 28 72t65 28q32 0 64 -26t52 -89q17 -63 34.5 -125t35.5 -125zM1450 1655q4 -17 6.5 -31t2.5 -25
q0 -31 -12.5 -45.5t-31.5 -14.5q-20 0 -43.5 17t-40.5 51q-35 63 -71 125t-71 125q-10 17 -14 32t-4 31q0 44 28 72t65 28q32 0 64 -26t52 -89q17 -63 34.5 -125t35.5 -125z" />
    <glyph glyph-name="uni0205" unicode="&#x205;" horiz-adv-x="704" 
d="M544 590q-5 1 -9 1h-9q-38 0 -71 -15t-60.5 -39.5t-49 -55.5t-38.5 -61.5t-28.5 -58.5t-17.5 -47q35 18 72.5 41t70.5 44t57.5 38t34.5 23q45 28 62 52.5t17 42.5q0 15 -9.5 24t-21.5 11zM580 728q83 0 124 -40t41 -111q0 -42 -22 -88t-76 -93.5t-144.5 -97t-226.5 -99.5
q5 -29 31 -45.5t69 -16.5q46 0 98.5 13.5t104 34.5t100.5 45.5t88.5 46.5t66 38t35.5 20q9 6 16.5 7t13.5 1q12 0 20 -5.5t13.5 -13t7.5 -16t2 -14.5q0 -9 -2 -21.5t-15 -28.5q-5 -5 -33.5 -27t-73.5 -52t-104.5 -63.5t-126 -61.5t-138.5 -46.5t-142 -18.5q-60 0 -106.5 23
t-79 62t-49.5 90t-17 107q0 43 17 94.5t49 103.5t78.5 101.5t104.5 87.5t127.5 61t148.5 23zM428 942q4 -17 6.5 -31t2.5 -25q0 -31 -12.5 -45.5t-31.5 -14.5q-20 0 -43.5 17t-40.5 51q-35 63 -71 125t-71 125q-10 17 -14 32t-4 31q0 44 28 72t65 28q32 0 64 -26t52 -89
q17 -63 34.5 -125t35.5 -125zM784 942q4 -17 6.5 -31t2.5 -25q0 -31 -12.5 -45.5t-31.5 -14.5q-20 0 -43.5 17t-40.5 51q-35 63 -71 125t-71 125q-10 17 -14 32t-4 31q0 44 28 72t65 28q32 0 64 -26t52 -89q17 -63 34.5 -125t35.5 -125z" />
    <glyph glyph-name="uni0206" unicode="&#x206;" horiz-adv-x="1155" 
d="M1078 825q16 0 31 -4t27 -11t19 -16.5t7 -19.5q0 -16 -20 -32.5t-69 -30.5t-130.5 -23t-205.5 -9q-67 0 -133 -18.5t-118 -54.5t-84.5 -88t-32.5 -119q0 -54 15.5 -103t47 -86t79 -59t112.5 -22q131 0 218 15.5t145.5 39t96 50.5t70 50.5t67 39t86.5 15.5q42 0 66 -20.5
t24 -58.5q0 -26 -27.5 -58t-78 -65.5t-121.5 -64.5t-158 -55.5t-187 -39.5t-208 -15q-99 0 -186 26.5t-152 79.5t-102.5 132.5t-37.5 186.5q0 92 42 167.5t114.5 132.5t169 94t205.5 51q-84 63 -118 123.5t-34 119.5q0 58 29 107.5t79.5 90.5t117.5 72.5t144 53t159.5 33
t162.5 11.5q82 0 155.5 -17t131.5 -53t95 -91t45 -130q0 -21 -10 -43t-30.5 -40.5t-50 -30t-68.5 -11.5q-21 0 -33.5 5t-19 14t-8 21.5t-1.5 27.5q0 47 -11 81t-36.5 55.5t-66.5 32t-102 10.5q-73 0 -152 -15.5t-145 -45t-108.5 -70.5t-42.5 -92q0 -60 27.5 -103t73 -70.5
t104.5 -40t122 -12.5zM1468 1602q-5 -17 -26.5 -26.5t-43.5 -9.5q-19 0 -32 7t-13 21q0 6 2 13.5t2 13.5q0 26 -21.5 43t-67.5 17q-28 0 -51 -7t-40 -18.5t-28 -26.5t-15 -31q-6 -19 -25.5 -28t-39.5 -9t-35.5 7.5t-15.5 23.5q0 2 2 10q11 39 40 73.5t67.5 60.5t83.5 41
t89 15q85 0 130 -40.5t45 -100.5q0 -25 -7 -49z" />
    <glyph glyph-name="uni0207" unicode="&#x207;" horiz-adv-x="704" 
d="M544 590q-5 1 -9 1h-9q-38 0 -71 -15t-60.5 -39.5t-49 -55.5t-38.5 -61.5t-28.5 -58.5t-17.5 -47q35 18 72.5 41t70.5 44t57.5 38t34.5 23q45 28 62 52.5t17 42.5q0 15 -9.5 24t-21.5 11zM580 728q83 0 124 -40t41 -111q0 -42 -22 -88t-76 -93.5t-144.5 -97t-226.5 -99.5
q5 -29 31 -45.5t69 -16.5q46 0 98.5 13.5t104 34.5t100.5 45.5t88.5 46.5t66 38t35.5 20q9 6 16.5 7t13.5 1q12 0 20 -5.5t13.5 -13t7.5 -16t2 -14.5q0 -9 -2 -21.5t-15 -28.5q-5 -5 -33.5 -27t-73.5 -52t-104.5 -63.5t-126 -61.5t-138.5 -46.5t-142 -18.5q-60 0 -106.5 23
t-79 62t-49.5 90t-17 107q0 43 17 94.5t49 103.5t78.5 101.5t104.5 87.5t127.5 61t148.5 23zM834 874q-5 -17 -26.5 -26.5t-43.5 -9.5q-19 0 -32 7t-13 21q0 6 2 13.5t2 13.5q0 26 -21.5 43t-67.5 17q-28 0 -51 -7t-40 -18.5t-28 -26.5t-15 -31q-6 -19 -25.5 -28t-39.5 -9
t-35.5 7.5t-15.5 23.5q0 2 2 10q11 39 40 73.5t67.5 60.5t83.5 41t89 15q85 0 130 -40.5t45 -100.5q0 -25 -7 -49z" />
    <glyph glyph-name="uni0208" unicode="&#x208;" horiz-adv-x="1075" 
d="M778 8q-66 7 -117.5 9.5t-96.5 2.5q-30 0 -58.5 -1t-57 -1.5t-59 -1.5t-64.5 -1q-33 0 -51 19t-18 47q0 11 3 23q3 10 23.5 21.5t54 22t78.5 18.5t96 12q52 113 108.5 228.5t113.5 225t111 209.5t101 182.5t84.5 143.5t61.5 93q-51 -11 -99 -23.5t-108 -24.5
q-12 -4 -24 -4q-29 0 -45 20.5t-16 49.5q0 13 23.5 30.5t65 36t98 36t123 31.5t140 22.5t148.5 8.5q70 0 109.5 -14.5t39.5 -49.5q0 -17 -10 -34.5t-26.5 -31.5t-39.5 -22.5t-48 -8.5q-14 0 -26 1.5t-26 1.5q-37 0 -69 -1.5t-61 -3.5q2 -10 2 -15q0 -14 -5 -26.5t-10 -23.5
q-31 -65 -75 -156.5t-94 -194.5t-101.5 -209t-97.5 -200t-83 -167.5t-56 -111.5q56 -5 103 -13.5t80.5 -21t52.5 -29.5t19 -38q0 -15 -10 -29.5t-26 -26t-36 -18t-41 -6.5q-23 0 -43.5 6t-40.5 8zM1154 1666q4 -17 6.5 -31t2.5 -25q0 -31 -12.5 -45.5t-31.5 -14.5
q-20 0 -43.5 17t-40.5 51q-35 63 -71 125t-71 125q-10 17 -14 32t-4 31q0 44 28 72t65 28q32 0 64 -26t52 -89q17 -63 34.5 -125t35.5 -125zM1510 1666q4 -17 6.5 -31t2.5 -25q0 -31 -12.5 -45.5t-31.5 -14.5q-20 0 -43.5 17t-40.5 51q-35 63 -71 125t-71 125q-10 17 -14 32
t-4 31q0 44 28 72t65 28q32 0 64 -26t52 -89q17 -63 34.5 -125t35.5 -125z" />
    <glyph glyph-name="uni0209" unicode="&#x209;" 
d="M247 640q17 28 39 40t45 12q38 0 65.5 -24.5t27.5 -62.5q-1 -9 -2.5 -18t-6.5 -18q-14 -26 -23 -44t-16.5 -33.5t-14.5 -30.5t-17 -36q-12 -25 -27 -54.5t-28.5 -60.5t-23 -61t-9.5 -55q0 -27 13.5 -33.5t38.5 -6.5q42 0 89.5 24.5t92 59.5t82 73t60.5 64l32 -136
q-51 -52 -104 -99t-108.5 -83t-111.5 -57.5t-113 -21.5q-80 0 -127 40.5t-47 127.5q0 46 13 90t31 85.5t38 80t34 73.5q5 13 17.5 40t26.5 55q16 33 34 70zM266 942q4 -17 6.5 -31t2.5 -25q0 -31 -12.5 -45.5t-31.5 -14.5q-20 0 -43.5 17t-40.5 51q-35 63 -71 125t-71 125
q-10 17 -14 32t-4 31q0 44 28 72t65 28q32 0 64 -26t52 -89q17 -63 34.5 -125t35.5 -125zM622 942q4 -17 6.5 -31t2.5 -25q0 -31 -12.5 -45.5t-31.5 -14.5q-20 0 -43.5 17t-40.5 51q-35 63 -71 125t-71 125q-10 17 -14 32t-4 31q0 44 28 72t65 28q32 0 64 -26t52 -89
q17 -63 34.5 -125t35.5 -125z" />
    <glyph glyph-name="uni020A" unicode="&#x20a;" horiz-adv-x="1075" 
d="M778 8q-66 7 -117.5 9.5t-96.5 2.5q-30 0 -58.5 -1t-57 -1.5t-59 -1.5t-64.5 -1q-33 0 -51 19t-18 47q0 11 3 23q3 10 23.5 21.5t54 22t78.5 18.5t96 12q52 113 108.5 228.5t113.5 225t111 209.5t101 182.5t84.5 143.5t61.5 93q-51 -11 -99 -23.5t-108 -24.5
q-12 -4 -24 -4q-29 0 -45 20.5t-16 49.5q0 13 23.5 30.5t65 36t98 36t123 31.5t140 22.5t148.5 8.5q70 0 109.5 -14.5t39.5 -49.5q0 -17 -10 -34.5t-26.5 -31.5t-39.5 -22.5t-48 -8.5q-14 0 -26 1.5t-26 1.5q-37 0 -69 -1.5t-61 -3.5q2 -10 2 -15q0 -14 -5 -26.5t-10 -23.5
q-31 -65 -75 -156.5t-94 -194.5t-101.5 -209t-97.5 -200t-83 -167.5t-56 -111.5q56 -5 103 -13.5t80.5 -21t52.5 -29.5t19 -38q0 -15 -10 -29.5t-26 -26t-36 -18t-41 -6.5q-23 0 -43.5 6t-40.5 8zM1550 1598q-5 -17 -26.5 -26.5t-43.5 -9.5q-19 0 -32 7t-13 21q0 6 2 13.5
t2 13.5q0 26 -21.5 43t-67.5 17q-28 0 -51 -7t-40 -18.5t-28 -26.5t-15 -31q-6 -19 -25.5 -28t-39.5 -9t-35.5 7.5t-15.5 23.5q0 2 2 10q11 39 40 73.5t67.5 60.5t83.5 41t89 15q85 0 130 -40.5t45 -100.5q0 -25 -7 -49z" />
    <glyph glyph-name="uni020B" unicode="&#x20b;" 
d="M247 640q17 28 39 40t45 12q38 0 65.5 -24.5t27.5 -62.5q-1 -9 -2.5 -18t-6.5 -18q-14 -26 -23 -44t-16.5 -33.5t-14.5 -30.5t-17 -36q-12 -25 -27 -54.5t-28.5 -60.5t-23 -61t-9.5 -55q0 -27 13.5 -33.5t38.5 -6.5q42 0 89.5 24.5t92 59.5t82 73t60.5 64l32 -136
q-51 -52 -104 -99t-108.5 -83t-111.5 -57.5t-113 -21.5q-80 0 -127 40.5t-47 127.5q0 46 13 90t31 85.5t38 80t34 73.5q5 13 17.5 40t26.5 55q16 33 34 70zM633 850q-5 -17 -26.5 -26.5t-43.5 -9.5q-19 0 -32 7t-13 21q0 6 2 13.5t2 13.5q0 26 -21.5 43t-67.5 17
q-28 0 -51 -7t-40 -18.5t-28 -26.5t-15 -31q-6 -19 -25.5 -28t-39.5 -9t-35.5 7.5t-15.5 23.5q0 2 2 10q11 39 40 73.5t67.5 60.5t83.5 41t89 15q85 0 130 -40.5t45 -100.5q0 -25 -7 -49z" />
    <glyph glyph-name="uni020C" unicode="&#x20c;" horiz-adv-x="1341" 
d="M235 459q0 146 43.5 275.5t117 239t170 196.5t202 147.5t214 93t206.5 32.5q87 0 165.5 -20t140 -61t102.5 -103.5t55 -146.5q1 -5 1 -9v-9q0 -39 -22.5 -59.5t-48.5 -20.5q-29 0 -54 31t-48 88q-37 70 -107 102t-158 32q-77 0 -161.5 -28t-167 -79t-157.5 -122.5
t-132 -158t-90.5 -186.5t-33.5 -207q0 -89 22 -150t58 -99t81 -55t91 -17q103 0 196.5 56t164.5 160.5t113 255t42 339.5q0 19 -0.5 37.5t-0.5 38.5q0 50 18 73.5t41 23.5q39 0 63.5 -21.5t38.5 -57t19.5 -81t5.5 -93.5q0 -136 -29 -256.5t-80.5 -223t-122 -184t-152.5 -138
t-172.5 -87t-182.5 -30.5q-85 0 -166 24.5t-144.5 81t-102 149t-38.5 227.5zM1062 1688q4 -17 6.5 -31t2.5 -25q0 -31 -12.5 -45.5t-31.5 -14.5q-20 0 -43.5 17t-40.5 51q-35 63 -71 125t-71 125q-10 17 -14 32t-4 31q0 44 28 72t65 28q32 0 64 -26t52 -89q17 -63 34.5 -125
t35.5 -125zM1418 1688q4 -17 6.5 -31t2.5 -25q0 -31 -12.5 -45.5t-31.5 -14.5q-20 0 -43.5 17t-40.5 51q-35 63 -71 125t-71 125q-10 17 -14 32t-4 31q0 44 28 72t65 28q32 0 64 -26t52 -89q17 -63 34.5 -125t35.5 -125z" />
    <glyph glyph-name="uni020D" unicode="&#x20d;" horiz-adv-x="848" 
d="M519 551q-47 0 -90.5 -23.5t-77 -62t-53.5 -87t-20 -99.5q0 -19 3 -41.5t12.5 -42t27.5 -32.5t48 -13q46 0 89.5 24.5t77.5 64t54 89.5t20 101q0 20 -2.5 41.5t-12 39.5t-27.5 29.5t-49 11.5zM571 727q38 0 81.5 -10t80.5 -34t61.5 -63.5t24.5 -97.5q0 -30 -8 -68.5
t-24 -80.5q10 -12 23 -17t28 -5q21 0 46.5 12t52.5 31t54 43t51 48t43.5 45.5t32.5 36.5q7 7 17 7q14 0 25 -14.5t11 -40.5t-15.5 -60t-57.5 -71q-24 -26 -55 -60t-66 -64t-73 -51t-76 -21q-26 0 -50.5 8t-49.5 26q-36 -56 -82 -102t-102.5 -79t-122 -51.5t-139.5 -18.5
q-28 0 -65 11t-70.5 36.5t-56.5 66.5t-23 100q0 40 13 96t39.5 115.5t67 118t96.5 105t128 75t160 28.5zM436 936q4 -17 6.5 -31t2.5 -25q0 -31 -12.5 -45.5t-31.5 -14.5q-20 0 -43.5 17t-40.5 51q-35 63 -71 125t-71 125q-10 17 -14 32t-4 31q0 44 28 72t65 28q32 0 64 -26
t52 -89q17 -63 34.5 -125t35.5 -125zM792 936q4 -17 6.5 -31t2.5 -25q0 -31 -12.5 -45.5t-31.5 -14.5q-20 0 -43.5 17t-40.5 51q-35 63 -71 125t-71 125q-10 17 -14 32t-4 31q0 44 28 72t65 28q32 0 64 -26t52 -89q17 -63 34.5 -125t35.5 -125z" />
    <glyph glyph-name="uni020E" unicode="&#x20e;" horiz-adv-x="1341" 
d="M235 459q0 146 43.5 275.5t117 239t170 196.5t202 147.5t214 93t206.5 32.5q87 0 165.5 -20t140 -61t102.5 -103.5t55 -146.5q1 -5 1 -9v-9q0 -39 -22.5 -59.5t-48.5 -20.5q-29 0 -54 31t-48 88q-37 70 -107 102t-158 32q-77 0 -161.5 -28t-167 -79t-157.5 -122.5
t-132 -158t-90.5 -186.5t-33.5 -207q0 -89 22 -150t58 -99t81 -55t91 -17q103 0 196.5 56t164.5 160.5t113 255t42 339.5q0 19 -0.5 37.5t-0.5 38.5q0 50 18 73.5t41 23.5q39 0 63.5 -21.5t38.5 -57t19.5 -81t5.5 -93.5q0 -136 -29 -256.5t-80.5 -223t-122 -184t-152.5 -138
t-172.5 -87t-182.5 -30.5q-85 0 -166 24.5t-144.5 81t-102 149t-38.5 227.5zM1407 1609q-5 -17 -26.5 -26.5t-43.5 -9.5q-19 0 -32 7t-13 21q0 6 2 13.5t2 13.5q0 26 -21.5 43t-67.5 17q-28 0 -51 -7t-40 -18.5t-28 -26.5t-15 -31q-6 -19 -25.5 -28t-39.5 -9t-35.5 7.5
t-15.5 23.5q0 2 2 10q11 39 40 73.5t67.5 60.5t83.5 41t89 15q85 0 130 -40.5t45 -100.5q0 -25 -7 -49z" />
    <glyph glyph-name="uni020F" unicode="&#x20f;" horiz-adv-x="848" 
d="M519 551q-47 0 -90.5 -23.5t-77 -62t-53.5 -87t-20 -99.5q0 -19 3 -41.5t12.5 -42t27.5 -32.5t48 -13q46 0 89.5 24.5t77.5 64t54 89.5t20 101q0 20 -2.5 41.5t-12 39.5t-27.5 29.5t-49 11.5zM571 727q38 0 81.5 -10t80.5 -34t61.5 -63.5t24.5 -97.5q0 -30 -8 -68.5
t-24 -80.5q10 -12 23 -17t28 -5q21 0 46.5 12t52.5 31t54 43t51 48t43.5 45.5t32.5 36.5q7 7 17 7q14 0 25 -14.5t11 -40.5t-15.5 -60t-57.5 -71q-24 -26 -55 -60t-66 -64t-73 -51t-76 -21q-26 0 -50.5 8t-49.5 26q-36 -56 -82 -102t-102.5 -79t-122 -51.5t-139.5 -18.5
q-28 0 -65 11t-70.5 36.5t-56.5 66.5t-23 100q0 40 13 96t39.5 115.5t67 118t96.5 105t128 75t160 28.5zM843 854q-5 -17 -26.5 -26.5t-43.5 -9.5q-19 0 -32 7t-13 21q0 6 2 13.5t2 13.5q0 26 -21.5 43t-67.5 17q-28 0 -51 -7t-40 -18.5t-28 -26.5t-15 -31q-6 -19 -25.5 -28
t-39.5 -9t-35.5 7.5t-15.5 23.5q0 2 2 10q11 39 40 73.5t67.5 60.5t83.5 41t89 15q85 0 130 -40.5t45 -100.5q0 -25 -7 -49z" />
    <glyph glyph-name="uni0210" unicode="&#x210;" horiz-adv-x="1219" 
d="M707 651q6 -1 12.5 -1h13.5q87 0 164.5 37.5t135.5 95.5t91.5 129t33.5 138q0 48 -17.5 91t-55 75t-96 51t-139.5 19q-91 0 -156.5 -17t-113 -44t-80 -62t-56 -72t-42.5 -72t-39.5 -62t-45.5 -44t-62 -17q-50 0 -75 25.5t-25 71.5q0 43 23.5 93t67 100t106.5 96.5
t141.5 82t171.5 57t197 21.5q102 0 195.5 -26t165.5 -77.5t114.5 -129.5t42.5 -182q0 -70 -25.5 -133.5t-68.5 -119t-100.5 -102t-122.5 -82.5t-133.5 -61t-132.5 -36q9 -47 29.5 -105.5t50 -111t65.5 -89.5t76 -40q8 -1 15 -1h14q73 0 130 24t95 53q45 33 78 77
q31 35 63 35q20 0 34 -14t14 -38q0 -23 -14.5 -53.5t-49.5 -63.5q-103 -97 -201.5 -141.5t-186.5 -44.5q-72 0 -133 41t-111 111t-91 163.5t-73 197.5q-18 -41 -37 -96.5t-41 -114.5t-46 -116.5t-53 -103t-62 -73.5t-72 -28q-32 0 -52 10t-31 25t-15.5 33t-4.5 34q0 23 6 47
t17 45l295 540q38 68 76.5 131.5t75 112.5t69 78.5t58.5 29.5q7 0 17 -2.5t18 -9t14 -19t6 -31.5t-11 -53t-29 -78t-42 -96.5t-50 -107.5zM911 1703q4 -17 6.5 -31t2.5 -25q0 -31 -12.5 -45.5t-31.5 -14.5q-20 0 -43.5 17t-40.5 51q-35 63 -71 125t-71 125q-10 17 -14 32
t-4 31q0 44 28 72t65 28q32 0 64 -26t52 -89q17 -63 34.5 -125t35.5 -125zM1267 1703q4 -17 6.5 -31t2.5 -25q0 -31 -12.5 -45.5t-31.5 -14.5q-20 0 -43.5 17t-40.5 51q-35 63 -71 125t-71 125q-10 17 -14 32t-4 31q0 44 28 72t65 28q32 0 64 -26t52 -89q17 -63 34.5 -125
t35.5 -125z" />
    <glyph glyph-name="uni0211" unicode="&#x211;" horiz-adv-x="800" 
d="M454 583q39 24 80.5 44t80.5 34.5t74.5 23t63.5 8.5q45 0 69.5 -21.5t24.5 -72.5q0 -11 -1 -23.5t-4 -26.5q-5 -26 -30 -61t-58.5 -73t-72 -76.5l-71 -71t-54 -56.5t-21.5 -33q0 -8 1 -11t9 -3q54 23 120.5 55.5t132.5 66.5t125 66.5t100 56.5q9 5 18.5 8.5t17.5 3.5
q18 0 30 -12t12 -32q0 -23 -19.5 -52.5t-65.5 -61.5q-35 -22 -78.5 -49.5t-91 -57t-96 -57.5t-93.5 -50t-84.5 -35.5t-68.5 -13.5q-69 0 -103.5 33t-34.5 85q0 8 1 12q7 44 26 85t43 78t50 70.5t47.5 63t35.5 54.5t14 46q0 5 -2 10t-9 5q-12 0 -39.5 -9t-58.5 -24t-59 -34.5
t-40 -41.5q-16 -28 -37 -71t-43.5 -90t-43.5 -93t-36 -79q-12 -29 -31.5 -52t-42.5 -39t-47 -25t-44 -9q-23 0 -36.5 12t-13.5 39q0 11 3.5 27.5t14.5 36.5q18 34 36.5 74t42.5 91.5t55.5 118t74.5 153.5q-14 12 -23.5 29.5t-9.5 43.5q0 24 10 41.5t27 28.5t39.5 16.5
t47.5 5.5q26 0 52 -4.5t46.5 -13.5t33.5 -22t13 -30q0 -3 -2 -8t-4.5 -11t-4.5 -11t-2 -8q0 -2 1 -2h1zM512 918q4 -17 6.5 -31t2.5 -25q0 -31 -12.5 -45.5t-31.5 -14.5q-20 0 -43.5 17t-40.5 51q-35 63 -71 125t-71 125q-10 17 -14 32t-4 31q0 44 28 72t65 28q32 0 64 -26
t52 -89q17 -63 34.5 -125t35.5 -125zM868 918q4 -17 6.5 -31t2.5 -25q0 -31 -12.5 -45.5t-31.5 -14.5q-20 0 -43.5 17t-40.5 51q-35 63 -71 125t-71 125q-10 17 -14 32t-4 31q0 44 28 72t65 28q32 0 64 -26t52 -89q17 -63 34.5 -125t35.5 -125z" />
    <glyph glyph-name="uni0212" unicode="&#x212;" horiz-adv-x="1219" 
d="M707 651q6 -1 12.5 -1h13.5q87 0 164.5 37.5t135.5 95.5t91.5 129t33.5 138q0 48 -17.5 91t-55 75t-96 51t-139.5 19q-91 0 -156.5 -17t-113 -44t-80 -62t-56 -72t-42.5 -72t-39.5 -62t-45.5 -44t-62 -17q-50 0 -75 25.5t-25 71.5q0 43 23.5 93t67 100t106.5 96.5
t141.5 82t171.5 57t197 21.5q102 0 195.5 -26t165.5 -77.5t114.5 -129.5t42.5 -182q0 -70 -25.5 -133.5t-68.5 -119t-100.5 -102t-122.5 -82.5t-133.5 -61t-132.5 -36q9 -47 29.5 -105.5t50 -111t65.5 -89.5t76 -40q8 -1 15 -1h14q73 0 130 24t95 53q45 33 78 77
q31 35 63 35q20 0 34 -14t14 -38q0 -23 -14.5 -53.5t-49.5 -63.5q-103 -97 -201.5 -141.5t-186.5 -44.5q-72 0 -133 41t-111 111t-91 163.5t-73 197.5q-18 -41 -37 -96.5t-41 -114.5t-46 -116.5t-53 -103t-62 -73.5t-72 -28q-32 0 -52 10t-31 25t-15.5 33t-4.5 34q0 23 6 47
t17 45l295 540q38 68 76.5 131.5t75 112.5t69 78.5t58.5 29.5q7 0 17 -2.5t18 -9t14 -19t6 -31.5t-11 -53t-29 -78t-42 -96.5t-50 -107.5zM1292 1631q-5 -17 -26.5 -26.5t-43.5 -9.5q-19 0 -32 7t-13 21q0 6 2 13.5t2 13.5q0 26 -21.5 43t-67.5 17q-28 0 -51 -7t-40 -18.5
t-28 -26.5t-15 -31q-6 -19 -25.5 -28t-39.5 -9t-35.5 7.5t-15.5 23.5q0 2 2 10q11 39 40 73.5t67.5 60.5t83.5 41t89 15q85 0 130 -40.5t45 -100.5q0 -25 -7 -49z" />
    <glyph glyph-name="uni0213" unicode="&#x213;" horiz-adv-x="800" 
d="M454 583q39 24 80.5 44t80.5 34.5t74.5 23t63.5 8.5q45 0 69.5 -21.5t24.5 -72.5q0 -11 -1 -23.5t-4 -26.5q-5 -26 -30 -61t-58.5 -73t-72 -76.5l-71 -71t-54 -56.5t-21.5 -33q0 -8 1 -11t9 -3q54 23 120.5 55.5t132.5 66.5t125 66.5t100 56.5q9 5 18.5 8.5t17.5 3.5
q18 0 30 -12t12 -32q0 -23 -19.5 -52.5t-65.5 -61.5q-35 -22 -78.5 -49.5t-91 -57t-96 -57.5t-93.5 -50t-84.5 -35.5t-68.5 -13.5q-69 0 -103.5 33t-34.5 85q0 8 1 12q7 44 26 85t43 78t50 70.5t47.5 63t35.5 54.5t14 46q0 5 -2 10t-9 5q-12 0 -39.5 -9t-58.5 -24t-59 -34.5
t-40 -41.5q-16 -28 -37 -71t-43.5 -90t-43.5 -93t-36 -79q-12 -29 -31.5 -52t-42.5 -39t-47 -25t-44 -9q-23 0 -36.5 12t-13.5 39q0 11 3.5 27.5t14.5 36.5q18 34 36.5 74t42.5 91.5t55.5 118t74.5 153.5q-14 12 -23.5 29.5t-9.5 43.5q0 24 10 41.5t27 28.5t39.5 16.5
t47.5 5.5q26 0 52 -4.5t46.5 -13.5t33.5 -22t13 -30q0 -3 -2 -8t-4.5 -11t-4.5 -11t-2 -8q0 -2 1 -2h1zM901 874q-5 -17 -26.5 -26.5t-43.5 -9.5q-19 0 -32 7t-13 21q0 6 2 13.5t2 13.5q0 26 -21.5 43t-67.5 17q-28 0 -51 -7t-40 -18.5t-28 -26.5t-15 -31q-6 -19 -25.5 -28
t-39.5 -9t-35.5 7.5t-15.5 23.5q0 2 2 10q11 39 40 73.5t67.5 60.5t83.5 41t89 15q85 0 130 -40.5t45 -100.5q0 -25 -7 -49z" />
    <glyph glyph-name="uni0214" unicode="&#x214;" horiz-adv-x="1195" 
d="M575 1355q26 52 58.5 70t63.5 18q17 0 32.5 -3.5t27.5 -12t19 -23t7 -35.5q0 -26 -11 -60t-36 -82q-100 -177 -168 -373t-109 -392q-4 -25 -5 -48t-1 -44q0 -59 15 -100t39.5 -66t54.5 -36t60 -11q113 0 217 81t185.5 229.5t133 357t59.5 464.5q1 27 10 47.5t23 33.5
t32.5 19.5t37.5 6.5q24 0 39.5 -17.5t24.5 -46.5t12.5 -67.5t3.5 -80.5q0 -177 -32.5 -335.5t-89.5 -293t-134.5 -242t-168.5 -183t-190.5 -116t-199.5 -40.5q-62 0 -124.5 26t-112.5 76t-81 122t-31 164q0 17 1 35.5t4 37.5q13 77 28.5 146.5t35.5 137t45 136.5t57.5 145.5
t74 163.5t93.5 191zM907 1622q4 -17 6.5 -31t2.5 -25q0 -31 -12.5 -45.5t-31.5 -14.5q-20 0 -43.5 17t-40.5 51q-35 63 -71 125t-71 125q-10 17 -14 32t-4 31q0 44 28 72t65 28q32 0 64 -26t52 -89q17 -63 34.5 -125t35.5 -125zM1263 1622q4 -17 6.5 -31t2.5 -25
q0 -31 -12.5 -45.5t-31.5 -14.5q-20 0 -43.5 17t-40.5 51q-35 63 -71 125t-71 125q-10 17 -14 32t-4 31q0 44 28 72t65 28q32 0 64 -26t52 -89q17 -63 34.5 -125t35.5 -125z" />
    <glyph glyph-name="uni0215" unicode="&#x215;" horiz-adv-x="928" 
d="M1194 239q-44 -50 -102.5 -97.5t-120.5 -84.5t-122 -59.5t-108 -22.5t-78 27t-30 92q0 46 16 107q-26 -39 -65 -79t-89 -73t-112 -53.5t-135 -20.5q-33 0 -63.5 7t-53.5 24t-37 45.5t-14 71.5q0 1 4 30.5t25.5 93t66.5 164.5t127 245q21 38 48.5 54.5t59.5 16.5
q14 0 29 -3.5t28 -11t21 -19t8 -26.5q0 -10 -3 -19q-5 -17 -21.5 -44.5t-38.5 -63t-46.5 -76.5t-45.5 -85t-36 -89.5t-17 -88.5q0 -18 10 -33t33 -15q65 0 124 36t109 89.5t90.5 115t67.5 112.5q19 34 33.5 73t31.5 72t39 55t55 22q36 0 57 -23t21 -55q0 -18 -13.5 -49.5
t-34 -72t-44.5 -86.5t-44.5 -93.5t-34 -93t-13.5 -84.5q0 -36 44 -36q31 0 77 18t96.5 50.5t101 76.5t89.5 95zM562 942q4 -17 6.5 -31t2.5 -25q0 -31 -12.5 -45.5t-31.5 -14.5q-20 0 -43.5 17t-40.5 51q-35 63 -71 125t-71 125q-10 17 -14 32t-4 31q0 44 28 72t65 28
q32 0 64 -26t52 -89q17 -63 34.5 -125t35.5 -125zM918 942q4 -17 6.5 -31t2.5 -25q0 -31 -12.5 -45.5t-31.5 -14.5q-20 0 -43.5 17t-40.5 51q-35 63 -71 125t-71 125q-10 17 -14 32t-4 31q0 44 28 72t65 28q32 0 64 -26t52 -89q17 -63 34.5 -125t35.5 -125z" />
    <glyph glyph-name="uni0216" unicode="&#x216;" horiz-adv-x="1195" 
d="M575 1355q26 52 58.5 70t63.5 18q17 0 32.5 -3.5t27.5 -12t19 -23t7 -35.5q0 -26 -11 -60t-36 -82q-100 -177 -168 -373t-109 -392q-4 -25 -5 -48t-1 -44q0 -59 15 -100t39.5 -66t54.5 -36t60 -11q113 0 217 81t185.5 229.5t133 357t59.5 464.5q1 27 10 47.5t23 33.5
t32.5 19.5t37.5 6.5q24 0 39.5 -17.5t24.5 -46.5t12.5 -67.5t3.5 -80.5q0 -177 -32.5 -335.5t-89.5 -293t-134.5 -242t-168.5 -183t-190.5 -116t-199.5 -40.5q-62 0 -124.5 26t-112.5 76t-81 122t-31 164q0 17 1 35.5t4 37.5q13 77 28.5 146.5t35.5 137t45 136.5t57.5 145.5
t74 163.5t93.5 191zM1324 1565q-5 -17 -26.5 -26.5t-43.5 -9.5q-19 0 -32 7t-13 21q0 6 2 13.5t2 13.5q0 26 -21.5 43t-67.5 17q-28 0 -51 -7t-40 -18.5t-28 -26.5t-15 -31q-6 -19 -25.5 -28t-39.5 -9t-35.5 7.5t-15.5 23.5q0 2 2 10q11 39 40 73.5t67.5 60.5t83.5 41t89 15
q85 0 130 -40.5t45 -100.5q0 -25 -7 -49z" />
    <glyph glyph-name="uni0217" unicode="&#x217;" horiz-adv-x="928" 
d="M1194 239q-44 -50 -102.5 -97.5t-120.5 -84.5t-122 -59.5t-108 -22.5t-78 27t-30 92q0 46 16 107q-26 -39 -65 -79t-89 -73t-112 -53.5t-135 -20.5q-33 0 -63.5 7t-53.5 24t-37 45.5t-14 71.5q0 1 4 30.5t25.5 93t66.5 164.5t127 245q21 38 48.5 54.5t59.5 16.5
q14 0 29 -3.5t28 -11t21 -19t8 -26.5q0 -10 -3 -19q-5 -17 -21.5 -44.5t-38.5 -63t-46.5 -76.5t-45.5 -85t-36 -89.5t-17 -88.5q0 -18 10 -33t33 -15q65 0 124 36t109 89.5t90.5 115t67.5 112.5q19 34 33.5 73t31.5 72t39 55t55 22q36 0 57 -23t21 -55q0 -18 -13.5 -49.5
t-34 -72t-44.5 -86.5t-44.5 -93.5t-34 -93t-13.5 -84.5q0 -36 44 -36q31 0 77 18t96.5 50.5t101 76.5t89.5 95zM899 874q-5 -17 -26.5 -26.5t-43.5 -9.5q-19 0 -32 7t-13 21q0 6 2 13.5t2 13.5q0 26 -21.5 43t-67.5 17q-28 0 -51 -7t-40 -18.5t-28 -26.5t-15 -31
q-6 -19 -25.5 -28t-39.5 -9t-35.5 7.5t-15.5 23.5q0 2 2 10q11 39 40 73.5t67.5 60.5t83.5 41t89 15q85 0 130 -40.5t45 -100.5q0 -25 -7 -49z" />
    <glyph glyph-name="uni0218" unicode="&#x218;" horiz-adv-x="1196" 
d="M535 557q29 0 42.5 -23.5t13.5 -53.5q0 -15 -3 -26t-12 -20.5t-24 -18t-39 -18.5q-56 -24 -88 -57.5t-32 -66.5q0 -21 14 -40t44 -33.5t77.5 -23t114.5 -8.5q69 0 131 16.5t108.5 46.5t74 71t27.5 89q0 36 -30 75t-95 81q-115 75 -174.5 121t-73.5 58q-75 66 -112 127
t-37 127q0 61 29.5 119t79.5 109t115.5 94.5t137 74.5t144 48.5t137.5 17.5q49 0 90.5 -11t72.5 -34.5t48.5 -60.5t17.5 -89q0 -75 -43 -143t-131 -127q-39 -27 -72 -27q-34 0 -54 24.5t-20 57.5q0 28 16.5 56t53.5 48q29 15 51.5 40.5t22.5 49.5q0 23 -15.5 30t-37.5 7
q-42 0 -91.5 -10.5t-99 -28.5t-96 -43t-82 -54t-57 -61.5t-21.5 -64.5q0 -22 9 -41t26.5 -38t42.5 -39.5t58 -44.5l234 -173q45 -33 80.5 -64.5t59.5 -63t37 -63.5t13 -68q0 -80 -41.5 -156.5t-118 -136.5t-184 -97t-238.5 -37q-122 0 -207.5 19.5t-140.5 53t-80 77
t-25 91.5q0 50 25.5 101.5t72 97.5t111.5 82t143 55zM686 -176q-80 -118 -157.5 -231t-156.5 -231q-17 -24 -36 -35t-36 -11q-15 0 -25 7.5t-10 21.5q0 10 4 17q43 118 83.5 231t83.5 231q8 22 24.5 38t37 26.5t44 15.5t46.5 5q42 0 73.5 -15.5t31.5 -43.5q0 -13 -7 -26z
" />
    <glyph glyph-name="uni0219" unicode="&#x219;" horiz-adv-x="611" 
d="M392 563q61 -32 109 -73t81.5 -86.5t51 -92.5t17.5 -92q0 -57 -32.5 -102.5t-85 -77t-120 -48t-136.5 -16.5q-52 0 -101 11.5t-89.5 35.5t-69.5 61.5t-41 89.5q-2 8 -2 13q0 27 19 46.5t42 19.5q11 0 24.5 -4t20.5 -18q13 -24 36.5 -43t52.5 -32.5t61.5 -21t63.5 -7.5
q32 0 61.5 6t52 19t35.5 33t13 49q0 51 -23 94t-59.5 79.5t-83 68t-92.5 60.5q-5 3 -15 17.5t-10 29.5q0 12 6 19q16 21 37 43t45 40.5t52 30t58 11.5q22 0 41 -6t32 -15.5t20.5 -21t7.5 -21.5q0 -14 -7 -27t-18.5 -25t-26 -24t-28.5 -23zM385 -176q-80 -118 -157.5 -231
t-156.5 -231q-17 -24 -36 -35t-36 -11q-15 0 -25 7.5t-10 21.5q0 10 4 17q43 118 83.5 231t83.5 231q8 22 24.5 38t37 26.5t44 15.5t46.5 5q42 0 73.5 -15.5t31.5 -43.5q0 -13 -7 -26z" />
    <glyph glyph-name="uni021A" unicode="&#x21a;" horiz-adv-x="1015" 
d="M529 47q-15 -30 -36 -53t-45 -38t-49 -22.5t-47 -7.5q-32 0 -54 16.5t-22 48.5q0 11 2.5 24.5t10.5 29.5q76 157 151.5 302t146 271t133.5 229.5t114.5 177t88 113.5t53.5 40q35 0 52 -20t17 -47q0 -22 -11 -44q-25 -51 -56.5 -115.5t-66.5 -137t-73 -150t-75 -154
t-72.5 -148t-66 -132.5t-55 -108.5t-40.5 -74.5zM1698 1217q0 -18 -13.5 -50.5t-38 -63.5t-59 -54t-76.5 -23q-10 0 -25 1.5t-29.5 7.5t-24.5 17t-10 29q0 9 9 25.5t19.5 35.5t19.5 37t9 30q0 34 -48 49.5t-161 15.5q-113 -4 -204 -13.5t-168 -24t-144 -33.5t-132 -40.5
t-131.5 -46t-141.5 -49.5q-7 -2 -13.5 -4t-11.5 -2q-16 0 -29 7t-22.5 19t-15 27t-5.5 31q0 26 42 58.5t115 65.5t172 64.5t213.5 56t239 39t248.5 14.5q107 0 185 -17t129 -47t76 -71.5t26 -90.5zM401 -238q-80 -118 -157.5 -231t-156.5 -231q-17 -24 -36 -35t-36 -11
q-15 0 -25 7.5t-10 21.5q0 10 4 17q43 118 83.5 231t83.5 231q8 22 24.5 38t37 26.5t44 15.5t46.5 5q42 0 73.5 -15.5t31.5 -43.5q0 -13 -7 -26z" />
    <glyph glyph-name="uni021B" unicode="&#x21b;" horiz-adv-x="528" 
d="M403 556q-37 -72 -70 -140.5t-62 -126.5q-12 -24 -23.5 -55.5t-11.5 -55.5q0 -14 6.5 -22t21.5 -8q21 0 53 12.5t69 33t78 47t80.5 55t75.5 57t64 52.5q16 11 30 11q17 0 28 -15t11 -38t-11 -47t-40 -47q-65 -59 -131.5 -112t-132 -93.5t-129.5 -64.5t-124 -24
q-40 0 -67 10.5t-43.5 29t-23.5 43t-7 52.5q0 50 17 104t38 97q30 62 59.5 123t57.5 117h-43q-56 0 -77 18t-21 41q0 10 6.5 24.5t19 27t30.5 21.5t41 9h108l211 419q20 38 49.5 54.5t61.5 16.5q30 0 55 -16t25 -53q0 -19 -8.5 -38.5t-22.5 -45.5q-9 -17 -22 -40.5
t-27.5 -50t-30 -55.5t-30.5 -56q-34 -64 -72 -135h326q24 0 44 -2.5t34.5 -10t22.5 -20.5t8 -35q0 -11 -3.5 -22t-13 -20t-26 -15t-42.5 -8zM286 -173q-80 -118 -157.5 -231t-156.5 -231q-17 -24 -36 -35t-36 -11q-15 0 -25 7.5t-10 21.5q0 10 4 17q43 118 83.5 231
t83.5 231q8 22 24.5 38t37 26.5t44 15.5t46.5 5q42 0 73.5 -15.5t31.5 -43.5q0 -13 -7 -26z" />
    <glyph glyph-name="circumflex" unicode="&#x2c6;" horiz-adv-x="1221" 
d="M857 939q68 59 116 101.5t81 71.5t54 46t36 26.5t27 12t26 2.5q27 0 43.5 -13t33.5 -45t40.5 -86t64.5 -137q3 -8 3 -15q0 -12 -7.5 -21.5t-19.5 -16.5t-27 -11t-30 -4q-22 0 -40.5 7.5t-26.5 24.5q-7 16 -19 43.5t-24 53.5q-14 31 -30 64q-36 -33 -69 -64
q-28 -26 -57 -53.5t-47 -43.5q-26 -23 -55 -23q-17 0 -32.5 4.5t-27.5 12t-19 17.5t-7 20q0 14 13 26z" />
    <glyph glyph-name="caron" unicode="&#x2c7;" horiz-adv-x="1221" 
d="M1405 1111q-73 -60 -124 -102t-86.5 -71t-58 -46t-38 -26.5t-27.5 -12t-26 -2.5q-27 0 -42.5 13t-30.5 45t-34 86t-53 137q-4 10 -4 14q0 12 8.5 22t21.5 17t28.5 11t30.5 4q21 0 40 -7.5t25 -24.5q6 -16 16 -43t20 -53q9 -27 17 -46l8 -19q38 33 73 64q30 26 61 53
t51 44q27 23 56 23q16 0 31 -4.5t26 -11.5t18 -16.5t7 -19.5q0 -16 -14 -28z" />
    <glyph glyph-name="breve" unicode="&#x2d8;" horiz-adv-x="1221" 
d="M632 1024q8 17 31.5 26.5t45.5 9.5q17 0 28.5 -6t11.5 -17q0 -9 -5.5 -21.5t-5.5 -22.5q0 -21 18.5 -34.5t59.5 -13.5q27 0 51 7t43.5 18.5t34 26.5t22.5 31q9 19 30 28t42 9q18 0 31.5 -6.5t13.5 -19.5q0 -8 -4 -15q-19 -39 -55 -73.5t-80.5 -60.5t-92.5 -41t-92 -15
q-75 0 -112 31t-37 80q0 37 21 79z" />
    <glyph glyph-name="dotaccent" unicode="&#x2d9;" horiz-adv-x="448" 
d="M399 139q0 -31 -11.5 -59t-31 -49.5t-45.5 -34t-55 -12.5q-24 0 -45 9.5t-36.5 25.5t-24.5 37.5t-9 45.5q0 30 11.5 57.5t31.5 48.5t47 33.5t58 12.5q49 0 79.5 -33t30.5 -82z" />
    <glyph glyph-name="ring" unicode="&#x2da;" horiz-adv-x="1221" 
d="M879 1122q-26 0 -48 -10.5t-38 -27.5t-25 -37.5t-9 -40.5q0 -26 17 -43.5t54 -17.5q27 0 49 10.5t37.5 27t24.5 36.5t9 40q0 26 -16.5 44.5t-54.5 18.5zM1042 1031q-10 -36 -34.5 -68.5t-57 -57t-70.5 -39t-75 -14.5q-31 0 -57.5 10.5t-45.5 29t-29.5 43.5t-10.5 54
q0 43 22 83.5t57 72t78 50.5t85 19q31 0 57.5 -10.5t45.5 -28.5t30 -43t11 -55q0 -22 -6 -46z" />
    <glyph glyph-name="tilde" unicode="&#x2dc;" horiz-adv-x="1221" 
d="M1440 986q-18 -38 -38 -70.5t-44 -56.5t-52.5 -38t-62.5 -14q-6 0 -12 0.5t-12 1.5q-12 1 -37 10.5t-54.5 21t-60 22t-53.5 14.5q-2 0 -4 0.5t-4 0.5q-9 0 -15 -4.5t-10.5 -11t-7.5 -13.5t-6 -12q-12 -23 -37.5 -33t-46.5 -10q-23 0 -40 9t-17 24q0 7 2 10q18 39 41 72
t50 56t56 36t59 13q20 0 45 -10.5t53 -22.5t57.5 -22.5t59.5 -10.5q21 0 36 10.5t23 27.5q11 26 34 37.5t46 11.5t39 -10.5t16 -27.5v-2q0 -2 -1 -3.5t-2 -5.5z" />
    <glyph glyph-name="hungarumlaut" unicode="&#x2dd;" horiz-adv-x="2088" 
d="M1037 942q36 63 72.5 125t71.5 125q38 63 78 89t72 26q30 0 49 -19t19 -50q0 -20 -9 -44t-32 -50q-54 -63 -108.5 -125t-108.5 -125q-26 -34 -55 -51t-49 -17q-31 0 -31 32q0 29 31 84zM681 942q36 63 72.5 125t71.5 125q38 63 78 89t72 26q30 0 49 -19t19 -50
q0 -20 -9 -44t-32 -50q-54 -63 -108.5 -125t-108.5 -125q-26 -34 -55 -51t-49 -17q-31 0 -31 32q0 29 31 84z" />
    <glyph glyph-name="uni030F" unicode="&#x30f;" horiz-adv-x="2088" 
d="M976 942q4 -17 6.5 -31t2.5 -25q0 -31 -12.5 -45.5t-31.5 -14.5q-20 0 -43.5 17t-40.5 51q-35 63 -71 125t-71 125q-10 17 -14 32t-4 31q0 44 28 72t65 28q32 0 64 -26t52 -89q17 -63 34.5 -125t35.5 -125zM1332 942q4 -17 6.5 -31t2.5 -25q0 -31 -12.5 -45.5
t-31.5 -14.5q-20 0 -43.5 17t-40.5 51q-35 63 -71 125t-71 125q-10 17 -14 32t-4 31q0 44 28 72t65 28q32 0 64 -26t52 -89q17 -63 34.5 -125t35.5 -125z" />
    <glyph glyph-name="uni0311" unicode="&#x311;" horiz-adv-x="1221" 
d="M1021 874q-5 -17 -26.5 -26.5t-43.5 -9.5q-19 0 -32 7t-13 21q0 6 2 13.5t2 13.5q0 26 -21.5 43t-67.5 17q-28 0 -51 -7t-40 -18.5t-28 -26.5t-15 -31q-6 -19 -25.5 -28t-39.5 -9t-35.5 7.5t-15.5 23.5q0 2 2 10q11 39 40 73.5t67.5 60.5t83.5 41t89 15q85 0 130 -40.5
t45 -100.5q0 -25 -7 -49z" />
    <glyph glyph-name="endash" unicode="&#x2013;" horiz-adv-x="889" 
d="M297 699h470v-144h-470v144z" />
    <glyph glyph-name="emdash" unicode="&#x2014;" horiz-adv-x="1406" 
d="M345 699h940v-144h-940v144z" />
    <glyph glyph-name="quoteleft" unicode="&#x2018;" horiz-adv-x="529" 
d="M370 961q40 58 78 112t75.5 106.5t75.5 106t78 112.5q16 23 33 33t33 10t26 -8t10 -21q0 -7 -3 -14q-22 -59 -41.5 -112.5t-38.5 -106t-38.5 -106.5t-41.5 -112q-7 -21 -23 -36.5t-37 -25t-45 -14.5t-47 -5q-21 0 -39.5 3.5t-32.5 10.5t-22.5 17t-8.5 23q0 12 9 27z" />
    <glyph glyph-name="quoteright" unicode="&#x2019;" horiz-adv-x="612" 
d="M796 1368q-41 -59 -78.5 -112.5t-75 -106t-75.5 -106.5t-78 -112q-16 -23 -33 -33t-33 -10t-26 8t-10 21q0 6 3 14q22 58 41.5 112t38.5 106.5t38.5 106t41.5 112.5q7 21 23 36.5t37 25t45 14.5t47 5q21 0 39.5 -3.5t32.5 -10.5t22.5 -17t8.5 -23q0 -12 -9 -27z" />
    <glyph glyph-name="quotesinglbase" unicode="&#x201a;" horiz-adv-x="872" 
d="M688 4q-41 -59 -78.5 -112.5t-75 -106t-75.5 -106.5t-78 -112q-16 -23 -33 -33t-33 -10t-26 8t-10 21q0 6 3 14q22 58 41.5 112t38.5 106.5t38.5 106t41.5 112.5q7 21 23 36.5t37 25t45 14.5t47 5q21 0 39.5 -3.5t32.5 -10.5t22.5 -17t8.5 -23q0 -12 -9 -27z" />
    <glyph glyph-name="quotedblleft" unicode="&#x201c;" horiz-adv-x="867" 
d="M328 961q40 58 78 112t75.5 106.5t75.5 106t78 112.5q16 23 33 33t33 10t26 -8t10 -21q0 -7 -3 -14q-22 -59 -41.5 -112.5t-38.5 -106t-38.5 -106.5t-41.5 -112q-7 -21 -23 -36.5t-37 -25t-45 -14.5t-47 -5q-21 0 -39.5 3.5t-32.5 10.5t-22.5 17t-8.5 23q0 12 9 27z
M709 961q40 58 78 112t75.5 106.5t75.5 106t78 112.5q16 23 33 33t33 10t26 -8t10 -21q0 -7 -3 -14q-22 -59 -41.5 -112.5t-38.5 -106t-38.5 -106.5t-41.5 -112q-7 -21 -23 -36.5t-37 -25t-45 -14.5t-47 -5q-21 0 -39.5 3.5t-32.5 10.5t-22.5 17t-8.5 23q0 12 9 27z" />
    <glyph glyph-name="quotedblright" unicode="&#x201d;" horiz-adv-x="939" 
d="M755 1368q-41 -59 -78.5 -112.5t-75 -106t-75.5 -106.5t-78 -112q-16 -23 -33 -33t-33 -10t-26 8t-10 21q0 6 3 14q22 58 41.5 112t38.5 106.5t38.5 106t41.5 112.5q7 21 23 36.5t37 25t45 14.5t47 5q21 0 39.5 -3.5t32.5 -10.5t22.5 -17t8.5 -23q0 -12 -9 -27z
M1134 1368q-41 -59 -78.5 -112.5t-75 -106t-75.5 -106.5t-78 -112q-16 -23 -33 -33t-33 -10t-26 8t-10 21q0 6 3 14q22 58 41.5 112t38.5 106.5t38.5 106t41.5 112.5q7 21 23 36.5t37 25t45 14.5t47 5q21 0 39.5 -3.5t32.5 -10.5t22.5 -17t8.5 -23q0 -12 -9 -27z" />
    <glyph glyph-name="quotedblbase" unicode="&#x201e;" horiz-adv-x="1065" 
d="M507 4q-41 -59 -78.5 -112.5t-75 -106t-75.5 -106.5t-78 -112q-16 -23 -33 -33t-33 -10t-26 8t-10 21q0 6 3 14q22 58 41.5 112t38.5 106.5t38.5 106t41.5 112.5q7 21 23 36.5t37 25t45 14.5t47 5q21 0 39.5 -3.5t32.5 -10.5t22.5 -17t8.5 -23q0 -12 -9 -27zM886 4
q-41 -59 -78.5 -112.5t-75 -106t-75.5 -106.5t-78 -112q-16 -23 -33 -33t-33 -10t-26 8t-10 21q0 6 3 14q22 58 41.5 112t38.5 106.5t38.5 106t41.5 112.5q7 21 23 36.5t37 25t45 14.5t47 5q21 0 39.5 -3.5t32.5 -10.5t22.5 -17t8.5 -23q0 -12 -9 -27z" />
    <glyph glyph-name="dagger" unicode="&#x2020;" horiz-adv-x="1055" 
d="M768 1020h-336q-27 0 -39 12.5t-12 30.5q0 15 7.5 32.5t21 32t31.5 24t39 9.5h335q26 77 52 153.5t52 153.5q9 27 24 46.5t33 33t37 20t37 6.5q29 0 49 -16.5t20 -49.5q0 -20 -7 -40q-26 -77 -52 -153.5t-52 -153.5h326q31 0 45 -13.5t14 -33.5q0 -15 -8 -32t-22 -30.5
t-33.5 -22.5t-43.5 -9h-328l-345 -1020q-8 -24 -22.5 -42t-32 -30t-36.5 -18t-37 -6q-29 0 -49 15t-20 46q0 17 7 35z" />
    <glyph glyph-name="daggerdbl" unicode="&#x2021;" horiz-adv-x="1055" 
d="M1091 397q31 0 45 -13.5t14 -33.5q0 -15 -8 -32t-22 -30.5t-33.5 -22.5t-43.5 -9h-344l-86 -256q-8 -24 -22.5 -42t-32 -30t-36.5 -18t-37 -6q-29 0 -49 15t-20 46q0 17 7 35l86 256h-320q-27 0 -39 12.5t-12 30.5q0 15 7.5 32.5t21 32t31.5 24t39 9.5h320l211 623h-336
q-27 0 -39 12.5t-12 30.5q0 15 7.5 32.5t21 32t31.5 24t39 9.5h335q26 77 52 153.5t52 153.5q9 27 24 46.5t33 33t37 20t37 6.5q29 0 49 -16.5t20 -49.5q0 -20 -7 -40q-26 -77 -52 -153.5t-52 -153.5h326q31 0 45 -13.5t14 -33.5q0 -15 -8 -32t-22 -30.5t-33.5 -22.5
t-43.5 -9h-328l-211 -623h344z" />
    <glyph glyph-name="bullet" unicode="&#x2022;" horiz-adv-x="1083" 
d="M660 358q-74 0 -137.5 26t-110 71t-73.5 106t-27 131t27 131.5t73.5 107t110 71.5t137.5 26q73 0 137 -26t110.5 -71.5t73.5 -107t27 -131.5t-27 -131t-73.5 -106t-110.5 -71t-137 -26z" />
    <glyph glyph-name="ellipsis" unicode="&#x2026;" horiz-adv-x="1488" 
d="M1439 139q0 -31 -11.5 -59t-31 -49.5t-45.5 -34t-55 -12.5q-24 0 -45 9.5t-36.5 25.5t-24.5 37.5t-9 45.5q0 30 11.5 57.5t31.5 48.5t47 33.5t58 12.5q49 0 79.5 -33t30.5 -82zM991 139q0 -31 -11.5 -59t-31 -49.5t-45.5 -34t-55 -12.5q-24 0 -45 9.5t-36.5 25.5
t-24.5 37.5t-9 45.5q0 30 11.5 57.5t31.5 48.5t47 33.5t58 12.5q49 0 79.5 -33t30.5 -82zM543 139q0 -31 -11.5 -59t-31 -49.5t-45.5 -34t-55 -12.5q-24 0 -45 9.5t-36.5 25.5t-24.5 37.5t-9 45.5q0 30 11.5 57.5t31.5 48.5t47 33.5t58 12.5q49 0 79.5 -33t30.5 -82z" />
    <glyph glyph-name="perthousand" unicode="&#x2030;" horiz-adv-x="2241" 
d="M2065 427q0 45 -24.5 71.5t-70.5 26.5q-42 0 -81 -29.5t-69 -75t-48.5 -101.5t-18.5 -109q0 -23 5 -45t16 -39.5t28 -28t41 -10.5q45 0 85.5 30.5t71 79t48 109t17.5 121.5zM1827 -40q-50 0 -90 17.5t-68.5 48t-43.5 72.5t-15 91q0 88 28.5 171t78 147t116 102.5
t142.5 38.5q49 0 91 -15t72.5 -43.5t48 -68.5t17.5 -90q0 -93 -29.5 -178.5t-80.5 -150.5t-119.5 -103.5t-147.5 -38.5zM1374 427q0 45 -24.5 71.5t-70.5 26.5q-42 0 -81 -29.5t-69 -75t-48.5 -101.5t-18.5 -109q0 -23 5 -45t16 -39.5t28 -28t41 -10.5q45 0 85.5 30.5t71 79
t48 109t17.5 121.5zM545 857q0 63 -22.5 93t-63.5 30q-48 0 -89 -28.5t-71 -74t-47.5 -103.5t-17.5 -117q0 -23 6 -45.5t17 -40.5t28 -29.5t39 -11.5q46 0 86.5 29.5t70.5 76.5t47 105.5t17 115.5zM373 -233q-9 -14 -22.5 -20t-29.5 -6q-15 0 -30.5 5.5t-28 15t-20.5 22.5
t-8 29q0 22 15 44l742 1075q-39 -21 -75.5 -36t-75 -25.5t-79.5 -17.5t-89 -12q0 -91 -31 -170t-81.5 -137.5t-115.5 -92.5t-132 -34q-54 0 -93 20.5t-65 55.5t-38.5 82t-12.5 100q0 80 30.5 158t83 139.5t123.5 99t152 37.5q72 0 118 -42t62 -118q67 17 123 39.5t108 50
t104 60t112 70.5q21 17 41 25t37 8q30 0 49.5 -20.5t19.5 -52.5q0 -28 -16 -59l-704 -1038q59 19 115.5 35.5t106 30t90 23.5t67.5 16q-6 30 -6 62q0 88 28.5 171t78 147t116 102.5t142.5 38.5q49 0 91 -15t72.5 -43.5t48 -68.5t17.5 -90q0 -93 -29.5 -178.5t-80.5 -150.5
t-119.5 -103.5t-147.5 -38.5q-58 0 -102 22t-72 60q-160 -53 -271.5 -102.5t-182.5 -87.5q-83 -45 -135 -85z" />
    <glyph glyph-name="guilsinglleft" unicode="&#x2039;" horiz-adv-x="1060" 
d="M831 354q-94 53 -173 99.5t-138 81.5q-69 40 -125 75q-33 20 -33 55q0 29 21 56t65 45q105 46 201 87q41 18 84 36t83 35t75 31.5t61 24.5q13 5 22 5q19 0 29.5 -16t10.5 -42q0 -16 -1.5 -32.5t-9 -33t-24 -31t-47.5 -26.5q-17 -8 -40 -17t-48.5 -19.5t-53 -21
t-52.5 -20.5q-60 -24 -124 -48v0v0v0q0 -1 66 -33q67 -32 213 -110q29 -16 41.5 -35.5t12.5 -39.5q0 -21 -9.5 -41t-24 -35.5t-31.5 -25t-32 -9.5q-13 0 -19 5z" />
    <glyph glyph-name="guilsinglright" unicode="&#x203a;" horiz-adv-x="1173" 
d="M560 354q-9 -5 -22 -5q-22 0 -37.5 19t-15.5 48t21.5 61.5t80.5 57.5q92 39 158.5 66t109 44l62.5 25l20 8l-30 14q-30 14 -71 34.5l-84 42l-71 35.5q-24 12 -33.5 25.5t-9.5 30.5q0 20 8.5 42t22 40.5t29.5 30.5t31 12q9 0 19 -5q21 -10 49 -24.5t60 -31.5t66 -35
t66 -36q76 -41 158 -87q23 -12 34 -28.5t11 -35.5q0 -29 -19 -53.5t-51 -38.5q-74 -35 -163 -75q-76 -35 -178 -81.5t-221 -99.5z" />
    <glyph glyph-name="fraction" unicode="&#x2044;" horiz-adv-x="835" 
d="M1249 1476q-237 -404 -473.5 -808t-473.5 -808q-14 -25 -34 -35t-42 -10q-29 0 -53 15t-24 39q0 5 1 11.5t4 10.5q235 407 467 809.5t467 809.5q14 23 35.5 33.5t45.5 10.5q38 0 59.5 -18t21.5 -45q0 -10 -1 -15z" />
    <glyph glyph-name="foursuperior" unicode="&#x2074;" horiz-adv-x="976" 
d="M1055 723q-21 -46 -44 -94.5t-45.5 -96.5t-44 -94t-40.5 -87q-46 -97 -89 -188h179q20 0 31 -15.5t11 -36.5q0 -19 -6.5 -38.5t-19.5 -35.5t-33.5 -26.5t-47.5 -10.5h-183l-154 -341q-18 -35 -43.5 -50t-51.5 -15q-33 0 -56.5 20t-23.5 51q0 7 2 14t5 15l132 306h-267
q-15 0 -28 1.5t-23.5 6.5t-16.5 13.5t-6 23.5q0 17 7.5 40t26.5 58q21 39 48.5 93.5t57.5 116t60.5 126.5t58.5 125.5t50 113t36 88.5q15 42 46 59.5t63 17.5q34 0 60.5 -16.5t27.5 -41.5q-1 -5 -1.5 -9.5t-2.5 -9.5q-34 -83 -72 -167.5t-76.5 -166.5t-76.5 -159t-71 -146
q26 1 47.5 1h38.5h76l28 -1l12 29q12 28 34.5 75.5t51 109.5t60 128.5t63 133.5t59.5 125q26 60 58.5 87.5t58.5 27.5q23 0 39 -19t16 -54q0 -19 -5 -41t-16 -46z" />
    <glyph glyph-name="Euro" unicode="&#x20ac;" horiz-adv-x="1128" 
d="M1440 1263q0 -27 -8.5 -65t-24.5 -79t-38.5 -81.5t-51.5 -73t-63 -52.5t-73 -20q-9 0 -23.5 1.5t-29 7t-25 16.5t-10.5 29q0 12 6.5 28t23.5 37q18 20 39 47.5t38 57.5t28.5 59t11.5 52q0 29 -13.5 46.5t-46.5 17.5q-35 0 -78 -19.5t-90.5 -53.5t-97 -81.5t-99 -103.5
t-96.5 -118.5t-88 -127.5h517q14 0 20.5 -7.5t6.5 -18.5t-5.5 -22.5t-15 -22t-23.5 -17t-30 -6.5h-526q-12 -22 -22.5 -44t-21.5 -43h564q17 0 26 -9.5t9 -23.5q0 -10 -5 -21t-15.5 -20t-25.5 -14.5t-36 -5.5h-556q-17 -49 -26.5 -94t-9.5 -83q0 -73 39 -117t129 -44
q42 0 93.5 21t107 53.5t112 72t107.5 76t93 66t69 41.5q5 4 12 4q15 0 20.5 -24.5t5.5 -55.5q0 -17 -4.5 -41.5t-28.5 -56.5q-11 -13 -41 -44t-75 -70t-103 -81t-125.5 -77t-142.5 -57.5t-154 -22.5q-93 0 -159 22.5t-108 62.5t-61.5 95.5t-19.5 121.5q0 54 10.5 112
t30.5 120h-153q-17 0 -25 9.5t-8 23.5q0 10 5 21t15 20t25 14.5t35 5.5h141q9 22 19 43.5t21 43.5h-175q-19 0 -27.5 8.5t-8.5 20.5q0 10 6 21.5t16.5 21t26 16t34.5 6.5h180q50 85 111 166.5t130 154.5t143.5 134.5t151.5 106t154 69.5t152 25q42 0 80 -9.5t66.5 -30.5
t45 -55.5t16.5 -84.5z" />
    <glyph glyph-name="trademark" unicode="&#x2122;" horiz-adv-x="1705" 
d="M415 1310v-686h-135v686h-210v103h554v-103h-209zM862 1288v-664h-128v789h229l184 -655l184 655h229v-789h-127v664l-197 -664h-178z" />
    <glyph glyph-name="minus" unicode="&#x2212;" horiz-adv-x="1157" 
d="M917 512h-591l47 94h591z" />
    <glyph glyph-name="integral" unicode="&#x222b;" horiz-adv-x="566" 
d="M645 1062q61 136 130.5 248t144 191.5t154 123.5t161.5 44q48 0 94 -14.5t90 -46.5l41 -29q11 -9 12.5 -24t-3.5 -29t-14.5 -27.5t-22 -24.5t-27 -17.5t-29.5 -6.5q-14 0 -27 8l-16 10q-77 49 -139 49q-48 0 -91 -28.5t-85 -85t-86.5 -142t-96.5 -199.5l-383 -846
q-105 -229 -237 -345t-268 -116q-93 0 -189 38l-41 28l-16 14q-30 26 -16 60q5 15 16 28.5t25.5 24.5t30 17.5t30.5 6.5q18 0 33 -12l27 -22q56 -47 121 -47t129.5 50.5t112.5 156.5z" />
    <glyph glyph-name="notequal" unicode="&#x2260;" horiz-adv-x="1510" 
d="M1556 1476q-237 -404 -473.5 -808t-473.5 -808q-14 -25 -34 -35t-42 -10q-29 0 -53 15t-24 39q0 5 1 11.5t4 10.5q235 407 467 809.5t467 809.5q14 23 35.5 33.5t45.5 10.5q38 0 59.5 -18t21.5 -45q0 -10 -1 -15zM1337 494h-836q-26 0 -34.5 19t-1 41.5t32 41.5t64.5 19
h835q28 0 37 -19t0.5 -41.5t-33.5 -41.5t-64 -19zM1526 870h-836q-31 0 -47.5 19t-12 41.5t33 41.5t86.5 19h836q34 0 43 -19t-1.5 -41.5t-37.5 -41.5t-64 -19z" />
    <glyph glyph-name="fi" unicode="&#xfb01;" horiz-adv-x="986" 
d="M1098 954q0 -36 -8.5 -68t-26.5 -55t-45.5 -36.5t-65.5 -13.5q-50 0 -82 6.5t-50.5 18.5t-26 28.5t-7.5 35.5q0 28 11 46.5t23.5 32t23.5 23.5t11 20q0 8 -7 15.5t-22 7.5q-33 0 -78 -27t-91 -71.5t-88 -103t-68 -121.5h310q38 0 65.5 -24.5t27.5 -62.5q-1 -9 -2.5 -18
t-6.5 -18q-14 -26 -23 -44t-16.5 -33.5t-14.5 -30.5t-17 -36q-12 -25 -27 -54.5t-28.5 -60.5t-23 -61t-9.5 -55q0 -27 13.5 -35.5t38.5 -8.5q28 0 58.5 12t61.5 31t61 43.5t56.5 49.5t49 48t37.5 41q20 19 40 19q18 0 29.5 -16t11.5 -41q0 -23 -11.5 -49t-37.5 -49
q-51 -52 -104 -99.5t-108.5 -84t-111.5 -58.5t-113 -22q-81 0 -127.5 41.5t-46.5 129.5q0 31 6.5 65t17.5 69.5t25 70t29 66.5q34 74 79 148q-49 -1 -97 -1q-41 -1 -85 -1h-76q-26 -51 -58.5 -118.5t-68 -141.5t-71 -149.5t-67.5 -143t-58 -122t-42 -86.5q-11 -23 -27 -42.5
t-35 -33.5t-39 -21.5t-37 -7.5q-24 0 -43 12t-19 38q0 13 6 30.5t17 40.5l353 748h-53q-55 0 -75 17t-20 40q0 24 25 46.5t73 22.5h118q73 143 147 236t146 147t140 75t130 21q54 0 95.5 -20t70 -51.5t43.5 -70t15 -75.5z" />
    </font>
</defs>
</svg>
