<?xml version="1.0" standalone="no"?>
<!DOCTYPE svg PUBLIC "-//W3C//DTD SVG 1.1//EN" "http://www.w3.org/Graphics/SVG/1.1/DTD/svg11.dtd" >
<svg xmlns="http://www.w3.org/2000/svg" xmlns:xlink="http://www.w3.org/1999/xlink" version="1.1">
<metadata>
Created by FontForge 20161013 at Fri Jun  3 08:54:30 2011
 By ,,,
Copyright (c) 2010, Kimberly Geswein (kimberlygeswein.com)
</metadata>
<defs>
<font id="DawningofaNewDay" horiz-adv-x="401" >
  <font-face 
    font-family="Dawning of a New Day"
    font-weight="400"
    font-stretch="normal"
    units-per-em="1024"
    panose-1="2 0 0 0 0 0 0 0 0 0"
    ascent="819"
    descent="-205"
    x-height="218"
    cap-height="766"
    bbox="-218 -462 1457 1151"
    underline-thickness="0"
    underline-position="0"
    unicode-range="U+0020-FB02"
  />
<missing-glyph horiz-adv-x="633" 
 />
    <glyph glyph-name=".notdef" horiz-adv-x="633" 
 />
    <glyph glyph-name=".null" horiz-adv-x="0" 
 />
    <glyph glyph-name="nonmarkingreturn" horiz-adv-x="341" 
 />
    <glyph glyph-name="space" unicode=" " horiz-adv-x="461" 
 />
    <glyph glyph-name="exclam" unicode="!" horiz-adv-x="113" 
d="M85 -1q-15 0 -15 13t10.5 20.5t22.5 7.5q0 -41 -18 -41zM31 486l-2 56q5 5 10 5q11 0 19.5 -40t10 -157t2.5 -132v-16q0 -23 -14 -23q-11 0 -15 10q-5 19 -7.5 152t-3.5 145z" />
    <glyph glyph-name="quotedbl" unicode="&#x22;" horiz-adv-x="198" 
d="M41.5 435.5q-12.5 44.5 -12.5 62t15 17.5q18 0 26 -22.5t8 -49.5t-11 -52h-4q-9 0 -21.5 44.5zM172 462l-1 -22l-2 -32l-9 -11q-2 7 -25 52t-23 55.5t7.5 18t16 7.5t15.5 -3.5t10.5 -10t6 -13t3 -17t1 -15.5t0.5 -9z" />
    <glyph glyph-name="numbersign" unicode="#" horiz-adv-x="435" 
d="M64 163q0 7 20.5 15t27.5 8v76q-7 -7 -38 -19t-41 -12q0 15 12.5 26.5t26.5 16.5q40 14 40 36l-5 117q31 0 33 -23q2 -7 5 -38.5t5 -37.5q2 1 14 4l18 4q24 6 32 12l16 11q15 10 15 22.5t-5.5 33t-5.5 37.5t12 17q7 0 18 -8l18 -67l1 -1h2q14 0 39 6.5t37 6.5
q0 -22 -40 -27q-15 -2 -27.5 -14t-12.5 -36q0 -58 15 -58q20 0 66 18.5t53 20.5q9 -2 9 -6q0 -8 -25.5 -19t-66 -28.5t-40.5 -23.5v-141h-19l-18 112q-4 1 -9 1q-26 0 -88 -34l-8 -5v-93l-23 -6q-1 4 -2.5 35.5t-4 38t-12 8.5t-18.5 0q-26 -5 -26 14zM255 291l-11 46
q-18 0 -52.5 -20t-41.5 -36v-77q29 7 47 13.5t38 26t20 47.5z" />
    <glyph glyph-name="dollar" unicode="$" horiz-adv-x="301" 
d="M260 534q2 -1 3 -1q8 -2 8 -9.5t-3 -27.5q-6 -53 -4 -63q0 -12 8.5 -33.5t8.5 -34t-3 -26t-25 -30.5t-22 -22.5t13 -34.5q26 -58 26 -87t-5 -48q-31 -88 -104 -124l-35 -133q-4 -9 -16 -9h-4t-10 1q6 36 15 72q16 63 12 64q-38 18 -67.5 46t-34.5 44t-5 28t3.5 26.5
t18 45.5t19.5 43.5t21 27.5t31 18q16 -13 -31 -70q-30 -36 -35 -53t-5 -28t9 -28q17 -32 67 -40q5 -1 13.5 -1t17.5 9q1 4 6 20t7 22.5t7 22.5t7 25t5.5 23.5t5 24.5t3.5 22q2 18 -1 42q-51 51 -51 97q0 12 3 23q20 80 96 86q0 16 7 38.5t19 31.5h1zM177 53q6 -6 14.5 -1
t14.5 16q9 16 18 40l5 15q3 25 3 43q0 51 -20 55q-27 -118 -35 -168zM207 418q-20 0 -39 -47q-1 -3 -1 -11.5t10.5 -25.5t22.5 -24l24 90q3 8 -2 12q-7 6 -15 6zM247 373l-9 -31l9 -3q5 14 5 22.5t-5 11.5z" />
    <glyph glyph-name="percent" unicode="%" horiz-adv-x="349" 
d="M103 2q-15 0 -15 25q0 68 86 335h-6q-13 0 -37.5 -12t-44 -12t-44 14.5t-24.5 41t22 46t48 19.5l16 1q28 0 28 -21q0 -25 -30 -19q-12 3 -24.5 -1.5t-16.5 -20.5q14 -27 39 -23q27 4 46.5 17.5t28 19.5t23.5 18.5t18 14.5q20 -2 20 -17q0 -3 -1 -6l-118 -417
q-8 -3 -14 -3zM193 122q30 99 88 99q36 0 61 -39q16 -26 16 -49t-12 -44q-23 -42 -90 -56q-63 0 -63 89zM233 122q0 -54 29 -54q67 21 67 66q0 33 -29 50q-12 8 -25.5 8t-26 -18.5t-15.5 -51.5z" />
    <glyph glyph-name="ampersand" unicode="&#x26;" horiz-adv-x="308" 
d="M197 257q54 -8 79.5 -25t25.5 -46t-27 -96q-10 -28 -10 -63.5t21 -69.5l-10 -40l-46 88q-20 -13 -46 -22t-37 -9t-16 2q-46 12 -66 48q-11 21 -11 45t8 53t46.5 84t43 73.5t5 55.5t6.5 59t19.5 35t22.5 13q46 0 46 -62.5t-54 -122.5zM176 162l2 35q0 24 -12 25
q-12 -4 -23 -17.5t-34.5 -52.5t-26 -48t-2.5 -25t8 -31q14 -25 45 -34q3 -1 8 -1q20 0 41 11t26 26q1 6 1 26q0 46 7 60q-12 -9 -26 -4.5t-14 30.5zM224 210q-3 -11 -3 -25.5t6.5 -40.5t25.5 -35q1 2 3 9q6 21 12 34.5t6 19.5q0 25 -50 38zM200 407q-20 -34 -20 -56t10 -36
q16 7 19.5 10t5.5 4.5t3.5 5.5t1.5 5q4 7 5 12.5t1 11.5q0 25 -26 43z" />
    <glyph glyph-name="quotesingle" unicode="'" horiz-adv-x="94" 
d="M27.5 386q-3.5 4 -3.5 11t9 36.5t9 43t-5.5 31.5t-5.5 30q19 0 34 -14.5t15 -32.5q0 -70 -47 -109q-2 0 -5.5 4z" />
    <glyph glyph-name="parenleft" unicode="(" horiz-adv-x="280" 
d="M139 -120q-38 11 -54.5 81t-16.5 146.5t15 130t77.5 150.5t97.5 97q3 0 15 -4t12 -11q0 -5 -3 -11q-22 0 -49 -29.5t-51 -74.5q-44 -82 -68 -146q-14 -42 -14 -76q0 -98 24 -168t36 -70h2q-3 -16 -17 -16q-3 0 -6 1z" />
    <glyph glyph-name="parenright" unicode=")" horiz-adv-x="262" 
d="M77 -41q37 40 83.5 199.5t61.5 258.5q-4 82 -86 105q7 26 29 26q8 0 18 -3q30 -8 47 -30.5t20 -47t3 -38.5q0 -42 -10 -81q-6 -123 -81 -308q-57 -138 -109 -138q-18 0 -35 16q6 26 15 31t19 0.5t25 9.5z" />
    <glyph glyph-name="asterisk" unicode="*" horiz-adv-x="275" 
d="M147 205l-15 53q-10 0 -28 -12.5t-24 -12.5q-18 0 -25.5 13.5t-7.5 18.5q0 20 24.5 29t28.5 21l2 10q-5 4 -17 12.5t-15 11t-10 9.5t-8 10.5t-2 11.5q-3 11 3 33q50 -14 77 -58q35 56 51 56q10 0 15.5 -9t6.5 -17t1.5 -21.5t1.5 -17.5l48 -13q-4 -16 -13 -24.5t-17 -9.5
q-21 -3 -24 -11l-25 -90z" />
    <glyph glyph-name="plus" unicode="+" horiz-adv-x="413" 
d="M230 249l24 -8l141 -17q7 4 7 -2q0 -14 -25 -20.5t-58.5 -6.5t-94.5 15l-36 -137h-34l38 140q-13 2 -66 15t-59 14q-29 11 -29 35q0 5 2 12l153 -41q5 22 13 66t15 68q4 11 12 11t14 -1.5t9 -3.5q9 -5 6 -21z" />
    <glyph glyph-name="comma" unicode="," horiz-adv-x="162" 
d="M111 96q39 0 39 -67q0 -16 -5 -27q-19 -70 -53 -85q-7 4 -7 9.5t2 9.5l3 10q25 50 25 62q1 3 1 10.5t-11 32t-9 36.5q4 9 15 9z" />
    <glyph glyph-name="hyphen" unicode="-" horiz-adv-x="326" 
d="M87 260l192 5h5q16 0 16 -20q0 -17 -21 -18l-220 -4h-1q-9 0 -9 12.5t2 17t6.5 6t8 2t11 0t10.5 -0.5z" />
    <glyph glyph-name="period" unicode="." horiz-adv-x="123" 
d="M93 46q7 -3 14.5 -16t5.5 -21q-9 -18 -18.5 -18t-19.5 8t-10 16.5t1 12.5q4 16 27 18z" />
    <glyph glyph-name="slash" unicode="/" horiz-adv-x="439" 
d="M47 10q0 -3 -6 -3q-15 0 -17 20l9 17q59 85 358 419l3 1l6 1l11 1q11 0 11 -11q0 -3 -0.5 -7t-9.5 -16t-13 -15q-210 -192 -352 -407z" />
    <glyph glyph-name="zero" unicode="0" horiz-adv-x="462" 
d="M121 -51q-41 13 -68 61q-32 56 -32 124t21 134q36 139 110 208q57 54 119 54q18 0 35 -4q123 -38 123 -171q0 -52 -18 -117q-40 -146 -123 -228q-66 -65 -133 -65q-17 0 -34 4zM70 256q-14 -52 -14 -96t14 -80q35 -80 77 -90h5q40 0 89 34.5t73.5 63.5t36.5 70
q36 93 36 155q0 9 -1 25t-9.5 54t-34.5 57.5t-37 24.5q-20 7 -40 7q-54 0 -102 -50q-66 -68 -93 -175z" />
    <glyph glyph-name="one" unicode="1" horiz-adv-x="200" 
d="M4 9l99 369q18 78 18 95q-2 -1 -37 -14.5t-41 -13.5h-11q9 32 31 51.5t55.5 37.5t48.5 30l2 -1q1 1 2 1q7 -3 7 -40q-93 -334 -133 -526q-5 -6 -19 -15t-17 -13q-5 11 -5 39z" />
    <glyph glyph-name="two" unicode="2" horiz-adv-x="310" 
d="M261 87l-9 65q0 9 1.5 13t2.5 7.5t1.5 5.5t2 4.5t2.5 2.5t3 -1l35 -35q3 -3 -17 -113q-16 -48 -41.5 -63.5t-39 -15.5t-21.5 2q-19 4 -48 33q-35 35 -49.5 35t-37 -20.5t-34.5 -20.5h-3q22 91 69 162q43 65 84.5 115.5t52.5 64.5q20 22 35 79q12 36 12 63t-23 33
q-3 1 -7 1q-35 0 -80 -90q-8 -16 -13.5 -21t-8.5 -4q-12 2 -6 28q21 67 58.5 107t67.5 40q4 0 9 -1q32 -10 32 -53t-17 -101q-15 -60 -44 -109t-56 -76q-76 -76 -91 -139q20 -7 56 -33t48.5 -29.5t20 -5.5t11.5 -2.5t10 1t10 5.5q12 12 17 36q5 14 5 30z" />
    <glyph glyph-name="three" unicode="3" horiz-adv-x="396" 
d="M300 375q52 -61 52 -123q0 -24 -10 -73.5t-32 -90t-48 -64.5q-64 -57 -127 -57q-22 0 -42 3q-34 12 -58 58q-14 27 -14 53.5t8 57.5q15 57 66 94l3 -2q11 -2 5 -20q-3 -16 -20.5 -41t-21 -39t-3.5 -33.5t12 -43.5q19 -35 44 -37q11 -2 28.5 -2t48 10t66 49t52.5 101
q7 26 7 52.5t-11 54.5q-24 60 -71 60q-6 0 -20.5 -1.5t-22.5 1.5t-8.5 4t-4 6t0.5 12q7 26 69 42q23 6 47 24.5t33 49.5q0 11 -5 11q-2 1 -52 18q-13 3 -30 3l-69 -5q-8 0 -13 1q-11 3 -11 16.5t7 32.5q2 6 15 9.5t21 3.5t17 -1.5t29.5 -6.5t36 -8t89.5 -25q2 4 11 7
q15 4 15 -11q0 -11 -23 -52q-32 -54 -58 -80q-6 -6 -6 -9l-1 -3v-4q-1 -1 -1 -2z" />
    <glyph glyph-name="four" unicode="4" horiz-adv-x="355" 
d="M160 -47l59 322q1 4 -116 54l-18 5q-11 3 -26.5 3t-36.5 -9q-6 3 -6 9.5t4 14.5q0 8 77 114t85 106q14 -3 9 -23q-1 -2 -2 -5t-2 -5t-3 -4q-2 -3 -7 -3l-85 -138l-3 -11q21 -6 57.5 -26t47.5 -23q29 -8 33 -6l8 7q0 1 3 9q7 25 9 34t9 33t9.5 34t6.5 29q9 36 11 70
q4 6 6 10l3 6q3 3 8 3q1 -2 7.5 -12t2.5 -14l-37 -191q-4 -19 6 -25h3q12 0 25 19t18 41q12 -4 12 -18.5t-6 -33.5q-12 -46 -70 -54q-2 -3 -12.5 -41t-17 -66.5t-10 -47.5t-10 -58.5t-11.5 -66.5q8 -4 2 -23q-11 -34 -25 -34q-3 0 -5 1q-13 0 -12 14z" />
    <glyph glyph-name="five" unicode="5" horiz-adv-x="347" 
d="M310 564l12 -2q12 -2 12 -13q0 -23 -16.5 -30.5t-29 -6.5t-28 4t-24 5t-35.5 2l-27 3l-10 -10l-22 -81q-5 -16 11 -16q12 -3 38 -3t38 -4q57 -13 78 -80q9 -29 9 -70t-14 -96q-29 -105 -104 -155q-54 -37 -102 -37q-17 0 -33 5l-40 11q-18 24 -18 57.5t9.5 71t26 60.5
t36.5 23q4 0 7 -1q15 -8 10 -25q0 -4 -1 -5l-48 -49q-1 -4 -2 -6q-4 -11 -4 -29t6 -37.5t21.5 -23.5t30.5 -4q41 0 85 27q62 37 88 123q11 46 11 79q0 98 -76 117q-6 2 -16 2l-59 -6q-8 0 -13 1l-14 4l20 121q-4 18 -4 33q0 33 19 49q82 -2 172 -8z" />
    <glyph glyph-name="six" unicode="6" horiz-adv-x="293" 
d="M36 220q27 110 81.5 211t118.5 162l3 -2q6 -1 7 -10t-2 -18l-5 -11q-47 -50 -102 -155.5t-69 -164.5t-14 -89t8 -53q17 -46 53 -57q35 133 87 191q25 28 39 23q24 -4 38 -35q8 -17 8 -35.5t-5 -36.5q-25 -81 -66 -128q-72 -82 -150 -22q-43 34 -43 126q0 48 13 104z
M248 160q0 26 -27 26q-35 0 -63 -95q-1 -5 -5.5 -23t-4.5 -28.5t16.5 -10.5t42 26t33.5 63q8 26 8 42z" />
    <glyph glyph-name="seven" unicode="7" horiz-adv-x="268" 
d="M65 -54h-4q-9 2 -9 28t29 111q19 72 61.5 209.5t60.5 205.5q-62 22 -92 22t-44 -3q-8 -3 -15 -19t-21 -12l28 107q12 -4 28.5 -16t29 -15t47.5 -3l20 1q41 0 51 -3t10.5 -3t2 -0.5t2.5 -1.5q1 -5 1 -13q-5 -13 -16 -67q-16 -54 -57.5 -181.5t-60.5 -199.5l-25 -95
q2 -2 2.5 -11t-1.5 -13q-1 0 -13 -12t-15 -16z" />
    <glyph glyph-name="eight" unicode="8" horiz-adv-x="334" 
d="M21 44q-3 16 -3 48t11.5 75.5t19.5 63t19.5 37.5t20 29t24.5 30.5t23 28.5q-3 18 -12 44q-12 30 -12 44.5t6 48.5q16 60 40 86t47 26q7 0 13 -2q53 -14 70 -59q5 4 11 16q14 28 27 25q5 -2 5 -9t-6 -21q-8 -27 -18 -41q-94 -130 -97 -138l-5 -12q38 -53 38 -122
q0 -41 -13 -87q-22 -90 -58 -134.5t-72 -44.5q-8 0 -17 2q-51 15 -62 66zM102 254.5q-24 -35.5 -37 -84.5t-13 -69t3 -29q9 -27 46 -36q10 -6 29 -6q39 28 67 118q10 39 10 66q0 86 -40 110q-41 -34 -65 -69.5zM205 554q-4 1 -12 1t-21.5 -16t-20 -42.5t-6.5 -43.5
q0 -36 29 -44h3q14 0 42 33q38 45 38 64.5t-20 33.5t-32 14z" />
    <glyph glyph-name="nine" unicode="9" horiz-adv-x="233" 
d="M67 -18l77 328l-2 14l-44 -6q-6 0 -28 6q-21 6 -33 37q-5 12 -5 35.5t15.5 82t41.5 90t53 31.5q7 0 14 -2q49 -13 57 -99q-4 -18 -51 -221t-55 -243l-10 -35q-8 -41 -25 -46zM67 462q-6 -27 -6 -45q0 -48 33 -57q5 -1 10 -1q44 0 72 109l-6 54q0 23 -10 29t-24.5 6
t-34.5 -23t-34 -72z" />
    <glyph glyph-name="colon" unicode=":" horiz-adv-x="124" 
d="M32 89q8 25 29.5 19t21.5 -19q0 -14 -10 -20.5t-16 -6.5t-9 1t-6 5q-10 17 -10 21zM101 227q-7 -18 -22 -18t-15 12q0 11 8 19t11 8q8 0 14 -4t6 -8.5t-2 -8.5z" />
    <glyph glyph-name="semicolon" unicode=";" horiz-adv-x="163" 
d="M100 -50q5 19 19 13q16 -4 16 -19.5t-5 -31.5q0 -13 -11.5 -36.5t-23.5 -23.5q-1 0 -10 3q4 22 5 33l4 28q4 21 5 26.5t1 7.5zM85 72q0 4 1 8q5 15 22 15t17 -20t-20 -20t-20 17z" />
    <glyph glyph-name="less" unicode="&#x3c;" horiz-adv-x="477" 
d="M72 234l2 6q2 9 24 17q2 1 52 19t58 22q177 103 210 129q1 -1 9 -1q17 -8 16 -21q-10 -33 -192 -119q-41 -20 -70 -34l-29 -13q-3 -8 5 -16l292 -304l-2 -4v-4q-2 -11 -10.5 -17.5t-14 -6.5t-8.5 0.5t-4 2t-2 4.5q-3 10 -136 170q-183 158 -200 170z" />
    <glyph glyph-name="equal" unicode="=" horiz-adv-x="220" 
d="M186 75q-8 -11 -33 -11q-39 0 -77 12q-17 5 -11 21.5t14 17.5q3 -3 21 -6q69 -14 86 -34zM74 242q5 0 12 -3q28 -3 66 -19.5t42 -38.5l-11 -6l-101 27q-7 3 -14 12t-7 14q0 14 13 14z" />
    <glyph glyph-name="greater" unicode="&#x3e;" horiz-adv-x="441" 
d="M145 490l24 13l2 -1h2q12 -4 20 -15q92 -118 221 -237q6 -4 6 -8.5t-1 -6.5v-5q-22 -6 -92 -53q-174 -129 -198 -153q-2 -2 -13 -16q-16 -21 -29 -21q-3 0 -16 3q-4 8 -4 19t1 12l287 227q-98 79 -204 222q-3 1 -5.5 9.5t-0.5 10.5z" />
    <glyph glyph-name="question" unicode="?" horiz-adv-x="426" 
d="M105 -22q4 15 8.5 20.5t12.5 4.5q8 -3 8 -13q0 -20 -7 -27t-10.5 -10t-4.5 -3h-2q-9 0 -9 10t4 18zM193 278l-5 -17q-11 -40 -25 -122q-16 -22 -22.5 -22t-6.5 15.5t19.5 91.5t18.5 82q87 44 118 104q22 41 31 78.5t9 70.5q0 106 -65 106q-29 0 -66.5 -29t-59.5 -84
q-6 -11 -6 -25t-3 -36t-7.5 -22t-11 14t-6.5 33t7 43q17 66 69.5 107t89.5 41q8 0 15 -2q51 -13 68 -75q8 -28 8 -63t-11.5 -78t-25.5 -73t-40 -57.5t-38.5 -38t-53.5 -42.5z" />
    <glyph glyph-name="at" unicode="@" horiz-adv-x="435" 
d="M52 297q34 126 99 174q45 33 99 33q70 0 114 -42q27 -25 40.5 -67.5t13.5 -82t-8 -70.5q-16 -63 -46.5 -100t-64.5 -37q-8 0 -20 3.5t-33 33t-22.5 30t-5.5 0.5t-19 -9t-19 -10t-8 -1h-6q-33 7 -42 20q-13 20 -13 51.5t2 41.5q14 48 38.5 66t42 18t28.5 -3
q39 -13 41 -109q2 -28 2.5 -37.5t3.5 -25.5q6 -34 34 -34q21 0 40 25.5t31 68.5t12 80.5t-14 73.5q-27 65 -87 79q-17 5 -34 5q-52 0 -95 -46q-56 -60 -84 -164q-13 -42 -13 -83.5t12 -83.5q24 -85 87 -102q16 -5 28.5 -5t28 5.5t25.5 18t19 23.5t15 10q9 -3 9 -16t-4 -29
q-54 -39 -112 -39q-11 0 -21 1q-50 14 -82 81t-32 131t20 123zM230 296q0 18 -21.5 18t-39.5 -18t-24.5 -42.5t-6.5 -35.5q0 -26 24 -33q4 -1 13 -1t22.5 16t18.5 34q14 47 14 62z" />
    <glyph glyph-name="A" unicode="A" horiz-adv-x="674" 
d="M632 -98q-10 0 -17 -6q-17 64 -28 187t-27 186q-28 2 -108.5 21.5t-115.5 19.5q-25 -28 -120 -173q-28 -42 -68.5 -75.5t-79.5 -33.5h-2l-48 1q-10 6 -10 14t10 14q10 -2 30.5 -2t59 21.5t78.5 71.5q65 80 121 181q-4 1 -19 12.5t-18.5 15t-21.5 20.5t-32 31
q-38 36 -42 54q0 13 8.5 16t18.5 3h12q31 0 90 -19t89 -19q24 29 69.5 142.5t67.5 143.5q24 43 33 43q5 0 5 -14v-11l23 -418h10q63 30 79 30t16 -8q0 -12 -32 -32.5t-63 -26.5q-1 -10 -1 -44.5t17 -175.5t17.5 -155.5t-1.5 -14.5zM363 338q27 -7 75 -14t61 -11
q-38 53 -99 82q-1 -2 -10 -15q-19 -24 -27 -42zM425 424l129 -105q1 20 1 61.5t-4 144.5t-10 159zM250 452q-6 1 -11 1q-15 0 -15 -10q0 -22 45.5 -55t66.5 -33q5 0 9 2q6 7 12 24t16 33q-8 4 -123 38z" />
    <glyph glyph-name="B" unicode="B" horiz-adv-x="941" 
d="M391 212l1 33q11 11 28.5 11t25.5 -12q2 -3 2 -6q0 -9 -22 -20q0 -74 56 -132t124.5 -58t132.5 47t104.5 116.5t40.5 125.5t-39 96.5t-91 59.5t-92.5 19t-77.5 -4q-46 -5 -62.5 -5t-61.5 5l-200 -365q-24 -41 -60 -68t-84 -27t-79 43.5t-31 96.5q31 0 48 -56
q7 -20 26.5 -37.5t50.5 -17.5q46 10 93 73t81 138q100 223 172 309q64 85 126 141q116 105 210 105q34 0 52.5 -23.5t18.5 -65.5t-32.5 -84.5t-87.5 -83.5t-60 -46q46 -13 84.5 -31t50.5 -26.5t28.5 -23.5t24.5 -31q21 -42 21 -95t-47 -129t-119 -130t-137 -54
q-83 0 -151 65t-68 147zM807 804q-55 0 -142 -67l-33 -33q-24 -24 -50 -50.5t-29 -29.5q-34 -40 -74 -110q60 0 186 15q183 125 200 217q0 28 -15.5 43t-42.5 15z" />
    <glyph glyph-name="C" unicode="C" horiz-adv-x="439" 
d="M24 160q-5 22 -5 67t23 139q33 137 101.5 258t139.5 134q21 0 36 -15t24.5 -26t20 -43.5t10.5 -53.5t-1 -34q0 -10 -14 -10h-3q-1 0 -1 1q-6 87 -27 117q-19 26 -50 27q-41 0 -96.5 -96t-93 -206.5t-37.5 -173t38 -135t107 -72.5t134.5 72t80.5 146q11 -3 11 -17.5
t-2 -20.5q-23 -74 -89.5 -146t-132 -72t-111 49t-63.5 111z" />
    <glyph glyph-name="D" unicode="D" horiz-adv-x="616" 
d="M20 -5l73 558q3 40 5 47l4 29h20q0 -25 -6 -66q-27 -202 -52 -435q1 1 7 6.5t7.5 7t6.5 5.5t7 5.5t6.5 4.5t7.5 4q15 5 24 5q30 0 55.5 -23.5t41 -51t43 -51t61.5 -23.5q54 0 117.5 58.5t104.5 135.5t41 130q0 1 -0.5 3l-0.5 2q-43 -41 -84.5 -58.5t-97 -17.5t-94.5 20.5
t-61 57.5q-41 70 -41 173q0 91 43 183q22 46 60.5 75.5t90.5 29.5t97.5 -33.5t71.5 -85.5q53 -108 53 -217v-9q0 -83 -33.5 -184t-92.5 -179.5t-137 -101.5q-18 -5 -37 -5q-61 0 -126 58q-7 9 -17 26q-26 42 -50 56q-7 5 -8 4q-24 -6 -40 -30t-23 -48q-18 -65 -47 -65z
M284.5 358q42.5 -60 133.5 -60q12 -1 24 -1q102 0 141 92q19 46 19 98t-17 110q-33 115 -110 167q-29 20 -61 26q-45 0 -80 -28.5t-54 -72.5q-38 -88 -38 -179.5t42.5 -151.5z" />
    <glyph glyph-name="E" unicode="E" horiz-adv-x="472" 
d="M345 436q57 0 57 -32.5t-31 -55.5q-52 -37 -130 -37q-19 0 -47 15t-43 15h-5q-96 -73 -96 -181q0 -50 22 -77t74 -45q20 -6 37 -6t41 3t48.5 9t56.5 21t53.5 27.5t50.5 29.5t49 26q9 -20 9 -27.5t-9 -11.5q-223 -109 -291.5 -109t-123 44t-54.5 113q0 38 21 81t39 66
t54 65v4l-10 88q0 44 27 108.5t73.5 116.5t89.5 52t69 -30.5t26 -71.5q0 -1 0.5 -8t0 -11t-1.5 -9q-2 -12 -14 -12h-5q-12 71 -36 99q-13 14 -28 14q-67 0 -119.5 -85t-52.5 -156q0 -28 10 -72h9q24 0 78.5 20t82.5 20h19zM193 364q0 -24 57 -24q35 0 71 12t52 36
q-14 20 -42 20t-83 -13t-55 -31z" />
    <glyph glyph-name="F" unicode="F" horiz-adv-x="711" 
d="M144 526l-1 32q0 81 22 85q15 -8 19 -37q97 -59 185 -59q56 0 143.5 36t105.5 78q5 11 13.5 38t16.5 46.5t20 40.5q27 46 74 46q19 0 19 -25.5t-19 -49.5q-57 -71 -95 -114q1 -12 1 -44.5t-19.5 -122.5t-19.5 -131q0 -15 28 -15q49 0 114 58l10 -10q0 -3 -11.5 -18
t-17.5 -19q-36 -26 -58.5 -34t-73.5 -14q-79 -168 -147 -225q-30 -25 -73 -42.5t-103.5 -17.5t-145 32t-127.5 83q24 38 63 38q7 0 13 -10q-30 -14 -30 -24q0 -26 97.5 -58.5t141.5 -32.5q96 0 157 58.5t107 161.5q10 21 10 39t-9.5 27t-24.5 9h-4q-18 -9 -29 -20
q-10 4 -10 19q0 67 24 67q12 0 31 -24t36 -24h3q23 76 26 173q1 31 1 92h-7q-134 -97 -245 -97q-29 0 -83 21t-79 21q-11 0 -24 -16.5t-25 -16.5zM742 804h-5q-27 0 -49.5 -36t-22.5 -64v-5q60 53 77 105z" />
    <glyph glyph-name="G" unicode="G" horiz-adv-x="786" 
d="M439 577q13 -1 15 -1q61 0 149.5 62.5t110.5 118.5q2 5 9 56t9 56q4 31 31 68t55 37t28 -43q0 -22 -12.5 -49t-24.5 -43.5t-34 -43.5t-24 -30q0 -70 9.5 -202t10.5 -170t1 -68t-8.5 -82t-31.5 -107.5t-69.5 -90.5t-118 -35.5t-126.5 60t-55 143.5q0 55 41 97t95 42
q0 -11 -27 -30t-54 -48.5t-27 -65.5q0 -70 50.5 -120.5t112.5 -50t100 32.5t55 80q36 102 36 197l-3 116q-12 131 -28 246q-85 -72 -142.5 -107.5t-142.5 -62.5q0 -1 -9 -10l-198 -292q-17 -14 -50.5 -57t-65.5 -69.5t-69 -26.5q-17 0 -23 5.5t-10 14.5l9 9q95 28 166 112
q59 69 120.5 164.5t92.5 139.5l1 10q0 9 -13 26q-36 50 -36 97v16.5t1 28t7 33.5q10 37 55 37q31 0 46 -24t15 -61.5t-29 -114.5zM373 670q0 -39 10 -62t24 -23h2q1 0 2 1q28 19 34 57q2 13 3 36.5t-8 45.5t-29 22q-38 0 -38 -77zM819 938q-25 0 -42 -34.5t-17 -62.5
q0 -1 1 -19q58 48 58 116z" />
    <glyph glyph-name="H" unicode="H" horiz-adv-x="894" 
d="M284 636q2 -44 84 -44q66 0 133 24t63 47q13 56 32 93q28 58 44 58q21 -5 21 -28q0 -34 -50 -109q-6 -10 -9 -14q-29 -36 -29 -148q17 -16 79 -61.5t98.5 -86.5t49.5 -92l48 463l22 -4q-45 -588 -51 -733q-5 -12 -33 -12v230q0 14 -19 58t-28 46q-57 -28 -107.5 -28
t-86.5 9q-64 -187 -149 -266q-70 -66 -167 -66h-10q-30 0 -82 23.5t-92.5 58t-38.5 61.5q6 48 76 76v-9q-49 -49 -49 -61q0 -27 37.5 -56.5t83.5 -46.5t75 -17q63 0 129.5 54.5t108 128t41.5 130.5q0 18 -20 45t-20 55q0 57 67 79q2 13 7 38q10 44 10 60.5v22.5
q-31 -23 -150 -38q-39 -6 -67 -6q-57 0 -65 22q0 44 14 44zM545 342q20 -24 76 -24q75 0 112 24q-67 67 -71 72t-13.5 12t-18.5 13t-20 13q-25 15 -37 13q-11 -3 -25 -105q-2 -15 -3 -18zM539 457q-41 0 -41 -45q0 -25 18 -51q23 48 23 96zM643 780q-17 0 -24 -22.5
t-7 -42.5v-4q31 41 31 69z" />
    <glyph glyph-name="I" unicode="I" horiz-adv-x="547" 
d="M34.5 6.5q-21.5 7.5 -21.5 24.5t15 17q10 0 27 -5.5t29 -5.5q69 0 139 37.5t124.5 99t97.5 135t66.5 150t23.5 143.5t-30 101.5t-97 34.5q-38 0 -69.5 -39.5t-46 -86.5t-14.5 -82q0 -106 95 -134l-19 -8q-2 -2 -24.5 9t-32.5 19q-49 30 -49 116q0 45 17.5 97.5t55.5 94.5
t85 42q148 0 148 -174.5t-106 -328.5t-264 -235q-56 -29 -108 -29q-20 0 -41.5 7.5z" />
    <glyph glyph-name="J" unicode="J" horiz-adv-x="551" 
d="M479 49l88 8q14 0 14 -15q0 -19 -27.5 -24t-58.5 -8t-37 -19q-26 -117 -65.5 -197.5t-74.5 -125t-86 -74.5t-103 -30t-86.5 26.5t-52.5 69.5q-33 82 -33 176q0 71 25 134q13 34 39.5 56t62 22t35.5 -16l-1 -4q-10 1 -25 1t-36.5 -10t-35.5 -32t-23 -53q-13 -49 -13 -96.5
t6.5 -84.5t21.5 -75t44.5 -62t69.5 -24q62 0 117 44.5t92 113.5q72 135 93 259q-140 43 -140 160q-1 17 -1 41t6.5 58t30 70.5t44.5 61.5t64.5 70t71.5 77q6 15 10.5 42.5t8.5 51t12 47.5q17 50 70 50q22 0 27.5 -5.5t5.5 -31.5t-15 -52.5t-44 -59t-35.5 -42.5t-9 -26
t-7.5 -65q-21 -181 -35 -272t-14 -135zM315 175q0 -47 32.5 -88t78.5 -41q10 0 13 10l57 398v37q-65 -50 -123 -145.5t-58 -170.5zM612 714q-31 0 -45.5 -32.5t-14.5 -67.5q1 -7 1 -9q59 46 59 109z" />
    <glyph glyph-name="K" unicode="K" horiz-adv-x="795" 
d="M567 300v-9q8 -15 62.5 -119.5t100.5 -185t108 -178t119.5 -153.5t100.5 -56q99 0 169.5 37.5t140.5 116.5q29 39 29 75t-31 63.5t-75 41.5v12q60 0 97.5 -32t37.5 -86t-37.5 -104t-93 -84t-116.5 -55t-110 -21h-3q-48 0 -110 56t-124 147t-116.5 181t-105.5 179t-71 117
q-9 -3 -9 -10q-64 -146 -104 -204q-95 -135 -246 -136h-57q-60 16 -87 72.5t-27 125.5q0 77 22 110q10 15 25 15q30 0 30 -16q-12 -10 -24 -28q-25 -32 -25 -82q0 -169 147 -169q84 0 158.5 55.5t115.5 138.5t41 165l-102 -9q-50 0 -86.5 23t-36.5 72q0 20 22 32
q30 16 79 16t81 -14.5t64 -53.5l10 20q6 9 22 95.5t15.5 91t-1.5 11t-1 7.5q-23 -1 -97.5 -10t-105 -9t-30.5 6q0 9 47 32l76 -2q74 0 112 24q24 14 43 87q6 25 21 45t39 20q10 0 15.5 -5t6 -10.5t0.5 -12.5v-9q0 -50 -77 -115l-57 -266v-6q60 0 122 27t116 72
q96 79 178 191h19v-18q0 -8 -85 -114q-108 -131 -341 -198zM373 376q-62 5 -62 -15q0 -31 26 -46.5t59 -15.5l30 -1q51 0 56 21q-23 57 -109 57zM661 725q-18 -10 -18 -43v-3q19 18 19 31.5t-1 14.5z" />
    <glyph glyph-name="L" unicode="L" horiz-adv-x="958" 
d="M617 157h-10q-26 -18 -114 -64.5t-93 -49.5q-60 -30 -176 -30q-105 0 -162 57q-31 32 -31 78q0 70 68 108q56 32 135 47q49 10 80 14h18q71 0 191 -48q1 0 9 -4.5t16 -8.5t18 -8q19 -10 30 -17.5t11 -8.5q15 -9 19 -9q79 102 95 154q-7 -1 -26.5 -1t-73.5 11.5t-116.5 35
t-107.5 65t-45 88.5q0 19 15 19l9 -11q8 -11 20.5 -27.5t27.5 -34.5q35 -43 50 -50q114 -62 227 -62q34 0 47 11l246 245q13 14 40 25q37 15 64 15q65 0 67 -52q0 -49 -22.5 -89.5t-54 -66t-80.5 -47.5q-69 -31 -170 -58q-16 -4 -23 -6q-2 -2 -24.5 -10t-25.5 -10
q-12 -18 -105 -164q54 -69 154 -297q34 -80 74 -155t92.5 -119.5t112.5 -44.5h3q144 0 195 12q110 24 131 123q5 26 5 65t-30 83t-75 64l19 2q56 0 86 -50t30 -102t-11.5 -88t-28.5 -60t-47.5 -40.5t-57.5 -25.5t-70 -14q-63 -6 -156 -6q-10 -2 -19 -2q-41 0 -85.5 31.5
t-82 89.5t-77 133.5t-70.5 145.5q-76 169 -135 219zM92.5 216q-25.5 -28 -25.5 -67.5t25 -64.5q43 -42 127 -42q121 0 171 29q35 18 101.5 54.5t69.5 39.5l18 19q-22 41 -109.5 68.5t-139.5 27.5t-89.5 -5t-80 -18t-68 -41zM1132 629q0 38 -42 38q-13 0 -32.5 -7t-35.5 -23
l-208 -218h15q52 0 121 25.5t125.5 76t56.5 108.5z" />
    <glyph glyph-name="M" unicode="M" horiz-adv-x="856" 
d="M516 574l-1 -44v-13q-30 -208 -38 -236q20 35 69 128t80 147.5t76 107t82 59.5q44 0 44 -134v-25q-1 -71 -23 -212q-33 -220 -33 -276.5t6.5 -105.5t30.5 -107q50 -120 217 -148q27 10 32 10t5 -1q0 -9 -30.5 -20t-40 -11t-14.5 2q-98 0 -156 71q-51 64 -71 156
q-3 39 -3 116.5t20 265.5t22 260l-1 77q-3 29 -14 29q-90 -70 -162 -201q-39 -71 -54.5 -103t-38.5 -82q-33 -72 -71 -193q-8 -8 -17 -8t-12 8q0 59 67 454q-6 30 -31 7q-7 -6 -100 -123.5t-115 -147.5q-4 -11 -23.5 -79.5t-23.5 -80.5q-16 -50 -52.5 -87.5t-80.5 -37.5
q-35 0 -37 12q-1 6 -1 18q0 32 19 57q171 207 189 302q8 8 8 99t-7 91q-1 0 -1 -1l-184 -76q-6 0 -10.5 4.5t-4.5 10.5q0 11 34 19l14 4q10 5 44 24q76 42 107 44q20 0 26 -9.5t8.5 -15t3.5 -16t1.5 -16t0 -17.5t-0.5 -25.5t-5 -68t-5 -89.5q170 223 205 255q15 14 24.5 14
t13.5 -7t13 -35zM60 25q27 0 55 28.5t41 57.5l18 45q17 46 20 59v5q-2 -3 -19 -22.5t-28.5 -33t-29.5 -36.5t-29 -40q-28 -42 -28 -63z" />
    <glyph glyph-name="N" unicode="N" horiz-adv-x="631" 
d="M561 175l2 -104q20 -161 179 -161q8 0 38 4t37 6q-19 -29 -99 -29t-122.5 39.5t-61.5 121.5l-1 118q0 69 15 204t15 203v62l-322 -303l-19 -152q-7 -61 -49.5 -125t-97.5 -64q-27 0 -45 19t-17 48q5 52 40.5 112.5t67 95.5t81.5 85q2 10 2 59.5t-20 138.5q-3 10 -19 10
q-1 0 -9 -1q-70 -55 -134 -55q0 20 10 25q4 2 13.5 5.5t18 6.5t57 28.5t54.5 27.5l9 1q11 0 19 -8.5t10 -20.5l29 -197l339 329l19 -18l4 -58q0 -76 -21.5 -226t-21.5 -227zM76.5 158q-26.5 -48 -26.5 -91.5t20 -43.5q35 0 63 32.5t43 79.5q29 96 29 163h-11q-2 0 -24.5 -23
t-31.5 -34q-35 -35 -61.5 -83z" />
    <glyph glyph-name="O" unicode="O" horiz-adv-x="508" 
d="M488 586l-11 -217v-10l67 29v-6q0 -7 -6 -10.5t-22 -11.5q-47 -24 -49.5 -28.5t-14 -44t-13.5 -42.5q-99 -236 -264 -236q-71 0 -104 51q-34 52 -40 100q-8 74 -8 129l1 79v20q0 17 18 132q7 39 24 80q30 76 72 76v-15q-88 -147 -88 -379q0 -86 16 -137t72 -98
q12 -9 31 -9q94 0 166.5 86.5t93.5 186.5q-16 -1 -32 -1q-115 0 -168.5 56.5t-53.5 200.5q0 81 14.5 146.5t32.5 103.5t51 64.5t69 26.5t61 -18.5t41 -48.5q30 -54 43 -113zM459 445l8 188q0 66 -15 124q-29 112 -97 122q-5 1 -10 1q-29 0 -55 -26.5t-42 -69.5t-27 -94
q-19 -89 -19 -144.5t15.5 -102t53.5 -80t92 -33.5l27 -1q43 0 49 20q8 59 20 86v10z" />
    <glyph glyph-name="P" unicode="P" horiz-adv-x="496" 
d="M32 29q-20 30 -20 66t6 62.5t22 52t26.5 40t37.5 44.5t40 46.5t74 84.5t84 92q38 84 38 190q0 13 -1 26q-26 0 -74 -18t-85 -18v25q44 0 72 5.5t60 25.5q5 3 34 32t44 29q0 -37 -15.5 -107.5t-15.5 -94v-29.5l208 209q58 57 125 57q25 0 35.5 -9t10.5 -46t-25 -110
t-64.5 -142t-96.5 -118t-106.5 -49t-105.5 48q-20 -106 -38 -161q-3 -14 -20 -53t-26.5 -57t-29.5 -50.5t-38.5 -52t-45 -35t-58.5 -15.5t-52 30zM40 102q0 -74 49 -74q43 0 81.5 38t64 94t44.5 120q36 123 36 199q-12 0 -74 -65.5t-84.5 -94.5t-45 -55t-30 -37t-19.5 -33
q-22 -38 -22 -92zM567 762q-128 -128 -171 -177t-45 -55t-2 -35.5t22.5 -60t58.5 -30.5q54 0 106.5 46t87.5 112.5t56.5 137t21.5 121.5q-46 0 -91 -29q-14 -9 -44 -30z" />
    <glyph glyph-name="Q" unicode="Q" horiz-adv-x="619" 
d="M478 603v-16q0 -235 -105 -417q17 -54 49.5 -94.5t79.5 -40.5q75 0 136 50q1 0 1 -5q0 -33 -48.5 -52t-95 -19t-79.5 29.5t-71 92.5q-33 -35 -52 -52.5t-56 -38t-79 -20.5t-81.5 36.5t-52.5 85.5q-8 41 -8 93q0 190 66 358q43 112 102 125h46q0 -12 -15.5 -22.5
t-34.5 -21.5t-24 -22q-110 -242 -110 -393.5t122 -202.5q7 -2 18 -2t33 11t40 28t40 39.5t27 27.5q-8 30 -14.5 66t-14.5 75.5t-8.5 47t-7 43.5t-6.5 45l-7 82l2 22q0 10 -1 26q2 12 5.5 48t6.5 59.5t11.5 58t19.5 57.5q29 55 79 70q87 0 87 -257zM316 699
q-18 -104 -18.5 -128.5t-0.5 -46.5q0 -125 39 -259q3 -14 11.5 -30.5t15 -16.5t28.5 47.5t29 75.5q39 130 39 221.5t-30 232.5q-3 13 -13.5 25.5t-24.5 12.5q-17 0 -43 -52.5t-32 -81.5z" />
    <glyph glyph-name="R" unicode="R" horiz-adv-x="632" 
d="M488 731q37 0 37 -47t-47 -126q-59 -102 -133 -144q-28 -16 -54 -19q35 -31 113 -197q27 -57 65 -102.5t75 -45.5q76 0 108 50q0 -74 -118 -87q-45 2 -81.5 42t-61 94t-49.5 106t-58.5 80.5t-68.5 28.5q-10 0 -21 -2q-41 -192 -55 -243.5t-19 -74.5t-13.5 -39t-10 -19
t-11.5 -10.5t-12 -9.5q-56 2 -56 73t55 225q22 60 42 114q53 140 63 197q0 32 -7.5 42.5t-17.5 6.5t-28.5 -14t-31.5 -12v24q5 8 37 28t43 20q21 0 32 -45.5t11 -88.5q6 18 77 78q139 117 196 117zM150 378q-37 -46 -70 -163t-33 -184q5 -22 13 -22q11 0 29 45q38 96 56 235
q6 43 6 62t-1 27zM504 665q0 24 -21 24q-6 0 -23.5 -4t-65.5 -35q-20 -20 -64.5 -54.5t-72 -58t-45.5 -53t-18 -46t2 -24.5q20 -8 42 -8q46 0 100 36q78 54 128 131q38 58 38 92z" />
    <glyph glyph-name="S" unicode="S" horiz-adv-x="800" 
d="M473 -20q-115 0 -265 133l-183 -88q-5 0 -10.5 15t-5.5 21t34 17q118 36 156 71q-15 57 -15 104.5t18 82.5q36 66 163 103q-8 -6 -2.5 -13.5t2.5 -10.5q-92 -47 -117 -69q-39 -36 -39 -93q0 -37 18 -93q28 21 176 126t254 193l19 255q6 68 53 124.5t110 56.5
q44 -9 62.5 -28.5t18.5 -43.5q0 -58 -64 -147q-29 -40 -56 -74q-74 -92 -103 -140q9 -61 9 -117.5t-8 -107.5t-23 -97.5t-39 -82.5q-65 -97 -163 -97zM245 127q124 -115 221 -115q76 0 122 53q59 69 73 160q10 60 10 111.5t-10 100.5zM838 886q-91 -10 -116 -102
q-18 -67 -22 -148.5t-7 -104.5q43 36 121.5 151t78.5 156q0 23 -16 35.5t-39 12.5z" />
    <glyph glyph-name="T" unicode="T" horiz-adv-x="686" 
d="M157 730q18 0 18 -42q0 -20 -4 -39q38 0 107 -8.5t105 -8.5q76 0 157 37.5t125 95.5q0 30 11 69t19 52.5t19 21.5q16 0 26 -14.5t10.5 -37.5t-26.5 -60t-29.5 -64t-17 -126t-24 -141.5t-30.5 -103t-55.5 -125.5t-76.5 -114t-100 -81t-122 -32q-88 0 -172 60t-84 143
q0 51 29 99t72.5 48t43.5 -25q-48 0 -83 -31.5t-35 -84.5q0 -73 74.5 -127t150.5 -54q128 0 222 123q168 237 170 558q-4 -3 -34 -26t-59 -42t-76.5 -33t-77 -14t-49.5 1t-63 5.5t-81 4.5t-71 -11v125q6 2 11 2zM723 860q-9 -17 -9 -47q10 12 10 23.5t-1 23.5z" />
    <glyph glyph-name="U" unicode="U" horiz-adv-x="758" 
d="M190 596q-32 -20 -68 -20h-39t-23.5 0.5t-15 2t-12.5 3.5q-14 6 -14 18l2 6q25 19 47 19q9 0 0 -19q8 -2 31 -2t69 21t70 21v-22l-77 -435v-14q0 -45 24 -91t67.5 -46t88.5 64t91.5 190t78.5 180l49 189q1 10 13 10q15 0 15 -23q0 -55 -24.5 -167.5t-24.5 -169.5
q0 -255 170 -255q25 0 39.5 6t36.5 23q2 0 6.5 -4t4.5 -5q0 -48 -90 -48q-58 0 -98.5 25t-59.5 65q-39 84 -39 177q0 8 1 37t1 75q-5 -21 -48.5 -122t-52.5 -120.5t-21.5 -41.5t-34.5 -53q-44 -61 -106 -61t-89.5 48t-27.5 114l2 37l58 350v38z" />
    <glyph glyph-name="V" unicode="V" horiz-adv-x="514" 
d="M510 832h5q14 0 14 -14v-5q0 -17 -2.5 -47t-4 -52.5t-28 -136.5t-56 -235.5t-53.5 -201t-39 -105t-35 -35.5q-7 6 -28 47l-132 407l-38 207h-4l-6 1q-17 0 -47.5 -6t-48.5 -6q0 14 13 20q7 6 52 21t51 18h5q10 0 13 -15q1 -3 2.5 -19t20 -111t26.5 -119q13 -54 60.5 -192
t60.5 -168l10 -18q7 0 10 9q4 6 19.5 42.5t18.5 41.5q94 353 106 415t26 190q1 5 -1 21q-6 36 10 46z" />
    <glyph glyph-name="W" unicode="W" horiz-adv-x="897" 
d="M514 198l-38 255v2t-1 2q-2 2 -8 6l-8 -18q-26 -104 -37 -143q-36 -133 -86 -235q-2 -6 -5 -7.5t-4 -2.5t-5 -1h-11q-52 0 -80 142q-9 45 -9 104l4 397h-24l-122 -56q-8 0 -23.5 -5.5t-16.5 -5.5h-3q-24 0 -24 15q0 12 11 14l56 9q11 7 77 35t74 32l10 1q19 0 19 -23
q0 -44 -10 -132t-10 -131l1 -36q0 -23 7.5 -108.5t11.5 -109.5t19 -64t32 -40q11 0 15 10l141 435l10 9q17 -11 19 -28l48 -312q4 -48 46 -105t88 -57q18 0 36 15.5t31 40.5q25 49 34 78q32 77 54.5 172t22.5 156.5t-15.5 118t-54.5 103t-91 46.5q-28 0 -29 -1l-19 -10
q-2 0 -5.5 4t-2.5 7.5t3 8t5 7.5t5 5.5t7 3.5t7 2q2 2 13 2h18q50 0 87 -28.5t56 -73.5t27.5 -90.5t8.5 -90.5t-13.5 -126.5t-36.5 -170t-62.5 -153t-83.5 -64.5q-63 0 -108 60.5t-58 129.5z" />
    <glyph glyph-name="X" unicode="X" horiz-adv-x="817" 
d="M856 44q-66 -28 -116 -28q-17 0 -37 4.5t-51.5 31t-57.5 54.5q-102 112 -179 185q-168 -337 -212 -407.5t-55.5 -70.5t-27.5 9q163 254 261 501q-86 66 -131 156q-27 53 -50.5 112t-33.5 83l-134 -58q-5 6 -5 12q0 20 61 46.5t101 26.5q11 -23 34.5 -85t41 -101t53.5 -87
t81 -76q14 37 46 134.5t62 167.5t68 125q1 6 5 6t13 -9.5t9 -16.5q-163 -406 -167 -430q31 -25 76.5 -82t73.5 -89q96 -112 181 -112q39 0 78 21z" />
    <glyph glyph-name="Y" unicode="Y" horiz-adv-x="598" 
d="M289 -403q-102 0 -224 213q-31 40 -31 86q0 20 9 19q20 -2 51 -91q98 -190 184 -190q34 0 66 30q88 81 139 349q25 133 30 265q-28 -101 -87 -123q-14 -5 -27 -5q-39 0 -72 45q-56 76 -56 225q0 45 5 94q-11 -2 -54.5 -29.5t-56.5 -27.5q-16 0 -17 15q9 4 63.5 39.5
t70 35.5t18.5 -6.5t4 -12.5q3 -127 5.5 -184t24.5 -98t65 -55q45 10 72.5 46.5t38 87.5t15.5 101.5t10 104t15 80.5l20 -7q-11 -465 -94 -749q-75 -258 -187 -258z" />
    <glyph glyph-name="Z" unicode="Z" horiz-adv-x="723" 
d="M1105 -13q4 -12 6 -12q-80 -107 -217 -107q-76 0 -179 34t-188 74t-183.5 74t-172 34t-130.5 -47q-26 0 -28 10q34 32 56 44t77 32l19 8l369 285l85 94v9q-29 0 -83.5 -14.5t-81.5 -14.5q-67 0 -128 30q-13 -22 -37 -28v107q21 0 23 -11q1 -12 20.5 -25.5t45.5 -22
t45 -10t58 -1.5q114 0 166 38q15 11 37 42t44 51.5t48 20.5q16 0 19.5 -5.5t3.5 -14.5q0 -30 -221 -233q-80 -74 -91 -87q-21 -14 -256 -199l-19 -19h8q58 0 269 -103q85 -41 198 -76t204 -35q53 0 100 12q43 7 56.5 18t28.5 24.5t29 23.5zM761 641.5q0 3.5 -2.5 3.5
t-10.5 -9t-8 -10.5t3.5 -1.5t10.5 7t7 10.5z" />
    <glyph glyph-name="bracketleft" unicode="[" horiz-adv-x="619" 
d="M109 369l-4 -311q21 0 59 13.5t58 13.5h382q0 -47 -18 -47q-38 0 -115 9.5t-103 9.5h-64t-40 -1q-30 -2 -61 -9q-3 -1 -46 -19.5t-63 -18.5t-23 11l9 291l1 37q0 101 -20 172l-19 57l-18 37q0 5 18 19h2l2 1q44 0 128.5 -21t136.5 -21l100 4q1 0 19 6q40 14 60 14
q0 -63 -85 -63l-73 3q-8 0 -31 1l-23 1q-88 10 -188 28l-1 -14q0 -35 9.5 -105t10.5 -98z" />
    <glyph glyph-name="backslash" unicode="\" horiz-adv-x="345" 
d="M316 0l-9 9q-24 38 -115.5 169.5t-126.5 178.5t-52 59v10q0 19 15 19h4l29 -29l236 -322q6 -9 16.5 -16t16.5 -15t6 -29.5t-20 -33.5z" />
    <glyph glyph-name="bracketright" unicode="]" horiz-adv-x="439" 
d="M417 28q0 -28 -20 -28l-274 9q-70 5 -70 59q14 0 35.5 -10.5t34.5 -10.5h236q11 0 11 23l-59 450q3 7 3 16.5t-12 21.5q-1 0 -86.5 8t-104 10.5t-50 9.5t-32.5 10l-20 18q4 11 23.5 11t46 -8t78.5 -15.5t103.5 -7.5t80.5 2l66 -520q10 -34 10 -48z" />
    <glyph glyph-name="asciicircum" unicode="^" horiz-adv-x="298" 
d="M278 423l1 -4q0 -9 -7 -16t-16.5 -7t-14.5 11q-51 148 -57 160q0 4 -9 20t-10 18q-32 -20 -71 -109q-35 -81 -66 -81q-11 0 -15 10q6 11 35 68l32 65q2 3 23 37t24 38l5 9q15 29 20 32.5t10 8.5q8 8 19.5 8t11.5 -2q0 -55 49 -183q17 -42 18 -43l18 -38v-2z" />
    <glyph glyph-name="underscore" unicode="_" horiz-adv-x="449" 
d="M311 38l107 1q0 -6 -4 -18t-7 -12h-387v19z" />
    <glyph glyph-name="grave" unicode="`" horiz-adv-x="166" 
d="M56 538.5q-6 9.5 -15 24.5t-9 29.5t11.5 14.5t24 -17t20 -32.5t20 -31.5t15.5 -23t3 -9q0 -8 -5 -10q-7 1 -13 4t-10.5 5t-9.5 7l-8 8q-3 3 -9 10.5t-7.5 9t-7.5 11z" />
    <glyph glyph-name="a" unicode="a" 
d="M251 254q-29 -74 -29 -138q0 -106 115 -106q29 4 43.5 12t31.5 27.5t33 32.5h5q-5 -56 -38.5 -75.5t-91.5 -19.5q-125 0 -135 105q-5 -26 -45.5 -60.5t-72.5 -34.5h-5q-62 17 -62 74q0 74 77 144q60 55 117 55q32 0 57 -16zM31 76q0 -16 1.5 -25.5t10 -17.5t24.5 -8
q44 2 88.5 70.5t47.5 117.5q-16 20 -44 20q-36 0 -75 -46t-53 -111z" />
    <glyph glyph-name="b" unicode="b" horiz-adv-x="270" 
d="M279 193l-86 -9q-2 -14 -33 -90q-10 -32 -32 -59t-51 -27h-8q-29 0 -47 27t-18 69.5t9 87.5q17 191 39.5 294t43.5 130.5t53 27.5q78 -10 78 -82q0 -31 -14 -73q-36 -105 -129 -217l-35 -39q-14 -90 -14 -122t5.5 -46.5t14.5 -17.5t29 -1q39 6 62 76q15 44 15 66.5
t-5 33.5l82 -1q21 0 31 1l23 1q9 0 9 -3q0 -5 -22 -27zM157 608q-44 -13 -73.5 -126.5t-29.5 -172.5v-14q38 20 91 116t53 142q0 19 -1.5 28.5t-11 18t-28.5 8.5z" />
    <glyph glyph-name="c" unicode="c" horiz-adv-x="334" 
d="M96 35q34 0 70 10t90 28t72 18t18 -10q0 -5 -2 -11q-152 -69 -237 -69q-48 0 -74.5 22t-26.5 51.5t11 59.5q25 67 81 103q33 22 61 22q49 0 82 -57v-3l-18 -18q-21 45 -58 45q-13 0 -27 -6q-49 -17 -80 -75q-21 -39 -21 -78q10 -32 59 -32z" />
    <glyph glyph-name="d" unicode="d" horiz-adv-x="416" 
d="M3 78q20 66 43.5 106t56.5 57.5t60 22t75 4.5q3 12 10 47.5t10.5 48t10.5 38.5q12 43 24.5 65.5t15.5 28.5t4.5 8.5t4.5 5.5q4 4 13 4q31 0 31 -66v-9q0 -52 -44 -143.5t-44 -139.5q0 -107 58 -107q19 0 52 15t52 15l10 -1q-17 -26 -50.5 -41t-55 -15t-29.5 1t-15 4.5
t-11.5 5.5t-10 9.5t-8 10.5t-7.5 14t-6.5 14t-7 17t-7.5 18q-3 -3 -23 -24.5t-28 -29t-27.5 -24.5t-32.5 -24q-37 -20 -65.5 -20t-41 13.5t-15 29t-2.5 41.5zM83.5 179q-44.5 -52 -44.5 -104.5t28 -52.5q39 0 100.5 59.5t61.5 101.5q0 25 -10.5 36.5t-34.5 11.5
q-56 0 -100.5 -52zM333 466q-26 -36 -42.5 -96.5t-16.5 -101.5q0 -2 1 -9l9 9q12 12 49 142l1 12v15t-0.5 15t-0.5 14z" />
    <glyph glyph-name="e" unicode="e" horiz-adv-x="326" 
d="M0 105q-1 9 -1 17q0 64 42.5 132t109.5 68q13 0 21 -7.5t8 -25t-9.5 -41t-29 -47.5t-33.5 -39t-39.5 -39t-30.5 -29q-1 -8 -1 -9q0 -27 26 -42t54 -15q67 0 106.5 24t91.5 81q8 10 9.5 16t10.5 13q10 -4 10 -19q-10 -31 -40 -66.5t-71 -60.5q-57 -33 -96.5 -33t-76.5 27
t-61 95zM153 285q-43 0 -80 -46t-37 -88q0 -14 2 -20q37 20 76 68.5t39 85.5z" />
    <glyph glyph-name="f" unicode="f" horiz-adv-x="324" 
d="M-32 -239q0 68 7 117.5t30 134.5l143 351h7q40 0 40 -49q0 -71 -62 -177q-38 -65 -69 -87q11 -48 81 -48q88 0 174 58q9 6 15.5 14.5t11.5 12.5t16 4q0 -32 -50 -62.5t-103.5 -46.5t-86.5 -18q0 -18 9 -52.5t9 -60t-13.5 -80.5t-42 -105.5t-62.5 -50.5q-54 0 -54 145z
M-4 -228q0 -119 35 -119q26 0 53.5 85.5t27.5 129t-13 72t-55 46.5q-25 -16 -36.5 -86t-11.5 -128zM92 147v-10q27 31 47 75t20 80q0 2 -0.5 8t-0.5 7l-10 -9z" />
    <glyph glyph-name="g" unicode="g" horiz-adv-x="396" 
d="M235 213l-8 -206q0 -1 0.5 -9t0.5 -10q30 12 89 46.5t109 48.5q10 -6 10 -15q0 -2 -46 -24q-144 -70 -172 -103q-15 -154 -24.5 -200t-12 -58.5t-11.5 -36.5t-19 -35q-27 -30 -62 -30t-68.5 13.5t-48.5 34.5q-2 10 -2 33q0 74 79 170q6 5 37 30q83 67 95 79q10 17 10 66
q0 3 -0.5 19t-0.5 19q-72 -48 -120 -48q-42 2 -61 47q-8 20 -8 48.5t26 66.5q42 60 139 88q69 0 69 -34zM0 -334q0 -25 28 -40.5t57.5 -15.5t51 35.5t29.5 88.5q15 89 15 146v23q-66 -43 -123.5 -109.5t-57.5 -127.5zM38 49q0 -24 36 -24q61 2 94 48t33 80v6v10
q0 22 -10 35.5t-28 13.5q-4 1 -9 1q-45 0 -82.5 -51t-37.5 -91q0 -14 4 -28z" />
    <glyph glyph-name="h" unicode="h" horiz-adv-x="404" 
d="M401 46q-54 -39 -118 -39q-33 0 -53.5 20t-25.5 50.5t-6.5 55t-1.5 41t2 34.5q-3 11 -27.5 11t-47.5 -25t-37.5 -59.5t-28 -68.5t-25.5 -51t-20 -17t-12 2q-1 6 -1 14q0 50 35 215t69 283q2 7 11.5 30.5t20.5 34t23 10.5t19 -5v2q10 -7 16 -34t6 -43q0 -94 -49 -172
q-20 -32 -40 -60t-31.5 -53t-11.5 -37v-15q55 77 117 77q22 0 32 -5q8 -5 10 -13.5t2.5 -43t3 -59t8.5 -52t16.5 -35.5t19.5 -8t19 5q88 43 116 43q13 0 13 -8t-23 -25zM131 500q-37 -143 -37.5 -162.5t-0.5 -21.5l1 -14q47 19 67 166q6 43 6 70t-9 27t-27 -65z" />
    <glyph glyph-name="i" unicode="i" horiz-adv-x="207" 
d="M13 214l4 13q20 64 34 64q20 0 20 -15q0 -3 -1 -6q-38 -93 -38 -177q0 -38 19 -63.5t58 -25.5q98 38 123 38q8 0 8 -4q0 -12 -52 -34.5t-81.5 -22.5t-44.5 4.5t-22 8.5t-17 17.5t-13 36t-3 64.5t6 102zM118 433z" />
    <glyph glyph-name="j" unicode="j" horiz-adv-x="132" 
d="M-218 -257q0 40 24.5 81t59.5 72t70 57t59.5 44.5t24.5 25.5v103q5 80 25 80q13 0 15 -21q1 -5 0 -10l-2 -134q4 4 114 95q16 8 21.5 4t5.5 -8q0 -24 -132 -119l-9 -9q-2 0 -5.5 -38.5t-4.5 -46.5q-8 -150 -23 -217q-34 -143 -113 -143q-61 0 -95.5 59.5t-34.5 124.5z
M-198 -266q0 -42 30 -94t70 -52t65 38.5t36 95.5q19 100 19 173q0 6 -1 44.5t-1 46.5q-69 -37 -139 -100q-79 -71 -79 -152zM85 426z" />
    <glyph glyph-name="k" unicode="k" horiz-adv-x="375" 
d="M3 -6l57 309l67 282q25 20 41 20q24 0 24 -49q0 -99 -76 -293q-28 -71 -55 -123q8 8 32.5 35t36 38t35 31.5t41.5 29.5q45 25 91 27q34 -11 34 -36.5t-48.5 -73t-107.5 -79.5q26 -37 71 -61.5t88 -24.5t57 19q2 0 5.5 -3.5t3.5 -5.5q0 -20 -21 -34t-30.5 -14t-12.5 1
q-39 3 -83.5 30t-84 51.5t-65 24.5t-33.5 -2q-7 -11 -14.5 -39t-18.5 -44t-34 -16zM108 149q17 -9 44 -9t68 28q62 44 71 101q-72 0 -183 -120zM146 546l-76 -311q4 9 16 31.5t16 31t13 28t13.5 33.5t11.5 36q12 39 25 104q0 49 -13 49q-3 0 -6 -2z" />
    <glyph glyph-name="l" unicode="l" horiz-adv-x="233" 
d="M4 116q4 112 64 272t101 174q12 0 17 -23t5 -38q0 -54 -23 -127.5t-54 -118.5q-12 -20 -32.5 -42t-31 -40.5t-10.5 -46.5q0 -50 27.5 -82t77.5 -32q83 0 105 57h11q0 -39 -39 -62t-88 -23t-84 37.5t-46 94.5zM165 495q-8 -9 -26.5 -42t-21.5 -43q-67 -175 -67 -189
q42 29 78 121.5t37 152.5z" />
    <glyph glyph-name="m" unicode="m" horiz-adv-x="706" 
d="M732 67q1 -4 1 -6q0 -24 -64.5 -43t-97.5 -19q-124 0 -124 117q0 31 15 89t15 88q-63 -20 -131 -106.5t-107 -174.5q-6 -6 -16 -9t-14.5 1.5t-4.5 13t8 29.5l62 208q-5 8 -13 8q-26 0 -91 -79q-17 -20 -74 -94q-71 -90 -92 -90q-2 0 -6 3.5t-3 5.5l72 188l46 131q5 2 9 2
q15 0 15 -17t-4 -34.5t-34 -98.5l151 122q19 11 31 11q21 0 21 -33q0 -19 -11.5 -70t-12.5 -59q18 15 75 77q99 107 139 107q14 0 24 -9q0 -33 -20 -98t-20 -108q0 -92 104 -92q56 0 152 39z" />
    <glyph glyph-name="n" unicode="n" horiz-adv-x="431" 
d="M228 104q0 18 0.5 62.5t0.5 76.5q-28 -6 -81.5 -72t-58.5 -69q-39 -52 -61 -74q-9 -12 -29 -12v22l43 139q0 73 25 108q7 10 13 10q10 0 10 -33.5t-10 -74t-10 -67.5q8 8 48 56t48 56q7 4 24 20q36 32 63 32q15 0 19 -10q1 -11 1 -35.5t-8 -77t-9 -83.5q0 -47 39 -47
q28 0 54 15.5t42 35t37 45t37 37.5v-10q0 -48 -62 -99.5t-113 -51.5h-33q-15 10 -19.5 19l-6.5 13t-2.5 12.5t-0.5 12.5v44z" />
    <glyph glyph-name="o" unicode="o" horiz-adv-x="384" 
d="M281 283l2 -38q0 -21 -2.5 -32.5t-3.5 -17.5t-5 -15.5t-5 -13.5t-7 -15t-7.5 -14t-9 -16.5t-9.5 -17.5h20q58 0 170 56l8 -9q-96 -77 -226 -84l-88 -54q-12 -10 -52.5 -10t-52 22.5t-11.5 70.5t40.5 109t93.5 61q24 0 31 -20q-56 -17 -96 -59t-40 -97q0 -19 2 -30t11 -20
t35 -9q54 0 88 45q-10 17 -10 55.5t6.5 73t26.5 66.5t50 32t41 -19zM255 236l1 13q0 20 -12 24q-26 -15 -42 -54t-16 -72t10 -35q28 16 43.5 52t15.5 70v2z" />
    <glyph glyph-name="p" unicode="p" horiz-adv-x="373" 
d="M85 -53l-18 -141q-4 -10 -15 -49t-12 -52q-23 -76 -57 -81l-5 1q-2 0 -10.5 6t-10 8.5t-5.5 21.5t-8.5 36.5t-4.5 48.5t4.5 55.5t16 56.5t21 53t26 56t22.5 49t6 31l-6 79q0 61 24 125q3 1 5 1q21 0 21 -45q0 -20 -7 -44q32 52 78.5 87.5t94.5 47.5q52 -7 52 -65
q0 -13 -3 -30q-12 -73 -63 -138q-31 -39 -56 -43q-1 -1 -1 -4t10.5 -3t51.5 16q95 37 140 75q11 9 14 15q1 14 6 13t5 -7.5t-2 -15.5q-15 -53 -111 -96q-66 -29 -166 -49q-3 -1 -10 -3q-19 -5 -19 -6zM56 -4q-49 -62 -70.5 -126.5t-21.5 -101t3 -50t4 -20t2.5 -10t3.5 -8.5
q4 -11 13 -15q38 70 50.5 147t15.5 184zM236 257q-7 0 -16 -2q-59 -16 -100 -99q-32 -63 -32 -117q0 -19 4 -36q46 4 105 86q63 87 63 140q0 28 -24 28z" />
    <glyph glyph-name="q" unicode="q" horiz-adv-x="391" 
d="M253 -25q13 -68 13 -110.5t-4.5 -84.5t-31 -80.5t-72.5 -53.5q-43 0 -43 95l11 166l-1 43q-21 9 -39.5 26t-18.5 32q0 3 2 8t18 27q-11 -5 -25.5 -5t-36.5 17q-26 21 -26 52.5t14 51.5q36 45 94.5 74t113.5 29q12 0 19.5 -8t7.5 -19t-2.5 -15.5t-7.5 -13t-8 -19.5
t-27.5 -85t-27.5 -87q30 -4 35 -6q7 -2 35 -2q154 133 174 133q3 0 3 -3q0 -15 -62 -74t-107 -88zM166 -23q-25 -191 -25 -227t2.5 -47t17.5 -21q68 0 68 169q0 115 -9 121zM130 16q-15 0 -15 -14t20 -14q10 0 10 14t-15 14zM163 82l-52 -35h42q3 0 6.5 13t3.5 22zM30 89v-3
q0 -14 29 -14q61 0 97.5 40.5t36.5 103.5q-23 0 -58 -30q-16 -13 -56 -49q-49 -44 -49 -48zM31 129l56 57q-17 -4 -37 -21t-20 -32v-3z" />
    <glyph glyph-name="r" unicode="r" horiz-adv-x="381" 
d="M264 64q1 -23 35 -23q20 0 45 8t48.5 10t23.5 -12q-42 -28 -116 -33q-4 -1 -8 -1q-28 0 -43.5 13.5t-15.5 29.5t2 27q0 22 9.5 64t9.5 63q-18 0 -61.5 -7.5t-62.5 -13.5q-25 -125 -87 -166q-18 -12 -27.5 -12t-14 4.5t-4.5 11t9 17.5q31 -2 46 30q15 30 24.5 64.5
t15.5 50.5q-47 19 -47 48q0 53 46 72q16 6 32 6t29.5 -11t13.5 -31t-26 -55q3 0 36 8q91 24 110 24q0 -31 -11 -93.5t-11 -92.5zM114 288q-19 0 -32 -41q0 -18 29 -29q21 21 21 41q0 8 -4.5 18.5t-13.5 10.5z" />
    <glyph glyph-name="s" unicode="s" horiz-adv-x="443" 
d="M67 103h10q13 9 51.5 40.5t43 35t57.5 56.5q4 5 12 21q17 36 40 36q14 0 14 -14.5t-10 -32.5t-10 -28v-187q82 0 112 32q12 12 33.5 36t44.5 42v-10q0 -35 -43 -71.5t-90 -53.5t-65 -17t-25 1q-27 0 -51 9.5t-55.5 28.5t-50.5 28q-42 -28 -68.5 -28t-26.5 11q0 5 9.5 15
t40.5 21l-19 29q-5 4 1 6.5t9 2.5l17 -4q18 -5 19 -5zM124 84q11 -22 52 -37t74 -15q0 87 -12 156q-22 -13 -28 -18.5t-42 -42.5t-44 -43z" />
    <glyph glyph-name="t" unicode="t" horiz-adv-x="251" 
d="M17 212l-12 -3q-3 -3 -17 -5t-27 0t-12 10q-2 29 37 26q41 -3 48 26l47 179l19 19q10 -3 10 -18l-1 -10l-47 -189v-5q8 -3 24 -3t57 11.5t47 11.5q0 -55 -74 -55q-23 0 -52 5q-22 -50 -22 -91.5t22 -76t68 -34.5q47 7 72.5 22.5t37.5 22t24 6.5t26 -3q-28 -50 -162 -66
h-5q-69 0 -93 51q-18 37 -18 85.5t3 83.5z" />
    <glyph glyph-name="u" unicode="u" horiz-adv-x="379" 
d="M245 247q-13 -66 -13 -110t6.5 -64.5t22 -31.5t27 -12t28.5 0q72 35 86.5 35t14.5 -5q0 -7 -29 -24t-72 -25q-110 0 -110 100q0 11 1 23q-6 -11 -16.5 -33.5t-16.5 -34.5t-18 -28.5t-24 -24.5q-33 -21 -77 -21q-19 2 -31 9q-20 11 -20 47q0 64 81 213q6 -12 6 -26.5
t-9.5 -40t-30 -70.5t-23.5 -80q0 -21 14 -23h20q37 0 75.5 44.5t60.5 97t22 83.5l11 12q14 0 14 -10z" />
    <glyph glyph-name="v" unicode="v" horiz-adv-x="256" 
d="M20 279q1 1 3 7t4.5 10t6.5 4t4 -1l47 -256l9 9q35 53 54 104q16 47 19 59t10.5 18.5t10.5 7.5t10.5 -3.5t9.5 -5t66 -22.5v-10q0 -4 -80 7l-81 -193q-8 -19 -33 -19q-12 0 -13 1q-1 13 -47 283z" />
    <glyph glyph-name="w" unicode="w" horiz-adv-x="386" 
d="M13 182q0 55 4 127q10 0 17.5 -7.5t6.5 -22.5t-1 -85t2 -89q4 -58 23 -58q10 0 25 16q36 40 66 127q11 34 11 43.5v11.5h24q2 -11 7 -61q14 -119 31 -138q23 5 33 64.5t10 96.5l19 20q8 -26 11.5 -35t11.5 -19t18.5 -12t29.5 -2q37 24 44.5 24t7.5 -3q0 -14 -24.5 -31.5
t-30.5 -17.5h-7q-37 0 -51 10q-1 -4 -5 -24t-9 -35.5t-13 -33.5q-17 -40 -50 -40q-14 0 -24 21q-13 25 -23 62.5t-10 39.5q-71 -128 -109 -128q-45 0 -45 179z" />
    <glyph glyph-name="x" unicode="x" horiz-adv-x="303" 
d="M347 91q-11 -57 -57 -57q-39 0 -86 18.5t-55 21.5q-19 -22 -43.5 -73t-41 -73t-27.5 -22t-19 5l107 197l-86 202q10 11 18.5 11t19 -19.5t29.5 -74t42 -78.5q11 13 42 65q34 57 38 61.5t8 8t9 6.5q12 7 20 -7l-97 -181q38 -29 98 -39q19 -3 22 -3.5l3 -0.5q11 0 27 16
t29 16z" />
    <glyph glyph-name="y" unicode="y" horiz-adv-x="316" 
d="M49 266q12 0 11 -24.5t-11 -90t-10 -77.5v-28q0 -12 1.5 -13t3.5 -5t5.5 -3t8 -1.5t11.5 0.5q40 0 63 34q13 18 21.5 32t17 42.5t12 39t9.5 40.5l7 30q5 3 12.5 3t16.5 -12v-4q0 -34 -14.5 -104.5t-14.5 -118.5q11 8 61.5 39t57 36.5t14.5 13.5t8 4q0 -6 -26 -50
q-5 -5 -48.5 -42.5t-47.5 -41.5q-32 -69 -44 -221q-4 -50 -16 -96q-23 -87 -112 -87q-11 0 -27.5 0.5t-27.5 14t-11 34.5q0 81 56 188t125 179q9 20 9 52t1 43q-59 -77 -114 -77h-2q-44 0 -44 100q0 8 1 42.5t19 119.5q1 2 8 5.5t10 3.5zM68.5 -196.5
q-58.5 -118.5 -58.5 -166t33 -47.5h12.5t27.5 11t28.5 34t19 48t12.5 61t8 62t5.5 62.5t4.5 52.5q-1 0 -2 1h-2q-30 0 -88.5 -118.5z" />
    <glyph glyph-name="z" unicode="z" horiz-adv-x="495" 
d="M294 139l-2 -45q20 -17 35 -51.5t20 -42.5q132 94 190 94q2 0 5.5 -4t3.5 -5l-9 -9q-44 -17 -70.5 -29t-61 -35t-58.5 -51q0 -45 -32 -124t-85 -128q-27 -25 -52 -25t-48 23q0 15 5 26.5t7.5 17.5t8.5 14.5t9 12.5q15 17 17.5 21t57 72t65 80.5t10.5 27.5q0 78 -37 78
q-15 0 -43 -20t-44.5 -20t-21.5 1q-16 1 -16 18.5t18 25.5t40 12t40 24.5t18 60.5t-33 40q-37 0 -72 -29.5t-79 -90.5t-54 -72l-20 9q16 18 44 61.5t48.5 70.5t58 48.5t79.5 21.5h15t23 -8q20 -15 20 -71zM301 -86q-36 -25 -85.5 -93.5t-49.5 -109.5q0 -12 2 -14
q50 2 91.5 77t41.5 126v14zM187 38q4 -1 8.5 -1t20.5 10h-5q-8 0 -24 -9z" />
    <glyph glyph-name="braceleft" unicode="{" horiz-adv-x="256" 
d="M308 -33l-1 -6q-5 -13 -13.5 -22.5t-29.5 -30.5t-23 -21h-132q-32 0 -53 25q-34 42 -34 113q0 69 44 129q19 25 37.5 47.5t31.5 46.5t13 46t-15.5 33t-33.5 12.5t-33.5 4t-15.5 10.5q0 15 19.5 28t39 29t19.5 38.5t-15 47t-33 42.5t-33 47t-15 61q0 53 44.5 86t98.5 33
q69 0 69 -41q-14 0 -35.5 6.5t-34.5 6.5q-60 0 -94 -48l-1 -43q0 -30 15 -56.5t33 -42t33 -38.5t15 -49.5t-37 -82.5q3 -3 13 -10t13 -9.5t9.5 -8.5t9 -10t5.5 -11q6 -11 6 -37t-19.5 -59.5t-42.5 -58.5t-42.5 -63t-19.5 -89q0 -99 123 -99q44 0 60.5 7.5t53.5 40.5v-3
q0 -1 1 -1z" />
    <glyph glyph-name="bar" unicode="|" horiz-adv-x="94" 
d="M71 737l1 -123q0 -85 -5.5 -262t-5.5 -242v-90q-14 -13 -39 -13q0 393 11 730q12 9 22.5 9t15.5 -9z" />
    <glyph glyph-name="braceright" unicode="}" horiz-adv-x="359" 
d="M146 350l10 28q-2 5 -20.5 17.5t-18.5 30.5t10 37q114 105 114 170q0 54 -27.5 84.5t-77.5 30.5q-27 0 -27 -2q-13 -4 -44.5 -21t-40.5 -26h-14q0 27 48.5 56t78.5 29q142 0 142 -144q0 -41 -21.5 -72.5t-51.5 -63t-41 -59.5q-2 -8 4 -24h69q-5 -21 -9.5 -29t-15 -17.5
t-15.5 -18t-5 -27.5t15 -35.5t36 -32t42 -35t36 -53.5t15 -79q0 -77 -57.5 -151.5t-133.5 -74.5q-46 0 -71 29.5t-25 78.5q0 2 0.5 12.5t0.5 11.5q16 -10 29.5 -34.5t28.5 -42.5t41 -18q64 0 102 67t38 135q0 36 -22.5 66t-49.5 47.5t-49.5 45t-22.5 60.5v24z" />
    <glyph glyph-name="asciitilde" unicode="~" horiz-adv-x="378" 
d="M172 534q-41 26 -63.5 26t-56.5 -39h-11v6q0 37 21.5 50.5t33.5 13.5t20 -3q23 0 61 -22t63 -22h20t16 0.5t10.5 2t8.5 4t8 6.5t5 9q5 8 5 34.5t-7.5 38.5t-29.5 12q0 16 22.5 16t33.5 -19t11 -46q0 -54 -27.5 -74t-75.5 -20q-27 0 -68 26z" />
    <glyph glyph-name="nbspace" unicode="&#xa0;" horiz-adv-x="461" 
 />
    <glyph glyph-name="exclamdown" unicode="&#xa1;" horiz-adv-x="113" 
d="M75 408q0 11 16 11t16 -30q-11 0 -21.5 5.5t-10.5 13.5zM35 19l2 41q1 9 3.5 107t7.5 112q4 7 16 7t12 -17v-12q-1 -14 -1.5 -53.5t-1.5 -70.5q-4 -118 -28 -118q-5 0 -10 4z" />
    <glyph glyph-name="cent" unicode="&#xa2;" horiz-adv-x="334" 
d="M183 49q19 6 72.5 24t72 18t18.5 -11q0 -4 -2 -10q-90 -40 -160 -58v-54q-12 -12 -39 -12v59q-21 -3 -40 -3q-80 0 -95 58q-4 13 -4 26q0 44 40 101.5t95 68.5q0 11 2 51q14 9 23.5 9t14.5 -9v-51q39 -13 60 -54v-3l-18 -18q-17 34 -41 41v-158q0 -8 1 -15zM144 40
l-6 155q0 23 2 26q-41 -13 -72 -57.5t-31 -96.5q11 -33 60 -33q20 0 47 6z" />
    <glyph glyph-name="sterling" unicode="&#xa3;" horiz-adv-x="717" 
d="M138 316l15 -1q16 0 70 -12.5t77 -19.5q9 90 39 150t69 83q43 24 87 24q85 0 146 -64q20 -35 20 -40t-2.5 -5t-45.5 28q-75 48 -130 48q-123 0 -160 -233q143 0 176 -29q13 -13 -7 -18q-4 -2 -10 -2l-168 22q-2 0 -24 -62t-29 -73q87 -2 164.5 -19.5t117.5 -36.5
q77 -35 94 -35t23 5q14 9 20 47l18 12q-1 -51 -8 -76q-10 -31 -39 -31q-18 0 -73.5 22.5t-98.5 37.5q-97 35 -219 35h-22q-45 -9 -90 -21.5t-66 -16t-31 -1.5q-26 5 -31.5 27.5t-5.5 45.5q0 45 41 60q23 9 47.5 9t49.5 -7q54 -14 86 -44q8 10 27 66t25 66l-158 35
q-7 -1 -7 11.5t13 12.5zM115 149q-78 0 -78 -53v-7q7 -19 25 -19t39 8q57 23 111 23q9 0 18 -1q-13 25 -51 37t-64 12z" />
    <glyph glyph-name="currency" unicode="&#xa4;" horiz-adv-x="479" 
d="M427 82q0 -14 -11 -14t-23.5 15.5t-20 31t-19.5 32t-14 19.5q-45 -52 -109 -52q-3 -1 -6 -1q-17 0 -45 19h-3q-5 -11 -19 -27t-24 -31q-18 -25 -24.5 -25t-6.5 4q0 21 15 49.5t32 47.5q-43 43 -38 110q2 63 25 96q-31 12 -63 52q-19 21 -19 31.5t14 10.5t29 -14t20 -22.5
t11.5 -13.5t15.5 -10t13 -8q2 1 14 8.5t15.5 9t14 7t17.5 7.5q23 5 35 5q62 0 94 -28q17 14 28 35q24 44 47 44q10 0 10 -11q0 -23 -24 -51q-7 -8 -10 -12t-9 -10q-11 -9 -24 -15q20 -32 20 -88t-32 -99q22 -11 32 -24.5t11.5 -15t7.5 -11t14.5 -23.5t8.5 -28zM168 353
q-35 -32 -35 -90t33.5 -86.5t72 -28.5t78 29.5t39.5 68.5q4 20 4 37.5t-2.5 29.5t-9 23t-11.5 17.5t-16 12.5t-16.5 8.5t-17.5 5.5t-14.5 3t-12.5 2q-57 0 -92 -32z" />
    <glyph glyph-name="yen" unicode="&#xa5;" horiz-adv-x="514" 
d="M187 292q0 14 23 14h29q31 0 50 -1l3 37l-179 319h-4l-6 1q-17 0 -47.5 -6t-48.5 -6q0 14 13 20q7 6 52 21t51 18h5q10 0 13 -15q1 -3 1 -4l182 -290q3 3 12 24q43 99 125 285q2 9 1 21q-5 33 14 42h2l3 1q14 0 14 -13v-6q-2 -20 -55 -167t-84 -222l-10 -28l-2 -35
q79 -5 92 -26l-9 -8h-85l-2 -34h14q53 0 71 -11q-9 -16 -86 -23l-10 -207q-7 -25 -13 -25q-8 0 -16.5 58.5t-12.5 169.5q-34 -2 -48 -2h-26q-19 0 -19 21q0 15 10 18l12 1h32h38v17q0 12 1 17h-71q-7 0 -18 8t-11 16z" />
    <glyph glyph-name="brokenbar" unicode="&#xa6;" horiz-adv-x="98" 
d="M77 368q-8 -276 -8 -301.5t1 -88.5q-13 -11 -39 -11q0 264 3 399zM75 712l1 -74v-114q0 -19 -2 -89l-51 -4q0 2 14 306q10 9 21.5 9t16.5 -9v-25z" />
    <glyph glyph-name="section" unicode="&#xa7;" horiz-adv-x="423" 
d="M149 43q0 -35 41 -35t92.5 38t51.5 74q0 13 -6 23q-231 24 -231 110q0 37 49 73q-96 43 -96 99q0 61 84 102q48 24 80 24q112 0 112 -100v-7l-3 -5q-20 -5 -24 -5q1 9 1 16q0 41 -35 58q-21 11 -45.5 11t-53.5 -11q-56 -20 -86 -68q-2 -7 -2 -13q0 -22 25.5 -40.5
t80.5 -37.5q50 23 91 23t69.5 -25.5t28.5 -79.5v-7q8 -9 8 -26.5t-26 -54.5q16 -19 16 -47t-33 -68q-46 -57 -113 -81q-25 -9 -44 -9q-34 0 -46 29q-5 13 -5 29.5t3 34.5q4 5 13.5 9t10.5 6q-8 -23 -8 -39zM148 230q77 -38 129 -38q26 0 46 10q29 18 29 47q0 11 -4 23
q-13 47 -64 62q-14 4 -29 4q-36 0 -71 -27q-34 -18 -55 -51q6 -17 17 -31q2 2 2 1z" />
    <glyph glyph-name="dieresis" unicode="&#xa8;" horiz-adv-x="303" 
d="M78 601q7 0 18 -10.5t11 -19.5q-6 -23 -22 -23q-4 0 -8 2q-21 7 -21 25t22 26zM202 601q7 0 17.5 -10.5t10.5 -19.5q-6 -23 -21 -23q-4 0 -9 2q-20 7 -20 25t22 26z" />
    <glyph glyph-name="copyright" unicode="&#xa9;" horiz-adv-x="523" 
d="M226 -1q-82 0 -140.5 56.5t-58.5 124.5q0 9 1 18q0 100 65.5 159.5t161 59.5t162 -49.5t66.5 -123.5q0 -104 -75.5 -174.5t-181.5 -70.5zM193 98q-54 0 -79 33q-17 23 -17 53t14 65q28 68 81 95q23 11 45 11q47 0 88 -54v-3q-1 -2 -9 -10l-9 -9q-20 45 -58.5 45
t-75.5 -38q-52 -53 -52 -121q11 -23 47.5 -23t76.5 10.5t161 52.5q37 13 50 14q1 12 1 23q0 78 -72 114q-35 17 -119 30q-91 0 -156.5 -52t-65.5 -131.5t62.5 -129.5t133.5 -50q50 0 129.5 57.5t82.5 112.5q-166 -95 -259 -95z" />
    <glyph glyph-name="ordfeminine" unicode="&#xaa;" horiz-adv-x="259" 
d="M154 386q-17 -39 -17 -65t12 -47.5t47 -21.5q15 2 22.5 7t15.5 15.5t16 17.5h3q-3 -30 -20 -41t-45 -11q-63 0 -67 57q-3 -14 -22.5 -33t-35.5 -19h-3q-31 10 -31 40q0 11 4 26q15 45 55 71q21 13 37 13t29 -9zM44 289q0 -28 18 -28q22 0 43.5 37.5t24.5 65.5
q-6 13 -16 13t-21 -7q-36 -23 -49 -81z" />
    <glyph glyph-name="guillemotleft" unicode="&#xab;" horiz-adv-x="492" 
d="M110 250l171 -198q1 -2 -2 -8.5t-6 -9.5h-7q-18 0 -31 33q-75 89 -108 122t-69 61v3q0 6 8 9q116 50 215 115q9 6 14 5q18 -1 20.5 -8.5t-6.5 -16.5q-119 -74 -199 -107zM252 243l171 -197q1 -2 -2 -8.5t-6 -9.5h-6q-13 0 -18 6.5t-9 15.5l-5 10q-8 12 -62 71t-56 62
q-5 3 -29.5 24t-29.5 26v3q0 7 7 10q116 50 216 115q7 6 12.5 5.5t7.5 -0.5h1q15 -11 15 -13t-3 -6.5t-5 -5.5q-101 -67 -199 -108z" />
    <glyph glyph-name="logicalnot" unicode="&#xac;" horiz-adv-x="406" 
d="M46.5 346q6.5 2 10 2.5t11.5 0t17 0.5t112 5t114.5 5.5t18.5 1.5h2q16 0 16.5 -3t1 -4.5t0.5 -3.5v-4q2 -5 14 -100q11 -97 15 -101v-1q0 -7 -16.5 -7t-16.5 8l-25 177l-271 -11q-10 -1 -10 16t6.5 19z" />
    <glyph glyph-name="uni00AD" unicode="&#xad;" horiz-adv-x="337" 
d="M51 210l1 10q5 16 15 16q3 0 13 -3t15 -4q148 -42 186 -45l5 -2q12 -4 12 -14q0 -22 -20 -22q-3 0 -6 1l-214 53q-7 2 -7 10z" />
    <glyph glyph-name="registered" unicode="&#xae;" horiz-adv-x="499" 
d="M226 -1q-82 0 -140.5 56.5t-58.5 124.5q0 9 1 18q0 105 66.5 181t163.5 76t161 -57.5t64 -151t-64 -166t-193 -81.5zM338 397q31 0 31 -41q0 -30 -26 -69t-65 -39h-6q11 -10 24.5 -42t28 -56t30.5 -24t42.5 6.5t38.5 14.5q19 38 19 80q0 55 -22 102t-62 71t-86 24
q-8 0 -15 -1q-87 0 -152.5 -67t-65.5 -158q0 -72 57.5 -118.5t128.5 -46.5q133 0 188 94q-17 -15 -42.5 -28.5t-32 -13.5h-9.5q-18 0 -32.5 23t-23 53.5t-25.5 56.5t-41 26q-6 -121 -20 -146q-7 -11 -8.5 -13t-11 -5t-10.5 -3.5t-2 -0.5q-36 0 -36 44q0 40 26 104t47 104
q-2 19 -5 18l-8 -9q-3 -3 -11 -5l-3 23l14 10q14 10 18 10t6.5 -3.5t4.5 -9.5l2.5 -7.5t2.5 -17.5t2 -19q2 7 31 34t47 36t32 9zM329 371q-10 0 -26.5 -14t-35 -26.5t-27 -19t-15.5 -19t-5 -26.5q9 -3 18 -3q32 0 65 39t33 54t-7 15zM202 251q-16 -19 -29 -69t-13 -79
q2 -9 5 -9q6 0 21.5 49t15.5 102v6z" />
    <glyph glyph-name="degree" unicode="&#xb0;" horiz-adv-x="135" 
d="M106.5 313q-15.5 -12 -37 -12t-35 11.5t-13 30.5t15 30.5t39.5 11.5q46 0 46 -39q0 -21 -15.5 -33zM34 339q0 -27 38 -27q12 0 24.5 7t12.5 19l1 13q0 9 -5 13q-9 6 -13 7t-6 1q-4 2 -9 2q-43 0 -43 -35z" />
    <glyph glyph-name="plusminus" unicode="&#xb1;" horiz-adv-x="392" 
d="M212 132l138 6h6q15 0 15 -19q0 -10 -4 -14t-17 -5l-303 -10h-1q-10 0 -10 12.5t2 17t6.5 6t8 2t11 0t23 1t66.5 1.5h21v137l-128 -3q-20 1 -29 9t-9 28h157l-7 137q0 16 22 16t22 -20v-122l24 -2q132 18 141 20q7 9 7 -2q0 -14 -38 -34t-130 -22v-140h6z" />
    <glyph glyph-name="twosuperior" unicode="&#xb2;" horiz-adv-x="282" 
d="M354 301l-11 -54q-10 -25 -26 -33t-24.5 -8t-17 1.5t-27.5 16.5t-27.5 17t-24.5 -10t-24 -10q15 49 36.5 76t31.5 39q18 20 60 62q14 14 22 37.5t8 37t-14.5 16.5t-28.5 -12t-24.5 -31.5t-16.5 -15.5t-3 15q15 35 38 55.5t43 20.5h4q20 -6 20 -28.5t-11 -51.5
q-11 -40 -37.5 -69t-51 -52t-30.5 -48q12 -3 35 -17t36 -17q8 -5 20 -2t17 22q6 13 0.5 31t-3 24.5t4 9.5t4.5 1l21 -19q1 -1 1 -4z" />
    <glyph glyph-name="threesuperior" unicode="&#xb3;" horiz-adv-x="237" 
d="M305 453v-4q23 -30 23 -64q0 -13 -3 -26q-12 -54 -44.5 -75.5t-59.5 -21.5q-8 0 -16 2q-17 7 -25.5 22.5t-8.5 27.5q0 44 35 70q7 -3 4.5 -10t-10.5 -18q-11 -17 -11 -30t7.5 -26.5t16 -14t13.5 -0.5l44 15q27 17 39 58q4 12 4 24t-8 29q-10 24 -39 23q-9 -1 -15 0
q-7 2 -4 10q2 9 17 13.5t32 12.5t22 26q0 6 -2 6t-13 3.5t-17 5.5t-24.5 -0.5t-24.5 -1.5q-8 4 -2 23q2 5 13 5l37 -5q5 -2 25.5 -7t24.5 -6q1 2 5 3q7 2 7 -4t-13 -27t-20.5 -28.5t-7.5 -8.5z" />
    <glyph glyph-name="acute" unicode="&#xb4;" horiz-adv-x="166" 
d="M43 481q-5 2 -5 7.5t3.5 12t18 25t21.5 35.5q26 53 53 53q11 0 11 -16.5t-18.5 -45.5t-36.5 -46.5t-47 -24.5z" />
    <glyph glyph-name="mu" unicode="&#xb5;" horiz-adv-x="379" 
d="M270 366q4 0 8 -1q44 -122 44 -190q0 -33 -12 -50.5t-25 -21.5t-30 -3.5t-32.5 4t-26.5 7.5t-22 14t-17.5 16.5t-15 21.5t-12 22t-12 25t-11.5 24q9 -110 9 -176.5t-6 -83.5t-9 -17q-5 0 -11 26q-20 85 -20 303v54q5 12 12.5 12t16 -16t24.5 -48q49 -107 87 -139
q27 -23 42 -23t20 1q12 2 12 22q-30 147 -30 182t17 35z" />
    <glyph glyph-name="paragraph" unicode="&#xb6;" 
d="M340 66q0 59 -8 175.5t-8 176.5q-33 -13 -62 -14q3 -30 12.5 -170.5t14.5 -166.5v-28q0 -17 -12 -36.5t-16.5 -19.5t-5.5 15l-24 276l-9 9q-22 -11 -27 -13t-13.5 -5.5t-12 -4t-10.5 -2.5q-12 -2 -27 -2q-119 0 -119 111q0 57 31.5 91t88 34t100.5 -38q21 0 58.5 7.5
t58.5 7.5t24 -10v-12l1 -17q1 -5 1 -16v-13q0 -54 6 -160t6 -177t-16.5 -71t-30.5 52q-5 19 -1 21z" />
    <glyph glyph-name="periodcentered" unicode="&#xb7;" horiz-adv-x="123" 
d="M68 275q8 0 18.5 -10t10.5 -19q-8 -24 -22 -24q-5 0 -10 3q-18 7 -18 25t21 25z" />
    <glyph glyph-name="cedilla" unicode="&#xb8;" horiz-adv-x="388" 
d="M141 -50l58 5q46 0 75.5 -26.5t29.5 -74t-46 -77.5t-96 -30h-32q-31 16 -31 57t33 41q15 0 15 -8v-1q0 -1 -1 -2l-26 -27q-1 -1 -1 -9.5t12 -18.5t26 -10q43 0 82 23t39 63q0 77 -87 77l-66 -10h-11q0 19 -6.5 42.5t-6.5 36.5t6.5 16.5t9.5 3.5q8 0 12.5 -12.5t4.5 -25.5
t-4 -29q0 -4 4 -4h7z" />
    <glyph glyph-name="onesuperior" unicode="&#xb9;" horiz-adv-x="119" 
d="M219 508h2q3 -1 3 -15q-39 -114 -61 -201q-3 -2 -9 -5t-8 -5q-2 3 -2 14l45 141q2 3 5.5 18t3.5 18l-36 -10h-5q7 19 31.5 30.5t30.5 14.5z" />
    <glyph glyph-name="ordmasculine" unicode="&#xba;" horiz-adv-x="268" 
d="M215 623l2 -30q0 -31 -7 -53t-26 -59h14q36 0 112 44l5 -7q-63 -61 -149 -66l-58 -43q-7 -7 -34.5 -7t-35 17.5t-7.5 55.5t27 85.5t62 47.5q16 0 20 -15q-37 -15 -63.5 -47.5t-26.5 -77t26 -44.5q43 0 64 35q-6 12 -6 52t12.5 83.5t40.5 43.5q21 0 28 -15zM163 572
q-10 -29 -10 -55.5t6 -28.5q19 13 29 40.5t10 56t-7 30.5q-18 -14 -28 -43z" />
    <glyph glyph-name="guillemotright" unicode="&#xbb;" horiz-adv-x="508" 
d="M66 76l172 192q-91 37 -201 106q-2 1 -5 5t-3 7t15 12h1l2 1q7 0 19 -7q99 -62 217 -112q9 -3 9 -9v-3q-6 -4 -31.5 -25t-29.5 -24q-8 -10 -59.5 -65.5t-56 -61.5t-8.5 -13t-7 -11q-6 -11 -20 -11h-6q-11 9 -8 19zM211 418h3q11 0 18 -6q111 -69 219 -112q7 -3 7 -9v-4
q-50 -39 -60 -49q-66 -70 -120 -130q0 -1 -2 -4.5t-2.5 -5t-2.5 -5t-3.5 -5.5t-4 -4.5t-4.5 -3.5q-5 -4 -12 -4h-7q-3 3 -6 10t-2 8l174 193q-92 36 -203 106q-8 8 -8 11.5t16 13.5z" />
    <glyph glyph-name="onequarter" unicode="&#xbc;" horiz-adv-x="634" 
d="M289 554h2q5 -1 5 -21q-56 -162 -87 -276q-3 -3 -12 -8t-11 -7q-3 4 -3 21l64 194q2 3 7 24.5t5 24.5l-51 -14h-7q10 27 57 46q22 10 31 16zM552 559q11 0 11 -11q0 -3 -0.5 -7t-9.5 -16t-13 -15q-210 -192 -352 -407q0 -2 -1 -2q-10 -3 -15.5 3.5t-6.5 15.5l9 17
q59 85 358 419l3 1l6 1zM473 167q2 0 13 -2l4 3q0 6 6 18q16 53 18 69q7 7 9 7h1q7 -7 4 -10l-19 -79q-1 -9 4.5 -10.5t12.5 7t10 17.5q6 -2 6 -8t-3 -13q-6 -22 -36 -22q-7 -14 -7 -21q-11 -25 -24 -95q3 -1 0 -11q-5 -12 -14 -12h-1q-6 0 -6 6l31 133q0 1 -11 4
q-15 5 -49 18q-14 3 -22.5 3t-19.5 -4q-2 1 -2 4t0.5 6.5t40 47t43.5 43.5q8 -2 5 -9q-4 -7 -7 -7l-44 -57l-1 -5z" />
    <glyph glyph-name="onehalf" unicode="&#xbd;" horiz-adv-x="604" 
d="M215 473l-48 -15h-7q10 29 53 49q21 10 30 17l1 -1q0 1 2.5 0.5t2.5 -21.5q-61 -206 -81 -291q-3 -4 -11.5 -9t-10.5 -7q-3 7 -3 22l61 204zM534 518q14 0 10 -17q0 -5 -9 -17t-13 -15q-210 -192 -352 -407q0 -2 -1 -2q-10 -3 -15.5 3.5t-6.5 15.5l9 17q59 85 358 419
l3 1l6 1zM576 104l-9 -61q-15 -43 -47 -43q-4 0 -11 1.5t-22.5 17.5t-23.5 18.5t-22 -10.5t-20 -12q13 52 32.5 82t25.5 38.5t28 36t29 35.5t12.5 32.5t5.5 39.5t-11.5 17.5t-23.5 -13t-21 -33t-13 -16.5q-6 2 -3 15q10 37 31 58.5t38 21.5h3q16 -5 16 -29t-8 -55
q-13 -52 -54 -100.5t-48 -75.5q10 -4 29.5 -18t26 -16t13 -3t9.5 -0.5t7.5 6t6.5 16.5q3 7 3 15.5t-3 22.5t-1.5 20.5t3 9.5t3.5 1z" />
    <glyph glyph-name="threequarters" unicode="&#xbe;" horiz-adv-x="660" 
d="M305 436v-3q29 -38 29 -79q0 -17 -5 -35q-14 -69 -59 -100q-33 -23 -63 -23q-11 0 -26 5t-26.5 25.5t-11.5 35.5t5 30q10 39 39 59l1 -2q7 -1 4 -11t-12.5 -24.5t-12 -22t-2.5 -19t9 -29t24 -17.5q5 -1 10 -1q27 0 57.5 20t44.5 72q3 14 3 30t-8 38q-11 31 -47 28
q-12 -1 -17 1q-9 2 -6 12.5t21.5 16.5t38.5 16.5t26 33.5q0 7 -3 7q-19 4 -30 10q-7 2 -16 2t-25 -2t-24 -1q-10 4 -2 29q7 7 16 7q27 0 41 -6t63 -17q1 2 6 3.5t7 0.5q4 -9 -3.5 -22t-15.5 -25t-15 -22t-8 -12q-6 -4 -6 -5v-2zM616 539q11 0 11 -11q0 -3 -0.5 -7t-9.5 -16
t-13 -15q-210 -192 -352 -407q0 -2 -1 -2q-10 -3 -15.5 3.5t-6.5 15.5l9 17q59 85 358 419l3 1l6 1zM441 200q13 -3 36 -14t46 -15l5 4q0 4 5 19t10 32q12 38 13 58q7 10 10 10q3 -3 5 -7.5t1 -5.5l-22 -100q-4 -11 4 -13t16.5 9.5t10.5 21.5q7 -2 7 -10t-3 -17
q-11 -28 -42 -28q-8 -20 -8 -26q-9 -25 -28 -121q3 -1 0 -14q-7 -15 -16 -15h-1q-8 0 -7 7l35 169q2 2 -69 28l-11 3q-6 1 -15 1t-22 -5q-3 3 -3 6t1 7t46.5 59.5t50.5 55.5q8 -2 5.5 -11.5t-8.5 -9.5l-50 -72z" />
    <glyph glyph-name="questiondown" unicode="&#xbf;" horiz-adv-x="373" 
d="M262 563q-5 5 -5 11q0 12 11 12q1 0 7 -6l9 -10l1 -2q5 -21 -5 -25q-7 -1 -11 4t-7 16zM319 293q1 5 -15.5 67t-16.5 75t5 13t20 -17q11 -76 18.5 -94.5t7.5 -20.5q44 -33 60 -46t39.5 -47t34.5 -79q12 -38 12 -66.5t-6 -49.5q-16 -51 -60 -63q-6 -1 -13 -1
q-31 0 -77.5 33t-59.5 88q-6 20 -6 35.5t5 26.5q11 24 15 -1q3 -15 4 -30.5t5 -24.5q19 -45 52 -69.5t58 -24.5q55 0 55 88q0 59 -35 123q-26 48 -102 85z" />
    <glyph glyph-name="Agrave" unicode="&#xc0;" horiz-adv-x="674" 
d="M632 -98q-10 0 -17 -6q-17 64 -28 187t-27 186q-28 2 -108.5 21.5t-115.5 19.5q-25 -28 -120 -173q-28 -42 -68.5 -75.5t-79.5 -33.5h-2l-48 1q-10 6 -10 14t10 14q10 -2 30.5 -2t59 21.5t78.5 71.5q65 80 121 181q-4 1 -19 12.5t-18.5 15t-21.5 20.5t-32 31
q-38 36 -42 54q0 13 8.5 16t18.5 3h12q31 0 90 -19t89 -19q24 29 69.5 142.5t67.5 143.5q24 43 33 43q5 0 5 -14v-11l23 -418h10q63 30 79 30t16 -8q0 -12 -32 -32.5t-63 -26.5q-1 -10 -1 -44.5t17 -175.5t17.5 -155.5t-1.5 -14.5zM363 338q27 -7 75 -14t61 -11
q-38 53 -99 82q-1 -2 -10 -15q-19 -24 -27 -42zM425 424l129 -105q1 20 1 61.5t-4 144.5t-10 159zM250 452q-6 1 -11 1q-15 0 -15 -10q0 -22 45.5 -55t66.5 -33q5 0 9 2q6 7 12 24t16 33q-8 4 -123 38zM520 872.5q-6 9.5 -15 24.5t-9 29.5t11.5 14.5t24.5 -17.5t20 -32.5
t19.5 -31t15.5 -23t3 -9q0 -8 -5 -10q-7 1 -13 4t-10.5 5t-9.5 7l-8 8q-3 3 -9 10.5t-7.5 9t-7.5 11z" />
    <glyph glyph-name="Aacute" unicode="&#xc1;" horiz-adv-x="674" 
d="M632 -98q-10 0 -17 -6q-17 64 -28 187t-27 186q-28 2 -108.5 21.5t-115.5 19.5q-25 -28 -120 -173q-28 -42 -68.5 -75.5t-79.5 -33.5h-2l-48 1q-10 6 -10 14t10 14q10 -2 30.5 -2t59 21.5t78.5 71.5q65 80 121 181q-4 1 -19 12.5t-18.5 15t-21.5 20.5t-32 31
q-38 36 -42 54q0 13 8.5 16t18.5 3h12q31 0 90 -19t89 -19q24 29 69.5 142.5t67.5 143.5q24 43 33 43q5 0 5 -14v-11l23 -418h10q63 30 79 30t16 -8q0 -12 -32 -32.5t-63 -26.5q-1 -10 -1 -44.5t17 -175.5t17.5 -155.5t-1.5 -14.5zM363 338q27 -7 75 -14t61 -11
q-38 53 -99 82q-1 -2 -10 -15q-19 -24 -27 -42zM425 424l129 -105q1 20 1 61.5t-4 144.5t-10 159zM250 452q-6 1 -11 1q-15 0 -15 -10q0 -22 45.5 -55t66.5 -33q5 0 9 2q6 7 12 24t16 33q-8 4 -123 38zM532 823q-5 2 -5 7.5t3.5 12t18 25t21.5 35.5q26 53 53 53
q11 0 11 -16.5t-18.5 -45.5t-36.5 -46.5t-47 -24.5z" />
    <glyph glyph-name="Acircumflex" unicode="&#xc2;" horiz-adv-x="674" 
d="M632 -98q-10 0 -17 -6q-17 64 -28 187t-27 186q-28 2 -108.5 21.5t-115.5 19.5q-25 -28 -120 -173q-28 -42 -68.5 -75.5t-79.5 -33.5h-2l-48 1q-10 6 -10 14t10 14q10 -2 30.5 -2t59 21.5t78.5 71.5q65 80 121 181q-4 1 -19 12.5t-18.5 15t-21.5 20.5t-32 31
q-38 36 -42 54q0 13 8.5 16t18.5 3h12q31 0 90 -19t89 -19q24 29 69.5 142.5t67.5 143.5q24 43 33 43q5 0 5 -14v-11l23 -418h10q63 30 79 30t16 -8q0 -12 -32 -32.5t-63 -26.5q-1 -10 -1 -44.5t17 -175.5t17.5 -155.5t-1.5 -14.5zM363 338q27 -7 75 -14t61 -11
q-38 53 -99 82q-1 -2 -10 -15q-19 -24 -27 -42zM425 424l129 -105q1 20 1 61.5t-4 144.5t-10 159zM250 452q-6 1 -11 1q-15 0 -15 -10q0 -22 45.5 -55t66.5 -33q5 0 9 2q6 7 12 24t16 33q-8 4 -123 38zM585 977q1 -1 3 -1h3q0 -31 12.5 -61t23.5 -53l17 -35q9 -16 9 -18v-1
l1 -2q0 -5 -5.5 -9.5t-12 -4.5t-9.5 6q-10 20 -42 100l-16 24q-15 -9 -33.5 -39.5t-35.5 -55t-32 -24.5q-6 0 -9 6q12 29 54 87.5t72 80.5z" />
    <glyph glyph-name="Atilde" unicode="&#xc3;" horiz-adv-x="674" 
d="M632 -98q-10 0 -17 -6q-17 64 -28 187t-27 186q-28 2 -108.5 21.5t-115.5 19.5q-25 -28 -120 -173q-28 -42 -68.5 -75.5t-79.5 -33.5h-2l-48 1q-10 6 -10 14t10 14q10 -2 30.5 -2t59 21.5t78.5 71.5q65 80 121 181q-4 1 -19 12.5t-18.5 15t-21.5 20.5t-32 31
q-38 36 -42 54q0 13 8.5 16t18.5 3h12q31 0 90 -19t89 -19q24 29 69.5 142.5t67.5 143.5q24 43 33 43q5 0 5 -14v-11l23 -418h10q63 30 79 30t16 -8q0 -12 -32 -32.5t-63 -26.5q-1 -10 -1 -44.5t17 -175.5t17.5 -155.5t-1.5 -14.5zM363 338q27 -7 75 -14t61 -11
q-38 53 -99 82q-1 -2 -10 -15q-19 -24 -27 -42zM425 424l129 -105q1 20 1 61.5t-4 144.5t-10 159zM250 452q-6 1 -11 1q-15 0 -15 -10q0 -22 45.5 -55t66.5 -33q5 0 9 2q6 7 12 24t16 33q-8 4 -123 38zM536 878q-41 26 -63.5 26t-56.5 -39h-11v6q0 37 21.5 50.5t33.5 13.5
t20 -3q23 0 61 -22t63 -22h20t16 0.5t10.5 2t8.5 4t8 6.5t5 9q5 8 5 34.5t-7.5 38.5t-29.5 12q0 16 22.5 16t33.5 -19t11 -46q0 -54 -27.5 -74t-75.5 -20q-27 0 -68 26z" />
    <glyph glyph-name="Adieresis" unicode="&#xc4;" horiz-adv-x="674" 
d="M632 -98q-10 0 -17 -6q-17 64 -28 187t-27 186q-28 2 -108.5 21.5t-115.5 19.5q-25 -28 -120 -173q-28 -42 -68.5 -75.5t-79.5 -33.5h-2l-48 1q-10 6 -10 14t10 14q10 -2 30.5 -2t59 21.5t78.5 71.5q65 80 121 181q-4 1 -19 12.5t-18.5 15t-21.5 20.5t-32 31
q-38 36 -42 54q0 13 8.5 16t18.5 3h12q31 0 90 -19t89 -19q24 29 69.5 142.5t67.5 143.5q24 43 33 43q5 0 5 -14v-11l23 -418h10q63 30 79 30t16 -8q0 -12 -32 -32.5t-63 -26.5q-1 -10 -1 -44.5t17 -175.5t17.5 -155.5t-1.5 -14.5zM363 338q27 -7 75 -14t61 -11
q-38 53 -99 82q-1 -2 -10 -15q-19 -24 -27 -42zM425 424l129 -105q1 20 1 61.5t-4 144.5t-10 159zM250 452q-6 1 -11 1q-15 0 -15 -10q0 -22 45.5 -55t66.5 -33q5 0 9 2q6 7 12 24t16 33q-8 4 -123 38zM508 917q7 0 18 -10.5t11 -19.5q-6 -23 -22 -23q-4 0 -8 2
q-21 7 -21 25t22 26zM632 917q7 0 17.5 -10.5t10.5 -19.5q-6 -23 -21 -23q-4 0 -9 2q-20 7 -20 25t22 26z" />
    <glyph glyph-name="Aring" unicode="&#xc5;" horiz-adv-x="674" 
d="M56 28l-28 1h-10q-10 6 -10 14t10 14q10 -2 30.5 -2t59 21.5t78.5 71.5q65 80 121 181q-4 1 -19 12.5t-18.5 15t-21.5 20.5t-32 31q-38 36 -42 54q0 19 24 19h15q31 0 90 -19t89 -19q24 29 69.5 142.5t67.5 143.5q15 25 20 31h-5q-24 0 -39.5 18t-15.5 40v6q0 32 18 51
t46 19q61 0 61 -55q0 -35 -17 -52.5t-29 -21.5v-6q-1 -5 -1 -12l23 -418h10q63 30 79 30t16 -8q0 -12 -32 -32.5t-63 -26.5q-1 -10 -1 -44.5t17 -175.5t17.5 -155.5t-1.5 -14.5q-10 0 -17 -6q-17 64 -28 187t-27 186q-28 2 -108.5 21.5t-115.5 19.5q-25 -28 -120 -173
q-28 -42 -68.5 -75.5t-79.5 -33.5h-2h-10zM425 424l129 -105q1 20 1 61.5t-4 144.5t-10 159zM515.5 864q-16.5 -14 -16.5 -39t15.5 -37.5t32.5 -12.5t35.5 13t18.5 30q2 8 2 15t-0.5 12t-3 9.5t-4.5 7.5t-6 5.5t-6.5 3.5t-7.5 2.5t-6.5 2t-11.5 2.5q-25 0 -41.5 -14z
M250 452q-6 1 -11 1q-15 0 -15 -10q0 -22 45.5 -55t66.5 -33q5 0 9 2q6 7 12 24t16 33q-8 4 -123 38zM363 338q27 -7 75 -14t61 -11q-38 53 -99 82q-1 -2 -10 -15q-19 -24 -27 -42z" />
    <glyph glyph-name="AE" unicode="&#xc6;" horiz-adv-x="1072" 
d="M615 -104q-17 64 -28 187t-27 186q-28 2 -108.5 21.5t-115.5 19.5q-25 -28 -120 -173q-28 -42 -68.5 -75.5t-79.5 -33.5h-2h-10l-28 1h-10q-10 6 -10 14t10 14q10 -2 30.5 -2t59 21.5t78.5 71.5q65 80 121 181q-4 1 -19 12.5t-18.5 15t-21.5 20.5t-32 31q-38 36 -42 54
q0 19 24 19h15q31 0 90 -19t89 -19q24 29 69.5 142.5t67.5 143.5q24 43 33 43q5 0 5 -14v-11l23 -418h10q65 16 105 22q-1 8 -5.5 36t-4.5 45q0 44 27 108.5t73.5 116.5t89.5 52t69.5 -31t26.5 -71q0 -1 0.5 -8t0 -11t-1.5 -10q-4 -11 -15 -11h-5q0 1 -4 19.5t-8.5 31
t-11.5 28.5q-15 35 -41 35q-66 0 -118.5 -85.5t-52.5 -156.5q0 -15 9 -71h9q25 0 79 20.5t83 20.5h21q56 0 56 -33.5t-31 -55.5q-53 -37 -131 -37q-20 0 -47.5 14.5t-42.5 14.5h-5q-96 -72 -96 -181q0 -50 22 -76.5t74 -45.5q27 -5 57.5 -5t74 12.5t111.5 52.5t93 50
q9 -16 9 -24.5t-9 -14.5q-221 -109 -289 -109q-44 0 -85 19t-67 52q22 -140 12.5 -140t-16.5 -6zM425 424l129 -105q1 20 1 61.5t-4 144.5t-10 159zM771 336q0 -25 57 -25q33 0 70 12.5t53 35.5q-12 20 -41.5 20t-84 -12.5t-54.5 -30.5zM250 452q-6 1 -11 1q-15 0 -15 -10
q0 -22 45.5 -55t66.5 -33q5 0 9 2q6 7 12 24t16 33q-8 4 -123 38zM363 338q27 -7 75 -14t61 -11q-38 53 -99 82q-1 -2 -10 -15q-19 -24 -27 -42zM601 188q20 57 78 124q-43 -16 -79 -20q-3 -15 -3 -40.5t4 -63.5z" />
    <glyph glyph-name="Ccedilla" unicode="&#xc7;" horiz-adv-x="439" 
d="M213 -45l58 5q46 0 75.5 -26.5t29.5 -73t-46 -77.5t-96 -31h-32q-31 18 -31 58.5t33 40.5q15 0 15 -9q0 -1 -1 -2l-26 -27q-1 -1 -1 -10t12 -19t26 -10q42 0 81.5 23t39.5 63q0 78 -87 78l-66 -11h-11q0 19 -10 54q-2 16 -2 20q-22 3 -41 13q-39 24 -68 63t-37.5 72
t-8.5 78t23 139q33 137 101.5 258t139.5 134q21 0 36 -15t24.5 -26t20 -43.5t10.5 -53.5t-1 -34q0 -10 -14 -10h-3q-1 0 -1 1q-6 87 -27 117q-19 26 -50 27q-41 0 -96.5 -96t-93 -206.5t-37.5 -173t38 -135t107 -72.5t134.5 72t80.5 146q11 -3 11 -18q0 -48 -60 -129
q-42 -57 -94 -87q-29 -19 -64 -22q1 -4 1 -13.5t-3 -27.5q0 -4 4 -4h7z" />
    <glyph glyph-name="Egrave" unicode="&#xc8;" horiz-adv-x="472" 
d="M345 436q57 0 57 -32.5t-31 -55.5q-52 -37 -130 -37q-19 0 -47 15t-43 15h-5q-96 -73 -96 -181q0 -50 22 -77t74 -45q20 -6 37 -6t41 3t48.5 9t56.5 21t53.5 27.5t50.5 29.5t49 26q9 -20 9 -27.5t-9 -11.5q-223 -109 -291.5 -109t-123 44t-54.5 113q0 38 21 81t39 66
t54 65v4l-10 88q0 44 27 108.5t73.5 116.5t89.5 52t69 -30.5t26 -71.5q0 -1 0.5 -8t0 -11t-1.5 -9q-2 -12 -14 -12h-5q-12 71 -36 99q-13 14 -28 14q-67 0 -119.5 -85t-52.5 -156q0 -28 10 -72h9q24 0 78.5 20t82.5 20h19zM193 364q0 -24 57 -24q35 0 71 12t52 36
q-14 20 -42 20t-83 -13t-55 -31zM251 822.5q-6 9.5 -15 24.5t-9 29.5t11.5 14.5t24 -17t20 -32.5t20 -31.5t15.5 -23t3 -9q0 -8 -5 -10q-7 1 -13 4t-10.5 5t-10.5 7l-8 8q-2 3 -8 10.5t-7.5 9t-7.5 11z" />
    <glyph glyph-name="Eacute" unicode="&#xc9;" horiz-adv-x="472" 
d="M345 436q57 0 57 -32.5t-31 -55.5q-52 -37 -130 -37q-19 0 -47 15t-43 15h-5q-96 -73 -96 -181q0 -50 22 -77t74 -45q20 -6 37 -6t41 3t48.5 9t56.5 21t53.5 27.5t50.5 29.5t49 26q9 -20 9 -27.5t-9 -11.5q-223 -109 -291.5 -109t-123 44t-54.5 113q0 38 21 81t39 66
t54 65v4l-10 88q0 44 27 108.5t73.5 116.5t89.5 52t69 -30.5t26 -71.5q0 -1 0.5 -8t0 -11t-1.5 -9q-2 -12 -14 -12h-5q-12 71 -36 99q-13 14 -28 14q-67 0 -119.5 -85t-52.5 -156q0 -28 10 -72h9q24 0 78.5 20t82.5 20h19zM193 364q0 -24 57 -24q35 0 71 12t52 36
q-14 20 -42 20t-83 -13t-55 -31zM255 776q-5 2 -5 7.5t3.5 12t18 25t21.5 35.5q26 53 53 53q11 0 11 -16.5t-18.5 -45.5t-36.5 -46.5t-47 -24.5z" />
    <glyph glyph-name="Ecircumflex" unicode="&#xca;" horiz-adv-x="472" 
d="M345 436q57 0 57 -32.5t-31 -55.5q-52 -37 -130 -37q-19 0 -47 15t-43 15h-5q-96 -73 -96 -181q0 -50 22 -77t74 -45q20 -6 37 -6t41 3t48.5 9t56.5 21t53.5 27.5t50.5 29.5t49 26q9 -20 9 -27.5t-9 -11.5q-223 -109 -291.5 -109t-123 44t-54.5 113q0 38 21 81t39 66
t54 65v4l-10 88q0 44 27 108.5t73.5 116.5t89.5 52t69 -30.5t26 -71.5q0 -1 0.5 -8t0 -11t-1.5 -9q-2 -12 -14 -12h-5q-12 71 -36 99q-13 14 -28 14q-67 0 -119.5 -85t-52.5 -156q0 -28 10 -72h9q24 0 78.5 20t82.5 20h19zM193 364q0 -24 57 -24q35 0 71 12t52 36
q-14 20 -42 20t-83 -13t-55 -31zM339 954q1 -1 3 -1h3q0 -31 12.5 -61t23.5 -53l17 -35q9 -16 9 -18v-1l1 -2q0 -5 -5.5 -9.5t-12 -4.5t-9.5 6q-10 20 -42 100l-16 24q-15 -9 -33.5 -39.5t-35.5 -55t-32 -24.5q-6 0 -9 6q12 29 54 87.5t72 80.5z" />
    <glyph glyph-name="Edieresis" unicode="&#xcb;" horiz-adv-x="472" 
d="M345 436q57 0 57 -32.5t-31 -55.5q-52 -37 -130 -37q-19 0 -47 15t-43 15h-5q-96 -73 -96 -181q0 -50 22 -77t74 -45q20 -6 37 -6t41 3t48.5 9t56.5 21t53.5 27.5t50.5 29.5t49 26q9 -20 9 -27.5t-9 -11.5q-223 -109 -291.5 -109t-123 44t-54.5 113q0 38 21 81t39 66
t54 65v4l-10 88q0 44 27 108.5t73.5 116.5t89.5 52t69 -30.5t26 -71.5q0 -1 0.5 -8t0 -11t-1.5 -9q-2 -12 -14 -12h-5q-12 71 -36 99q-13 14 -28 14q-67 0 -119.5 -85t-52.5 -156q0 -28 10 -72h9q24 0 78.5 20t82.5 20h19zM193 364q0 -24 57 -24q35 0 71 12t52 36
q-14 20 -42 20t-83 -13t-55 -31zM247 821q7 0 18 -10.5t11 -19.5q-6 -23 -22 -23q-4 0 -8 2q-21 7 -21 25t22 26zM371 821q7 0 17.5 -10.5t10.5 -19.5q-6 -23 -21 -23q-4 0 -9 2q-20 7 -20 25t22 26z" />
    <glyph glyph-name="Igrave" unicode="&#xcc;" horiz-adv-x="547" 
d="M41.5 -1.5q-21.5 7.5 -21.5 24.5t15 17q9 0 26 -5.5t30 -5.5q69 0 139 37.5t124.5 99t97.5 135t66.5 150t23.5 143.5t-30 101.5t-97 34.5q-38 0 -69.5 -39.5t-46 -86.5t-14.5 -82q0 -106 95 -134l-19 -8q-2 -2 -24.5 9t-32.5 19q-49 30 -49 116q0 45 17.5 97.5t55.5 94.5
t85 42q148 0 148 -174.5t-106 -328.5t-264 -235q-56 -29 -108 -29q-20 0 -41.5 7.5zM339 840.5q-6 9.5 -15 24.5t-9 29.5t11.5 14.5t24 -17t20 -32.5t20 -31.5t15.5 -23t3 -9q0 -8 -5 -10q-7 1 -13 4t-10.5 5t-10.5 7l-8 8q-2 3 -8 10.5t-7.5 9t-7.5 11z" />
    <glyph glyph-name="Iacute" unicode="&#xcd;" horiz-adv-x="547" 
d="M34.5 6.5q-21.5 7.5 -21.5 24.5t15 17q10 0 27 -5.5t29 -5.5q69 0 139 37.5t124.5 99t97.5 135t66.5 150t23.5 143.5t-30 101.5t-97 34.5q-38 0 -69.5 -39.5t-46 -86.5t-14.5 -82q0 -106 95 -134l-19 -8q-2 -2 -24.5 9t-32.5 19q-49 30 -49 116q0 45 17.5 97.5t55.5 94.5
t85 42q148 0 148 -174.5t-106 -328.5t-264 -235q-56 -29 -108 -29q-20 0 -41.5 7.5zM349 789q-5 2 -5 7.5t3.5 12t18 25t21.5 35.5q26 53 53 53q11 0 11 -16.5t-18.5 -45.5t-36.5 -46.5t-47 -24.5z" />
    <glyph glyph-name="Icircumflex" unicode="&#xce;" horiz-adv-x="547" 
d="M34.5 6.5q-21.5 7.5 -21.5 24.5t15 17q10 0 27 -5.5t29 -5.5q69 0 139 37.5t124.5 99t97.5 135t66.5 150t23.5 143.5t-30 101.5t-97 34.5q-38 0 -69.5 -39.5t-46 -86.5t-14.5 -82q0 -106 95 -134l-19 -8q-2 -2 -24.5 9t-32.5 19q-49 30 -49 116q0 45 17.5 97.5t55.5 94.5
t85 42q148 0 148 -174.5t-106 -328.5t-264 -235q-56 -29 -108 -29q-20 0 -41.5 7.5zM441 1000q1 -1 3 -1h3q0 -31 12.5 -61t23.5 -53l17 -35q9 -16 9 -18v-1l1 -2q0 -5 -5.5 -9.5t-12 -4.5t-9.5 6q-10 20 -42 100l-16 24q-15 -9 -33.5 -39.5t-35.5 -55t-32 -24.5q-6 0 -9 6
q12 29 54 87.5t72 80.5z" />
    <glyph glyph-name="Idieresis" unicode="&#xcf;" horiz-adv-x="547" 
d="M34.5 6.5q-21.5 7.5 -21.5 24.5t15 17q10 0 27 -5.5t29 -5.5q69 0 139 37.5t124.5 99t97.5 135t66.5 150t23.5 143.5t-30 101.5t-97 34.5q-38 0 -69.5 -39.5t-46 -86.5t-14.5 -82q0 -106 95 -134l-19 -8q-2 -2 -24.5 9t-32.5 19q-49 30 -49 116q0 45 17.5 97.5t55.5 94.5
t85 42q148 0 148 -174.5t-106 -328.5t-264 -235q-56 -29 -108 -29q-20 0 -41.5 7.5zM317 866q7 0 18 -10.5t11 -19.5q-6 -23 -22 -23q-4 0 -8 2q-21 7 -21 25t22 26zM441 866q7 0 17.5 -10.5t10.5 -19.5q-6 -23 -21 -23q-4 0 -9 2q-20 7 -20 25t22 26z" />
    <glyph glyph-name="Eth" unicode="&#xd0;" horiz-adv-x="647" 
d="M94 128q38 38 67.5 38t55 -23.5t41.5 -51t43.5 -51t60.5 -23.5q54 0 117.5 58.5t104.5 135.5t41 130v5q-44 -41 -86 -58.5t-97.5 -17.5t-94 20.5t-59.5 56.5q-42 69 -42 174q0 91 44 183q21 46 59.5 75.5t90 29.5t97 -34t71.5 -86q54 -108 54 -216v-18
q0 -80 -32.5 -178.5t-92 -176t-137.5 -100.5q-19 -5 -38 -5q-61 0 -125 57q-4 5 -22.5 34.5t-34 41t-19.5 10.5q-23 -6 -39 -30t-23 -48q-18 -65 -49 -65l8 48l29 227l-72 -1q-10 -1 -10 12t2 17.5t6.5 6t8 2t11.5 0t17.5 0.5t41.5 1l32 245q3 35 5 47l3 29h22
q0 -35 -15 -144t-23 -176l139 2h5q14 0 14 -14.5t-4 -18.5t-15 -4l-143 -3q-4 -22 -9 -69.5t-9 -73.5zM316 358q42 -60 134 -60q12 -1 24 -1q101 0 140 92q19 46 19 98.5t-17 109.5q-33 116 -109 167q-30 20 -62 26q-44 0 -79 -28.5t-54 -72.5q-38 -88 -38 -179.5t42 -151.5
z" />
    <glyph glyph-name="Ntilde" unicode="&#xd1;" horiz-adv-x="631" 
d="M561 175l2 -104q20 -161 179 -161q8 0 38 4t37 6q-19 -29 -99 -29t-122.5 39.5t-61.5 121.5l-1 118q0 69 15 204t15 203v62l-322 -303l-19 -152q-7 -61 -49.5 -125t-97.5 -64q-27 0 -45 19t-17 48q5 52 40.5 112.5t67 95.5t81.5 85q2 10 2 59.5t-20 138.5q-3 10 -19 10
q-1 0 -9 -1q-70 -55 -134 -55q0 20 10 25q4 2 13.5 5.5t18 6.5t57 28.5t54.5 27.5l9 1q11 0 19 -8.5t10 -20.5l29 -197l339 329l19 -18l4 -58q0 -76 -21.5 -226t-21.5 -227zM76.5 158q-26.5 -48 -26.5 -91.5t20 -43.5q35 0 63 32.5t43 79.5q29 96 29 163h-11q-2 0 -24.5 -23
t-31.5 -34q-35 -35 -61.5 -83zM355 730q-41 26 -63.5 26t-56.5 -39h-11v6q0 37 21.5 50.5t33.5 13.5t20 -3q23 0 61 -22t63 -22h20.5t15.5 0.5t10.5 2t8.5 4t8 6.5t5 9q5 8 5 34.5t-7.5 38.5t-29.5 12q0 16 22.5 16t33.5 -19t11 -46q0 -54 -27.5 -74t-75.5 -20q-27 0 -68 26
z" />
    <glyph glyph-name="Ograve" unicode="&#xd2;" horiz-adv-x="508" 
d="M488 586l-11 -217v-10l67 29v-6q0 -7 -6 -10.5t-22 -11.5q-47 -24 -49.5 -28.5t-14 -44t-13.5 -42.5q-99 -236 -264 -236q-71 0 -104 51q-34 52 -40 100q-8 74 -8 129l1 79v20q0 17 18 132q7 39 24 80q30 76 72 76v-15q-88 -147 -88 -379q0 -86 16 -137t72 -98
q12 -9 31 -9q94 0 166.5 86.5t93.5 186.5q-16 -1 -32 -1q-115 0 -168.5 56.5t-53.5 200.5q0 81 14.5 146.5t32.5 103.5t51 64.5t69 26.5t61 -18.5t41 -48.5q30 -54 43 -113zM459 445l8 188q0 66 -15 124q-29 112 -97 122q-5 1 -10 1q-29 0 -55 -26.5t-42 -69.5t-27 -94
q-19 -89 -19 -144.5t15.5 -102t53.5 -80t92 -33.5l27 -1q43 0 49 20q8 59 20 86v10zM268 981.5q-6 9.5 -15 24.5t-9 29.5t11.5 14.5t24 -17t20 -32.5t20 -31.5t15.5 -22.5t3 -8.5q0 -8 -5 -11q-7 1 -13 4t-10.5 5t-9.5 8l-8 8q-3 2 -9 9.5t-7.5 9t-7.5 11z" />
    <glyph glyph-name="Oacute" unicode="&#xd3;" horiz-adv-x="508" 
d="M488 586l-11 -217v-10l67 29v-6q0 -7 -6 -10.5t-22 -11.5q-47 -24 -49.5 -28.5t-14 -44t-13.5 -42.5q-99 -236 -264 -236q-71 0 -104 51q-34 52 -40 100q-8 74 -8 129l1 79v20q0 17 18 132q7 39 24 80q30 76 72 76v-15q-88 -147 -88 -379q0 -86 16 -137t72 -98
q12 -9 31 -9q94 0 166.5 86.5t93.5 186.5q-16 -1 -32 -1q-115 0 -168.5 56.5t-53.5 200.5q0 81 14.5 146.5t32.5 103.5t51 64.5t69 26.5t61 -18.5t41 -48.5q30 -54 43 -113zM459 445l8 188q0 66 -15 124q-29 112 -97 122q-5 1 -10 1q-29 0 -55 -26.5t-42 -69.5t-27 -94
q-19 -89 -19 -144.5t15.5 -102t53.5 -80t92 -33.5l27 -1q43 0 49 20q8 59 20 86v10zM212 908q-5 2 -5 7.5t3.5 12t18 25t21.5 35.5q26 53 53 53q11 0 11 -16.5t-18.5 -45.5t-36.5 -46.5t-47 -24.5z" />
    <glyph glyph-name="Ocircumflex" unicode="&#xd4;" horiz-adv-x="508" 
d="M488 586l-11 -217v-10l67 29v-6q0 -7 -6 -10.5t-22 -11.5q-47 -24 -49.5 -28.5t-14 -44t-13.5 -42.5q-99 -236 -264 -236q-71 0 -104 51q-34 52 -40 100q-8 74 -8 129l1 79v20q0 17 18 132q7 39 24 80q30 76 72 76v-15q-88 -147 -88 -379q0 -86 16 -137t72 -98
q12 -9 31 -9q94 0 166.5 86.5t93.5 186.5q-16 -1 -32 -1q-115 0 -168.5 56.5t-53.5 200.5q0 81 14.5 146.5t32.5 103.5t51 64.5t69 26.5t61 -18.5t41 -48.5q30 -54 43 -113zM459 445l8 188q0 66 -15 124q-29 112 -97 122q-5 1 -10 1q-29 0 -55 -26.5t-42 -69.5t-27 -94
q-19 -89 -19 -144.5t15.5 -102t53.5 -80t92 -33.5l27 -1q43 0 49 20q8 59 20 86v10zM312 1151q1 -1 3 -1h3q0 -31 12.5 -61t23.5 -53l16 -35q10 -16 10 -18v-1l1 -2q0 -5 -5.5 -9.5t-12 -4.5t-9.5 6q-10 20 -42 100l-16 24q-15 -9 -33.5 -39.5t-35.5 -55t-32 -24.5
q-6 0 -9 6q12 29 54 87.5t72 80.5z" />
    <glyph glyph-name="Otilde" unicode="&#xd5;" horiz-adv-x="508" 
d="M488 586l-11 -217v-10l67 29v-6q0 -7 -6 -10.5t-22 -11.5q-47 -24 -49.5 -28.5t-14 -44t-13.5 -42.5q-99 -236 -264 -236q-71 0 -104 51q-34 52 -40 100q-8 74 -8 129l1 79v20q0 17 18 132q7 39 24 80q30 76 72 76v-15q-88 -147 -88 -379q0 -86 16 -137t72 -98
q12 -9 31 -9q94 0 166.5 86.5t93.5 186.5q-16 -1 -32 -1q-115 0 -168.5 56.5t-53.5 200.5q0 81 14.5 146.5t32.5 103.5t51 64.5t69 26.5t61 -18.5t41 -48.5q30 -54 43 -113zM459 445l8 188q0 66 -15 124q-29 112 -97 122q-5 1 -10 1q-29 0 -55 -26.5t-42 -69.5t-27 -94
q-19 -89 -19 -144.5t15.5 -102t53.5 -80t92 -33.5l27 -1q43 0 49 20q8 59 20 86v10zM277 959q-41 26 -63.5 26t-56.5 -39h-11v6q0 37 21.5 50.5t33.5 13.5t20 -3q23 0 61 -22t63 -22h20.5t15.5 0.5t10.5 2t8.5 4t8 6.5t5 9q5 8 5 34.5t-7.5 38.5t-29.5 12q0 16 22.5 16
t33.5 -19t11 -46q0 -54 -27.5 -74t-75.5 -20q-27 0 -68 26z" />
    <glyph glyph-name="Odieresis" unicode="&#xd6;" horiz-adv-x="508" 
d="M488 586l-11 -217v-10l67 29v-6q0 -7 -6 -10.5t-22 -11.5q-47 -24 -49.5 -28.5t-14 -44t-13.5 -42.5q-99 -236 -264 -236q-71 0 -104 51q-34 52 -40 100q-8 74 -8 129l1 79v20q0 17 18 132q7 39 24 80q30 76 72 76v-15q-88 -147 -88 -379q0 -86 16 -137t72 -98
q12 -9 31 -9q94 0 166.5 86.5t93.5 186.5q-16 -1 -32 -1q-115 0 -168.5 56.5t-53.5 200.5q0 81 14.5 146.5t32.5 103.5t51 64.5t69 26.5t61 -18.5t41 -48.5q30 -54 43 -113zM459 445l8 188q0 66 -15 124q-29 112 -97 122q-5 1 -10 1q-29 0 -55 -26.5t-42 -69.5t-27 -94
q-19 -89 -19 -144.5t15.5 -102t53.5 -80t92 -33.5l27 -1q43 0 49 20q8 59 20 86v10zM246 1025q7 0 18 -10.5t11 -19.5q-6 -23 -22 -23q-4 0 -8 2q-21 7 -21 25t22 26zM370 1025q7 0 17.5 -10.5t10.5 -19.5q-6 -23 -21 -23q-4 0 -9 2q-20 7 -20 25t22 26z" />
    <glyph glyph-name="multiply" unicode="&#xd7;" horiz-adv-x="412" 
d="M385 160q0 -16 -57 -16q-76 0 -118 47q-27 -32 -37 -49q-23 -41 -45 -41q-12 0 -26 8l84 116l-80 120q17 18 25.5 18t16 -7.5t14.5 -19.5q27 -49 46 -70q12 12 34 46q25 36 34.5 46.5t17.5 10.5t14 -9l-79 -141q36 -25 73 -33q6 -2 25 -5.5t23 -4.5q35 -6 35 -16z" />
    <glyph glyph-name="Oslash" unicode="&#xd8;" horiz-adv-x="508" 
d="M488 586l-11 -217v-10l67 29v-6q0 -7 -6 -10.5t-22 -11.5q-47 -24 -49.5 -28.5t-14 -44t-13.5 -42.5q-99 -236 -264 -236q-69 0 -108 56l-25 -64q-2 -2 -3 -2h-1q-14 0 -14 51v3q0 7 20 58q-21 63 -21 178v57l1 35v7q0 17 18 132q7 39 24 80q30 76 72 76v-15
q-88 -147 -88 -379q0 -87 13 -127q38 90 129 275q-17 54 -17 113.5t3.5 98t14.5 88t29 87.5t51 64.5t71.5 26.5t69.5 -28q26 48 39 76l8 2q13 0 17.5 -15.5t2.5 -34.5q-2 -3 -8 -20q-16 -47 -20 -47l-4 -7q25 -47 38 -106l1 -71v-71zM429 311q-18 -1 -34 -1q-62 0 -109.5 17
t-76.5 64q-86 -184 -125 -283q21 -34 54 -61q12 -9 31 -9q94 0 166.5 86.5t93.5 186.5zM459 445l8 188q0 114 -33 177q-117 -203 -208 -385q41 -95 137 -95l27 -1q43 0 49 20q8 59 20 86v10zM401 855q-25 25 -55 25t-56 -26.5t-42 -69.5t-27 -94q-19 -89 -19 -137.5t9 -84.5
q29 60 190 387z" />
    <glyph glyph-name="Ugrave" unicode="&#xd9;" horiz-adv-x="758" 
d="M190 596q-32 -20 -68 -20h-39t-23.5 0.5t-15 2t-12.5 3.5q-14 6 -14 18l2 6q25 19 47 19q9 0 0 -19q8 -2 31 -2t69 21t70 21v-22l-77 -435v-14q0 -45 24 -91t67.5 -46t88.5 64t91.5 190t78.5 180l49 189q1 10 13 10q15 0 15 -23q0 -55 -24.5 -167.5t-24.5 -169.5
q0 -255 170 -255q25 0 39.5 6t36.5 23q2 0 6.5 -4t4.5 -5q0 -48 -90 -48q-58 0 -98.5 25t-59.5 65q-39 84 -39 177q0 8 1 37t1 75q-5 -21 -48.5 -122t-52.5 -120.5t-21.5 -41.5t-34.5 -53q-44 -61 -106 -61t-89.5 48t-27.5 114l2 37l58 350v38zM371 768.5q-6 9.5 -15 24.5
t-9 29.5t11.5 14.5t24 -17t20 -32.5t20 -31.5t15.5 -23t3 -9q0 -8 -5 -10q-7 1 -13 4t-10.5 5t-10.5 7l-8 8q-2 3 -8 10.5t-7.5 9t-7.5 11z" />
    <glyph glyph-name="Uacute" unicode="&#xda;" horiz-adv-x="758" 
d="M190 596q-32 -20 -68 -20h-39t-23.5 0.5t-15 2t-12.5 3.5q-14 6 -14 18l2 6q25 19 47 19q9 0 0 -19q8 -2 31 -2t69 21t70 21v-22l-77 -435v-14q0 -45 24 -91t67.5 -46t88.5 64t91.5 190t78.5 180l49 189q1 10 13 10q15 0 15 -23q0 -55 -24.5 -167.5t-24.5 -169.5
q0 -255 170 -255q25 0 39.5 6t36.5 23q2 0 6.5 -4t4.5 -5q0 -48 -90 -48q-58 0 -98.5 25t-59.5 65q-39 84 -39 177q0 8 1 37t1 75q-5 -21 -48.5 -122t-52.5 -120.5t-21.5 -41.5t-34.5 -53q-44 -61 -106 -61t-89.5 48t-27.5 114l2 37l58 350v38zM358 724q-5 2 -5 7.5t3.5 12
t18 25t21.5 35.5q26 53 53 53q11 0 11 -16.5t-18.5 -45.5t-36.5 -46.5t-47 -24.5z" />
    <glyph glyph-name="Ucircumflex" unicode="&#xdb;" horiz-adv-x="758" 
d="M190 596q-32 -20 -68 -20h-39t-23.5 0.5t-15 2t-12.5 3.5q-14 6 -14 18l2 6q25 19 47 19q9 0 0 -19q8 -2 31 -2t69 21t70 21v-22l-77 -435v-14q0 -45 24 -91t67.5 -46t88.5 64t91.5 190t78.5 180l49 189q1 10 13 10q15 0 15 -23q0 -55 -24.5 -167.5t-24.5 -169.5
q0 -255 170 -255q25 0 39.5 6t36.5 23q2 0 6.5 -4t4.5 -5q0 -48 -90 -48q-58 0 -98.5 25t-59.5 65q-39 84 -39 177q0 8 1 37t1 75q-5 -21 -48.5 -122t-52.5 -120.5t-21.5 -41.5t-34.5 -53q-44 -61 -106 -61t-89.5 48t-27.5 114l2 37l58 350v38zM464 723q-10 20 -42 100
l-16 24q-15 -9 -33.5 -39.5t-35.5 -55t-32 -24.5q-6 0 -9 6q12 29 54 87.5t72 80.5q1 -1 3 -1h3q0 -31 12.5 -61t23.5 -53l16 -35q10 -16 10 -18v-1l1 -2q0 -5 -5.5 -9.5t-12 -4.5t-9.5 6z" />
    <glyph glyph-name="Udieresis" unicode="&#xdc;" horiz-adv-x="758" 
d="M190 596q-32 -20 -68 -20h-39t-23.5 0.5t-15 2t-12.5 3.5q-14 6 -14 18l2 6q25 19 47 19q9 0 0 -19q8 -2 31 -2t69 21t70 21v-22l-77 -435v-14q0 -45 24 -91t67.5 -46t88.5 64t91.5 190t78.5 180l49 189q1 10 13 10q15 0 15 -23q0 -55 -24.5 -167.5t-24.5 -169.5
q0 -255 170 -255q25 0 39.5 6t36.5 23q2 0 6.5 -4t4.5 -5q0 -48 -90 -48q-58 0 -98.5 25t-59.5 65q-39 84 -39 177q0 8 1 37t1 75q-5 -21 -48.5 -122t-52.5 -120.5t-21.5 -41.5t-34.5 -53q-44 -61 -106 -61t-89.5 48t-27.5 114l2 37l58 350v38zM351 783q7 0 18 -10.5
t11 -19.5q-6 -23 -22 -23q-4 0 -8 2q-21 7 -21 25t22 26zM475 783q7 0 17.5 -10.5t10.5 -19.5q-6 -23 -21 -23q-4 0 -9 2q-20 7 -20 25t22 26z" />
    <glyph glyph-name="Yacute" unicode="&#xdd;" horiz-adv-x="598" 
d="M289 -403q-102 0 -224 213q-31 40 -31 86q0 20 9 19q20 -2 51 -91q98 -190 184 -190q34 0 66 30q88 81 139 349q25 133 30 265q-28 -101 -87 -123q-14 -5 -27 -5q-39 0 -72 45q-56 76 -56 225q0 45 5 94q-11 -2 -54.5 -29.5t-56.5 -27.5q-16 0 -17 15q9 4 63.5 39.5
t70 35.5t18.5 -6.5t4 -12.5q3 -127 5.5 -184t24.5 -98t65 -55q45 10 72.5 46.5t38 87.5t15.5 101.5t10 104t15 80.5l20 -7q-11 -465 -94 -749q-75 -258 -187 -258zM366 665q-5 2 -5 7.5t3.5 12t18 25t21.5 35.5q26 53 53 53q11 0 11 -16.5t-18.5 -45.5t-36.5 -46.5
t-47 -24.5z" />
    <glyph glyph-name="Thorn" unicode="&#xde;" horiz-adv-x="373" 
d="M130 165q14 -110 14 -165t-14.5 -113.5t-53.5 -83.5l-4 1q-3 0 -12 5.5t-11 8.5q0 15 -10 45q-14 70 -14 136q0 129 52 241q6 22 6 54t-3 71.5t-3 92.5q0 209 28 275h1q11 0 15.5 -66t4.5 -109q0 -148 -9 -176q32 52 79 88t95 46q44 -6 44 -55q0 -18 -6 -42
q-22 -85 -83 -158t-107 -86zM102 215q-52 -66 -52 -215q0 -65 13 -113q1 -2 3 -11t3 -13q3 -12 14 -19q30 57 30 155q0 45 -5.5 107.5t-5.5 83.5v25zM265 472q-59 -12 -101 -98q-30 -61 -30 -114q0 -20 4 -39q45 6 106 90.5t61 136.5q0 27 -23 27q-7 0 -17 -3z" />
    <glyph glyph-name="germandbls" unicode="&#xdf;" horiz-adv-x="941" 
d="M535 516q0 13 101 13h29q183 125 200 217q0 28 -15.5 43t-42.5 15q-55 0 -142 -67q-5 -4 -24 -23l-88 -90l-93 -136q-59 -109 -101 -233.5t-61.5 -223t-34.5 -184t-31 -138.5t-39 -65q-52 0 -83 43.5t-31 97.5q32 0 37 -49q2 -18 18 -33.5t48 -15.5q11 34 43 175
t64.5 274.5t84 265.5t103.5 175q64 85 126 141q116 105 210 105q34 0 52.5 -23.5t18.5 -65.5t-32.5 -84.5t-87.5 -83.5t-60 -46q46 -13 84.5 -31t50.5 -26.5t28.5 -23.5t24.5 -31q21 -42 21 -95t-47 -129t-119 -130t-137 -54q-83 0 -151 65t-68 147l1 33q11 11 28.5 11
t25.5 -12q2 -3 2 -6q0 -9 -22 -20q0 -74 56 -132t124.5 -58t132.5 47t104.5 116.5t40.5 125.5t-39 96.5t-91 59.5t-114 19t-96 16q-9 4 -9 8z" />
    <glyph glyph-name="agrave" unicode="&#xe0;" 
d="M251 254q-29 -74 -29 -138q0 -106 115 -106q29 4 43.5 12t31.5 27.5t33 32.5h5q-5 -56 -38.5 -75.5t-91.5 -19.5q-125 0 -135 105q-5 -26 -45.5 -60.5t-72.5 -34.5h-5q-62 17 -62 74q0 74 77 144q60 55 117 55q32 0 57 -16zM31 76q0 -16 1.5 -25.5t10 -17.5t24.5 -8
q44 2 88.5 70.5t47.5 117.5q-16 20 -44 20q-36 0 -75 -46t-53 -111zM139 388.5q-6 9.5 -15 24.5t-9 29.5t11.5 14.5t24.5 -17.5t20 -32.5t19.5 -31t15.5 -23t3 -9q0 -8 -5 -10q-7 1 -13 4t-10.5 5t-10.5 7l-8 8q-2 3 -8 10.5t-7.5 9t-7.5 11z" />
    <glyph glyph-name="aacute" unicode="&#xe1;" 
d="M251 254q-29 -74 -29 -138q0 -106 115 -106q29 4 43.5 12t31.5 27.5t33 32.5h5q-5 -56 -38.5 -75.5t-91.5 -19.5q-125 0 -135 104q-3 -11 -20 -33.5t-44.5 -41.5t-51.5 -19h-7q-62 17 -62 74q0 74 77 144q60 55 117 55q32 0 57 -16zM31 76q0 -16 1.5 -25.5t10 -17.5
t24.5 -8q44 2 88.5 70.5t47.5 117.5q-16 20 -44 20q-36 0 -75 -46t-53 -111zM116 307q-5 2 -5 7.5t4 13.5t17.5 26t21.5 32q22 47 47 53q3 1 6 1q10 0 10 -16t-15.5 -41t-23.5 -37q-24 -31 -62 -39z" />
    <glyph glyph-name="acircumflex" unicode="&#xe2;" 
d="M251 254q-29 -74 -29 -138q0 -106 115 -106q29 4 43.5 12t31.5 27.5t33 32.5h5q-5 -56 -38.5 -75.5t-91.5 -19.5q-125 0 -135 105q-5 -26 -45.5 -60.5t-72.5 -34.5h-5q-62 17 -62 74q0 74 77 144q60 55 117 55q32 0 57 -16zM31 76q0 -16 1.5 -25.5t10 -17.5t24.5 -8
q44 2 88.5 70.5t47.5 117.5q-16 20 -44 20q-36 0 -75 -46t-53 -111zM203 482q1 -1 3 -1h3q0 -31 12.5 -61t23.5 -53l17 -35q9 -16 9 -18v-1l1 -2q0 -5 -5.5 -9.5t-12 -4.5t-9.5 6q-10 20 -42 100l-16 24q-15 -9 -33.5 -39.5t-35.5 -55t-32 -24.5q-6 0 -9 6q12 29 54 87.5
t72 80.5z" />
    <glyph glyph-name="atilde" unicode="&#xe3;" 
d="M251 254q-29 -74 -29 -138q0 -106 115 -106q29 4 43.5 12t31.5 27.5t33 32.5h5q-5 -56 -38.5 -75.5t-91.5 -19.5q-125 0 -135 105q-5 -26 -45.5 -60.5t-72.5 -34.5h-5q-62 17 -62 74q0 74 77 144q60 55 117 55q32 0 57 -16zM31 76q0 -16 1.5 -25.5t10 -17.5t24.5 -8
q44 2 88.5 70.5t47.5 117.5q-16 20 -44 20q-36 0 -75 -46t-53 -111zM174 331q-41 26 -63.5 26t-56.5 -39h-11v6q0 37 21.5 50.5t33.5 13.5t20 -3q23 0 61 -22t63 -22h20t16 0.5t10.5 2t8.5 4t8 6.5t5 9q5 8 5 34.5t-7.5 38.5t-29.5 12q0 16 22.5 16t33.5 -19t11 -46
q0 -54 -27.5 -74t-75.5 -20q-27 0 -68 26z" />
    <glyph glyph-name="adieresis" unicode="&#xe4;" 
d="M251 254q-29 -74 -29 -138q0 -106 115 -106q29 4 43.5 12t31.5 27.5t33 32.5h5q-5 -56 -38.5 -75.5t-91.5 -19.5q-125 0 -135 105q-5 -26 -45.5 -60.5t-72.5 -34.5h-5q-62 17 -62 74q0 74 77 144q60 55 117 55q32 0 57 -16zM31 76q0 -16 1.5 -25.5t10 -17.5t24.5 -8
q44 2 88.5 70.5t47.5 117.5q-16 20 -44 20q-36 0 -75 -46t-53 -111zM113 385q7 0 18 -10.5t11 -19.5q-6 -23 -22 -23q-4 0 -8 2q-21 7 -21 25t22 26zM237 385q7 0 17.5 -10.5t10.5 -19.5q-6 -23 -21 -23q-4 0 -9 2q-20 7 -20 25t22 26z" />
    <glyph glyph-name="aring" unicode="&#xe5;" 
d="M251 254q-29 -74 -29 -138q0 -106 115 -106q29 4 43.5 12t31.5 27.5t33 32.5h5q-5 -56 -38.5 -75.5t-91.5 -19.5q-125 0 -135 104q-3 -11 -20 -33.5t-44.5 -41.5t-51.5 -19h-7q-62 17 -62 72.5t41.5 109.5t97.5 77q12 6 18 8q-30 18 -29.5 54t18 54.5t47.5 18.5
q60 0 60 -55q0 -34 -21 -57q-9 -9 -14 -12q18 -3 33 -13zM31 76q0 -16 1.5 -25.5t10 -17.5t24.5 -8q44 2 88.5 70.5t47.5 117.5q-16 20 -44 20q-36 0 -75 -46t-53 -111zM154.5 361q-16.5 -14 -16.5 -39t15.5 -37.5t32.5 -12.5t35.5 13t18.5 30q2 8 2 16q0 36 -43 43
q-2 1 -3 1q-25 0 -41.5 -14z" />
    <glyph glyph-name="ae" unicode="&#xe6;" horiz-adv-x="512" 
d="M211 -6q-21 0 -26 97q-3 -11 -20 -33.5t-44.5 -41.5t-51.5 -19h-7q-62 17 -62 74q0 74 77 144q60 55 117 55q32 0 57 -16v-1q42 59 103 59q28 0 28 -29q0 -60 -43 -115t-99 -84q-1 -8 -1 -9q0 -26 27 -42t53 -16q66 0 107 24.5t91 81.5q11 9 11.5 16t8.5 13q10 -4 10 -20
q-13 -48 -69 -96.5t-122 -59.5q-9 -2 -19 -2q-54 0 -100 54q-14 -34 -26 -34zM31 76q0 -16 1.5 -25.5t10 -17.5t24.5 -8q44 2 88.5 70.5t47.5 117.5q-16 20 -44 20q-36 0 -75 -46t-53 -111zM355 275q-53 -2 -94 -53q-27 -35 -27 -68q0 -16 7 -33q39 21 76.5 68t37.5 86z" />
    <glyph glyph-name="ccedilla" unicode="&#xe7;" horiz-adv-x="334" 
d="M145 -50l57 5q46 0 76 -26.5t30 -74t-46 -77.5t-96 -30h-32q-31 16 -31 57t33 41q14 0 14 -8v-1q0 -1 -1 -2l-26 -27q-1 -1 -1 -9.5t12.5 -18.5t25.5 -10q42 0 82 23t40 63q0 77 -88 77l-65 -10h-11q0 24 -7 47t-6 34q-29 0 -50 8q-61 23 -46.5 92.5t63 112.5t86.5 43
q50 0 83 -57v-3l-18 -18q-21 45 -58 45q-13 0 -27 -6q-49 -17 -80 -75q-21 -39 -21 -78q10 -32 59 -32q34 0 70 10t90 28t72 18t18 -10q0 -5 -2 -11q-133 -58 -211 -66q4 -12 4 -23t-3 -27q0 -4 4 -4h7z" />
    <glyph glyph-name="egrave" unicode="&#xe8;" horiz-adv-x="326" 
d="M0 105q-1 9 -1 17q0 64 42.5 132t109.5 68q13 0 21 -7.5t8 -25t-9.5 -41t-29 -47.5t-33.5 -39t-39.5 -39t-30.5 -29q-1 -8 -1 -9q0 -27 26 -42t54 -15q67 0 106.5 24t91.5 81q8 10 9.5 16t10.5 13q10 -4 10 -19q-10 -31 -40 -66.5t-71 -60.5q-57 -33 -96.5 -33t-76.5 27
t-61 95zM153 285q-43 0 -80 -46t-37 -88q0 -14 2 -20q37 20 76 68.5t39 85.5zM60 468.5q-6 9.5 -15 24.5t-9 29.5t11.5 14.5t24 -17t20 -32.5t20 -31.5t15.5 -23t3 -9q0 -8 -5 -10q-7 1 -13 4t-10.5 5t-9.5 7l-8 8q-3 3 -9 10.5t-7.5 9t-7.5 11z" />
    <glyph glyph-name="eacute" unicode="&#xe9;" horiz-adv-x="326" 
d="M0 105q-1 9 -1 17q0 64 42.5 132t109.5 68q13 0 21 -7.5t8 -25t-9.5 -41t-29 -47.5t-33.5 -39t-39.5 -39t-30.5 -29q-1 -8 -1 -9q0 -27 26 -42t54 -15q67 0 106.5 24t91.5 81q8 10 9.5 16t10.5 13q10 -4 10 -19q-10 -31 -40 -66.5t-71 -60.5q-57 -33 -96.5 -33t-76.5 27
t-61 95zM153 285q-43 0 -80 -46t-37 -88q0 -14 2 -20q37 20 76 68.5t39 85.5zM85 363q-5 2 -5 7.5t3.5 12t18 25t21.5 35.5q26 53 53 53q11 0 11 -16.5t-18.5 -45.5t-36.5 -46.5t-47 -24.5z" />
    <glyph glyph-name="ecircumflex" unicode="&#xea;" horiz-adv-x="326" 
d="M0 105q-1 9 -1 17q0 64 42.5 132t109.5 68q13 0 21 -7.5t8 -25t-9.5 -41t-29 -47.5t-33.5 -39t-39.5 -39t-30.5 -29q-1 -8 -1 -9q0 -27 26 -42t54 -15q67 0 106.5 24t91.5 81q8 10 9.5 16t10.5 13q10 -4 10 -19q-10 -31 -40 -66.5t-71 -60.5q-57 -33 -96.5 -33t-76.5 27
t-61 95zM153 285q-43 0 -80 -46t-37 -88q0 -14 2 -20q37 20 76 68.5t39 85.5zM202 373q-10 20 -42 100l-16 24q-15 -9 -33.5 -39.5t-35.5 -55t-32 -24.5q-6 0 -9 6q12 29 54 87.5t72 80.5q1 -1 3 -1h3q0 -31 12.5 -61t23.5 -53l16 -35q10 -16 10 -18v-1l1 -2q0 -5 -5.5 -9.5
t-12 -4.5t-9.5 6z" />
    <glyph glyph-name="edieresis" unicode="&#xeb;" horiz-adv-x="326" 
d="M0 105q-1 9 -1 17q0 64 42.5 132t109.5 68q13 0 21 -7.5t8 -25t-9.5 -41t-29 -47.5t-33.5 -39t-39.5 -39t-30.5 -29q-1 -8 -1 -9q0 -27 26 -42t54 -15q67 0 106.5 24t91.5 81q8 10 9.5 16t10.5 13q10 -4 10 -19q-10 -31 -40 -66.5t-71 -60.5q-57 -33 -96.5 -33t-76.5 27
t-61 95zM153 285q-43 0 -80 -46t-37 -88q0 -14 2 -20q37 20 76 68.5t39 85.5zM69 443q7 0 18 -10.5t11 -19.5q-6 -23 -22 -23q-4 0 -8 2q-21 7 -21 25t22 26zM193 443q7 0 17.5 -10.5t10.5 -19.5q-6 -23 -21 -23q-4 0 -9 2q-20 7 -20 25t22 26z" />
    <glyph glyph-name="igrave" unicode="&#xec;" horiz-adv-x="207" 
d="M73 405.5q-7 9.5 -22 34.5t-15 38.5t12 13.5t31 -27q7 -10 13.5 -24t19 -31.5t17.5 -26.5q3 -11 -4 -13q-16 4 -30.5 15t-21.5 20.5zM13 214l4 13q20 64 34 64q20 0 20 -15q0 -3 -1 -6q-38 -93 -38 -177q0 -38 19 -63.5t58 -25.5q98 38 123 38q8 0 8 -4q0 -12 -52 -34.5
t-81.5 -22.5t-44.5 4.5t-22 8.5t-17 17.5t-13 36t-3 64.5t6 102z" />
    <glyph glyph-name="iacute" unicode="&#xed;" horiz-adv-x="207" 
d="M13 214l4 13q20 64 34 64q20 0 20 -15q0 -3 -1 -6q-38 -93 -38 -177q0 -38 19 -63.5t58 -25.5q98 38 123 38q8 0 8 -4q0 -12 -52 -34.5t-81.5 -22.5t-44.5 4.5t-22 8.5t-17 17.5t-13 36t-3 64.5t6 102zM30 391q-6 0 -6 6.5t3 12t18 25t22 35.5q28 54 54 54q10 0 10 -16
t-18.5 -46t-36.5 -47.5t-46 -23.5z" />
    <glyph glyph-name="icircumflex" unicode="&#xee;" horiz-adv-x="207" 
d="M13 214l4 13q20 64 34 64q20 0 20 -15q0 -3 -1 -6q-38 -93 -38 -177q0 -38 19 -63.5t58 -25.5q98 38 123 38q8 0 8 -4q0 -12 -52 -34.5t-81.5 -22.5t-44.5 4.5t-22 8.5t-17 17.5t-13 36t-3 64.5t6 102zM169 429l14 -23v-1q1 -8 -5.5 -12.5t-13 -4.5t-8.5 6q-4 7 -21.5 50
t-21.5 50q-2 11 -14 23q-14 -7 -28 -27l-24 -40q-30 -51 -50 -51q-5 0 -9 7q21 39 58.5 93.5t66.5 72.5l1 -1h6q0 -30 36 -113z" />
    <glyph glyph-name="idieresis" unicode="&#xef;" horiz-adv-x="207" 
d="M13 214l4 13q20 64 34 64q20 0 20 -15q0 -3 -1 -6q-38 -93 -38 -177q0 -38 19 -63.5t58 -25.5q98 38 123 38q8 0 8 -4q0 -12 -52 -34.5t-81.5 -22.5t-44.5 4.5t-22 8.5t-17 17.5t-13 36t-3 64.5t6 102zM25 448q7 0 17.5 -10.5t10.5 -19.5q-6 -23 -21 -23q-4 0 -9 2
q-18 6 -18 24t20 27zM148 448q8 0 18.5 -10.5t10.5 -19.5q-7 -23 -22 -23q-4 0 -9 2q-18 6 -18 24t20 27z" />
    <glyph glyph-name="eth" unicode="&#xf0;" horiz-adv-x="292" 
d="M219 367q54 -74 54 -144q0 -62 -35 -107q-3 -3 -23 -24.5t-28 -29t-27.5 -24.5t-32.5 -24q-37 -20 -65.5 -20t-41 13.5t-15 29t-2.5 41.5q20 66 43.5 106t56.5 57.5t60 22t75 4.5l-51 60q-20 -20 -48 -27q-3 1 -5 6.5t2 12t15 21t12 15.5l-41 50q-6 14 -6 23q0 11 11 11
q21 0 62 -39q20 33 35.5 33t15.5 -14q0 -18 -10 -33t-11 -20zM83.5 179q-44.5 -52 -44.5 -104.5t28 -52.5q39 0 100.5 59.5t61.5 101.5q0 25 -10.5 36.5t-34.5 11.5q-56 0 -100.5 -52z" />
    <glyph glyph-name="ntilde" unicode="&#xf1;" horiz-adv-x="431" 
d="M228 104q0 18 0.5 62.5t0.5 76.5q-28 -6 -81.5 -72t-58.5 -69q-39 -52 -61 -74q-9 -12 -29 -12v22l43 139q0 73 25 108q7 10 13 10q10 0 10 -33.5t-10 -74t-10 -67.5q8 8 48 56t48 56q7 4 24 20q36 32 63 32q15 0 19 -10q1 -11 1 -35.5t-8 -77t-9 -83.5q0 -47 39 -47
q28 0 54 15.5t42 35t37 45t37 37.5v-10q0 -48 -62 -99.5t-113 -51.5h-33q-15 10 -19.5 19l-6.5 13t-2.5 12.5t-0.5 12.5v44zM193 414q-41 26 -63.5 26t-56.5 -39h-11v6q0 37 21.5 50.5t33.5 13.5t20 -3q23 0 61 -22t63 -22h20.5t15.5 0.5t10.5 2t8.5 4t8 6.5t5 9q5 8 5 34.5
t-7.5 38.5t-29.5 12q0 16 22.5 16t33.5 -19t11 -46q0 -54 -27.5 -74t-75.5 -20q-27 0 -68 26z" />
    <glyph glyph-name="ograve" unicode="&#xf2;" horiz-adv-x="384" 
d="M281 283l2 -38q0 -21 -2.5 -32.5t-3.5 -17.5t-5 -15.5t-5 -13.5t-7 -15t-7.5 -14t-9 -16.5t-9.5 -17.5h20q58 0 170 56l8 -9q-96 -77 -226 -84l-88 -54q-12 -10 -52.5 -10t-52 22.5t-11.5 70.5t40.5 109t93.5 61q24 0 31 -20q-56 -17 -96 -59t-40 -97q0 -19 2 -30t11 -20
t35 -9q54 0 88 45q-10 17 -10 55.5t6.5 73t26.5 66.5t50 32t41 -19zM255 236l1 13q0 20 -12 24q-26 -15 -42 -54t-16 -72t10 -35q28 16 43.5 52t15.5 70v2zM165 434.5q-6 9.5 -15 24.5t-9 29.5t11.5 14.5t24.5 -17.5t20 -32.5t19.5 -31t15.5 -23t3 -9q0 -8 -5 -10
q-7 1 -13 4t-10.5 5t-10.5 7l-8 8q-2 3 -8 10.5t-7.5 9t-7.5 11z" />
    <glyph glyph-name="oacute" unicode="&#xf3;" horiz-adv-x="384" 
d="M281 283l2 -38q0 -21 -2.5 -32.5t-3.5 -17.5t-5 -15.5t-5 -13.5t-7 -15t-7.5 -14t-9 -16.5t-9.5 -17.5h20q58 0 170 56l8 -9q-96 -77 -226 -84l-88 -54q-12 -10 -52.5 -10t-52 22.5t-11.5 70.5t40.5 109t93.5 61q24 0 31 -20q-56 -17 -96 -59t-40 -97q0 -19 2 -30t11 -20
t35 -9q54 0 88 45q-10 17 -10 55.5t6.5 73t26.5 66.5t50 32t41 -19zM255 236l1 13q0 20 -12 24q-26 -15 -42 -54t-16 -72t10 -35q28 16 43.5 52t15.5 70v2zM120 335q-5 2 -5 7.5t3.5 12t18 25t21.5 35.5q26 53 53 53q11 0 11 -16.5t-18.5 -45.5t-36.5 -46.5t-47 -24.5z" />
    <glyph glyph-name="ocircumflex" unicode="&#xf4;" horiz-adv-x="384" 
d="M281 283l2 -38q0 -21 -2.5 -32.5t-3.5 -17.5t-5 -15.5t-5 -13.5t-7 -15t-7.5 -14t-9 -16.5t-9.5 -17.5h20q58 0 170 56l8 -9q-96 -77 -226 -84l-88 -54q-12 -10 -52.5 -10t-52 22.5t-11.5 70.5t40.5 109t93.5 61q24 0 31 -20q-56 -17 -96 -59t-40 -97q0 -19 2 -30t11 -20
t35 -9q54 0 88 45q-10 17 -10 55.5t6.5 73t26.5 66.5t50 32t41 -19zM255 236l1 13q0 20 -12 24q-26 -15 -42 -54t-16 -72t10 -35q28 16 43.5 52t15.5 70v2zM207 546q1 -1 3 -1h3q0 -31 12.5 -61t23.5 -53l17 -35q9 -16 9 -18v-1l1 -2q0 -5 -5.5 -9.5t-12 -4.5t-9.5 6
q-10 20 -42 100l-16 24q-15 -9 -33.5 -39.5t-35.5 -55t-32 -24.5q-6 0 -9 6q12 29 54 87.5t72 80.5z" />
    <glyph glyph-name="otilde" unicode="&#xf5;" horiz-adv-x="384" 
d="M281 283l2 -38q0 -21 -2.5 -32.5t-3.5 -17.5t-5 -15.5t-5 -13.5t-7 -15t-7.5 -14t-9 -16.5t-9.5 -17.5h20q58 0 170 56l8 -9q-96 -77 -226 -84l-88 -54q-12 -10 -52.5 -10t-52 22.5t-11.5 70.5t40.5 109t93.5 61q24 0 31 -20q-56 -17 -96 -59t-40 -97q0 -19 2 -30t11 -20
t35 -9q54 0 88 45q-10 17 -10 55.5t6.5 73t26.5 66.5t50 32t41 -19zM255 236l1 13q0 20 -12 24q-26 -15 -42 -54t-16 -72t10 -35q28 16 43.5 52t15.5 70v2zM176 391q-41 26 -63.5 26t-56.5 -39h-11v6q0 37 21.5 50.5t33.5 13.5t20 -3q23 0 61 -22t63 -22h20t16 0.5t10.5 2
t8.5 4t8 6.5t5 9q5 8 5 34.5t-7.5 38.5t-29.5 12q0 16 22.5 16t33.5 -19t11 -46q0 -54 -27.5 -74t-75.5 -20q-27 0 -68 26z" />
    <glyph glyph-name="odieresis" unicode="&#xf6;" horiz-adv-x="384" 
d="M281 283l2 -38q0 -21 -2.5 -32.5t-3.5 -17.5t-5 -15.5t-5 -13.5t-7 -15t-7.5 -14t-9 -16.5t-9.5 -17.5h20q58 0 170 56l8 -9q-96 -77 -226 -84l-88 -54q-12 -10 -52.5 -10t-52 22.5t-11.5 70.5t40.5 109t93.5 61q24 0 31 -20q-56 -17 -96 -59t-40 -97q0 -19 2 -30t11 -20
t35 -9q54 0 88 45q-10 17 -10 55.5t6.5 73t26.5 66.5t50 32t41 -19zM255 236l1 13q0 20 -12 24q-26 -15 -42 -54t-16 -72t10 -35q28 16 43.5 52t15.5 70v2zM133 424q7 0 18 -10.5t11 -19.5q-6 -23 -22 -23q-4 0 -8 2q-21 7 -21 25t22 26zM257 424q7 0 17.5 -10.5t10.5 -19.5
q-6 -23 -21 -23q-4 0 -9 2q-20 7 -20 25t22 26z" />
    <glyph glyph-name="divide" unicode="&#xf7;" horiz-adv-x="505" 
d="M360 279l53 1h53q0 -7 -3 -18t-8 -11h-387v18q30 3 143 6.5t149 3.5zM227 153q-11 11 -0.5 28t20.5 17q45 0 45 -24q0 -16 -14 -27t-38 -11q-1 0 -13 17zM274 391q-2 -30 -38 -30q-16 0 -20 13q-1 3 -1 9t9.5 18.5t17.5 12.5q20 0 26 -5.5t6 -17.5z" />
    <glyph glyph-name="oslash" unicode="&#xf8;" horiz-adv-x="384" 
d="M-24 -42q-15 0 -17 19q0 6 41 58l5 7q-3 15 -3 47q0 54 40.5 115t93.5 61q24 0 31 -20q-56 -17 -96 -59t-40 -97v-14q3 4 14 16.5t28 34t94 108.5l8 8q21 53 53 59q78 91 101 114l7 1h10q5 0 8.5 -4t2.5 -10.5t-10 -20t-13 -14.5q-40 -37 -71 -69q11 -4 18 -15l2 -38
q0 -21 -2.5 -32.5t-3.5 -17.5t-5 -15.5t-5 -13.5t-7 -15t-7.5 -14t-9 -16.5t-9.5 -17.5h20q58 0 170 56l8 -9q-96 -77 -226 -84l-88 -54q-12 -10 -48 -10t-50 14q-34 -50 -36 -54q-3 -4 -8 -4zM40 42q8 -12 36 -12q57 0 91 45q-10 17 -10 51t4 59v5l-14 -16
q-77 -92 -88 -107zM255 236l1 13q0 20 -12 24q-26 -15 -42 -54t-16 -72t10 -35q28 16 43.5 52t15.5 70v2z" />
    <glyph glyph-name="ugrave" unicode="&#xf9;" horiz-adv-x="379" 
d="M245 247q-13 -66 -13 -110t6.5 -64.5t22 -31.5t27 -12t28.5 0q72 35 86.5 35t14.5 -5q0 -7 -29 -24t-72 -25q-110 0 -110 100q0 11 1 23q-6 -11 -16.5 -33.5t-16.5 -34.5t-18 -28.5t-24 -24.5q-33 -21 -77 -21q-19 2 -31 9q-20 11 -20 47q0 64 81 213q6 -12 6 -26.5
t-9.5 -40t-30 -70.5t-23.5 -80q0 -21 14 -23h20q37 0 75.5 44.5t60.5 97t22 83.5l11 12q14 0 14 -10zM125 406.5q-6 9.5 -15 24.5t-9 29.5t11.5 14.5t24.5 -17.5t20 -32.5t19.5 -31t15.5 -23t3 -9q0 -8 -5 -10q-7 1 -13 4t-10.5 5t-10.5 7l-8 8q-2 3 -8 10.5t-7.5 9t-7.5 11
z" />
    <glyph glyph-name="uacute" unicode="&#xfa;" horiz-adv-x="379" 
d="M245 247q-13 -66 -13 -110t6.5 -64.5t22 -31.5t27 -12t28.5 0q72 35 86.5 35t14.5 -5q0 -7 -29 -24t-72 -25q-110 0 -110 100q0 11 1 23q-6 -11 -16.5 -33.5t-16.5 -34.5t-18 -28.5t-24 -24.5q-33 -21 -77 -21q-19 2 -31 9q-20 11 -20 47q0 64 81 213q6 -12 6 -26.5
t-9.5 -40t-30 -70.5t-23.5 -80q0 -21 14 -23h20q37 0 75.5 44.5t60.5 97t22 83.5l11 12q14 0 14 -10zM148 332q-5 2 -5 7.5t3.5 12t18 25t21.5 35.5q26 53 53 53q11 0 11 -16.5t-18.5 -45.5t-36.5 -46.5t-47 -24.5z" />
    <glyph glyph-name="ucircumflex" unicode="&#xfb;" horiz-adv-x="379" 
d="M245 247q-13 -66 -13 -110t6.5 -64.5t22 -31.5t27 -12t28.5 0q72 35 86.5 35t14.5 -5q0 -7 -29 -24t-72 -25q-110 0 -110 100q0 11 1 23q-6 -11 -16.5 -33.5t-16.5 -34.5t-18 -28.5t-24 -24.5q-33 -21 -77 -21q-19 2 -31 9q-20 11 -20 47q0 64 81 213q6 -12 6 -26.5
t-9.5 -40t-30 -70.5t-23.5 -80q0 -21 14 -23h20q37 0 75.5 44.5t60.5 97t22 83.5l11 12q14 0 14 -10zM207 497q1 -1 3 -1h3q0 -31 12.5 -61t23.5 -53l17 -35q9 -16 9 -18v-1l1 -2q0 -5 -5.5 -9.5t-12 -4.5t-9.5 6q-10 20 -42 100l-16 24q-15 -9 -33.5 -39.5t-35.5 -55
t-32 -24.5q-6 0 -9 6q12 29 54 87.5t72 80.5z" />
    <glyph glyph-name="udieresis" unicode="&#xfc;" horiz-adv-x="379" 
d="M245 247q-13 -66 -13 -110t6.5 -64.5t22 -31.5t27 -12t28.5 0q72 35 86.5 35t14.5 -5q0 -7 -29 -24t-72 -25q-110 0 -110 100q0 11 1 23q-6 -11 -16.5 -33.5t-16.5 -34.5t-18 -28.5t-24 -24.5q-33 -21 -77 -21q-19 2 -31 9q-20 11 -20 47q0 64 81 213q6 -12 6 -26.5
t-9.5 -40t-30 -70.5t-23.5 -80q0 -21 14 -23h20q37 0 75.5 44.5t60.5 97t22 83.5l11 12q14 0 14 -10zM108 396q7 0 18 -10.5t11 -19.5q-6 -23 -22 -23q-4 0 -8 2q-21 7 -21 25t22 26zM232 396q7 0 17.5 -10.5t10.5 -19.5q-6 -23 -21 -23q-4 0 -9 2q-20 7 -20 25t22 26z" />
    <glyph glyph-name="yacute" unicode="&#xfd;" horiz-adv-x="316" 
d="M49 266q12 0 11 -24.5t-11 -90t-10 -77.5v-28q0 -12 1.5 -13t3.5 -5t5.5 -3t8 -1.5t11.5 0.5q40 0 63 34q13 18 21.5 32t17 42.5t12 39t9.5 40.5l7 30q5 3 12.5 3t16.5 -12v-4q0 -34 -14.5 -104.5t-14.5 -118.5q11 8 61.5 39t57 36.5t14.5 13.5t8 4q0 -6 -26 -50
q-5 -5 -48.5 -42.5t-47.5 -41.5q-32 -69 -44 -221q-4 -50 -16 -96q-23 -87 -112 -87q-11 0 -27.5 0.5t-27.5 14t-11 34.5q0 81 56 188t125 179q9 20 9 52t1 43q-59 -77 -114 -77h-2q-44 0 -44 100q0 8 1 42.5t19 119.5q1 2 8 5.5t10 3.5zM68.5 -196.5
q-58.5 -118.5 -58.5 -166t33 -47.5h12.5t27.5 11t28.5 34t19 48t12.5 61t8 62t5.5 62.5t4.5 52.5q-1 0 -2 1h-2q-30 0 -88.5 -118.5zM104 323q-5 2 -5 7.5t3.5 12t18 25t21.5 35.5q26 53 53 53q11 0 11 -16.5t-18.5 -45.5t-36.5 -46.5t-47 -24.5z" />
    <glyph glyph-name="thorn" unicode="&#xfe;" horiz-adv-x="373" 
d="M259 545q74 -24 74 -109.5t-64 -160.5t-165 -80q6 -112 6 -201.5t-16 -89.5q-14 0 -38 109l-5 258q4 17 4 42.5t-5 70t-5 93t1 65.5q1 104 24 156h1q11 0 16.5 -55.5t5.5 -90.5q0 -116 -8 -141q33 52 80 88t94 46zM290 450q0 54 -41 54q-68 0 -113 -100q-29 -61 -29 -112
q0 -21 5 -40q17 -7 33 -7q47 0 92 59q53 68 53 146z" />
    <glyph glyph-name="ydieresis" unicode="&#xff;" horiz-adv-x="316" 
d="M49 266q12 0 11 -24.5t-11 -90t-10 -77.5v-28q0 -12 1.5 -13t3.5 -5t5.5 -3t8 -1.5t11.5 0.5q40 0 63 34q13 18 21.5 32t17 42.5t12 39t9.5 40.5l7 30q5 3 12.5 3t16.5 -12v-4q0 -34 -14.5 -104.5t-14.5 -118.5q11 8 61.5 39t57 36.5t14.5 13.5t8 4q0 -6 -26 -50
q-5 -5 -48.5 -42.5t-47.5 -41.5q-32 -69 -44 -221q-4 -50 -16 -96q-23 -87 -112 -87q-11 0 -27.5 0.5t-27.5 14t-11 34.5q0 81 56 188t125 179q9 20 9 52t1 43q-59 -77 -114 -77h-2q-44 0 -44 100q0 8 1 42.5t19 119.5q1 2 8 5.5t10 3.5zM68.5 -196.5
q-58.5 -118.5 -58.5 -166t33 -47.5h12.5t27.5 11t28.5 34t19 48t12.5 61t8 62t5.5 62.5t4.5 52.5q-1 0 -2 1h-2q-30 0 -88.5 -118.5zM73 393q7 0 18 -10.5t11 -19.5q-6 -23 -22 -23q-4 0 -8 2q-21 7 -21 25t22 26zM197 393q7 0 17.5 -10.5t10.5 -19.5q-6 -23 -21 -23
q-4 0 -9 2q-20 7 -20 25t22 26z" />
    <glyph glyph-name="Abreve" unicode="&#x102;" horiz-adv-x="674" 
d="M632 -98q-10 0 -17 -6q-17 64 -28 187t-27 186q-28 2 -108.5 21.5t-115.5 19.5q-25 -28 -120 -173q-28 -42 -68.5 -75.5t-79.5 -33.5h-2l-48 1q-10 6 -10 14t10 14q10 -2 30.5 -2t59 21.5t78.5 71.5q65 80 121 181q-4 1 -19 12.5t-18.5 15t-21.5 20.5t-32 31
q-38 36 -42 54q0 13 8.5 16t18.5 3h12q31 0 90 -19t89 -19q24 29 69.5 142.5t67.5 143.5q24 43 33 43q5 0 5 -14v-11l23 -418h10q63 30 79 30t16 -8q0 -12 -32 -32.5t-63 -26.5q-1 -10 -1 -44.5t17 -175.5t17.5 -155.5t-1.5 -14.5zM363 338q27 -7 75 -14t61 -11
q-38 53 -99 82q-1 -2 -10 -15q-19 -24 -27 -42zM425 424l129 -105q1 20 1 61.5t-4 144.5t-10 159zM250 452q-6 1 -11 1q-15 0 -15 -10q0 -22 45.5 -55t66.5 -33q5 0 9 2q6 7 12 24t16 33q-8 4 -123 38zM569 869q46 0 88 66q4 4 21.5 4t17.5 -11l-1 -1v-1
q-33 -61 -68.5 -83.5t-63.5 -22.5q-44 0 -82 33t-58 73q2 2 16.5 6.5t18.5 4.5q44 -53 78 -63q15 -5 33 -5z" />
    <glyph glyph-name="abreve" unicode="&#x103;" 
d="M251 254q-29 -74 -29 -138q0 -106 115 -106q29 4 43.5 12t31.5 27.5t33 32.5h5q-5 -56 -38.5 -75.5t-91.5 -19.5q-125 0 -135 105q-5 -26 -45.5 -60.5t-72.5 -34.5h-5q-62 17 -62 74q0 74 77 144q60 55 117 55q32 0 57 -16zM31 76q0 -16 1.5 -25.5t10 -17.5t24.5 -8
q44 2 88.5 70.5t47.5 117.5q-16 20 -44 20q-36 0 -75 -46t-53 -111zM202 406q46 0 88 66q4 4 21.5 4t17.5 -11l-1 -1v-1q-33 -61 -68.5 -83.5t-63.5 -22.5q-44 0 -82 33t-58 73q2 2 16.5 6.5t18.5 4.5q44 -53 77 -63q16 -5 34 -5z" />
    <glyph glyph-name="Cacute" unicode="&#x106;" horiz-adv-x="439" 
d="M24 160q-5 22 -5 67t23 139q33 137 101.5 258t139.5 134q21 0 36 -15t24.5 -26t20 -43.5t10.5 -53.5t-1 -34q0 -10 -14 -10h-3q-1 0 -1 1q-6 87 -27 117q-19 26 -50 27q-41 0 -96.5 -96t-93 -206.5t-37.5 -173t38 -135t107 -72.5t134.5 72t80.5 146q11 -3 11 -17.5
t-2 -20.5q-23 -74 -89.5 -146t-132 -72t-111 49t-63.5 111zM239 794q-5 2 -5 7.5t3.5 12t18 25t21.5 35.5q26 53 53 53q11 0 11 -16.5t-18.5 -45.5t-36.5 -46.5t-47 -24.5z" />
    <glyph glyph-name="cacute" unicode="&#x107;" horiz-adv-x="334" 
d="M96 35q34 0 70 10t90 28t72 18t18 -10q0 -5 -2 -11q-152 -69 -237 -69q-48 0 -74.5 22t-26.5 51.5t11 59.5q25 67 81 103q33 22 61 22q49 0 82 -57v-3l-18 -18q-21 45 -58 45q-13 0 -27 -6q-49 -17 -80 -75q-21 -39 -21 -78q10 -32 59 -32zM84 299q-5 2 -5 7.5t3.5 12
t18 25t21.5 35.5q26 53 53 53q11 0 11 -16.5t-18.5 -45.5t-36.5 -46.5t-47 -24.5z" />
    <glyph glyph-name="Ccaron" unicode="&#x10c;" horiz-adv-x="439" 
d="M24 160q-5 22 -5 67t23 139q33 137 101.5 258t139.5 134q21 0 36 -15t24.5 -26t20 -43.5t10.5 -53.5t-1 -34q0 -10 -14 -10h-3q-1 0 -1 1q-6 87 -27 117q-19 26 -50 27q-41 0 -96.5 -96t-93 -206.5t-37.5 -173t38 -135t107 -72.5t134.5 72t80.5 146q11 -3 11 -17.5
t-2 -20.5q-23 -74 -89.5 -146t-132 -72t-111 49t-63.5 111zM415 929q-49 -113 -118 -113q-41 0 -81 33.5t-73 79.5q2 2 16.5 6.5t18.5 4.5l28 -28q22 -22 33 -32t29.5 -19t27 -9t18 3t28.5 23.5t35 59.5q4 4 21.5 4t17.5 -11l-1 -1v-1z" />
    <glyph glyph-name="ccaron" unicode="&#x10d;" horiz-adv-x="334" 
d="M96 35q34 0 70 10t90 28t72 18t18 -10q0 -5 -2 -11q-152 -69 -237 -69q-48 0 -74.5 22t-26.5 51.5t11 59.5q25 67 81 103q33 22 61 22q49 0 82 -57v-3l-18 -18q-21 45 -58 45q-13 0 -27 -6q-49 -17 -80 -75q-21 -39 -21 -78q10 -32 59 -32zM281 435q-49 -113 -118 -113
q-41 0 -81 33.5t-73 79.5q2 2 16.5 6.5t18.5 4.5l28 -28q22 -22 33 -32t29.5 -19t27 -9t18 3t28.5 23.5t35 59.5q4 4 21.5 4t17.5 -11l-1 -1v-1z" />
    <glyph glyph-name="Dcaron" unicode="&#x10e;" horiz-adv-x="616" 
d="M20 -5l73 558q3 40 5 47l4 29h20q0 -25 -6 -66q-27 -202 -52 -435q1 1 7 6.5t7.5 7t6.5 5.5t7 5.5t6.5 4.5t7.5 4q15 5 24 5q30 0 55.5 -23.5t41 -51t43 -51t61.5 -23.5q54 0 117.5 58.5t104.5 135.5t41 130q0 1 -0.5 3l-0.5 2q-43 -41 -84.5 -58.5t-97 -17.5t-94.5 20.5
t-61 57.5q-41 70 -41 173q0 91 43 183q22 46 60.5 75.5t90.5 29.5t97.5 -33.5t71.5 -85.5q53 -108 53 -217v-9q0 -83 -33.5 -184t-92.5 -179.5t-137 -101.5q-18 -5 -37 -5q-61 0 -126 58q-7 9 -17 26q-26 42 -50 56q-7 5 -8 4q-24 -6 -40 -30t-23 -48q-18 -65 -47 -65z
M284.5 358q42.5 -60 133.5 -60q12 -1 24 -1q102 0 141 92q19 46 19 98t-17 110q-33 115 -110 167q-29 20 -61 26q-45 0 -80 -28.5t-54 -72.5q-38 -88 -38 -179.5t42.5 -151.5zM557 963q-49 -113 -118 -113q-41 0 -81 33.5t-73 79.5q2 2 16.5 6.5t18.5 4.5l28 -28
q22 -22 33 -32t29.5 -19t27 -9t18 3t28.5 23.5t35 59.5q4 4 21.5 4t17.5 -11l-1 -1v-1z" />
    <glyph glyph-name="Ecaron" unicode="&#x11a;" horiz-adv-x="472" 
d="M345 436q57 0 57 -32.5t-31 -55.5q-52 -37 -130 -37q-19 0 -47 15t-43 15h-5q-96 -73 -96 -181q0 -50 22 -77t74 -45q20 -6 37 -6t41 3t48.5 9t56.5 21t53.5 27.5t50.5 29.5t49 26q9 -20 9 -27.5t-9 -11.5q-223 -109 -291.5 -109t-123 44t-54.5 113q0 38 21 81t39 66
t54 65v4l-10 88q0 44 27 108.5t73.5 116.5t89.5 52t69 -30.5t26 -71.5q0 -1 0.5 -8t0 -11t-1.5 -9q-2 -12 -14 -12h-5q-12 71 -36 99q-13 14 -28 14q-67 0 -119.5 -85t-52.5 -156q0 -28 10 -72h9q24 0 78.5 20t82.5 20h19zM193 364q0 -24 57 -24q35 0 71 12t52 36
q-14 20 -42 20t-83 -13t-55 -31zM436 896q-49 -113 -118 -113q-41 0 -81 33.5t-73 79.5q2 2 16.5 6.5t18.5 4.5l28 -28q22 -22 33 -32t29.5 -19t26.5 -9t18 3t29 23.5t35 59.5q4 4 21.5 4t17.5 -11l-1 -1v-1z" />
    <glyph glyph-name="ecaron" unicode="&#x11b;" horiz-adv-x="326" 
d="M0 105q-1 9 -1 17q0 64 42.5 132t109.5 68q13 0 21 -7.5t8 -25t-9.5 -41t-29 -47.5t-33.5 -39t-39.5 -39t-30.5 -29q-1 -8 -1 -9q0 -27 26 -42t54 -15q67 0 106.5 24t91.5 81q8 10 9.5 16t10.5 13q10 -4 10 -19q-10 -31 -40 -66.5t-71 -60.5q-57 -33 -96.5 -33t-76.5 27
t-61 95zM153 285q-43 0 -80 -46t-37 -88q0 -14 2 -20q37 20 76 68.5t39 85.5zM258 515q-49 -113 -118 -113q-41 0 -81 33.5t-73 79.5q2 2 16.5 6.5t18.5 4.5l28 -28q22 -22 33 -32t29.5 -19t26.5 -9t18 3t29 23.5t35 59.5q4 4 21.5 4t17.5 -11l-1 -1v-1z" />
    <glyph glyph-name="Lacute" unicode="&#x139;" horiz-adv-x="958" 
d="M617 157h-10q-26 -18 -114 -64.5t-93 -49.5q-60 -30 -176 -30q-105 0 -162 57q-31 32 -31 78q0 70 68 108q56 32 135 47q49 10 80 14h18q71 0 191 -48q1 0 9 -4.5t16 -8.5t18 -8q19 -10 30 -17.5t11 -8.5q15 -9 19 -9q79 102 95 154q-7 -1 -26.5 -1t-73.5 11.5t-116.5 35
t-107.5 65t-45 88.5q0 19 15 19l9 -11q8 -11 20.5 -27.5t27.5 -34.5q35 -43 50 -50q114 -62 227 -62q34 0 47 11l246 245q13 14 40 25q37 15 64 15q65 0 67 -52q0 -49 -22.5 -89.5t-54 -66t-80.5 -47.5q-69 -31 -170 -58q-16 -4 -23 -6q-2 -2 -24.5 -10t-25.5 -10
q-12 -18 -105 -164q54 -69 154 -297q34 -80 74 -155t92.5 -119.5t112.5 -44.5h3q144 0 195 12q110 24 131 123q5 26 5 65t-30 83t-75 64l19 2q56 0 86 -50t30 -102t-11.5 -88t-28.5 -60t-47.5 -40.5t-57.5 -25.5t-70 -14q-63 -6 -156 -6q-10 -2 -19 -2q-41 0 -85.5 31.5
t-82 89.5t-77 133.5t-70.5 145.5q-76 169 -135 219zM92.5 216q-25.5 -28 -25.5 -67.5t25 -64.5q43 -42 127 -42q121 0 171 29q35 18 101.5 54.5t69.5 39.5l18 19q-22 41 -109.5 68.5t-139.5 27.5t-89.5 -5t-80 -18t-68 -41zM1132 629q0 38 -42 38q-13 0 -32.5 -7t-35.5 -23
l-208 -218h15q52 0 121 25.5t125.5 76t56.5 108.5zM1010 724q-5 2 -5 7.5t3.5 12t18 25t21.5 35.5q26 53 53 53q11 0 11 -16.5t-18.5 -45.5t-36.5 -46.5t-47 -24.5z" />
    <glyph glyph-name="lacute" unicode="&#x13a;" horiz-adv-x="233" 
d="M4 116q4 112 64 272t101 174q12 0 17 -23t5 -38q0 -54 -23 -127.5t-54 -118.5q-12 -20 -32.5 -42t-31 -40.5t-10.5 -46.5q0 -50 27.5 -82t77.5 -32q83 0 105 57h11q0 -39 -39 -62t-88 -23t-84 37.5t-46 94.5zM165 495q-8 -9 -26.5 -42t-21.5 -43q-67 -175 -67 -189
q42 29 78 121.5t37 152.5zM98 593q-5 2 -5 7.5t3.5 12t18 25t21.5 35.5q26 53 53 53q11 0 11 -16.5t-18.5 -45.5t-36.5 -46.5t-47 -24.5z" />
    <glyph glyph-name="Lcaron" unicode="&#x13d;" horiz-adv-x="958" 
d="M1322 -76l19 2q56 0 86 -50t30 -102t-11.5 -88t-28.5 -60t-47.5 -40.5t-57.5 -25.5t-70 -14q-63 -6 -156 -6q-10 -2 -19 -2q-41 0 -85.5 31.5t-82 89.5t-77 133.5t-70.5 145.5q-76 169 -135 219h-10q-26 -18 -114 -64.5t-93 -49.5q-60 -30 -176 -30q-105 0 -162 57
q-31 32 -31 78q0 70 68 108q56 32 135 47q49 10 80 14h18q71 0 191 -48l56 -28q28 -17 28 -19l11 -5q7 -4 8 -4q79 102 95 154q-7 -1 -26.5 -1t-73.5 11.5t-116.5 35t-107.5 65t-45 88.5q0 19 15 19l9 -11q8 -11 20.5 -27.5t27.5 -34.5q35 -43 50 -50q114 -62 227 -62
q34 0 47 11l246 245q13 14 40 25q37 15 64 15q65 0 67 -52q0 -49 -22.5 -89.5t-54 -66t-80.5 -47.5q-69 -31 -170 -58q-16 -4 -23 -6q-2 -2 -24.5 -10t-25.5 -10q-12 -18 -105 -164q54 -69 154 -297q34 -80 74 -155t92.5 -119.5t112.5 -44.5h3q144 0 195 12q110 24 131 123
q5 26 5 65t-30 83t-75 64zM92.5 216q-25.5 -28 -25.5 -67.5t25 -64.5q43 -42 127 -42q121 0 171 29q35 18 101.5 54.5t69.5 39.5l18 19q-22 41 -109.5 68.5t-139.5 27.5t-89.5 -5t-80 -18t-68 -41zM1132 629q0 38 -42 38q-13 0 -32.5 -7t-35.5 -23l-208 -218h15
q52 0 121 25.5t125.5 76t56.5 108.5zM893 759l83 70q4 4 21 4t17 -11l-1 -2v-1l-114 -117q-87 44 -157 117q0 1 6 3l11 4q11 6 18 6z" />
    <glyph glyph-name="Lslash" unicode="&#x141;" horiz-adv-x="958" 
d="M1322 -76l19 2q56 0 86 -50t30 -102t-11.5 -88t-28.5 -60t-47.5 -40.5t-57.5 -25.5t-70 -14q-63 -6 -156 -6q-10 -2 -19 -2q-41 0 -85.5 31.5t-82 89.5t-77 133.5t-70.5 145.5q-76 169 -135 219h-10q-26 -18 -114 -64.5t-93 -49.5q-60 -30 -176 -30q-105 0 -162 57
q-31 32 -31 78q0 70 68 108q56 32 135 47q49 10 80 14h18q71 0 191 -48l56 -28q28 -17 28 -19l11 -5q7 -4 8 -4l52 71l-86 -1q-11 0 -11 12.5t2 17t6.5 6t8 2t11.5 0t13.5 0t27.5 1t51 0.5q15 26 20 45q-7 -1 -26.5 -1t-73.5 11.5t-116.5 35t-107.5 65t-45 88.5q0 19 15 19
l9 -11q8 -11 20.5 -27.5t27.5 -34.5q35 -43 50 -50q114 -62 227 -62q34 0 47 11l246 245q13 14 40 25q37 15 64 15q65 0 67 -52q0 -49 -22.5 -89.5t-54 -66t-80.5 -47.5q-69 -31 -170 -58q-16 -4 -23 -6q-2 -2 -24.5 -10t-25.5 -10q-5 -6 -23 -35q11 1 32 1l38 2h5
q15 0 15 -20q0 -17 -20 -18l-95 -2l-57 -92q54 -69 154 -297q34 -80 74 -155t92.5 -119.5t112.5 -44.5h3q144 0 195 12q110 24 131 123q5 26 5 65t-30 83t-75 64zM92.5 216q-25.5 -28 -25.5 -67.5t25 -64.5q43 -42 127 -42q121 0 171 29q35 18 101.5 54.5t69.5 39.5l18 19
q-22 41 -109.5 68.5t-139.5 27.5t-89.5 -5t-80 -18t-68 -41zM1132 629q0 38 -42 38q-13 0 -32.5 -7t-35.5 -23l-208 -218h15q52 0 121 25.5t125.5 76t56.5 108.5z" />
    <glyph glyph-name="lslash" unicode="&#x142;" horiz-adv-x="233" 
d="M129 261l153 4h5q15 0 15 -20q0 -17 -20 -18l-190 -4q-5 -4 -15 -15t-12.5 -15t-9 -13t-9.5 -16q-6 -16 -6 -38q0 -50 27.5 -82t77.5 -32q83 0 105 57h11q0 -39 -39 -62t-88 -23t-84 37.5t-46 94.5q4 112 64 272t101 174q12 0 17 -23t5 -38q0 -89 -49 -192
q-12 -27 -24 -48h11zM165 495q-8 -9 -26.5 -42t-21.5 -43l-41 -106l-15 -45q3 3 15 1h10q1 1 19 31t39 96t21 108zM50 221l5 3l-3 5z" />
    <glyph glyph-name="Nacute" unicode="&#x143;" horiz-adv-x="631" 
d="M561 175l2 -104q20 -161 179 -161q8 0 38 4t37 6q-19 -29 -99 -29t-122.5 39.5t-61.5 121.5l-1 118q0 69 15 204t15 203v62l-322 -303l-19 -152q-7 -61 -49.5 -125t-97.5 -64q-27 0 -45 19t-17 48q5 52 40.5 112.5t67 95.5t81.5 85q2 10 2 59.5t-20 138.5q-3 10 -19 10
q-1 0 -9 -1q-70 -55 -134 -55q0 20 10 25q4 2 13.5 5.5t18 6.5t57 28.5t54.5 27.5l9 1q11 0 19 -8.5t10 -20.5l29 -197l339 329l19 -18l4 -58q0 -76 -21.5 -226t-21.5 -227zM76.5 158q-26.5 -48 -26.5 -91.5t20 -43.5q35 0 63 32.5t43 79.5q29 96 29 163h-11q-2 0 -24.5 -23
t-31.5 -34q-35 -35 -61.5 -83zM461 753q-5 2 -5 7.5t3.5 12t18 25t21.5 35.5q26 53 53 53q11 0 11 -16.5t-18.5 -45.5t-36.5 -46.5t-47 -24.5z" />
    <glyph glyph-name="nacute" unicode="&#x144;" horiz-adv-x="431" 
d="M228 104q0 18 0.5 62.5t0.5 76.5q-28 -6 -81.5 -72t-58.5 -69q-39 -52 -61 -74q-9 -12 -29 -12v22l43 139q0 73 25 108q7 10 13 10q10 0 10 -33.5t-10 -74t-10 -67.5q8 8 48 56t48 56q7 4 24 20q36 32 63 32q15 0 19 -10q1 -11 1 -35.5t-8 -77t-9 -83.5q0 -47 39 -47
q28 0 54 15.5t42 35t37 45t37 37.5v-10q0 -48 -62 -99.5t-113 -51.5h-33q-15 10 -19.5 19l-6.5 13t-2.5 12.5t-0.5 12.5v44zM173 337q-5 2 -5 7.5t3.5 12t18 25t21.5 35.5q26 53 53 53q11 0 11 -16.5t-18.5 -45.5t-36.5 -46.5t-47 -24.5z" />
    <glyph glyph-name="Ncaron" unicode="&#x147;" horiz-adv-x="631" 
d="M561 175l2 -104q20 -161 179 -161q8 0 38 4t37 6q-19 -29 -99 -29t-122.5 39.5t-61.5 121.5l-1 118q0 69 15 204t15 203v62l-322 -303l-19 -152q-7 -61 -49.5 -125t-97.5 -64q-27 0 -45 19t-17 48q5 52 40.5 112.5t67 95.5t81.5 85q2 10 2 59.5t-20 138.5q-3 10 -19 10
q-1 0 -9 -1q-70 -55 -134 -55q0 20 10 25q4 2 13.5 5.5t18 6.5t57 28.5t54.5 27.5l9 1q11 0 19 -8.5t10 -20.5l29 -197l339 329l19 -18l4 -58q0 -76 -21.5 -226t-21.5 -227zM76.5 158q-26.5 -48 -26.5 -91.5t20 -43.5q35 0 63 32.5t43 79.5q29 96 29 163h-11q-2 0 -24.5 -23
t-31.5 -34q-35 -35 -61.5 -83zM593 851q-49 -113 -118 -113q-41 0 -81 33.5t-73 79.5q2 2 16.5 6.5t18.5 4.5l28 -28q22 -22 33 -32t29.5 -19t27 -9t18 3t28.5 23.5t35 59.5q4 4 21.5 4t17.5 -11l-1 -1v-1z" />
    <glyph glyph-name="ncaron" unicode="&#x148;" horiz-adv-x="431" 
d="M228 104q0 18 0.5 62.5t0.5 76.5q-28 -6 -81.5 -72t-58.5 -69q-39 -52 -61 -74q-9 -12 -29 -12v22l43 139q0 73 25 108q7 10 13 10q10 0 10 -33.5t-10 -74t-10 -67.5q8 8 48 56t48 56q7 4 24 20q36 32 63 32q15 0 19 -10q1 -11 1 -35.5t-8 -77t-9 -83.5q0 -47 39 -47
q28 0 54 15.5t42 35t37 45t37 37.5v-10q0 -48 -62 -99.5t-113 -51.5h-33q-15 10 -19.5 19l-6.5 13t-2.5 12.5t-0.5 12.5v44zM351 472q-49 -113 -118 -113q-41 0 -81 33.5t-73 79.5q2 2 16.5 6.5t18.5 4.5l28 -28q22 -22 33 -32t29.5 -19t27 -9t18 3t28.5 23.5t35 59.5
q4 4 21.5 4t17.5 -11l-1 -1v-1z" />
    <glyph glyph-name="Ohungarumlaut" unicode="&#x150;" horiz-adv-x="508" 
d="M488 586l-11 -217v-10l67 29v-6q0 -7 -6 -10.5t-22 -11.5q-47 -24 -49.5 -28.5t-14 -44t-13.5 -42.5q-99 -236 -264 -236q-71 0 -104 51q-34 52 -40 100q-8 74 -8 129l1 79v20q0 17 18 132q7 39 24 80q30 76 72 76v-15q-88 -147 -88 -379q0 -86 16 -137t72 -98
q12 -9 31 -9q94 0 166.5 86.5t93.5 186.5q-16 -1 -32 -1q-115 0 -168.5 56.5t-53.5 200.5q0 81 14.5 146.5t32.5 103.5t51 64.5t69 26.5t61 -18.5t41 -48.5q30 -54 43 -113zM459 445l8 188q0 66 -15 124q-29 112 -97 122q-5 1 -10 1q-29 0 -55 -26.5t-42 -69.5t-27 -94
q-19 -89 -19 -144.5t15.5 -102t53.5 -80t92 -33.5l27 -1q43 0 49 20q8 59 20 86v10zM230 986q-7 2 -7 7.5t4 11.5t17.5 24.5t22.5 35.5q29 53 53 53q10 0 9.5 -16.5t-17.5 -45.5q-14 -20 -22 -31q-25 -32 -60 -39zM327 981q-6 2 -6 7.5t3.5 11t17.5 24.5t23 37q26 53 53 53
q11 0 11 -16.5t-19 -45.5t-37 -46.5t-46 -24.5z" />
    <glyph glyph-name="ohungarumlaut" unicode="&#x151;" horiz-adv-x="384" 
d="M281 283l2 -38q0 -21 -2.5 -32.5t-3.5 -17.5t-5 -15.5t-5 -13.5t-7 -15t-7.5 -14t-9 -16.5t-9.5 -17.5h20q58 0 170 56l8 -9q-96 -77 -226 -84l-88 -54q-12 -10 -52.5 -10t-52 22.5t-11.5 70.5t40.5 109t93.5 61q24 0 31 -20q-56 -17 -96 -59t-40 -97q0 -19 2 -30t11 -20
t35 -9q54 0 88 45q-10 17 -10 55.5t6.5 73t26.5 66.5t50 32t41 -19zM255 236l1 13q0 20 -12 24q-26 -15 -42 -54t-16 -72t10 -35q28 16 43.5 52t15.5 70v2zM114 376q-7 2 -7 7.5t4 11.5t17.5 24.5t22.5 35.5q29 53 53 53q10 0 9.5 -16t-17.5 -46q-14 -20 -22 -31
q-25 -32 -60 -39zM211 371q-6 2 -6 7.5t3.5 11t17.5 24.5t23 37q26 53 53 53q11 0 11 -16.5t-19 -45.5t-37 -46.5t-46 -24.5z" />
    <glyph glyph-name="OE" unicode="&#x152;" horiz-adv-x="837" 
d="M770 618q0 -20 -16 -20h-4q-19 75 -34.5 94.5t-30.5 19.5q-67 0 -120 -85.5t-53 -156.5q0 -29 11 -72h9q24 0 77.5 20t83.5 20h21q55 0 55 -32.5t-31 -55.5q-52 -37 -130 -37q-20 0 -47.5 15t-43.5 15h-5q-39 -29 -65 -72q-7 -27 -25 -65q-4 -13 -4 -53.5t22 -67.5
t72 -45q29 -5 59 -5t72 11t114.5 53t91.5 50q9 -20 9 -26.5t-9 -11.5q-224 -109 -289 -109t-118 38t-61 97q-90 -128 -206 -128q-71 0 -104 51q-34 52 -40 100q-8 74 -8 129v57l1 35v7q0 17 18 132q7 39 24 80q30 76 72 76v-15q-88 -147 -88 -379q0 -86 16 -137t72 -98
q12 -9 31 -9q64 0 121 43.5t93 111.5q9 38 39 88l3 15q2 10 4 15q-16 -1 -32 -1q-115 0 -168.5 56.5t-53.5 200.5q0 81 14.5 146.5t32.5 103.5t51 64.5t69 26.5t61 -18.5t41 -48.5q30 -54 43 -113l1 -71v-71q0 -23 -2 -63q24 78 80.5 147.5t112.5 69.5q38 0 64 -31t26 -71z
M459 445l8 188q0 66 -15 124q-29 112 -97 122q-5 1 -10 1q-29 0 -55 -26.5t-42 -69.5t-27 -94q-19 -89 -19 -144.5t15.5 -102t53.5 -80t92 -33.5l27 -1q43 0 49 20q8 59 20 86v10zM561 366q0 -24 55 -24q35 0 71 11.5t53 36.5q-13 19 -42 19t-83 -12t-54 -31zM494 371v4
q0 18 -15 54q-2 -20 -2 -30v-40l11 5q2 2 2 3z" />
    <glyph glyph-name="oe" unicode="&#x153;" horiz-adv-x="544" 
d="M13.5 24.5q-11.5 22.5 -11.5 70.5t40.5 109t93.5 61q24 0 31 -20q-56 -17 -96 -59t-40 -97q0 -19 2 -30t11 -20t35 -9q54 0 88 45q-10 17 -10 55.5t6.5 73t26.5 66.5t50 32t41 -19v-4q31 23 65 23q13 0 21 -8t8 -20q0 -35 -29 -79t-52.5 -66t-60.5 -55q-1 -7 -1 -9
q0 -27 26.5 -42.5t53.5 -15.5q66 0 108.5 25.5t89.5 80.5q9 9 10 16t10 13q10 -4 10 -20q-9 -30 -37 -64.5t-68 -59.5q-59 -35 -97 -35q-90 0 -135 101l-85 -52q-12 -10 -52.5 -10t-52 22.5zM348 265q-35 0 -74 -39l-43 -102q0 -8 2 -12q37 23 75 69t40 84zM186 145v-5
l-1 -9q0 -16 9 -19q11 62 61 144q-2 16 -11 17q-26 -15 -42 -54t-16 -74z" />
    <glyph glyph-name="Racute" unicode="&#x154;" horiz-adv-x="632" 
d="M488 731q37 0 37 -47t-47 -126q-59 -102 -133 -144q-28 -16 -54 -19q35 -31 113 -197q27 -57 65 -102.5t75 -45.5q76 0 108 50q0 -74 -118 -87q-45 2 -81.5 42t-61 94t-49.5 106t-58.5 80.5t-68.5 28.5q-10 0 -21 -2q-41 -192 -55 -243.5t-19 -74.5t-13.5 -39t-10 -19
t-11.5 -10.5t-12 -9.5q-56 2 -56 73t55 225q22 60 42 114q53 140 63 197q0 32 -7.5 42.5t-17.5 6.5t-28.5 -14t-31.5 -12v24q5 8 37 28t43 20q21 0 32 -45.5t11 -88.5q6 18 77 78q139 117 196 117zM150 378q-37 -46 -70 -163t-33 -184q5 -22 13 -22q11 0 29 45q38 96 56 235
q6 43 6 62t-1 27zM504 665q0 24 -21 24q-6 0 -23.5 -4t-65.5 -35q-20 -20 -64.5 -54.5t-72 -58t-45.5 -53t-18 -46t2 -24.5q20 -8 42 -8q46 0 100 36q78 54 128 131q38 58 38 92zM290 711q-5 2 -5 7.5t3.5 12t18 25t21.5 35.5q26 53 53 53q11 0 11 -16.5t-18.5 -45.5
t-36.5 -46.5t-47 -24.5z" />
    <glyph glyph-name="racute" unicode="&#x155;" horiz-adv-x="381" 
d="M264 64q1 -23 35 -23q20 0 45 8t48.5 10t23.5 -12q-42 -28 -116 -33q-4 -1 -8 -1q-28 0 -43.5 13.5t-15.5 29.5t2 27q0 22 9.5 64t9.5 63q-18 0 -61.5 -7.5t-62.5 -13.5q-25 -125 -87 -166q-18 -12 -27.5 -12t-14 4.5t-4.5 11t9 17.5q31 -2 46 30q15 30 24.5 64.5
t15.5 50.5q-47 19 -47 48q0 53 46 72q16 6 32 6t29.5 -11t13.5 -31t-26 -55q3 0 36 8q91 24 110 24q0 -31 -11 -93.5t-11 -92.5zM82 247q0 -18 29 -29q21 21 21 41q0 8 -3 16q-8 19 -24 10q-14 -9 -23 -38zM128 481q-5 2 -5 7.5t3.5 12t18 25t21.5 35.5q26 53 53 53
q11 0 11 -16.5t-18.5 -45.5t-36.5 -46.5t-47 -24.5z" />
    <glyph glyph-name="Rcaron" unicode="&#x158;" horiz-adv-x="632" 
d="M488 731q37 0 37 -47t-47 -126q-59 -102 -133 -144q-28 -16 -54 -19q35 -31 113 -197q27 -57 65 -102.5t75 -45.5q76 0 108 50q0 -74 -118 -87q-45 2 -81.5 42t-61 94t-49.5 106t-58.5 80.5t-68.5 28.5q-10 0 -21 -2q-41 -192 -55 -243.5t-19 -74.5t-13.5 -39t-10 -19
t-11.5 -10.5t-12 -9.5q-56 2 -56 73t55 225q22 60 42 114q53 140 63 197q0 32 -7.5 42.5t-17.5 6.5t-28.5 -14t-31.5 -12v24q5 8 37 28t43 20q21 0 32 -45.5t11 -88.5q6 18 77 78q139 117 196 117zM150 378q-37 -46 -70 -163t-33 -184q5 -22 13 -22q11 0 29 45q38 96 56 235
q6 43 6 62t-1 27zM504 665q0 24 -21 24q-6 0 -23.5 -4t-65.5 -35q-20 -20 -64.5 -54.5t-72 -58t-45.5 -53t-18 -46t2 -24.5q20 -8 42 -8q46 0 100 36q78 54 128 131q38 58 38 92zM470 844q-49 -113 -118 -113q-41 0 -81 33.5t-73 79.5q2 2 16.5 6.5t18.5 4.5l28 -28
q22 -22 33 -32t29.5 -19t26.5 -9t18 3t29 23.5t35 59.5q4 4 21.5 4t17.5 -11l-1 -1v-1z" />
    <glyph glyph-name="rcaron" unicode="&#x159;" horiz-adv-x="381" 
d="M264 64q1 -23 35 -23q20 0 45 8t48.5 10t23.5 -12q-42 -28 -116 -33q-4 -1 -8 -1q-28 0 -43.5 13.5t-15.5 29.5t2 27q0 22 9.5 64t9.5 63q-18 0 -61.5 -7.5t-62.5 -13.5q-25 -125 -87 -166q-18 -12 -27.5 -12t-14 4.5t-4.5 11t9 17.5q31 -2 46 30q15 30 24.5 64.5
t15.5 50.5q-47 19 -47 48q0 53 46 72q16 6 32 6t29.5 -11t13.5 -31t-26 -55q3 0 36 8q91 24 110 24q0 -31 -11 -93.5t-11 -92.5zM82 247q0 -18 29 -29q21 21 21 41q0 8 -3 16q-8 19 -24 10q-14 -9 -23 -38zM330 497q-49 -113 -118 -113q-41 0 -81 33.5t-73 79.5
q2 2 16.5 6.5t18.5 4.5l28 -28q22 -22 33 -32t29.5 -19t26.5 -9t18 3t29 23.5t35 59.5q4 4 21.5 4t17.5 -11l-1 -1v-1z" />
    <glyph glyph-name="Sacute" unicode="&#x15a;" horiz-adv-x="800" 
d="M473 -20q-115 0 -265 133l-183 -88q-5 0 -10.5 15t-5.5 21t34 17q118 36 156 71q-15 57 -15 104.5t18 82.5q36 66 163 103q-8 -6 -2.5 -13.5t2.5 -10.5q-92 -47 -117 -69q-39 -36 -39 -93q0 -37 18 -93q28 21 176 126t254 193l19 255q6 68 53 124.5t110 56.5
q44 -9 62.5 -28.5t18.5 -43.5q0 -58 -64 -147q-29 -40 -56 -74q-74 -92 -103 -140q9 -61 9 -117.5t-8 -107.5t-23 -97.5t-39 -82.5q-65 -97 -163 -97zM245 127q124 -115 221 -115q76 0 122 53q59 69 73 160q10 60 10 111.5t-10 100.5zM838 886q-91 -10 -116 -102
q-18 -67 -22 -148.5t-7 -104.5q43 36 121.5 151t78.5 156q0 23 -16 35.5t-39 12.5zM763 986q-5 2 -5 7.5t3.5 12t18 25t21.5 35.5q26 53 53 53q11 0 11 -16.5t-18.5 -45.5t-36.5 -46.5t-47 -24.5z" />
    <glyph glyph-name="sacute" unicode="&#x15b;" horiz-adv-x="443" 
d="M67 103h10q13 9 51.5 40.5t43 35t57.5 56.5q4 5 12 21q17 36 40 36q14 0 14 -14.5t-10 -32.5t-10 -28v-187q82 0 112 32q12 12 33.5 36t44.5 42v-10q0 -35 -43 -71.5t-90 -53.5t-65 -17t-25 1q-27 0 -51 9.5t-55.5 28.5t-50.5 28q-42 -28 -68.5 -28t-26.5 11q0 5 9.5 15
t40.5 21l-19 29q-5 4 1 6.5t9 2.5l17 -4q18 -5 19 -5zM124 84q11 -22 52 -37t74 -15q0 87 -12 156q-22 -13 -28 -18.5t-42 -42.5t-44 -43zM188 356q-5 2 -5 7.5t3.5 12t18 25t21.5 35.5q26 53 53 53q11 0 11 -16.5t-18.5 -45.5t-36.5 -46.5t-47 -24.5z" />
    <glyph glyph-name="Scaron" unicode="&#x160;" horiz-adv-x="800" 
d="M473 -20q-115 0 -265 133l-183 -88q-5 0 -10.5 15t-5.5 21t34 17q118 36 156 71q-15 57 -15 104.5t18 82.5q36 66 163 103q-8 -6 -2.5 -13.5t2.5 -10.5q-92 -47 -117 -69q-39 -36 -39 -93q0 -37 18 -93q28 21 176 126t254 193l19 255q6 68 53 124.5t110 56.5
q44 -9 62.5 -28.5t18.5 -43.5q0 -58 -64 -147q-29 -40 -56 -74q-74 -92 -103 -140q9 -61 9 -117.5t-8 -107.5t-23 -97.5t-39 -82.5q-65 -97 -163 -97zM245 127q124 -115 221 -115q76 0 122 53q59 69 73 160q10 60 10 111.5t-10 100.5zM838 886q-91 -10 -116 -102
q-18 -67 -22 -148.5t-7 -104.5q43 36 121.5 151t78.5 156q0 23 -16 35.5t-39 12.5zM924 1064q-49 -113 -118 -113q-41 0 -81 33.5t-73 79.5q2 2 16.5 6.5t18.5 4.5l28 -28q22 -22 33 -32t29.5 -19t26.5 -9t18 3t29 23.5t35 59.5q4 4 21.5 4t17.5 -11l-1 -1v-1z" />
    <glyph glyph-name="scaron" unicode="&#x161;" horiz-adv-x="443" 
d="M67 103h10q13 9 51.5 40.5t43 35t57.5 56.5q4 5 12 21q17 36 40 36q14 0 14 -14.5t-10 -32.5t-10 -28v-187q82 0 112 32q12 12 33.5 36t44.5 42v-10q0 -35 -43 -71.5t-90 -53.5t-65 -17t-25 1q-27 0 -51 9.5t-55.5 28.5t-50.5 28q-42 -28 -68.5 -28t-26.5 11q0 5 9.5 15
t40.5 21l-19 29q-5 4 1 6.5t9 2.5l17 -4q18 -5 19 -5zM124 84q11 -22 52 -37t74 -15q0 87 -12 156q-22 -13 -28 -18.5t-42 -42.5t-44 -43zM353 445q-49 -113 -118 -113q-41 0 -81 33.5t-73 79.5q2 2 16.5 6.5t18.5 4.5l28 -28q22 -22 33 -32t29.5 -19t27 -9t18 3t28.5 23.5
t35 59.5q4 4 21.5 4t17.5 -11l-1 -1v-1z" />
    <glyph glyph-name="Tcaron" unicode="&#x164;" horiz-adv-x="686" 
d="M157 730q18 0 18 -42q0 -20 -4 -39q38 0 107 -8.5t105 -8.5q76 0 157 37.5t125 95.5q0 30 11 69t19 52.5t19 21.5q16 0 26 -14.5t10.5 -37.5t-26.5 -60t-29.5 -64t-17 -126t-24 -141.5t-30.5 -103t-55.5 -125.5t-76.5 -114t-100 -81t-122 -32q-88 0 -172 60t-84 143
q0 51 29 99t72.5 48t43.5 -25q-48 0 -83 -31.5t-35 -84.5q0 -73 74.5 -127t150.5 -54q128 0 222 123q168 237 170 558q-4 -3 -34 -26t-59 -42t-76.5 -33t-77 -14t-49.5 1t-63 5.5t-81 4.5t-71 -11v125q6 2 11 2zM723 860q-9 -17 -9 -47q10 12 10 23.5t-1 23.5zM691 1064
q-49 -113 -118 -113q-41 0 -81 33.5t-73 79.5q2 2 16.5 6.5t18.5 4.5l28 -28q22 -22 33 -32t29.5 -19t27 -9t18 3t28.5 23.5t35 59.5q4 4 21.5 4t17.5 -11l-1 -1v-1z" />
    <glyph glyph-name="Uring" unicode="&#x16e;" horiz-adv-x="758" 
d="M190 596q-32 -20 -68 -20h-39t-23.5 0.5t-15 2t-12.5 3.5q-14 6 -14 18l2 6q25 19 47 19q9 0 0 -19q8 -2 31 -2t69 21t70 21v-22l-77 -435v-14q0 -45 24 -91t67.5 -46t88.5 64t91.5 190t78.5 180l49 189q1 10 13 10q15 0 15 -23q0 -55 -24.5 -167.5t-24.5 -169.5
q0 -255 170 -255q25 0 39.5 6t36.5 23q2 0 6.5 -4t4.5 -5q0 -48 -90 -48q-58 0 -98.5 25t-59.5 65q-39 84 -39 177q0 8 1 37t1 75q-5 -21 -48.5 -122t-52.5 -120.5t-21.5 -41.5t-34.5 -53q-44 -61 -106 -61t-89.5 48t-27.5 114l2 37l58 350v38zM425 730.5
q-21 -22.5 -47 -22.5t-41.5 18t-15.5 40v6q0 32 17.5 50.5t47.5 18.5q60 0 60 -55q0 -33 -21 -55.5zM347.5 812q-16.5 -14 -16.5 -39t15.5 -38t32.5 -13t35.5 13.5t18.5 30.5q2 9 2 19t-6 21q-8 16 -37 20h-3q-25 0 -41.5 -14z" />
    <glyph glyph-name="uring" unicode="&#x16f;" horiz-adv-x="379" 
d="M245 247q-13 -66 -13 -110t6.5 -64.5t22 -31.5t27 -12t28.5 0q72 35 86.5 35t14.5 -5q0 -7 -29 -24t-72 -25q-110 0 -110 100q0 11 1 23q-6 -11 -16.5 -33.5t-16.5 -34.5t-18 -28.5t-24 -24.5q-33 -21 -77 -21q-19 2 -31 9q-20 11 -20 47q0 64 81 213q6 -12 6 -26.5
t-9.5 -40t-30 -70.5t-23.5 -80q0 -21 14 -23h20q37 0 75.5 44.5t60.5 97t22 83.5l11 12q14 0 14 -10zM236 350.5q-21 -22.5 -47 -22.5t-41.5 18t-15.5 40v6q0 32 17.5 50.5t47.5 18.5q60 0 60 -55q0 -33 -21 -55.5zM158.5 432q-16.5 -14 -16.5 -39t15.5 -38t32.5 -13
t35.5 13.5t18.5 30.5q2 9 2 19t-6 21q-8 16 -37 20h-3q-25 0 -41.5 -14z" />
    <glyph glyph-name="Uhungarumlaut" unicode="&#x170;" horiz-adv-x="758" 
d="M190 596q-32 -20 -68 -20h-39t-23.5 0.5t-15 2t-12.5 3.5q-14 6 -14 18l2 6q25 19 47 19q9 0 0 -19q8 -2 31 -2t69 21t70 21v-22l-77 -435v-14q0 -45 24 -91t67.5 -46t88.5 64t91.5 190t78.5 180l49 189q1 10 13 10q15 0 15 -23q0 -55 -24.5 -167.5t-24.5 -169.5
q0 -255 170 -255q25 0 39.5 6t36.5 23q2 0 6.5 -4t4.5 -5q0 -48 -90 -48q-58 0 -98.5 25t-59.5 65q-39 84 -39 177q0 8 1 37t1 75q-5 -21 -48.5 -122t-52.5 -120.5t-21.5 -41.5t-34.5 -53q-44 -61 -106 -61t-89.5 48t-27.5 114l2 37l58 350v38zM323 726q-7 2 -7 7.5t4 11.5
t17.5 24.5t22.5 35.5q29 53 53 53q10 0 9.5 -16.5t-17.5 -45.5q-14 -20 -23 -31q-24 -32 -59 -39zM420 721q-6 2 -6 7.5t3.5 11t17.5 24.5t23 37q26 53 53 53q11 0 11 -16.5t-19 -45.5t-37 -46.5t-46 -24.5z" />
    <glyph glyph-name="uhungarumlaut" unicode="&#x171;" horiz-adv-x="379" 
d="M245 247q-13 -66 -13 -110t6.5 -64.5t22 -31.5t27 -12t28.5 0q72 35 86.5 35t14.5 -5q0 -7 -29 -24t-72 -25q-110 0 -110 100q0 11 1 23q-6 -11 -16.5 -33.5t-16.5 -34.5t-18 -28.5t-24 -24.5q-33 -21 -77 -21q-19 2 -31 9q-20 11 -20 47q0 64 81 213q6 -12 6 -26.5
t-9.5 -40t-30 -70.5t-23.5 -80q0 -21 14 -23h20q37 0 75.5 44.5t60.5 97t22 83.5l11 12q14 0 14 -10zM96 330q-7 2 -7 7.5t4 11.5t17.5 24.5t22.5 35.5q29 53 53 53q10 0 9.5 -16t-17.5 -46q-14 -20 -22 -31q-25 -32 -60 -39zM193 325q-6 2 -6 7.5t3.5 11t17.5 24.5t23 37
q26 53 53 53q11 0 11 -16.5t-19 -45.5t-37 -46.5t-46 -24.5z" />
    <glyph glyph-name="Ydieresis" unicode="&#x178;" horiz-adv-x="598" 
d="M289 -403q-102 0 -224 213q-31 40 -31 86q0 20 9 19q20 -2 51 -91q98 -190 184 -190q34 0 66 30q88 81 139 349q25 133 30 265q-28 -101 -87 -123q-14 -5 -27 -5q-39 0 -72 45q-56 76 -56 225q0 45 5 94q-11 -2 -54.5 -29.5t-56.5 -27.5q-16 0 -17 15q9 4 63.5 39.5
t70 35.5t18.5 -6.5t4 -12.5q3 -127 5.5 -184t24.5 -98t65 -55q45 10 72.5 46.5t38 87.5t15.5 101.5t10 104t15 80.5l20 -7q-11 -465 -94 -749q-75 -258 -187 -258zM325 700q7 0 18 -10.5t11 -19.5q-6 -23 -22 -23q-4 0 -8 2q-21 7 -21 25t22 26zM449 700q7 0 17.5 -10.5
t10.5 -19.5q-6 -23 -21 -23q-4 0 -9 2q-20 7 -20 25t22 26z" />
    <glyph glyph-name="Zacute" unicode="&#x179;" horiz-adv-x="723" 
d="M1105 -13q4 -12 6 -12q-80 -107 -217 -107q-76 0 -179 34t-188 74t-183.5 74t-172 34t-130.5 -47q-26 0 -28 10q34 32 56 44t77 32l19 8l369 285l85 94v9q-29 0 -83.5 -14.5t-81.5 -14.5q-67 0 -128 30q-13 -22 -37 -28v107q21 0 23 -11q1 -12 20.5 -25.5t45.5 -22
t45 -10t58 -1.5q114 0 166 38q15 11 37 42t44 51.5t48 20.5q16 0 19.5 -5.5t3.5 -14.5q0 -30 -221 -233q-80 -74 -91 -87q-21 -14 -256 -199l-19 -19h8q58 0 269 -103q85 -41 198 -76t204 -35q53 0 100 12q43 7 56.5 18t28.5 24.5t29 23.5zM761 644.5q0 6.5 -12 -7
t-9.5 -13.5h5t9.5 7t7 13.5zM502 660q-5 2 -5 7.5t3.5 12t18 25t21.5 35.5q26 53 53 53q11 0 11 -16.5t-18.5 -45.5t-36.5 -46.5t-47 -24.5z" />
    <glyph glyph-name="zacute" unicode="&#x17a;" horiz-adv-x="495" 
d="M294 139l-2 -45q20 -17 35 -51.5t20 -42.5q132 94 190 94q2 0 5.5 -4t3.5 -5l-9 -9q-44 -17 -70.5 -29t-61 -35t-58.5 -51q0 -45 -32 -124t-85 -128q-27 -25 -52 -25t-48 23q0 15 5 26.5t7.5 17.5t8.5 14.5t9 12.5q15 17 17.5 21t57 72t65 80.5t10.5 27.5q0 78 -37 78
q-15 0 -43 -20t-44.5 -20t-21.5 1q-16 1 -16 18.5t18 25.5t40 12t40 24.5t18 60.5t-33 40q-37 0 -72 -29.5t-79 -90.5t-54 -72l-20 9q16 18 44 61.5t48.5 70.5t58 48.5t79.5 21.5h15t23 -8q20 -15 20 -71zM301 -86q-36 -25 -85.5 -93.5t-49.5 -109.5q0 -12 2 -14
q50 2 91.5 77t41.5 126v14zM187 38q4 -1 8.5 -1t20.5 10h-5q-8 0 -24 -9zM182 302q-5 2 -5 7.5t3.5 12t18 25t21.5 35.5q26 53 53 53q11 0 11 -16.5t-18.5 -45.5t-36.5 -46.5t-47 -24.5z" />
    <glyph glyph-name="Zdotaccent" unicode="&#x17b;" horiz-adv-x="723" 
d="M1105 -13q4 -12 6 -12q-80 -107 -217 -107q-76 0 -179 34t-188 74t-183.5 74t-172 34t-130.5 -47q-26 0 -28 10q34 32 56 44t77 32l19 8l369 285l85 94v9q-29 0 -83.5 -14.5t-81.5 -14.5q-67 0 -128 30q-13 -22 -37 -28v107q21 0 23 -11q1 -12 20.5 -25.5t45.5 -22
t45 -10t58 -1.5q114 0 166 38q15 11 37 42t44 51.5t48 20.5q16 0 19.5 -5.5t3.5 -14.5q0 -30 -221 -233q-80 -74 -91 -87q-21 -14 -256 -199l-19 -19h8q58 0 269 -103q85 -41 198 -76t204 -35q53 0 100 12q43 7 56.5 18t28.5 24.5t29 23.5zM753.5 630.5q7.5 7.5 7.5 14
t-12 -7t-7.5 -14t12 7zM502 694q31 0 41 -10t10 -31q-2 -38 -37 -49q-10 -4 -23.5 -4t-23 11t-9.5 25.5t9 28.5q19 29 33 29z" />
    <glyph glyph-name="zdotaccent" unicode="&#x17c;" horiz-adv-x="495" 
d="M294 139l-2 -45q20 -17 35 -51.5t20 -42.5q132 94 190 94q2 0 5.5 -4t3.5 -5l-9 -9q-44 -17 -70.5 -29t-61 -35t-58.5 -51q0 -45 -32 -124t-85 -128q-27 -25 -52 -25t-48 23q0 15 5 26.5t7.5 17.5t8.5 14.5t9 12.5q15 17 17.5 21t57 72t65 80.5t10.5 27.5q0 78 -37 78
q-15 0 -43 -20t-44.5 -20t-21.5 1q-16 1 -16 18.5t18 25.5t40 12t40 24.5t18 60.5t-33 40q-37 0 -72 -29.5t-79 -90.5t-54 -72l-20 9q16 18 44 61.5t48.5 70.5t58 48.5t79.5 21.5h15t23 -8q20 -15 20 -71zM301 -86q-36 -25 -85.5 -93.5t-49.5 -109.5q0 -12 2 -14
q50 2 91.5 77t41.5 126v14zM187 38q4 -1 8.5 -1t20.5 10h-5q-8 0 -24 -9zM213 383q31 0 41 -10t10 -31q-2 -38 -37 -49q-10 -4 -23.5 -4t-23 11t-9.5 25.5t9 28.5q19 29 33 29z" />
    <glyph glyph-name="Zcaron" unicode="&#x17d;" horiz-adv-x="723" 
d="M1105 -13q4 -12 6 -12q-80 -107 -217 -107q-76 0 -179 34t-188 74t-183.5 74t-172 34t-130.5 -47q-26 0 -28 10q34 32 56 44t77 32l19 8l369 285l85 94v9q-29 0 -83.5 -14.5t-81.5 -14.5q-67 0 -128 30q-13 -22 -37 -28v107q21 0 23 -11q1 -12 20.5 -25.5t45.5 -22
t45 -10t58 -1.5q114 0 166 38q15 11 37 42t44 51.5t48 20.5q16 0 19.5 -5.5t3.5 -14.5q0 -30 -221 -233q-80 -74 -91 -87q-21 -14 -256 -199l-19 -19h8q58 0 269 -103q85 -41 198 -76t204 -35q53 0 100 12q43 7 56.5 18t28.5 24.5t29 23.5zM761 644.5q0 6.5 -12 -7
t-9.5 -13.5h5t9.5 7t7 13.5zM708 773q-49 -113 -118 -113q-41 0 -81 33.5t-73 79.5q2 2 16.5 6.5t18.5 4.5l28 -28q22 -22 33 -32t29.5 -19t26.5 -9t18 3t29 23.5t35 59.5q4 4 21.5 4t17.5 -11l-1 -1v-1z" />
    <glyph glyph-name="zcaron" unicode="&#x17e;" horiz-adv-x="495" 
d="M294 139l-2 -45q20 -17 35 -51.5t20 -42.5q132 94 190 94q2 0 5.5 -4t3.5 -5l-9 -9q-44 -17 -70.5 -29t-61 -35t-58.5 -51q0 -45 -32 -124t-85 -128q-27 -25 -52 -25t-48 23q0 15 5 26.5t7.5 17.5t8.5 14.5t9 12.5q15 17 17.5 21t57 72t65 80.5t10.5 27.5q0 78 -37 78
q-15 0 -43 -20t-44.5 -20t-21.5 1q-16 1 -16 18.5t18 25.5t40 12t40 24.5t18 60.5t-33 40q-37 0 -72 -29.5t-79 -90.5t-54 -72l-20 9q16 18 44 61.5t48.5 70.5t58 48.5t79.5 21.5h15t23 -8q20 -15 20 -71zM301 -86q-36 -25 -85.5 -93.5t-49.5 -109.5q0 -12 2 -14
q50 2 91.5 77t41.5 126v14zM187 38q4 -1 8.5 -1t20.5 10h-5q-8 0 -24 -9zM322 401q-49 -113 -118 -113q-41 0 -81 33.5t-73 79.5q2 2 16.5 6.5t18.5 4.5l28 -28q22 -22 33 -32t29.5 -19t26.5 -9t18 3t29 23.5t35 59.5q4 4 21.5 4t17.5 -11l-1 -1v-1z" />
    <glyph glyph-name="florin" unicode="&#x192;" horiz-adv-x="268" 
d="M269 370q9 -8 9 -14t-15 -6q-29 0 -98 41q-39 0 -57.5 -32t-18.5 -77t11 -68q21 2 46 2t45.5 -15.5t20.5 -43.5q-4 0 -40 11.5t-49 11.5t-18 -3v-5l40 -176l9 -88q9 -87 9 -89q-17 -2 -48 -2t-52.5 13t2.5 19q10 2 26.5 2t38.5 -2l-47 305q-4 14 -16.5 19.5t-24.5 4.5
q-31 -3 -31 24q0 8 11 10q17 2 46 -8q-3 32 -3 77t15 79q22 49 80 49h2q74 -7 107 -39z" />
    <glyph glyph-name="circumflex" unicode="&#x2c6;" horiz-adv-x="292" 
d="M174 643q1 -1 3 -1h3q0 -31 12.5 -61t23.5 -53l16 -35q10 -16 10 -18v-1l1 -2q0 -5 -5.5 -9.5t-12 -4.5t-9.5 6q-10 20 -42 100l-16 24q-15 -9 -33.5 -39.5t-35.5 -55t-32 -24.5q-6 0 -9 6q12 29 54 87.5t72 80.5z" />
    <glyph glyph-name="caron" unicode="&#x2c7;" horiz-adv-x="298" 
d="M277 606q-49 -113 -118 -113q-41 0 -81 33.5t-73 79.5q2 2 16.5 6.5t18.5 4.5l28 -28q22 -22 33 -32t29.5 -19t27 -9t18 3t28.5 23.5t35 59.5q4 4 21.5 4t17.5 -11l-1 -1v-1z" />
    <glyph glyph-name="breve" unicode="&#x2d8;" horiz-adv-x="298" 
d="M151 549q46 0 88 66q4 4 21.5 4t17.5 -11l-1 -1v-1q-33 -61 -68.5 -83.5t-63.5 -22.5q-44 0 -82 33t-58 73q2 2 16.5 6.5t18.5 4.5q44 -53 78 -63q15 -5 33 -5z" />
    <glyph glyph-name="dotaccent" unicode="&#x2d9;" horiz-adv-x="163" 
d="M80 614q31 0 41 -10t10 -31q-2 -38 -37 -49q-10 -4 -23.5 -4t-23 11t-9.5 25.5t9 28.5q19 29 33 29z" />
    <glyph glyph-name="ring" unicode="&#x2da;" horiz-adv-x="289" 
d="M187 562.5q-21 -22.5 -47 -22.5t-41.5 18t-15.5 40v6q0 32 17.5 50.5t47.5 18.5q60 0 60 -55q0 -33 -21 -55.5zM109.5 644q-16.5 -14 -16.5 -39t15.5 -38t32.5 -13t35.5 13.5t18.5 30.5q2 9 2 19t-6 21q-8 16 -37 20h-3q-25 0 -41.5 -14z" />
    <glyph glyph-name="tilde" unicode="&#x2dc;" horiz-adv-x="378" 
d="M172 534q-41 26 -63.5 26t-56.5 -39h-11v6q0 37 21.5 50.5t33.5 13.5t20 -3q23 0 61 -22t63 -22h20t16 0.5t10.5 2t8.5 4t8 6.5t5 9q5 8 5 34.5t-7.5 38.5t-29.5 12q0 16 22.5 16t33.5 -19t11 -46q0 -54 -27.5 -74t-75.5 -20q-27 0 -68 26z" />
    <glyph glyph-name="hungarumlaut" unicode="&#x2dd;" horiz-adv-x="241" 
d="M22 486q-7 2 -7 7.5t4 11.5t17.5 24.5t22.5 35.5q29 53 53 53q10 0 9.5 -16.5t-17.5 -45.5q-14 -20 -22 -31q-25 -32 -60 -39zM119 481q-6 2 -6 7.5t3.5 11t17.5 24.5t23 37q26 53 53 53q11 0 11 -16.5t-19 -45.5t-37 -46.5t-46 -24.5z" />
    <glyph glyph-name="endash" unicode="&#x2013;" horiz-adv-x="433" 
d="M87 260l295 9h6q14 0 14 -14.5t-4 -18.5t-16 -5l-323 -8h-1q-9 0 -9 12.5t2 17t6.5 6t8 2t11 0t10.5 -0.5z" />
    <glyph glyph-name="emdash" unicode="&#x2014;" horiz-adv-x="635" 
d="M87 260l468 16h7q14 0 14 -14.5t-4 -18.5t-17 -5l-496 -15h-1q-9 0 -9 12.5t2 17t6.5 6t8 2t11 0t10.5 -0.5z" />
    <glyph glyph-name="quoteleft" unicode="&#x2018;" horiz-adv-x="94" 
d="M27.5 386q-3.5 4 -3.5 11t9 36.5t9 43t-5.5 31.5t-5.5 30q19 0 34 -14.5t15 -32.5q0 -70 -47 -109q-2 0 -5.5 4z" />
    <glyph glyph-name="quoteright" unicode="&#x2019;" horiz-adv-x="138" 
d="M48 373q3 11 19 37t19.5 39t3 32.5t3.5 30.5q18 -5 27 -20.5t9 -25t-3 -17.5q-33 -76 -72 -88q-6 0 -6 12z" />
    <glyph glyph-name="quotesinglbase" unicode="&#x201a;" horiz-adv-x="124" 
d="M46.5 -48.5q-3.5 3.5 -3.5 11t9.5 36.5t9.5 42.5t-6 31.5t-6 30q20 0 36 -15.5t14 -36.5q-13 -80 -48 -103q-2 0 -5.5 3.5z" />
    <glyph glyph-name="quotedblleft" unicode="&#x201c;" horiz-adv-x="260" 
d="M103.5 435.5q-12.5 44.5 -12.5 62t15 17.5q19 0 26.5 -22t7.5 -49.5t-11 -52.5h-4q-9 0 -21.5 44.5zM234 462l-1 -22l-2 -32l-9 -11q-3 8 -15.5 32t-22 46t-9.5 31t7 16.5t15.5 7.5t15.5 -3.5t10.5 -10t6 -13t3 -17t1 -15.5t0.5 -9z" />
    <glyph glyph-name="quotedblright" unicode="&#x201d;" horiz-adv-x="260" 
d="M103.5 435.5q-12.5 44.5 -12.5 62t15 17.5q19 0 26.5 -22t7.5 -49.5t-11 -52.5h-4q-9 0 -21.5 44.5zM234 462l-1 -22l-2 -32l-9 -11q-3 8 -15.5 32t-22 46t-9.5 31t7 16.5t15.5 7.5t15.5 -3.5t10.5 -10t6 -13t3 -17t1 -15.5t0.5 -9z" />
    <glyph glyph-name="quotedblbase" unicode="&#x201e;" horiz-adv-x="220" 
d="M50.5 -16.5q-11.5 43.5 -11.5 62.5t14 19q34 0 34 -67q0 -33 -11 -57l-3 -1q-11 0 -22.5 43.5zM182 12l-1 -22l-2 -33l-10 -10l-25 50q-23 46 -23 56.5t7.5 18t16.5 7.5t16 -3.5t10.5 -10t6 -13t3 -16.5t1 -15t0.5 -9z" />
    <glyph glyph-name="dagger" unicode="&#x2020;" horiz-adv-x="251" 
d="M106 561l-1 -11l-3 -196v-5q7 -4 23 -4t58 12t46 12q0 -55 -75 -55q-22 0 -51 5q-1 -3 -1 -17t10 -85q23 -160 23 -184.5t-5 -34.5q-5 -4 -10 -4q-12 0 -16 20t-14 133t-17 175l-28 -6q-9 -6 -33 -6t-24 10q0 30 38 26q14 -1 28.5 5t19.5 22l3 187l18 19q11 -4 11 -18z
" />
    <glyph glyph-name="daggerdbl" unicode="&#x2021;" horiz-adv-x="251" 
d="M82 222l-9 100l-28 -6q-9 -6 -33 -6t-24 10q0 30 38 26q14 -1 28.5 5t19.5 22l3 187q15 7 22 7t7 -6l-1 -11q-3 -197 -3 -201l127 20q3 -7 3 -13.5t-6.5 -14t-31.5 -12.5q-31 -6 -91 -10q0 -45 5 -87q44 4 74.5 4t38 -5t1.5 -11q-15 -16 -110 -27q3 -22 8 -55
q16 -93 16 -108t-0.5 -22t-7 -11t-13 -4t-11 13.5t-11.5 95t-8 90.5q-33 -5 -58 -5t-28 8.5t13 15.5q25 11 45.5 11h24.5z" />
    <glyph glyph-name="bullet" unicode="&#x2022;" horiz-adv-x="188" 
d="M98 269q30 0 40.5 -10t10.5 -30q-2 -39 -38 -50q-10 -3 -23.5 -3t-23 11.5t-9.5 25.5t9 28q20 28 34 28z" />
    <glyph glyph-name="ellipsis" unicode="&#x2026;" horiz-adv-x="371" 
d="M78 68q7 0 18 -10.5t11 -18.5q-6 -25 -22 -25q-4 0 -9 3q-20 7 -20 25.5t22 25.5zM202 68q7 0 17.5 -10.5t10.5 -18.5q-6 -25 -21 -25q-5 0 -10 3q-19 7 -19 25.5t22 25.5zM325 68q8 0 18.5 -10.5t10.5 -18.5q-8 -24 -23 -24q-4 0 -9 2q-19 8 -19 26t22 25z" />
    <glyph glyph-name="guilsinglleft" unicode="&#x2039;" horiz-adv-x="369" 
d="M110 250l171 -198q1 -2 -2 -8.5t-6 -9.5h-7q-18 0 -31 33q-75 89 -108 122t-69 61v3q0 6 8 9q116 50 215 115q9 6 14 5.5t6 -0.5q16 -4 16 -12q0 -5 -8 -13q-119 -74 -199 -107z" />
    <glyph glyph-name="guilsinglright" unicode="&#x203a;" horiz-adv-x="309" 
d="M66 76l172 192q-91 37 -201 106q-2 1 -5 5t-3 7t15 12h1l2 1q7 0 19 -7q99 -62 217 -112q9 -3 9 -9v-3q-6 -4 -31.5 -25t-29.5 -24q-8 -10 -59.5 -65.5t-56 -61.5t-8.5 -13t-7 -11q-6 -11 -20 -11h-6q-11 9 -8 19z" />
    <glyph glyph-name="Euro" unicode="&#x20ac;" horiz-adv-x="490" 
d="M34 282l31 1h19q2 49 8 86h-53q-7 0 -18 7t-11 15q0 16 28.5 16t60.5 -1q25 145 88 233q52 73 111 73q72 0 147 -94q-1 -10 -15 -10h-3l-1 1q-63 70 -121 70q-52 0 -97 -69q-49 -77 -72 -205q160 -6 174 -29l-9 -8l-172 1q-8 -47 -9 -86h138q53 0 71 -11q-9 -20 -210 -27
q5 -107 65 -171q33 -36 77 -36q82 0 130 27t63 91q10 -3 9.5 -19.5t-0.5 -18.5q-38 -118 -202 -118q-60 0 -105 48.5t-65 111.5q-8 38 -8 84q-28 -1 -50.5 -1t-22.5 21q0 15 11 18h13z" />
    <glyph glyph-name="trademark" unicode="&#x2122;" horiz-adv-x="1175" 
d="M853 379l-1 -24v-5q-2 -17 -11.5 -80.5t-13.5 -78.5q11 19 37 68.5t43.5 80t41.5 68.5q47 73 90 82q30 0 30 -68v-40q-2 -57 -16 -148q-22 -136 -22 -178t4.5 -76t20.5 -73q35 -81 150 -101q27 9 27 6q0 -7 -22 -13t-28 -6t-9 1q-121 0 -158 154q-2 23 -2 73.5t14 178.5
t15 182v9l-1 33v10q-4 20 -9 20q-61 -47 -111 -136q-33 -57 -76 -147q-12 -20 -40 -109q-6 -6 -10 -6t-6.5 2.5t-2.5 3.5q0 41 46 308q-2 15 -14 10q-10 -4 -13 -10q-59 -70 -144 -179l-6 -23q-13 -51 -25 -85t-38 -60t-56 -26q-23 0 -24.5 6t-1.5 21.5t14 31.5
q111 137 131 205q5 5 5 40v33q0 55 -4 55l-129 -52q-11 0 -11 10q0 7 16.5 11.5t21.5 6.5t27 15q49 29 75 29t26 -38v-22q0 -17 -3.5 -54t-3.5 -60q125 160 144.5 175t26.5 -2q2 -4 6 -19v-10zM139 439l146 -11q54 0 107 24.5t89 64.5q7 79 33 98q21 0 27 -33q0 -18 -19 -43
t-21 -40q-8 -80 -20 -139l-6 -34q-19 -88 -52.5 -149t-62 -94.5t-69 -55t-93 -21.5t-111 41t-58.5 97q0 34 20 66.5t50.5 32.5t30.5 -17q-34 0 -58 -20.5t-24 -57.5q0 -51 51 -87t104 -36q90 0 154 84q116 157 118 378q-34 -28 -57 -43q-54 -35 -132 -35h-14l-104 6
q-25 0 -47 -6v84q13 4 16 0q4 -9 4 -19zM537 16q18 0 37.5 20t28 36.5t27.5 73.5v3l-16 -18q-77 -83 -77 -115zM521 582q-7 -11 -7 -32q8 7 8 15.5t-0.5 11.5t-0.5 5z" />
    <glyph glyph-name="minus" unicode="&#x2212;" horiz-adv-x="423" 
d="M87 260l276 11h6q14 0 14 -14.5t-4 -18.5t-16 -5l-304 -10h-1q-9 0 -9 12.5t2 17t6.5 6t8 2t11 0t10.5 -0.5z" />
    <glyph glyph-name="uni2215" unicode="&#x2215;" horiz-adv-x="487" 
d="M453 388q3 1 7 1q11 0 14.5 -5t3.5 -8t-1 -7q-13 -22 -28 -28q-263 -172 -417 -341l-1 -1h-3q-15 0 -15 22q0 7 85.5 82.5t350.5 284.5h4z" />
    <glyph glyph-name="fi" unicode="&#xfb01;" horiz-adv-x="532" 
d="M331 71l-1 31q0 37 7 112l4 13q20 64 34 64q20 0 20 -15q0 -3 -1 -6q-38 -93 -38 -177v-1h6q0 -8 -5 -18l3 -14q6 -24 25 -40t48 -16q98 38 123 38q8 0 8 -4q0 -12 -52 -34.5t-81.5 -22.5t-38 3t-14.5 5t-8 3t-6.5 3.5t-7.5 4.5q-13 14 -17 26l-4 19q-55 -39 -117.5 -58
t-95.5 -22q0 -18 9 -52.5t9 -60t-13.5 -80.5t-42 -105.5t-62.5 -50.5q-54 0 -54 145q0 68 7 117.5t30 134.5l143 351h7q40 0 40 -49q0 -71 -62 -177q-38 -65 -69 -87q11 -48 81 -48q88 0 174 58q5 3 12 10zM-4 -228q0 -119 35 -119q26 0 53.5 85.5t27.5 129t-13 72t-55 46.5
q-25 -16 -36.5 -86t-11.5 -128zM92 147v-10q27 31 47 75t20 80q0 2 -0.5 8t-0.5 7l-10 -9zM442 433z" />
    <glyph glyph-name="fl" unicode="&#xfb02;" horiz-adv-x="558" 
d="M328 68l-3 17q6 113 65.5 271.5t99.5 173.5q22 0 22 -57.5t-22.5 -129t-44 -105.5t-42.5 -56.5t-31 -41t-10 -46.5v-7q1 -42 26.5 -74.5t77.5 -32.5q83 0 105 58h11q0 -40 -39 -63t-81 -23q-78 0 -121 82l-5 12q-10 -9 -25 -17q-38 -25 -97 -43t-92 -21q0 -18 9 -52.5
t9 -60t-13.5 -80.5t-42 -105.5t-62.5 -50.5q-54 0 -54 145q0 68 7 117.5t30 134.5l143 351h7q40 0 40 -49q0 -71 -62 -177q-38 -65 -69 -87q11 -48 81 -48q88 0 174 58q3 3 9 7zM-4 -228q0 -119 35 -119q26 0 53.5 85.5t27.5 129t-13 72t-55 46.5q-25 -16 -36.5 -86
t-11.5 -128zM486 463q-6 -6 -24.5 -39.5t-23.5 -44.5q-66 -172 -66 -189q41 27 77 120t37 153zM92 147v-10q27 31 47 75t20 80q0 2 -0.5 8t-0.5 7l-10 -9z" />
    <glyph glyph-name="CR" horiz-adv-x="633" 
 />
    <glyph glyph-name="percent.001" horiz-adv-x="341" 
d="M171 308l-56 -6q-5 0 -19 4t-31 21.5t-17 29t1 16.5q6 28 28.5 39t35.5 11t18 -1.5t18 -4.5q29 -7 23 -25.5t-21.5 -15.5t-24 6t-11.5 3q-12 0 -23 -17q4 -23 22 -29t34 -3t25.5 5t23 8t21 9t20.5 9t16 7q15 -6 15 -17q0 -5 -3 -11l-222 -370q-5 -1 -9 -1q-15 0 -15 14
q0 51 171 316q-17 3 -20 3zM148 68q46 75 93 75q49 0 66 -56q5 -17 5 -32q0 -33 -27.5 -61t-86.5 -28h-12q-45 12 -45 60q0 19 7 42zM282 45q2 8 2 23.5t-15.5 30.5t-29 15t-27.5 -14.5t-23 -37t-9 -40t21 -24.5q69 2 81 47z" />
  </font>
</defs>
</svg>
