<?xml version="1.0" standalone="no"?>
<!DOCTYPE svg PUBLIC "-//W3C//DTD SVG 1.1//EN" "http://www.w3.org/Graphics/SVG/1.1/DTD/svg11.dtd" >
<svg xmlns="http://www.w3.org/2000/svg" xmlns:xlink="http://www.w3.org/1999/xlink" version="1.1">
<metadata>
Created by FontForge 20161013 at Wed Jun 29 16:58:11 2011
 By ,,,
Copyright (c) 2011 by vernon adams. All rights reserved.
</metadata>
<defs>
<font id="FrancoisOne-Regular" horiz-adv-x="1104" >
  <font-face 
    font-family="Francois One"
    font-weight="400"
    font-stretch="normal"
    units-per-em="2048"
    panose-1="2 0 5 3 4 0 0 2 0 4"
    ascent="1638"
    descent="-410"
    x-height="1152"
    cap-height="1536"
    bbox="-292 -672 2950 2231"
    underline-thickness="102"
    underline-position="-307"
    unicode-range="U+0002-FB04"
  />
<missing-glyph horiz-adv-x="748" 
d="M68 0v1365h544v-1365h-544zM136 68h408v1229h-408v-1229z" />
    <glyph glyph-name=".notdef" horiz-adv-x="748" 
d="M68 0v1365h544v-1365h-544zM136 68h408v1229h-408v-1229z" />
    <glyph glyph-name=".null" horiz-adv-x="0" 
 />
    <glyph glyph-name="nonmarkingreturn" horiz-adv-x="682" 
 />
    <glyph glyph-name="uni0002" horiz-adv-x="0" 
 />
    <glyph glyph-name="uni0009" unicode="&#x9;" horiz-adv-x="0" 
 />
    <glyph glyph-name="uni000A" unicode="&#xa;" horiz-adv-x="0" 
 />
    <glyph glyph-name="space" unicode=" " horiz-adv-x="500" 
 />
    <glyph glyph-name="exclam" unicode="!" horiz-adv-x="543" 
d="M127 1536h288l-47 -1088h-192zM127 -12v312h288v-300z" />
    <glyph glyph-name="quotedbl" unicode="&#x22;" horiz-adv-x="836" 
d="M370 1536l-48 -576l-192 -12l-48 588h288zM754 1536l-48 -576l-192 -12l-48 588h288z" />
    <glyph glyph-name="numbersign" unicode="#" horiz-adv-x="1283" 
d="M112 1198h207l45 338h300l-45 -338h186l45 338h300l-45 -338h114v-238h-145l-44 -338h141v-238h-172l-50 -384h-300l50 384h-186l-50 -384h-300l50 384h-149v238h180l44 338h-176v238zM544 622h186l44 338h-186z" />
    <glyph glyph-name="dollar" unicode="$" horiz-adv-x="1040" 
d="M458 29q-78 9 -143 41.5t-116 83t-89 116t-62 140.5l224 119q17 -28 36 -60.5t41.5 -63.5t49 -58.5t59.5 -44.5v355l-147 87q-50 30 -91.5 64t-71.5 75t-46.5 88.5t-16.5 104.5q0 85 28 158t77.5 128.5t118 91t149.5 47.5v131h144v-131q122 -17 209.5 -95t131.5 -212
l-234 -115q-12 26 -23.5 51t-23.5 46.5t-26.5 39t-33.5 29.5v-346l117 -68q82 -48 133.5 -95.5t81 -92.5t41 -86.5t13.5 -75.5q0 -92 -29 -168.5t-80.5 -134.5t-122 -95.5t-154.5 -50.5v-128h-144v125zM377 1107q0 -41 25 -72t56 -51v271q-42 -18 -61.5 -58.5t-19.5 -89.5z
M682 434q0 45 -23 78.5t-57 58.5v-275q35 19 57.5 56.5t22.5 81.5z" />
    <glyph glyph-name="percent" unicode="%" horiz-adv-x="2096" 
d="M437 926q36 0 63.5 18t45.5 48t27 68t9 78t-9 78.5t-27 69t-45 49t-63 18.5t-63 -18t-45 -48t-27 -68.5t-9 -78.5q0 -39 9 -77t27 -68t44.5 -49t62.5 -20zM439 732q-98 0 -171.5 30t-122.5 83.5t-73.5 127.5t-24.5 163q0 87 24.5 160t73.5 126.5t122.5 83.5t171.5 30
q96 0 169 -30t122.5 -83.5t75 -126.5t25.5 -160q0 -89 -25.5 -163t-75 -127.5t-122.5 -83.5t-169 -30zM1655 193q36 0 63.5 18t45.5 48t27 68t9 78t-9 78.5t-27 69t-45 49t-63 18.5t-63 -18t-45 -48t-27 -68.5t-9 -78.5q0 -39 9 -77t27 -68t44.5 -49t62.5 -20zM1657 -1
q-98 0 -171.5 30t-122.5 83.5t-73.5 127.5t-24.5 163q0 87 24.5 160t73.5 126.5t122.5 83.5t171.5 30q96 0 169 -30t122.5 -83.5t75 -126.5t25.5 -160q0 -89 -25.5 -163t-75 -127.5t-122.5 -83.5t-169 -30zM1096 1536h276l-393 -1536h-276z" />
    <glyph glyph-name="ampersand" unicode="&#x26;" horiz-adv-x="1275" 
d="M39 375q0 77 26.5 142.5t68.5 120.5t94.5 99t103.5 78q-39 55 -70 117q-26 54 -47.5 122t-21.5 142q0 81 29.5 146t80.5 110.5t119.5 69.5t146.5 24q75 0 140 -21.5t114 -63.5t77 -104t28 -143q0 -63 -24.5 -121t-63 -108.5t-85.5 -92.5t-92 -73l187 -288q20 45 38 94
q16 42 32.5 94.5t27.5 105.5l227 -71q-18 -81 -47 -153.5t-57 -127.5q-33 -64 -68 -120q45 -45 97 -72.5t127 -36.5v-258q-88 0 -144.5 11t-97 32.5t-73 52.5t-72.5 71q-40 -36 -86 -68.5t-99 -57.5t-114.5 -40t-131.5 -15q-77 0 -144 30t-117.5 83.5t-79.5 127.5t-29 162z
M443 646q-32 -21 -56 -48.5t-40 -58.5t-24.5 -64t-8.5 -64q0 -35 11 -67t33 -56t56 -38t81 -14q41 0 78 11t65 25q33 16 61 37q-45 58 -79.5 103.5t-61 80t-45 59.5t-31.5 42zM555 971q0 1 9.5 13t23.5 32t31 45.5t31 53.5t23.5 56.5t9.5 55.5q0 29 -10.5 51.5t-27.5 37.5
t-38 22.5t-42 7.5q-20 0 -40 -9t-35.5 -24.5t-25.5 -35.5t-10 -42q0 -28 5.5 -52.5t17.5 -54t31.5 -67t46.5 -90.5z" />
    <glyph glyph-name="quotesingle" unicode="'" horiz-adv-x="451" 
d="M370 1536l-48 -576l-192 -12l-48 588h288z" />
    <glyph glyph-name="parenleft" unicode="(" horiz-adv-x="682" 
d="M627 -76q-96 8 -174.5 44.5t-141.5 94.5t-109.5 135t-77.5 165.5t-46.5 185.5t-15.5 196q0 101 16 200t47.5 189t79 167t110 134t140.5 91t172 37v-183q-69 -13 -121 -72t-86.5 -146.5t-52 -196t-17.5 -220.5q0 -116 17.5 -227t52 -199t86.5 -144t121 -62v-189z" />
    <glyph glyph-name="parenright" unicode=")" horiz-adv-x="683" 
d="M56 113q69 6 121 62t86.5 144t52 199t17.5 227q0 112 -17.5 220.5t-52 196t-86.5 146.5t-121 72v183q93 -3 171.5 -37t141 -91t110 -134t79 -167t47.5 -189t16 -200q0 -99 -15.5 -196t-46.5 -185.5t-77.5 -165.5t-109.5 -135t-142 -94.5t-174 -44.5v189z" />
    <glyph glyph-name="asterisk" unicode="*" horiz-adv-x="1051" 
d="M657 1392l-51 -362l316 152l80 -273l-350 -54l262 -260l-227 -167l-161 320l-161 -320l-227 167l262 260l-350 54l80 273l316 -152l-51 362h262z" />
    <glyph glyph-name="plus" unicode="+" horiz-adv-x="855" 
d="M546 260v-240h-238v240h-240v238h240v240h238v-240h240v-238h-240z" />
    <glyph glyph-name="comma" unicode="," horiz-adv-x="488" 
d="M387 288v-288q0 -54 -10.5 -95t-27 -71.5t-38.5 -51.5t-44 -34q-53 -32 -120 -36v192q36 0 55.5 15t28.5 33q11 21 12 48h-144v288h288z" />
    <glyph glyph-name="hyphen" unicode="-" horiz-adv-x="804" 
d="M114 718h576v-238h-576v238z" />
    <glyph glyph-name="period" unicode="." horiz-adv-x="489" 
d="M390 288v-276l-288 -24v300h288z" />
    <glyph glyph-name="slash" unicode="/" horiz-adv-x="628" 
d="M265 1536h300l-201 -1536h-300z" />
    <glyph glyph-name="zero" unicode="0" horiz-adv-x="1138" 
d="M568 -27q-101 0 -175 35t-126 95t-85 140t-51.5 170.5t-26 186t-7.5 186.5q0 83 7.5 171.5t26.5 173t52.5 160t85.5 132.5t125.5 90t173.5 33q99 0 173 -33t126.5 -90t86.5 -132.5t53.5 -160t27 -173t7.5 -171.5q-1 -91 -8.5 -186.5t-26.5 -186t-52.5 -170.5t-86 -140
t-126.5 -95t-174 -35zM568 228q28 0 52.5 8t45.5 30t37 61t27.5 101t17.5 150t6 208q0 114 -4.5 209.5t-23.5 165t-56 108.5t-102 39q-66 0 -103 -39t-54.5 -108.5t-21 -165t-3.5 -209.5q0 -120 5.5 -208t16.5 -150t27 -101t36 -61t44.5 -30t52.5 -8z" />
    <glyph glyph-name="one" unicode="1" horiz-adv-x="820" 
d="M96 251h197v881q-37 -4 -71 -8q-29 -3 -61 -5.5t-52 -2.5h-26v215l349 205h149v-1285h199l-12 -251h-672v251z" />
    <glyph glyph-name="two" unicode="2" horiz-adv-x="1033" 
d="M95 1148q15 76 52 145t94 121t132 83t165 31q85 0 161 -23.5t132 -71t89 -118t33 -163.5q0 -82 -24 -163.5t-65 -161.5t-96 -157t-116.5 -150t-127 -140.5t-127.5 -127.5h530q0 -38 -4 -68t-8.5 -58.5t-8 -58.5t-3.5 -67h-839v223q57 74 123 150t131 153t126 156t107 158
t74 158t28 158q0 28 -8.5 54t-24 45t-39 30.5t-53.5 11.5q-29 0 -52.5 -10t-42 -26t-32.5 -36.5t-24 -41.5q-25 -50 -36 -113z" />
    <glyph glyph-name="three" unicode="3" horiz-adv-x="1039" 
d="M91 1241q40 78 85 133.5t97.5 91t113.5 52t135 16.5q76 0 148 -24.5t128.5 -72t90.5 -118.5t34 -164q0 -32 -6 -77t-30 -94t-71 -97t-129 -86q61 -23 109 -55.5t81 -78t50 -105t17 -134.5q0 -110 -35 -194.5t-95 -142t-140 -87t-170 -29.5q-79 0 -154 20.5t-138 62.5
t-109 105.5t-67 149.5l218 95q14 -34 31.5 -65t44 -55t64 -38t91.5 -14q39 0 70 15.5t53.5 41.5t34.5 60t12 71q0 79 -26 127.5t-70 74.5t-103 34.5t-126 8.5v230q62 0 117 8.5t96.5 32.5t65.5 66t24 110q0 33 -9 63.5t-27 53.5t-45 37t-63 14q-50 0 -85.5 -25t-59.5 -55
q-28 -35 -47 -80z" />
    <glyph glyph-name="four" unicode="4" horiz-adv-x="1087" 
d="M568 384h-523v230l510 922h301v-922h192l-24 -230h-168v-372l-288 -24v396zM568 614v539l-285 -539h285z" />
    <glyph glyph-name="five" unicode="5" horiz-adv-x="1053" 
d="M309 434q11 -55 36 -98q10 -18 24 -35.5t32.5 -31t41.5 -22t52 -8.5q51 0 87 17.5t59 50.5t33.5 80t10.5 106q0 45 -11 91t-33.5 82.5t-56.5 59.5t-81 23q-54 0 -102.5 -31t-85.5 -76l-214 89l66 805h755l-24 -240h-481l-33 -358q27 11 59 20q27 8 63 14.5t77 6.5h2
q86 0 159 -38.5t126 -104.5t83 -153.5t30 -184.5q0 -114 -34.5 -210t-96 -165.5t-146 -108.5t-184.5 -39q-77 0 -148.5 24.5t-131 72t-102.5 117t-62 159.5z" />
    <glyph glyph-name="six" unicode="6" horiz-adv-x="1039" 
d="M93 774q0 81 11.5 170t36.5 175t64 163.5t93 136t124.5 93t158.5 34.5q64 0 121.5 -24.5t103 -72t76.5 -116.5t43 -159l-224 -52q-6 28 -13.5 60.5t-22 60t-39 45.5t-64.5 18q-41 0 -70 -22.5t-48 -59.5t-30.5 -84.5t-17.5 -97.5t-8 -98.5t-2 -87.5q47 35 110.5 56.5
t125.5 21.5q79 0 143 -35t108.5 -93.5t68.5 -135t24 -158.5q0 -104 -31 -201t-87.5 -172t-135.5 -120.5t-174 -45.5q-94 0 -163.5 33t-118.5 90.5t-81 135.5t-50 167t-25 185t-7 190zM386 619v-83q0 -40 3 -82t10.5 -82t23 -71.5t40.5 -51t62 -19.5q46 0 75.5 24.5
t46.5 61.5t23.5 80t6.5 81q0 39 -8 77t-26 69t-48 50t-74 19q-27 0 -51.5 -7t-42.5 -15q-21 -10 -39 -21q-1 -8 -1 -16q-1 -7 -1 -14z" />
    <glyph glyph-name="seven" unicode="7" horiz-adv-x="923" 
d="M161 0q13 151 51 306.5t93.5 316t123.5 326.5t140 339h-531l24 248h828v-213q-87 -172 -156.5 -346.5t-118 -343.5t-74.5 -329t-26 -304h-354z" />
    <glyph glyph-name="eight" unicode="8" horiz-adv-x="1107" 
d="M81 371q0 72 19.5 133t54 111.5t81 91t101.5 71.5q-102 60 -156.5 144t-54.5 200q0 96 34.5 174.5t94 134t140 85.5t172.5 30q79 0 153 -24.5t131 -71.5t91.5 -115.5t34.5 -156.5q0 -55 -17.5 -105.5t-47.5 -95t-70 -81.5t-85 -64q55 -34 105 -73t88 -86.5t60 -105
t22 -127.5q0 -114 -40.5 -201t-108.5 -146t-156.5 -89.5t-185.5 -30.5q-83 0 -165 24.5t-147.5 74t-106.5 124.5t-41 175zM369 398q0 -53 14 -91t38.5 -62t58 -35.5t72.5 -11.5q36 0 70.5 9.5t61.5 30t43.5 54t16.5 81.5q0 36 -10 68t-26 60t-37 51t-42 41q-51 43 -115 74
q-41 -32 -73 -73q-27 -35 -49.5 -84.5t-22.5 -111.5zM406 1165q0 -44 15.5 -78.5t39 -61.5t51.5 -48.5t54 -37.5q46 28 82 62q31 29 57 68.5t26 85.5q0 31 -12.5 57.5t-35 45.5t-53.5 29.5t-67 10.5q-32 0 -60.5 -10t-50 -27.5t-34 -42t-12.5 -53.5z" />
    <glyph glyph-name="nine" unicode="9" horiz-adv-x="1039" 
d="M946 745q0 -81 -11.5 -170t-36.5 -175t-64 -163.5t-93 -136t-124.5 -93t-158.5 -34.5q-65 0 -122 24.5t-102.5 72t-76.5 116.5t-43 159l224 52q6 -29 13.5 -61t22 -59.5t39 -45.5t64.5 -18q41 0 70 22.5t48 59.5t30.5 84.5t17.5 97.5t7.5 98.5t2.5 87.5
q-47 -35 -110.5 -56.5t-125.5 -21.5q-80 0 -143.5 35t-108 93.5t-68.5 134.5t-24 159q0 103 31 200.5t87.5 172.5t135.5 120.5t174 45.5q94 0 163.5 -33t118.5 -90.5t81 -135.5t50 -167t25 -185t7 -190zM653 911v72q0 40 -3 82t-10.5 82t-23 72t-40.5 51t-62 19
q-46 0 -75.5 -24.5t-46.5 -61.5t-23.5 -80.5t-6.5 -80.5q0 -39 8 -77t26 -69t48 -50t74 -19q27 0 51 6.5t42 14.5q21 10 40 22q0 8 1 16q0 7 0.5 13.5t0.5 11.5z" />
    <glyph glyph-name="colon" unicode=":" horiz-adv-x="516" 
d="M402 288v-288l-288 -12v300h288zM402 864v-288h-288v288h288z" />
    <glyph glyph-name="semicolon" unicode=";" horiz-adv-x="517" 
d="M403 288v-288q0 -54 -10.5 -95t-27 -71.5t-38.5 -51.5t-44 -34q-53 -32 -120 -36v192q36 0 55.5 15t28.5 33q11 21 12 48l-144 -12v300h288zM403 864v-288h-288v288h288z" />
    <glyph glyph-name="less" unicode="&#x3c;" horiz-adv-x="976" 
d="M56 439v265l810 360l-14 -261l-451 -196l477 -175l-14 -343z" />
    <glyph glyph-name="equal" unicode="=" horiz-adv-x="804" 
d="M114 526h576v-238h-576v238zM114 910h576v-238h-576v238z" />
    <glyph glyph-name="greater" unicode="&#x3e;" horiz-adv-x="976" 
d="M112 89l-14 343l477 175l-451 196l-14 261l810 -360v-265z" />
    <glyph glyph-name="question" unicode="?" horiz-adv-x="885" 
d="M435 384h-240q-10 109 0 182.5t33 123t55.5 80.5t68 54.5t70.5 44t62.5 50.5t45 73.5t17.5 112.5q0 20 -2 55.5t-12.5 70.5t-34.5 61t-67 26q-33 0 -53 -21.5t-31.5 -52.5t-16 -64.5t-7.5 -58.5l-273 12q3 91 32.5 167t80.5 131t121 85t154 30q103 0 178.5 -39.5
t124 -103.5t72 -145t23.5 -163q0 -91 -17 -153.5t-45.5 -106.5t-64.5 -73t-73.5 -54t-73.5 -49.5t-64.5 -59t-45.5 -83t-17 -120.5v-12zM458 288v-288l-288 -12v300h288z" />
    <glyph glyph-name="at" unicode="@" horiz-adv-x="1578" 
d="M1526 775q0 -100 -22 -179t-64 -134t-102.5 -84.5t-138.5 -29.5q-14 0 -41.5 4t-58 20.5t-59.5 48.5t-46 89q-51 -94 -117 -140t-138 -46q-54 0 -105.5 23t-91.5 69.5t-64 117t-24 165.5q0 99 24.5 169t64 114.5t89 65t99.5 20.5q35 0 68.5 -8.5t62.5 -25t53 -40
t39 -53.5l36 109h157v-469q0 -60 18 -86t45 -26q32 0 53.5 17t35.5 44.5t21.5 62t11 68.5t4 64t0.5 50q0 120 -38 210.5t-106.5 151t-164 91t-209.5 30.5q-89 0 -164 -23.5t-134.5 -65t-104.5 -97.5t-75.5 -121.5t-45.5 -137t-15 -142.5q0 -100 29 -193.5t89 -166
t152.5 -116.5t219.5 -44q94 0 200 29.5t236 93.5l72 -150q-147 -81 -276.5 -118.5t-247.5 -37.5q-179 0 -310.5 59t-217.5 156.5t-128 223t-42 259.5q0 96 22.5 192t66 183t108.5 162.5t150 130.5t189.5 86.5t227.5 31.5q88 0 175 -19t165.5 -57t145.5 -94.5t116 -131.5
t77 -169t28 -206zM924 844q-66 67 -118 67q-27 0 -49 -15.5t-37.5 -43t-23.5 -66.5t-8 -87q0 -47 9.5 -82.5t25.5 -59t36.5 -35t43.5 -11.5q33 0 66 28.5t55 85.5v219z" />
    <glyph glyph-name="A" unicode="A" horiz-adv-x="1131" 
d="M359 329l-67 -329h-267l324 1518l427 18l332 -1524l-327 -12l-57 329h-365zM670 575l-141 735l-116 -735h257z" />
    <glyph glyph-name="B" unicode="B" horiz-adv-x="1127" 
d="M142 1536h344q148 0 249.5 -31t164.5 -85t90.5 -126t27.5 -154q0 -56 -11.5 -106t-33 -91.5t-52.5 -73.5t-70 -51q41 -21 79.5 -50t68.5 -73.5t48 -108.5t18 -155q0 -90 -27.5 -157t-76 -115t-114 -78.5t-140.5 -48.5t-156.5 -25t-162.5 -7h-246v1536zM497 240
q82 0 136 23.5t86 58.5t45 75t13 74q0 74 -22 118t-59 67t-86 30t-102 7h-66v-453h55zM504 911q52 0 95.5 6.5t74.5 27.5t48 60.5t17 105.5q0 57 -20 93.5t-54 56.5t-79 27.5t-95 7.5h-59v-385h72z" />
    <glyph glyph-name="C" unicode="C" horiz-adv-x="1069" 
d="M997 523q0 -107 -26.5 -207.5t-80.5 -177.5t-136 -123.5t-193 -46.5q-96 0 -169.5 34.5t-126.5 95t-88.5 141t-56.5 173t-30 192t-9 196.5q0 86 11 176.5t35 176t62.5 161t92.5 132t125 89.5t161 33q101 0 180.5 -48.5t134 -127t83.5 -177.5t29 -201l-290 -15
q0 8 -1 35.5t-6 64t-14.5 77t-26.5 74.5t-43 56t-63 22q-36 0 -62.5 -23.5t-45.5 -63t-31 -92.5t-19 -111.5t-9.5 -119.5t-2.5 -118q0 -72 2.5 -143t10.5 -135t21.5 -118.5t36 -94t54 -62t74.5 -22.5q47 0 76.5 31.5t47.5 79.5t26 104.5t12 106.5z" />
    <glyph glyph-name="D" unicode="D" horiz-adv-x="1132" 
d="M142 1536h314q303 0 453 -191.5t150 -582.5q0 -97 -13 -191.5t-40.5 -179t-70.5 -156.5t-104 -124t-141 -81.5t-181 -29.5h-367v1536zM441 1296v-1056h43q57 0 100 19.5t73.5 53.5t50 79.5t31 97t16 106.5t4.5 109v112q0 63 -6 128.5t-22 128.5t-47 112.5t-81.5 79.5
t-126.5 30h-35z" />
    <glyph glyph-name="E" unicode="E" horiz-adv-x="988" 
d="M142 1536h780l-24 -240h-456v-366h323l-1 -258h-322v-432h496l-24 -240h-772v1536z" />
    <glyph glyph-name="F" unicode="F" horiz-adv-x="940" 
d="M141 1536h780l-24 -241h-456v-402h322v-255h-322v-626l-300 -24v1548z" />
    <glyph glyph-name="G" unicode="G" horiz-adv-x="1132" 
d="M739 1015q-4 29 -7.5 63.5t-10 70t-16.5 68.5t-27 58.5t-42 41t-60 15.5q-40 0 -70 -26.5t-52 -70.5t-36 -102.5t-22 -122t-11.5 -129t-3.5 -123.5q0 -55 1 -117t6.5 -123t17 -117t33.5 -98.5t56 -68t83 -25.5q40 0 70.5 22.5t51.5 62.5t31.5 95t10.5 119h-152l24 260
h417v-756l-115 -12q-1 4 -4.5 19t-8.5 35.5t-11.5 45.5t-12.5 51q-15 60 -33 134q-7 -89 -43 -159q-15 -30 -38.5 -58t-57.5 -50.5t-80 -36t-106 -13.5q-81 0 -145.5 30.5t-113 85t-83 130t-56.5 165t-32 190t-10 205.5q0 89 11.5 182t36 181.5t63.5 166.5t94.5 137
t128.5 93t165 34q117 0 201 -44.5t138 -118.5t80 -170.5t26 -200.5z" />
    <glyph glyph-name="H" unicode="H" horiz-adv-x="1171" 
d="M730 639h-288v-627l-300 -24v1524l300 24v-623h288v599l300 24v-1524l-300 -24v651z" />
    <glyph glyph-name="I" unicode="I" horiz-adv-x="583" 
d="M142 1512l300 24v-1524l-300 -24v1524z" />
    <glyph glyph-name="J" unicode="J" horiz-adv-x="660" 
d="M34 205q24 -8 43.5 -11t36.5 -3q42 0 64.5 19t33 49.5t12.5 69.5t2 80v1103l300 24v-1152q0 -92 -14.5 -167.5t-49.5 -130t-92.5 -84.5t-143.5 -30q-81 0 -192 30v203z" />
    <glyph glyph-name="K" unicode="K" horiz-adv-x="1150" 
d="M590 666l-148 -265v-401h-300v1512l300 24v-672l364 672h320l-329 -634l334 -859l-305 -70z" />
    <glyph glyph-name="L" unicode="L" horiz-adv-x="971" 
d="M441 1536v-1296h520l-48 -240h-771v1512z" />
    <glyph glyph-name="M" unicode="M" horiz-adv-x="1621" 
d="M390 1144v-1132l-248 -12v1522l439 12l254 -950l244 916l401 24v-1512l-310 -24v1152l-287 -1140h-185z" />
    <glyph glyph-name="N" unicode="N" horiz-adv-x="1245" 
d="M409 948v-936l-268 -12v1524l313 12l396 -914v890l254 24v-1524l-246 -24z" />
    <glyph glyph-name="O" unicode="O" horiz-adv-x="1125" 
d="M561 -32q-98 0 -171.5 33t-126.5 92t-87 139.5t-54 175t-28 199.5t-8 213q0 162 27.5 300t85.5 236t147.5 151.5t214.5 53.5t215.5 -53.5t149 -151.5t86 -236t27.5 -300q0 -108 -8 -213t-28.5 -199.5t-55 -175t-87.5 -139.5t-127 -92t-172 -33zM561 223q60 0 95.5 41.5
t54 119t23.5 188t5 248.5q0 48 -1.5 100.5t-7.5 109t-17.5 109.5t-31.5 93.5t-49.5 65t-70.5 24.5t-70 -24.5t-48.5 -65t-31 -93.5t-17.5 -109.5t-7.5 -109t-1.5 -100.5q0 -138 5 -248.5t23 -188t53 -119t95 -41.5z" />
    <glyph glyph-name="P" unicode="P" horiz-adv-x="1089" 
d="M141 1536h192q78 0 161 -1t162.5 -12.5t151 -38t125 -78t85 -132t31.5 -199.5q0 -108 -26 -184.5t-71 -129t-104.5 -83.5t-127.5 -47.5t-139.5 -21.5t-139.5 -5v-592l-300 -24v1548zM494 847q52 0 98.5 9.5t81.5 35t55.5 70.5t20.5 115q0 69 -17.5 112t-51.5 66.5t-83 32
t-112 8.5h-43v-449h51z" />
    <glyph glyph-name="Q" unicode="Q" horiz-adv-x="1121" 
d="M559 -32q-98 0 -171.5 35t-126.5 96t-87 143.5t-54 177t-28 197t-8 203.5t12 196t37 178t64 152t91.5 118.5t120 76.5t150.5 27q84 0 151.5 -27t120.5 -76.5t92 -118.5t64.5 -152t37.5 -178t12 -196q0 -105 -9 -211t-31 -203t-60 -180t-96 -142q8 -45 30 -72.5
t50.5 -42.5t60.5 -21.5t60 -10.5v-230q-11 0 -20.5 -1t-18.5 -1q-75 0 -133 18.5t-101 54t-72.5 85.5t-47.5 113q0 -2 -14 -2.5t-31 -2.5q-20 -2 -45 -3zM559 223q65 0 101 45t53 125t20.5 189t3.5 238q0 42 -1 96.5t-6 111t-15.5 111t-30.5 97t-50.5 68.5t-74.5 26t-74 -26
t-49.5 -68.5t-30.5 -97t-15.5 -111t-5.5 -111t-1 -96.5q0 -129 3.5 -238t20 -189t52 -125t100.5 -45z" />
    <glyph glyph-name="R" unicode="R" horiz-adv-x="1156" 
d="M142 -12v1536l364 12q126 0 230 -24.5t178.5 -77t115 -133.5t40.5 -193q0 -75 -16 -135t-45 -107t-69.5 -83t-89.5 -64q0 -1 12 -30t31.5 -76t44 -107t50.5 -122q61 -146 139 -331l-295 -80l-274 700h-117v-661zM441 895h102q45 0 86 7.5t72.5 30t50 63.5t18.5 109
q0 54 -14.5 90.5t-40 59t-60 32t-74.5 9.5h-140v-401z" />
    <glyph glyph-name="S" unicode="S" horiz-adv-x="1091" 
d="M739 1141q-18 38 -33.5 72t-36 60t-49.5 41t-74 15q-35 0 -61.5 -13t-43.5 -35t-25.5 -51t-8.5 -61q0 -26 8 -49t21.5 -42t30.5 -34.5t34 -25.5l248 -145q88 -50 144 -105t87.5 -109t43.5 -104.5t14 -91.5q0 -111 -37.5 -202.5t-103.5 -156.5t-155.5 -100.5t-193.5 -35.5
q-96 0 -176 29t-142.5 80.5t-108 122t-73.5 152.5l254 119q22 -36 48 -79.5t58 -81t73 -62.5t95 -25q27 0 51.5 12.5t43 34t30 49t11.5 57.5q0 61 -29.5 107t-72.5 74l-269 159q-56 32 -102.5 73t-81 90.5t-53.5 106.5t-19 122q0 102 36.5 186.5t100 145.5t151 94.5
t189.5 33.5q156 0 267 -79.5t164 -232.5z" />
    <glyph glyph-name="T" unicode="T" horiz-adv-x="977" 
d="M28 1296l24 240h900l-24 -240h-287v-1284l-300 -24v1308h-313z" />
    <glyph glyph-name="U" unicode="U" horiz-adv-x="1163" 
d="M132 1524l300 12v-1054q0 -46 3 -92t19.5 -83t50 -60.5t95.5 -23.5q58 0 89.5 24t46.5 62t17.5 84.5t2.5 91.5v1027l275 24v-995q0 -44 -2 -103.5t-14.5 -123t-40.5 -126t-80.5 -111.5t-134 -79t-200.5 -30q-111 0 -191.5 43.5t-133 117t-77.5 171.5t-25 206v1018z" />
    <glyph glyph-name="V" unicode="V" horiz-adv-x="1092" 
d="M17 1524l355 12l204 -1060l213 1048l289 12l-370 -1536h-329z" />
    <glyph glyph-name="W" unicode="W" horiz-adv-x="1586" 
d="M614 0h-275l-312 1524l328 12l162 -920l173 908l245 12l162 -930l196 918l275 12l-328 -1536h-297l-163 938z" />
    <glyph glyph-name="X" unicode="X" horiz-adv-x="1064" 
d="M502 481l-217 -481h-284l381 780l-366 756h359l178 -399l184 399h286l-346 -698l399 -838h-357z" />
    <glyph glyph-name="Y" unicode="Y" horiz-adv-x="1027" 
d="M367 608l-370 928h330l211 -640l228 640h259l-355 -893v-631l-303 -24v620z" />
    <glyph glyph-name="Z" unicode="Z" horiz-adv-x="1008" 
d="M581 1296h-483l24 240h813v-199l-514 -1097h528l-48 -240h-850v190z" />
    <glyph glyph-name="bracketleft" unicode="[" horiz-adv-x="692" 
d="M141 1632h492v-192h-192v-1345h192v-191h-492v1728z" />
    <glyph glyph-name="backslash" unicode="\" horiz-adv-x="628" 
d="M564 0h-300l-201 1536h300z" />
    <glyph glyph-name="bracketright" unicode="]" horiz-adv-x="693" 
d="M552 -96h-492v191h192v1345h-192v192h492v-1728z" />
    <glyph glyph-name="asciicircum" unicode="^" horiz-adv-x="1032" 
d="M1002 644l-343 -8l-175 483l-196 -475l-261 -2l360 798h265z" />
    <glyph glyph-name="underscore" unicode="_" horiz-adv-x="556" 
d="M-10 0h576v-238h-576v238z" />
    <glyph glyph-name="grave" unicode="`" horiz-adv-x="613" 
d="M361 1241l-410 346l227 202l297 -447z" />
    <glyph glyph-name="a" unicode="a" horiz-adv-x="968" 
d="M56 327q0 82 23.5 143.5t63 106t91.5 74.5t108.5 48.5t113.5 28t107 12.5q0 40 -1 78.5t-9 69t-25 49.5t-48 19q-26 0 -44.5 -11.5t-31 -30t-19 -42t-9.5 -46.5l-280 49q11 86 49 142.5t91.5 89.5t117 46.5t126.5 13.5q98 0 168 -27.5t115 -75.5t66.5 -112.5t21.5 -138.5
v-596q0 -34 4.5 -70t10.5 -66q7 -35 16 -69l-280 -24l-32 141q-17 -31 -44.5 -59t-61.5 -49.5t-72 -34.5t-75 -13q-59 0 -107 26.5t-82.5 74t-53 112t-18.5 141.5zM338 331q0 -68 27.5 -110t86.5 -42q20 0 39.5 10.5t35.5 23.5q18 15 36 34v321q-48 0 -89 -12t-71.5 -40
t-47.5 -73.5t-17 -111.5z" />
    <glyph glyph-name="b" unicode="b" horiz-adv-x="1066" 
d="M123 12v1488l288 36v-531q33 36 70 66t75 51t77 33t76 12q57 0 108 -31t89 -100.5t60.5 -182.5t22.5 -277q0 -156 -22 -269.5t-64.5 -188t-104 -110t-140.5 -35.5q-40 0 -71.5 7t-56.5 19t-43.5 27.5t-31.5 31.5q-31 38 -44 86l-70 -156zM411 480q0 -90 12 -148.5t32 -92
t45 -47t51 -13.5q53 0 83 32t45 86.5t18.5 126.5t3.5 152q0 73 -2.5 136t-12 109.5t-29.5 73.5t-56 27q-26 0 -59 -12.5t-62 -27.5q-34 -18 -69 -39v-363z" />
    <glyph glyph-name="c" unicode="c" horiz-adv-x="913" 
d="M847 405q-12 -95 -34.5 -174.5t-64 -136.5t-106.5 -89t-162 -32q-69 0 -126 22.5t-103 63t-80 96.5t-57 122t-34.5 139.5t-11.5 149.5q0 111 24.5 218.5t75.5 192.5t130 137.5t188 52.5q79 0 145.5 -30t115 -85t76.5 -131t31 -167l-273 -12q-3 25 -7 58.5t-14 64.5
t-28.5 52.5t-48.5 21.5q-32 0 -53.5 -20t-35.5 -52.5t-21.5 -73t-11 -81t-4 -76.5t-0.5 -60t0.5 -60t4.5 -76t12 -80t23 -72t38 -52t57 -20q21 0 37 9.5t28 24.5t20.5 34.5t14.5 39.5q13 48 15 108z" />
    <glyph glyph-name="d" unicode="d" horiz-adv-x="1067" 
d="M726 -12l-70 156q-13 -48 -44 -86q-13 -16 -31.5 -31.5t-43.5 -27.5t-56.5 -19t-71.5 -7q-79 0 -140.5 35.5t-104 110t-64.5 188t-22 269.5q0 159 17.5 271.5t56 183.5t98.5 103.5t145 32.5q24 0 48.5 -7t47.5 -19t44.5 -27t39.5 -31q43 -37 81 -83v500l288 36v-1524z
M656 864q-21 26 -44 46q-20 17 -45 31.5t-51 14.5q-53 0 -83 -29.5t-45 -81t-18.5 -121t-3.5 -148.5q0 -80 3.5 -152t18.5 -126.5t45 -86.5t83 -32q26 0 51 13.5t45 47t32 92t12 148.5v384z" />
    <glyph glyph-name="e" unicode="e" horiz-adv-x="965" 
d="M357 536q0 -54 7 -116t23.5 -114t43.5 -86.5t66 -34.5q34 0 62 27t49 61t33.5 64t15.5 36l218 -83q-20 -70 -53 -128t-80 -100t-109 -65.5t-141 -23.5q-105 0 -184.5 44t-132 123t-79 189t-26.5 241q0 132 27 242t81 189t135 122.5t189 43.5q103 0 180 -43.5t129 -122.5
t78 -189t26 -242l-4 -14q-2 -6 -3 -11.5t-1 -8.5h-550zM632 702q0 57 -7.5 106t-23.5 84.5t-41.5 56t-62.5 20.5q-26 0 -51.5 -20.5t-45 -56t-31.5 -84.5t-12 -106h275z" />
    <glyph glyph-name="f" unicode="f" horiz-adv-x="690" 
d="M176 936h-142l12 216h130v22q0 70 5.5 136.5t33 119t85.5 84.5t162 32q53 0 90 -5t60 -10q27 -7 45 -15v-172h-63q-45 0 -71 -15t-39 -39t-16.5 -55t-3.5 -62v-21h203l-12 -216h-191v-924l-288 -24v948z" />
    <glyph glyph-name="g" unicode="g" horiz-adv-x="1109" 
d="M44 -123q0 29 8.5 54t23 46.5t32.5 39t37 31.5q44 33 101 55q-48 13 -86 34q-16 9 -31.5 21t-27.5 26.5t-19.5 32.5t-7.5 39q0 28 9.5 54.5t24.5 49.5t34.5 43.5t39.5 37.5q48 40 109 70q-52 31 -92 75q-17 19 -33.5 42.5t-29.5 52t-21 62t-8 72.5q0 86 37.5 152
t97.5 110.5t135.5 67t152.5 22.5q55 0 100 -8t80.5 -21t63 -28t48.5 -29q15 14 40.5 36.5t58.5 44.5t71.5 37.5t77.5 15.5q5 0 10 -0.5t10 -1.5t11 -2v-242q-27 10 -51 19q-20 8 -41.5 14t-33.5 6q-11 0 -20.5 -3t-17.5 -6q-10 -4 -18 -8q12 -30 22 -60q8 -26 15 -55.5
t7 -55.5q0 -63 -25.5 -128t-75.5 -118.5t-124.5 -87t-172.5 -21.5q-39 0 -69 2t-51 2q-42 -12 -58.5 -26.5t-16.5 -68.5q0 -29 21 -48.5t51 -23.5l272 -21q78 -6 140.5 -24.5t107 -58.5t68 -94.5t23.5 -123.5q0 -65 -24 -116t-64.5 -88.5t-94 -63t-112 -41t-118.5 -22.5
t-114 -7q-117 0 -207 17.5t-151 48.5t-92.5 74t-31.5 95zM306 -36q0 -25 13.5 -45t44 -34.5t79 -22t118.5 -7.5q103 0 157.5 34t54.5 94q0 33 -24 52.5t-57.5 29t-69 12.5t-57.5 3h-168q-16 -5 -32.5 -14t-29.5 -23.5t-21 -34t-8 -44.5zM395 826q0 -33 5 -68t19.5 -64
t41 -47.5t69.5 -18.5q59 0 93.5 49.5t34.5 142.5q0 45 -10.5 77.5t-28.5 53.5t-41.5 31.5t-49.5 10.5q-35 0 -60 -15.5t-41 -39.5t-24 -54t-8 -58z" />
    <glyph glyph-name="h" unicode="h" 
d="M700 773q0 79 -28.5 114t-71.5 35q-40 0 -84 -21.5t-104 -57.5v-831l-288 -24v1512l288 36v-531q90 84 173 123t157 39q54 0 99 -20.5t77.5 -58t51 -91.5t18.5 -121v-864l-288 -24v785z" />
    <glyph glyph-name="i" unicode="i" horiz-adv-x="536" 
d="M124 1128l288 24v-1140l-288 -24v1140zM413 1600v-288l-288 -1v287z" />
    <glyph glyph-name="j" unicode="j" horiz-adv-x="536" 
d="M413 1600v-288l-288 -1v287zM-35 -96q56 0 88 8t47.5 25.5t19.5 46t4 70.5v1074l288 24v-1098q0 -81 -4 -145t-28 -107.5t-75.5 -66.5t-147.5 -23q-40 0 -87.5 4.5t-104.5 14.5v173z" />
    <glyph glyph-name="k" unicode="k" horiz-adv-x="1021" 
d="M413 421v-421h-288v1500l288 36v-761l293 377h311l-324 -414l301 -678l-254 -87l-233 573z" />
    <glyph glyph-name="l" unicode="l" horiz-adv-x="536" 
d="M124 1500l288 36v-1524l-288 -24v1512z" />
    <glyph glyph-name="m" unicode="m" horiz-adv-x="1487" 
d="M1084 802q0 58 -16.5 88.5t-42.5 30.5q-29 0 -53 -13t-42 -28q-21 -18 -38 -41v-827l-288 -24v816q0 63 -14.5 90t-34.5 27q-28 0 -53.5 -13t-45.5 -28q-24 -18 -44 -41v-827l-288 -24v1140l288 24v-147q61 72 136.5 117t160.5 45q59 0 103.5 -41t66.5 -138
q63 83 133.5 131t162.5 48q57 0 94.5 -23.5t60.5 -68.5t32.5 -110t9.5 -148v-805l-288 -24v814z" />
    <glyph glyph-name="n" unicode="n" 
d="M700 769q0 85 -29 119t-76 34q-38 0 -85.5 -25t-97.5 -55v-830l-288 -24v1140l288 24v-147q86 75 171 118.5t159 43.5q54 0 99 -20.5t77.5 -58t51 -91.5t18.5 -121v-864l-288 -24v781z" />
    <glyph glyph-name="o" unicode="o" horiz-adv-x="1003" 
d="M502 -27q-108 0 -189 44.5t-135 124t-81 190.5t-27 245q0 129 27 237.5t81 187t135 122t189 43.5q105 0 186 -43.5t135.5 -122t82.5 -187t28 -237.5q0 -134 -28 -245t-82.5 -190.5t-135.5 -124t-186 -44.5zM500 187q35 0 60 19t41 50.5t25 72t13 84t5 86t1 78.5
q0 35 -1 77t-5 85t-13 83.5t-25 72t-40.5 50.5t-59.5 19q-36 0 -60.5 -19t-40.5 -50.5t-24.5 -72t-12.5 -83.5t-4.5 -85t-0.5 -77q0 -36 0.5 -78.5t4.5 -86t12.5 -84t24 -72t40 -50.5t60.5 -19z" />
    <glyph glyph-name="p" unicode="p" horiz-adv-x="1042" 
d="M124 1128l288 24v-111q24 24 51.5 46.5t58 40t64.5 28.5t70 11q79 0 132.5 -27.5t87.5 -73.5t51.5 -106.5t24.5 -126t7.5 -132t0.5 -125.5q0 -54 -2 -120t-11.5 -133t-29.5 -130t-56.5 -112t-91.5 -78.5t-135 -29.5q-56 0 -97 19.5t-69 43.5q-33 27 -56 63v-401l-288 -56
v1486zM535 960q-28 0 -50.5 -12.5t-38.5 -27.5q-19 -18 -34 -40v-595q12 -26 30 -46q15 -17 38.5 -31.5t56.5 -14.5q30 0 54.5 15t42.5 57t28 117t10 194q0 108 -9 181.5t-26 118.5t-43 64.5t-59 19.5z" />
    <glyph glyph-name="q" unicode="q" horiz-adv-x="1023" 
d="M899 -322l-288 -36v457q-23 -36 -56 -63q-28 -24 -69.5 -43.5t-96.5 -19.5q-75 0 -126.5 29.5t-85.5 78.5t-53 112t-28 130t-11 132.5t-2 120.5q0 59 0.5 125.5t7 132t22.5 126t47.5 106.5t81.5 73.5t125 27.5q36 0 70 -11t64.5 -28.5t58 -40t51.5 -46.5l48 111l240 -24
v-1450zM508 960q-33 0 -59 -19.5t-43 -64.5t-26 -118.5t-9 -181.5q0 -119 8.5 -194t24 -117t36.5 -57t46 -15q32 0 56 14.5t39 31.5q18 20 30 46v595q-12 22 -28 40q-14 15 -33 27.5t-42 12.5z" />
    <glyph glyph-name="r" unicode="r" horiz-adv-x="831" 
d="M124 1128l288 24v-185q25 33 59 68.5t77.5 64.5t96.5 48t116 19q5 0 11 -0.5t11 -1.5q6 -1 13 -2v-343q-47 14 -95 29t-97 15q-48 0 -95 -21t-97 -75v-756l-288 -24v1140z" />
    <glyph glyph-name="s" unicode="s" horiz-adv-x="926" 
d="M282 337q9 -39 31 -69q18 -26 51 -47t86 -21q20 0 45.5 4.5t47.5 15.5t37 28.5t15 44.5q0 37 -26 61t-61 38l-241 98q-97 39 -148.5 121.5t-51.5 202.5q0 86 33 152t87 110.5t124 67.5t145 23q62 0 122.5 -18t112.5 -53.5t90.5 -87.5t57.5 -119l-236 -73q-11 38 -30 69
q-17 26 -45 47.5t-70 21.5q-23 0 -45 -5t-39.5 -16.5t-28.5 -29t-11 -41.5q0 -19 10.5 -34.5t26 -27.5t32.5 -21t31 -15l205 -85q48 -22 90.5 -51t74 -69t49.5 -93.5t18 -123.5q0 -93 -35 -162t-92 -115t-129 -69t-146 -23q-88 0 -157 20.5t-120 58.5t-84 92t-48 121z" />
    <glyph glyph-name="t" unicode="t" horiz-adv-x="732" 
d="M197 1152l29 250l250 36v-286h236l-12 -216h-223v-635q0 -34 14 -55.5t35.5 -33.5t47.5 -16t50 -4q31 0 51 3q11 2 21 4v-198q-22 -8 -54 -14q-27 -5 -68 -9.5t-98 -4.5q-47 0 -97.5 13.5t-92.5 45t-69.5 83.5t-27.5 129v692h-161l12 216h157z" />
    <glyph glyph-name="u" unicode="u" 
d="M404 381q0 -85 26 -119t69 -34q20 0 42.5 7.5t47.5 20.5t51 29t52 33v810l288 24v-1140l-288 -24v147q-84 -75 -166 -118.5t-154 -43.5q-56 0 -103 20.5t-81 58t-53 91.5t-19 121v864l288 24v-771z" />
    <glyph glyph-name="v" unicode="v" horiz-adv-x="932" 
d="M9 1128l343 24l145 -737l166 701l261 24l-145 -500l-185 -640h-265l-182 640z" />
    <glyph glyph-name="w" unicode="w" horiz-adv-x="1315" 
d="M670 747l-162 -747h-235l-237 1130l293 22l99 -652l145 628l240 24l124 -644l125 620l234 12l-264 -1140h-231z" />
    <glyph glyph-name="x" unicode="x" horiz-adv-x="941" 
d="M460 339l-176 -339h-274l311 579l-300 573h314l139 -282l146 282h272l-277 -518l332 -622l-317 -24z" />
    <glyph glyph-name="y" unicode="y" horiz-adv-x="901" 
d="M30 -113q26 -1 50 -2q20 -1 40 -1.5t29 -0.5q50 0 84.5 12t56.5 34t31.5 53t9.5 70v56l-329 1030l312 14l162 -721l153 715l260 2l-295 -1127q-36 -126 -89 -202.5t-113 -117t-122.5 -53.5t-118.5 -13q-21 0 -43 2t-39 4q-20 3 -39 6v240z" />
    <glyph glyph-name="z" unicode="z" horiz-adv-x="881" 
d="M834 234l-24 -234h-757v181l395 744h-365l24 227h685v-170l-388 -748h430z" />
    <glyph glyph-name="braceleft" unicode="{" horiz-adv-x="674" 
d="M141 551q0 24 -1.5 49t-10.5 46t-28.5 34t-55.5 13v189q36 0 55.5 13t28.5 34t10.5 46t1.5 49q0 147 21 260.5t75 190.5t147 117t237 40v-162q-72 0 -111 -27t-57 -82.5t-21 -139.5t-3 -197q0 -30 -3 -61.5t-21 -62.5t-57 -59.5t-111 -53.5q72 -24 111 -52.5t57 -59.5
t21 -62.5t3 -61.5q0 -121 3 -210.5t21 -148.5t57 -88t111 -29v-162q-144 0 -237 42t-147 123t-75 200t-21 273z" />
    <glyph glyph-name="bar" unicode="|" horiz-adv-x="582" 
d="M141 1632h300v-1728h-300v1728z" />
    <glyph glyph-name="braceright" unicode="}" horiz-adv-x="673" 
d="M532 551q0 -154 -21 -273t-75 -200t-147 -123t-237 -42v162q72 0 111 29t57 88t21 148.5t3 210.5q0 30 3 61.5t21 62.5t57 59.5t111 52.5q-72 25 -111 53.5t-57 59.5t-21 62.5t-3 61.5q0 113 -3 197t-21 139.5t-57 82.5t-111 27v162q144 0 237 -40t147 -117t75 -190.5
t21 -260.5q0 -24 1.5 -49t10.5 -46t28.5 -34t55.5 -13v-189q-36 0 -55.5 -13t-28.5 -34t-10.5 -46t-1.5 -49z" />
    <glyph glyph-name="asciitilde" unicode="~" horiz-adv-x="815" 
d="M92 932q33 39 69 71q31 26 68.5 48.5t75.5 22.5t69 -17t59 -38t55 -38t58 -17q49 0 84 17t57 38q26 24 42 55v-182q0 -1 -13 -22.5t-37.5 -46.5t-60 -45.5t-80.5 -20.5q-34 0 -62.5 19t-57.5 41.5t-61 41.5t-73 19q-37 0 -71.5 -17.5t-61.5 -37.5q-32 -25 -60 -55z" />
    <glyph glyph-name="uni00A0" unicode="&#xa0;" horiz-adv-x="500" 
 />
    <glyph glyph-name="exclamdown" unicode="&#xa1;" horiz-adv-x="542" 
d="M127 -11.9062h288l-47 1087.93h-192zM127 1536v-311.98h288v299.981z" />
    <glyph glyph-name="cent" unicode="&#xa2;" horiz-adv-x="983" 
d="M439 -16q-98 20 -170.5 75.5t-120.5 134t-72 174.5t-24 198q0 103 23 204t70 183.5t120 138.5t174 70v182h139v-183q77 -12 140 -46.5t109 -87.5t72 -122.5t29 -150.5l-273 -12q-3 19 -7.5 43t-13 49t-22 47t-34.5 37v-700q19 4 33.5 16t25 27.5t18 34.5t12.5 38
q11 44 14 98l240 -27q-12 -91 -33.5 -167.5t-60.5 -133t-99.5 -90t-149.5 -39.5v-167h-139v176zM341 576q0 -28 1.5 -71.5t10.5 -90t29 -90.5t57 -72v668q-25 -16 -41.5 -42t-27.5 -57.5t-17 -66t-8.5 -67.5t-3 -62t-0.5 -49z" />
    <glyph glyph-name="sterling" unicode="&#xa3;" horiz-adv-x="914" 
d="M105 827h101q-13 48 -28 95q-18 55 -33 105t-25 94t-10 78q0 85 33 152.5t85.5 115t119 72.5t134.5 25q64 0 125 -19t111.5 -59.5t85.5 -103t47 -149.5l-232 -88q0 95 -35 140.5t-88 45.5q-38 0 -65 -35.5t-27 -116.5q0 -71 23.5 -136.5t51.5 -130.5q18 -42 34 -85h188
v-191h-147v-4q0 -73 -26 -157.5t-93 -186.5q69 34 141 34q69 0 135 -24.5t132 -66.5v-221l-42 -12q-33 32 -64.5 51.5t-61 30t-57.5 14t-55 3.5q-59 0 -108.5 -17t-92.5 -37.5t-80 -37.5t-71 -17q-29 0 -50 7.5t-35 16.5q-17 11 -29 24v190q43 14 71.5 47t45.5 81
t24.5 108.5t7.5 128.5q0 22 -2 45h-139v191z" />
    <glyph glyph-name="currency" unicode="&#xa4;" horiz-adv-x="1213" 
d="M183 447l-95 109l140 123q-26 50 -39 108.5t-13 124.5q0 68 13.5 128t42.5 111l-144 127l95 109l143 -126q52 39 122 60.5t160 21.5t159.5 -22t121.5 -61l144 127l95 -109l-145 -128q28 -51 41.5 -111t13.5 -127q0 -66 -13 -124t-39 -108l142 -124l-95 -109l-139 122
q-53 -42 -124 -64.5t-163 -22.5t-163 22.5t-123 63.5zM607 698q191 0 191 214q0 215 -191 215t-191 -215q0 -214 191 -214z" />
    <glyph glyph-name="yen" unicode="&#xa5;" horiz-adv-x="1096" 
d="M404 608l-370 928h330l211 -640l228 640h259l-355 -893v-643h-303v608z" />
    <glyph glyph-name="brokenbar" unicode="&#xa6;" horiz-adv-x="590" 
d="M145 576h300v-672h-300v672zM145 1632h300v-672h-300v672z" />
    <glyph glyph-name="section" unicode="&#xa7;" horiz-adv-x="984" 
d="M305 312q9 -39 31 -69q18 -26 51 -47t86 -21q20 0 45.5 4.5t47.5 15.5t37 28.5t15 44.5q0 37 -26 61t-61 38l-241 98q-97 38 -148.5 118t-51.5 196q0 71 22.5 127.5t60.5 100.5q-73 84 -73 218q0 84 33 148t87 107.5t124 65.5t145 22q62 0 122.5 -17.5t112.5 -51.5
t90.5 -84t57.5 -115l-236 -73q-11 38 -30 69q-17 26 -45 47.5t-70 21.5q-23 0 -45 -5t-39.5 -16.5t-28.5 -29t-11 -41.5q0 -19 10.5 -34.5t26 -28t32.5 -21.5t31 -14l205 -85q48 -20 90.5 -47.5t74 -65.5t49.5 -88t18 -116q0 -78 -25 -138.5t-67 -105.5q38 -38 60 -90
t22 -122q0 -87 -35 -152.5t-92 -109t-129 -65.5t-146 -22q-88 0 -157 19t-120 54.5t-84 86t-48 112.5zM357 827q0 -23 10.5 -41.5t26 -33t32.5 -25.5t31 -18l133 -55q15 11 26.5 27.5t11.5 42.5q0 37 -26 61t-61 38l-161 65q-10 -11 -16.5 -26t-6.5 -35z" />
    <glyph glyph-name="dieresis" unicode="&#xa8;" horiz-adv-x="1091" 
d="M450 1536v-288h-288v288h288zM930 1536v-288h-288v288h288z" />
    <glyph glyph-name="copyright" unicode="&#xa9;" horiz-adv-x="1397" 
d="M995 582q0 -67 -17.5 -128.5t-53 -108.5t-90 -75t-127.5 -28q-87 0 -147 41t-97.5 106t-54.5 144t-17 156q0 47 7.5 96t23 95.5t41 87.5t61 71.5t82.5 48.5t106 18q66 0 118.5 -30t89 -79t55.5 -110t19 -124l-191 -8q0 4 -1 20t-4 37t-9.5 44t-18 42.5t-28.5 32.5t-42 13
q-36 0 -57.5 -23.5t-33.5 -60.5t-16 -82.5t-4 -88.5q0 -56 4.5 -109.5t18 -95.5t39.5 -67.5t69 -25.5q31 0 51 20t31.5 51t17 67.5t7.5 68.5zM187 673q0 -112 40.5 -210.5t110 -171.5t162.5 -115.5t199 -42.5q105 0 198 42.5t162.5 115.5t110 171.5t40.5 210.5t-40.5 210.5
t-110 171.5t-162.5 115.5t-198 42.5q-106 0 -199 -42.5t-162.5 -115.5t-110 -171.5t-40.5 -210.5zM54 673q0 93 23 179t65 161t101 136t131 105t154 68t171 24q88 0 170.5 -24t154 -68t130.5 -105t101 -136t65 -161t23 -179t-23 -179t-65 -161t-101 -136t-130.5 -105
t-154 -68t-170.5 -24q-89 0 -171 24t-154 68t-131 105t-101 136t-65 161t-23 179z" />
    <glyph glyph-name="ordfeminine" unicode="&#xaa;" horiz-adv-x="774" 
d="M68 549q0 90 37.5 147.5t94 91t121.5 47.5t121 18q0 29 -1 57.5t-7 51t-18.5 36.5t-35.5 14q-19 0 -32.5 -8.5t-22.5 -22t-14 -31t-7 -34.5l-206 36q8 63 36 104.5t67.5 66t86 34.5t92.5 10q72 0 124 -20t85.5 -55.5t49 -83t15.5 -101.5v-439q0 -26 3 -52.5t8 -48.5
q4 -26 11 -50l-206 -18l-23 104q-12 -23 -32.5 -43.5t-46 -36.5t-53.5 -25.5t-55 -9.5q-43 0 -78.5 19.5t-60.5 54.5t-39 83t-14 104zM276 552q0 -51 20 -81.5t64 -30.5q14 0 29 7.5t27 17.5q14 11 26 25v236q-36 0 -66 -9t-52.5 -29.5t-35 -53.5t-12.5 -82z" />
    <glyph glyph-name="guillemotleft" unicode="&#xab;" horiz-adv-x="1244" 
d="M54 439v265l510 390l-14 -261l-301 -226l327 -205l-14 -343zM630 439v265l510 390l-14 -261l-301 -226l327 -205l-14 -343z" />
    <glyph glyph-name="logicalnot" unicode="&#xac;" horiz-adv-x="789" 
d="M95 718h576v-430h-144v192h-432v238z" />
    <glyph glyph-name="registered" unicode="&#xae;" horiz-adv-x="1397" 
d="M187 673q0 -112 40.5 -210.5t110 -171.5t162.5 -115.5t199 -42.5q105 0 198 42.5t162.5 115.5t110 171.5t40.5 210.5t-40.5 210.5t-110 171.5t-162.5 115.5t-198 42.5q-106 0 -199 -42.5t-162.5 -115.5t-110 -171.5t-40.5 -210.5zM54 673q0 93 23 179t65 161t101 136
t131 105t154 68t171 24q88 0 170.5 -24t154 -68t130.5 -105t101 -136t65 -161t23 -179t-23 -179t-65 -161t-101 -136t-130.5 -105t-154 -68t-170.5 -24q-89 0 -171 24t-154 68t-131 105t-101 136t-65 161t-23 179zM468 1094h126q51 0 106 -0.5t107 -7t99.5 -21.5t82.5 -44
t56 -75.5t21 -114.5q0 -55 -17 -94t-47 -66t-69 -42.5t-84 -24t-92 -11t-92 -2.5v-358h-197v861zM700 731q34 0 64.5 4t54 15.5t37 31t13.5 50.5q0 33 -11.5 53.5t-34 31.5t-54.5 15t-74 4h-28v-205h33z" />
    <glyph glyph-name="macron" unicode="&#xaf;" horiz-adv-x="898" 
d="M162 1440h576v-192h-576v192z" />
    <glyph glyph-name="degree" unicode="&#xb0;" horiz-adv-x="921" 
d="M68 769q0 82 25 152t75 121t125 80t176 29q93 0 164.5 -29t120 -80t73.5 -121t25 -152t-25 -152t-73.5 -121t-120 -80t-164.5 -29q-101 0 -176 29t-125 80t-75 121t-25 152zM603 769q0 24 -2.5 56.5t-15.5 62.5t-40.5 50.5t-76.5 20.5q-57 0 -88 -20.5t-45.5 -50.5
t-16.5 -62.5t-2 -56.5t2 -56.5t16.5 -62.5t45.5 -50.5t88 -20.5q49 0 76.5 20.5t40.5 50.5t15.5 62.5t2.5 56.5z" />
    <glyph glyph-name="plusminus" unicode="&#xb1;" horiz-adv-x="866" 
d="M553 576v-240h-238v240h-240v238h240v240h238v-240h240v-238h-240zM142 239h576v-238h-576v238z" />
    <glyph glyph-name="twosuperior" unicode="&#xb2;" horiz-adv-x="840" 
d="M87 1321q12 49 41.5 94t74 79t103 54t128.5 20q65 0 123 -16t102 -50t69.5 -88t25.5 -130q0 -69 -33 -139.5t-84 -137t-113 -127.5t-121 -112h304q0 -29 -2.5 -51.5t-5.5 -44.5t-5.5 -44.5t-2.5 -51.5h-604v173q37 42 79.5 86t85 88.5t82 89.5t69.5 90.5t48 91t18 91.5
q0 38 -15.5 65t-45.5 27q-26 0 -42 -21.5t-25 -47.5q-11 -30 -15 -68z" />
    <glyph glyph-name="threesuperior" unicode="&#xb3;" horiz-adv-x="857" 
d="M85 1372q30 52 63 89t71 60.5t83 34.5t100 11q64 0 124.5 -16t107.5 -48t76 -79t29 -109q0 -22 -5 -52t-24 -62.5t-56.5 -64.5t-101.5 -57q96 -30 148.5 -89t52.5 -160q0 -73 -29.5 -129.5t-79 -94.5t-115.5 -58t-139 -20q-59 0 -114 14t-100.5 42t-79 70.5t-48.5 99.5
l215 63q6 -19 15 -36t22 -30t31.5 -21t45.5 -8q24 0 43 8.5t32.5 23.5t20.5 34t7 40q0 46 -16.5 74t-44.5 43.5t-65.5 20.5t-79.5 5v193q39 0 74 5t61.5 18.5t41.5 38t15 63.5q0 36 -21.5 64t-64.5 28q-23 0 -39 -13.5t-27 -30.5q-13 -19 -22 -43z" />
    <glyph glyph-name="acute" unicode="&#xb4;" horiz-adv-x="613" 
d="M165 1346l297 447l227 -202l-411 -346z" />
    <glyph glyph-name="mu" unicode="&#xb5;" horiz-adv-x="1099" 
d="M128 1128l288 24v-771q0 -85 26 -119t69 -34q20 0 42.5 7.5t47.5 20.5t51 29t52 33v810l288 24v-1140l-288 -24v147q-61 -44 -120 -68t-110 -24q-31 0 -58 3v-238l-288 -12v1332z" />
    <glyph glyph-name="paragraph" unicode="&#xb6;" horiz-adv-x="1152" 
d="M1095 1288h-144v-1288h-232v764q-38 0 -75.5 1t-76.5 5v-770h-232v801q-62 17 -115 44t-91.5 68.5t-60 98.5t-21.5 133q0 102 36 170.5t97 112t142 66t171 32t184 10t182 0.5h236v-248z" />
    <glyph glyph-name="periodcentered" unicode="&#xb7;" horiz-adv-x="516" 
d="M402 768v-288h-288v288h288z" />
    <glyph glyph-name="cedilla" unicode="&#xb8;" horiz-adv-x="551" 
d="M164 48h152l-30 -124q61 -17 102 -43t67 -54t40 -56.5t20 -52t6.5 -39t0.5 -18.5q0 -60 -18 -101t-48 -67t-69 -37.5t-81 -11.5q-65 0 -126.5 17.5t-103.5 46.5v165q44 -20 79.5 -28t64.5 -8q52 0 74 22t22 52q0 20 -11 41t-34.5 38t-59.5 28t-87 11z" />
    <glyph glyph-name="onesuperior" unicode="&#xb9;" horiz-adv-x="763" 
d="M104 768h179v438l-62 -8q-26 -3 -55 -5.5t-49 -2.5h-26v141l331 205h101v-768h187l-12 -192h-594v192z" />
    <glyph glyph-name="ordmasculine" unicode="&#xba;" horiz-adv-x="951" 
d="M474 557q36 0 63.5 18t45.5 48t27 68t9 78t-9 78.5t-27 69t-45 49t-63 18.5t-63 -18t-45 -48t-27 -68.5t-9 -78.5q0 -39 9 -77t27 -68t44.5 -49t62.5 -20zM476 363q-98 0 -171.5 30t-122.5 83.5t-73.5 127.5t-24.5 163q0 87 24.5 160t73.5 126.5t122.5 83.5t171.5 30
q96 0 169 -30t122.5 -83.5t75 -126.5t25.5 -160q0 -89 -25.5 -163t-75 -127.5t-122.5 -83.5t-169 -30z" />
    <glyph glyph-name="guillemotright" unicode="&#xbb;" horiz-adv-x="1244" 
d="M682 59l-14 343l327 205l-301 226l-14 261l510 -390v-265zM106 59l-14 343l327 205l-301 226l-14 261l510 -390v-265z" />
    <glyph glyph-name="onequarter" unicode="&#xbc;" horiz-adv-x="1991" 
d="M1572 192h-390v168l352 600h286v-590h125l-16 -178h-109v-224l-248 -16v240zM1064 1536h288l-384 -1536h-288zM84 768h179v438l-62 -8q-26 -3 -55 -5.5t-49 -2.5h-26v141l331 205h101v-768h187l-12 -192h-594v192zM1572 370v341l-205 -341h205z" />
    <glyph glyph-name="onehalf" unicode="&#xbd;" horiz-adv-x="1984" 
d="M1058 1536h288l-384 -1536h-288zM1267 745q12 49 41.5 94t74 79t103 54t128.5 20q65 0 123 -16t102 -50t69.5 -88t25.5 -130q0 -69 -33 -139.5t-84 -137t-113 -127.5t-121 -112h304q0 -29 -2.5 -51.5t-5.5 -44.5t-5.5 -44.5t-2.5 -51.5h-604v173q37 42 79.5 86t85 88.5
t82 89.5t69.5 90.5t48 91t18 91.5q0 38 -15.5 65t-45.5 27q-26 0 -42 -21.5t-25 -47.5q-11 -30 -15 -68zM78 768h179v438l-62 -8q-26 -3 -55 -5.5t-49 -2.5h-26v141l331 205h101v-768h187l-12 -192h-594v192z" />
    <glyph glyph-name="threequarters" unicode="&#xbe;" horiz-adv-x="1981" 
d="M1053 1536h288l-384 -1536h-288zM80 1372q30 52 63 89t71 60.5t83 34.5t100 11q64 0 124.5 -16t107.5 -48t76 -79t29 -109q0 -22 -5 -52t-24 -62.5t-56.5 -64.5t-101.5 -57q96 -30 148.5 -89t52.5 -160q0 -73 -29.5 -129.5t-79 -94.5t-115.5 -58t-139 -20q-59 0 -114 14
t-100.5 42t-79 70.5t-48.5 99.5l215 63q6 -19 15 -36t22 -30t31.5 -21t45.5 -8q24 0 43 8.5t32.5 23.5t20.5 34t7 40q0 46 -16.5 74t-44.5 43.5t-65.5 20.5t-79.5 5v193q39 0 74 5t61.5 18.5t41.5 38t15 63.5q0 36 -21.5 64t-64.5 28q-23 0 -39 -13.5t-27 -30.5
q-13 -19 -22 -43zM1561 192h-390v168l352 600h286v-590h125l-16 -178h-109v-224l-248 -16v240zM1561 370v341l-205 -341h205z" />
    <glyph glyph-name="questiondown" unicode="&#xbf;" horiz-adv-x="885" 
d="M451.026 1150.02h239.985q10 -108.993 0 -182.489q-9.99902 -73.4951 -32.998 -122.992q-22.998 -49.4971 -55.4961 -80.4951t-67.9961 -54.4961q-35.498 -23.499 -70.4961 -43.998q-34.9971 -20.498 -62.4961 -50.4971q-27.498 -29.998 -44.9971 -73.4951
t-17.499 -112.493q0 -19.999 2 -55.4961q2 -35.498 12.499 -70.4961q10.5 -34.998 34.498 -60.9961q23.999 -25.999 66.9961 -25.999q32.998 0 52.9971 21.499q19.998 21.499 31.498 52.4971q11.499 30.998 15.999 64.4961q4.49902 33.498 7.49902 58.4961l272.983 -11.999
q-3 -90.9951 -32.498 -166.99t-80.4951 -130.992q-50.9971 -54.9961 -120.992 -84.9941q-69.9961 -29.998 -153.991 -29.998q-102.993 0 -178.488 39.4971q-75.4961 39.498 -123.993 103.494t-71.9951 144.991q-23.499 80.9951 -23.499 162.989q0 90.9951 16.999 153.491
t45.4971 106.493q28.499 43.9971 64.4961 72.9961q35.998 28.998 73.4961 53.9961q37.4971 24.999 73.4951 49.4971q35.998 24.499 64.4961 58.9961q28.498 34.498 45.4971 82.9951t16.999 120.493v11.999zM428.028 1246.02v287.982l287.982 11.999v-299.981h-287.982z" />
    <glyph glyph-name="Agrave" unicode="&#xc0;" horiz-adv-x="1131" 
d="M359 329l-67 -329h-267l324 1518l427 18l332 -1524l-327 -12l-57 329h-365zM670 575l-141 735l-116 -735h257zM606 1625l-410 346l227 202l297 -447z" />
    <glyph glyph-name="Aacute" unicode="&#xc1;" horiz-adv-x="1131" 
d="M359 329l-67 -329h-267l324 1518l427 18l332 -1524l-327 -12l-57 329h-365zM670 575l-141 735l-116 -735h257zM405 1730l297 447l227 -202l-411 -346z" />
    <glyph glyph-name="Acircumflex" unicode="&#xc2;" horiz-adv-x="1131" 
d="M359 329l-67 -329h-267l324 1518l427 18l332 -1524l-327 -12l-57 329h-365zM670 575l-141 735l-116 -735h257zM231 1632l240 480h202l230 -480h-250l-96 290l-116 -290h-210z" />
    <glyph glyph-name="Atilde" unicode="&#xc3;" horiz-adv-x="1131" 
d="M359 329l-67 -329h-267l324 1518l427 18l332 -1524l-327 -12l-57 329h-365zM670 575l-141 735l-116 -735h257zM248 1799q30 34 63 61q28 23 62 42t68 19q40 0 72 -12.5t61.5 -27.5t57.5 -27.5t60 -12.5q38 0 66.5 12.5t46.5 27.5q21 18 36 40l44 -162q0 -1 -13 -24
t-37.5 -50t-60 -49t-80.5 -22q-36 0 -65.5 16t-59.5 34.5t-63 34.5t-76 16q-31 0 -61 -15.5t-53 -34.5q-28 -22 -53 -50z" />
    <glyph glyph-name="Adieresis" unicode="&#xc4;" horiz-adv-x="1131" 
d="M359 329l-67 -329h-267l324 1518l427 18l332 -1524l-327 -12l-57 329h-365zM670 575l-141 735l-116 -735h257zM471 1920v-288h-288v288h288zM951 1920v-288h-288v288h288z" />
    <glyph glyph-name="Aring" unicode="&#xc5;" horiz-adv-x="1131" 
d="M359 329l-67 -329h-267l324 1518l427 18l332 -1524l-327 -12l-57 329h-365zM670 575l-141 735l-116 -735h257zM567 1632q-59 0 -115 17t-100 50.5t-71 85t-27 120.5q0 68 27 119t71 84.5t100 50.5t115 17q58 0 114 -17t100 -50.5t71 -84.5t27 -119q0 -69 -27 -120.5
t-71 -85t-100 -50.5t-114 -17zM566 1791q23 0 45 7t39.5 21.5t28.5 35.5t11 49q0 27 -11 47.5t-28 34.5t-39.5 21.5t-44.5 7.5q-23 0 -45.5 -7.5t-40 -21.5t-28 -34.5t-10.5 -47.5q0 -28 10.5 -49t28 -35.5t39.5 -21.5t45 -7z" />
    <glyph glyph-name="AE" unicode="&#xc6;" horiz-adv-x="1580" 
d="M769 0l16 329h-335l-130 -329h-327l661 1518l204 18h656l-24 -240h-386v-366h253l-1 -258h-252v-432h426l-24 -240h-737zM786 575l22 735l-259 -735h237z" />
    <glyph glyph-name="Ccedilla" unicode="&#xc7;" horiz-adv-x="1073" 
d="M999 523q0 -107 -26.5 -207.5t-80.5 -177.5t-136 -123.5t-193 -46.5q-96 0 -169.5 34.5t-126.5 95t-88.5 141t-56.5 173t-30 192t-9 196.5q0 86 11 176.5t35 176t62.5 161t92.5 132t125 89.5t161 33q101 0 180.5 -48.5t134 -127t83.5 -177.5t29 -201l-290 -15
q0 8 -1 35.5t-6 64t-14.5 77t-26.5 74.5t-43 56t-63 22q-36 0 -62.5 -23.5t-45.5 -63t-31 -92.5t-19 -111.5t-9.5 -119.5t-2.5 -118q0 -72 2.5 -143t10.5 -135t21.5 -118.5t36 -94t54 -62t74.5 -22.5q47 0 76.5 31.5t47.5 79.5t26 104.5t12 106.5zM494 48h152l-30 -124
q61 -17 102 -43t67 -54t40 -56.5t20 -52t6.5 -39t0.5 -18.5q0 -60 -18 -101t-48 -67t-69 -37.5t-81 -11.5q-65 0 -126.5 17.5t-103.5 46.5v165q44 -20 79.5 -28t64.5 -8q52 0 74 22t22 52q0 20 -11 41t-34.5 38t-59.5 28t-87 11z" />
    <glyph glyph-name="Egrave" unicode="&#xc8;" horiz-adv-x="988" 
d="M142 1536h780l-24 -240h-456v-366h323l-1 -258h-322v-432h496l-24 -240h-772v1536zM412 1625l-410 346l227 202l297 -447z" />
    <glyph glyph-name="Eacute" unicode="&#xc9;" horiz-adv-x="988" 
d="M142 1536h780l-24 -240h-456v-366h323l-1 -258h-322v-432h496l-24 -240h-772v1536zM461 1730l297 447l227 -202l-411 -346z" />
    <glyph glyph-name="Ecircumflex" unicode="&#xca;" horiz-adv-x="988" 
d="M142 1536h780l-24 -240h-456v-366h323l-1 -258h-322v-432h496l-24 -240h-772v1536zM193 1632l240 480h202l230 -480h-250l-96 290l-116 -290h-210z" />
    <glyph glyph-name="Edieresis" unicode="&#xcb;" horiz-adv-x="988" 
d="M142 1536h780l-24 -240h-456v-366h323l-1 -258h-322v-432h496l-24 -240h-772v1536zM450 1920v-288h-288v288h288zM930 1920v-288h-288v288h288z" />
    <glyph glyph-name="Igrave" unicode="&#xcc;" horiz-adv-x="583" 
d="M142 1512l300 24v-1524l-300 -24v1524zM331 1625l-410 346l227 202l297 -447z" />
    <glyph glyph-name="Iacute" unicode="&#xcd;" horiz-adv-x="583" 
d="M142 1512l300 24v-1524l-300 -24v1524zM130 1730l297 447l227 -202l-411 -346z" />
    <glyph glyph-name="Icircumflex" unicode="&#xce;" horiz-adv-x="583" 
d="M142 1512l300 24v-1524l-300 -24v1524zM-44 1632l240 480h202l230 -480h-250l-96 290l-116 -290h-210z" />
    <glyph glyph-name="Idieresis" unicode="&#xcf;" horiz-adv-x="582" 
d="M142 1512l300 24v-1524l-300 -24v1524zM195 1920v-288h-288v288h288zM675 1920v-288h-288v288h288z" />
    <glyph glyph-name="Eth" unicode="&#xd0;" horiz-adv-x="1138" 
d="M5 864h143v672h314q303 0 453 -191.5t150 -582.5q0 -97 -13 -191.5t-40.5 -179t-70.5 -156.5t-104 -124t-141 -81.5t-181 -29.5h-367v672h-143v192zM447 1296v-432h134v-192h-134v-432h43q57 0 100 19.5t73.5 53.5t50 79.5t31 97t16 106.5t4.5 109v112q0 63 -6 128.5
t-22 128.5t-47 112.5t-81.5 79.5t-126.5 30h-35z" />
    <glyph glyph-name="Ntilde" unicode="&#xd1;" horiz-adv-x="1245" 
d="M409 948v-936l-268 -12v1524l313 12l396 -914v890l254 24v-1524l-246 -24zM280 1799q30 34 63 61q28 23 62 42t68 19q40 0 72 -12.5t61.5 -27.5t57.5 -27.5t60 -12.5q38 0 66.5 12.5t46.5 27.5q21 18 36 40l44 -162q0 -1 -13 -24t-37.5 -50t-60 -49t-80.5 -22
q-36 0 -65.5 16t-59.5 34.5t-63 34.5t-76 16q-31 0 -61 -15.5t-53 -34.5q-28 -22 -53 -50z" />
    <glyph glyph-name="Ograve" unicode="&#xd2;" horiz-adv-x="1125" 
d="M561 -32q-98 0 -171.5 33t-126.5 92t-87 139.5t-54 175t-28 199.5t-8 213q0 162 27.5 300t85.5 236t147.5 151.5t214.5 53.5t215.5 -53.5t149 -151.5t86 -236t27.5 -300q0 -108 -8 -213t-28.5 -199.5t-55 -175t-87.5 -139.5t-127 -92t-172 -33zM561 223q60 0 95.5 41.5
t54 119t23.5 188t5 248.5q0 48 -1.5 100.5t-7.5 109t-17.5 109.5t-31.5 93.5t-49.5 65t-70.5 24.5t-70 -24.5t-48.5 -65t-31 -93.5t-17.5 -109.5t-7.5 -109t-1.5 -100.5q0 -138 5 -248.5t23 -188t53 -119t95 -41.5zM650 1625l-410 346l227 202l297 -447z" />
    <glyph glyph-name="Oacute" unicode="&#xd3;" horiz-adv-x="1125" 
d="M561 -32q-98 0 -171.5 33t-126.5 92t-87 139.5t-54 175t-28 199.5t-8 213q0 162 27.5 300t85.5 236t147.5 151.5t214.5 53.5t215.5 -53.5t149 -151.5t86 -236t27.5 -300q0 -108 -8 -213t-28.5 -199.5t-55 -175t-87.5 -139.5t-127 -92t-172 -33zM561 223q60 0 95.5 41.5
t54 119t23.5 188t5 248.5q0 48 -1.5 100.5t-7.5 109t-17.5 109.5t-31.5 93.5t-49.5 65t-70.5 24.5t-70 -24.5t-48.5 -65t-31 -93.5t-17.5 -109.5t-7.5 -109t-1.5 -100.5q0 -138 5 -248.5t23 -188t53 -119t95 -41.5zM400 1730l297 447l227 -202l-411 -346z" />
    <glyph glyph-name="Ocircumflex" unicode="&#xd4;" horiz-adv-x="1125" 
d="M561 -32q-98 0 -171.5 33t-126.5 92t-87 139.5t-54 175t-28 199.5t-8 213q0 162 27.5 300t85.5 236t147.5 151.5t214.5 53.5t215.5 -53.5t149 -151.5t86 -236t27.5 -300q0 -108 -8 -213t-28.5 -199.5t-55 -175t-87.5 -139.5t-127 -92t-172 -33zM561 223q60 0 95.5 41.5
t54 119t23.5 188t5 248.5q0 48 -1.5 100.5t-7.5 109t-17.5 109.5t-31.5 93.5t-49.5 65t-70.5 24.5t-70 -24.5t-48.5 -65t-31 -93.5t-17.5 -109.5t-7.5 -109t-1.5 -100.5q0 -138 5 -248.5t23 -188t53 -119t95 -41.5zM226 1632l240 480h202l230 -480h-250l-96 290l-116 -290
h-210z" />
    <glyph glyph-name="Otilde" unicode="&#xd5;" horiz-adv-x="1125" 
d="M561 -32q-98 0 -171.5 33t-126.5 92t-87 139.5t-54 175t-28 199.5t-8 213q0 162 27.5 300t85.5 236t147.5 151.5t214.5 53.5t215.5 -53.5t149 -151.5t86 -236t27.5 -300q0 -108 -8 -213t-28.5 -199.5t-55 -175t-87.5 -139.5t-127 -92t-172 -33zM561 223q60 0 95.5 41.5
t54 119t23.5 188t5 248.5q0 48 -1.5 100.5t-7.5 109t-17.5 109.5t-31.5 93.5t-49.5 65t-70.5 24.5t-70 -24.5t-48.5 -65t-31 -93.5t-17.5 -109.5t-7.5 -109t-1.5 -100.5q0 -138 5 -248.5t23 -188t53 -119t95 -41.5zM243 1799q30 34 63 61q28 23 62 42t68 19q40 0 72 -12.5
t61.5 -27.5t57.5 -27.5t60 -12.5q38 0 66.5 12.5t46.5 27.5q21 18 36 40l44 -162q0 -1 -13 -24t-37.5 -50t-60 -49t-80.5 -22q-36 0 -65.5 16t-59.5 34.5t-63 34.5t-76 16q-31 0 -61 -15.5t-53 -34.5q-28 -22 -53 -50z" />
    <glyph glyph-name="Odieresis" unicode="&#xd6;" horiz-adv-x="1125" 
d="M561 -32q-98 0 -171.5 33t-126.5 92t-87 139.5t-54 175t-28 199.5t-8 213q0 162 27.5 300t85.5 236t147.5 151.5t214.5 53.5t215.5 -53.5t149 -151.5t86 -236t27.5 -300q0 -108 -8 -213t-28.5 -199.5t-55 -175t-87.5 -139.5t-127 -92t-172 -33zM561 223q60 0 95.5 41.5
t54 119t23.5 188t5 248.5q0 48 -1.5 100.5t-7.5 109t-17.5 109.5t-31.5 93.5t-49.5 65t-70.5 24.5t-70 -24.5t-48.5 -65t-31 -93.5t-17.5 -109.5t-7.5 -109t-1.5 -100.5q0 -138 5 -248.5t23 -188t53 -119t95 -41.5zM466 1920v-288h-288v288h288zM946 1920v-288h-288v288h288
z" />
    <glyph glyph-name="multiply" unicode="&#xd7;" horiz-adv-x="857" 
d="M427 720l188 188l168 -169l-188 -187l191 -190l-169 -169l-190 191l-187 -188l-169 168l188 188l-185 184l169 169z" />
    <glyph glyph-name="Oslash" unicode="&#xd8;" horiz-adv-x="1129" 
d="M562 -32q-68 0 -123.5 16t-100.5 45t-80 71t-62 93l-72 -87l-95 92l112 136q-31 108 -42.5 231.5t-11.5 254.5q0 169 27.5 307t85.5 236t147.5 151.5t214.5 53.5q139 0 235.5 -66t153.5 -185l84 102l95 -92l-128 -156q38 -155 38 -351q0 -108 -8 -213t-28.5 -199.5
t-55 -175t-87.5 -139.5t-127 -92t-172 -33zM386 820v-97q0 -46 2 -89l341 414q-6 55 -18 105.5t-31.5 89.5t-48.5 62.5t-69 23.5q-41 0 -70 -24.5t-48.5 -65t-31 -93.5t-17.5 -109.5t-7.5 -112.5t-1.5 -104zM562 223q60 0 95.5 41.5t54 119t23.5 188t5 248.5v33l-337 -409
q15 -106 51.5 -163.5t107.5 -57.5z" />
    <glyph glyph-name="Ugrave" unicode="&#xd9;" horiz-adv-x="1163" 
d="M132 1524l300 12v-1054q0 -46 3 -92t19.5 -83t50 -60.5t95.5 -23.5q58 0 89.5 24t46.5 62t17.5 84.5t2.5 91.5v1027l275 24v-995q0 -44 -2 -103.5t-14.5 -123t-40.5 -126t-80.5 -111.5t-134 -79t-200.5 -30q-111 0 -191.5 43.5t-133 117t-77.5 171.5t-25 206v1018z
M670 1625l-410 346l227 202l297 -447z" />
    <glyph glyph-name="Uacute" unicode="&#xda;" horiz-adv-x="1163" 
d="M132 1524l300 12v-1054q0 -46 3 -92t19.5 -83t50 -60.5t95.5 -23.5q58 0 89.5 24t46.5 62t17.5 84.5t2.5 91.5v1027l275 24v-995q0 -44 -2 -103.5t-14.5 -123t-40.5 -126t-80.5 -111.5t-134 -79t-200.5 -30q-111 0 -191.5 43.5t-133 117t-77.5 171.5t-25 206v1018z
M420 1730l297 447l227 -202l-411 -346z" />
    <glyph glyph-name="Ucircumflex" unicode="&#xdb;" horiz-adv-x="1163" 
d="M132 1524l300 12v-1054q0 -46 3 -92t19.5 -83t50 -60.5t95.5 -23.5q58 0 89.5 24t46.5 62t17.5 84.5t2.5 91.5v1027l275 24v-995q0 -44 -2 -103.5t-14.5 -123t-40.5 -126t-80.5 -111.5t-134 -79t-200.5 -30q-111 0 -191.5 43.5t-133 117t-77.5 171.5t-25 206v1018z
M246 1632l240 480h202l230 -480h-250l-96 290l-116 -290h-210z" />
    <glyph glyph-name="Udieresis" unicode="&#xdc;" horiz-adv-x="1163" 
d="M132 1524l300 12v-1054q0 -46 3 -92t19.5 -83t50 -60.5t95.5 -23.5q58 0 89.5 24t46.5 62t17.5 84.5t2.5 91.5v1027l275 24v-995q0 -44 -2 -103.5t-14.5 -123t-40.5 -126t-80.5 -111.5t-134 -79t-200.5 -30q-111 0 -191.5 43.5t-133 117t-77.5 171.5t-25 206v1018z
M486 1920v-288h-288v288h288zM966 1920v-288h-288v288h288z" />
    <glyph glyph-name="Yacute" unicode="&#xdd;" horiz-adv-x="1027" 
d="M367 608l-370 928h330l211 -640l228 640h259l-355 -893v-631l-303 -24v620zM349 1730l297 447l227 -202l-411 -346z" />
    <glyph glyph-name="Thorn" unicode="&#xde;" horiz-adv-x="1082" 
d="M140 1536h302v-369q72 -1 144.5 -6t140 -20.5t126 -45.5t102 -79.5t68.5 -123t25 -176.5t-26 -176.5t-71 -123.5t-104.5 -80t-127.5 -45.5t-139.5 -20.5t-139.5 -5v-333l-300 -24v1628zM493 488q52 0 98.5 9.5t81.5 35t55.5 70.5t20.5 115q0 69 -17.5 112t-51.5 66.5
t-83 32t-112 8.5h-43v-449h51z" />
    <glyph glyph-name="germandbls" unicode="&#xdf;" horiz-adv-x="1170" 
d="M124 0v1056q0 136 34 233t90.5 159t129.5 90.5t151 28.5q108 0 195.5 -31t148.5 -83t94 -120t33 -141q0 -88 -49.5 -175t-157.5 -159q64 -21 124 -50t106.5 -73.5t75 -108.5t28.5 -155q0 -90 -23 -159.5t-63 -120.5t-95.5 -85.5t-121 -56.5t-138 -33t-146.5 -14v228h12
q73 0 127 19.5t88.5 52t51.5 74.5t17 86q0 48 -19 95t-55.5 83.5t-89.5 59.5t-121 23v208q52 17 90 42.5t62.5 56t36 64t11.5 66.5q0 36 -13.5 69.5t-38 59t-60 41t-79.5 15.5q-28 0 -54 -14t-46.5 -42.5t-33 -72.5t-12.5 -105v-1111h-290z" />
    <glyph glyph-name="agrave" unicode="&#xe0;" horiz-adv-x="968" 
d="M56 327q0 82 23.5 143.5t63 106t91.5 74.5t108.5 48.5t113.5 28t107 12.5q0 40 -1 78.5t-9 69t-25 49.5t-48 19q-26 0 -44.5 -11.5t-31 -30t-19 -42t-9.5 -46.5l-280 49q11 86 49 142.5t91.5 89.5t117 46.5t126.5 13.5q98 0 168 -27.5t115 -75.5t66.5 -112.5t21.5 -138.5
v-596q0 -34 4.5 -70t10.5 -66q7 -35 16 -69l-280 -24l-32 141q-17 -31 -44.5 -59t-61.5 -49.5t-72 -34.5t-75 -13q-59 0 -107 26.5t-82.5 74t-53 112t-18.5 141.5zM338 331q0 -68 27.5 -110t86.5 -42q20 0 39.5 10.5t35.5 23.5q18 15 36 34v321q-48 0 -89 -12t-71.5 -40
t-47.5 -73.5t-17 -111.5zM569 1241l-410 346l227 202l297 -447z" />
    <glyph glyph-name="aacute" unicode="&#xe1;" horiz-adv-x="968" 
d="M56 327q0 82 23.5 143.5t63 106t91.5 74.5t108.5 48.5t113.5 28t107 12.5q0 40 -1 78.5t-9 69t-25 49.5t-48 19q-26 0 -44.5 -11.5t-31 -30t-19 -42t-9.5 -46.5l-280 49q11 86 49 142.5t91.5 89.5t117 46.5t126.5 13.5q98 0 168 -27.5t115 -75.5t66.5 -112.5t21.5 -138.5
v-596q0 -34 4.5 -70t10.5 -66q7 -35 16 -69l-280 -24l-32 141q-17 -31 -44.5 -59t-61.5 -49.5t-72 -34.5t-75 -13q-59 0 -107 26.5t-82.5 74t-53 112t-18.5 141.5zM338 331q0 -68 27.5 -110t86.5 -42q20 0 39.5 10.5t35.5 23.5q18 15 36 34v321q-48 0 -89 -12t-71.5 -40
t-47.5 -73.5t-17 -111.5zM319 1346l297 447l227 -202l-411 -346z" />
    <glyph glyph-name="acircumflex" unicode="&#xe2;" horiz-adv-x="968" 
d="M56 327q0 82 23.5 143.5t63 106t91.5 74.5t108.5 48.5t113.5 28t107 12.5q0 40 -1 78.5t-9 69t-25 49.5t-48 19q-26 0 -44.5 -11.5t-31 -30t-19 -42t-9.5 -46.5l-280 49q11 86 49 142.5t91.5 89.5t117 46.5t126.5 13.5q98 0 168 -27.5t115 -75.5t66.5 -112.5t21.5 -138.5
v-596q0 -34 4.5 -70t10.5 -66q7 -35 16 -69l-280 -24l-32 141q-17 -31 -44.5 -59t-61.5 -49.5t-72 -34.5t-75 -13q-59 0 -107 26.5t-82.5 74t-53 112t-18.5 141.5zM338 331q0 -68 27.5 -110t86.5 -42q20 0 39.5 10.5t35.5 23.5q18 15 36 34v321q-48 0 -89 -12t-71.5 -40
t-47.5 -73.5t-17 -111.5zM145 1248l240 480h202l230 -480h-250l-96 290l-116 -290h-210z" />
    <glyph glyph-name="atilde" unicode="&#xe3;" horiz-adv-x="968" 
d="M56 327q0 82 23.5 143.5t63 106t91.5 74.5t108.5 48.5t113.5 28t107 12.5q0 40 -1 78.5t-9 69t-25 49.5t-48 19q-26 0 -44.5 -11.5t-31 -30t-19 -42t-9.5 -46.5l-280 49q11 86 49 142.5t91.5 89.5t117 46.5t126.5 13.5q98 0 168 -27.5t115 -75.5t66.5 -112.5t21.5 -138.5
v-596q0 -34 4.5 -70t10.5 -66q7 -35 16 -69l-280 -24l-32 141q-17 -31 -44.5 -59t-61.5 -49.5t-72 -34.5t-75 -13q-59 0 -107 26.5t-82.5 74t-53 112t-18.5 141.5zM338 331q0 -68 27.5 -110t86.5 -42q20 0 39.5 10.5t35.5 23.5q18 15 36 34v321q-48 0 -89 -12t-71.5 -40
t-47.5 -73.5t-17 -111.5zM163 1415q30 34 63 61q28 23 62 42t68 19q40 0 72 -12.5t61.5 -27.5t57.5 -27.5t60 -12.5q38 0 66.5 12.5t46.5 27.5q21 18 36 40l44 -162q0 -1 -13 -24t-37.5 -50t-60 -49t-80.5 -22q-36 0 -65.5 16t-59.5 34.5t-63 34.5t-76 16q-31 0 -61 -15.5
t-53 -34.5q-28 -22 -53 -50z" />
    <glyph glyph-name="adieresis" unicode="&#xe4;" horiz-adv-x="968" 
d="M56 327q0 82 23.5 143.5t63 106t91.5 74.5t108.5 48.5t113.5 28t107 12.5q0 40 -1 78.5t-9 69t-25 49.5t-48 19q-26 0 -44.5 -11.5t-31 -30t-19 -42t-9.5 -46.5l-280 49q11 86 49 142.5t91.5 89.5t117 46.5t126.5 13.5q98 0 168 -27.5t115 -75.5t66.5 -112.5t21.5 -138.5
v-596q0 -34 4.5 -70t10.5 -66q7 -35 16 -69l-280 -24l-32 141q-17 -31 -44.5 -59t-61.5 -49.5t-72 -34.5t-75 -13q-59 0 -107 26.5t-82.5 74t-53 112t-18.5 141.5zM338 331q0 -68 27.5 -110t86.5 -42q20 0 39.5 10.5t35.5 23.5q18 15 36 34v321q-48 0 -89 -12t-71.5 -40
t-47.5 -73.5t-17 -111.5zM389 1536v-288h-288v288h288zM869 1536v-288h-288v288h288z" />
    <glyph glyph-name="aring" unicode="&#xe5;" horiz-adv-x="968" 
d="M56 327q0 82 23.5 143.5t63 106t91.5 74.5t108.5 48.5t113.5 28t107 12.5q0 40 -1 78.5t-9 69t-25 49.5t-48 19q-26 0 -44.5 -11.5t-31 -30t-19 -42t-9.5 -46.5l-280 49q11 86 49 142.5t91.5 89.5t117 46.5t126.5 13.5q98 0 168 -27.5t115 -75.5t66.5 -112.5t21.5 -138.5
v-596q0 -34 4.5 -70t10.5 -66q7 -35 16 -69l-280 -24l-32 141q-17 -31 -44.5 -59t-61.5 -49.5t-72 -34.5t-75 -13q-59 0 -107 26.5t-82.5 74t-53 112t-18.5 141.5zM338 331q0 -68 27.5 -110t86.5 -42q20 0 39.5 10.5t35.5 23.5q18 15 36 34v321q-48 0 -89 -12t-71.5 -40
t-47.5 -73.5t-17 -111.5zM482 1248q-59 0 -115 17t-100 50.5t-71 85t-27 120.5q0 68 27 119t71 84.5t100 50.5t115 17q58 0 114 -17t100 -50.5t71 -84.5t27 -119q0 -69 -27 -120.5t-71 -85t-100 -50.5t-114 -17zM481 1407q23 0 45 7t39.5 21.5t28.5 35.5t11 49
q0 27 -11 47.5t-28 34.5t-39.5 21.5t-44.5 7.5q-23 0 -45.5 -7.5t-40 -21.5t-28 -34.5t-10.5 -47.5q0 -28 10.5 -49t28 -35.5t39.5 -21.5t45 -7z" />
    <glyph glyph-name="ae" unicode="&#xe6;" horiz-adv-x="1457" 
d="M849 536q0 -54 7 -116t23.5 -114t43.5 -86.5t66 -34.5q34 0 62 27t49 61t33.5 64t15.5 36l218 -83q-20 -70 -53 -128t-80 -100t-109 -65.5t-141 -23.5q-87 0 -154 45t-117 126q-26 -50 -65.5 -83t-86 -52.5t-97 -27.5t-99.5 -8q-70 0 -127.5 26.5t-98 74t-63 112
t-22.5 141.5q0 82 23.5 143.5t63 106t91.5 74.5t108.5 48.5t113.5 28t107 12.5q0 40 -1 78.5t-9 69t-25 49.5t-48 19q-26 0 -44.5 -11.5t-31 -30t-19 -42t-9.5 -46.5l-280 49q11 86 49 142.5t91.5 89.5t117 46.5t126.5 13.5q83 0 143 -36t102 -99q54 63 121 99t150 36
q103 0 180 -43.5t129 -122.5t78 -189t26 -242l-4 -14q-2 -6 -3 -11.5t-1 -8.5h-550zM336 331q0 -68 27.5 -110t86.5 -42q24 0 44.5 18.5t35.5 47.5t23 65.5t8 71.5v186q-48 0 -89 -12t-71.5 -40t-47.5 -73.5t-17 -111.5zM1124 702q0 57 -7.5 106t-23.5 84.5t-41.5 56
t-62.5 20.5q-26 0 -50.5 -19.5t-44 -53.5t-32 -81t-13.5 -102v-11h275z" />
    <glyph glyph-name="ccedilla" unicode="&#xe7;" horiz-adv-x="915" 
d="M848 405q-12 -95 -34.5 -174.5t-64 -136.5t-106.5 -89t-162 -32q-69 0 -126 22.5t-103 63t-80 96.5t-57 122t-34.5 139.5t-11.5 149.5q0 111 24.5 218.5t75.5 192.5t130 137.5t188 52.5q79 0 145.5 -30t115 -85t76.5 -131t31 -167l-273 -12q-3 25 -7 58.5t-14 64.5
t-28.5 52.5t-48.5 21.5q-32 0 -53.5 -20t-35.5 -52.5t-21.5 -73t-11 -81t-4 -76.5t-0.5 -60t0.5 -60t4.5 -76t12 -80t23 -72t38 -52t57 -20q21 0 37 9.5t28 24.5t20.5 34.5t14.5 39.5q13 48 15 108zM394 48h152l-30 -124q61 -17 102 -43t67 -54t40 -56.5t20 -52t6.5 -39
t0.5 -18.5q0 -60 -18 -101t-48 -67t-69 -37.5t-81 -11.5q-65 0 -126.5 17.5t-103.5 46.5v165q44 -20 79.5 -28t64.5 -8q52 0 74 22t22 52q0 20 -11 41t-34.5 38t-59.5 28t-87 11z" />
    <glyph glyph-name="egrave" unicode="&#xe8;" horiz-adv-x="965" 
d="M357 536q0 -54 7 -116t23.5 -114t43.5 -86.5t66 -34.5q34 0 62 27t49 61t33.5 64t15.5 36l218 -83q-20 -70 -53 -128t-80 -100t-109 -65.5t-141 -23.5q-105 0 -184.5 44t-132 123t-79 189t-26.5 241q0 132 27 242t81 189t135 122.5t189 43.5q103 0 180 -43.5t129 -122.5
t78 -189t26 -242l-4 -14q-2 -6 -3 -11.5t-1 -8.5h-550zM632 702q0 57 -7.5 106t-23.5 84.5t-41.5 56t-62.5 20.5q-26 0 -51.5 -20.5t-45 -56t-31.5 -84.5t-12 -106h275zM568 1241l-410 346l227 202l297 -447z" />
    <glyph glyph-name="eacute" unicode="&#xe9;" horiz-adv-x="965" 
d="M357 536q0 -54 7 -116t23.5 -114t43.5 -86.5t66 -34.5q34 0 62 27t49 61t33.5 64t15.5 36l218 -83q-20 -70 -53 -128t-80 -100t-109 -65.5t-141 -23.5q-105 0 -184.5 44t-132 123t-79 189t-26.5 241q0 132 27 242t81 189t135 122.5t189 43.5q103 0 180 -43.5t129 -122.5
t78 -189t26 -242l-4 -14q-2 -6 -3 -11.5t-1 -8.5h-550zM632 702q0 57 -7.5 106t-23.5 84.5t-41.5 56t-62.5 20.5q-26 0 -51.5 -20.5t-45 -56t-31.5 -84.5t-12 -106h275zM318 1346l297 447l227 -202l-411 -346z" />
    <glyph glyph-name="ecircumflex" unicode="&#xea;" horiz-adv-x="965" 
d="M357 536q0 -54 7 -116t23.5 -114t43.5 -86.5t66 -34.5q34 0 62 27t49 61t33.5 64t15.5 36l218 -83q-20 -70 -53 -128t-80 -100t-109 -65.5t-141 -23.5q-105 0 -184.5 44t-132 123t-79 189t-26.5 241q0 132 27 242t81 189t135 122.5t189 43.5q103 0 180 -43.5t129 -122.5
t78 -189t26 -242l-4 -14q-2 -6 -3 -11.5t-1 -8.5h-550zM632 702q0 57 -7.5 106t-23.5 84.5t-41.5 56t-62.5 20.5q-26 0 -51.5 -20.5t-45 -56t-31.5 -84.5t-12 -106h275zM144 1248l240 480h202l230 -480h-250l-96 290l-116 -290h-210z" />
    <glyph glyph-name="edieresis" unicode="&#xeb;" horiz-adv-x="965" 
d="M357 536q0 -54 7 -116t23.5 -114t43.5 -86.5t66 -34.5q34 0 62 27t49 61t33.5 64t15.5 36l218 -83q-20 -70 -53 -128t-80 -100t-109 -65.5t-141 -23.5q-105 0 -184.5 44t-132 123t-79 189t-26.5 241q0 132 27 242t81 189t135 122.5t189 43.5q103 0 180 -43.5t129 -122.5
t78 -189t26 -242l-4 -14q-2 -6 -3 -11.5t-1 -8.5h-550zM632 702q0 57 -7.5 106t-23.5 84.5t-41.5 56t-62.5 20.5q-26 0 -51.5 -20.5t-45 -56t-31.5 -84.5t-12 -106h275zM387 1536v-288h-288v288h288zM867 1536v-288h-288v288h288z" />
    <glyph glyph-name="igrave" unicode="&#xec;" horiz-adv-x="536" 
d="M124 1128l288 24v-1140l-288 -24v1140zM355 1241l-410 346l227 202l297 -447z" />
    <glyph glyph-name="iacute" unicode="&#xed;" horiz-adv-x="536" 
d="M124 1128l288 24v-1140l-288 -24v1140zM106 1346l297 447l227 -202l-411 -346z" />
    <glyph glyph-name="icircumflex" unicode="&#xee;" horiz-adv-x="536" 
d="M124 1128l288 24v-1140l-288 -24v1140zM-68 1248l240 480h202l230 -480h-250l-96 290l-116 -290h-210z" />
    <glyph glyph-name="idieresis" unicode="&#xef;" horiz-adv-x="535" 
d="M124 1128l288 24v-1140l-288 -24v1140zM172 1536v-288h-288v288h288zM652 1536v-288h-288v288h288z" />
    <glyph glyph-name="eth" unicode="&#xf0;" horiz-adv-x="1006" 
d="M329 1202l212 65q-23 33 -55 54q-37 25 -89 25q-40 0 -83.5 -14.5t-84 -36t-74.5 -45.5t-55 -43l-108 186q66 55 120.5 89.5t106.5 53.5t106.5 25.5t122.5 6.5q84 0 152 -35.5t120 -96.5q36 -42 65 -94l158 49l64 -181l-148 -46q6 -18 11 -36q24 -88 35 -179.5t11 -174.5
q0 -94 -7 -190.5t-25 -186t-50 -168t-81 -136.5t-118.5 -91.5t-163.5 -33.5q-95 0 -174 41t-135.5 108.5t-87.5 155t-31 179.5q0 94 24 181t68.5 154.5t108 108t143.5 40.5q62 0 125.5 -22.5t110.5 -57.5q-1 42 -3 94.5t-10 106.5q-2 15 -5 29l-212 -65zM623 608
q0 5 -0.5 11.5t-0.5 13.5q-1 8 -1 16q-19 11 -40 21q-18 8 -42 15t-51 7q-44 0 -74 -21.5t-48 -56.5t-26 -79t-8 -88q0 -33 6.5 -71t23.5 -70.5t46.5 -54t75.5 -21.5q37 0 62 19.5t40.5 50.5t23 71.5t10.5 82.5t3 82v72z" />
    <glyph glyph-name="ntilde" unicode="&#xf1;" 
d="M700 769q0 85 -29 119t-76 34q-38 0 -85.5 -25t-97.5 -55v-830l-288 -24v1140l288 24v-147q86 75 171 118.5t159 43.5q54 0 99 -20.5t77.5 -58t51 -91.5t18.5 -121v-864l-288 -24v781zM228 1415q30 34 63 61q28 23 62 42t68 19q40 0 72 -12.5t61.5 -27.5t57.5 -27.5
t60 -12.5q38 0 66.5 12.5t46.5 27.5q21 18 36 40l44 -162q0 -1 -13 -24t-37.5 -50t-60 -49t-80.5 -22q-36 0 -65.5 16t-59.5 34.5t-63 34.5t-76 16q-31 0 -61 -15.5t-53 -34.5q-28 -22 -53 -50z" />
    <glyph glyph-name="ograve" unicode="&#xf2;" horiz-adv-x="1003" 
d="M502 -27q-108 0 -189 44.5t-135 124t-81 190.5t-27 245q0 129 27 237.5t81 187t135 122t189 43.5q105 0 186 -43.5t135.5 -122t82.5 -187t28 -237.5q0 -134 -28 -245t-82.5 -190.5t-135.5 -124t-186 -44.5zM500 187q35 0 60 19t41 50.5t25 72t13 84t5 86t1 78.5
q0 35 -1 77t-5 85t-13 83.5t-25 72t-40.5 50.5t-59.5 19q-36 0 -60.5 -19t-40.5 -50.5t-24.5 -72t-12.5 -83.5t-4.5 -85t-0.5 -77q0 -36 0.5 -78.5t4.5 -86t12.5 -84t24 -72t40 -50.5t60.5 -19zM589 1241l-410 346l227 202l297 -447z" />
    <glyph glyph-name="oacute" unicode="&#xf3;" horiz-adv-x="1003" 
d="M502 -27q-108 0 -189 44.5t-135 124t-81 190.5t-27 245q0 129 27 237.5t81 187t135 122t189 43.5q105 0 186 -43.5t135.5 -122t82.5 -187t28 -237.5q0 -134 -28 -245t-82.5 -190.5t-135.5 -124t-186 -44.5zM500 187q35 0 60 19t41 50.5t25 72t13 84t5 86t1 78.5
q0 35 -1 77t-5 85t-13 83.5t-25 72t-40.5 50.5t-59.5 19q-36 0 -60.5 -19t-40.5 -50.5t-24.5 -72t-12.5 -83.5t-4.5 -85t-0.5 -77q0 -36 0.5 -78.5t4.5 -86t12.5 -84t24 -72t40 -50.5t60.5 -19zM339 1346l297 447l227 -202l-411 -346z" />
    <glyph glyph-name="ocircumflex" unicode="&#xf4;" horiz-adv-x="1003" 
d="M502 -27q-108 0 -189 44.5t-135 124t-81 190.5t-27 245q0 129 27 237.5t81 187t135 122t189 43.5q105 0 186 -43.5t135.5 -122t82.5 -187t28 -237.5q0 -134 -28 -245t-82.5 -190.5t-135.5 -124t-186 -44.5zM500 187q35 0 60 19t41 50.5t25 72t13 84t5 86t1 78.5
q0 35 -1 77t-5 85t-13 83.5t-25 72t-40.5 50.5t-59.5 19q-36 0 -60.5 -19t-40.5 -50.5t-24.5 -72t-12.5 -83.5t-4.5 -85t-0.5 -77q0 -36 0.5 -78.5t4.5 -86t12.5 -84t24 -72t40 -50.5t60.5 -19zM165 1248l240 480h202l230 -480h-250l-96 290l-116 -290h-210z" />
    <glyph glyph-name="otilde" unicode="&#xf5;" horiz-adv-x="1003" 
d="M502 -27q-108 0 -189 44.5t-135 124t-81 190.5t-27 245q0 129 27 237.5t81 187t135 122t189 43.5q105 0 186 -43.5t135.5 -122t82.5 -187t28 -237.5q0 -134 -28 -245t-82.5 -190.5t-135.5 -124t-186 -44.5zM500 187q35 0 60 19t41 50.5t25 72t13 84t5 86t1 78.5
q0 35 -1 77t-5 85t-13 83.5t-25 72t-40.5 50.5t-59.5 19q-36 0 -60.5 -19t-40.5 -50.5t-24.5 -72t-12.5 -83.5t-4.5 -85t-0.5 -77q0 -36 0.5 -78.5t4.5 -86t12.5 -84t24 -72t40 -50.5t60.5 -19zM182 1415q30 34 63 61q28 23 62 42t68 19q40 0 72 -12.5t61.5 -27.5
t57.5 -27.5t60 -12.5q38 0 66.5 12.5t46.5 27.5q21 18 36 40l44 -162q0 -1 -13 -24t-37.5 -50t-60 -49t-80.5 -22q-36 0 -65.5 16t-59.5 34.5t-63 34.5t-76 16q-31 0 -61 -15.5t-53 -34.5q-28 -22 -53 -50z" />
    <glyph glyph-name="odieresis" unicode="&#xf6;" horiz-adv-x="1003" 
d="M502 -27q-108 0 -189 44.5t-135 124t-81 190.5t-27 245q0 129 27 237.5t81 187t135 122t189 43.5q105 0 186 -43.5t135.5 -122t82.5 -187t28 -237.5q0 -134 -28 -245t-82.5 -190.5t-135.5 -124t-186 -44.5zM500 187q35 0 60 19t41 50.5t25 72t13 84t5 86t1 78.5
q0 35 -1 77t-5 85t-13 83.5t-25 72t-40.5 50.5t-59.5 19q-36 0 -60.5 -19t-40.5 -50.5t-24.5 -72t-12.5 -83.5t-4.5 -85t-0.5 -77q0 -36 0.5 -78.5t4.5 -86t12.5 -84t24 -72t40 -50.5t60.5 -19zM408 1536v-288h-288v288h288zM888 1536v-288h-288v288h288z" />
    <glyph glyph-name="divide" unicode="&#xf7;" horiz-adv-x="797" 
d="M544 288v-288l-288 -12v300h288zM544 960v-288h-288v288h288zM64 576h670v-192h-670v192z" />
    <glyph glyph-name="oslash" unicode="&#xf8;" horiz-adv-x="1006" 
d="M502 -27q-88 0 -157 29t-122 83l-91 -116l-77 68l105 133q-45 78 -67.5 181t-22.5 226q0 129 27 237.5t81 187t135 122t189 43.5q104 0 183 -42t134 -118l87 110l77 -68l-110 -139q61 -140 61 -333q0 -134 -28 -245t-82.5 -190.5t-135.5 -124t-186 -44.5zM358 577
q0 -33 0.5 -72t3.5 -79l273 347q-5 38 -15 72.5t-25.5 61t-38.5 42t-55 15.5q-36 0 -60.5 -19t-40.5 -50.5t-24.5 -72t-12.5 -83.5t-4.5 -85t-0.5 -77zM500 187q35 0 60 19t41 50.5t25 72t13 84t5 86t1 78.5v43l-260 -330q15 -45 42.5 -74t72.5 -29z" />
    <glyph glyph-name="ugrave" unicode="&#xf9;" 
d="M404 381q0 -85 26 -119t69 -34q20 0 42.5 7.5t47.5 20.5t51 29t52 33v810l288 24v-1140l-288 -24v147q-84 -75 -166 -118.5t-154 -43.5q-56 0 -103 20.5t-81 58t-53 91.5t-19 121v864l288 24v-771zM639 1241l-410 346l227 202l297 -447z" />
    <glyph glyph-name="uacute" unicode="&#xfa;" 
d="M404 381q0 -85 26 -119t69 -34q20 0 42.5 7.5t47.5 20.5t51 29t52 33v810l288 24v-1140l-288 -24v147q-84 -75 -166 -118.5t-154 -43.5q-56 0 -103 20.5t-81 58t-53 91.5t-19 121v864l288 24v-771zM389 1346l297 447l227 -202l-411 -346z" />
    <glyph glyph-name="ucircumflex" unicode="&#xfb;" 
d="M404 381q0 -85 26 -119t69 -34q20 0 42.5 7.5t47.5 20.5t51 29t52 33v810l288 24v-1140l-288 -24v147q-84 -75 -166 -118.5t-154 -43.5q-56 0 -103 20.5t-81 58t-53 91.5t-19 121v864l288 24v-771zM215 1248l240 480h202l230 -480h-250l-96 290l-116 -290h-210z" />
    <glyph glyph-name="udieresis" unicode="&#xfc;" 
d="M404 381q0 -85 26 -119t69 -34q20 0 42.5 7.5t47.5 20.5t51 29t52 33v810l288 24v-1140l-288 -24v147q-84 -75 -166 -118.5t-154 -43.5q-56 0 -103 20.5t-81 58t-53 91.5t-19 121v864l288 24v-771zM455 1536v-288h-288v288h288zM935 1536v-288h-288v288h288z" />
    <glyph glyph-name="yacute" unicode="&#xfd;" horiz-adv-x="901" 
d="M30 -113q26 -1 50 -2q20 -1 40 -1.5t29 -0.5q50 0 84.5 12t56.5 34t31.5 53t9.5 70v56l-329 1030l312 14l162 -721l153 715l260 2l-295 -1127q-36 -126 -89 -202.5t-113 -117t-122.5 -53.5t-118.5 -13q-21 0 -43 2t-39 4q-20 3 -39 6v240zM226 1346l297 447l227 -202
l-411 -346z" />
    <glyph glyph-name="thorn" unicode="&#xfe;" horiz-adv-x="1067" 
d="M124 -358v1858l288 36v-531q33 36 70 66t75 51t77 33t76 12q57 0 108 -31t89 -100.5t60.5 -182.5t22.5 -277q0 -156 -22 -269.5t-64.5 -188t-104 -110t-140.5 -35.5q-40 0 -71.5 7t-56.5 19t-43.5 27.5t-31.5 31.5q-31 38 -44 86l1 -502h-289zM412 480q0 -90 12 -148.5
t32 -92t45 -47t51 -13.5q53 0 83 32t45 86.5t18.5 126.5t3.5 152q0 73 -2.5 136t-12 109.5t-29.5 73.5t-56 27q-26 0 -59 -12.5t-62 -27.5q-34 -18 -69 -39v-363z" />
    <glyph glyph-name="ydieresis" unicode="&#xff;" horiz-adv-x="901" 
d="M30 -113q26 -1 50 -2q20 -1 40 -1.5t29 -0.5q50 0 84.5 12t56.5 34t31.5 53t9.5 70v56l-329 1030l312 14l162 -721l153 715l260 2l-295 -1127q-36 -126 -89 -202.5t-113 -117t-122.5 -53.5t-118.5 -13q-21 0 -43 2t-39 4q-20 3 -39 6v240zM369 1536v-288h-288v288h288z
M849 1536v-288h-288v288h288z" />
    <glyph glyph-name="Amacron" unicode="&#x100;" horiz-adv-x="1131" 
d="M359 329l-67 -329h-267l324 1518l427 18l332 -1524l-327 -12l-57 329h-365zM670 575l-141 735l-116 -735h257zM279 1824h576v-192h-576v192z" />
    <glyph glyph-name="amacron" unicode="&#x101;" horiz-adv-x="968" 
d="M56 327q0 82 23.5 143.5t63 106t91.5 74.5t108.5 48.5t113.5 28t107 12.5q0 40 -1 78.5t-9 69t-25 49.5t-48 19q-26 0 -44.5 -11.5t-31 -30t-19 -42t-9.5 -46.5l-280 49q11 86 49 142.5t91.5 89.5t117 46.5t126.5 13.5q98 0 168 -27.5t115 -75.5t66.5 -112.5t21.5 -138.5
v-596q0 -34 4.5 -70t10.5 -66q7 -35 16 -69l-280 -24l-32 141q-17 -31 -44.5 -59t-61.5 -49.5t-72 -34.5t-75 -13q-59 0 -107 26.5t-82.5 74t-53 112t-18.5 141.5zM338 331q0 -68 27.5 -110t86.5 -42q20 0 39.5 10.5t35.5 23.5q18 15 36 34v321q-48 0 -89 -12t-71.5 -40
t-47.5 -73.5t-17 -111.5zM193 1440h576v-192h-576v192z" />
    <glyph glyph-name="Abreve" unicode="&#x102;" horiz-adv-x="1131" 
d="M359 329l-67 -329h-267l324 1518l427 18l332 -1524l-327 -12l-57 329h-365zM670 575l-141 735l-116 -735h257zM375 2112q0 -36 3 -78t21 -78t57 -60t111 -24t111 24t57 60t21 78t3 78h240q0 -46 -8.5 -99t-28.5 -106.5t-53 -103t-81 -87.5t-112.5 -61t-148.5 -23
t-148.5 23t-112.5 61t-81 87.5t-53 103t-28.5 106.5t-8.5 99h240z" />
    <glyph glyph-name="abreve" unicode="&#x103;" horiz-adv-x="968" 
d="M56 327q0 82 23.5 143.5t63 106t91.5 74.5t108.5 48.5t113.5 28t107 12.5q0 40 -1 78.5t-9 69t-25 49.5t-48 19q-26 0 -44.5 -11.5t-31 -30t-19 -42t-9.5 -46.5l-280 49q11 86 49 142.5t91.5 89.5t117 46.5t126.5 13.5q98 0 168 -27.5t115 -75.5t66.5 -112.5t21.5 -138.5
v-596q0 -34 4.5 -70t10.5 -66q7 -35 16 -69l-280 -24l-32 141q-17 -31 -44.5 -59t-61.5 -49.5t-72 -34.5t-75 -13q-59 0 -107 26.5t-82.5 74t-53 112t-18.5 141.5zM338 331q0 -68 27.5 -110t86.5 -42q20 0 39.5 10.5t35.5 23.5q18 15 36 34v321q-48 0 -89 -12t-71.5 -40
t-47.5 -73.5t-17 -111.5zM293 1728q0 -36 3 -78t21 -78t57 -60t111 -24t111 24t57 60t21 78t3 78h240q0 -46 -8.5 -99t-28.5 -106.5t-53 -103t-81 -87.5t-112.5 -61t-148.5 -23t-148.5 23t-112.5 61t-81 87.5t-53 103t-28.5 106.5t-8.5 99h240z" />
    <glyph glyph-name="Aogonek" unicode="&#x104;" horiz-adv-x="1128" 
d="M359 329l-67 -329h-267l324 1518l427 18l332 -1524l-327 -12l-57 329h-365zM670 575l-141 735l-116 -735h257zM985 -101q-5 -18 -5 -29q0 -35 23 -48t56 -13q20 0 42 3.5t42 9t37 11.5t28 11v-165q-29 -31 -83.5 -47.5t-114.5 -16.5q-44 0 -86.5 9.5t-75.5 30t-53.5 52
t-20.5 75.5q0 16 4.5 33t12.5 37l62 168h162z" />
    <glyph glyph-name="aogonek" unicode="&#x105;" horiz-adv-x="968" 
d="M56 327q0 82 23.5 143.5t63 106t91.5 74.5t108.5 48.5t113.5 28t107 12.5q0 40 -1 78.5t-9 69t-25 49.5t-48 19q-26 0 -44.5 -11.5t-31 -30t-19 -42t-9.5 -46.5l-280 49q11 86 49 142.5t91.5 89.5t117 46.5t126.5 13.5q98 0 168 -27.5t115 -75.5t66.5 -112.5t21.5 -138.5
v-596q0 -34 4.5 -70t10.5 -66q7 -35 16 -69l-280 -24l-32 141q-17 -31 -44.5 -59t-61.5 -49.5t-72 -34.5t-75 -13q-59 0 -107 26.5t-82.5 74t-53 112t-18.5 141.5zM338 331q0 -68 27.5 -110t86.5 -42q20 0 39.5 10.5t35.5 23.5q18 15 36 34v321q-48 0 -89 -12t-71.5 -40
t-47.5 -73.5t-17 -111.5zM744 -103q-5 -18 -5 -29q0 -35 23 -48t56 -13q20 0 42 3.5t42 9t37 11.5t28 11v-165q-29 -31 -83.5 -47.5t-114.5 -16.5q-44 0 -86.5 9.5t-75.5 30t-53.5 52t-20.5 75.5q0 16 4.5 33t12.5 37l62 168h162z" />
    <glyph glyph-name="Cacute" unicode="&#x106;" horiz-adv-x="1069" 
d="M997 523q0 -107 -26.5 -207.5t-80.5 -177.5t-136 -123.5t-193 -46.5q-96 0 -169.5 34.5t-126.5 95t-88.5 141t-56.5 173t-30 192t-9 196.5q0 86 11 176.5t35 176t62.5 161t92.5 132t125 89.5t161 33q101 0 180.5 -48.5t134 -127t83.5 -177.5t29 -201l-290 -15
q0 8 -1 35.5t-6 64t-14.5 77t-26.5 74.5t-43 56t-63 22q-36 0 -62.5 -23.5t-45.5 -63t-31 -92.5t-19 -111.5t-9.5 -119.5t-2.5 -118q0 -72 2.5 -143t10.5 -135t21.5 -118.5t36 -94t54 -62t74.5 -22.5q47 0 76.5 31.5t47.5 79.5t26 104.5t12 106.5zM456 1730l297 447
l227 -202l-411 -346z" />
    <glyph glyph-name="cacute" unicode="&#x107;" horiz-adv-x="913" 
d="M847 405q-12 -95 -34.5 -174.5t-64 -136.5t-106.5 -89t-162 -32q-69 0 -126 22.5t-103 63t-80 96.5t-57 122t-34.5 139.5t-11.5 149.5q0 111 24.5 218.5t75.5 192.5t130 137.5t188 52.5q79 0 145.5 -30t115 -85t76.5 -131t31 -167l-273 -12q-3 25 -7 58.5t-14 64.5
t-28.5 52.5t-48.5 21.5q-32 0 -53.5 -20t-35.5 -52.5t-21.5 -73t-11 -81t-4 -76.5t-0.5 -60t0.5 -60t4.5 -76t12 -80t23 -72t38 -52t57 -20q21 0 37 9.5t28 24.5t20.5 34.5t14.5 39.5q13 48 15 108zM293 1346l297 447l227 -202l-411 -346z" />
    <glyph glyph-name="Ccircumflex" unicode="&#x108;" horiz-adv-x="1069" 
d="M997 523q0 -107 -26.5 -207.5t-80.5 -177.5t-136 -123.5t-193 -46.5q-96 0 -169.5 34.5t-126.5 95t-88.5 141t-56.5 173t-30 192t-9 196.5q0 86 11 176.5t35 176t62.5 161t92.5 132t125 89.5t161 33q101 0 180.5 -48.5t134 -127t83.5 -177.5t29 -201l-290 -15
q0 8 -1 35.5t-6 64t-14.5 77t-26.5 74.5t-43 56t-63 22q-36 0 -62.5 -23.5t-45.5 -63t-31 -92.5t-19 -111.5t-9.5 -119.5t-2.5 -118q0 -72 2.5 -143t10.5 -135t21.5 -118.5t36 -94t54 -62t74.5 -22.5q47 0 76.5 31.5t47.5 79.5t26 104.5t12 106.5zM226 1632l240 480h202
l230 -480h-250l-96 290l-116 -290h-210z" />
    <glyph glyph-name="ccircumflex" unicode="&#x109;" horiz-adv-x="913" 
d="M847 405q-12 -95 -34.5 -174.5t-64 -136.5t-106.5 -89t-162 -32q-69 0 -126 22.5t-103 63t-80 96.5t-57 122t-34.5 139.5t-11.5 149.5q0 111 24.5 218.5t75.5 192.5t130 137.5t188 52.5q79 0 145.5 -30t115 -85t76.5 -131t31 -167l-273 -12q-3 25 -7 58.5t-14 64.5
t-28.5 52.5t-48.5 21.5q-32 0 -53.5 -20t-35.5 -52.5t-21.5 -73t-11 -81t-4 -76.5t-0.5 -60t0.5 -60t4.5 -76t12 -80t23 -72t38 -52t57 -20q21 0 37 9.5t28 24.5t20.5 34.5t14.5 39.5q13 48 15 108zM119 1248l240 480h202l230 -480h-250l-96 290l-116 -290h-210z" />
    <glyph glyph-name="Cdotaccent" unicode="&#x10a;" horiz-adv-x="1069" 
d="M997 523q0 -107 -26.5 -207.5t-80.5 -177.5t-136 -123.5t-193 -46.5q-96 0 -169.5 34.5t-126.5 95t-88.5 141t-56.5 173t-30 192t-9 196.5q0 86 11 176.5t35 176t62.5 161t92.5 132t125 89.5t161 33q101 0 180.5 -48.5t134 -127t83.5 -177.5t29 -201l-290 -15
q0 8 -1 35.5t-6 64t-14.5 77t-26.5 74.5t-43 56t-63 22q-36 0 -62.5 -23.5t-45.5 -63t-31 -92.5t-19 -111.5t-9.5 -119.5t-2.5 -118q0 -72 2.5 -143t10.5 -135t21.5 -118.5t36 -94t54 -62t74.5 -22.5q47 0 76.5 31.5t47.5 79.5t26 104.5t12 106.5zM674 1985v-288l-288 -1
v287z" />
    <glyph glyph-name="cdotaccent" unicode="&#x10b;" horiz-adv-x="913" 
d="M847 405q-12 -95 -34.5 -174.5t-64 -136.5t-106.5 -89t-162 -32q-69 0 -126 22.5t-103 63t-80 96.5t-57 122t-34.5 139.5t-11.5 149.5q0 111 24.5 218.5t75.5 192.5t130 137.5t188 52.5q79 0 145.5 -30t115 -85t76.5 -131t31 -167l-273 -12q-3 25 -7 58.5t-14 64.5
t-28.5 52.5t-48.5 21.5q-32 0 -53.5 -20t-35.5 -52.5t-21.5 -73t-11 -81t-4 -76.5t-0.5 -60t0.5 -60t4.5 -76t12 -80t23 -72t38 -52t57 -20q21 0 37 9.5t28 24.5t20.5 34.5t14.5 39.5q13 48 15 108zM599 1538v-288l-288 -1v287z" />
    <glyph glyph-name="Ccaron" unicode="&#x10c;" horiz-adv-x="1069" 
d="M997 523q0 -107 -26.5 -207.5t-80.5 -177.5t-136 -123.5t-193 -46.5q-96 0 -169.5 34.5t-126.5 95t-88.5 141t-56.5 173t-30 192t-9 196.5q0 86 11 176.5t35 176t62.5 161t92.5 132t125 89.5t161 33q101 0 180.5 -48.5t134 -127t83.5 -177.5t29 -201l-290 -15
q0 8 -1 35.5t-6 64t-14.5 77t-26.5 74.5t-43 56t-63 22q-36 0 -62.5 -23.5t-45.5 -63t-31 -92.5t-19 -111.5t-9.5 -119.5t-2.5 -118q0 -72 2.5 -143t10.5 -135t21.5 -118.5t36 -94t54 -62t74.5 -22.5q47 0 76.5 31.5t47.5 79.5t26 104.5t12 106.5zM221 2112.08l240 -479.971
h202l230 479.971h-250l-96 -289.982l-116 289.982h-210z" />
    <glyph glyph-name="ccaron" unicode="&#x10d;" horiz-adv-x="913" 
d="M847 405q-12 -95 -34.5 -174.5t-64 -136.5t-106.5 -89t-162 -32q-69 0 -126 22.5t-103 63t-80 96.5t-57 122t-34.5 139.5t-11.5 149.5q0 111 24.5 218.5t75.5 192.5t130 137.5t188 52.5q79 0 145.5 -30t115 -85t76.5 -131t31 -167l-273 -12q-3 25 -7 58.5t-14 64.5
t-28.5 52.5t-48.5 21.5q-32 0 -53.5 -20t-35.5 -52.5t-21.5 -73t-11 -81t-4 -76.5t-0.5 -60t0.5 -60t4.5 -76t12 -80t23 -72t38 -52t57 -20q21 0 37 9.5t28 24.5t20.5 34.5t14.5 39.5q13 48 15 108zM329 1728l116 -290l96 290h250l-230 -480h-202l-240 480h210z" />
    <glyph glyph-name="Dcaron" unicode="&#x10e;" horiz-adv-x="1132" 
d="M142 1536h314q303 0 453 -191.5t150 -582.5q0 -97 -13 -191.5t-40.5 -179t-70.5 -156.5t-104 -124t-141 -81.5t-181 -29.5h-367v1536zM441 1296v-1056h43q57 0 100 19.5t73.5 53.5t50 79.5t31 97t16 106.5t4.5 109v112q0 63 -6 128.5t-22 128.5t-47 112.5t-81.5 79.5
t-126.5 30h-35zM148 1630l240 480h202l230 -480h-250l-96 290l-116 -290h-210z" />
    <glyph glyph-name="dcaron" unicode="&#x10f;" horiz-adv-x="1315" 
d="M726 -12l-70 156q-13 -48 -44 -86q-13 -16 -31.5 -31.5t-43.5 -27.5t-56.5 -19t-71.5 -7q-79 0 -140.5 35.5t-104 110t-64.5 188t-22 269.5q0 159 17.5 271.5t56 183.5t98.5 103.5t145 32.5q24 0 48.5 -7t47.5 -19t44.5 -27t39.5 -31q43 -37 81 -83v500l288 36v-1524z
M656 864q-21 26 -44 46q-20 17 -45 31.5t-51 14.5q-53 0 -83 -29.5t-45 -81t-18.5 -121t-3.5 -148.5q0 -80 3.5 -152t18.5 -126.5t45 -86.5t83 -32q26 0 51 13.5t45 47t32 92t12 148.5v384zM1372 1536v-288q0 -54 -10.5 -95t-27 -71.5t-38.5 -51.5t-44 -34q-53 -32 -120 -36
v192q36 0 55.5 15t28.5 33q11 21 12 48l-144 -12v300h288z" />
    <glyph glyph-name="Dcroat" unicode="&#x110;" horiz-adv-x="1138" 
d="M5 864h143v672h314q303 0 453 -191.5t150 -582.5q0 -97 -13 -191.5t-40.5 -179t-70.5 -156.5t-104 -124t-141 -81.5t-181 -29.5h-367v672h-143v192zM447 1296v-432h134v-192h-134v-432h43q57 0 100 19.5t73.5 53.5t50 79.5t31 97t16 106.5t4.5 109v112q0 63 -6 128.5
t-22 128.5t-47 112.5t-81.5 79.5t-126.5 30h-35z" />
    <glyph glyph-name="dcroat" unicode="&#x111;" horiz-adv-x="1067" 
d="M726 -12l-70 156q-13 -48 -44 -86q-13 -16 -31.5 -31.5t-43.5 -27.5t-56.5 -19t-71.5 -7q-79 0 -140.5 35.5t-104 110t-64.5 188t-22 269.5q0 159 17.5 271.5t56 183.5t98.5 103.5t145 32.5q24 0 48.5 -7t47.5 -19t44.5 -27t39.5 -31q43 -37 81 -83v500l288 36v-1524z
M656 864q-21 26 -44 46q-20 17 -45 31.5t-51 14.5q-53 0 -83 -29.5t-45 -81t-18.5 -121t-3.5 -148.5q0 -80 3.5 -152t18.5 -126.5t45 -86.5t83 -32q26 0 51 13.5t45 47t32 92t12 148.5v384zM505 1390.21h576v-191.995h-576v191.995z" />
    <glyph glyph-name="Emacron" unicode="&#x112;" horiz-adv-x="988" 
d="M142 1536h780l-24 -240h-456v-366h323l-1 -258h-322v-432h496l-24 -240h-772v1536zM213 1824h576v-192h-576v192z" />
    <glyph glyph-name="emacron" unicode="&#x113;" horiz-adv-x="965" 
d="M357 536q0 -54 7 -116t23.5 -114t43.5 -86.5t66 -34.5q34 0 62 27t49 61t33.5 64t15.5 36l218 -83q-20 -70 -53 -128t-80 -100t-109 -65.5t-141 -23.5q-105 0 -184.5 44t-132 123t-79 189t-26.5 241q0 132 27 242t81 189t135 122.5t189 43.5q103 0 180 -43.5t129 -122.5
t78 -189t26 -242l-4 -14q-2 -6 -3 -11.5t-1 -8.5h-550zM632 702q0 57 -7.5 106t-23.5 84.5t-41.5 56t-62.5 20.5q-26 0 -51.5 -20.5t-45 -56t-31.5 -84.5t-12 -106h275zM192 1440h576v-192h-576v192z" />
    <glyph glyph-name="Ebreve" unicode="&#x114;" horiz-adv-x="988" 
d="M142 1536h780l-24 -240h-456v-366h323l-1 -258h-322v-432h496l-24 -240h-772v1536zM320 2112q0 -36 3 -78t21 -78t57 -60t111 -24t111 24t57 60t21 78t3 78h240q0 -46 -8.5 -99t-28.5 -106.5t-53 -103t-81 -87.5t-112.5 -61t-148.5 -23t-148.5 23t-112.5 61t-81 87.5
t-53 103t-28.5 106.5t-8.5 99h240z" />
    <glyph glyph-name="ebreve" unicode="&#x115;" horiz-adv-x="965" 
d="M357 536q0 -54 7 -116t23.5 -114t43.5 -86.5t66 -34.5q34 0 62 27t49 61t33.5 64t15.5 36l218 -83q-20 -70 -53 -128t-80 -100t-109 -65.5t-141 -23.5q-105 0 -184.5 44t-132 123t-79 189t-26.5 241q0 132 27 242t81 189t135 122.5t189 43.5q103 0 180 -43.5t129 -122.5
t78 -189t26 -242l-4 -14q-2 -6 -3 -11.5t-1 -8.5h-550zM632 702q0 57 -7.5 106t-23.5 84.5t-41.5 56t-62.5 20.5q-26 0 -51.5 -20.5t-45 -56t-31.5 -84.5t-12 -106h275zM291 1728q0 -36 3 -78t21 -78t57 -60t111 -24t111 24t57 60t21 78t3 78h240q0 -46 -8.5 -99
t-28.5 -106.5t-53 -103t-81 -87.5t-112.5 -61t-148.5 -23t-148.5 23t-112.5 61t-81 87.5t-53 103t-28.5 106.5t-8.5 99h240z" />
    <glyph glyph-name="Edotaccent" unicode="&#x116;" horiz-adv-x="988" 
d="M142 1536h780l-24 -240h-456v-366h323l-1 -258h-322v-432h496l-24 -240h-772v1536zM653 1922v-288l-288 -1v287z" />
    <glyph glyph-name="edotaccent" unicode="&#x117;" horiz-adv-x="965" 
d="M357 536q0 -54 7 -116t23.5 -114t43.5 -86.5t66 -34.5q34 0 62 27t49 61t33.5 64t15.5 36l218 -83q-20 -70 -53 -128t-80 -100t-109 -65.5t-141 -23.5q-105 0 -184.5 44t-132 123t-79 189t-26.5 241q0 132 27 242t81 189t135 122.5t189 43.5q103 0 180 -43.5t129 -122.5
t78 -189t26 -242l-4 -14q-2 -6 -3 -11.5t-1 -8.5h-550zM632 702q0 57 -7.5 106t-23.5 84.5t-41.5 56t-62.5 20.5q-26 0 -51.5 -20.5t-45 -56t-31.5 -84.5t-12 -106h275zM624 1538v-288l-288 -1v287z" />
    <glyph glyph-name="Eogonek" unicode="&#x118;" horiz-adv-x="986" 
d="M142 1536h780l-24 -240h-456v-366h323l-1 -258h-322v-432h496l-24 -240h-772v1536zM874 -103q-5 -18 -5 -29q0 -35 23 -48t56 -13q20 0 42 3.5t42 9t37 11.5t28 11v-165q-29 -31 -83.5 -47.5t-114.5 -16.5q-44 0 -86.5 9.5t-75.5 30t-53.5 52t-20.5 75.5q0 16 4.5 33
t12.5 37l62 168h162z" />
    <glyph glyph-name="eogonek" unicode="&#x119;" horiz-adv-x="966" 
d="M358 536q0 -54 7 -116t23.5 -114t43.5 -86.5t66 -34.5q34 0 62 27t49 61t33.5 64t15.5 36l218 -83q-20 -70 -53 -128t-80 -100t-109 -65.5t-141 -23.5q-105 0 -184.5 44t-132 123t-79 189t-26.5 241q0 132 27 242t81 189t135 122.5t189 43.5q103 0 180 -43.5t129 -122.5
t78 -189t26 -242l-4 -14q-2 -6 -3 -11.5t-1 -8.5h-550zM633 702q0 57 -7.5 106t-23.5 84.5t-41.5 56t-62.5 20.5q-26 0 -51.5 -20.5t-45 -56t-31.5 -84.5t-12 -106h275zM574 -101q-5 -18 -5 -29q0 -35 23 -48t56 -13q20 0 42 3.5t42 9t37 11.5t28 11v-165
q-29 -31 -83.5 -47.5t-114.5 -16.5q-44 0 -86.5 9.5t-75.5 30t-53.5 52t-20.5 75.5q0 16 4.5 33t12.5 37l62 168h162z" />
    <glyph glyph-name="Ecaron" unicode="&#x11a;" horiz-adv-x="988" 
d="M142 1536h780l-24 -240h-456v-366h323l-1 -258h-322v-432h496l-24 -240h-772v1536zM156 1623l240 480h202l230 -480h-250l-96 290l-116 -290h-210z" />
    <glyph glyph-name="ecaron" unicode="&#x11b;" horiz-adv-x="965" 
d="M357 536q0 -54 7 -116t23.5 -114t43.5 -86.5t66 -34.5q34 0 62 27t49 61t33.5 64t15.5 36l218 -83q-20 -70 -53 -128t-80 -100t-109 -65.5t-141 -23.5q-105 0 -184.5 44t-132 123t-79 189t-26.5 241q0 132 27 242t81 189t135 122.5t189 43.5q103 0 180 -43.5t129 -122.5
t78 -189t26 -242l-4 -14q-2 -6 -3 -11.5t-1 -8.5h-550zM632 702q0 57 -7.5 106t-23.5 84.5t-41.5 56t-62.5 20.5q-26 0 -51.5 -20.5t-45 -56t-31.5 -84.5t-12 -106h275zM354 1728l116 -290l96 290h250l-230 -480h-202l-240 480h210z" />
    <glyph glyph-name="Gcircumflex" unicode="&#x11c;" horiz-adv-x="1132" 
d="M739 1015q-4 29 -7.5 63.5t-10 70t-16.5 68.5t-27 58.5t-42 41t-60 15.5q-40 0 -70 -26.5t-52 -70.5t-36 -102.5t-22 -122t-11.5 -129t-3.5 -123.5q0 -55 1 -117t6.5 -123t17 -117t33.5 -98.5t56 -68t83 -25.5q40 0 70.5 22.5t51.5 62.5t31.5 95t10.5 119h-152l24 260
h417v-756l-115 -12q-1 4 -4.5 19t-8.5 35.5t-11.5 45.5t-12.5 51q-15 60 -33 134q-7 -89 -43 -159q-15 -30 -38.5 -58t-57.5 -50.5t-80 -36t-106 -13.5q-81 0 -145.5 30.5t-113 85t-83 130t-56.5 165t-32 190t-10 205.5q0 89 11.5 182t36 181.5t63.5 166.5t94.5 137
t128.5 93t165 34q117 0 201 -44.5t138 -118.5t80 -170.5t26 -200.5zM263 1632l240 480h202l230 -480h-250l-96 290l-116 -290h-210z" />
    <glyph glyph-name="gcircumflex" unicode="&#x11d;" horiz-adv-x="1109" 
d="M44 -123q0 29 8.5 54t23 46.5t32.5 39t37 31.5q44 33 101 55q-48 13 -86 34q-16 9 -31.5 21t-27.5 26.5t-19.5 32.5t-7.5 39q0 28 9.5 54.5t24.5 49.5t34.5 43.5t39.5 37.5q48 40 109 70q-52 31 -92 75q-17 19 -33.5 42.5t-29.5 52t-21 62t-8 72.5q0 86 37.5 152
t97.5 110.5t135.5 67t152.5 22.5q55 0 100 -8t80.5 -21t63 -28t48.5 -29q15 14 40.5 36.5t58.5 44.5t71.5 37.5t77.5 15.5q5 0 10 -0.5t10 -1.5t11 -2v-242q-27 10 -51 19q-20 8 -41.5 14t-33.5 6q-11 0 -20.5 -3t-17.5 -6q-10 -4 -18 -8q12 -30 22 -60q8 -26 15 -55.5
t7 -55.5q0 -63 -25.5 -128t-75.5 -118.5t-124.5 -87t-172.5 -21.5q-39 0 -69 2t-51 2q-42 -12 -58.5 -26.5t-16.5 -68.5q0 -29 21 -48.5t51 -23.5l272 -21q78 -6 140.5 -24.5t107 -58.5t68 -94.5t23.5 -123.5q0 -65 -24 -116t-64.5 -88.5t-94 -63t-112 -41t-118.5 -22.5
t-114 -7q-117 0 -207 17.5t-151 48.5t-92.5 74t-31.5 95zM306 -36q0 -25 13.5 -45t44 -34.5t79 -22t118.5 -7.5q103 0 157.5 34t54.5 94q0 33 -24 52.5t-57.5 29t-69 12.5t-57.5 3h-168q-16 -5 -32.5 -14t-29.5 -23.5t-21 -34t-8 -44.5zM395 826q0 -33 5 -68t19.5 -64
t41 -47.5t69.5 -18.5q59 0 93.5 49.5t34.5 142.5q0 45 -10.5 77.5t-28.5 53.5t-41.5 31.5t-49.5 10.5q-35 0 -60 -15.5t-41 -39.5t-24 -54t-8 -58zM247 1248l240 480h202l230 -480h-250l-96 290l-116 -290h-210z" />
    <glyph glyph-name="Gbreve" unicode="&#x11e;" horiz-adv-x="1132" 
d="M739 1015q-4 29 -7.5 63.5t-10 70t-16.5 68.5t-27 58.5t-42 41t-60 15.5q-40 0 -70 -26.5t-52 -70.5t-36 -102.5t-22 -122t-11.5 -129t-3.5 -123.5q0 -55 1 -117t6.5 -123t17 -117t33.5 -98.5t56 -68t83 -25.5q40 0 70.5 22.5t51.5 62.5t31.5 95t10.5 119h-152l24 260
h417v-756l-115 -12q-1 4 -4.5 19t-8.5 35.5t-11.5 45.5t-12.5 51q-15 60 -33 134q-7 -89 -43 -159q-15 -30 -38.5 -58t-57.5 -50.5t-80 -36t-106 -13.5q-81 0 -145.5 30.5t-113 85t-83 130t-56.5 165t-32 190t-10 205.5q0 89 11.5 182t36 181.5t63.5 166.5t94.5 137
t128.5 93t165 34q117 0 201 -44.5t138 -118.5t80 -170.5t26 -200.5zM372 2112q0 -36 3 -78t21 -78t57 -60t111 -24t111 24t57 60t21 78t3 78h240q0 -46 -8.5 -99t-28.5 -106.5t-53 -103t-81 -87.5t-112.5 -61t-148.5 -23t-148.5 23t-112.5 61t-81 87.5t-53 103t-28.5 106.5
t-8.5 99h240z" />
    <glyph glyph-name="gbreve" unicode="&#x11f;" horiz-adv-x="1109" 
d="M44 -123q0 29 8.5 54t23 46.5t32.5 39t37 31.5q44 33 101 55q-48 13 -86 34q-16 9 -31.5 21t-27.5 26.5t-19.5 32.5t-7.5 39q0 28 9.5 54.5t24.5 49.5t34.5 43.5t39.5 37.5q48 40 109 70q-52 31 -92 75q-17 19 -33.5 42.5t-29.5 52t-21 62t-8 72.5q0 86 37.5 152
t97.5 110.5t135.5 67t152.5 22.5q55 0 100 -8t80.5 -21t63 -28t48.5 -29q15 14 40.5 36.5t58.5 44.5t71.5 37.5t77.5 15.5q5 0 10 -0.5t10 -1.5t11 -2v-242q-27 10 -51 19q-20 8 -41.5 14t-33.5 6q-11 0 -20.5 -3t-17.5 -6q-10 -4 -18 -8q12 -30 22 -60q8 -26 15 -55.5
t7 -55.5q0 -63 -25.5 -128t-75.5 -118.5t-124.5 -87t-172.5 -21.5q-39 0 -69 2t-51 2q-42 -12 -58.5 -26.5t-16.5 -68.5q0 -29 21 -48.5t51 -23.5l272 -21q78 -6 140.5 -24.5t107 -58.5t68 -94.5t23.5 -123.5q0 -65 -24 -116t-64.5 -88.5t-94 -63t-112 -41t-118.5 -22.5
t-114 -7q-117 0 -207 17.5t-151 48.5t-92.5 74t-31.5 95zM306 -36q0 -25 13.5 -45t44 -34.5t79 -22t118.5 -7.5q103 0 157.5 34t54.5 94q0 33 -24 52.5t-57.5 29t-69 12.5t-57.5 3h-168q-16 -5 -32.5 -14t-29.5 -23.5t-21 -34t-8 -44.5zM395 826q0 -33 5 -68t19.5 -64
t41 -47.5t69.5 -18.5q59 0 93.5 49.5t34.5 142.5q0 45 -10.5 77.5t-28.5 53.5t-41.5 31.5t-49.5 10.5q-35 0 -60 -15.5t-41 -39.5t-24 -54t-8 -58zM391 1728q0 -36 3 -78t21 -78t57 -60t111 -24t111 24t57 60t21 78t3 78h240q0 -46 -8.5 -99t-28.5 -106.5t-53 -103
t-81 -87.5t-112.5 -61t-148.5 -23t-148.5 23t-112.5 61t-81 87.5t-53 103t-28.5 106.5t-8.5 99h240z" />
    <glyph glyph-name="Gdotaccent" unicode="&#x120;" horiz-adv-x="1132" 
d="M739 1015q-4 29 -7.5 63.5t-10 70t-16.5 68.5t-27 58.5t-42 41t-60 15.5q-40 0 -70 -26.5t-52 -70.5t-36 -102.5t-22 -122t-11.5 -129t-3.5 -123.5q0 -55 1 -117t6.5 -123t17 -117t33.5 -98.5t56 -68t83 -25.5q40 0 70.5 22.5t51.5 62.5t31.5 95t10.5 119h-152l24 260
h417v-756l-115 -12q-1 4 -4.5 19t-8.5 35.5t-11.5 45.5t-12.5 51q-15 60 -33 134q-7 -89 -43 -159q-15 -30 -38.5 -58t-57.5 -50.5t-80 -36t-106 -13.5q-81 0 -145.5 30.5t-113 85t-83 130t-56.5 165t-32 190t-10 205.5q0 89 11.5 182t36 181.5t63.5 166.5t94.5 137
t128.5 93t165 34q117 0 201 -44.5t138 -118.5t80 -170.5t26 -200.5zM733 1922v-288l-288 -1v287z" />
    <glyph glyph-name="gdotaccent" unicode="&#x121;" horiz-adv-x="1109" 
d="M44 -123q0 29 8.5 54t23 46.5t32.5 39t37 31.5q44 33 101 55q-48 13 -86 34q-16 9 -31.5 21t-27.5 26.5t-19.5 32.5t-7.5 39q0 28 9.5 54.5t24.5 49.5t34.5 43.5t39.5 37.5q48 40 109 70q-52 31 -92 75q-17 19 -33.5 42.5t-29.5 52t-21 62t-8 72.5q0 86 37.5 152
t97.5 110.5t135.5 67t152.5 22.5q55 0 100 -8t80.5 -21t63 -28t48.5 -29q15 14 40.5 36.5t58.5 44.5t71.5 37.5t77.5 15.5q5 0 10 -0.5t10 -1.5t11 -2v-242q-27 10 -51 19q-20 8 -41.5 14t-33.5 6q-11 0 -20.5 -3t-17.5 -6q-10 -4 -18 -8q12 -30 22 -60q8 -26 15 -55.5
t7 -55.5q0 -63 -25.5 -128t-75.5 -118.5t-124.5 -87t-172.5 -21.5q-39 0 -69 2t-51 2q-42 -12 -58.5 -26.5t-16.5 -68.5q0 -29 21 -48.5t51 -23.5l272 -21q78 -6 140.5 -24.5t107 -58.5t68 -94.5t23.5 -123.5q0 -65 -24 -116t-64.5 -88.5t-94 -63t-112 -41t-118.5 -22.5
t-114 -7q-117 0 -207 17.5t-151 48.5t-92.5 74t-31.5 95zM306 -36q0 -25 13.5 -45t44 -34.5t79 -22t118.5 -7.5q103 0 157.5 34t54.5 94q0 33 -24 52.5t-57.5 29t-69 12.5t-57.5 3h-168q-16 -5 -32.5 -14t-29.5 -23.5t-21 -34t-8 -44.5zM395 826q0 -33 5 -68t19.5 -64
t41 -47.5t69.5 -18.5q59 0 93.5 49.5t34.5 142.5q0 45 -10.5 77.5t-28.5 53.5t-41.5 31.5t-49.5 10.5q-35 0 -60 -15.5t-41 -39.5t-24 -54t-8 -58zM727 1538v-288l-288 -1v287z" />
    <glyph glyph-name="Gcommaaccent" unicode="&#x122;" horiz-adv-x="1132" 
d="M739 1015q-4 29 -7.5 63.5t-10 70t-16.5 68.5t-27 58.5t-42 41t-60 15.5q-40 0 -70 -26.5t-52 -70.5t-36 -102.5t-22 -122t-11.5 -129t-3.5 -123.5q0 -55 1 -117t6.5 -123t17 -117t33.5 -98.5t56 -68t83 -25.5q40 0 70.5 22.5t51.5 62.5t31.5 95t10.5 119h-152l24 260
h417v-756l-115 -12q-1 4 -4.5 19t-8.5 35.5t-11.5 45.5t-12.5 51q-15 60 -33 134q-7 -89 -43 -159q-15 -30 -38.5 -58t-57.5 -50.5t-80 -36t-106 -13.5q-81 0 -145.5 30.5t-113 85t-83 130t-56.5 165t-32 190t-10 205.5q0 89 11.5 182t36 181.5t63.5 166.5t94.5 137
t128.5 93t165 34q117 0 201 -44.5t138 -118.5t80 -170.5t26 -200.5zM710 -89v-288q0 -54 -10.5 -95t-27 -71.5t-38.5 -51.5t-44 -34q-53 -32 -120 -36v192q36 0 55.5 15t28.5 33q11 21 12 48h-144v288h288z" />
    <glyph glyph-name="gcommaaccent" unicode="&#x123;" horiz-adv-x="1109" 
d="M44 -123q0 29 8.5 54t23 46.5t32.5 39t37 31.5q44 33 101 55q-48 13 -86 34q-16 9 -31.5 21t-27.5 26.5t-19.5 32.5t-7.5 39q0 28 9.5 54.5t24.5 49.5t34.5 43.5t39.5 37.5q48 40 109 70q-52 31 -92 75q-17 19 -33.5 42.5t-29.5 52t-21 62t-8 72.5q0 86 37.5 152
t97.5 110.5t135.5 67t152.5 22.5q55 0 100 -8t80.5 -21t63 -28t48.5 -29q15 14 40.5 36.5t58.5 44.5t71.5 37.5t77.5 15.5q5 0 10 -0.5t10 -1.5t11 -2v-242q-27 10 -51 19q-20 8 -41.5 14t-33.5 6q-11 0 -20.5 -3t-17.5 -6q-10 -4 -18 -8q12 -30 22 -60q8 -26 15 -55.5
t7 -55.5q0 -63 -25.5 -128t-75.5 -118.5t-124.5 -87t-172.5 -21.5q-39 0 -69 2t-51 2q-42 -12 -58.5 -26.5t-16.5 -68.5q0 -29 21 -48.5t51 -23.5l272 -21q78 -6 140.5 -24.5t107 -58.5t68 -94.5t23.5 -123.5q0 -65 -24 -116t-64.5 -88.5t-94 -63t-112 -41t-118.5 -22.5
t-114 -7q-117 0 -207 17.5t-151 48.5t-92.5 74t-31.5 95zM306 -36q0 -25 13.5 -45t44 -34.5t79 -22t118.5 -7.5q103 0 157.5 34t54.5 94q0 33 -24 52.5t-57.5 29t-69 12.5t-57.5 3h-168q-16 -5 -32.5 -14t-29.5 -23.5t-21 -34t-8 -44.5zM395 826q0 -33 5 -68t19.5 -64
t41 -47.5t69.5 -18.5q59 0 93.5 49.5t34.5 142.5q0 45 -10.5 77.5t-28.5 53.5t-41.5 31.5t-49.5 10.5q-35 0 -60 -15.5t-41 -39.5t-24 -54t-8 -58zM414 1302v330q0 54 12.5 95t32.5 71.5t46 51t53 34.5q63 32 145 36v-192q-55 0 -84 -15t-43 -33q-16 -21 -18 -48h193v-318z
" />
    <glyph glyph-name="Hcircumflex" unicode="&#x124;" horiz-adv-x="1171" 
d="M730 639h-288v-627l-300 -24v1524l300 24v-623h288v599l300 24v-1524l-300 -24v651zM249 1632l240 480h202l230 -480h-250l-96 290l-116 -290h-210z" />
    <glyph glyph-name="hcircumflex" unicode="&#x125;" 
d="M700 773q0 79 -28.5 114t-71.5 35q-40 0 -84 -21.5t-104 -57.5v-831l-288 -24v1512l288 36v-531q90 84 173 123t157 39q54 0 99 -20.5t77.5 -58t51 -91.5t18.5 -121v-864l-288 -24v785zM-63 1632l240 480h202l230 -480h-250l-96 290l-116 -290h-210z" />
    <glyph glyph-name="Hbar" unicode="&#x126;" horiz-adv-x="1179" 
d="M26 1344h119v168l300 24v-192h288v168l300 24v-192h106v-182h-106v-1150l-300 -24v651h-288v-627l-300 -24v1174h-119v182zM733 913v249h-288v-249h288z" />
    <glyph glyph-name="hbar" unicode="&#x127;" 
d="M700 773q0 79 -28.5 114t-71.5 35q-40 0 -84 -21.5t-104 -57.5v-831l-288 -24v1512l288 36v-531q90 84 173 123t157 39q54 0 99 -20.5t77.5 -58t51 -91.5t18.5 -121v-864l-288 -24v785zM-66.2832 1440h670.992v-192h-670.992v192z" />
    <glyph glyph-name="Itilde" unicode="&#x128;" horiz-adv-x="582" 
d="M142 1512l300 24v-1524l-300 -24v1524zM-24 1799q30 34 63 61q28 23 62 42t68 19q40 0 72 -12.5t61.5 -27.5t57.5 -27.5t60 -12.5q38 0 66.5 12.5t46.5 27.5q21 18 36 40l44 -162q0 -1 -13 -24t-37.5 -50t-60 -49t-80.5 -22q-36 0 -65.5 16t-59.5 34.5t-63 34.5t-76 16
q-31 0 -61 -15.5t-53 -34.5q-28 -22 -53 -50z" />
    <glyph glyph-name="itilde" unicode="&#x129;" horiz-adv-x="536" 
d="M124 1128l288 24v-1140l-288 -24v1140zM-51 1415q30 34 63 61q28 23 62 42t68 19q40 0 72 -12.5t61.5 -27.5t57.5 -27.5t60 -12.5q38 0 66.5 12.5t46.5 27.5q21 18 36 40l44 -162q0 -1 -13 -24t-37.5 -50t-60 -49t-80.5 -22q-36 0 -65.5 16t-59.5 34.5t-63 34.5t-76 16
q-31 0 -61 -15.5t-53 -34.5q-28 -22 -53 -50z" />
    <glyph glyph-name="Imacron" unicode="&#x12a;" horiz-adv-x="583" 
d="M142 1512l300 24v-1524l-300 -24v1524zM4 1824h576v-192h-576v192z" />
    <glyph glyph-name="imacron" unicode="&#x12b;" horiz-adv-x="536" 
d="M124 1128l288 24v-1140l-288 -24v1140zM-20 1440h576v-192h-576v192z" />
    <glyph glyph-name="Ibreve" unicode="&#x12c;" horiz-adv-x="582" 
d="M142 1512l300 24v-1524l-300 -24v1524zM99 2112q0 -36 3 -78t21 -78t57 -60t111 -24t111 24t57 60t21 78t3 78h240q0 -46 -8.5 -99t-28.5 -106.5t-53 -103t-81 -87.5t-112.5 -61t-148.5 -23t-148.5 23t-112.5 61t-81 87.5t-53 103t-28.5 106.5t-8.5 99h240z" />
    <glyph glyph-name="ibreve" unicode="&#x12d;" horiz-adv-x="535" 
d="M124 1128l288 24v-1140l-288 -24v1140zM76 1728q0 -36 3 -78t21 -78t57 -60t111 -24t111 24t57 60t21 78t3 78h240q0 -46 -8.5 -99t-28.5 -106.5t-53 -103t-81 -87.5t-112.5 -61t-148.5 -23t-148.5 23t-112.5 61t-81 87.5t-53 103t-28.5 106.5t-8.5 99h240z" />
    <glyph glyph-name="Iogonek" unicode="&#x12e;" horiz-adv-x="583" 
d="M142 1512l300 24v-1524l-300 -24v1524zM382 -101q-5 -18 -5 -29q0 -35 23 -48t56 -13q20 0 42 3.5t42 9t37 11.5t28 11v-165q-29 -31 -83.5 -47.5t-114.5 -16.5q-44 0 -86.5 9.5t-75.5 30t-53.5 52t-20.5 75.5q0 16 4.5 33t12.5 37l62 168h162z" />
    <glyph glyph-name="iogonek" unicode="&#x12f;" horiz-adv-x="535" 
d="M305 -101q-5 -18 -5 -29q0 -35 23 -48t56 -13q20 0 42 3.5t42 9t37 11.5t28 11v-165q-29 -31 -83.5 -47.5t-114.5 -16.5q-44 0 -86.5 9.5t-75.5 30t-53.5 52t-20.5 75.5q0 16 4.5 33t12.5 37l62 168h162zM124 1128l288 24v-1140l-288 -24v1140zM413 1600v-288l-288 -1
v287z" />
    <glyph glyph-name="Idotaccent" unicode="&#x130;" horiz-adv-x="583" 
d="M142 1512l300 24v-1524l-300 -24v1524zM436 1922v-288l-288 -1v287z" />
    <glyph glyph-name="dotlessi" unicode="&#x131;" horiz-adv-x="536" 
d="M124 1128l288 24v-1140l-288 -24v1140z" />
    <glyph glyph-name="IJ" unicode="&#x132;" horiz-adv-x="1210" 
d="M142 1512l300 24v-1524l-300 -24v1524zM584 205q24 -8 43.5 -11t36.5 -3q42 0 64.5 19t33 49.5t12.5 69.5t2 80v1103l300 24v-1152q0 -92 -14.5 -167.5t-49.5 -130t-92.5 -84.5t-143.5 -30q-81 0 -192 30v203z" />
    <glyph glyph-name="ij" unicode="&#x133;" horiz-adv-x="1114" 
d="M124 1128l288 24v-1140l-288 -24v1140zM413 1600v-288l-288 -1v287zM948 1600v-288l-288 -1v287zM501 -96q56 0 88 8t47.5 25.5t19.5 46t4 70.5v1074l288 24v-1098q0 -81 -4 -145t-28 -107.5t-75.5 -66.5t-147.5 -23q-40 0 -87.5 4.5t-104.5 14.5v173z" />
    <glyph glyph-name="Jcircumflex" unicode="&#x134;" horiz-adv-x="660" 
d="M34 205q24 -8 43.5 -11t36.5 -3q42 0 64.5 19t33 49.5t12.5 69.5t2 80v1103l300 24v-1152q0 -92 -14.5 -167.5t-49.5 -130t-92.5 -84.5t-143.5 -30q-81 0 -192 30v203zM28 1632l240 480h202l230 -480h-250l-96 290l-116 -290h-210z" />
    <glyph glyph-name="jcircumflex" unicode="&#x135;" horiz-adv-x="536" 
d="M-35 -96q56 0 88 8t47.5 25.5t19.5 46t4 70.5v1074l288 24v-1098q0 -81 -4 -145t-28 -107.5t-75.5 -66.5t-147.5 -23q-40 0 -87.5 4.5t-104.5 14.5v173zM-74 1248l240 480h202l230 -480h-250l-96 290l-116 -290h-210z" />
    <glyph glyph-name="Kcommaaccent" unicode="&#x136;" horiz-adv-x="1149" 
d="M590 666l-148 -265v-401h-300v1512l300 24v-672l364 672h320l-329 -634l334 -859l-305 -70zM768 -90v-288q0 -54 -10.5 -95t-27 -71.5t-38.5 -51.5t-44 -34q-53 -32 -120 -36v192q36 0 55.5 15t28.5 33q11 21 12 48h-144v288h288z" />
    <glyph glyph-name="kcommaaccent" unicode="&#x137;" horiz-adv-x="1021" 
d="M413 421v-421h-288v1500l288 36v-761l293 377h311l-324 -414l301 -678l-254 -87l-233 573zM684 -90v-288q0 -54 -10.5 -95t-27 -71.5t-38.5 -51.5t-44 -34q-53 -32 -120 -36v192q36 0 55.5 15t28.5 33q11 21 12 48h-144v288h288z" />
    <glyph glyph-name="Lacute" unicode="&#x139;" horiz-adv-x="971" 
d="M441 1536v-1296h520l-48 -240h-771v1512zM165 1730l297 447l227 -202l-411 -346z" />
    <glyph glyph-name="lacute" unicode="&#x13a;" horiz-adv-x="536" 
d="M124 1500l288 36v-1524l-288 -24v1512zM142 1651l297 447l227 -202l-411 -346z" />
    <glyph glyph-name="Lcommaaccent" unicode="&#x13b;" horiz-adv-x="969" 
d="M441 1536v-1296h520l-48 -240h-771v1512zM679 -90v-288q0 -54 -10.5 -95t-27 -71.5t-38.5 -51.5t-44 -34q-53 -32 -120 -36v192q36 0 55.5 15t28.5 33q11 21 12 48h-144v288h288z" />
    <glyph glyph-name="lcommaaccent" unicode="&#x13c;" horiz-adv-x="536" 
d="M124 1500l288 36v-1524l-288 -24v1512zM423 -90v-288q0 -54 -10.5 -95t-27 -71.5t-38.5 -51.5t-44 -34q-53 -32 -120 -36v192q36 0 55.5 15t28.5 33q11 21 12 48h-144v288h288z" />
    <glyph glyph-name="Lcaron" unicode="&#x13d;" horiz-adv-x="971" 
d="M441 1536v-1296h520l-48 -240h-771v1512zM861 1812v-288q0 -54 -10.5 -95t-27 -71.5t-38.5 -51.5t-44 -34q-53 -32 -120 -36v192q36 0 55.5 15t28.5 33q11 21 12 48l-144 -12v300h288z" />
    <glyph glyph-name="lcaron" unicode="&#x13e;" horiz-adv-x="792" 
d="M124 1500l288 36v-1524l-288 -24v1512zM847 1536v-288q0 -54 -10.5 -95t-27 -71.5t-38.5 -51.5t-44 -34q-53 -32 -120 -36v192q36 0 55.5 15t28.5 33q11 21 12 48l-144 -12v300h288z" />
    <glyph glyph-name="Ldot" unicode="&#x13f;" horiz-adv-x="1005" 
d="M441 1536v-1296h520l-48 -240h-771v1512zM959 1056v-288h-288v288h288z" />
    <glyph glyph-name="ldot" unicode="&#x140;" horiz-adv-x="900" 
d="M124 1500l288 36v-1524l-288 -24v1512zM876 838v-288h-288v288h288z" />
    <glyph glyph-name="Lslash" unicode="&#x141;" horiz-adv-x="985" 
d="M455 1536v-561l215 31v-238l-215 -31v-497h520l-48 -240h-771v694l-158 -22v238l158 22v580z" />
    <glyph glyph-name="lslash" unicode="&#x142;" horiz-adv-x="583" 
d="M-1 814l157 40v646l288 36v-609l131 33v-238l-131 -33v-677l-288 -24v628l-157 -40v238z" />
    <glyph glyph-name="Nacute" unicode="&#x143;" horiz-adv-x="1245" 
d="M409 948v-936l-268 -12v1524l313 12l396 -914v890l254 24v-1524l-246 -24zM526 1730l297 447l227 -202l-411 -346z" />
    <glyph glyph-name="nacute" unicode="&#x144;" 
d="M700 769q0 85 -29 119t-76 34q-38 0 -85.5 -25t-97.5 -55v-830l-288 -24v1140l288 24v-147q86 75 171 118.5t159 43.5q54 0 99 -20.5t77.5 -58t51 -91.5t18.5 -121v-864l-288 -24v781zM479 1346l297 447l227 -202l-411 -346z" />
    <glyph glyph-name="Ncommaaccent" unicode="&#x145;" horiz-adv-x="1245" 
d="M409 948v-936l-268 -12v1524l313 12l396 -914v890l254 24v-1524l-246 -24zM765 -90v-288q0 -54 -10.5 -95t-27 -71.5t-38.5 -51.5t-44 -34q-53 -32 -120 -36v192q36 0 55.5 15t28.5 33q11 21 12 48h-144v288h288z" />
    <glyph glyph-name="ncommaaccent" unicode="&#x146;" horiz-adv-x="1105" 
d="M701 769q0 85 -29 119t-76 34q-38 0 -85.5 -25t-97.5 -55v-830l-288 -24v1140l288 24v-147q86 75 171 118.5t159 43.5q54 0 99 -20.5t77.5 -58t51 -91.5t18.5 -121v-864l-288 -24v781zM696 -90v-288q0 -54 -10.5 -95t-27 -71.5t-38.5 -51.5t-44 -34q-53 -32 -120 -36v192
q36 0 55.5 15t28.5 33q11 21 12 48h-144v288h288z" />
    <glyph glyph-name="Ncaron" unicode="&#x147;" horiz-adv-x="1245" 
d="M409 948v-936l-268 -12v1524l313 12l396 -914v890l254 24v-1524l-246 -24zM493 2124l116 -290l96 290h250l-230 -480h-202l-240 480h210z" />
    <glyph glyph-name="ncaron" unicode="&#x148;" 
d="M700 769q0 85 -29 119t-76 34q-38 0 -85.5 -25t-97.5 -55v-830l-288 -24v1140l288 24v-147q86 75 171 118.5t159 43.5q54 0 99 -20.5t77.5 -58t51 -91.5t18.5 -121v-864l-288 -24v781zM266 1728.08l240 -479.971h202l230 479.971h-250l-96 -289.982l-116 289.982h-210z
" />
    <glyph glyph-name="napostrophe" unicode="&#x149;" 
d="M700 769q0 85 -29 119t-76 34q-38 0 -85.5 -25t-97.5 -55v-830l-288 -24v1140l288 24v-147q86 75 171 118.5t159 43.5q54 0 99 -20.5t77.5 -58t51 -91.5t18.5 -121v-864l-288 -24v781zM361 1785v-288q0 -54 -10.5 -95t-27 -71.5t-38.5 -51.5t-44 -34q-53 -32 -120 -36
v192q36 0 55.5 15t28.5 33q11 21 12 48h-144v288h288z" />
    <glyph glyph-name="Eng" unicode="&#x14a;" horiz-adv-x="1245" 
d="M628 -84q24 -8 43.5 -11t36.5 -3q53 0 82 19t42.5 49.5t15.5 69.5t2 80v23l-441 855v-986l-268 -12v1524l313 12l396 -814v790l254 24v-1441q0 -92 -14.5 -167.5t-47.5 -130t-87.5 -84.5t-134.5 -30q-81 0 -192 30v203z" />
    <glyph glyph-name="eng" unicode="&#x14b;" horiz-adv-x="1105" 
d="M541 -96q56 0 88 8t47.5 25.5t19.5 46t4 70.5v715q0 85 -29 119t-76 34q-38 0 -85.5 -25t-97.5 -55v-830l-288 -24v1140l288 24v-147q86 75 171 118.5t159 43.5q54 0 99 -20.5t77.5 -58t51 -91.5t18.5 -121v-822q0 -81 -4 -145t-28 -107.5t-75.5 -66.5t-147.5 -23
q-40 0 -87.5 4.5t-104.5 14.5v173z" />
    <glyph glyph-name="Omacron" unicode="&#x14c;" horiz-adv-x="1125" 
d="M561 -32q-98 0 -171.5 33t-126.5 92t-87 139.5t-54 175t-28 199.5t-8 213q0 162 27.5 300t85.5 236t147.5 151.5t214.5 53.5t215.5 -53.5t149 -151.5t86 -236t27.5 -300q0 -108 -8 -213t-28.5 -199.5t-55 -175t-87.5 -139.5t-127 -92t-172 -33zM561 223q60 0 95.5 41.5
t54 119t23.5 188t5 248.5q0 48 -1.5 100.5t-7.5 109t-17.5 109.5t-31.5 93.5t-49.5 65t-70.5 24.5t-70 -24.5t-48.5 -65t-31 -93.5t-17.5 -109.5t-7.5 -109t-1.5 -100.5q0 -138 5 -248.5t23 -188t53 -119t95 -41.5zM274 1824h576v-192h-576v192z" />
    <glyph glyph-name="omacron" unicode="&#x14d;" horiz-adv-x="1003" 
d="M502 -27q-108 0 -189 44.5t-135 124t-81 190.5t-27 245q0 129 27 237.5t81 187t135 122t189 43.5q105 0 186 -43.5t135.5 -122t82.5 -187t28 -237.5q0 -134 -28 -245t-82.5 -190.5t-135.5 -124t-186 -44.5zM500 187q35 0 60 19t41 50.5t25 72t13 84t5 86t1 78.5
q0 35 -1 77t-5 85t-13 83.5t-25 72t-40.5 50.5t-59.5 19q-36 0 -60.5 -19t-40.5 -50.5t-24.5 -72t-12.5 -83.5t-4.5 -85t-0.5 -77q0 -36 0.5 -78.5t4.5 -86t12.5 -84t24 -72t40 -50.5t60.5 -19zM213 1440h576v-192h-576v192z" />
    <glyph glyph-name="Obreve" unicode="&#x14e;" horiz-adv-x="1125" 
d="M561 -32q-98 0 -171.5 33t-126.5 92t-87 139.5t-54 175t-28 199.5t-8 213q0 162 27.5 300t85.5 236t147.5 151.5t214.5 53.5t215.5 -53.5t149 -151.5t86 -236t27.5 -300q0 -108 -8 -213t-28.5 -199.5t-55 -175t-87.5 -139.5t-127 -92t-172 -33zM561 223q60 0 95.5 41.5
t54 119t23.5 188t5 248.5q0 48 -1.5 100.5t-7.5 109t-17.5 109.5t-31.5 93.5t-49.5 65t-70.5 24.5t-70 -24.5t-48.5 -65t-31 -93.5t-17.5 -109.5t-7.5 -109t-1.5 -100.5q0 -138 5 -248.5t23 -188t53 -119t95 -41.5zM370 2112q0 -36 3 -78t21 -78t57 -60t111 -24t111 24
t57 60t21 78t3 78h240q0 -46 -8.5 -99t-28.5 -106.5t-53 -103t-81 -87.5t-112.5 -61t-148.5 -23t-148.5 23t-112.5 61t-81 87.5t-53 103t-28.5 106.5t-8.5 99h240z" />
    <glyph glyph-name="obreve" unicode="&#x14f;" horiz-adv-x="1003" 
d="M502 -27q-108 0 -189 44.5t-135 124t-81 190.5t-27 245q0 129 27 237.5t81 187t135 122t189 43.5q105 0 186 -43.5t135.5 -122t82.5 -187t28 -237.5q0 -134 -28 -245t-82.5 -190.5t-135.5 -124t-186 -44.5zM500 187q35 0 60 19t41 50.5t25 72t13 84t5 86t1 78.5
q0 35 -1 77t-5 85t-13 83.5t-25 72t-40.5 50.5t-59.5 19q-36 0 -60.5 -19t-40.5 -50.5t-24.5 -72t-12.5 -83.5t-4.5 -85t-0.5 -77q0 -36 0.5 -78.5t4.5 -86t12.5 -84t24 -72t40 -50.5t60.5 -19zM312 1728q0 -36 3 -78t21 -78t57 -60t111 -24t111 24t57 60t21 78t3 78h240
q0 -46 -8.5 -99t-28.5 -106.5t-53 -103t-81 -87.5t-112.5 -61t-148.5 -23t-148.5 23t-112.5 61t-81 87.5t-53 103t-28.5 106.5t-8.5 99h240z" />
    <glyph glyph-name="Ohungarumlaut" unicode="&#x150;" horiz-adv-x="1127" 
d="M562 -32q-98 0 -171.5 33t-126.5 92t-87 139.5t-54 175t-28 199.5t-8 213q0 162 27.5 300t85.5 236t147.5 151.5t214.5 53.5t215.5 -53.5t149 -151.5t86 -236t27.5 -300q0 -108 -8 -213t-28.5 -199.5t-55 -175t-87.5 -139.5t-127 -92t-172 -33zM562 223q60 0 95.5 41.5
t54 119t23.5 188t5 248.5q0 48 -1.5 100.5t-7.5 109t-17.5 109.5t-31.5 93.5t-49.5 65t-70.5 24.5t-70 -24.5t-48.5 -65t-31 -93.5t-17.5 -109.5t-7.5 -109t-1.5 -100.5q0 -138 5 -248.5t23 -188t53 -119t95 -41.5zM689 1663l269 480l234 -194l-384 -384zM186 1663l269 480
l234 -194l-384 -384z" />
    <glyph glyph-name="ohungarumlaut" unicode="&#x151;" horiz-adv-x="1004" 
d="M502 -27q-108 0 -189 44.5t-135 124t-81 190.5t-27 245q0 129 27 237.5t81 187t135 122t189 43.5q105 0 186 -43.5t135.5 -122t82.5 -187t28 -237.5q0 -134 -28 -245t-82.5 -190.5t-135.5 -124t-186 -44.5zM500 187q35 0 60 19t41 50.5t25 72t13 84t5 86t1 78.5
q0 35 -1 77t-5 85t-13 83.5t-25 72t-40.5 50.5t-59.5 19q-36 0 -60.5 -19t-40.5 -50.5t-24.5 -72t-12.5 -83.5t-4.5 -85t-0.5 -77q0 -36 0.5 -78.5t4.5 -86t12.5 -84t24 -72t40 -50.5t60.5 -19zM616 1260l269 480l234 -194l-384 -384zM113 1260l269 480l234 -194l-384 -384z
" />
    <glyph glyph-name="OE" unicode="&#x152;" horiz-adv-x="1617" 
d="M768 1536h774v-240h-474v-366h299v-258h-299v-432h490v-240h-790v96q-37 -58 -87.5 -90.5t-119.5 -32.5q-98 0 -171.5 32.5t-126.5 90t-87 136.5t-54 172t-28 196t-8 210q0 164 27.5 299.5t85.5 232.5t147.5 150.5t214.5 53.5q66 0 117 -31.5t90 -90.5v112zM561 228
q61 0 101.5 31t63.5 89t32.5 142t9.5 191v203q0 45 -3.5 94.5t-12.5 96.5t-24 89t-38 74t-55 50.5t-74 18.5q-41 0 -70 -24t-48.5 -64t-31 -92t-17.5 -107t-7.5 -109.5t-1.5 -100.5q0 -135 5 -243t23 -183.5t53 -115.5t95 -40z" />
    <glyph glyph-name="oe" unicode="&#x153;" horiz-adv-x="1539" 
d="M932 536q0 -54 7 -116t23.5 -114t43.5 -86.5t66 -34.5q34 0 62 27t49 61t33.5 64t15.5 36l218 -83q-20 -70 -53 -128t-80 -100t-109 -65.5t-141 -23.5q-93 0 -158.5 42t-117.5 117q-51 -75 -126 -117t-163 -42q-108 0 -189 44.5t-135 124t-81 190.5t-27 245
q0 129 27 237.5t81 187t135 122t189 43.5q88 0 164 -45t127 -125q54 81 121.5 125.5t162.5 44.5q103 0 180 -43.5t129 -122.5t78 -189t26 -242l-4 -14q-2 -6 -3 -11.5t-1 -8.5h-550zM500 187q35 0 60 19t41 50.5t25 72t13 84t5 86t1 78.5q0 35 -1 77t-5 85t-13 83.5t-25 72
t-40.5 50.5t-59.5 19q-36 0 -60.5 -19t-40.5 -50.5t-24.5 -72t-12.5 -83.5t-4.5 -85t-0.5 -77q0 -36 0.5 -78.5t4.5 -86t12.5 -84t24 -72t40 -50.5t60.5 -19zM1207 702q0 57 -7.5 106t-23.5 84.5t-41.5 56t-62.5 20.5q-26 0 -51.5 -20.5t-45 -56t-31.5 -84.5t-12 -106h275z
" />
    <glyph glyph-name="Racute" unicode="&#x154;" horiz-adv-x="1156" 
d="M142 -12v1536l364 12q126 0 230 -24.5t178.5 -77t115 -133.5t40.5 -193q0 -75 -16 -135t-45 -107t-69.5 -83t-89.5 -64q0 -1 12 -30t31.5 -76t44 -107t50.5 -122q61 -146 139 -331l-295 -80l-274 700h-117v-661zM441 895h102q45 0 86 7.5t72.5 30t50 63.5t18.5 109
q0 54 -14.5 90.5t-40 59t-60 32t-74.5 9.5h-140v-401zM484 1730l297 447l227 -202l-411 -346z" />
    <glyph glyph-name="racute" unicode="&#x155;" horiz-adv-x="831" 
d="M124 1128l288 24v-185q25 33 59 68.5t77.5 64.5t96.5 48t116 19q5 0 11 -0.5t11 -1.5q6 -1 13 -2v-343q-47 14 -95 29t-97 15q-48 0 -95 -21t-97 -75v-756l-288 -24v1140zM220 1346l297 447l227 -202l-411 -346z" />
    <glyph glyph-name="Rcommaaccent" unicode="&#x156;" horiz-adv-x="1158" 
d="M142 -12v1536l364 12q126 0 230 -24.5t178.5 -77t115 -133.5t40.5 -193q0 -75 -16 -135t-45 -107t-69.5 -83t-89.5 -64q0 -1 12 -30t31.5 -76t44 -107t50.5 -122q61 -146 139 -331l-295 -80l-274 700h-117v-661zM441 895h102q45 0 86 7.5t72.5 30t50 63.5t18.5 109
q0 54 -14.5 90.5t-40 59t-60 32t-74.5 9.5h-140v-401zM766 -90v-288q0 -54 -10.5 -95t-27 -71.5t-38.5 -51.5t-44 -34q-53 -32 -120 -36v192q36 0 55.5 15t28.5 33q11 21 12 48h-144v288h288z" />
    <glyph glyph-name="rcommaaccent" unicode="&#x157;" horiz-adv-x="830" 
d="M125 1128l288 24v-185q25 33 59 68.5t77.5 64.5t96.5 48t116 19q5 0 11 -0.5t11 -1.5q6 -1 13 -2v-343q-47 14 -95 29t-97 15q-48 0 -95 -21t-97 -75v-756l-288 -24v1140zM425 -90v-288q0 -54 -10.5 -95t-27 -71.5t-38.5 -51.5t-44 -34q-53 -32 -120 -36v192
q36 0 55.5 15t28.5 33q11 21 12 48h-144v288h288z" />
    <glyph glyph-name="Rcaron" unicode="&#x158;" horiz-adv-x="1156" 
d="M142 -12v1536l364 12q126 0 230 -24.5t178.5 -77t115 -133.5t40.5 -193q0 -75 -16 -135t-45 -107t-69.5 -83t-89.5 -64q0 -1 12 -30t31.5 -76t44 -107t50.5 -122q61 -146 139 -331l-295 -80l-274 700h-117v-661zM441 895h102q45 0 86 7.5t72.5 30t50 63.5t18.5 109
q0 54 -14.5 90.5t-40 59t-60 32t-74.5 9.5h-140v-401zM226 1630l240 480h202l230 -480h-250l-96 290l-116 -290h-210z" />
    <glyph glyph-name="rcaron" unicode="&#x159;" horiz-adv-x="831" 
d="M124 1128l288 24v-185q25 33 59 68.5t77.5 64.5t96.5 48t116 19q5 0 11 -0.5t11 -1.5q6 -1 13 -2v-343q-47 14 -95 29t-97 15q-48 0 -95 -21t-97 -75v-756l-288 -24v1140zM256 1728l116 -290l96 290h250l-230 -480h-202l-240 480h210z" />
    <glyph glyph-name="Sacute" unicode="&#x15a;" horiz-adv-x="1092" 
d="M739 1141q-18 38 -33.5 72t-36 60t-49.5 41t-74 15q-35 0 -61.5 -13t-43.5 -35t-25.5 -51t-8.5 -61q0 -26 8 -49t21.5 -42t30.5 -34.5t34 -25.5l248 -145q88 -50 144 -105t87.5 -109t43.5 -104.5t14 -91.5q0 -111 -37.5 -202.5t-103.5 -156.5t-155.5 -100.5t-193.5 -35.5
q-96 0 -176 29t-142.5 80.5t-108 122t-73.5 152.5l254 119q22 -36 48 -79.5t58 -81t73 -62.5t95 -25q27 0 51.5 12.5t43 34t30 49t11.5 57.5q0 61 -29.5 107t-72.5 74l-269 159q-56 32 -102.5 73t-81 90.5t-53.5 106.5t-19 122q0 102 36.5 186.5t100 145.5t151 94.5
t189.5 33.5q156 0 267 -79.5t164 -232.5zM485 1730l297 447l227 -202l-411 -346z" />
    <glyph glyph-name="sacute" unicode="&#x15b;" horiz-adv-x="926" 
d="M282 337q9 -39 31 -69q18 -26 51 -47t86 -21q20 0 45.5 4.5t47.5 15.5t37 28.5t15 44.5q0 37 -26 61t-61 38l-241 98q-97 39 -148.5 121.5t-51.5 202.5q0 86 33 152t87 110.5t124 67.5t145 23q62 0 122.5 -18t112.5 -53.5t90.5 -87.5t57.5 -119l-236 -73q-11 38 -30 69
q-17 26 -45 47.5t-70 21.5q-23 0 -45 -5t-39.5 -16.5t-28.5 -29t-11 -41.5q0 -19 10.5 -34.5t26 -27.5t32.5 -21t31 -15l205 -85q48 -22 90.5 -51t74 -69t49.5 -93.5t18 -123.5q0 -93 -35 -162t-92 -115t-129 -69t-146 -23q-88 0 -157 20.5t-120 58.5t-84 92t-48 121z
M299 1346l297 447l227 -202l-411 -346z" />
    <glyph glyph-name="Scircumflex" unicode="&#x15c;" horiz-adv-x="1092" 
d="M739 1141q-18 38 -33.5 72t-36 60t-49.5 41t-74 15q-35 0 -61.5 -13t-43.5 -35t-25.5 -51t-8.5 -61q0 -26 8 -49t21.5 -42t30.5 -34.5t34 -25.5l248 -145q88 -50 144 -105t87.5 -109t43.5 -104.5t14 -91.5q0 -111 -37.5 -202.5t-103.5 -156.5t-155.5 -100.5t-193.5 -35.5
q-96 0 -176 29t-142.5 80.5t-108 122t-73.5 152.5l254 119q22 -36 48 -79.5t58 -81t73 -62.5t95 -25q27 0 51.5 12.5t43 34t30 49t11.5 57.5q0 61 -29.5 107t-72.5 74l-269 159q-56 32 -102.5 73t-81 90.5t-53.5 106.5t-19 122q0 102 36.5 186.5t100 145.5t151 94.5
t189.5 33.5q156 0 267 -79.5t164 -232.5zM231 1632l240 480h202l230 -480h-250l-96 290l-116 -290h-210z" />
    <glyph glyph-name="scircumflex" unicode="&#x15d;" horiz-adv-x="926" 
d="M282 337q9 -39 31 -69q18 -26 51 -47t86 -21q20 0 45.5 4.5t47.5 15.5t37 28.5t15 44.5q0 37 -26 61t-61 38l-241 98q-97 39 -148.5 121.5t-51.5 202.5q0 86 33 152t87 110.5t124 67.5t145 23q62 0 122.5 -18t112.5 -53.5t90.5 -87.5t57.5 -119l-236 -73q-11 38 -30 69
q-17 26 -45 47.5t-70 21.5q-23 0 -45 -5t-39.5 -16.5t-28.5 -29t-11 -41.5q0 -19 10.5 -34.5t26 -27.5t32.5 -21t31 -15l205 -85q48 -22 90.5 -51t74 -69t49.5 -93.5t18 -123.5q0 -93 -35 -162t-92 -115t-129 -69t-146 -23q-88 0 -157 20.5t-120 58.5t-84 92t-48 121z
M125 1248l240 480h202l230 -480h-250l-96 290l-116 -290h-210z" />
    <glyph glyph-name="Scedilla" unicode="&#x15e;" horiz-adv-x="1092" 
d="M739 1141q-18 38 -33.5 72t-36 60t-49.5 41t-74 15q-35 0 -61.5 -13t-43.5 -35t-25.5 -51t-8.5 -61q0 -26 8 -49t21.5 -42t30.5 -34.5t34 -25.5l248 -145q88 -50 144 -105t87.5 -109t43.5 -104.5t14 -91.5q0 -111 -37.5 -202.5t-103.5 -156.5t-155.5 -100.5t-193.5 -35.5
q-96 0 -176 29t-142.5 80.5t-108 122t-73.5 152.5l254 119q22 -36 48 -79.5t58 -81t73 -62.5t95 -25q27 0 51.5 12.5t43 34t30 49t11.5 57.5q0 61 -29.5 107t-72.5 74l-269 159q-56 32 -102.5 73t-81 90.5t-53.5 106.5t-19 122q0 102 36.5 186.5t100 145.5t151 94.5
t189.5 33.5q156 0 267 -79.5t164 -232.5zM513 48h152l-30 -124q61 -17 102 -43t67 -54t40 -56.5t20 -52t6.5 -39t0.5 -18.5q0 -60 -18 -101t-48 -67t-69 -37.5t-81 -11.5q-65 0 -126.5 17.5t-103.5 46.5v165q44 -20 79.5 -28t64.5 -8q52 0 74 22t22 52q0 20 -11 41t-34.5 38
t-59.5 28t-87 11z" />
    <glyph glyph-name="scedilla" unicode="&#x15f;" horiz-adv-x="928" 
d="M284 337q9 -39 31 -69q18 -26 51 -47t86 -21q20 0 45.5 4.5t47.5 15.5t37 28.5t15 44.5q0 37 -26 61t-61 38l-241 98q-97 39 -148.5 121.5t-51.5 202.5q0 86 33 152t87 110.5t124 67.5t145 23q62 0 122.5 -18t112.5 -53.5t90.5 -87.5t57.5 -119l-236 -73q-11 38 -30 69
q-17 26 -45 47.5t-70 21.5q-23 0 -45 -5t-39.5 -16.5t-28.5 -29t-11 -41.5q0 -19 10.5 -34.5t26 -27.5t32.5 -21t31 -15l205 -85q48 -22 90.5 -51t74 -69t49.5 -93.5t18 -123.5q0 -93 -35 -162t-92 -115t-129 -69t-146 -23q-88 0 -157 20.5t-120 58.5t-84 92t-48 121z
M324 48h152l-30 -124q61 -17 102 -43t67 -54t40 -56.5t20 -52t6.5 -39t0.5 -18.5q0 -60 -18 -101t-48 -67t-69 -37.5t-81 -11.5q-65 0 -126.5 17.5t-103.5 46.5v165q44 -20 79.5 -28t64.5 -8q52 0 74 22t22 52q0 20 -11 41t-34.5 38t-59.5 28t-87 11z" />
    <glyph glyph-name="Scaron" unicode="&#x160;" horiz-adv-x="1091" 
d="M739 1141q-18 38 -33.5 72t-36 60t-49.5 41t-74 15q-35 0 -61.5 -13t-43.5 -35t-25.5 -51t-8.5 -61q0 -26 8 -49t21.5 -42t30.5 -34.5t34 -25.5l248 -145q88 -50 144 -105t87.5 -109t43.5 -104.5t14 -91.5q0 -111 -37.5 -202.5t-103.5 -156.5t-155.5 -100.5t-193.5 -35.5
q-96 0 -176 29t-142.5 80.5t-108 122t-73.5 152.5l254 119q22 -36 48 -79.5t58 -81t73 -62.5t95 -25q27 0 51.5 12.5t43 34t30 49t11.5 57.5q0 61 -29.5 107t-72.5 74l-269 159q-56 32 -102.5 73t-81 90.5t-53.5 106.5t-19 122q0 102 36.5 186.5t100 145.5t151 94.5
t189.5 33.5q156 0 267 -79.5t164 -232.5zM420 2112l116 -290l96 290h250l-230 -480h-202l-240 480h210z" />
    <glyph glyph-name="scaron" unicode="&#x161;" horiz-adv-x="926" 
d="M282 337q9 -39 31 -69q18 -26 51 -47t86 -21q20 0 45.5 4.5t47.5 15.5t37 28.5t15 44.5q0 37 -26 61t-61 38l-241 98q-97 39 -148.5 121.5t-51.5 202.5q0 86 33 152t87 110.5t124 67.5t145 23q62 0 122.5 -18t112.5 -53.5t90.5 -87.5t57.5 -119l-236 -73q-11 38 -30 69
q-17 26 -45 47.5t-70 21.5q-23 0 -45 -5t-39.5 -16.5t-28.5 -29t-11 -41.5q0 -19 10.5 -34.5t26 -27.5t32.5 -21t31 -15l205 -85q48 -22 90.5 -51t74 -69t49.5 -93.5t18 -123.5q0 -93 -35 -162t-92 -115t-129 -69t-146 -23q-88 0 -157 20.5t-120 58.5t-84 92t-48 121z
M335 1728l116 -290l96 290h250l-230 -480h-202l-240 480h210z" />
    <glyph glyph-name="Tcommaaccent" unicode="&#x162;" horiz-adv-x="977" 
d="M30 1296l24 240h900l-24 -240h-287v-1284l-300 -24v1308h-313zM638 -90v-288q0 -54 -10.5 -95t-27 -71.5t-38.5 -51.5t-44 -34q-53 -32 -120 -36v192q36 0 55.5 15t28.5 33q11 21 12 48h-144v288h288z" />
    <glyph glyph-name="tcommaaccent" unicode="&#x163;" horiz-adv-x="734" 
d="M199 1152l29 250l250 36v-286h236l-12 -216h-223v-635q0 -34 14 -55.5t35.5 -33.5t47.5 -16t50 -4q31 0 51 3q11 2 21 4v-198q-22 -8 -54 -14q-27 -5 -68 -9.5t-98 -4.5q-47 0 -97.5 13.5t-92.5 45t-69.5 83.5t-27.5 129v692h-161l12 216h157zM578 -93v-288
q0 -54 -10.5 -95t-27 -71.5t-38.5 -51.5t-44 -34q-53 -32 -120 -36v192q36 0 55.5 15t28.5 33q11 21 12 48h-144v288h288z" />
    <glyph glyph-name="Tcaron" unicode="&#x164;" horiz-adv-x="977" 
d="M28 1296l24 240h900l-24 -240h-287v-1284l-300 -24v1308h-313zM362 2112l116 -290l96 290h250l-230 -480h-202l-240 480h210z" />
    <glyph glyph-name="tcaron" unicode="&#x165;" horiz-adv-x="732" 
d="M197 1152l29 250l250 36v-286h236l-12 -216h-223v-635q0 -34 14 -55.5t35.5 -33.5t47.5 -16t50 -4q31 0 51 3q11 2 21 4v-198q-22 -8 -54 -14q-27 -5 -68 -9.5t-98 -4.5q-47 0 -97.5 13.5t-92.5 45t-69.5 83.5t-27.5 129v692h-161l12 216h157zM841 1840v-288
q0 -54 -10.5 -95t-27 -71.5t-38.5 -51.5t-44 -34q-53 -32 -120 -36v192q36 0 55.5 15t28.5 33q11 21 12 48l-144 -12v300h288z" />
    <glyph glyph-name="Tbar" unicode="&#x166;" horiz-adv-x="977" 
d="M28 1296l24 240h900l-24 -240h-287v-1284l-300 -24v1308h-313zM194 806h576v-192h-576v192z" />
    <glyph glyph-name="tbar" unicode="&#x167;" horiz-adv-x="733" 
d="M198 1152l29 250l250 36v-286h236l-12 -216h-223v-635q0 -34 14 -55.5t35.5 -33.5t47.5 -16t50 -4q31 0 51 3q11 2 21 4v-198q-22 -8 -54 -14q-27 -5 -68 -9.5t-98 -4.5q-47 0 -97.5 13.5t-92.5 45t-69.5 83.5t-27.5 129v692h-161l12 216h157zM60 771h576v-192h-576v192z
" />
    <glyph glyph-name="Utilde" unicode="&#x168;" horiz-adv-x="1163" 
d="M132 1524l300 12v-1054q0 -46 3 -92t19.5 -83t50 -60.5t95.5 -23.5q58 0 89.5 24t46.5 62t17.5 84.5t2.5 91.5v1027l275 24v-995q0 -44 -2 -103.5t-14.5 -123t-40.5 -126t-80.5 -111.5t-134 -79t-200.5 -30q-111 0 -191.5 43.5t-133 117t-77.5 171.5t-25 206v1018z
M264 1799q30 34 63 61q28 23 62 42t68 19q40 0 72 -12.5t61.5 -27.5t57.5 -27.5t60 -12.5q38 0 66.5 12.5t46.5 27.5q21 18 36 40l44 -162q0 -1 -13 -24t-37.5 -50t-60 -49t-80.5 -22q-36 0 -65.5 16t-59.5 34.5t-63 34.5t-76 16q-31 0 -61 -15.5t-53 -34.5q-28 -22 -53 -50
z" />
    <glyph glyph-name="utilde" unicode="&#x169;" 
d="M404 381q0 -85 26 -119t69 -34q20 0 42.5 7.5t47.5 20.5t51 29t52 33v810l288 24v-1140l-288 -24v147q-84 -75 -166 -118.5t-154 -43.5q-56 0 -103 20.5t-81 58t-53 91.5t-19 121v864l288 24v-771zM232 1415q30 34 63 61q28 23 62 42t68 19q40 0 72 -12.5t61.5 -27.5
t57.5 -27.5t60 -12.5q38 0 66.5 12.5t46.5 27.5q21 18 36 40l44 -162q0 -1 -13 -24t-37.5 -50t-60 -49t-80.5 -22q-36 0 -65.5 16t-59.5 34.5t-63 34.5t-76 16q-31 0 -61 -15.5t-53 -34.5q-28 -22 -53 -50z" />
    <glyph glyph-name="Umacron" unicode="&#x16a;" horiz-adv-x="1163" 
d="M132 1524l300 12v-1054q0 -46 3 -92t19.5 -83t50 -60.5t95.5 -23.5q58 0 89.5 24t46.5 62t17.5 84.5t2.5 91.5v1027l275 24v-995q0 -44 -2 -103.5t-14.5 -123t-40.5 -126t-80.5 -111.5t-134 -79t-200.5 -30q-111 0 -191.5 43.5t-133 117t-77.5 171.5t-25 206v1018z
M294 1824h576v-192h-576v192z" />
    <glyph glyph-name="umacron" unicode="&#x16b;" 
d="M404 381q0 -85 26 -119t69 -34q20 0 42.5 7.5t47.5 20.5t51 29t52 33v810l288 24v-1140l-288 -24v147q-84 -75 -166 -118.5t-154 -43.5q-56 0 -103 20.5t-81 58t-53 91.5t-19 121v864l288 24v-771zM263 1440h576v-192h-576v192z" />
    <glyph glyph-name="Ubreve" unicode="&#x16c;" horiz-adv-x="1163" 
d="M132 1524l300 12v-1054q0 -46 3 -92t19.5 -83t50 -60.5t95.5 -23.5q58 0 89.5 24t46.5 62t17.5 84.5t2.5 91.5v1027l275 24v-995q0 -44 -2 -103.5t-14.5 -123t-40.5 -126t-80.5 -111.5t-134 -79t-200.5 -30q-111 0 -191.5 43.5t-133 117t-77.5 171.5t-25 206v1018z
M390 2112q0 -36 3 -78t21 -78t57 -60t111 -24t111 24t57 60t21 78t3 78h240q0 -46 -8.5 -99t-28.5 -106.5t-53 -103t-81 -87.5t-112.5 -61t-148.5 -23t-148.5 23t-112.5 61t-81 87.5t-53 103t-28.5 106.5t-8.5 99h240z" />
    <glyph glyph-name="ubreve" unicode="&#x16d;" 
d="M404 381q0 -85 26 -119t69 -34q20 0 42.5 7.5t47.5 20.5t51 29t52 33v810l288 24v-1140l-288 -24v147q-84 -75 -166 -118.5t-154 -43.5q-56 0 -103 20.5t-81 58t-53 91.5t-19 121v864l288 24v-771zM359 1728q0 -36 3 -78t21 -78t57 -60t111 -24t111 24t57 60t21 78t3 78
h240q0 -46 -8.5 -99t-28.5 -106.5t-53 -103t-81 -87.5t-112.5 -61t-148.5 -23t-148.5 23t-112.5 61t-81 87.5t-53 103t-28.5 106.5t-8.5 99h240z" />
    <glyph glyph-name="Uring" unicode="&#x16e;" horiz-adv-x="1163" 
d="M132 1524l300 12v-1054q0 -46 3 -92t19.5 -83t50 -60.5t95.5 -23.5q58 0 89.5 24t46.5 62t17.5 84.5t2.5 91.5v1027l275 24v-995q0 -44 -2 -103.5t-14.5 -123t-40.5 -126t-80.5 -111.5t-134 -79t-200.5 -30q-111 0 -191.5 43.5t-133 117t-77.5 171.5t-25 206v1018z
M583 1632q-59 0 -115 17t-100 50.5t-71 85t-27 120.5q0 68 27 119t71 84.5t100 50.5t115 17q58 0 114 -17t100 -50.5t71 -84.5t27 -119q0 -69 -27 -120.5t-71 -85t-100 -50.5t-114 -17zM582 1791q23 0 45 7t39.5 21.5t28.5 35.5t11 49q0 27 -11 47.5t-28 34.5t-39.5 21.5
t-44.5 7.5q-23 0 -45.5 -7.5t-40 -21.5t-28 -34.5t-10.5 -47.5q0 -28 10.5 -49t28 -35.5t39.5 -21.5t45 -7z" />
    <glyph glyph-name="uring" unicode="&#x16f;" 
d="M404 381q0 -85 26 -119t69 -34q20 0 42.5 7.5t47.5 20.5t51 29t52 33v810l288 24v-1140l-288 -24v147q-84 -75 -166 -118.5t-154 -43.5q-56 0 -103 20.5t-81 58t-53 91.5t-19 121v864l288 24v-771zM551 1248q-59 0 -115 17t-100 50.5t-71 85t-27 120.5q0 68 27 119
t71 84.5t100 50.5t115 17q58 0 114 -17t100 -50.5t71 -84.5t27 -119q0 -69 -27 -120.5t-71 -85t-100 -50.5t-114 -17zM550 1407q23 0 45 7t39.5 21.5t28.5 35.5t11 49q0 27 -11 47.5t-28 34.5t-39.5 21.5t-44.5 7.5q-23 0 -45.5 -7.5t-40 -21.5t-28 -34.5t-10.5 -47.5
q0 -28 10.5 -49t28 -35.5t39.5 -21.5t45 -7z" />
    <glyph glyph-name="Uhungarumlaut" unicode="&#x170;" horiz-adv-x="1163" 
d="M132 1524l300 12v-1054q0 -46 3 -92t19.5 -83t50 -60.5t95.5 -23.5q58 0 89.5 24t46.5 62t17.5 84.5t2.5 91.5v1027l275 24v-995q0 -44 -2 -103.5t-14.5 -123t-40.5 -126t-80.5 -111.5t-134 -79t-200.5 -30q-111 0 -191.5 43.5t-133 117t-77.5 171.5t-25 206v1018z
M582 1632l269 480l234 -194l-384 -384zM79 1632l269 480l234 -194l-384 -384z" />
    <glyph glyph-name="uhungarumlaut" unicode="&#x171;" 
d="M404 381q0 -85 26 -119t69 -34q20 0 42.5 7.5t47.5 20.5t51 29t52 33v810l288 24v-1140l-288 -24v147q-84 -75 -166 -118.5t-154 -43.5q-56 0 -103 20.5t-81 58t-53 91.5t-19 121v864l288 24v-771zM554 1248l269 480l234 -194l-384 -384zM51 1248l269 480l234 -194
l-384 -384z" />
    <glyph glyph-name="Uogonek" unicode="&#x172;" horiz-adv-x="1162" 
d="M132 1524l300 12v-1054q0 -46 3 -92t19.5 -83t50 -60.5t95.5 -23.5q58 0 89.5 24t46.5 62t17.5 84.5t2.5 91.5v1027l275 24v-995q0 -44 -2 -103.5t-14.5 -123t-40.5 -126t-80.5 -111.5t-134 -79t-200.5 -30q-111 0 -191.5 43.5t-133 117t-77.5 171.5t-25 206v1018z
M704 -101q-5 -18 -5 -29q0 -35 23 -48t56 -13q20 0 42 3.5t42 9t37 11.5t28 11v-165q-29 -31 -83.5 -47.5t-114.5 -16.5q-44 0 -86.5 9.5t-75.5 30t-53.5 52t-20.5 75.5q0 16 4.5 33t12.5 37l62 168h162z" />
    <glyph glyph-name="uogonek" unicode="&#x173;" horiz-adv-x="1103" 
d="M404 381q0 -85 26 -119t69 -34q20 0 42.5 7.5t47.5 20.5t51 29t52 33v810l288 24v-1140l-288 -24v147q-84 -75 -166 -118.5t-154 -43.5q-56 0 -103 20.5t-81 58t-53 91.5t-19 121v864l288 24v-771zM827 -101q-5 -18 -5 -29q0 -35 23 -48t56 -13q20 0 42 3.5t42 9t37 11.5
t28 11v-165q-29 -31 -83.5 -47.5t-114.5 -16.5q-44 0 -86.5 9.5t-75.5 30t-53.5 52t-20.5 75.5q0 16 4.5 33t12.5 37l62 168h162z" />
    <glyph glyph-name="Wcircumflex" unicode="&#x174;" horiz-adv-x="1586" 
d="M614 0h-275l-312 1524l328 12l162 -920l173 908l245 12l162 -930l196 918l275 12l-328 -1536h-297l-163 938zM459 1632l240 480h202l230 -480h-250l-96 290l-116 -290h-210z" />
    <glyph glyph-name="wcircumflex" unicode="&#x175;" horiz-adv-x="1315" 
d="M670 747l-162 -747h-235l-237 1130l293 22l99 -652l145 628l240 24l124 -644l125 620l234 12l-264 -1140h-231zM326 1248l240 480h202l230 -480h-250l-96 290l-116 -290h-210z" />
    <glyph glyph-name="Ycircumflex" unicode="&#x176;" horiz-adv-x="1027" 
d="M367 608l-370 928h330l211 -640l228 640h259l-355 -893v-631l-303 -24v620zM175 1632l240 480h202l230 -480h-250l-96 290l-116 -290h-210z" />
    <glyph glyph-name="ycircumflex" unicode="&#x177;" horiz-adv-x="901" 
d="M30 -113q26 -1 50 -2q20 -1 40 -1.5t29 -0.5q50 0 84.5 12t56.5 34t31.5 53t9.5 70v56l-329 1030l312 14l162 -721l153 715l260 2l-295 -1127q-36 -126 -89 -202.5t-113 -117t-122.5 -53.5t-118.5 -13q-21 0 -43 2t-39 4q-20 3 -39 6v240zM128 1248l240 480h202l230 -480
h-250l-96 290l-116 -290h-210z" />
    <glyph glyph-name="Ydieresis" unicode="&#x178;" horiz-adv-x="1027" 
d="M367 608l-370 928h330l211 -640l228 640h259l-355 -893v-631l-303 -24v620zM418 1920v-288h-288v288h288zM898 1920v-288h-288v288h288z" />
    <glyph glyph-name="Zacute" unicode="&#x179;" horiz-adv-x="1008" 
d="M581 1296h-483l24 240h813v-199l-514 -1097h528l-48 -240h-850v190zM343 1730l297 447l227 -202l-411 -346z" />
    <glyph glyph-name="zacute" unicode="&#x17a;" horiz-adv-x="881" 
d="M834 234l-24 -234h-757v181l395 744h-365l24 227h685v-170l-388 -748h430zM277 1346l297 447l227 -202l-411 -346z" />
    <glyph glyph-name="Zdotaccent" unicode="&#x17b;" horiz-adv-x="1008" 
d="M581 1296h-483l24 240h813v-199l-514 -1097h528l-48 -240h-850v190zM649 1922v-288l-288 -1v287z" />
    <glyph glyph-name="zdotaccent" unicode="&#x17c;" horiz-adv-x="881" 
d="M834 234l-24 -234h-757v181l395 744h-365l24 227h685v-170l-388 -748h430zM583 1538v-288l-288 -1v287z" />
    <glyph glyph-name="Zcaron" unicode="&#x17d;" horiz-adv-x="1008" 
d="M581 1296h-483l24 240h813v-199l-514 -1097h528l-48 -240h-850v190zM379 2112l116 -290l96 290h250l-230 -480h-202l-240 480h210z" />
    <glyph glyph-name="zcaron" unicode="&#x17e;" horiz-adv-x="881" 
d="M834 234l-24 -234h-757v181l395 744h-365l24 227h685v-170l-388 -748h430zM313 1728l116 -290l96 290h250l-230 -480h-202l-240 480h210z" />
    <glyph glyph-name="uni018F" unicode="&#x18f;" horiz-adv-x="1109" 
d="M723 816v4q0 48 -1.5 104t-7.5 112.5t-17.5 109.5t-31.5 93.5t-49.5 65t-70.5 24.5t-71 -23t-51.5 -62.5t-35.5 -91t-22 -108.5l-277 97q24 99 64 178.5t96.5 134.5t130.5 84.5t166 29.5q125 0 215.5 -53.5t149 -151.5t86 -236t27.5 -307q0 -108 -8 -213t-28.5 -199.5
t-55 -175t-87.5 -139.5t-127 -92t-172 -33t-171.5 33t-126.5 92t-87 139t-54 174.5t-28 198.5t-8 211h653zM545 223q47 0 78.5 25t51.5 73t30 117t14 157h-346q4 -87 13.5 -156t29 -117t51 -73.5t78.5 -25.5z" />
    <glyph glyph-name="florin" unicode="&#x192;" horiz-adv-x="704" 
d="M474 -22q0 -70 -5.5 -136.5t-33 -119t-85.5 -84.5t-162 -32q-54 0 -90.5 4.5t-59.5 10.5q-27 6 -45 15v172h63q45 0 71 15t39 39t16.5 54.5t3.5 62.5v650h-142v235h142v310q0 70 5.5 136.5t33 119t85.5 84.5t162 32q53 0 90 -5t60 -10q27 -7 45 -15v-172h-63
q-45 0 -71 -15t-39 -39t-16.5 -55t-3.5 -62v-309h191v-237h-191v-649z" />
    <glyph glyph-name="uni01C4" unicode="&#x1c4;" horiz-adv-x="2090" 
d="M142 1536h314q303 0 453 -191.5t150 -582.5q0 -97 -13 -191.5t-40.5 -179t-70.5 -156.5t-104 -124t-141 -81.5t-181 -29.5h-367v1536zM441 1296v-1056h43q57 0 100 19.5t73.5 53.5t50 79.5t31 97t16 106.5t4.5 109v112q0 63 -6 128.5t-22 128.5t-47 112.5t-81.5 79.5
t-126.5 30h-35zM1664 1296h-483l24 240h813v-199l-514 -1097h528l-48 -240h-850v190zM1292 2082.08l240 -479.971h202l230 479.971h-250l-96 -289.982l-116 289.982h-210z" />
    <glyph glyph-name="uni01C5" unicode="&#x1c5;" horiz-adv-x="2105" 
d="M142 1536h314q303 0 453 -191.5t150 -582.5q0 -97 -13 -191.5t-40.5 -179t-70.5 -156.5t-104 -124t-141 -81.5t-181 -29.5h-367v1536zM441 1296v-1056h43q57 0 100 19.5t73.5 53.5t50 79.5t31 97t16 106.5t4.5 109v112q0 63 -6 128.5t-22 128.5t-47 112.5t-81.5 79.5
t-126.5 30h-35zM2058 234l-24 -234h-757v181l395 744h-365l24 227h685v-170l-388 -748h430zM1546 1724l116 -290l96 290h250l-230 -480h-202l-240 480h210z" />
    <glyph glyph-name="uni01C6" unicode="&#x1c6;" horiz-adv-x="1970" 
d="M726 -12l-70 156q-13 -48 -44 -86q-13 -16 -31.5 -31.5t-43.5 -27.5t-56.5 -19t-71.5 -7q-79 0 -140.5 35.5t-104 110t-64.5 188t-22 269.5q0 159 17.5 271.5t56 183.5t98.5 103.5t145 32.5q24 0 48.5 -7t47.5 -19t44.5 -27t39.5 -31q43 -37 81 -83v500l288 36v-1524z
M656 864q-21 26 -44 46q-20 17 -45 31.5t-51 14.5q-53 0 -83 -29.5t-45 -81t-18.5 -121t-3.5 -148.5q0 -80 3.5 -152t18.5 -126.5t45 -86.5t83 -32q26 0 51 13.5t45 47t32 92t12 148.5v384zM1923 234l-24 -234h-757v181l395 744h-365l24 227h685v-170l-388 -748h430z
M1243 1728.08l240 -479.971h202l230 479.971h-250l-96 -289.982l-116 289.982h-210z" />
    <glyph glyph-name="uni01C7" unicode="&#x1c7;" horiz-adv-x="1611" 
d="M441 1536v-1296h520l-48 -240h-771v1512zM985 205q24 -8 43.5 -11t36.5 -3q42 0 64.5 19t33 49.5t12.5 69.5t2 80v1103l300 24v-1152q0 -92 -14.5 -167.5t-49.5 -130t-92.5 -84.5t-143.5 -30q-81 0 -192 30v203z" />
    <glyph glyph-name="uni01C8" unicode="&#x1c8;" horiz-adv-x="1550" 
d="M441 1536v-1296h520l-48 -240h-771v1512zM1383 1600v-288l-288 -1v287zM936 -96q56 0 88 8t47.5 25.5t19.5 46t4 70.5v1074l288 24v-1098q0 -81 -4 -145t-28 -107.5t-75.5 -66.5t-147.5 -23q-40 0 -87.5 4.5t-104.5 14.5v173z" />
    <glyph glyph-name="uni01C9" unicode="&#x1c9;" horiz-adv-x="1114" 
d="M124 1500l288 36v-1524l-288 -24v1512zM948 1600v-288l-288 -1v287zM501 -96q56 0 88 8t47.5 25.5t19.5 46t4 70.5v1074l288 24v-1098q0 -81 -4 -145t-28 -107.5t-75.5 -66.5t-147.5 -23q-40 0 -87.5 4.5t-104.5 14.5v173z" />
    <glyph glyph-name="uni01CA" unicode="&#x1ca;" horiz-adv-x="1869" 
d="M409 948v-936l-268 -12v1524l313 12l396 -914v890l254 24v-1524l-246 -24zM1243 205q24 -8 43.5 -11t36.5 -3q42 0 64.5 19t33 49.5t12.5 69.5t2 80v1103l300 24v-1152q0 -92 -14.5 -167.5t-49.5 -130t-92.5 -84.5t-143.5 -30q-81 0 -192 30v203z" />
    <glyph glyph-name="uni01CB" unicode="&#x1cb;" horiz-adv-x="1809" 
d="M409 948v-936l-268 -12v1524l313 12l396 -914v890l254 24v-1524l-246 -24zM1657 1600v-288l-288 -1v287zM1210 -96q56 0 88 8t47.5 25.5t19.5 46t4 70.5v1074l288 24v-1098q0 -81 -4 -145t-28 -107.5t-75.5 -66.5t-147.5 -23q-40 0 -87.5 4.5t-104.5 14.5v173z" />
    <glyph glyph-name="uni01CC" unicode="&#x1cc;" horiz-adv-x="1689" 
d="M700 769q0 85 -29 119t-76 34q-38 0 -85.5 -25t-97.5 -55v-830l-288 -24v1140l288 24v-147q86 75 171 118.5t159 43.5q54 0 99 -20.5t77.5 -58t51 -91.5t18.5 -121v-864l-288 -24v781zM1516 1600v-288l-288 -1v287zM1069 -96q56 0 88 8t47.5 25.5t19.5 46t4 70.5v1074
l288 24v-1098q0 -81 -4 -145t-28 -107.5t-75.5 -66.5t-147.5 -23q-40 0 -87.5 4.5t-104.5 14.5v173z" />
    <glyph glyph-name="uni01D3" unicode="&#x1d3;" horiz-adv-x="1163" 
d="M132 1524l300 12v-1054q0 -46 3 -92t19.5 -83t50 -60.5t95.5 -23.5q58 0 89.5 24t46.5 62t17.5 84.5t2.5 91.5v1027l275 24v-995q0 -44 -2 -103.5t-14.5 -123t-40.5 -126t-80.5 -111.5t-134 -79t-200.5 -30q-111 0 -191.5 43.5t-133 117t-77.5 171.5t-25 206v1018z
M456 2112l116 -290l96 290h250l-230 -480h-202l-240 480h210z" />
    <glyph glyph-name="uni01D4" unicode="&#x1d4;" 
d="M404 381q0 -85 26 -119t69 -34q20 0 42.5 7.5t47.5 20.5t51 29t52 33v810l288 24v-1140l-288 -24v147q-84 -75 -166 -118.5t-154 -43.5q-56 0 -103 20.5t-81 58t-53 91.5t-19 121v864l288 24v-771zM425 1728l116 -290l96 290h250l-230 -480h-202l-240 480h210z" />
    <glyph glyph-name="AEmacron" unicode="&#x1e2;" horiz-adv-x="1580" 
d="M769 0l16 329h-335l-130 -329h-327l661 1518l204 18h656l-24 -240h-386v-366h253l-1 -258h-252v-432h426l-24 -240h-737zM786 575l22 735l-259 -735h237zM804 1827h576v-192h-576v192z" />
    <glyph glyph-name="aemacron" unicode="&#x1e3;" horiz-adv-x="1456" 
d="M849 536q0 -54 7 -116t23.5 -114t43.5 -86.5t66 -34.5q34 0 62 27t49 61t33.5 64t15.5 36l218 -83q-20 -70 -53 -128t-80 -100t-109 -65.5t-141 -23.5q-87 0 -154 45t-117 126q-26 -50 -65.5 -83t-86 -52.5t-97 -27.5t-99.5 -8q-70 0 -127.5 26.5t-98 74t-63 112
t-22.5 141.5q0 82 23.5 143.5t63 106t91.5 74.5t108.5 48.5t113.5 28t107 12.5q0 40 -1 78.5t-9 69t-25 49.5t-48 19q-26 0 -44.5 -11.5t-31 -30t-19 -42t-9.5 -46.5l-280 49q11 86 49 142.5t91.5 89.5t117 46.5t126.5 13.5q83 0 143 -36t102 -99q54 63 121 99t150 36
q103 0 180 -43.5t129 -122.5t78 -189t26 -242l-4 -14q-2 -6 -3 -11.5t-1 -8.5h-550zM336 331q0 -68 27.5 -110t86.5 -42q24 0 44.5 18.5t35.5 47.5t23 65.5t8 71.5v186q-48 0 -89 -12t-71.5 -40t-47.5 -73.5t-17 -111.5zM1124 702q0 57 -7.5 106t-23.5 84.5t-41.5 56
t-62.5 20.5q-26 0 -50.5 -19.5t-44 -53.5t-32 -81t-13.5 -102v-11h275zM417 1440h576v-192h-576v192z" />
    <glyph glyph-name="uni01F1" unicode="&#x1f1;" horiz-adv-x="2125" 
d="M142 1536h314q303 0 453 -191.5t150 -582.5q0 -97 -13 -191.5t-40.5 -179t-70.5 -156.5t-104 -124t-141 -81.5t-181 -29.5h-367v1536zM441 1296v-1056h43q57 0 100 19.5t73.5 53.5t50 79.5t31 97t16 106.5t4.5 109v112q0 63 -6 128.5t-22 128.5t-47 112.5t-81.5 79.5
t-126.5 30h-35zM1698 1296h-483l24 240h813v-199l-514 -1097h528l-48 -240h-850v190z" />
    <glyph glyph-name="uni01F2" unicode="&#x1f2;" horiz-adv-x="2013" 
d="M142 1536h314q303 0 453 -191.5t150 -582.5q0 -97 -13 -191.5t-40.5 -179t-70.5 -156.5t-104 -124t-141 -81.5t-181 -29.5h-367v1536zM441 1296v-1056h43q57 0 100 19.5t73.5 53.5t50 79.5t31 97t16 106.5t4.5 109v112q0 63 -6 128.5t-22 128.5t-47 112.5t-81.5 79.5
t-126.5 30h-35zM1966 234l-24 -234h-757v181l395 744h-365l24 227h685v-170l-388 -748h430z" />
    <glyph glyph-name="uni01F3" unicode="&#x1f3;" horiz-adv-x="1948" 
d="M726 -12l-70 156q-13 -48 -44 -86q-13 -16 -31.5 -31.5t-43.5 -27.5t-56.5 -19t-71.5 -7q-79 0 -140.5 35.5t-104 110t-64.5 188t-22 269.5q0 159 17.5 271.5t56 183.5t98.5 103.5t145 32.5q24 0 48.5 -7t47.5 -19t44.5 -27t39.5 -31q43 -37 81 -83v500l288 36v-1524z
M656 864q-21 26 -44 46q-20 17 -45 31.5t-51 14.5q-53 0 -83 -29.5t-45 -81t-18.5 -121t-3.5 -148.5q0 -80 3.5 -152t18.5 -126.5t45 -86.5t83 -32q26 0 51 13.5t45 47t32 92t12 148.5v384zM1901 234l-24 -234h-757v181l395 744h-365l24 227h685v-170l-388 -748h430z" />
    <glyph glyph-name="AEacute" unicode="&#x1fc;" horiz-adv-x="1580" 
d="M769 0l16 329h-335l-130 -329h-327l661 1518l204 18h656l-24 -240h-386v-366h253l-1 -258h-252v-432h426l-24 -240h-737zM786 575l22 735l-259 -735h237zM941 1730l297 447l227 -202l-411 -346z" />
    <glyph glyph-name="aeacute" unicode="&#x1fd;" horiz-adv-x="1456" 
d="M849 536q0 -54 7 -116t23.5 -114t43.5 -86.5t66 -34.5q34 0 62 27t49 61t33.5 64t15.5 36l218 -83q-20 -70 -53 -128t-80 -100t-109 -65.5t-141 -23.5q-87 0 -154 45t-117 126q-26 -50 -65.5 -83t-86 -52.5t-97 -27.5t-99.5 -8q-70 0 -127.5 26.5t-98 74t-63 112
t-22.5 141.5q0 82 23.5 143.5t63 106t91.5 74.5t108.5 48.5t113.5 28t107 12.5q0 40 -1 78.5t-9 69t-25 49.5t-48 19q-26 0 -44.5 -11.5t-31 -30t-19 -42t-9.5 -46.5l-280 49q11 86 49 142.5t91.5 89.5t117 46.5t126.5 13.5q83 0 143 -36t102 -99q54 63 121 99t150 36
q103 0 180 -43.5t129 -122.5t78 -189t26 -242l-4 -14q-2 -6 -3 -11.5t-1 -8.5h-550zM336 331q0 -68 27.5 -110t86.5 -42q24 0 44.5 18.5t35.5 47.5t23 65.5t8 71.5v186q-48 0 -89 -12t-71.5 -40t-47.5 -73.5t-17 -111.5zM1124 702q0 57 -7.5 106t-23.5 84.5t-41.5 56
t-62.5 20.5q-26 0 -50.5 -19.5t-44 -53.5t-32 -81t-13.5 -102v-11h275zM419 1346l297 447l227 -202l-411 -346z" />
    <glyph glyph-name="Oslashacute" unicode="&#x1fe;" horiz-adv-x="1129" 
d="M562 -32q-68 0 -123.5 16t-100.5 45t-80 71t-62 93l-72 -87l-95 92l112 136q-31 108 -42.5 231.5t-11.5 254.5q0 169 27.5 307t85.5 236t147.5 151.5t214.5 53.5q139 0 235.5 -66t153.5 -185l84 102l95 -92l-128 -156q38 -155 38 -351q0 -108 -8 -213t-28.5 -199.5
t-55 -175t-87.5 -139.5t-127 -92t-172 -33zM386 820v-97q0 -46 2 -89l341 414q-6 55 -18 105.5t-31.5 89.5t-48.5 62.5t-69 23.5q-41 0 -70 -24.5t-48.5 -65t-31 -93.5t-17.5 -109.5t-7.5 -112.5t-1.5 -104zM562 223q60 0 95.5 41.5t54 119t23.5 188t5 248.5v33l-337 -409
q15 -106 51.5 -163.5t107.5 -57.5zM557 1730l297 447l227 -202l-411 -346z" />
    <glyph glyph-name="oslashacute" unicode="&#x1ff;" horiz-adv-x="1006" 
d="M502 -27q-88 0 -157 29t-122 83l-91 -116l-77 68l105 133q-45 78 -67.5 181t-22.5 226q0 129 27 237.5t81 187t135 122t189 43.5q104 0 183 -42t134 -118l87 110l77 -68l-110 -139q61 -140 61 -333q0 -134 -28 -245t-82.5 -190.5t-135.5 -124t-186 -44.5zM358 577
q0 -33 0.5 -72t3.5 -79l273 347q-5 38 -15 72.5t-25.5 61t-38.5 42t-55 15.5q-36 0 -60.5 -19t-40.5 -50.5t-24.5 -72t-12.5 -83.5t-4.5 -85t-0.5 -77zM500 187q35 0 60 19t41 50.5t25 72t13 84t5 86t1 78.5v43l-260 -330q15 -45 42.5 -74t72.5 -29zM378 1346l297 447
l227 -202l-411 -346z" />
    <glyph glyph-name="uni0200" unicode="&#x200;" horiz-adv-x="1130" 
d="M359 329l-67 -329h-267l324 1518l427 18l332 -1524l-327 -12l-57 329h-365zM670 575l-141 735l-116 -735h257zM761 1592l-293 458l270 139l160 -527zM383 1590l-384 384l234 194l269 -480z" />
    <glyph glyph-name="uni0201" unicode="&#x201;" horiz-adv-x="968" 
d="M56 327q0 82 23.5 143.5t63 106t91.5 74.5t108.5 48.5t113.5 28t107 12.5q0 40 -1 78.5t-9 69t-25 49.5t-48 19q-26 0 -44.5 -11.5t-31 -30t-19 -42t-9.5 -46.5l-280 49q11 86 49 142.5t91.5 89.5t117 46.5t126.5 13.5q98 0 168 -27.5t115 -75.5t66.5 -112.5t21.5 -138.5
v-596q0 -34 4.5 -70t10.5 -66q7 -35 16 -69l-280 -24l-32 141q-17 -31 -44.5 -59t-61.5 -49.5t-72 -34.5t-75 -13q-59 0 -107 26.5t-82.5 74t-53 112t-18.5 141.5zM338 331q0 -68 27.5 -110t86.5 -42q20 0 39.5 10.5t35.5 23.5q18 15 36 34v321q-48 0 -89 -12t-71.5 -40
t-47.5 -73.5t-17 -111.5zM666 1210l-293 458l270 139l160 -527zM288 1208l-384 384l234 194l269 -480z" />
    <glyph glyph-name="uni0202" unicode="&#x202;" horiz-adv-x="1131" 
d="M359 329l-67 -329h-267l324 1518l427 18l332 -1524l-327 -12l-57 329h-365zM670 575l-141 735l-116 -735h257zM135 1632q0 46 8.5 99t28.5 106.5t53 103t81 87.5t112.5 61t148.5 23t148.5 -23t112.5 -61t81 -87.5t53 -103t28.5 -107t8.5 -98.5h-240q0 36 -3 78t-21 78
t-57 60t-111 24t-111 -24t-57 -60t-21 -78t-3 -78h-240z" />
    <glyph glyph-name="uni0203" unicode="&#x203;" horiz-adv-x="968" 
d="M56 327q0 82 23.5 143.5t63 106t91.5 74.5t108.5 48.5t113.5 28t107 12.5q0 40 -1 78.5t-9 69t-25 49.5t-48 19q-26 0 -44.5 -11.5t-31 -30t-19 -42t-9.5 -46.5l-280 49q11 86 49 142.5t91.5 89.5t117 46.5t126.5 13.5q98 0 168 -27.5t115 -75.5t66.5 -112.5t21.5 -138.5
v-596q0 -34 4.5 -70t10.5 -66q7 -35 16 -69l-280 -24l-32 141q-17 -31 -44.5 -59t-61.5 -49.5t-72 -34.5t-75 -13q-59 0 -107 26.5t-82.5 74t-53 112t-18.5 141.5zM338 331q0 -68 27.5 -110t86.5 -42q20 0 39.5 10.5t35.5 23.5q18 15 36 34v321q-48 0 -89 -12t-71.5 -40
t-47.5 -73.5t-17 -111.5zM53 1248q0 46 8.5 99t28.5 106.5t53 103t81 87.5t112.5 61t148.5 23t148.5 -23t112.5 -61t81 -87.5t53 -103t28.5 -107t8.5 -98.5h-240q0 36 -3 78t-21 78t-57 60t-111 24t-111 -24t-57 -60t-21 -78t-3 -78h-240z" />
    <glyph glyph-name="uni0204" unicode="&#x204;" horiz-adv-x="988" 
d="M142 1536h780l-24 -240h-456v-366h323l-1 -258h-322v-432h496l-24 -240h-772v1536zM802 1609l-293 458l270 139l160 -527zM424 1607l-384 384l234 194l269 -480z" />
    <glyph glyph-name="uni0205" unicode="&#x205;" horiz-adv-x="964" 
d="M357 536q0 -54 7 -116t23.5 -114t43.5 -86.5t66 -34.5q34 0 62 27t49 61t33.5 64t15.5 36l218 -83q-20 -70 -53 -128t-80 -100t-109 -65.5t-141 -23.5q-105 0 -184.5 44t-132 123t-79 189t-26.5 241q0 132 27 242t81 189t135 122.5t189 43.5q103 0 180 -43.5t129 -122.5
t78 -189t26 -242l-4 -14q-2 -6 -3 -11.5t-1 -8.5h-550zM632 702q0 57 -7.5 106t-23.5 84.5t-41.5 56t-62.5 20.5q-26 0 -51.5 -20.5t-45 -56t-31.5 -84.5t-12 -106h275zM691 1250l-293 458l270 139l160 -527zM313 1248l-384 384l234 194l269 -480z" />
    <glyph glyph-name="uni0206" unicode="&#x206;" horiz-adv-x="988" 
d="M142 1536h780l-24 -240h-456v-366h323l-1 -258h-322v-432h496l-24 -240h-772v1536zM85 1632q0 46 8.5 99t28.5 106.5t53 103t81 87.5t112.5 61t148.5 23t148.5 -23t112.5 -61t81 -87.5t53 -103t28.5 -107t8.5 -98.5h-240q0 36 -3 78t-21 78t-57 60t-111 24t-111 -24
t-57 -60t-21 -78t-3 -78h-240z" />
    <glyph glyph-name="uni0207" unicode="&#x207;" horiz-adv-x="965" 
d="M357 536q0 -54 7 -116t23.5 -114t43.5 -86.5t66 -34.5q34 0 62 27t49 61t33.5 64t15.5 36l218 -83q-20 -70 -53 -128t-80 -100t-109 -65.5t-141 -23.5q-105 0 -184.5 44t-132 123t-79 189t-26.5 241q0 132 27 242t81 189t135 122.5t189 43.5q103 0 180 -43.5t129 -122.5
t78 -189t26 -242l-4 -14q-2 -6 -3 -11.5t-1 -8.5h-550zM632 702q0 57 -7.5 106t-23.5 84.5t-41.5 56t-62.5 20.5q-26 0 -51.5 -20.5t-45 -56t-31.5 -84.5t-12 -106h275zM51 1248q0 46 8.5 99t28.5 106.5t53 103t81 87.5t112.5 61t148.5 23t148.5 -23t112.5 -61t81 -87.5
t53 -103t28.5 -107t8.5 -98.5h-240q0 36 -3 78t-21 78t-57 60t-111 24t-111 -24t-57 -60t-21 -78t-3 -78h-240z" />
    <glyph glyph-name="uni0208" unicode="&#x208;" horiz-adv-x="582" 
d="M142 1512l300 24v-1524l-300 -24v1524zM515 1634l-293 458l270 139l160 -527zM137 1632l-384 384l234 194l269 -480z" />
    <glyph glyph-name="uni0209" unicode="&#x209;" horiz-adv-x="535" 
d="M124 1128l288 24v-1140l-288 -24v1140zM470 1250l-293 458l270 139l160 -527zM92 1248l-384 384l234 194l269 -480z" />
    <glyph glyph-name="uni020A" unicode="&#x20a;" horiz-adv-x="582" 
d="M142 1512l300 24v-1524l-300 -24v1524zM-141 1632q0 46 8.5 99t28.5 106.5t53 103t81 87.5t112.5 61t148.5 23t148.5 -23t112.5 -61t81 -87.5t53 -103t28.5 -107t8.5 -98.5h-240q0 36 -3 78t-21 78t-57 60t-111 24t-111 -24t-57 -60t-21 -78t-3 -78h-240z" />
    <glyph glyph-name="uni020B" unicode="&#x20b;" horiz-adv-x="536" 
d="M124 1128l288 24v-1140l-288 -24v1140zM-168 1248q0 46 8.5 99t28.5 106.5t53 103t81 87.5t112.5 61t148.5 23t148.5 -23t112.5 -61t81 -87.5t53 -103t28.5 -107t8.5 -98.5h-240q0 36 -3 78t-21 78t-57 60t-111 24t-111 -24t-57 -60t-21 -78t-3 -78h-240z" />
    <glyph glyph-name="uni020C" unicode="&#x20c;" horiz-adv-x="1125" 
d="M561 -32q-98 0 -171.5 33t-126.5 92t-87 139.5t-54 175t-28 199.5t-8 213q0 162 27.5 300t85.5 236t147.5 151.5t214.5 53.5t215.5 -53.5t149 -151.5t86 -236t27.5 -300q0 -108 -8 -213t-28.5 -199.5t-55 -175t-87.5 -139.5t-127 -92t-172 -33zM561 223q60 0 95.5 41.5
t54 119t23.5 188t5 248.5q0 48 -1.5 100.5t-7.5 109t-17.5 109.5t-31.5 93.5t-49.5 65t-70.5 24.5t-70 -24.5t-48.5 -65t-31 -93.5t-17.5 -109.5t-7.5 -109t-1.5 -100.5q0 -138 5 -248.5t23 -188t53 -119t95 -41.5zM782 1634l-293 458l270 139l160 -527zM404 1632l-384 384
l234 194l269 -480z" />
    <glyph glyph-name="uni020D" unicode="&#x20d;" horiz-adv-x="1002" 
d="M502 -27q-108 0 -189 44.5t-135 124t-81 190.5t-27 245q0 129 27 237.5t81 187t135 122t189 43.5q105 0 186 -43.5t135.5 -122t82.5 -187t28 -237.5q0 -134 -28 -245t-82.5 -190.5t-135.5 -124t-186 -44.5zM500 187q35 0 60 19t41 50.5t25 72t13 84t5 86t1 78.5
q0 35 -1 77t-5 85t-13 83.5t-25 72t-40.5 50.5t-59.5 19q-36 0 -60.5 -19t-40.5 -50.5t-24.5 -72t-12.5 -83.5t-4.5 -85t-0.5 -77q0 -36 0.5 -78.5t4.5 -86t12.5 -84t24 -72t40 -50.5t60.5 -19zM689 1250l-293 458l270 139l160 -527zM311 1248l-384 384l234 194l269 -480z
" />
    <glyph glyph-name="uni020E" unicode="&#x20e;" horiz-adv-x="1125" 
d="M561 -32q-98 0 -171.5 33t-126.5 92t-87 139.5t-54 175t-28 199.5t-8 213q0 162 27.5 300t85.5 236t147.5 151.5t214.5 53.5t215.5 -53.5t149 -151.5t86 -236t27.5 -300q0 -108 -8 -213t-28.5 -199.5t-55 -175t-87.5 -139.5t-127 -92t-172 -33zM561 223q60 0 95.5 41.5
t54 119t23.5 188t5 248.5q0 48 -1.5 100.5t-7.5 109t-17.5 109.5t-31.5 93.5t-49.5 65t-70.5 24.5t-70 -24.5t-48.5 -65t-31 -93.5t-17.5 -109.5t-7.5 -109t-1.5 -100.5q0 -138 5 -248.5t23 -188t53 -119t95 -41.5zM130 1632q0 46 8.5 99t28.5 106.5t53 103t81 87.5
t112.5 61t148.5 23t148.5 -23t112.5 -61t81 -87.5t53 -103t28.5 -107t8.5 -98.5h-240q0 36 -3 78t-21 78t-57 60t-111 24t-111 -24t-57 -60t-21 -78t-3 -78h-240z" />
    <glyph glyph-name="uni020F" unicode="&#x20f;" horiz-adv-x="1003" 
d="M502 -27q-108 0 -189 44.5t-135 124t-81 190.5t-27 245q0 129 27 237.5t81 187t135 122t189 43.5q105 0 186 -43.5t135.5 -122t82.5 -187t28 -237.5q0 -134 -28 -245t-82.5 -190.5t-135.5 -124t-186 -44.5zM500 187q35 0 60 19t41 50.5t25 72t13 84t5 86t1 78.5
q0 35 -1 77t-5 85t-13 83.5t-25 72t-40.5 50.5t-59.5 19q-36 0 -60.5 -19t-40.5 -50.5t-24.5 -72t-12.5 -83.5t-4.5 -85t-0.5 -77q0 -36 0.5 -78.5t4.5 -86t12.5 -84t24 -72t40 -50.5t60.5 -19zM72 1248q0 46 8.5 99t28.5 106.5t53 103t81 87.5t112.5 61t148.5 23t148.5 -23
t112.5 -61t81 -87.5t53 -103t28.5 -107t8.5 -98.5h-240q0 36 -3 78t-21 78t-57 60t-111 24t-111 -24t-57 -60t-21 -78t-3 -78h-240z" />
    <glyph glyph-name="uni0210" unicode="&#x210;" horiz-adv-x="1156" 
d="M142 -12v1536l364 12q126 0 230 -24.5t178.5 -77t115 -133.5t40.5 -193q0 -75 -16 -135t-45 -107t-69.5 -83t-89.5 -64q0 -1 12 -30t31.5 -76t44 -107t50.5 -122q61 -146 139 -331l-295 -80l-274 700h-117v-661zM441 895h102q45 0 86 7.5t72.5 30t50 63.5t18.5 109
q0 54 -14.5 90.5t-40 59t-60 32t-74.5 9.5h-140v-401zM776 1634l-293 458l270 139l160 -527zM398 1632l-384 384l234 194l269 -480z" />
    <glyph glyph-name="uni0211" unicode="&#x211;" horiz-adv-x="831" 
d="M124 1128l288 24v-185q25 33 59 68.5t77.5 64.5t96.5 48t116 19q5 0 11 -0.5t11 -1.5q6 -1 13 -2v-343q-47 14 -95 29t-97 15q-48 0 -95 -21t-97 -75v-756l-288 -24v1140zM643 1250l-293 458l270 139l160 -527zM265 1248l-384 384l234 194l269 -480z" />
    <glyph glyph-name="uni0212" unicode="&#x212;" horiz-adv-x="1156" 
d="M142 -12v1536l364 12q126 0 230 -24.5t178.5 -77t115 -133.5t40.5 -193q0 -75 -16 -135t-45 -107t-69.5 -83t-89.5 -64q0 -1 12 -30t31.5 -76t44 -107t50.5 -122q61 -146 139 -331l-295 -80l-274 700h-117v-661zM441 895h102q45 0 86 7.5t72.5 30t50 63.5t18.5 109
q0 54 -14.5 90.5t-40 59t-60 32t-74.5 9.5h-140v-401zM157 1632q0 46 8.5 99t28.5 106.5t53 103t81 87.5t112.5 61t148.5 23t148.5 -23t112.5 -61t81 -87.5t53 -103t28.5 -107t8.5 -98.5h-240q0 36 -3 78t-21 78t-57 60t-111 24t-111 -24t-57 -60t-21 -78t-3 -78h-240z" />
    <glyph glyph-name="uni0213" unicode="&#x213;" horiz-adv-x="831" 
d="M124 1128l288 24v-185q25 33 59 68.5t77.5 64.5t96.5 48t116 19q5 0 11 -0.5t11 -1.5q6 -1 13 -2v-343q-47 14 -95 29t-97 15q-48 0 -95 -21t-97 -75v-756l-288 -24v1140zM-46 1248q0 46 8.5 99t28.5 106.5t53 103t81 87.5t112.5 61t148.5 23t148.5 -23t112.5 -61
t81 -87.5t53 -103t28.5 -107t8.5 -98.5h-240q0 36 -3 78t-21 78t-57 60t-111 24t-111 -24t-57 -60t-21 -78t-3 -78h-240z" />
    <glyph glyph-name="uni0214" unicode="&#x214;" horiz-adv-x="1163" 
d="M132 1524l300 12v-1054q0 -46 3 -92t19.5 -83t50 -60.5t95.5 -23.5q58 0 89.5 24t46.5 62t17.5 84.5t2.5 91.5v1027l275 24v-995q0 -44 -2 -103.5t-14.5 -123t-40.5 -126t-80.5 -111.5t-134 -79t-200.5 -30q-111 0 -191.5 43.5t-133 117t-77.5 171.5t-25 206v1018z
M815 1634l-293 458l270 139l160 -527zM437 1632l-384 384l234 194l269 -480z" />
    <glyph glyph-name="uni0215" unicode="&#x215;" 
d="M404 381q0 -85 26 -119t69 -34q20 0 42.5 7.5t47.5 20.5t51 29t52 33v810l288 24v-1140l-288 -24v147q-84 -75 -166 -118.5t-154 -43.5q-56 0 -103 20.5t-81 58t-53 91.5t-19 121v864l288 24v-771zM793 1250l-293 458l270 139l160 -527zM415 1248l-384 384l234 194
l269 -480z" />
    <glyph glyph-name="uni0216" unicode="&#x216;" horiz-adv-x="1163" 
d="M132 1524l300 12v-1054q0 -46 3 -92t19.5 -83t50 -60.5t95.5 -23.5q58 0 89.5 24t46.5 62t17.5 84.5t2.5 91.5v1027l275 24v-995q0 -44 -2 -103.5t-14.5 -123t-40.5 -126t-80.5 -111.5t-134 -79t-200.5 -30q-111 0 -191.5 43.5t-133 117t-77.5 171.5t-25 206v1018z
M150 1632q0 46 8.5 99t28.5 106.5t53 103t81 87.5t112.5 61t148.5 23t148.5 -23t112.5 -61t81 -87.5t53 -103t28.5 -107t8.5 -98.5h-240q0 36 -3 78t-21 78t-57 60t-111 24t-111 -24t-57 -60t-21 -78t-3 -78h-240z" />
    <glyph glyph-name="uni0217" unicode="&#x217;" 
d="M404 381q0 -85 26 -119t69 -34q20 0 42.5 7.5t47.5 20.5t51 29t52 33v810l288 24v-1140l-288 -24v147q-84 -75 -166 -118.5t-154 -43.5q-56 0 -103 20.5t-81 58t-53 91.5t-19 121v864l288 24v-771zM119 1248q0 46 8.5 99t28.5 106.5t53 103t81 87.5t112.5 61t148.5 23
t148.5 -23t112.5 -61t81 -87.5t53 -103t28.5 -107t8.5 -98.5h-240q0 36 -3 78t-21 78t-57 60t-111 24t-111 -24t-57 -60t-21 -78t-3 -78h-240z" />
    <glyph glyph-name="Scommaaccent" unicode="&#x218;" horiz-adv-x="1092" 
d="M739 1141q-18 38 -33.5 72t-36 60t-49.5 41t-74 15q-35 0 -61.5 -13t-43.5 -35t-25.5 -51t-8.5 -61q0 -26 8 -49t21.5 -42t30.5 -34.5t34 -25.5l248 -145q88 -50 144 -105t87.5 -109t43.5 -104.5t14 -91.5q0 -111 -37.5 -202.5t-103.5 -156.5t-155.5 -100.5t-193.5 -35.5
q-96 0 -176 29t-142.5 80.5t-108 122t-73.5 152.5l254 119q22 -36 48 -79.5t58 -81t73 -62.5t95 -25q27 0 51.5 12.5t43 34t30 49t11.5 57.5q0 61 -29.5 107t-72.5 74l-269 159q-56 32 -102.5 73t-81 90.5t-53.5 106.5t-19 122q0 102 36.5 186.5t100 145.5t151 94.5
t189.5 33.5q156 0 267 -79.5t164 -232.5zM656 -96v-288q0 -54 -10.5 -95t-27 -71.5t-38.5 -51.5t-44 -34q-53 -32 -120 -36v192q36 0 55.5 15t28.5 33q11 21 12 48h-144v288h288z" />
    <glyph glyph-name="scommaaccent" unicode="&#x219;" horiz-adv-x="924" 
d="M282 337q9 -39 31 -69q18 -26 51 -47t86 -21q20 0 45.5 4.5t47.5 15.5t37 28.5t15 44.5q0 37 -26 61t-61 38l-241 98q-97 39 -148.5 121.5t-51.5 202.5q0 86 33 152t87 110.5t124 67.5t145 23q62 0 122.5 -18t112.5 -53.5t90.5 -87.5t57.5 -119l-236 -73q-11 38 -30 69
q-17 26 -45 47.5t-70 21.5q-23 0 -45 -5t-39.5 -16.5t-28.5 -29t-11 -41.5q0 -19 10.5 -34.5t26 -27.5t32.5 -21t31 -15l205 -85q48 -22 90.5 -51t74 -69t49.5 -93.5t18 -123.5q0 -93 -35 -162t-92 -115t-129 -69t-146 -23q-88 0 -157 20.5t-120 58.5t-84 92t-48 121z
M656 -96v-288q0 -54 -10.5 -95t-27 -71.5t-38.5 -51.5t-44 -34q-53 -32 -120 -36v192q36 0 55.5 15t28.5 33q11 21 12 48h-144v288h288z" />
    <glyph glyph-name="uni021A" unicode="&#x21a;" horiz-adv-x="977" 
d="M30 1296l24 240h900l-24 -240h-287v-1284l-300 -24v1308h-313zM642 -89v-288q0 -54 -10.5 -95t-27 -71.5t-38.5 -51.5t-44 -34q-53 -32 -120 -36v192q36 0 55.5 15t28.5 33q11 21 12 48h-144v288h288z" />
    <glyph glyph-name="uni021B" unicode="&#x21b;" horiz-adv-x="734" 
d="M199 1152l29 250l250 36v-286h236l-12 -216h-223v-635q0 -34 14 -55.5t35.5 -33.5t47.5 -16t50 -4q31 0 51 3q11 2 21 4v-198q-22 -8 -54 -14q-27 -5 -68 -9.5t-98 -4.5q-47 0 -97.5 13.5t-92.5 45t-69.5 83.5t-27.5 129v692h-161l12 216h157zM593 -93v-288
q0 -54 -10.5 -95t-27 -71.5t-38.5 -51.5t-44 -34q-53 -32 -120 -36v192q36 0 55.5 15t28.5 33q11 21 12 48h-144v288h288z" />
    <glyph glyph-name="dotlessj" unicode="&#x237;" horiz-adv-x="536" 
d="M-35 -96q56 0 88 8t47.5 25.5t19.5 46t4 70.5v1074l288 24v-1098q0 -81 -4 -145t-28 -107.5t-75.5 -66.5t-147.5 -23q-40 0 -87.5 4.5t-104.5 14.5v173z" />
    <glyph glyph-name="schwa" unicode="&#x259;" horiz-adv-x="965" 
d="M608 604q0 54 -7 116t-23.5 114t-43.5 86.5t-66 34.5q-34 0 -62 -27t-49 -61t-33.5 -64t-15.5 -36l-218 83q20 70 53 128t80 100t109 65.5t141 23.5q105 0 184.5 -44t132 -123t79 -189t26.5 -241q0 -132 -27 -243t-81 -190.5t-135 -124t-189 -44.5q-103 0 -180.5 44.5
t-129 124t-77.5 190.5t-26 243l4 14q2 5 3 11t1 9h550zM333 438q0 -57 7.5 -106.5t23.5 -86.5t41.5 -58t62.5 -21q26 0 51.5 21t45 58t31.5 86.5t12 106.5h-275z" />
    <glyph glyph-name="circumflex" unicode="&#x2c6;" horiz-adv-x="739" 
d="M32 1248l240 480h202l230 -480h-250l-96 290l-116 -290h-210z" />
    <glyph glyph-name="caron" unicode="&#x2c7;" horiz-adv-x="768" 
d="M242 1728l116 -290l96 290h250l-230 -480h-202l-240 480h210z" />
    <glyph glyph-name="breve" unicode="&#x2d8;" horiz-adv-x="1018" 
d="M317 1728q0 -36 3 -78t21 -78t57 -60t111 -24t111 24t57 60t21 78t3 78h240q0 -46 -8.5 -99t-28.5 -106.5t-53 -103t-81 -87.5t-112.5 -61t-148.5 -23t-148.5 23t-112.5 61t-81 87.5t-53 103t-28.5 106.5t-8.5 99h240z" />
    <glyph glyph-name="dotaccent" unicode="&#x2d9;" horiz-adv-x="608" 
d="M450 1538v-288l-288 -1v287z" />
    <glyph glyph-name="ring" unicode="&#x2da;" horiz-adv-x="789" 
d="M395 1248q-59 0 -115 17t-100 50.5t-71 85t-27 120.5q0 68 27 119t71 84.5t100 50.5t115 17q58 0 114 -17t100 -50.5t71 -84.5t27 -119q0 -69 -27 -120.5t-71 -85t-100 -50.5t-114 -17zM394 1407q23 0 45 7t39.5 21.5t28.5 35.5t11 49q0 27 -11 47.5t-28 34.5t-39.5 21.5
t-44.5 7.5q-23 0 -45.5 -7.5t-40 -21.5t-28 -34.5t-10.5 -47.5q0 -28 10.5 -49t28 -35.5t39.5 -21.5t45 -7z" />
    <glyph glyph-name="ogonek" unicode="&#x2db;" horiz-adv-x="544" 
d="M294 -101q-5 -18 -5 -29q0 -35 23 -48t56 -13q20 0 42 3.5t42 9t37 11.5t28 11v-165q-29 -31 -83.5 -47.5t-114.5 -16.5q-44 0 -86.5 9.5t-75.5 30t-53.5 52t-20.5 75.5q0 16 4.5 33t12.5 37l62 168h162z" />
    <glyph glyph-name="tilde" unicode="&#x2dc;" horiz-adv-x="860" 
d="M118 1415q30 34 63 61q28 23 62 42t68 19q40 0 72 -12.5t61.5 -27.5t57.5 -27.5t60 -12.5q38 0 66.5 12.5t46.5 27.5q21 18 36 40l44 -162q0 -1 -13 -24t-37.5 -50t-60 -49t-80.5 -22q-36 0 -65.5 16t-59.5 34.5t-63 34.5t-76 16q-31 0 -61 -15.5t-53 -34.5
q-28 -22 -53 -50z" />
    <glyph glyph-name="hungarumlaut" unicode="&#x2dd;" horiz-adv-x="1102" 
d="M564 1248l269 480l234 -194l-384 -384zM61 1248l269 480l234 -194l-384 -384z" />
    <glyph glyph-name="uni030F" unicode="&#x30f;" horiz-adv-x="1102" 
d="M762 1250l-293 458l270 139l160 -527zM384 1248l-384 384l234 194l269 -480z" />
    <glyph glyph-name="uni0311" unicode="&#x311;" horiz-adv-x="1018" 
d="M77 1248q0 46 8.5 99t28.5 106.5t53 103t81 87.5t112.5 61t148.5 23t148.5 -23t112.5 -61t81 -87.5t53 -103t28.5 -107t8.5 -98.5h-240q0 36 -3 78t-21 78t-57 60t-111 24t-111 -24t-57 -60t-21 -78t-3 -78h-240z" />
    <glyph glyph-name="Sigma" unicode="&#x3a3;" horiz-adv-x="1008" 
d="M581 1296h-483l24 240h813v-199l-514 -1097h528l-48 -240h-850v190z" />
    <glyph glyph-name="uni03A9" unicode="&#x3a9;" horiz-adv-x="427" 
 />
    <glyph glyph-name="pi" unicode="&#x3c0;" horiz-adv-x="1198" 
d="M788 1123l288 24v-1140l-288 -24v1140zM124 1128l288 24v-1140l-288 -24v1140zM17 1169h1152v-238h-1152v238z" />
    <glyph glyph-name="uni1E46" unicode="&#x1e46;" horiz-adv-x="1245" 
d="M409 948v-936l-268 -12v1524l313 12l396 -914v890l254 24v-1524l-246 -24zM766 -55v-276l-288 -24v300h288z" />
    <glyph glyph-name="uni1E47" unicode="&#x1e47;" horiz-adv-x="1105" 
d="M701 769q0 85 -29 119t-76 34q-38 0 -85.5 -25t-97.5 -55v-830l-288 -24v1140l288 24v-147q86 75 171 118.5t159 43.5q54 0 99 -20.5t77.5 -58t51 -91.5t18.5 -121v-864l-288 -24v781zM706 -55v-276l-288 -24v300h288z" />
    <glyph glyph-name="uni1E62" unicode="&#x1e62;" horiz-adv-x="1091" 
d="M692 -151v-288l-288 -1v287zM739 1141q-18 38 -33.5 72t-36 60t-49.5 41t-74 15q-35 0 -61.5 -13t-43.5 -35t-25.5 -51t-8.5 -61q0 -26 8 -49t21.5 -42t30.5 -34.5t34 -25.5l248 -145q88 -50 144 -105t87.5 -109t43.5 -104.5t14 -91.5q0 -111 -37.5 -202.5t-103.5 -156.5
t-155.5 -100.5t-193.5 -35.5q-96 0 -176 29t-142.5 80.5t-108 122t-73.5 152.5l254 119q22 -36 48 -79.5t58 -81t73 -62.5t95 -25q27 0 51.5 12.5t43 34t30 49t11.5 57.5q0 61 -29.5 107t-72.5 74l-269 159q-56 32 -102.5 73t-81 90.5t-53.5 106.5t-19 122q0 102 36.5 186.5
t100 145.5t151 94.5t189.5 33.5q156 0 267 -79.5t164 -232.5z" />
    <glyph glyph-name="uni1E63" unicode="&#x1e63;" horiz-adv-x="924" 
d="M282 337q9 -39 31 -69q18 -26 51 -47t86 -21q20 0 45.5 4.5t47.5 15.5t37 28.5t15 44.5q0 37 -26 61t-61 38l-241 98q-97 39 -148.5 121.5t-51.5 202.5q0 86 33 152t87 110.5t124 67.5t145 23q62 0 122.5 -18t112.5 -53.5t90.5 -87.5t57.5 -119l-236 -73q-11 38 -30 69
q-17 26 -45 47.5t-70 21.5q-23 0 -45 -5t-39.5 -16.5t-28.5 -29t-11 -41.5q0 -19 10.5 -34.5t26 -27.5t32.5 -21t31 -15l205 -85q48 -22 90.5 -51t74 -69t49.5 -93.5t18 -123.5q0 -93 -35 -162t-92 -115t-129 -69t-146 -23q-88 0 -157 20.5t-120 58.5t-84 92t-48 121z
M653 -55v-276l-288 -24v300h288z" />
    <glyph glyph-name="Wgrave" unicode="&#x1e80;" horiz-adv-x="1586" 
d="M614 0h-275l-312 1524l328 12l162 -920l173 908l245 12l162 -930l196 918l275 12l-328 -1536h-297l-163 938zM883 1625l-410 346l227 202l297 -447z" />
    <glyph glyph-name="wgrave" unicode="&#x1e81;" horiz-adv-x="1315" 
d="M670 747l-162 -747h-235l-237 1130l293 22l99 -652l145 628l240 24l124 -644l125 620l234 12l-264 -1140h-231zM750 1241l-410 346l227 202l297 -447z" />
    <glyph glyph-name="Wacute" unicode="&#x1e82;" horiz-adv-x="1586" 
d="M614 0h-275l-312 1524l328 12l162 -920l173 908l245 12l162 -930l196 918l275 12l-328 -1536h-297l-163 938zM633 1730l297 447l227 -202l-411 -346z" />
    <glyph glyph-name="wacute" unicode="&#x1e83;" horiz-adv-x="1315" 
d="M670 747l-162 -747h-235l-237 1130l293 22l99 -652l145 628l240 24l124 -644l125 620l234 12l-264 -1140h-231zM500 1346l297 447l227 -202l-411 -346z" />
    <glyph glyph-name="Wdieresis" unicode="&#x1e84;" horiz-adv-x="1586" 
d="M614 0h-275l-312 1524l328 12l162 -920l173 908l245 12l162 -930l196 918l275 12l-328 -1536h-297l-163 938zM699 1920v-288h-288v288h288zM1179 1920v-288h-288v288h288z" />
    <glyph glyph-name="wdieresis" unicode="&#x1e85;" horiz-adv-x="1315" 
d="M670 747l-162 -747h-235l-237 1130l293 22l99 -652l145 628l240 24l124 -644l125 620l234 12l-264 -1140h-231zM566 1536v-288h-288v288h288zM1046 1536v-288h-288v288h288z" />
    <glyph glyph-name="uni1EBC" unicode="&#x1ebc;" horiz-adv-x="988" 
d="M142 1536h780l-24 -240h-456v-366h323l-1 -258h-322v-432h496l-24 -240h-772v1536zM205 1799q30 34 63 61q28 23 62 42t68 19q40 0 72 -12.5t61.5 -27.5t57.5 -27.5t60 -12.5q38 0 66.5 12.5t46.5 27.5q21 18 36 40l44 -162q0 -1 -13 -24t-37.5 -50t-60 -49t-80.5 -22
q-36 0 -65.5 16t-59.5 34.5t-63 34.5t-76 16q-31 0 -61 -15.5t-53 -34.5q-28 -22 -53 -50z" />
    <glyph glyph-name="uni1EBD" unicode="&#x1ebd;" horiz-adv-x="965" 
d="M357 536q0 -54 7 -116t23.5 -114t43.5 -86.5t66 -34.5q34 0 62 27t49 61t33.5 64t15.5 36l218 -83q-20 -70 -53 -128t-80 -100t-109 -65.5t-141 -23.5q-105 0 -184.5 44t-132 123t-79 189t-26.5 241q0 132 27 242t81 189t135 122.5t189 43.5q103 0 180 -43.5t129 -122.5
t78 -189t26 -242l-4 -14q-2 -6 -3 -11.5t-1 -8.5h-550zM632 702q0 57 -7.5 106t-23.5 84.5t-41.5 56t-62.5 20.5q-26 0 -51.5 -20.5t-45 -56t-31.5 -84.5t-12 -106h275zM161 1415q30 34 63 61q28 23 62 42t68 19q40 0 72 -12.5t61.5 -27.5t57.5 -27.5t60 -12.5
q38 0 66.5 12.5t46.5 27.5q21 18 36 40l44 -162q0 -1 -13 -24t-37.5 -50t-60 -49t-80.5 -22q-36 0 -65.5 16t-59.5 34.5t-63 34.5t-76 16q-31 0 -61 -15.5t-53 -34.5q-28 -22 -53 -50z" />
    <glyph glyph-name="Ygrave" unicode="&#x1ef2;" horiz-adv-x="1027" 
d="M367 608l-370 928h330l211 -640l228 640h259l-355 -893v-631l-303 -24v620zM599 1625l-410 346l227 202l297 -447z" />
    <glyph glyph-name="ygrave" unicode="&#x1ef3;" horiz-adv-x="901" 
d="M30 -113q26 -1 50 -2q20 -1 40 -1.5t29 -0.5q50 0 84.5 12t56.5 34t31.5 53t9.5 70v56l-329 1030l312 14l162 -721l153 715l260 2l-295 -1127q-36 -126 -89 -202.5t-113 -117t-122.5 -53.5t-118.5 -13q-21 0 -43 2t-39 4q-20 3 -39 6v240zM476 1241l-410 346l227 202
l297 -447z" />
    <glyph glyph-name="endash" unicode="&#x2013;" horiz-adv-x="804" 
d="M114 718h576v-238h-576v238z" />
    <glyph glyph-name="emdash" unicode="&#x2014;" horiz-adv-x="1379" 
d="M114 718h1152v-238h-1152v238z" />
    <glyph glyph-name="quoteleft" unicode="&#x2018;" horiz-adv-x="524" 
d="M97 918v330q0 54 12.5 95t32.5 71.5t46 51t53 34.5q63 32 145 36v-192q-55 0 -84 -15t-43 -33q-16 -21 -18 -48h193v-318z" />
    <glyph glyph-name="quoteright" unicode="&#x2019;" horiz-adv-x="458" 
d="M375 1536v-288q0 -54 -10.5 -95t-27 -71.5t-38.5 -51.5t-44 -34q-53 -32 -120 -36v192q36 0 55.5 15t28.5 33q11 21 12 48l-144 -12v300h288z" />
    <glyph glyph-name="quotesinglbase" unicode="&#x201a;" horiz-adv-x="489" 
d="M388 288v-288q0 -54 -10.5 -95t-27 -71.5t-38.5 -51.5t-44 -34q-53 -32 -120 -36v192q36 0 55.5 15t28.5 33q11 21 12 48h-144v288h288z" />
    <glyph glyph-name="quotedblleft" unicode="&#x201c;" horiz-adv-x="859" 
d="M96 948v300q0 54 10.5 95t27 71.5t38 51t44.5 34.5q53 32 120 36v-192q-36 0 -55.5 -15t-28.5 -33q-11 -21 -12 -48h144v-288zM480 948v300q0 54 10.5 95t27 71.5t38 51t44.5 34.5q53 32 120 36v-192q-36 0 -55.5 -15t-28.5 -33q-11 -21 -12 -48h144v-288z" />
    <glyph glyph-name="quotedblright" unicode="&#x201d;" horiz-adv-x="842" 
d="M759 1536v-288q0 -54 -10.5 -95t-27 -71.5t-38.5 -51.5t-44 -34q-53 -32 -120 -36v192q36 0 55.5 15t28.5 33q11 21 12 48l-144 -12v300h288zM375 1536v-288q0 -54 -10.5 -95t-27 -71.5t-38.5 -51.5t-44 -34q-53 -32 -120 -36v192q36 0 55.5 15t28.5 33q11 21 12 48
l-144 -12v300h288z" />
    <glyph glyph-name="quotedblbase" unicode="&#x201e;" horiz-adv-x="873" 
d="M772 288v-288q0 -54 -10.5 -95t-27 -71.5t-38.5 -51.5t-44 -34q-53 -32 -120 -36v192q36 0 55.5 15t28.5 33q11 21 12 48h-144v288h288zM388 288v-288q0 -54 -10.5 -95t-27 -71.5t-38.5 -51.5t-44 -34q-53 -32 -120 -36v192q36 0 55.5 15t28.5 33q11 21 12 48h-144v288
h288z" />
    <glyph glyph-name="dagger" unicode="&#x2020;" horiz-adv-x="768" 
d="M264 1152v276l240 12v-288h216l-12 -192h-204v-768l-240 -12v780h-216l12 192h204z" />
    <glyph glyph-name="daggerdbl" unicode="&#x2021;" horiz-adv-x="822" 
d="M292 1152v276l240 12v-288h216l-12 -192h-204v-288h216l-12 -192h-204v-288l-240 -12v300h-216l12 192h204v288h-216l12 192h204z" />
    <glyph glyph-name="bullet" unicode="&#x2022;" horiz-adv-x="818" 
d="M72 720q0 72 21.5 133.5t64.5 106.5t107.5 70.5t150.5 25.5q80 0 141.5 -25.5t103 -70.5t63 -106.5t21.5 -133.5t-21.5 -133.5t-63 -106t-103 -70t-141.5 -25.5q-86 0 -150.5 25.5t-107.5 70t-64.5 106t-21.5 133.5z" />
    <glyph glyph-name="ellipsis" unicode="&#x2026;" horiz-adv-x="1633" 
d="M390 288v-276l-288 -24v300h288zM962 288v-276l-288 -24v300h288zM1534 288v-276l-288 -24v300h288z" />
    <glyph glyph-name="perthousand" unicode="&#x2030;" horiz-adv-x="2997" 
d="M437 926q36 0 63.5 18t45.5 48t27 68t9 78t-9 78.5t-27 69t-45 49t-63 18.5t-63 -18t-45 -48t-27 -68.5t-9 -78.5q0 -39 9 -77t27 -68t44.5 -49t62.5 -20zM439 732q-98 0 -171.5 30t-122.5 83.5t-73.5 127.5t-24.5 163q0 87 24.5 160t73.5 126.5t122.5 83.5t171.5 30
q96 0 169 -30t122.5 -83.5t75 -126.5t25.5 -160q0 -89 -25.5 -163t-75 -127.5t-122.5 -83.5t-169 -30zM2556 193q36 0 63.5 18t45.5 48t27 68t9 78t-9 78.5t-27 69t-45 49t-63 18.5t-63 -18t-45 -48t-27 -68.5t-9 -78.5q0 -39 9 -77t27 -68t44.5 -49t62.5 -20zM2558 -1
q-98 0 -171.5 30t-122.5 83.5t-73.5 127.5t-24.5 163q0 87 24.5 160t73.5 126.5t122.5 83.5t171.5 30q96 0 169 -30t122.5 -83.5t75 -126.5t25.5 -160q0 -89 -25.5 -163t-75 -127.5t-122.5 -83.5t-169 -30zM1096 1536h276l-393 -1536h-276zM1655 193q36 0 63.5 18t45.5 48
t27 68t9 78t-9 78.5t-27 69t-45 49t-63 18.5t-63 -18t-45 -48t-27 -68.5t-9 -78.5q0 -39 9 -77t27 -68t44.5 -49t62.5 -20zM1657 -1q-98 0 -171.5 30t-122.5 83.5t-73.5 127.5t-24.5 163q0 87 24.5 160t73.5 126.5t122.5 83.5t171.5 30q96 0 169 -30t122.5 -83.5t75 -126.5
t25.5 -160q0 -89 -25.5 -163t-75 -127.5t-122.5 -83.5t-169 -30z" />
    <glyph glyph-name="guilsinglleft" unicode="&#x2039;" horiz-adv-x="800" 
d="M54 439v265l640 390l-14 -261l-381 -226l407 -205l-14 -343z" />
    <glyph glyph-name="guilsinglright" unicode="&#x203a;" horiz-adv-x="800" 
d="M108 59l-14 343l407 205l-381 226l-14 261l640 -390v-265z" />
    <glyph glyph-name="fraction" unicode="&#x2044;" horiz-adv-x="634" 
d="M268 1536h300l-201 -1536h-300z" />
    <glyph glyph-name="foursuperior" unicode="&#x2074;" horiz-adv-x="882" 
d="M434 768h-390v168l352 600h286v-590h125l-16 -178h-109v-224l-248 -16v240zM434 946v341l-205 -341h205z" />
    <glyph glyph-name="Euro" unicode="&#x20ac;" horiz-adv-x="1141" 
d="M51 960h114q13 114 46 223t91 194.5t142 138t199 52.5q67 0 125 -20t105.5 -54.5t84 -82t61.5 -102.5t38 -115t13 -120l-290 -15q0 6 -1 28.5t-6 52.5t-14.5 63t-26.5 61t-43 46t-63 18q-42 0 -71.5 -31t-48.5 -82.5t-30 -118t-15 -136.5h454v-144h-459v-56q0 -20 1 -40
h458v-144h-451q6 -74 18.5 -138t35 -111.5t56 -74.5t81.5 -27q47 0 76.5 23.5t47.5 59.5t26 78.5t12 80.5l255 -24q0 -92 -26.5 -178t-80.5 -152t-136 -105.5t-193 -39.5q-78 0 -141 23t-112 64t-85.5 98t-62.5 124.5t-42.5 143.5t-25.5 155h-116v144h106q-1 20 -1 40v56
h-105v144z" />
    <glyph glyph-name="trademark" unicode="&#x2122;" horiz-adv-x="1877" 
d="M92 1215l17 176h626l-18 -176h-198v-667l-209 -17v684h-218zM1032 1104v-556l-172 -9v842l305 8l141 -501l140 476l278 18v-834l-216 -17v569l-168 -561h-129z" />
    <glyph glyph-name="Omega" unicode="&#x2126;" horiz-adv-x="2465" 
 />
    <glyph glyph-name="partialdiff" unicode="&#x2202;" horiz-adv-x="2465" 
 />
    <glyph glyph-name="Delta" unicode="&#x2206;" horiz-adv-x="1047" 
d="M385 1322h265l354 -1322h-960zM412 192h307l-166 715z" />
    <glyph glyph-name="product" unicode="&#x220f;" horiz-adv-x="1171" 
d="M730 1238h-288v-1226l-300 -24v1524h888v-1500l-300 -24v1250z" />
    <glyph glyph-name="summation" unicode="&#x2211;" horiz-adv-x="2465" 
 />
    <glyph glyph-name="minus" unicode="&#x2212;" horiz-adv-x="804" 
d="M114 718h576v-238h-576v238z" />
    <glyph glyph-name="radical" unicode="&#x221a;" horiz-adv-x="427" 
 />
    <glyph glyph-name="infinity" unicode="&#x221e;" horiz-adv-x="2465" 
 />
    <glyph glyph-name="integral" unicode="&#x222b;" horiz-adv-x="709" 
d="M498 -22q0 -70 -5.5 -136.5t-33 -119t-85.5 -84.5t-162 -32q-54 0 -90.5 4.5t-59.5 10.5q-27 6 -45 15v172h63q45 0 71 15t39 39t16.5 54.5t3.5 62.5v1195q0 70 5.5 136.5t33 119t85.5 84.5t162 32q53 0 90 -5t60 -10q27 -7 45 -15v-172h-63q-45 0 -71 -15t-39 -39
t-16.5 -55t-3.5 -62v-1195z" />
    <glyph glyph-name="approxequal" unicode="&#x2248;" horiz-adv-x="828" 
d="M96 575q33 39 69 71q31 26 68.5 48.5t75.5 22.5t69 -17t59 -38t55 -38t58 -17q49 0 84 17t57 38q26 24 42 55v-182q0 -1 -13 -22.5t-37.5 -46.5t-60 -45.5t-80.5 -20.5q-34 0 -62.5 19t-57.5 41.5t-61 41.5t-73 19q-37 0 -71.5 -17.5t-61.5 -37.5q-32 -25 -60 -55z
M92 932q33 39 69 71q31 26 68.5 48.5t75.5 22.5t69 -17t59 -38t55 -38t58 -17q49 0 84 17t57 38q26 24 42 55v-182q0 -1 -13 -22.5t-37.5 -46.5t-60 -45.5t-80.5 -20.5q-34 0 -62.5 19t-57.5 41.5t-61 41.5t-73 19q-37 0 -71.5 -17.5t-61.5 -37.5q-32 -25 -60 -55z" />
    <glyph glyph-name="notequal" unicode="&#x2260;" horiz-adv-x="804" 
d="M114 526h576v-238h-576v238zM114 910h576v-238h-576v238z" />
    <glyph glyph-name="lessequal" unicode="&#x2264;" horiz-adv-x="979" 
d="M61 823v265l810 360l-14 -261l-451 -196l477 -175l-14 -343zM184 237h576v-238h-576v238z" />
    <glyph glyph-name="greaterequal" unicode="&#x2265;" horiz-adv-x="979" 
d="M110 473l-14 343l477 175l-451 196l-14 261l810 -360v-265zM219 238h576v-238h-576v238z" />
    <glyph glyph-name="lozenge" unicode="&#x25ca;" horiz-adv-x="938" 
d="M887 642l-282 -642h-265l-290 642v155l290 643h265l282 -643v-155zM296 720l165 -399l144 399l-144 399z" />
    <glyph glyph-name="commaaccent" unicode="&#xf6c3;" horiz-adv-x="481" 
d="M390 672v-288q0 -54 -10.5 -95t-27 -71.5t-38.5 -51.5t-44 -34q-53 -32 -120 -36v192q36 0 55.5 15t28.5 33q11 21 12 48h-144v288h288z" />
    <glyph glyph-name="uniF8FF" unicode="&#xf8ff;" horiz-adv-x="0" 
 />
    <glyph glyph-name="f_f" unicode="&#xfb00;" horiz-adv-x="1445" 
d="M176 936h-142l12 216h130v22q0 70 5.5 136.5t33 119t85.5 84.5t162 32q53 0 90 -5t60 -10q27 -7 45 -15v-172h-63q-45 0 -71 -15t-39 -39t-16.5 -55t-3.5 -62v-21h203l-12 -216h-191v-924l-288 -24v948zM930 936h-142l12 216h130v22q0 70 5.5 136.5t33 119t85.5 84.5
t162 32q53 0 90 -5t60 -10q27 -7 45 -15v-172h-63q-45 0 -71 -15t-39 -39t-16.5 -55t-3.5 -62v-21h203l-12 -216h-191v-924l-288 -24v948z" />
    <glyph glyph-name="fi" unicode="&#xfb01;" horiz-adv-x="1287" 
d="M875 915h-410v-903l-288 -24v929h-142l24 235h118v22q0 70 5.5 136.5t33 119t85.5 84.5t162 32q53 0 90 -5t60 -10q27 -7 45 -15v-172h-63q-45 0 -71 -15t-39 -39t-16.5 -55t-3.5 -62v-21h698v-1140l-288 -24v927zM1163 1600v-300l-288 -12v312h288z" />
    <glyph glyph-name="fl" unicode="&#xfb02;" horiz-adv-x="1287" 
d="M875 1344h-320q-32 0 -50 -15t-27 -39t-11 -55t-2 -62v-21h191l-24 -237h-167v-903l-288 -24v929h-142l24 235h118v22q0 46 2.5 91t13.5 85.5t35 74.5t67 58.5t108 38.5t160 14h600v-1524l-288 -24v1356z" />
    <glyph glyph-name="f_f_i" unicode="&#xfb03;" horiz-adv-x="2095" 
d="M176 936h-142l12 216h130v22q0 70 5.5 136.5t33 119t85.5 84.5t162 32q53 0 90 -5t60 -10q27 -7 45 -15v-172h-63q-45 0 -71 -15t-39 -39t-16.5 -55t-3.5 -62v-21h203l-12 -216h-191v-924l-288 -24v948zM930 936h-142l12 216h130v22q0 70 5.5 136.5t33 119t85.5 84.5
t162 32q53 0 90 -5t60 -10q27 -7 45 -15v-172h-63q-45 0 -71 -15t-39 -39t-16.5 -55t-3.5 -62v-21h203l-12 -216h-191v-924l-288 -24v948z" />
    <glyph glyph-name="f_f_l" unicode="&#xfb04;" horiz-adv-x="2094" 
d="M176 936h-142l12 216h130v22q0 70 5.5 136.5t33 119t85.5 84.5t162 32q53 0 90 -5t60 -10q27 -7 45 -15v-172h-63q-45 0 -71 -15t-39 -39t-16.5 -55t-3.5 -62v-21h203l-12 -216h-191v-924l-288 -24v948zM930 936h-142l12 216h130v22q0 70 5.5 136.5t33 119t85.5 84.5
t162 32q53 0 90 -5t60 -10q27 -7 45 -15v-172h-63q-45 0 -71 -15t-39 -39t-16.5 -55t-3.5 -62v-21h203l-12 -216h-191v-924l-288 -24v948zM1682 1500l288 36v-1524l-288 -24v1512z" />
    <glyph glyph-name="NULL" horiz-adv-x="0" 
 />
    <glyph glyph-name="f_f_l.001" horiz-adv-x="2094" 
d="M176 936h-142l12 216h130v22q0 70 5.5 136.5t33 119t85.5 84.5t162 32q53 0 90 -5t60 -10q27 -7 45 -15v-172h-63q-45 0 -71 -15t-39 -39t-16.5 -55t-3.5 -62v-21h203l-12 -216h-191v-924l-288 -24v948zM930 936h-142l12 216h130v22q0 70 5.5 136.5t33 119t85.5 84.5
t162 32q53 0 90 -5t60 -10q27 -7 45 -15v-172h-63q-45 0 -71 -15t-39 -39t-16.5 -55t-3.5 -62v-21h203l-12 -216h-191v-924l-288 -24v948zM1682 1500l288 36v-1524l-288 -24v1512z" />
    <glyph glyph-name="zero.zero" horiz-adv-x="1138" 
d="M568 -27q-101 0 -175 35t-126 95t-85 140t-51.5 170.5t-26 186t-7.5 186.5q0 83 7.5 171.5t26.5 173t52.5 160t85.5 132.5t125.5 90t173.5 33q99 0 173 -33t126.5 -90t86.5 -132.5t53.5 -160t27 -173t7.5 -171.5q-1 -91 -8.5 -186.5t-26.5 -186t-52.5 -170.5t-86 -140
t-126.5 -95t-174 -35zM568 228q28 0 52.5 8t45.5 30t37 61t27.5 101t17.5 150t6 208q0 114 -4.5 209.5t-23.5 165t-56 108.5t-102 39q-66 0 -103 -39t-54.5 -108.5t-21 -165t-3.5 -209.5q0 -120 5.5 -208t16.5 -150t27 -101t36 -61t44.5 -30t52.5 -8zM290 894h576v-238h-576
v238z" />
    </font>
</defs>
</svg>
