<?xml version="1.0" standalone="no"?>
<!DOCTYPE svg PUBLIC "-//W3C//DTD SVG 1.1//EN" "http://www.w3.org/Graphics/SVG/1.1/DTD/svg11.dtd" >
<svg xmlns="http://www.w3.org/2000/svg" xmlns:xlink="http://www.w3.org/1999/xlink" version="1.1">
<metadata>
Created by FontForge 20161013 at Thu Dec  8 05:35:34 2011
 By ,,,
Copyright (c) 2011, Admix Designs (http://www.admixdesigns.com/) with Reserved Font Name Handlee.
</metadata>
<defs>
<font id="Handlee-Regular" horiz-adv-x="449" >
  <font-face 
    font-family="Handlee"
    font-weight="400"
    font-stretch="normal"
    units-per-em="1000"
    panose-1="2 0 0 0 0 0 0 0 0 0"
    ascent="800"
    descent="-200"
    x-height="492"
    cap-height="714"
    bbox="-92 -400 1175 934"
    underline-thickness="50"
    underline-position="-150"
    unicode-range="U+0020-FB02"
  />
<missing-glyph horiz-adv-x="500" 
 />
    <glyph glyph-name=".notdef" horiz-adv-x="500" 
 />
    <glyph glyph-name=".null" horiz-adv-x="0" 
 />
    <glyph glyph-name="nonmarkingreturn" horiz-adv-x="333" 
 />
    <glyph glyph-name="space" unicode=" " horiz-adv-x="226" 
 />
    <glyph glyph-name="exclam" unicode="!" horiz-adv-x="233" 
d="M90 679q1 12 14 19.5t29 7.5q27 0 27 -20q-2 -295 -15 -443q-1 -11 -15.5 -18.5t-28.5 -7.5q-25 0 -25 20q14 147 14 442zM98 69q11 2 26.5 2t32.5 -12t17 -33t-21.5 -38.5t-40 -17.5t-39.5 13.5t-21 28.5q0 48 46 57z" />
    <glyph glyph-name="quotedbl" unicode="&#x22;" horiz-adv-x="324" 
d="M59 590q0 40 -6 78q0 15 13.5 25t31.5 10q32 0 32 -115q0 -6 0.5 -20.5t0 -20.5t-1.5 -17.5t-3.5 -17t-7.5 -12.5q-9 -11 -34.5 -11t-25.5 21zM197 675q0 15 14 21.5t25 6.5l14 -2q17 -5 17 -21v-164q0 -15 -14.5 -22t-25.5 -7l-13 2q-17 5 -17 22v164z" />
    <glyph glyph-name="numbersign" unicode="#" horiz-adv-x="595" 
d="M431 339l-18 -115q3 -1 40 -1q100 0 100 -19q0 -29 -57 -29q-31 0 -59 4.5t-31 4.5q-16 -86 -40 -162q-6 -21 -49 -21q-16 0 -16 8q0 16 19 77.5t24 95.5q-64 -5 -144 -17q-24 -78 -38 -150q-2 -11 -16.5 -17.5t-25.5 -6.5q-23 0 -23 15q0 27 18 84t21 68l-14 -2
q-60 -6 -72.5 0t-12.5 14.5t7 14.5t20.5 8.5t25.5 3.5t31 1t27 1q26 81 34 113q-45 -11 -76.5 -12t-41.5 3.5t-10 14.5q0 8 23 13t62 10.5t53 8.5q4 19 13 58t11.5 55t16.5 22.5t26 6.5q23 0 23 -16q0 -29 -11 -67t-13 -45q58 9 117 12q7 55 18 112q1 9 15 15.5t27 6.5
q21 -1 22 -14q-8 -39 -20 -119q111 -3 111 -16q0 -28 -66 -25q-14 0 -32 1.5t-19 1.5zM212 206q95 12 139 15q6 40 18 118q-55 -1 -121 -13q-16 -60 -36 -120z" />
    <glyph glyph-name="dollar" unicode="$" horiz-adv-x="539" 
d="M252 669l1 109q0 7 13 12.5t24.5 5.5t13.5 -4v-115q84 0 150 -69q5 -10 -9 -18.5t-30.5 -10t-24.5 3.5q-37 39 -86 51q-2 -178 -3 -268q5 -3 36 -19t41.5 -22t36.5 -22.5t37 -28.5t26 -30q27 -32 27 -79q0 -26 -19.5 -48t-43 -34t-58.5 -22q-40 -11 -88 -19
q-2 -144 -3 -217q0 -8 -13 -13t-25 -5t-14 5q2 152 4 227q-136 0 -213 58q-4 2 -4 4q0 6 21 15t31.5 9t15.5 -3q61 -44 149 -52l4 261q-74 38 -114.5 75t-40.5 95.5t46 103.5t112 64zM161 516q0 -60 89 -119q0 80 2 238q-33 -7 -62 -43t-29 -76zM297 70q41 2 75 16
q65 26 65 72q0 25 -17 51t-42 45q-46 36 -78 51q-2 -156 -3 -235z" />
    <glyph glyph-name="percent" unicode="%" horiz-adv-x="735" 
d="M91.5 603q56.5 34 106 34t80.5 -22.5t31 -67.5t-51.5 -90.5t-105.5 -45.5t-85.5 23.5t-31.5 79t56.5 89.5zM114.5 472.5q16.5 -19.5 48 -19.5t57.5 25.5t26 57t-16 51t-54 19.5t-58 -26t-20 -57t16.5 -50.5zM546 639q8 16 35.5 16t29.5 -16q-91 -164 -213 -343
q-108 -160 -234 -341q-11 -16 -35 -16t-28 15q60 98 212.5 320t232.5 365zM579 216q46 0 84.5 -25.5t38.5 -69.5t-49.5 -84t-108.5 -40q-39 0 -64 27t-25 62q0 130 124 130zM534.5 53q16.5 -19 39 -19t44 23.5t21.5 54.5t-18 50t-44.5 19t-40.5 -16t-16 -30.5t-2 -23v-13.5
q0 -26 16.5 -45z" />
    <glyph glyph-name="ampersand" unicode="&#x26;" horiz-adv-x="338" 
d="M139 217q25 -17 53 -17t53 14t46.5 14t21.5 -13q0 -19 -40 -36.5t-74 -21.5q1 -23 8 -127q-1 -10 -16.5 -16.5t-22.5 -6.5q-22 0 -24 6q-9 110 -9 149q-39 10 -63.5 34.5t-24.5 54.5q0 51 58 91q-34 17 -34 53q0 54 53 83q-9 31 -9 65.5t15 73.5q2 5 18 9t29 4t15 -1
q-14 -38 -14 -71t9 -61q54 0 54 -17q0 -10 -12 -19.5t-25.5 -9.5t-22.5 -1t-21 -5q-23 -8 -23 -38q0 -16 12.5 -24.5t27.5 -10.5q40 -4 40 -14q0 -16 -16.5 -23.5t-24.5 -7.5t-13 1q-22 -3 -35.5 -22t-13.5 -45.5t25 -43.5z" />
    <glyph glyph-name="quotesingle" unicode="'" horiz-adv-x="186" 
d="M71 650q2 18 31 24q7 1 12 1q19 0 21 -17q-15 -100 -15 -201q0 -13 -13.5 -19.5t-24.5 -6.5l-10 1q-16 4 -16 19q0 100 15 199z" />
    <glyph glyph-name="parenleft" unicode="(" horiz-adv-x="274" 
d="M215 767q-113 -182 -113 -380q0 -243 168 -438q4 -4 4 -8q0 -9 -16.5 -17t-27.5 -8q-13 0 -19 8q-172 200 -172 451q0 205 117 393q9 14 35.5 14t26.5 -8q0 -3 -3 -7z" />
    <glyph glyph-name="parenright" unicode=")" horiz-adv-x="238" 
d="M25 774l-1 1q0 9 21.5 15t30.5 6t12 -5q109 -204 109 -428.5t-114 -425.5q-3 -6 -19 -11t-28.5 -5t-15.5 4q113 203 113 425.5t-108 423.5z" />
    <glyph glyph-name="asterisk" unicode="*" horiz-adv-x="442" 
d="M215 726.5q8 7.5 22 7.5t14 -39q0 -15 -3 -42t-3 -30q3 2 15.5 13t21 17.5t22.5 16.5t25 16q26 16 43.5 16t17.5 -7.5t-18.5 -21t-60 -41t-52.5 -40.5q6 -5 41 -32q79 -61 79 -71q0 -23 -19 -23q-14 0 -49.5 19t-57.5 48q-2 3 -3 6l9 -93q0 -7 -9.5 -12t-20 -4.5
t-10.5 5.5q-8 77 -11 110q-7 -7 -28 -29t-33.5 -34.5t-30.5 -24t-28.5 -11.5t-17 8.5t0.5 17.5q24 23 68 59.5t59 49.5q-72 56 -130 82q-12 4 -12 10.5t11 15t20.5 8.5t20.5 -4t25 -12t24 -14.5t26 -17.5t22 -15q0 5 -1.5 20.5t-1 27t2.5 24.5t10 20.5z" />
    <glyph glyph-name="plus" unicode="+" horiz-adv-x="454" 
d="M119 271l52 -2q-2 120 -2 178q0 12 17 20t34.5 8t17.5 -9q0 -32 1 -96t1 -95q25 3 153 20q28 0 28 -18.5t-23 -29.5l-11 -3q-98 -14 -147 -19q-2 -111 -6 -167q-1 -10 -16.5 -16.5t-34 -6t-18.5 12.5l6 171h-5l-72 -3q-63 0 -63 17q0 29 41 35q24 3 47 3z" />
    <glyph glyph-name="comma" unicode="," horiz-adv-x="183" 
d="M64 -22q0 9 -3 26.5t-4.5 31.5t-0.5 28q2 31 40 31q32 0 32 -95q0 -164 -109 -247q-12 -8 -23 -8t-21 5t-10 12.5t12 17.5q87 67 87 198z" />
    <glyph glyph-name="hyphen" unicode="-" horiz-adv-x="545" 
d="M129 298l192 -7q66 0 94.5 5.5t34.5 5.5q31 0 31 -16q0 -22 -34.5 -34t-80 -13.5t-71.5 -1.5t-59.5 0.5t-84.5 4t-59 3.5q-28 0 -28 11q0 17 37 34q17 8 28 8z" />
    <glyph glyph-name="period" unicode="." horiz-adv-x="226" 
d="M71 -16.5q-21 13.5 -21 32.5t22 36.5t45 17.5t39 -13t16 -32.5t-21.5 -37t-40 -17.5t-39.5 13.5z" />
    <glyph glyph-name="slash" unicode="/" horiz-adv-x="491" 
d="M397 755q9 19 53 19q18 0 16 -9q-67 -138 -175 -425t-197 -453q-11 -18 -53 -18q-18 0 -18 5q0 1 2 3q89 166 197 453t175 425z" />
    <glyph glyph-name="zero" unicode="0" horiz-adv-x="644" 
d="M131 612q28 36 74.5 58.5t106.5 22.5q118 0 200.5 -103.5t82.5 -244.5q0 -92 -39.5 -175.5t-115.5 -137.5t-174.5 -54t-155 88.5t-56.5 267.5t77 278zM271 29q74 0 133.5 49.5t90 123t30.5 144t-32.5 137t-89.5 111.5t-119 45q-44 0 -77.5 -30t-50.5 -77
q-34 -91 -34 -189q0 -56 9 -115.5t23 -98t44.5 -69.5t72.5 -31z" />
    <glyph glyph-name="one" unicode="1" horiz-adv-x="338" 
d="M173 678q90 0 90 -218q0 -100 -22 -428q-1 -10 -18 -18.5t-24 -8.5q-23 0 -26 10q-1 23 -1 75t7 190t7 206q0 139 -33 139q-23 0 -71 -42q-13 -13 -38 -13t-27 13q0 26 58.5 60.5t97.5 34.5z" />
    <glyph glyph-name="two" unicode="2" horiz-adv-x="568" 
d="M454 79q63 -12 79.5 -14.5t16.5 -15.5q0 -5 -3 -12q-14 -22 -34 -25q-5 0 -126 21t-170 21t-81 -6q-5 -4 -18 -16.5t-22 -19.5q-25 -19 -52 -19t-27 19q0 32 25.5 53.5t64.5 32.5q113 111 152 157q118 142 118 280q0 91 -110 91q-65 0 -131 -34q-14 -6 -30 1t-16 23
q0 23 70 43t130.5 20t107.5 -37.5t47 -110.5q0 -201 -243 -422q96 0 252 -30z" />
    <glyph glyph-name="three" unicode="3" horiz-adv-x="524" 
d="M151.5 635q85.5 28 148 28t106 -30t43.5 -91q0 -101 -134 -188q65 -11 110.5 -49.5t45.5 -94.5q0 -86 -77.5 -150t-168.5 -64q-47 0 -96 22.5t-85 60.5q-4 4 -4 9q0 10 18 20t29 10t18 -6q54 -62 138 -62q57 0 105 37.5t48 104.5q0 51 -37.5 84.5t-89.5 33.5
q-33 0 -66 -18q-13 -6 -28.5 1t-15.5 21t15 21q208 101 208 200q0 34 -31 50.5t-80 16.5q-84 0 -150 -35q-6 -4 -14 -4t-19 3q-22 7 -22 21q0 20 85.5 48z" />
    <glyph glyph-name="four" unicode="4" horiz-adv-x="544" 
d="M330 407l8 225q0 10 17 17t34.5 7t17.5 -8q0 -19 -4.5 -111t-4.5 -142.5t5 -86.5q1 0 18 1.5t30 2t29 -0.5q33 -2 33 -19q0 -24 -27 -28q-26 -5 -50 -4.5t-30 0.5q7 -152 7 -171t0.5 -31.5t0 -16.5t-3 -13.5t-7.5 -13.5q-15 -10 -36.5 -10t-21.5 8q0 109 -8 247
q-5 2 -35 2l-153 -3q-124 0 -124 26q0 2 1 5q48 142 65.5 227.5t37.5 115.5q20 28 45 29q19 0 26 -7t3 -16q-32 -67 -63 -187t-38 -142l233 -2q-5 62 -5 100z" />
    <glyph glyph-name="five" unicode="5" horiz-adv-x="578" 
d="M455 599l-227 4q-33 0 -55 -1q10 -44 10 -101.5t-25 -129.5q70 7 124 8t92 -6.5t76.5 -24t63 -48.5t24.5 -75q0 -88 -81 -155.5t-213 -67.5q-80 0 -136.5 33t-70.5 99q1 11 17.5 20t23.5 9q23 0 27 -11q11 -49 60 -75.5t112 -26.5q93 0 146.5 53t53.5 124q0 97 -239 97
h-16l-112 -5q-15 0 -24.5 7t-4 22t16 94.5t10.5 125.5l-2 46q0 27 13.5 32.5t67.5 5.5h63q86 0 202 -4q27 0 35 -12.5t-2.5 -24.5t-29.5 -12z" />
    <glyph glyph-name="six" unicode="6" horiz-adv-x="581" 
d="M148 411q-27 -79 -27 -149.5t18 -118.5q55 68 145 133.5t160 65.5q42 0 76.5 -36t34.5 -91t-50 -108.5t-119 -83.5t-132 -30t-111 39q-92 73 -92 211q0 95 40 189.5t114 158.5t161 64q33 0 33 -23q0 -17 -24 -26q-14 -5 -29 -5q-65 0 -118 -55.5t-80 -134.5zM265 50
q33 0 85 22.5t96.5 63t44.5 81.5q0 28 -15.5 44t-39.5 16q-58 0 -141.5 -68t-121.5 -119q42 -40 92 -40z" />
    <glyph glyph-name="seven" unicode="7" horiz-adv-x="486" 
d="M29 602q0 18 16.5 27t43 9t104 9.5t126 9.5t93 -25.5t44.5 -79.5q0 -36 -41 -118l-196 -408q-9 -19 -46 -19q-23 0 -23 15q0 6 3 12q68 153 168 341q1 3 11 21t14 25l12 24q30 61 30 100q0 58 -108 58q-35 0 -104.5 -8t-108 -8t-38.5 15z" />
    <glyph glyph-name="eight" unicode="8" horiz-adv-x="600" 
d="M336 685q35 0 84 -13t92.5 -42.5t43.5 -64t-21.5 -69.5t-62.5 -70q-65 -56 -163 -117q6 -4 28 -16.5t32.5 -19t32.5 -20t34.5 -22.5t30 -22.5t28 -25t21.5 -24.5q19 -24 19 -50q0 -44 -73 -74.5t-178 -30.5q-221 0 -221 112q0 44 36.5 86t109.5 93q-153 88 -153 174.5
t88.5 151t191.5 64.5zM434 153q-52 46 -150 100q-27 15 -33 19q-49 -32 -81.5 -73t-32.5 -75t44 -54t111.5 -20t120 14t52.5 38t-31 51zM125 482q2 -59 47 -94q35 -26 92 -56q129 88 167 123q58 54 58 98q0 34 -65 57t-110 23q-80 0 -134.5 -39t-54.5 -112z" />
    <glyph glyph-name="nine" unicode="9" horiz-adv-x="504" 
d="M342 15q13 79 13 231q0 20 -0.5 61.5t-0.5 64.5q-95 -95 -202 -95q-56 0 -88.5 34t-32.5 103q0 93 59.5 169t136.5 76t133.5 -40t58.5 -112q6 -105 6 -172q0 -207 -14 -316q-2 -19 -42 -19q-24 0 -27 15zM355 500q0 33 -45 74t-89 41h-4q-42 0 -80.5 -71.5t-38.5 -123
t23.5 -75t56.5 -23.5q58 0 117.5 62.5t59.5 115.5z" />
    <glyph glyph-name="colon" unicode=":" horiz-adv-x="245" 
d="M85 111q22 17 41 17t33 -9t14 -27.5t-25 -34t-43 -15.5t-30 9.5t-12 26t22 33.5zM121 417q23 0 41.5 -11.5t18.5 -32.5t-18 -37.5t-39.5 -16.5t-34 16.5t-12.5 36.5q0 40 44 45z" />
    <glyph glyph-name="semicolon" unicode=";" horiz-adv-x="244" 
d="M133 436q19 0 31.5 -12t12.5 -24q0 -21 -27 -34t-57 -13t-30 29q0 54 70 54zM48 -110q-19 0 -19 24q0 16 16 19q20 5 32 17t16 25t6.5 21t3.5 25.5t1 24.5v47q0 10 13 16t24 6q25 -3 25 -17q0 -111 -24 -150q-28 -45 -82 -56q-6 -2 -12 -2z" />
    <glyph glyph-name="less" unicode="&#x3c;" horiz-adv-x="473" 
d="M391 518q0 -10 -10.5 -21t-78.5 -57q-188 -130 -188 -144t32 -38l13 -9q12 -10 41.5 -35.5t43 -36.5t39.5 -30.5t45 -30.5q52 -29 98 -43q15 -5 15 -12t-14 -19t-33 -12q-8 0 -12 2q-52 16 -104 47t-80 54t-87 78t-70 65t-11 15t18 22.5t83.5 63t80 58t33.5 30t29.5 26
t27.5 21.5q33 23 61 23t28 -17z" />
    <glyph glyph-name="equal" unicode="=" horiz-adv-x="602" 
d="M126 339q-5 -1 -11 -1l-21 5q-16 8 -16 25q0 27 67.5 37t171 11.5t132.5 5.5q35 0 35 -22t-29 -36q-24 -12 -148.5 -12.5t-180.5 -12.5zM148 239l355 -4q25 0 25 -14q0 -18 -29 -34q-14 -8 -25 -8l-184 -3q-195 0 -195 23q0 13 17.5 26.5t35.5 13.5z" />
    <glyph glyph-name="greater" unicode="&#x3e;" horiz-adv-x="473" 
d="M80 38q0 10 10.5 21t77.5 61q189 142 189 156t-32 38l-13 9q-78 66 -133.5 101.5t-133.5 58.5q-15 5 -15 12t14 19t33 12q16 0 57 -17t70 -34.5t47.5 -29t49.5 -37t43 -36.5q44 -38 94 -83q3 -3 3 -8t-19 -23.5t-88 -75t-79 -65t-29 -26t-29.5 -26t-28.5 -21.5
q-32 -23 -60 -23t-28 17z" />
    <glyph glyph-name="question" unicode="?" horiz-adv-x="440" 
d="M86 620q-8 -6 -17.5 -6t-22 8t-12.5 17.5t13 17.5q66 39 178 39q137 0 168 -44q14 -19 14 -53.5t-30 -86t-66 -94t-67.5 -92.5t-33.5 -84q-1 -14 -15.5 -22t-26.5 -8h-8q-17 4 -18 21q3 46 34 99t65.5 92.5t63 87.5t28.5 81t-27 45t-98.5 12t-121.5 -30zM201 106
q17 -2 30 -12.5t13 -30t-24 -35.5t-50 -16q-39 0 -39 28.5t20 47t50 18.5z" />
    <glyph glyph-name="at" unicode="@" horiz-adv-x="524" 
d="M98 341q27 60 76.5 98t111.5 38t110.5 -53.5t72 -124t23.5 -125.5t-23.5 -89t-73.5 -34t-68 59q-37 -80 -107 -80q-55 0 -55 74.5t41 130t97 55.5q22 0 44 -18.5t22 -60t13 -78t30 -36.5q11 0 18.5 14t7.5 37q0 95 -51 193t-109 98q-50 0 -91 -50t-62.5 -124
t-21.5 -147.5t17 -127.5t59.5 -90t105.5 -36q39 0 88 15q9 2 15 2q13 0 13 -10q0 -17 -47 -27t-84 -10q-104 0 -165 66t-61 193.5t54 247.5zM233 78q20 0 38 34.5t32.5 77t19.5 49.5q-13 9 -28 9q-30 0 -51.5 -44.5t-21.5 -85t11 -40.5z" />
    <glyph glyph-name="A" unicode="A" horiz-adv-x="694" 
d="M661 5q-16 -22 -46 -22q-8 0 -16 2q-22 50 -32.5 141.5t-15.5 120.5q-109 4 -218 4t-195 -9q-9 -41 -19.5 -122.5t-15.5 -109.5q-36 -29 -65 -8q3 24 9 76t10.5 88.5t13.5 92.5t17.5 96.5t23.5 91t31 86.5t39.5 73t50.5 60q62 51 135 51t121.5 -56t73.5 -147t40 -183
t29 -188t29 -138zM426 636.5q-30 27.5 -74 27.5t-85 -43t-65 -107q-43 -119 -54 -220q100 11 201 11t195 -6q-4 15 -15 71t-22.5 98.5t-31 91.5t-49.5 76.5z" />
    <glyph glyph-name="B" unicode="B" horiz-adv-x="696" 
d="M88 62l-8 585q0 64 259 64q122 0 204.5 -46t82.5 -132q0 -57 -44 -108t-99 -65q69 -21 119.5 -61t50.5 -104t-55 -113q-106 -93 -326 -93q-184 0 -184 73zM153 357q62 24 137 24h70q53 0 128.5 47.5t75.5 90.5q0 64 -80 101.5t-177 37.5t-157 -22v-52.5t1.5 -114
t1.5 -112.5zM580 195q0 87 -188 127q-96 -28 -182 -28q-28 0 -55 3q3 -119 3 -242q58 -13 117.5 -13t106 7.5t93 23.5t76 48t29.5 74z" />
    <glyph glyph-name="C" unicode="C" horiz-adv-x="738" 
d="M645 565q-15 -14 -26 -20t-21.5 -1t-14.5 8t-15.5 19.5t-14.5 20.5q-51 63 -131.5 63t-151 -51.5t-113.5 -135.5t-43 -175q0 -112 74.5 -183t198 -71t216.5 69q15 11 32.5 32t30 30t24 8t32.5 -7q-43 -84 -143.5 -130.5t-227.5 -46.5t-215 71t-88 206q0 84 28 162.5
t77.5 139t124 96.5t161.5 36q155 0 206 -140z" />
    <glyph glyph-name="D" unicode="D" horiz-adv-x="757" 
d="M264 -6l-83 -3q-70 0 -91 19q-13 10 -13 28q0 113 8 296.5t8 285.5q0 41 76 66t163 25q163 0 270.5 -92t107.5 -239q0 -74 -25.5 -137t-68.5 -108.5t-100 -77.5q-114 -63 -252 -63zM639 356q0 129 -87.5 216.5t-226.5 87.5q-68 0 -162 -45q0 -81 -8 -242.5t-8 -223
t1 -87.5q56 -11 120 -11q162 0 266.5 79t104.5 226z" />
    <glyph glyph-name="E" unicode="E" horiz-adv-x="630" 
d="M333 718l154 -3q77 0 106 -18q-3 -28 -21 -37t-52 -9l-216 3q-82 0 -138 -5q-11 -56 -11 -161l1 -45q0 -29 -1 -62q46 -8 120 -8l119 1q68 0 78 -7t10 -15q0 -38 -97 -38l-227 7q-1 -24 -2 -82q-2 -121 -9 -183q64 -4 92 -4t58 1t112 6t122.5 5t55.5 -5.5t15 -24.5
q0 -12 -6.5 -16.5t-11.5 -7t-12.5 -4t-13 -2.5t-15 -1.5t-15 -1t-14.5 -0.5h-14q-196 -9 -251 -9q-165 0 -165 46q-2 93 -2 177q0 277 18 461q21 33 122 38q63 4 111 4z" />
    <glyph glyph-name="F" unicode="F" horiz-adv-x="602" 
d="M443 718l45 -1q27 0 42 -3l27 -4q21 -3 37 -15q-8 -42 -66 -42l-265 8q-43 0 -103 -4q2 -109 2 -295q114 10 190 10q147 0 147 -29q0 -37 -46 -37q-16 0 -35 3q-76 9 -132 9t-125 -8q-2 -33 -5 -104.5t-4.5 -95.5t-2.5 -34t-2.5 -24t-4 -23t-6.5 -19q-6 -16 -22 -24
q-5 -2 -9 -2q-13 0 -29 8v63t9 221.5t9 256.5t-4 141q0 24 49 34q54 11 103.5 11.5t75.5 0.5z" />
    <glyph glyph-name="G" unicode="G" horiz-adv-x="761" 
d="M419 305q-56 0 -56 19q0 22 69 34.5t140 12.5t103 -4t41.5 -11t9.5 -20q0 -180 -86 -265t-247.5 -85t-253 79t-91.5 218q0 192 115 311.5t286 119.5q75 0 142 -31t82 -80q-14 -12 -27 -12t-31.5 6t-37.5 23t-58 34.5t-82 17.5q-133 0 -230.5 -113.5t-97.5 -267.5
q0 -122 89.5 -191t209.5 -69q137 0 194 85q54 78 54 199q-8 7 -21 7t-31 -1q-46 -2 -106 -9t-79 -7z" />
    <glyph glyph-name="H" unicode="H" horiz-adv-x="721" 
d="M563 684q15 24 46 24q12 0 22 -6q7 -109 7 -215t-4.5 -269t-5.5 -211q-24 -16 -39 -16t-23 3q-6 53 -6 108l6 228q-86 8 -192 8t-221 -21q-8 -198 -8 -292q-25 -20 -40.5 -20t-24.5 5q-3 49 -3 138t12.5 294.5t13.5 237.5q13 21 45 21q10 0 19 -4q3 -28 3 -71t-6 -131.5
t-6 -122.5q121 20 224 20t182 -7q3 37 3 109t-4 190z" />
    <glyph glyph-name="I" unicode="I" horiz-adv-x="244" 
d="M163 704q-10 -452 -11 -706q-15 -16 -26.5 -16t-19.5 5q-23 15 -23 56q2 481 7 563t15 95t24 13t34 -10z" />
    <glyph glyph-name="J" unicode="J" horiz-adv-x="477" 
d="M383 700q0 -75 11 -232t11 -236q0 -117 -42 -176t-152 -59q-66 0 -123 28t-79 75q25 21 43.5 21t34 -12.5t28 -27.5t44 -27.5t83 -12.5t73 45t21.5 130t-10 211t-10 185.5t10 75.5t26.5 16t30.5 -4z" />
    <glyph glyph-name="K" unicode="K" horiz-adv-x="644" 
d="M158 706l3 -235q0 -50 -3 -97q88 35 156.5 83.5t105.5 92t64.5 82t48 61.5t38.5 23t35 -13q-41 -103 -115.5 -177.5t-188.5 -151.5q53 -27 100.5 -76.5t78.5 -97.5q87 -133 163 -190q-17 -26 -49.5 -26t-78.5 51.5t-85 114.5t-89 122.5t-92 71.5q-8 -3 -40.5 -18.5
t-51.5 -21.5q0 -169 -5 -284q-18 -18 -65 -18q-2 30 -2 137l4 547q12 22 45 22q11 0 23 -2z" />
    <glyph glyph-name="L" unicode="L" horiz-adv-x="535" 
d="M159 681l-5 -443q0 -103 6 -195q60 -4 109 -4l210 4q49 0 49 -28q0 -33 -210 -33q-51 0 -131 5t-97 16q-5 106 -5 346l5 352q26 20 42 20q27 0 27 -40z" />
    <glyph glyph-name="M" unicode="M" horiz-adv-x="861" 
d="M93 398q0 162 -17 296q0 21 29 21t77 -55.5t92 -121.5t88.5 -121.5t63.5 -55.5t61.5 58.5t84 128t90 128t78 58.5t29.5 -16q9 -123 9 -220t-1 -157.5t-1.5 -88t-3.5 -125t-3 -114.5q-15 -21 -41 -21q-11 0 -21 6q-6 123 -6 290t3 346q-20 -16 -56.5 -74.5t-70.5 -116
t-77 -104t-80 -46.5t-84.5 54t-105 146.5t-75.5 115.5q5 -84 5 -174.5t-1 -126.5q-1 -160 -6 -291q-16 -21 -50 -21q-9 0 -17 3z" />
    <glyph glyph-name="N" unicode="N" horiz-adv-x="781" 
d="M620 78l9 620q16 16 34 16t28 -6q7 -133 7 -219l-8 -463v-38q-34 -22 -56 -22l-12 2q-10 5 -15.5 7.5t-14.5 14t-12 16.5t-13.5 22t-14.5 23.5t-56.5 91t-66.5 105.5t-59.5 89t-71.5 101q-77 98 -142 158q5 -131 5 -280t-6 -318q-12 -18 -67 -18q0 565 -4 696
q19 18 37 18t35 -10q26 -16 58 -48q106 -106 200.5 -241t205.5 -317z" />
    <glyph glyph-name="O" unicode="O" horiz-adv-x="815" 
d="M735.5 500.5q31.5 -64.5 31.5 -150.5t-35 -161t-91 -119q-115 -90 -254.5 -90t-238.5 90.5t-99 247.5q0 90 29.5 162t79.5 116q104 92 246 92q140 0 248 -83q52 -40 83.5 -104.5zM115 316q0 -129 73.5 -206t195.5 -77q141 0 226.5 86.5t85.5 219t-86 211.5t-209 79
t-204.5 -80.5t-81.5 -232.5z" />
    <glyph glyph-name="P" unicode="P" horiz-adv-x="671" 
d="M88 322q0 156 -13 275q0 31 26 54t69 35q86 22 189 22q133 0 209.5 -58.5t76.5 -179.5t-98 -194t-239 -73q-72 0 -151 30q-5 -48 -5 -130l1 -49q0 -24 -1 -50q-5 -7 -11 -10t-8.5 -4.5t-7.5 -2.5t-7 -1q-6 -2 -14 -2h-17q-2 75 -2 135zM155 305q73 -49 175 -48.5t172 63
t70 153.5t-72 136t-172.5 45t-177.5 -46q5 -65 5 -303z" />
    <glyph glyph-name="Q" unicode="Q" horiz-adv-x="782" 
d="M730 393q0 -203 -121 -309q22 -24 38 -40q7 -9 31 -19.5t33 -20.5t9 -26q-12 -5 -29 -5t-48 13t-50 35l-29 31q-83 -50 -200 -50q-145 0 -230 90.5t-85 223.5q0 96 34.5 185t105 149.5t160.5 60.5q146 0 259 -78q55 -38 88.5 -100.5t33.5 -139.5zM536 164l34 -38
q86 83 86 234t-82.5 223t-220.5 72q-63 0 -118 -50.5t-85 -124t-30 -137.5t13.5 -111t41.5 -87.5t79 -64t128.5 -23.5t141.5 35q-87 87 -101 103t-21 37q11 8 24 8q43 0 110 -76z" />
    <glyph glyph-name="R" unicode="R" horiz-adv-x="693" 
d="M150 192l3 -151q0 -31 -14 -42t-26 -11t-23 3q-13 107 -13 209t6.5 231t7.5 204q0 80 214 80q113 0 213 -47q52 -24 85 -67.5t33 -97t-24 -96.5t-61 -71.5t-85 -49.5q-79 -36 -176 -48q48 -27 156 -130q32 -31 81 -55.5t101 -24.5q5 0 21 2.5t27 3.5t20.5 -4.5t9.5 -19.5
q0 -34 -85 -34q-99 0 -197 76q-43 32 -84 66q-101 85 -189 107q-1 -9 -1 -33zM561 491q0 84 -75.5 126.5t-191.5 42.5q-73 0 -136 -16q0 -79 -5 -175.5t-5 -132.5t1 -53q148 11 229 35q87 25 130 62q53 46 53 111z" />
    <glyph glyph-name="S" unicode="S" horiz-adv-x="627" 
d="M223 710q45 12 89 12t82.5 -5.5t79 -18.5t66.5 -40t29 -64q1 -15 -11.5 -22.5t-28 -7.5t-23 7.5t-14.5 22.5q-38 77 -166 77q-87 0 -142.5 -37t-55.5 -108q0 -40 25 -68.5t65.5 -44.5t89 -29t97 -29t89 -38t65.5 -61.5t25 -94.5q0 -80 -78.5 -136t-197.5 -56
q-92 0 -180 39t-88 80q0 11 13 20.5t25.5 9.5t23.5 -7.5t25 -20.5t25 -20q76 -48 170 -48q66 0 129 40.5t63 108.5q0 46 -34 76.5t-85 44t-110.5 30.5t-110.5 35t-85 58t-34 95.5t23.5 97t61.5 66t83 36.5z" />
    <glyph glyph-name="T" unicode="T" horiz-adv-x="645" 
d="M-13 667q0 48 344 48q79 0 203 -6.5t128 -18.5q-2 -45 -83 -45q-23 0 -77 5t-92.5 5t-38.5 -17q0 -215 -10 -641q-21 -15 -62 -15q-1 44 -1 105l5 432q0 78 -2 131q-21 2 -54.5 2t-104.5 -5.5t-100 -5.5q-55 0 -55 26z" />
    <glyph glyph-name="U" unicode="U" horiz-adv-x="686" 
d="M99 692q32 21 56 12q12 -4 9 -22q-30 -198 -30 -272.5t8.5 -129t29 -114t64.5 -96t107 -36.5q88 0 154.5 107.5t66.5 259t-71 296.5q21 18 37.5 18t25.5 -3q80 -115 80 -299q0 -151 -78 -289q-38 -65 -100 -106.5t-129.5 -41.5t-114 28.5t-73 72t-43.5 101.5
q-29 100 -29 219q0 176 30 295z" />
    <glyph glyph-name="V" unicode="V" horiz-adv-x="672" 
d="M12 687q9 24 42 24q10 0 18 -4q34 -75 78 -211t89.5 -254t101.5 -199q55 16 118 251q26 97 53 193t61 162t70 66q14 0 30 -8q-26 -25 -55 -111t-57 -187.5t-59.5 -201t-75 -165.5t-92.5 -66q-68 0 -156 230q-47 120 -71 189.5t-55.5 169t-39.5 122.5z" />
    <glyph glyph-name="W" unicode="W" horiz-adv-x="1047" 
d="M186 711q-3 -26 -12.5 -90t-14.5 -105q-15 -123 -15 -203t5.5 -124.5t17.5 -84t35.5 -62.5t55.5 -23q46 0 81.5 50t55.5 128.5t34.5 158.5t28 156t25.5 104q27 18 41 18t21 -3q6 -48 12.5 -174.5t18 -196.5t30 -119t55.5 -81.5t85.5 -32.5t79.5 45t45 120
q25 134 25 276.5t-24 222.5q25 18 46 18t36 -33t21 -84q11 -92 11 -167t-14 -151t-43.5 -141.5t-82 -104t-121.5 -38.5q-46 1 -82.5 22.5t-58.5 51t-40 77.5q-26 69 -44 176q-42 -147 -71 -203q-71 -135 -195 -136q-80 0 -120 58q-35 52 -44 146q-3 40 -3 91q0 167 54 426
q26 15 41.5 15t23.5 -3z" />
    <glyph glyph-name="X" unicode="X" horiz-adv-x="643" 
d="M576 713q-89 -175 -205 -349q61 -89 154.5 -201.5t125.5 -152.5q-1 -11 -16 -18.5t-31 -7.5q-33 0 -83.5 57.5t-113.5 150.5t-76 110q-17 -20 -45 -64.5t-55.5 -86.5t-60.5 -84t-73 -67.5t-80 -25.5q-11 0 -17 1q67 78 106 124q109 131 186 253q-51 66 -122 145
t-104.5 120.5t-33.5 57t15.5 22.5t31.5 7q25 0 63 -47.5t92 -125t95 -119.5q26 42 58.5 106t52 102t48.5 67.5t60 29.5q8 0 28 -4z" />
    <glyph glyph-name="Y" unicode="Y" horiz-adv-x="597" 
d="M336 320q10 26 31.5 82t33.5 85.5t31.5 73.5t32.5 63.5t31 41.5q31 38 78 38q9 0 26 -5q-38 -22 -94 -140t-102.5 -245t-98 -230.5t-83.5 -103.5q-13 0 -28 6q19 41 53.5 130.5t59.5 138.5q-139 149 -213.5 261t-74.5 171q0 10 12 17.5t27 7.5t26 -17t26.5 -52.5t38 -80
t71.5 -110.5t116 -132z" />
    <glyph glyph-name="Z" unicode="Z" horiz-adv-x="644" 
d="M113 696l435 11q25 0 39 -6.5t14 -15.5q0 -6 -4 -13q-116 -173 -326 -434q-100 -125 -156 -199q41 -3 102 -3l300 7q66 0 109 -4q-6 -51 -90 -51l-378 -11q-133 0 -133 33q0 9 8 20q73 110 236.5 306t241.5 315q-273 -11 -430 -11q-43 0 -43 24q0 32 75 32z" />
    <glyph glyph-name="bracketleft" unicode="[" horiz-adv-x="364" 
d="M184 -28q48 0 134 23q16 0 14 -20q-2 -24 -28 -27q-99 -13 -224 -13q-23 0 -23 14q0 104 16.5 343.5t34.5 359.5q1 14 19 24q38 22 195 26q22 0 22 -12q0 -16 -26 -27q-12 -4 -24 -4q-90 0 -133 -11q1 -30 -24 -313.5t-25 -314.5q0 -48 72 -48z" />
    <glyph glyph-name="backslash" unicode="\" horiz-adv-x="481" 
d="M28 768q-1 7 11 14q14 7 26 7t18 -6q51 -156 196.5 -472.5t176.5 -393.5q0 -7 -14 -13q-14 -7 -26 -7t-15 5q-31 77 -176.5 393.5t-196.5 472.5z" />
    <glyph glyph-name="bracketright" unicode="]" horiz-adv-x="355" 
d="M72 16l129 4q23 0 33 -2q-2 64 -23 657q-24 0 -79 -7.5t-69 -7.5h-17q-30 0 -30 19.5t22 28.5q7 3 23.5 3t68.5 7.5t72 7.5h32q5 0 7.5 -1t7 -2t7 -2.5t4.5 -4.5q6 -5 6 -13q25 -387 25 -712q0 -10 -13.5 -15.5t-31.5 -4.5t-68 1l-125 -2q-19 0 -18 14q1 17 21 28
q8 4 16 4z" />
    <glyph glyph-name="asciicircum" unicode="^" horiz-adv-x="444" 
d="M101 438q-8 -14 -32 -14t-24 12q0 3 3 7q20 37 36 103t37 121t60 90q13 12 28 12t23 -11q26 -59 84 -168q83 -160 83 -170.5t-18 -16.5q-10 -3 -21 -3q-13 0 -19 12q-25 55 -76.5 154.5t-69.5 137.5q-27 -41 -50.5 -135t-43.5 -131z" />
    <glyph glyph-name="underscore" unicode="_" horiz-adv-x="725" 
d="M135 -79q75 -10 155 -10t177.5 4.5t142.5 5.5q16 0 16 -8q0 -3 -8.5 -14.5t-21 -12.5t-71.5 -4q-166 -7 -296.5 -7t-130.5 21q0 10 12 17.5t25 7.5z" />
    <glyph glyph-name="grave" unicode="`" horiz-adv-x="356" 
d="M299 591q13 -5 13 -14q0 -7 -10.5 -22t-27.5 -15q-6 0 -9 2q-82 29 -183 110q-7 6 -7 12t5 17q9 18 34 18q7 0 13 -3q100 -79 172 -105z" />
    <glyph glyph-name="a" unicode="a" 
d="M375 288l-5 -115q0 -87 20 -117q12 -20 33 -20q6 0 17 3q21 6 35 -6q-7 -35 -70 -35q-43 0 -57 36q-11 27 -16 67.5t-8 55.5q-65 -124 -126 -151q-31 -14 -72 -14t-63.5 39.5t-22.5 115.5t25 159.5t73 141t105 57.5q82 0 109 -68q23 -58 23 -149zM109 217.5
q-7 -48.5 -7 -86t15.5 -64.5t40.5 -27q54 0 104 102t50 190q0 57 -30 94q-20 24 -52.5 24t-59 -37.5t-40.5 -92t-21 -103z" />
    <glyph glyph-name="b" unicode="b" horiz-adv-x="452" 
d="M71 719q12 22 44 22q7 0 14 -2q2 -53 2 -296q1 1 9.5 9t10.5 10t10 9.5t12.5 10t12.5 8t14 8t14 5.5q15 5 35 5q74 0 119 -61.5t45 -137.5t-23 -144.5t-71 -119.5t-111.5 -51t-106 47t-42.5 107.5t7 224t7 235t-2 111.5zM214 43q39 0 70 37q63 73 63 207q0 72 -28 127.5
t-79 55.5q-29 0 -51 -28.5t-34 -75.5q-23 -89 -23 -198q0 -92 38 -113q17 -10 44 -12z" />
    <glyph glyph-name="c" unicode="c" horiz-adv-x="446" 
d="M395 375q-19 -19 -38 -19t-30.5 16.5t-18.5 36t-25.5 36t-46.5 16.5q-39 -4 -71 -55.5t-47 -113.5t-15 -116.5t30.5 -94t82.5 -39.5q60 0 96 42q15 18 28 36q32 42 58 42q9 0 26 -5q0 -37 -67.5 -97.5t-146.5 -60.5t-124.5 50.5t-45.5 130.5q0 103 50 206q25 50 68 82.5
t96 32.5t85.5 -35.5t55.5 -90.5z" />
    <glyph glyph-name="d" unicode="d" horiz-adv-x="473" 
d="M435 801q-38 -344 -38 -490.5t27 -292.5q-20 -20 -35 -20t-25 4q-21 74 -25 161q-24 -38 -35.5 -54t-39.5 -47q-51 -60 -121 -60q-53 0 -76.5 49.5t-23.5 127t17.5 148t60.5 122t106 51.5q38 0 70 -16t44 -43q2 27 4 83t4.5 99.5t8.5 88.5q11 96 49 96q13 0 28 -7z
M285 437.5q-21 10.5 -55.5 10.5t-64.5 -39q-59 -77 -59 -223q0 -47 15 -93.5t44 -46.5q42 0 82 55t62 126.5t22 128.5q0 27 -12.5 49t-33.5 32.5z" />
    <glyph glyph-name="e" unicode="e" horiz-adv-x="473" 
d="M110 203q-2 -20 -2 -27q0 -60 36.5 -93t86.5 -33t81.5 14t45.5 30q36 45 66 45q11 0 26 -6q-10 -49 -75.5 -89.5t-164.5 -40.5q-70 0 -120.5 44.5t-50.5 121.5t30.5 149.5t88 124t117 51.5t96 -24.5t36.5 -71.5q0 -87 -77.5 -143.5t-164.5 -56.5q-23 0 -55 5zM186 236
q47 0 84 30t52.5 63t15.5 60t-21 47.5t-49 20.5q-50 0 -92.5 -69t-60.5 -143q44 -9 71 -9z" />
    <glyph glyph-name="f" unicode="f" horiz-adv-x="314" 
d="M134 -7q-18 0 -18 303q0 128 -1 155h-20q-14 0 -22 0.5t-20.5 1t-20 2.5t-15.5 5q-15 6 -15 21q0 19 62 19q27 0 49 -2q1 20 1.5 51.5t1.5 49t2.5 42.5t5 39t9.5 31.5t16 26.5t23 18q23 17 76.5 17t79 -26.5t45.5 -89.5q-15 -18 -35 -18q-7 0 -14 2q-18 48 -32.5 65
t-39.5 17t-37.5 -9t-19.5 -23q-15 -30 -15 -145v-18v-24l85 8q50 0 50 -23q0 -15 -24 -20t-60.5 -6t-50.5 -6q-2 -28 -2 -73.5t5 -144t5 -150.5t-10.5 -74t-43.5 -22z" />
    <glyph glyph-name="g" unicode="g" horiz-adv-x="466" 
d="M234 500q91 0 126 -74q19 -39 31 -74t16 -96q6 -93 6 -211.5t-56.5 -189t-165 -70.5t-180.5 70q20 20 43.5 20t65 -20.5t88.5 -20.5t78 21.5t46 60.5q25 69 25 170q0 15 -3 111q-27 -82 -77 -135.5t-113 -53.5t-92.5 56.5t-29.5 128.5t20 140.5t65 117.5t107 49zM109 265
q-6 -39 -6 -78.5t16.5 -87.5t48.5 -48q63 0 112 94.5t49 190.5q0 33 -30.5 74.5t-76.5 41.5q-32 0 -56.5 -30t-37.5 -74t-19 -83z" />
    <glyph glyph-name="h" unicode="h" horiz-adv-x="488" 
d="M65 207l9 448q0 52 -6 71q18 16 55 16q15 -107 15 -275q0 -50 -9 -232q47 253 168 253q43 0 66.5 -45.5t29.5 -110.5t10 -130q10 -156 56 -156q1 0 19 6q40 12 45 6q0 -11 -31 -27.5t-57 -16.5q-44 0 -67.5 45.5t-29 110.5t-8 129.5t-13.5 110t-37 45.5
q-32 0 -58.5 -69.5t-41.5 -153.5t-36.5 -153.5t-43.5 -69.5q-35 0 -35 198z" />
    <glyph glyph-name="i" unicode="i" horiz-adv-x="200" 
d="M130 736q-1 -23 -1 -51t3 -58q-14 -16 -38 -16q-30 0 -30 48v15t0.5 23.5t3.5 24.5q7 24 31 24t31 -10zM66 246q0 196 20 226q7 11 17 11t33 -11q-5 -85 -5 -185l2 -221q0 -31 -13.5 -43.5t-25 -12.5t-23.5 6q-5 130 -5 230z" />
    <glyph glyph-name="j" unicode="j" horiz-adv-x="201" 
d="M123 641q-2 -28 -41 -28q-32 2 -32 87v20q1 26 34 26q19 0 28 -4q11 -42 11 -101zM-20 -197q92 0 92 316q0 76 -5.5 190t-5.5 132q0 42 40 42q23 0 23 -26l-1 -28q0 -27 5 -87q13 -184 13 -256t-6.5 -124.5t-22.5 -103t-50 -79t-82 -28.5q-28 0 -50 7.5t-22 19.5
q0 14 9 20.5t18.5 7t25.5 -1t19 -1.5z" />
    <glyph glyph-name="k" unicode="k" horiz-adv-x="472" 
d="M140 742q1 -70 1 -104.5t-0.5 -68.5t-3.5 -131.5t-4 -154.5q38 26 91 80.5t96 93.5q68 61 97 37q11 -9 7 -17q-10 -21 -45.5 -51t-83.5 -68t-76 -70q73 -10 117 -82q19 -33 37 -66q46 -87 100 -118q-20 -20 -46 -20t-51.5 25t-44 61t-37.5 72q-43 87 -100 87
q-27 0 -46 -17.5t-19 -36.5q0 -120 -4 -178q-14 -19 -30 -19q-5 0 -11 2q-22 9 -21.5 37t5.5 170q11 363 11 464q0 47 9.5 63t23 16t28.5 -6z" />
    <glyph glyph-name="l" unicode="l" horiz-adv-x="238" 
d="M92 598q0 99 -27 133q13 19 45 19q6 0 13 -1q25 -25 25 -145q0 -65 -6 -151q-12 -150 -12 -220q0 -189 73 -189l37 7q9 0 15 -8q-3 -36 -58.5 -36t-85.5 33.5t-37.5 84t-7.5 83.5t1 72.5t9 113.5q16 150 16 204z" />
    <glyph glyph-name="m" unicode="m" horiz-adv-x="668" 
d="M106 437q11 0 11 -132q0 -21 -0.5 -67t-0.5 -48q10 113 20.5 154t21.5 70.5t24 45.5q32 41 74 41q53 0 79.5 -53t27.5 -141q25 181 132 181q46 0 65 -47t19 -112l-3 -152q0 -150 65 -150l57 9q5 0 10 -1q-10 -15 -37 -23.5t-53 -8.5q-51 0 -76.5 45.5t-27.5 96t-2 86.5
l2 89q0 44 -5.5 84t-28.5 40q-34 0 -65.5 -142.5t-38.5 -270.5q-17 -18 -43 -19q-8 0 -15 3q-9 52 -9.5 173.5t-12.5 193.5t-54 72q-28 0 -46 -62q-29 -97 -52 -302q-6 -48 -9 -69q-21 -18 -43 -18l-15 2q-14 167 -14 414q11 18 43 18z" />
    <glyph glyph-name="n" unicode="n" horiz-adv-x="476" 
d="M470 28q-18 -19 -41 -19q-43 0 -64 46t-24.5 112t-4.5 132t-10.5 112t-35.5 46q-35 0 -59.5 -63t-34.5 -140q-28 -215 -54 -241q-18 -9 -31 -9t-22 3q-21 92 -27 317q-2 112 -4 145q21 14 36 14t24 -3q5 -43 5.5 -176t1.5 -153q5 21 12.5 68t13.5 77.5t19 71.5t29 65.5
t44 42t63 17.5q47 0 68.5 -42.5t23.5 -105.5t2.5 -128t16 -119t53.5 -70z" />
    <glyph glyph-name="o" unicode="o" horiz-adv-x="490" 
d="M240 493q96 0 153.5 -78t57.5 -177.5t-63 -168.5t-160 -69t-141 54.5t-44 153.5q0 129 50.5 207t146.5 78zM117.5 284q-6.5 -39 -6.5 -72.5t5 -61t17 -54t36 -42t57 -15.5q67 0 112.5 55t45.5 133t-41.5 151.5t-101.5 73.5q-36 0 -63 -25t-40.5 -64.5t-20 -78.5z" />
    <glyph glyph-name="p" unicode="p" horiz-adv-x="471" 
d="M117 31q3 -81 20 -229q-19 -19 -45 -19q-5 0 -11 1q-1 39 -14.5 177t-13.5 211.5t9 127.5t31 101q45 97 166 97q75 0 123 -82t48 -191q0 -86 -56 -151t-155 -65q-61 0 -102 22zM251 444q-85 0 -113 -88q-24 -75 -24 -207q0 -48 1 -71q89 -19 121 -19q58 0 92 46.5
t34 113.5q0 99 -29.5 162t-81.5 63z" />
    <glyph glyph-name="q" unicode="q" horiz-adv-x="463" 
d="M389.5 343q11.5 -62 13 -115t1.5 -92.5t-4 -92t-4 -131.5t16 -124q-14 -22 -41 -22q-9 0 -17 4q-7 62 -7 150l2 130q0 86 -6 148q-51 -135 -117 -168q-30 -16 -68 -16q-64 0 -89 44t-25 112t10.5 119.5t32.5 97t61 72.5t97 27t95.5 -40.5t49 -102.5zM317 370
q0 22 -26.5 45.5t-61.5 23.5t-60 -27t-38 -69q-25 -81 -25 -141q0 -134 52 -134q44 0 77 34t49 85q33 100 33 183z" />
    <glyph glyph-name="r" unicode="r" horiz-adv-x="398" 
d="M157 98l3 -57q0 -22 -12.5 -30.5t-25 -8.5t-25.5 4q-22 116 -33.5 289t-13.5 196q15 14 31.5 14t29.5 -4q4 -29 6 -128t5 -124q14 84 50 157q20 41 52.5 65.5t70 24.5t69 -33.5t31.5 -60.5q0 -10 -12 -15.5t-26.5 -5.5t-22.5 11t-11 24.5t-13 24.5t-27 11q-45 0 -77 -81
q-49 -121 -49 -273z" />
    <glyph glyph-name="s" unicode="s" horiz-adv-x="436" 
d="M310 400q-9 23 -34 36t-62 13t-69.5 -22t-32.5 -59t30.5 -58.5t74 -32.5t87.5 -23.5t74.5 -41t30.5 -74.5q0 -67 -55.5 -102t-133.5 -35q-46 0 -120.5 25t-74.5 60q0 26 44 26q13 0 34 -16q64 -47 131 -47q36 0 62 12q48 23 48 74q0 31 -30.5 50t-74 30t-87.5 24
t-74.5 43.5t-30.5 77.5q0 61 55 99t136 38q55 0 99.5 -28.5t44.5 -82.5q0 -36 -41 -36q-17 0 -22.5 6t-6 21.5t-2.5 22.5z" />
    <glyph glyph-name="t" unicode="t" horiz-adv-x="358" 
d="M60 419q-45 0 -61 22q0 16 13.5 25t29.5 11.5t52 4.5q3 27 3.5 69.5t1.5 72.5q3 79 24 97q9 8 19.5 8t18.5 -2q3 -72 3 -87l-6 -150q2 -1 11 -1l72 3q78 0 78 -24q0 -34 -28 -40q-13 -3 -30.5 -3t-45 4.5t-39.5 4.5t-16 -1q-3 -29 -3 -57.5t1.5 -71t8 -101.5t28.5 -101.5
t56 -42.5q17 0 40 13.5t35.5 13.5t22 -5.5t9.5 -12.5q0 -21 -42.5 -40.5t-72.5 -19.5q-110 0 -137 208q-8 60 -12 206q-16 -3 -34 -3z" />
    <glyph glyph-name="u" unicode="u" horiz-adv-x="458" 
d="M141 469q-26 -49 -26 -146q0 -146 55 -233q32 -51 76.5 -51t71.5 47q32 58 32 160q0 128 -36 189q-16 29 -18.5 42t6.5 19t30 6q61 0 80 -126q6 -35 6 -70q0 -91 -36 -182q-51 -125 -161 -125q-58 0 -99 43q-77 82 -77 247q0 72 10 110t17 49.5t17 21.5t22.5 8t29.5 -9z
" />
    <glyph glyph-name="v" unicode="v" 
d="M12 481q9 19 39 19q13 0 22 -6q28 -77 55 -155q51 -143 95 -226q21 122 81.5 246t110.5 124q15 0 30 -7q-115 -151 -165 -400q-10 -58 -22 -66q-13 -9 -27 -9t-21.5 6t-11 12t-9 20t-8.5 19q-102 191 -169 423z" />
    <glyph glyph-name="w" unicode="w" horiz-adv-x="672" 
d="M328 116q-16 -46 -61.5 -78t-99 -32t-83 53.5t-29.5 148.5q0 268 79 268q10 0 25 -3q-3 -16 -14 -61q-22 -88 -22 -155t19 -141.5t54 -74.5q18 0 35 23t27 48.5t21 58.5t14 40q-15 58 -15 118v18.5t1 30.5t6 36q10 42 54 42q37 0 37 -112q0 -20 -5.5 -58t-5.5 -53
q0 -46 44 -119t82.5 -73t56.5 44t18 98q0 62 -10.5 94.5t-13 42.5t-13 31.5t-13 27.5t-15.5 29t-15 26q-29 51 -34 56q25 21 46 21q61 -44 97 -143.5t36 -181t-34.5 -128t-107.5 -46.5q-51 0 -96.5 28.5t-64.5 75.5z" />
    <glyph glyph-name="x" unicode="x" horiz-adv-x="387" 
d="M27 470q17 23 43 23q10 0 20 -5q21 -134 88 -246q44 82 106 231q24 13 38.5 13t23.5 -3q-20 -65 -47 -121t-51 -103t-35 -69q28 -35 47.5 -55.5t54.5 -42.5q46 -30 87 -30q21 0 29 -8q-11 -34 -53 -34q-70 0 -140 55q-26 21 -30.5 25.5t-27.5 26.5q-8 -12 -22.5 -42
t-24.5 -47.5t-27 -27t-29.5 -9.5t-23.5 3q16 33 47.5 90t42.5 78q-50 78 -79.5 145.5t-36.5 152.5z" />
    <glyph glyph-name="y" unicode="y" horiz-adv-x="442" 
d="M298 420q0 72 46 72q9 0 18 -2v-65t14 -212t14 -238q0 -126 -44 -174t-149.5 -48t-198.5 68q18 22 47 22q11 -1 35 -15q71 -42 118 -42q70 0 99 44t29 148q0 25 -5 180q-1 -3 -7 -25.5t-9 -29.5t-10.5 -26t-15.5 -27t-21 -19q-22 -20 -55.5 -20t-53.5 9t-33.5 28t-24 40
t-16.5 53.5t-9.5 59.5t-5 66t-2 65t-0.5 66v60q10 17 36 17q36 0 36 -26l-6 -97q0 -127 27 -219t56 -92q22 0 39 24t26 67.5t15 82.5t8 91q3 79 3 114z" />
    <glyph glyph-name="z" unicode="z" horiz-adv-x="440" 
d="M148 68q153 13 214 13t61 -29q0 -21 -23 -25q-18 -3 -74.5 -3t-143 -6.5t-116 -6.5t-29.5 17q0 24 63 81l60 61q45 46 73 77.5t55.5 75.5t27.5 74q0 41 -69 41q-33 0 -96.5 -12t-95.5 -12t-32 22q0 28 90.5 42.5t155.5 14.5q115 0 115 -71q0 -47 -41.5 -112.5
t-115 -149.5t-79.5 -92z" />
    <glyph glyph-name="braceleft" unicode="{" horiz-adv-x="331" 
d="M235 13q10 0 27.5 10.5t28.5 10.5t19 -9t8 -25t-26.5 -28.5t-54.5 -12.5q-48 0 -74.5 28.5t-36 73.5t-15.5 92t-23 92.5t-48 66.5q-14 9 -14 25t14 25q37 21 52 56t15 67v28q0 92 15.5 133.5t47.5 56.5t90 15q16 0 21 -13.5t-2.5 -27.5t-22.5 -16q-67 -6 -81 -55
q-9 -32 -10 -84.5t-6 -80.5t-24 -58.5t-44 -45.5q53 -32 66 -86q2 -9 4 -53t6 -82t21 -70.5t47 -32.5z" />
    <glyph glyph-name="bar" unicode="|" horiz-adv-x="201" 
d="M62 723q0 12 9 19.5t19.5 7.5t19.5 -7t9 -20q19 -713 22 -801q0 -17 -10.5 -22.5t-17.5 -5.5l-14 4q-14 7 -15 24q-3 88 -22 801z" />
    <glyph glyph-name="braceright" unicode="}" horiz-adv-x="292" 
d="M179 491q0 -96 39 -96q46 0 46 -29q0 -10 -9 -18q-35 -30 -43 -174q-3 -57 -10 -111.5t-29.5 -90t-63.5 -35.5q-21 0 -51 10t-30 28t8.5 24.5t18 5t23.5 -5t24 -3.5t21 9t17 26.5t10 34.5q7 31 7 84l-1 66q0 89 40 134q-34 12 -55 59.5t-21 92.5l9 101q0 42 -33 42
q-6 0 -20 -3t-23 -3.5t-17 5.5t-8 22q0 21 30.5 32t59.5 11q69 0 69 -81q0 -8 -3 -39q-5 -56 -5 -98z" />
    <glyph glyph-name="asciitilde" unicode="~" horiz-adv-x="558" 
d="M459 401q3 20 24 20q9 0 20 -7.5t11 -22.5q0 -61 -35 -102.5t-93 -41.5q-35 0 -90 41.5t-92 41.5q-56 0 -108 -84q-8 -14 -23.5 -14t-22.5 10.5t-7 18t4 14.5q35 57 74 89.5t93 32.5q36 0 94.5 -44.5t88 -44.5t42 20.5t20.5 72.5z" />
    <glyph glyph-name="exclamdown" unicode="&#xa1;" horiz-adv-x="214" 
d="M132 -214q-1 -12 -14 -19.5t-29 -7.5q-27 0 -27 20q2 295 15 443q1 11 15.5 18.5t28.5 7.5q25 0 25 -20q-14 -147 -14 -442zM124 396q-11 -2 -26.5 -2t-32.5 12t-17 33t21.5 38.5t40 17.5t39.5 -13.5t21 -28.5q0 -48 -46 -57z" />
    <glyph glyph-name="cent" unicode="&#xa2;" horiz-adv-x="394" 
d="M334 411q0 -20 -39 -20q-25 0 -41 16q-15 -239 -16 -292q28 16 59 41q7 7 34.5 7t27.5 -11.5t-44 -39t-78 -39.5q2 -84 2 -101.5v-20.5q-1 -11 -13.5 -16.5t-22.5 -5.5q-21 0 -21 14q-2 32 -2 61.5t1 54.5h-3q-72 0 -101.5 45t-29.5 109q0 84 40 164q17 34 46.5 58
t67.5 31q2 24 3 66.5t2 56.5q2 21 29.5 21t27.5 -21q-4 -84 -5 -126q22 -8 49 -23.5t27 -28.5zM117 252q-2 -10 -2 -20.5t1.5 -28t6.5 -41t20 -41.5t37 -21q3 77 9.5 182.5t8.5 141.5q-30 -10 -53.5 -66t-27.5 -106z" />
    <glyph glyph-name="sterling" unicode="&#xa3;" horiz-adv-x="725" 
d="M401 367l-131 2q0 -80 19 -209q35 7 50 7q29 0 108 -45t115.5 -45t56.5 35q10 18 51 18q21 0 21 -13q0 -4 -2 -9q-54 -90 -137 -90q-41 0 -120 51.5t-118 51.5t-83 -29t-82.5 -58t-65.5 -29t-27 16q0 13 59.5 52.5t99.5 58.5q-22 143 -22 234q-64 -3 -99 -12
q-59 -14 -59 16q0 32 160 42q8 101 56 172q25 37 66.5 58.5t104 21.5t119.5 -50t83 -130q0 -20 -34 -28q-11 -3 -23.5 -3t-17.5 12q-18 60 -59.5 107.5t-92.5 47.5q-105 0 -126 -205l73 2q89 0 89 -22q0 -11 -9 -19.5t-23 -8.5z" />
    <glyph glyph-name="yen" unicode="&#xa5;" horiz-adv-x="553" 
d="M199 363l-99 -4q-20 0 -30 1t-20 7.5t-10 20.5q0 23 25 23q43 0 108 2q-18 38 -54.5 124.5t-48.5 107.5t-12 26q0 17 22 23q5 1 14 1t16 -12q32 -54 78 -162t72 -153q22 36 97 147.5t105 166.5q7 14 24 14t25.5 -8.5t8.5 -14.5t-2 -11q-32 -61 -154 -241l46 2
q65 0 65 -29q0 -25 -46 -25t-97 3q-20 -30 -33 -56l146 7q13 0 22.5 -9.5t9.5 -20.5q0 -29 -122 -29l-67 1l-9 -256q-3 -22 -28 -22q-11 0 -21 8t-10 20q8 77 8 251l-75 -2q-96 0 -96 31q0 11 7.5 18.5t20.5 7.5l109 -6q17 0 33 1q-1 2 -28 47z" />
    <glyph glyph-name="section" unicode="&#xa7;" horiz-adv-x="466" 
d="M358 656q0 -15 -22.5 -15t-48 -4t-54 -13t-46.5 -28.5t-18 -46.5q0 -43 134 -93q131 -53 131 -129q0 -41 -38 -77.5t-90 -61.5q28 -28 28 -66q0 -63 -71 -137.5t-130 -97.5q-6 -2 -16.5 -2t-20 12.5t-9.5 20.5q0 12 17 18q52 23 107 84t55 107q0 44 -80 66q-34 9 -68 19
q-80 24 -80 75q0 40 55 85q41 34 104 74q-39 22 -65 55t-26 67t38 65t86.5 45.5t91.5 14.5q22 0 33 -23q3 -8 3 -14zM246 223q120 47 120 109q0 34 -45 56l-19 10q-27 13 -42 18q-114 -73 -132 -93t-18 -30q0 -24 59 -47t77 -23z" />
    <glyph glyph-name="dieresis" unicode="&#xa8;" horiz-adv-x="481" 
d="M144 641q13 0 31 -8.5t18 -21.5q0 -29 -25.5 -42t-62.5 -13t-37 23q0 62 76 62zM309.5 624q24.5 18 47 18t41 -10.5t18.5 -24.5q0 -25 -31.5 -38t-54.5 -13q-45 0 -45 22q0 28 24.5 46z" />
    <glyph glyph-name="copyright" unicode="&#xa9;" horiz-adv-x="729" 
d="M135.5 162.5q-81.5 85.5 -81.5 208.5t99 211t224 88t211 -86t86 -214t-91 -210.5t-228.5 -82.5t-219 85.5zM99 342q0 -100 71 -162t180 -62t192.5 64.5t83.5 176t-66.5 192t-164.5 80.5q-122 0 -209 -85.5t-87 -203.5zM450 291q10 8 25.5 1.5t15.5 -20.5q0 -22 -40 -37
t-69 -15q-51 0 -91.5 33t-40.5 88t39 101.5t84 46.5q23 0 59.5 -19.5t36.5 -39.5q0 -7 -7 -12.5t-17 -5.5t-29 19t-34 19q-30 0 -57 -39.5t-27 -75t23.5 -55.5t59 -20t69.5 31z" />
    <glyph glyph-name="ordfeminine" unicode="&#xaa;" horiz-adv-x="363" 
d="M233 605l-1 -35q0 -75 39 -75q3 0 19 4q36 9 36 -16q0 -12 -20.5 -19.5t-35.5 -7.5q-47 0 -67 59q-44 -70 -90 -70q-29 0 -48.5 21.5t-19.5 65t32.5 85.5t74.5 42q19 0 50 -18t31 -36zM102 590.5q-22 -28.5 -22 -52.5t9 -40.5t27.5 -16.5t42.5 40.5t35 77.5
q-11 3 -22 11.5t-21 8.5q-27 0 -49 -28.5z" />
    <glyph glyph-name="guillemotleft" unicode="&#xab;" horiz-adv-x="666" 
d="M616 135q15 -5 15 -12t-14 -19t-33 -12q-13 0 -52.5 14.5t-64 27.5t-37.5 20.5t-38 27t-33.5 27t-40 36t-39.5 35.5t-8 11q0 20 59 66.5t135.5 90.5t93.5 44t25 -17q3 -5 3 -9q0 -11 -16 -18q-33 -15 -124 -74t-91 -77q0 -36 99 -89.5t161 -72.5zM371 116q15 -5 15 -12
t-14 -19t-33 -12q-8 0 -12 2q-52 16 -93.5 39t-63 42t-64.5 60.5t-71 66.5q-4 4 -4 8q0 20 59 66.5t135.5 90.5t93.5 44t25 -16q2 -4 2 -8q0 -11 -16 -19q-32 -15 -123 -74.5t-91 -77.5q0 -35 101.5 -100t153.5 -81z" />
    <glyph glyph-name="registered" unicode="&#xae;" horiz-adv-x="716" 
d="M56 338q0 140 71 232.5t207 92.5t233 -88.5t97 -222.5t-95.5 -226t-252.5 -92q-260 0 -260 304zM321 70q116 0 208 87.5t92 201t-88 189t-194 75.5q-63 0 -110.5 -25t-74.5 -68q-54 -86 -54 -207t61 -187t160 -66zM230 199l4 236q0 15 35.5 26t80.5 11t80.5 -22t35.5 -70
q0 -64 -105 -93q4 -2 45.5 -30.5t61.5 -37.5t20 -21.5t-7 -16t-12 -3.5t-20.5 6.5t-74.5 46.5t-91 51v-42q0 -10 -1 -16t-2 -14t-3 -13t-5 -10q-4 -9 -14.5 -9t-19 6t-8.5 15zM283 387l-1 -44q0 -19 1 -27q85 14 109 32.5t24 42.5q0 41 -61 41q-24 0 -46 -5.5t-27 -6.5
q1 -13 1 -33z" />
    <glyph glyph-name="degree" unicode="&#xb0;" horiz-adv-x="353" 
d="M88.5 647.5q47.5 43.5 101 43.5t90.5 -30.5t37 -81.5t-54.5 -97t-112.5 -46t-83.5 31t-25.5 75q0 62 47.5 105.5zM121 504.5q12 -19.5 41 -19.5t57 28t28 57t-18 49t-47.5 20t-51 -29t-21.5 -57.5t12 -48z" />
    <glyph glyph-name="plusminus" unicode="&#xb1;" horiz-adv-x="435" 
d="M183 227l9 74q-67 -5 -81 -5t-25 10.5t-11 23.5q0 10 19 14t55.5 6t45.5 3l-1 54q0 72 33 72q13 0 21.5 -7.5t8.5 -19.5q0 -46 -3 -93q61 8 71.5 8t21.5 -10t11 -19t-3.5 -12.5t-11 -6t-15 -4t-19 -3t-19.5 -2t-20 -1.5t-17 -1q-3 -112 -33 -112q-13 0 -25 9.5t-12 21.5z
M98 140l244 7q22 -1 32 -25q3 -7 3 -12q0 -15 -22 -14h-15l-209 -7q-23 0 -42 1t-29 22q-4 7 -4 13q0 14 22 15h20z" />
    <glyph glyph-name="acute" unicode="&#xb4;" horiz-adv-x="374" 
d="M180.5 638.5q67.5 42.5 81.5 52t27.5 9.5t31 -5.5t17.5 -13.5q0 -6 -11.5 -14t-79.5 -51.5t-102 -69.5q-8 -6 -21 -6t-32 6t-19 14q0 4 6 10q34 26 101.5 68.5z" />
    <glyph glyph-name="mu" unicode="&#xb5;" horiz-adv-x="669" 
d="M230 408q0 -344 89 -344q41 0 70 50t41 125q20 134 20 216q0 25 12.5 32.5t26 0.5t17.5 -19q17 -52 18 -232q1 -55 25.5 -109.5t76.5 -77.5q18 -9 18 -24t-10 -20t-23 0q-63 29 -92 77.5t-38 117.5q-46 -188 -143 -188q-73 0 -115.5 71t-42.5 169q-23 -99 -34.5 -319
t-32.5 -317q-3 -17 -20 -17q-30 0 -36 26v6l20 213q12 137 21 223q22 228 67 417q5 16 22.5 16t30.5 -7t13 -20z" />
    <glyph glyph-name="paragraph" unicode="&#xb6;" horiz-adv-x="700" 
d="M540 512l8 -505q0 -67 -1 -165q-2 -20 -24 -20q-18 0 -25.5 9t-7.5 17q0 475 -6 665q-58 0 -103 -4v-75t6 -210.5t6 -238t-4 -142.5q-1 -21 -26 -21q-8 0 -19 5.5t-11 19.5l3 156v104t-3 52q-28 -9 -70 -9q-91 0 -161 49.5t-70 134.5q0 68 37 115.5t101 70.5
q118 42 276 42q74 0 196 -10q13 -1 19 -10.5t6 -17.5q0 -19 -22 -19z" />
    <glyph glyph-name="periodcentered" unicode="&#xb7;" horiz-adv-x="236" 
d="M78 307.5q-21 13.5 -21 32.5t22 36.5t45 17.5t39 -13t16 -32.5t-21.5 -37t-40 -17.5t-39.5 13.5z" />
    <glyph glyph-name="cedilla" unicode="&#xb8;" horiz-adv-x="384" 
d="M237 -19q33 0 54 -15t21 -47q0 -50 -49.5 -76t-118.5 -26t-99 49q0 9 15 18t33 9q7 0 31.5 -19.5t53.5 -19.5t47.5 14.5t18.5 40.5q0 42 -29 42q-1 0 -16 -2q-34 -5 -34 6q0 41 49.5 100.5t81.5 59.5q16 0 16 -5q0 -14 -35 -67t-40 -62z" />
    <glyph glyph-name="ordmasculine" unicode="&#xba;" horiz-adv-x="291" 
d="M71.5 470q-27.5 20 -27.5 58.5t27 80.5t70 42t74.5 -23t31.5 -68.5t-30 -77.5t-74 -32t-71.5 20zM97 498.5q17 -11.5 43.5 -11.5t48.5 20t22 50t-21 43t-44.5 13t-44.5 -29t-21 -51.5t17 -34z" />
    <glyph glyph-name="guillemotright" unicode="&#xbb;" horiz-adv-x="663" 
d="M48 440q-15 5 -15 12t14 19t33 12q13 0 52.5 -14.5t64 -27.5t37.5 -20.5t38 -27t33.5 -27t40 -36t39.5 -35.5t8 -11q0 -20 -59 -66.5t-135.5 -90.5t-94.5 -44t-28 14.5t11 23.5q31 14 126 77.5t95 81.5q0 37 -98 88.5t-162 71.5zM291 459q-15 5 -15 12t14 19t33 12
q21 0 70.5 -22.5t77.5 -44t47 -39t52 -49.5t59 -55q4 -4 4 -8q0 -20 -59 -66.5t-135.5 -90.5t-94.5 -44t-28 14.5t11 23.5q31 14 126 77.5t95 81.5q0 36 -102 99.5t-155 79.5z" />
    <glyph glyph-name="questiondown" unicode="&#xbf;" horiz-adv-x="430" 
d="M350 -106q8 6 17.5 6t22 -8t12.5 -17.5t-13 -17.5q-66 -39 -178 -39q-137 0 -168 44q-14 19 -14 53.5t30 86t66 94t67.5 92.5t33.5 84q1 14 15.5 22t26.5 8h8q17 -4 18 -21q-3 -46 -34 -99t-65.5 -92.5t-63 -87.5t-28.5 -81t27 -45t98.5 -12t121.5 30zM235 408
q-17 2 -30 12.5t-13 30t24 35.5t50 16q39 0 39 -28.5t-20 -47t-50 -18.5z" />
    <glyph glyph-name="Agrave" unicode="&#xc0;" horiz-adv-x="694" 
d="M661 5q-16 -22 -46 -22q-8 0 -16 2q-22 50 -37 177q-6 56 -11 85q-109 4 -218 4t-195 -9q-9 -41 -19.5 -122.5t-15.5 -109.5q-20 -16 -45 -16q-9 0 -20 8q3 24 16 138.5t34 215.5q49 229 145 310q62 51 139 51q69 0 117.5 -56t73.5 -147t40 -183t29 -188t29 -138z
M267 621q-41 -43 -65 -107q-43 -119 -54 -220q100 11 201 11t195 -6q-4 15 -15 71t-22.5 98.5t-31 91.5t-49.5 76.5t-74 27.5t-85 -43zM479 814q13 -5 13 -14q0 -7 -10.5 -22t-27.5 -15q-6 0 -9 2q-82 29 -183 110q-7 6 -7 12t5 17q9 18 34 18q7 0 13 -3q100 -79 172 -105z
" />
    <glyph glyph-name="Aacute" unicode="&#xc1;" horiz-adv-x="694" 
d="M661 5q-16 -22 -46 -22q-8 0 -16 2q-22 50 -37 177q-6 56 -11 85q-109 4 -218 4t-195 -9q-9 -41 -19.5 -122.5t-15.5 -109.5q-20 -16 -45 -16q-9 0 -20 8q3 24 16 138.5t34 215.5q49 229 145 310q62 51 139 51q69 0 117.5 -56t73.5 -147t40 -183t29 -188t29 -138z
M267 621q-41 -43 -65 -107q-43 -119 -54 -220q100 11 201 11t195 -6q-4 15 -15 71t-22.5 98.5t-31 91.5t-49.5 76.5t-74 27.5t-85 -43zM317.5 871.5q67.5 42.5 81.5 52t27.5 9.5t31 -5.5t17.5 -13.5q0 -6 -11.5 -14t-79.5 -51.5t-102 -69.5q-8 -6 -21 -6t-32 6t-19 14
q0 4 6 10q34 26 101.5 68.5z" />
    <glyph glyph-name="Acircumflex" unicode="&#xc2;" horiz-adv-x="694" 
d="M661 5q-16 -22 -46 -22q-8 0 -16 2q-22 50 -37 177q-6 56 -11 85q-109 4 -218 4t-195 -9q-9 -41 -19.5 -122.5t-15.5 -109.5q-20 -16 -45 -16q-9 0 -20 8q3 24 16 138.5t34 215.5q49 229 145 310q62 51 139 51q69 0 117.5 -56t73.5 -147t40 -183t29 -188t29 -138z
M267 621q-41 -43 -65 -107q-43 -119 -54 -220q100 11 201 11t195 -6q-4 15 -15 71t-22.5 98.5t-31 91.5t-49.5 76.5t-74 27.5t-85 -43zM296 867.5q31 13.5 67.5 13.5t60 -11.5t37 -25.5t30.5 -33t29 -28q3 -3 3 -6q0 -6 -18.5 -11.5t-37.5 -5.5t-58.5 40.5t-57.5 48.5
q-12 -7 -37 -30t-51 -35.5t-55 -12.5t-30 6l2 4q6 4 45.5 38.5t70.5 48z" />
    <glyph glyph-name="Atilde" unicode="&#xc3;" horiz-adv-x="694" 
d="M661 5q-16 -22 -46 -22q-8 0 -16 2q-22 50 -37 177q-6 56 -11 85q-109 4 -218 4t-195 -9q-9 -41 -19.5 -122.5t-15.5 -109.5q-20 -16 -45 -16q-9 0 -20 8q3 24 16 138.5t34 215.5q49 229 145 310q62 51 139 51q69 0 117.5 -56t73.5 -147t40 -183t29 -188t29 -138z
M267 621q-41 -43 -65 -107q-43 -119 -54 -220q100 11 201 11t195 -6q-4 15 -15 71t-22.5 98.5t-31 91.5t-49.5 76.5t-74 27.5t-85 -43zM248 779q-11 -13 -40 -13t-29 13q0 5 4 11q64 76 120 76q32 0 75 -26t53 -26t16.5 6t10.5 12q8 12 19 34q9 16 38 16h4q28 -1 26 -19
l-3 -9q-44 -90 -121 -90q-26 0 -67.5 25t-54.5 25q-22 0 -51 -35z" />
    <glyph glyph-name="Adieresis" unicode="&#xc4;" horiz-adv-x="694" 
d="M661 5q-16 -22 -46 -22q-8 0 -16 2q-22 50 -37 177q-6 56 -11 85q-109 4 -218 4t-195 -9q-9 -41 -19.5 -122.5t-15.5 -109.5q-20 -16 -45 -16q-9 0 -20 8q3 24 16 138.5t34 215.5q49 229 145 310q62 51 139 51q69 0 117.5 -56t73.5 -147t40 -183t29 -188t29 -138z
M267 621q-41 -43 -65 -107q-43 -119 -54 -220q100 11 201 11t195 -6q-4 15 -15 71t-22.5 98.5t-31 91.5t-49.5 76.5t-74 27.5t-85 -43zM259 861q13 0 31 -8.5t18 -21.5q0 -29 -25.5 -42t-62.5 -13t-37 23q0 62 76 62zM424.5 844q24.5 18 47 18t41 -10.5t18.5 -24.5
q0 -25 -31.5 -38t-54.5 -13q-45 0 -45 22q0 28 24.5 46z" />
    <glyph glyph-name="Aring" unicode="&#xc5;" horiz-adv-x="694" 
d="M661 5q-16 -22 -46 -22q-8 0 -16 2q-22 50 -37 177q-6 56 -11 85q-109 4 -218 4t-195 -9q-9 -41 -19.5 -122.5t-15.5 -109.5q-20 -16 -45 -16q-9 0 -20 8q3 24 16 138.5t34 215.5q49 229 145 310q62 51 139 51q69 0 117.5 -56t73.5 -147t40 -183t29 -188t29 -138z
M267 621q-41 -43 -65 -107q-43 -119 -54 -220q100 11 201 11t195 -6q-4 15 -15 71t-22.5 98.5t-31 91.5t-49.5 76.5t-74 27.5t-85 -43zM400 927q29 -3 58 -18.5t29 -39.5q0 -50 -37.5 -84.5t-89.5 -34.5q-32 0 -64.5 17t-32.5 42q0 50 42.5 83t94.5 35zM347 796
q10 -11 26 -11t30.5 22t14.5 39t-10.5 30.5t-25.5 15.5q-45 -31 -45 -73q0 -12 10 -23z" />
    <glyph glyph-name="AE" unicode="&#xc6;" horiz-adv-x="985" 
d="M584 345q0 -6 -5 -261q19 1 328 7q24 0 36 -23q4 -8 4 -14q0 -16 -24 -18q-69 -6 -195 -6.5t-168 -2.5q-46 0 -46 53l3 156q-40 0 -129 -6t-124.5 -6t-52.5 1q-94 -121 -144 -202q-8 -12 -24.5 -12t-27.5 12t-11 20t5 15q58 73 145 196.5t168.5 231.5t162.5 195
q17 18 73 18t349 16q26 0 37 -23q3 -8 3 -13q0 -15 -24 -20q-82 -11 -142 -12q-188 -3 -219 -3q17 -100 21 -241q72 9 189 9q82 0 82 -37q0 -23 -24 -23q-46 0 -246 -7zM255 281l263 11l-9 313q-54 -61 -148.5 -185.5t-105.5 -138.5z" />
    <glyph glyph-name="Ccedilla" unicode="&#xc7;" horiz-adv-x="736" 
d="M722 171q-41 -81 -137.5 -127.5t-212.5 -49.5q-3 -6 -13 -22t-14 -25q35 0 63 -15.5t28 -46.5q0 -50 -49.5 -76t-118.5 -26t-99 49q0 9 15 18t33 9q7 0 31.5 -19.5t53.5 -19.5t47.5 14.5t18.5 36t-14 34t-31 12.5q-1 0 -16 -2q-34 -5 -34 6q0 39 40 75q-117 11 -191 81
t-74 194q0 84 28 162.5t77.5 139t124 96.5t161.5 36q155 0 206 -140q-15 -14 -26 -20t-21.5 -1t-14.5 8t-15.5 19.5t-14.5 20.5q-51 63 -131.5 63t-151 -51.5t-113.5 -135.5t-43 -175q0 -112 74.5 -183t198 -71t216.5 69q15 11 32.5 32t30 30t24 8t32.5 -7z" />
    <glyph glyph-name="Egrave" unicode="&#xc8;" horiz-adv-x="630" 
d="M304 654q-82 0 -138 -5q-11 -56 -11 -161l1 -45q0 -29 -1 -62q46 -8 120 -8l135 1q72 0 72 -22q0 -38 -97 -38l-227 7q-1 -24 -2.5 -113.5t-8.5 -151.5q64 -4 107 -4t155 7q82 5 122.5 5t55.5 -5.5t15 -21t-8 -21.5q-5 -3 -10 -5.5t-12.5 -4t-13 -2.5t-15 -1.5t-15 -1
t-15 -0.5t-109.5 -4.5t-155 -4.5q-165 0 -165 46q-2 93 -2 177q0 277 18 461q10 16 49.5 29t183.5 13l154 -3q77 0 106 -18q-3 -28 -21 -37t-52 -9zM453 822q13 -5 13 -14q0 -7 -10.5 -22t-27.5 -15q-6 0 -9 2q-82 29 -183 110q-7 6 -7 12t5 17q9 18 34 18q7 0 13 -3
q100 -79 172 -105z" />
    <glyph glyph-name="Eacute" unicode="&#xc9;" horiz-adv-x="630" 
d="M304 654q-82 0 -138 -5q-11 -56 -11 -161l1 -45q0 -29 -1 -62q46 -8 120 -8l135 1q72 0 72 -22q0 -38 -97 -38l-227 7q-1 -24 -2.5 -113.5t-8.5 -151.5q64 -4 107 -4t155 7q82 5 122.5 5t55.5 -5.5t15 -21t-8 -21.5q-5 -3 -10 -5.5t-12.5 -4t-13 -2.5t-15 -1.5t-15 -1
t-15 -0.5t-109.5 -4.5t-155 -4.5q-165 0 -165 46q-2 93 -2 177q0 277 18 461q10 16 49.5 29t183.5 13l154 -3q77 0 106 -18q-3 -28 -21 -37t-52 -9zM335.5 872.5q67.5 42.5 81.5 52t27.5 9.5t31 -5.5t17.5 -13.5q0 -6 -11.5 -14t-79.5 -51.5t-102 -69.5q-8 -6 -21 -6t-32 6
t-19 14q0 4 6 10q34 26 101.5 68.5z" />
    <glyph glyph-name="Ecircumflex" unicode="&#xca;" horiz-adv-x="630" 
d="M304 654q-82 0 -138 -5q-11 -56 -11 -161l1 -45q0 -29 -1 -62q46 -8 120 -8l135 1q72 0 72 -22q0 -38 -97 -38l-227 7q-1 -24 -2.5 -113.5t-8.5 -151.5q64 -4 107 -4t155 7q82 5 122.5 5t55.5 -5.5t15 -21t-8 -21.5q-5 -3 -10 -5.5t-12.5 -4t-13 -2.5t-15 -1.5t-15 -1
t-15 -0.5t-109.5 -4.5t-155 -4.5q-165 0 -165 46q-2 93 -2 177q0 277 18 461q10 16 49.5 29t183.5 13l154 -3q77 0 106 -18q-3 -28 -21 -37t-52 -9zM284 874.5q31 13.5 67.5 13.5t60 -11.5t37 -25.5t30.5 -33t29 -28q3 -3 3 -6q0 -6 -18.5 -11.5t-37.5 -5.5t-58.5 40.5
t-57.5 48.5q-12 -7 -37 -30t-51 -35.5t-55 -12.5t-30 6l2 4q6 4 45.5 38.5t70.5 48z" />
    <glyph glyph-name="Edieresis" unicode="&#xcb;" horiz-adv-x="630" 
d="M304 654q-82 0 -138 -5q-11 -56 -11 -161l1 -45q0 -29 -1 -62q46 -8 120 -8l135 1q72 0 72 -22q0 -38 -97 -38l-227 7q-1 -24 -2.5 -113.5t-8.5 -151.5q64 -4 107 -4t155 7q82 5 122.5 5t55.5 -5.5t15 -21t-8 -21.5q-5 -3 -10 -5.5t-12.5 -4t-13 -2.5t-15 -1.5t-15 -1
t-15 -0.5t-109.5 -4.5t-155 -4.5q-165 0 -165 46q-2 93 -2 177q0 277 18 461q10 16 49.5 29t183.5 13l154 -3q77 0 106 -18q-3 -28 -21 -37t-52 -9zM240 863q13 0 31 -8.5t18 -21.5q0 -29 -25.5 -42t-62.5 -13t-37 23q0 62 76 62zM405.5 846q24.5 18 47 18t41 -10.5
t18.5 -24.5q0 -25 -31.5 -38t-54.5 -13q-45 0 -45 22q0 28 24.5 46z" />
    <glyph glyph-name="Igrave" unicode="&#xcc;" horiz-adv-x="244" 
d="M127 714q14 0 36 -10q-10 -452 -11 -706q-15 -16 -26.5 -16t-19.5 5q-23 15 -23 56q2 481 8 575q0 96 36 96zM235 820q13 -5 13 -14q0 -7 -10.5 -22t-27.5 -15q-6 0 -9 2q-82 29 -183 110q-7 6 -7 12t5 17q9 18 34 18q7 0 13 -3q100 -79 172 -105z" />
    <glyph glyph-name="Iacute" unicode="&#xcd;" horiz-adv-x="244" 
d="M127 714q14 0 36 -10q-10 -452 -11 -706q-15 -16 -26.5 -16t-19.5 5q-23 15 -23 56q2 481 8 575q0 96 36 96zM101.5 868.5q67.5 42.5 81.5 52t27.5 9.5t31 -5.5t17.5 -13.5q0 -6 -11.5 -14t-79.5 -51.5t-102 -69.5q-8 -6 -21 -6t-32 6t-19 14q0 4 6 10q34 26 101.5 68.5z
" />
    <glyph glyph-name="Icircumflex" unicode="&#xce;" horiz-adv-x="244" 
d="M127 714q14 0 36 -10q-10 -452 -11 -706q-15 -16 -26.5 -16t-19.5 5q-23 15 -23 56q2 481 8 575q0 96 36 96zM71 875.5q31 13.5 67.5 13.5t60 -11.5t37 -25.5t30.5 -33t29 -28q3 -3 3 -6q0 -6 -18.5 -11.5t-37.5 -5.5t-58.5 40.5t-57.5 48.5q-12 -7 -37 -30t-51 -35.5
t-55 -12.5t-30 6l2 4q6 4 45.5 38.5t70.5 48z" />
    <glyph glyph-name="Idieresis" unicode="&#xcf;" horiz-adv-x="244" 
d="M127 714q14 0 36 -10q-10 -452 -11 -706q-15 -16 -26.5 -16t-19.5 5q-23 15 -23 56q2 481 8 575q0 96 36 96zM35 864q13 0 31 -8.5t18 -21.5q0 -29 -25.5 -42t-62.5 -13t-37 23q0 62 76 62zM200.5 847q24.5 18 47 18t41 -10.5t18.5 -24.5q0 -25 -31.5 -38t-54.5 -13
q-45 0 -45 22q0 28 24.5 46z" />
    <glyph glyph-name="Ntilde" unicode="&#xd1;" horiz-adv-x="781" 
d="M690 26v-38q-28 -19 -56 -22q-6 0 -14 3.5t-13.5 6t-14.5 14t-12 16.5t-13.5 22t-14.5 23.5t-57 92t-125 193.5q-110 163 -214 259q5 -131 5 -280t-6 -318q-12 -18 -67 -18q0 565 -4 696q19 18 40 18q32 0 90 -58q106 -106 200.5 -241t205.5 -317q0 107 4.5 313.5
t4.5 306.5q16 16 34 16t28 -6q7 -133 7 -219zM294 770q-11 -13 -40 -13t-29 13q0 5 4 11q64 76 120 76q32 0 75 -26t53 -26t16.5 6t10.5 12q8 12 19 34q9 16 38 16h4q28 -1 26 -19l-3 -9q-44 -90 -121 -90q-26 0 -67.5 25t-54.5 25q-22 0 -51 -35z" />
    <glyph glyph-name="Ograve" unicode="&#xd2;" horiz-adv-x="815" 
d="M732 189q-35 -75 -91 -119q-115 -90 -249 -90q-145 0 -244 90.5t-99 247.5q0 119 51.5 205t130.5 125.5t173 39.5q140 0 248 -83q52 -40 83.5 -104.5t31.5 -150.5t-35 -161zM115 316q0 -129 73.5 -206t195.5 -77q141 0 226.5 86.5t85.5 219t-86 211.5t-209 79
t-204.5 -80.5t-81.5 -232.5zM489 806q13 -5 13 -14q0 -7 -10.5 -22t-27.5 -15q-6 0 -9 2q-82 29 -183 110q-7 6 -7 12t5 17q9 18 34 18q7 0 13 -3q100 -79 172 -105z" />
    <glyph glyph-name="Oacute" unicode="&#xd3;" horiz-adv-x="815" 
d="M732 189q-35 -75 -91 -119q-115 -90 -249 -90q-145 0 -244 90.5t-99 247.5q0 119 51.5 205t130.5 125.5t173 39.5q140 0 248 -83q52 -40 83.5 -104.5t31.5 -150.5t-35 -161zM115 316q0 -129 73.5 -206t195.5 -77q141 0 226.5 86.5t85.5 219t-86 211.5t-209 79
t-204.5 -80.5t-81.5 -232.5zM377.5 851.5q67.5 42.5 81.5 52t27.5 9.5t31 -5.5t17.5 -13.5q0 -6 -11.5 -14t-79.5 -51.5t-102 -69.5q-8 -6 -21 -6t-32 6t-19 14q0 4 6 10q34 26 101.5 68.5z" />
    <glyph glyph-name="Ocircumflex" unicode="&#xd4;" horiz-adv-x="815" 
d="M732 189q-35 -75 -91 -119q-115 -90 -249 -90q-145 0 -244 90.5t-99 247.5q0 119 51.5 205t130.5 125.5t173 39.5q140 0 248 -83q52 -40 83.5 -104.5t31.5 -150.5t-35 -161zM115 316q0 -129 73.5 -206t195.5 -77q141 0 226.5 86.5t85.5 219t-86 211.5t-209 79
t-204.5 -80.5t-81.5 -232.5zM340 856.5q31 13.5 67.5 13.5t60 -11.5t37 -25.5t30.5 -33t29 -28q3 -3 3 -6q0 -6 -18.5 -11.5t-37.5 -5.5t-58.5 40.5t-57.5 48.5q-12 -7 -37 -30t-51 -35.5t-55 -12.5t-30 6l2 4q6 4 45.5 38.5t70.5 48z" />
    <glyph glyph-name="Otilde" unicode="&#xd5;" horiz-adv-x="815" 
d="M732 189q-35 -75 -91 -119q-115 -90 -249 -90q-145 0 -244 90.5t-99 247.5q0 119 51.5 205t130.5 125.5t173 39.5q140 0 248 -83q52 -40 83.5 -104.5t31.5 -150.5t-35 -161zM115 316q0 -129 73.5 -206t195.5 -77q141 0 226.5 86.5t85.5 219t-86 211.5t-209 79
t-204.5 -80.5t-81.5 -232.5zM291 760q-11 -13 -40 -13t-29 13q0 5 4 11q64 76 120 76q32 0 75 -26t53 -26t16.5 6t10.5 12q8 12 19 34q9 16 38 16h4q28 -1 26 -19l-3 -9q-44 -90 -121 -90q-26 0 -67.5 25t-54.5 25q-22 0 -51 -35z" />
    <glyph glyph-name="Odieresis" unicode="&#xd6;" horiz-adv-x="815" 
d="M732 189q-35 -75 -91 -119q-115 -90 -249 -90q-145 0 -244 90.5t-99 247.5q0 119 51.5 205t130.5 125.5t173 39.5q140 0 248 -83q52 -40 83.5 -104.5t31.5 -150.5t-35 -161zM115 316q0 -129 73.5 -206t195.5 -77q141 0 226.5 86.5t85.5 219t-86 211.5t-209 79
t-204.5 -80.5t-81.5 -232.5zM304 837q13 0 31 -8.5t18 -21.5q0 -29 -25.5 -42t-62.5 -13t-37 23q0 62 76 62zM469.5 820q24.5 18 47 18t41 -10.5t18.5 -24.5q0 -25 -31.5 -38t-54.5 -13q-45 0 -45 22q0 28 24.5 46z" />
    <glyph glyph-name="Oslash" unicode="&#xd8;" horiz-adv-x="797" 
d="M649 625q116 -98 116 -230q0 -95 -60.5 -180t-152.5 -133.5t-175 -48.5t-146 28q-5 -6 -14.5 -18.5t-17 -22t-16.5 -19.5q-19 -21 -32 -21t-24.5 8.5t-11.5 19t62 82.5q-127 85 -127 240q0 73 30 152q2 3 14 34q27 66 46 72q49 63 118 98t146 35q101 0 196 -60
q5 6 17 21.5t21.5 27.5t21.5 25q25 27 39 27t25.5 -8.5t11.5 -17.5t-15.5 -29t-40.5 -47.5t-31 -34.5zM253 617.5q-69 -50.5 -106 -138t-37 -162.5q0 -130 96 -190q60 78 179.5 245.5t185.5 250.5q-74 45 -161.5 45t-156.5 -50.5zM695 332q10 33 10 69q0 108 -85 186
q-64 -82 -181 -246t-176 -240q60 -15 92 -15q112 0 210.5 70t129.5 176z" />
    <glyph glyph-name="Ugrave" unicode="&#xd9;" horiz-adv-x="686" 
d="M99 692q32 21 56 12q12 -4 9 -22q-30 -198 -30 -302.5t38 -213.5q20 -59 64 -95.5t107 -36.5q88 0 154.5 107.5t66.5 259t-71 296.5q21 18 37.5 18t25.5 -3q80 -115 80 -299q0 -151 -78 -289q-38 -65 -100 -106.5t-129.5 -41.5t-114 28.5t-73 72t-43.5 101.5
q-29 100 -29 219q0 176 30 295zM419 816q13 -5 13 -14q0 -7 -10.5 -22t-27.5 -15q-6 0 -9 2q-82 29 -183 110q-7 6 -7 12t5 17q9 18 34 18q7 0 13 -3q100 -79 172 -105z" />
    <glyph glyph-name="Uacute" unicode="&#xda;" horiz-adv-x="686" 
d="M99 692q32 21 56 12q12 -4 9 -22q-30 -198 -30 -302.5t38 -213.5q20 -59 64 -95.5t107 -36.5q88 0 154.5 107.5t66.5 259t-71 296.5q21 18 37.5 18t25.5 -3q80 -115 80 -299q0 -151 -78 -289q-38 -65 -100 -106.5t-129.5 -41.5t-114 28.5t-73 72t-43.5 101.5
q-29 100 -29 219q0 176 30 295zM334.5 871.5q67.5 42.5 81.5 52t27.5 9.5t31 -5.5t17.5 -13.5q0 -6 -11.5 -14t-79.5 -51.5t-102 -69.5q-8 -6 -21 -6t-32 6t-19 14q0 4 6 10q34 26 101.5 68.5z" />
    <glyph glyph-name="Ucircumflex" unicode="&#xdb;" horiz-adv-x="686" 
d="M99 692q32 21 56 12q12 -4 9 -22q-30 -198 -30 -302.5t38 -213.5q20 -59 64 -95.5t107 -36.5q88 0 154.5 107.5t66.5 259t-71 296.5q21 18 37.5 18t25.5 -3q80 -115 80 -299q0 -151 -78 -289q-38 -65 -100 -106.5t-129.5 -41.5t-114 28.5t-73 72t-43.5 101.5
q-29 100 -29 219q0 176 30 295zM272 870.5q31 13.5 67.5 13.5t60 -11.5t37 -25.5t30.5 -33t29 -28q3 -3 3 -6q0 -6 -18.5 -11.5t-37.5 -5.5t-58.5 40.5t-57.5 48.5q-12 -7 -37 -30t-51 -35.5t-55 -12.5t-30 6l2 4q6 4 45.5 38.5t70.5 48z" />
    <glyph glyph-name="Udieresis" unicode="&#xdc;" horiz-adv-x="686" 
d="M99 692q32 21 56 12q12 -4 9 -22q-30 -198 -30 -302.5t38 -213.5q20 -59 64 -95.5t107 -36.5q88 0 154.5 107.5t66.5 259t-71 296.5q21 18 37.5 18t25.5 -3q80 -115 80 -299q0 -151 -78 -289q-38 -65 -100 -106.5t-129.5 -41.5t-114 28.5t-73 72t-43.5 101.5
q-29 100 -29 219q0 176 30 295zM251 854q13 0 31 -8.5t18 -21.5q0 -29 -25.5 -42t-62.5 -13t-37 23q0 62 76 62zM416.5 837q24.5 18 47 18t41 -10.5t18.5 -24.5q0 -25 -31.5 -38t-54.5 -13q-45 0 -45 22q0 28 24.5 46z" />
    <glyph glyph-name="germandbls" unicode="&#xdf;" horiz-adv-x="580" 
d="M188 36q0 39 90 28q17 -2 23 -2q170 0 170 119q0 111 -166 121q-27 1 -33 22q-2 5 -2 10q0 15 18 26q50 30 91 82.5t41 104.5t-34 79.5t-80 27.5q-65 0 -106 -52.5t-48.5 -126.5t-14 -277t-12.5 -274q-3 -29 -32 -29l-19 5q-17 10 -18 30q5 106 19 496q0 143 77 231
q57 64 147 64t136 -48t46 -112q0 -130 -95 -215q70 -21 116 -63.5t46 -105.5q0 -67 -40 -111q-43 -49 -149 -62q-41 -5 -82.5 -5t-54.5 2t-23.5 10.5t-10.5 24.5z" />
    <glyph glyph-name="agrave" unicode="&#xe0;" 
d="M375 288l-5 -115q0 -87 20 -117q12 -20 33 -20q6 0 17 3q21 6 35 -6q-7 -35 -70 -35q-43 0 -57 36q-11 27 -16 67.5t-8 55.5q-65 -124 -126 -151q-31 -14 -72 -14t-63.5 39.5t-22.5 115.5t25 159.5t73 141t105 57.5q82 0 109 -68q23 -58 23 -149zM109 217.5
q-7 -48.5 -7 -86t15.5 -64.5t40.5 -27q54 0 104 102t50 190q0 57 -30 94q-20 24 -52.5 24t-59 -37.5t-40.5 -92t-21 -103zM373 596q13 -5 13 -14q0 -7 -10.5 -22t-27.5 -15q-6 0 -9 2q-82 29 -183 110q-7 6 -7 12t5 17q9 18 34 18q7 0 13 -3q100 -79 172 -105z" />
    <glyph glyph-name="aacute" unicode="&#xe1;" 
d="M375 288l-5 -115q0 -87 20 -117q12 -20 33 -20q6 0 17 3q21 6 35 -6q-7 -35 -70 -35q-43 0 -57 36q-11 27 -16 67.5t-8 55.5q-65 -124 -126 -151q-31 -14 -72 -14t-63.5 39.5t-22.5 115.5t25 159.5t73 141t105 57.5q82 0 109 -68q23 -58 23 -149zM109 217.5
q-7 -48.5 -7 -86t15.5 -64.5t40.5 -27q54 0 104 102t50 190q0 57 -30 94q-20 24 -52.5 24t-59 -37.5t-40.5 -92t-21 -103zM215.5 637.5q67.5 42.5 81.5 52t27.5 9.5t31 -5.5t17.5 -13.5q0 -6 -11.5 -14t-79.5 -51.5t-102 -69.5q-8 -6 -21 -6t-32 6t-19 14q0 4 6 10
q34 26 101.5 68.5z" />
    <glyph glyph-name="acircumflex" unicode="&#xe2;" 
d="M375 288l-5 -115q0 -87 20 -117q12 -20 33 -20q6 0 17 3q21 6 35 -6q-7 -35 -70 -35q-43 0 -57 36q-11 27 -16 67.5t-8 55.5q-65 -124 -126 -151q-31 -14 -72 -14t-63.5 39.5t-22.5 115.5t25 159.5t73 141t105 57.5q82 0 109 -68q23 -58 23 -149zM109 217.5
q-7 -48.5 -7 -86t15.5 -64.5t40.5 -27q54 0 104 102t50 190q0 57 -30 94q-20 24 -52.5 24t-59 -37.5t-40.5 -92t-21 -103zM188 661.5q31 13.5 67.5 13.5t60 -11.5t37 -25.5t30.5 -33t29 -28q3 -3 3 -6q0 -6 -18.5 -11.5t-37.5 -5.5t-58.5 40.5t-57.5 48.5q-12 -7 -37 -30
t-51 -35.5t-55 -12.5t-30 6l2 4q6 4 45.5 38.5t70.5 48z" />
    <glyph glyph-name="atilde" unicode="&#xe3;" 
d="M375 288l-5 -115q0 -87 20 -117q12 -20 33 -20q6 0 17 3q21 6 35 -6q-7 -35 -70 -35q-43 0 -57 36q-11 27 -16 67.5t-8 55.5q-65 -124 -126 -151q-31 -14 -72 -14t-63.5 39.5t-22.5 115.5t25 159.5t73 141t105 57.5q82 0 109 -68q23 -58 23 -149zM109 217.5
q-7 -48.5 -7 -86t15.5 -64.5t40.5 -27q54 0 104 102t50 190q0 57 -30 94q-20 24 -52.5 24t-59 -37.5t-40.5 -92t-21 -103zM150 566q-11 -13 -40 -13t-29 13q0 5 4 11q64 76 120 76q32 0 75 -26t53 -26t16.5 6t10.5 12q8 12 19 34q9 16 38 16h4q28 -1 26 -19l-3 -9
q-44 -90 -121 -90q-26 0 -67.5 25t-54.5 25q-22 0 -51 -35z" />
    <glyph glyph-name="adieresis" unicode="&#xe4;" 
d="M375 288l-5 -115q0 -87 20 -117q12 -20 33 -20q6 0 17 3q21 6 35 -6q-7 -35 -70 -35q-43 0 -57 36q-11 27 -16 67.5t-8 55.5q-65 -124 -126 -151q-31 -14 -72 -14t-63.5 39.5t-22.5 115.5t25 159.5t73 141t105 57.5q82 0 109 -68q23 -58 23 -149zM109 217.5
q-7 -48.5 -7 -86t15.5 -64.5t40.5 -27q54 0 104 102t50 190q0 57 -30 94q-20 24 -52.5 24t-59 -37.5t-40.5 -92t-21 -103zM155 648q13 0 31 -8.5t18 -21.5q0 -29 -25.5 -42t-62.5 -13t-37 23q0 62 76 62zM320.5 631q24.5 18 47 18t41 -10.5t18.5 -24.5q0 -25 -31.5 -38
t-54.5 -13q-45 0 -45 22q0 28 24.5 46z" />
    <glyph glyph-name="aring" unicode="&#xe5;" 
d="M375 288l-5 -115q0 -87 20 -117q12 -20 33 -20q6 0 17 3q21 6 35 -6q-7 -35 -70 -35q-43 0 -57 36q-11 27 -16 67.5t-8 55.5q-65 -124 -126 -151q-31 -14 -72 -14t-63.5 39.5t-22.5 115.5t25 159.5t73 141t105 57.5q82 0 109 -68q23 -58 23 -149zM109 217.5
q-7 -48.5 -7 -86t15.5 -64.5t40.5 -27q54 0 104 102t50 190q0 57 -30 94q-20 24 -52.5 24t-59 -37.5t-40.5 -92t-21 -103zM282 727q29 -3 58 -18.5t29 -39.5q0 -50 -37.5 -84.5t-89.5 -34.5q-32 0 -64.5 17t-32.5 42q0 50 42.5 83t94.5 35zM229 596q10 -11 26 -11t30.5 22
t14.5 39t-10.5 30.5t-25.5 15.5q-45 -31 -45 -73q0 -12 10 -23z" />
    <glyph glyph-name="ae" unicode="&#xe6;" horiz-adv-x="787" 
d="M424 203q-2 -20 -2 -27q0 -60 36.5 -93t86.5 -33t81.5 14t45.5 30q36 45 66 45q11 0 26 -6q-10 -49 -75.5 -89.5t-164.5 -40.5q-49 0 -96 37.5t-58 97.5q-11 -138 -21 -138q-16 0 -22 6q-7 7 -7 30.5t1.5 57.5t2.5 63q-65 -124 -126 -151q-31 -14 -72 -14t-63.5 39.5
t-22.5 115.5t25 159.5t73 141t103.5 57.5t85.5 -36.5t37 -84.5t7 -86.5t-2 -71.5q15 116 81.5 192t145.5 76q52 0 88.5 -24.5t36.5 -71.5q0 -87 -77.5 -143.5t-164.5 -56.5q-23 0 -55 5zM109 217.5q-7 -48.5 -7 -86t15.5 -64.5t40.5 -27q54 0 104 102t50 190q0 57 -30 94
q-20 24 -52.5 24t-59 -37.5t-40.5 -92t-21 -103zM500 236q47 0 84 30t52.5 63t15.5 60t-21 47.5t-49 20.5q-50 0 -92.5 -69t-60.5 -143q43 -9 71 -9z" />
    <glyph glyph-name="ccedilla" unicode="&#xe7;" horiz-adv-x="445" 
d="M174 -76q-22 0 -22 9q0 36 31 67q-66 8 -104.5 57.5t-38.5 122.5q0 103 50 206q25 50 68 82.5t96 32.5t85.5 -35.5t55.5 -90.5q-19 -19 -38 -19t-30.5 16.5t-18.5 36t-25.5 36t-46.5 16.5q-39 -4 -71 -55.5t-47 -113.5t-15 -116.5t30.5 -94t82.5 -39.5q60 0 96 42
q15 18 28 36q32 42 58 42q9 0 26 -5q0 -32 -56 -87t-127 -68q-3 -6 -12 -22t-14 -25q34 0 60.5 -15t26.5 -47q0 -50 -45.5 -76t-113.5 -26t-98 49q0 9 15 18t33 9q7 0 31.5 -19.5t53.5 -19.5t46.5 14.5t17.5 35.5t-16 34t-33 13z" />
    <glyph glyph-name="egrave" unicode="&#xe8;" horiz-adv-x="473" 
d="M110 203q-2 -20 -2 -27q0 -60 36.5 -93t86.5 -33t81.5 14t45.5 30q36 45 66 45q11 0 26 -6q-10 -49 -75.5 -89.5t-164.5 -40.5q-70 0 -120.5 44.5t-50.5 121.5t30.5 149.5t88 124t117 51.5t96 -24.5t36.5 -71.5q0 -87 -77.5 -143.5t-164.5 -56.5q-23 0 -55 5zM186 236
q47 0 84 30t52.5 63t15.5 60t-21 47.5t-49 20.5q-50 0 -92.5 -69t-60.5 -143q44 -9 71 -9zM379 596q13 -5 13 -14q0 -7 -10.5 -22t-27.5 -15q-6 0 -9 2q-82 29 -183 110q-7 6 -7 12t5 17q9 18 34 18q7 0 13 -3q100 -79 172 -105z" />
    <glyph glyph-name="eacute" unicode="&#xe9;" horiz-adv-x="473" 
d="M110 203q-2 -20 -2 -27q0 -60 36.5 -93t86.5 -33t81.5 14t45.5 30q36 45 66 45q11 0 26 -6q-10 -49 -75.5 -89.5t-164.5 -40.5q-70 0 -120.5 44.5t-50.5 121.5t30.5 149.5t88 124t117 51.5t96 -24.5t36.5 -71.5q0 -87 -77.5 -143.5t-164.5 -56.5q-23 0 -55 5zM186 236
q47 0 84 30t52.5 63t15.5 60t-21 47.5t-49 20.5q-50 0 -92.5 -69t-60.5 -143q44 -9 71 -9zM222.5 640.5q67.5 42.5 81.5 52t27.5 9.5t31 -5.5t17.5 -13.5q0 -6 -11.5 -14t-79.5 -51.5t-102 -69.5q-8 -6 -21 -6t-32 6t-19 14q0 4 6 10q34 26 101.5 68.5z" />
    <glyph glyph-name="ecircumflex" unicode="&#xea;" horiz-adv-x="473" 
d="M110 203q-2 -20 -2 -27q0 -60 36.5 -93t86.5 -33t81.5 14t45.5 30q36 45 66 45q11 0 26 -6q-10 -49 -75.5 -89.5t-164.5 -40.5q-70 0 -120.5 44.5t-50.5 121.5t30.5 149.5t88 124t117 51.5t96 -24.5t36.5 -71.5q0 -87 -77.5 -143.5t-164.5 -56.5q-23 0 -55 5zM186 236
q47 0 84 30t52.5 63t15.5 60t-21 47.5t-49 20.5q-50 0 -92.5 -69t-60.5 -143q44 -9 71 -9zM206 659.5q31 13.5 67.5 13.5t60 -11.5t37 -25.5t30.5 -33t29 -28q3 -3 3 -6q0 -6 -18.5 -11.5t-37.5 -5.5t-58.5 40.5t-57.5 48.5q-12 -7 -37 -30t-51 -35.5t-55 -12.5t-30 6l2 4
q6 4 45.5 38.5t70.5 48z" />
    <glyph glyph-name="edieresis" unicode="&#xeb;" horiz-adv-x="473" 
d="M110 203q-2 -20 -2 -27q0 -60 36.5 -93t86.5 -33t81.5 14t45.5 30q36 45 66 45q11 0 26 -6q-10 -49 -75.5 -89.5t-164.5 -40.5q-70 0 -120.5 44.5t-50.5 121.5t30.5 149.5t88 124t117 51.5t96 -24.5t36.5 -71.5q0 -87 -77.5 -143.5t-164.5 -56.5q-23 0 -55 5zM186 236
q47 0 84 30t52.5 63t15.5 60t-21 47.5t-49 20.5q-50 0 -92.5 -69t-60.5 -143q44 -9 71 -9zM167 638q13 0 31 -8.5t18 -21.5q0 -29 -25.5 -42t-62.5 -13t-37 23q0 62 76 62zM332.5 621q24.5 18 47 18t41 -10.5t18.5 -24.5q0 -25 -31.5 -38t-54.5 -13q-45 0 -45 22
q0 28 24.5 46z" />
    <glyph glyph-name="igrave" unicode="&#xec;" horiz-adv-x="200" 
d="M131 287l2 -221q0 -31 -13.5 -43.5t-25 -12.5t-23.5 6q-5 130 -5 230t3.5 145.5t6.5 58t10.5 23.5t19 9.5t30.5 -10.5q-5 -85 -5 -185zM216 591q13 -5 13 -14q0 -7 -10.5 -22t-27.5 -15q-6 0 -9 2q-82 29 -183 110q-7 6 -7 12t5 17q9 18 34 18q7 0 13 -3
q100 -79 172 -105z" />
    <glyph glyph-name="iacute" unicode="&#xed;" horiz-adv-x="200" 
d="M131 287l2 -221q0 -31 -13.5 -43.5t-25 -12.5t-23.5 6q-5 130 -5 230t3.5 145.5t6.5 58t10.5 23.5t19 9.5t30.5 -10.5q-5 -85 -5 -185zM72.5 638.5q67.5 42.5 81.5 52t27.5 9.5t31 -5.5t17.5 -13.5q0 -6 -11.5 -14t-79.5 -51.5t-102 -69.5q-8 -6 -21 -6t-32 6t-19 14
q0 4 6 10q34 26 101.5 68.5z" />
    <glyph glyph-name="icircumflex" unicode="&#xee;" horiz-adv-x="200" 
d="M131 287l2 -221q0 -31 -13.5 -43.5t-25 -12.5t-23.5 6q-5 130 -5 230t3.5 145.5t6.5 58t10.5 23.5t19 9.5t30.5 -10.5q-5 -85 -5 -185zM52 649.5q31 13.5 67.5 13.5t60 -11.5t37 -25.5t30.5 -33t29 -28q3 -3 3 -6q0 -6 -18.5 -11.5t-37.5 -5.5t-58.5 40.5t-57.5 48.5
q-12 -7 -37 -30t-51 -35.5t-55 -12.5t-30 6l2 4q6 4 45.5 38.5t70.5 48z" />
    <glyph glyph-name="idieresis" unicode="&#xef;" horiz-adv-x="200" 
d="M131 287l2 -221q0 -31 -13.5 -43.5t-25 -12.5t-23.5 6q-5 130 -5 230t3.5 145.5t6.5 58t10.5 23.5t19 9.5t30.5 -10.5q-5 -85 -5 -185zM8 641q13 0 31 -8.5t18 -21.5q0 -29 -25.5 -42t-62.5 -13t-37 23q0 62 76 62zM173.5 624q24.5 18 47 18t41 -10.5t18.5 -24.5
q0 -25 -31.5 -38t-54.5 -13q-45 0 -45 22q0 28 24.5 46z" />
    <glyph glyph-name="ntilde" unicode="&#xf1;" horiz-adv-x="476" 
d="M470 28q-18 -19 -41 -19q-43 0 -64 46t-24.5 112t-4.5 132t-10.5 112t-35.5 46q-35 0 -59.5 -63t-34.5 -140q-28 -215 -54 -241q-18 -9 -31 -9t-22 3q-21 92 -27 317q-2 112 -4 145q21 14 36 14t24 -3q5 -43 5.5 -176t1.5 -153q5 21 12.5 68t13.5 77.5t19 71.5t29 65.5
t44 42t63 17.5q47 0 68.5 -42.5t23.5 -105.5t2.5 -128t16 -119t53.5 -70zM134 573q-11 -13 -40 -13t-29 13q0 5 4 11q64 76 120 76q32 0 75 -26t53 -26t16.5 6t10.5 12q8 12 19 34q9 16 38 16h4q28 -1 26 -19l-3 -9q-44 -90 -121 -90q-26 0 -67.5 25t-54.5 25q-22 0 -51 -35
z" />
    <glyph glyph-name="ograve" unicode="&#xf2;" horiz-adv-x="490" 
d="M240 493q96 0 153.5 -78t57.5 -177.5t-63 -168.5t-160 -69t-141 54.5t-44 153.5q0 129 50.5 207t146.5 78zM117.5 284q-6.5 -39 -6.5 -72.5t5 -61t17 -54t36 -42t57 -15.5q67 0 112.5 55t45.5 133t-41.5 151.5t-101.5 73.5q-36 0 -63 -25t-40.5 -64.5t-20 -78.5zM345 591
q13 -5 13 -14q0 -7 -10.5 -22t-27.5 -15q-6 0 -9 2q-82 29 -183 110q-7 6 -7 12t5 17q9 18 34 18q7 0 13 -3q100 -79 172 -105z" />
    <glyph glyph-name="oacute" unicode="&#xf3;" horiz-adv-x="490" 
d="M240 493q96 0 153.5 -78t57.5 -177.5t-63 -168.5t-160 -69t-141 54.5t-44 153.5q0 129 50.5 207t146.5 78zM117.5 284q-6.5 -39 -6.5 -72.5t5 -61t17 -54t36 -42t57 -15.5q67 0 112.5 55t45.5 133t-41.5 151.5t-101.5 73.5q-36 0 -63 -25t-40.5 -64.5t-20 -78.5z
M207.5 638.5q67.5 42.5 81.5 52t27.5 9.5t31 -5.5t17.5 -13.5q0 -6 -11.5 -14t-79.5 -51.5t-102 -69.5q-8 -6 -21 -6t-32 6t-19 14q0 4 6 10q34 26 101.5 68.5z" />
    <glyph glyph-name="ocircumflex" unicode="&#xf4;" horiz-adv-x="490" 
d="M240 493q96 0 153.5 -78t57.5 -177.5t-63 -168.5t-160 -69t-141 54.5t-44 153.5q0 129 50.5 207t146.5 78zM117.5 284q-6.5 -39 -6.5 -72.5t5 -61t17 -54t36 -42t57 -15.5q67 0 112.5 55t45.5 133t-41.5 151.5t-101.5 73.5q-36 0 -63 -25t-40.5 -64.5t-20 -78.5z
M175 652.5q31 13.5 67.5 13.5t60 -11.5t37 -25.5t30.5 -33t29 -28q3 -3 3 -6q0 -6 -18.5 -11.5t-37.5 -5.5t-58.5 40.5t-57.5 48.5q-12 -7 -37 -30t-51 -35.5t-55 -12.5t-30 6l2 4q6 4 45.5 38.5t70.5 48z" />
    <glyph glyph-name="otilde" unicode="&#xf5;" horiz-adv-x="490" 
d="M240 493q96 0 153.5 -78t57.5 -177.5t-63 -168.5t-160 -69t-141 54.5t-44 153.5q0 129 50.5 207t146.5 78zM117.5 284q-6.5 -39 -6.5 -72.5t5 -61t17 -54t36 -42t57 -15.5q67 0 112.5 55t45.5 133t-41.5 151.5t-101.5 73.5q-36 0 -63 -25t-40.5 -64.5t-20 -78.5zM139 566
q-11 -13 -40 -13t-29 13q0 5 4 11q64 76 120 76q32 0 75 -26t53 -26t16.5 6t10.5 12q8 12 19 34q9 16 38 16h4q28 -1 26 -19l-3 -9q-44 -90 -121 -90q-26 0 -67.5 25t-54.5 25q-22 0 -51 -35z" />
    <glyph glyph-name="odieresis" unicode="&#xf6;" horiz-adv-x="490" 
d="M240 493q96 0 153.5 -78t57.5 -177.5t-63 -168.5t-160 -69t-141 54.5t-44 153.5q0 129 50.5 207t146.5 78zM117.5 284q-6.5 -39 -6.5 -72.5t5 -61t17 -54t36 -42t57 -15.5q67 0 112.5 55t45.5 133t-41.5 151.5t-101.5 73.5q-36 0 -63 -25t-40.5 -64.5t-20 -78.5zM144 641
q13 0 31 -8.5t18 -21.5q0 -29 -25.5 -42t-62.5 -13t-37 23q0 62 76 62zM309.5 624q24.5 18 47 18t41 -10.5t18.5 -24.5q0 -25 -31.5 -38t-54.5 -13q-45 0 -45 22q0 28 24.5 46z" />
    <glyph glyph-name="divide" unicode="&#xf7;" horiz-adv-x="541" 
d="M106 283l355 -4q25 0 25 -14q0 -18 -29 -34q-14 -8 -25 -8l-184 -3q-195 0 -195 23q0 13 17.5 26.5t35.5 13.5zM229 140q22 17 41 17t33 -9t14 -27.5t-25 -34t-43 -15.5t-30 9.5t-12 26t22 33.5zM265 446q23 0 41.5 -11.5t18.5 -32.5t-18 -37.5t-39.5 -16.5t-34 16.5
t-12.5 36.5q0 40 44 45z" />
    <glyph glyph-name="oslash" unicode="&#xf8;" horiz-adv-x="567" 
d="M513 480q0 -21 -52 -73q74 -64 74 -157t-86.5 -158.5t-205.5 -65.5q-37 0 -73 11q-5 -7 -16 -22t-19 -26t-18 -23q-21 -25 -34 -25t-23 8t-10 17.5t9.5 24.5t31.5 43.5t23 29.5q-41 32 -60 67t-19 91q0 116 72 183.5t181 67.5q66 0 124 -31q4 5 12.5 16t15 19t14.5 17
q17 19 28.5 19t21 -10t9.5 -23zM289 413q-89 0 -141 -51.5t-52 -143.5q0 -74 54 -106q103 138 222 283q-41 18 -83 18zM211 92q19 -3 54 -3t84.5 17.5t86.5 57.5t37 95.5t-50 101.5q-111 -134 -212 -269z" />
    <glyph glyph-name="ugrave" unicode="&#xf9;" horiz-adv-x="458" 
d="M141 469q-26 -49 -26 -146q0 -146 55 -233q32 -51 76.5 -51t71.5 47q32 58 32 160q0 128 -36 189q-16 29 -18.5 42t6.5 19t30 6q61 0 80 -126q6 -35 6 -70q0 -91 -36 -182q-51 -125 -161 -125q-58 0 -99 43q-77 82 -77 247q0 72 10 110t17 49.5t17 21.5t22.5 8t29.5 -9z
M313 585q13 -5 13 -14q0 -7 -10.5 -22t-27.5 -15q-6 0 -9 2q-82 29 -183 110q-7 6 -7 12t5 17q9 18 34 18q7 0 13 -3q100 -79 172 -105z" />
    <glyph glyph-name="uacute" unicode="&#xfa;" horiz-adv-x="458" 
d="M141 469q-26 -49 -26 -146q0 -146 55 -233q32 -51 76.5 -51t71.5 47q32 58 32 160q0 128 -36 189q-16 29 -18.5 42t6.5 19t30 6q61 0 80 -126q6 -35 6 -70q0 -91 -36 -182q-51 -125 -161 -125q-58 0 -99 43q-77 82 -77 247q0 72 10 110t17 49.5t17 21.5t22.5 8t29.5 -9z
M209.5 638.5q67.5 42.5 81.5 52t27.5 9.5t31 -5.5t17.5 -13.5q0 -6 -11.5 -14t-79.5 -51.5t-102 -69.5q-8 -6 -21 -6t-32 6t-19 14q0 4 6 10q34 26 101.5 68.5z" />
    <glyph glyph-name="ucircumflex" unicode="&#xfb;" horiz-adv-x="458" 
d="M141 469q-26 -49 -26 -146q0 -146 55 -233q32 -51 76.5 -51t71.5 47q32 58 32 160q0 128 -36 189q-16 29 -18.5 42t6.5 19t30 6q61 0 80 -126q6 -35 6 -70q0 -91 -36 -182q-51 -125 -161 -125q-58 0 -99 43q-77 82 -77 247q0 72 10 110t17 49.5t17 21.5t22.5 8t29.5 -9z
M179 654.5q31 13.5 67.5 13.5t60 -11.5t37 -25.5t30.5 -33t29 -28q3 -3 3 -6q0 -6 -18.5 -11.5t-37.5 -5.5t-58.5 40.5t-57.5 48.5q-12 -7 -37 -30t-51 -35.5t-55 -12.5t-30 6l2 4q6 4 45.5 38.5t70.5 48z" />
    <glyph glyph-name="udieresis" unicode="&#xfc;" horiz-adv-x="458" 
d="M141 469q-26 -49 -26 -146q0 -146 55 -233q32 -51 76.5 -51t71.5 47q32 58 32 160q0 128 -36 189q-16 29 -18.5 42t6.5 19t30 6q61 0 80 -126q6 -35 6 -70q0 -91 -36 -182q-51 -125 -161 -125q-58 0 -99 43q-77 82 -77 247q0 72 10 110t17 49.5t17 21.5t22.5 8t29.5 -9z
M138 641q13 0 31 -8.5t18 -21.5q0 -29 -25.5 -42t-62.5 -13t-37 23q0 62 76 62zM303.5 624q24.5 18 47 18t41 -10.5t18.5 -24.5q0 -25 -31.5 -38t-54.5 -13q-45 0 -45 22q0 28 24.5 46z" />
    <glyph glyph-name="ydieresis" unicode="&#xff;" horiz-adv-x="442" 
d="M298 420q0 72 46 72q9 0 18 -2v-65t14 -212t14 -238q0 -126 -44 -174t-149.5 -48t-198.5 68q18 22 47 22q11 -1 35 -15q71 -42 118 -42q70 0 99 44t29 148q0 25 -5 180q-1 -3 -7 -25.5t-9 -29.5t-10.5 -26t-15.5 -27t-21 -19q-22 -20 -55.5 -20t-53.5 9t-33.5 28t-24 40
t-16.5 53.5t-9.5 59.5t-5 66t-2 65t-0.5 66v60q10 17 36 17q36 0 36 -26l-6 -97q0 -127 27 -219t56 -92q22 0 39 24t26 67.5t15 82.5t8 91q3 79 3 114zM124 641q13 0 31 -8.5t18 -21.5q0 -29 -25.5 -42t-62.5 -13t-37 23q0 62 76 62zM289.5 624q24.5 18 47 18t41 -10.5
t18.5 -24.5q0 -25 -31.5 -38t-54.5 -13q-45 0 -45 22q0 28 24.5 46z" />
    <glyph glyph-name="dotlessi" unicode="&#x131;" horiz-adv-x="200" 
d="M66 246q0 196 20 226q7 11 17 11t33 -11q-5 -85 -5 -185l2 -221q0 -31 -13.5 -43.5t-25 -12.5t-23.5 6q-5 130 -5 230z" />
    <glyph glyph-name="OE" unicode="&#x152;" horiz-adv-x="1203" 
d="M906 718l154 -3q77 0 106 -18q-3 -28 -21 -37t-52 -9l-216 3q-82 0 -138 -5q-11 -56 -11 -161l1 -45q0 -29 -1 -62q46 -8 120 -8l119 1q68 0 81 -9q6 -6 7 -13q0 -38 -97 -38l-227 7q-1 -24 -2 -82q-2 -121 -9 -183q64 -4 92 -4t58 1t112 6t122.5 5t55.5 -5.5t15 -24.5
q0 -12 -6.5 -16.5t-11.5 -7t-12.5 -4t-13 -2.5t-15 -1.5t-15 -1t-15.5 -0.5h-13q-196 -9 -251 -9q-165 0 -165 46l-2 89q-42 -73 -111.5 -110t-151.5 -37q-145 0 -244 90.5t-99 247.5q0 90 29.5 162t79.5 116q104 92 246 92q86 0 153 -36t106 -105q2 39 10 129q21 33 122 38
q63 4 111 4zM115 316q0 -129 73.5 -206t203 -77t195 82t65.5 220t-66.5 216t-187 78t-202 -80.5t-81.5 -232.5z" />
    <glyph glyph-name="oe" unicode="&#x153;" horiz-adv-x="804" 
d="M441 203q-2 -20 -2 -27q0 -60 36.5 -93t86.5 -33t81.5 14t44.5 30q37 45 67 45q11 0 26 -6q-10 -49 -75.5 -89.5t-168.5 -40.5t-135 98q-56 -101 -182 -101q-89 0 -133 54.5t-44 153.5q0 129 50.5 207t146.5 78q71 0 117 -44.5t64 -117.5q29 72 78.5 117.5t107.5 45.5
t94.5 -24.5t36.5 -71.5q0 -87 -77.5 -143.5t-164.5 -56.5q-23 0 -55 5zM117.5 284q-6.5 -39 -6.5 -72.5t5 -61t17 -54t36 -42t57 -15.5q67 0 112.5 55t45.5 133t-41.5 151.5t-101.5 73.5q-36 0 -63 -25t-40.5 -64.5t-20 -78.5zM517 236q47 0 84 30t52.5 63t15.5 60t-21 47.5
t-49 20.5q-50 0 -92.5 -69t-60.5 -143q44 -9 71 -9z" />
    <glyph glyph-name="Ydieresis" unicode="&#x178;" horiz-adv-x="597" 
d="M336 320q70 182 96 242q19 43 32.5 63t31.5 41.5t37 29.5t34.5 8t32.5 -5q-38 -22 -94 -140t-102.5 -245t-98 -230.5t-83.5 -103.5q-13 0 -28 6q19 41 53.5 130.5t59.5 138.5q-139 149 -213.5 261t-74.5 171q0 10 12 17.5t27 7.5t26 -17t26.5 -52.5t38 -80t71.5 -110.5
t116 -132zM202 851q13 0 31 -8.5t18 -21.5q0 -29 -25.5 -42t-62.5 -13t-37 23q0 62 76 62zM367.5 834q24.5 18 47 18t41 -10.5t18.5 -24.5q0 -25 -31.5 -38t-54.5 -13q-45 0 -45 22q0 28 24.5 46z" />
    <glyph glyph-name="circumflex" unicode="&#x2c6;" horiz-adv-x="446" 
d="M183 654.5q31 13.5 67.5 13.5t60 -11.5t37 -25.5t30.5 -33t29 -28q3 -3 3 -6q0 -6 -18.5 -11.5t-37.5 -5.5t-58.5 40.5t-57.5 48.5q-12 -7 -37 -30t-51 -35.5t-55 -12.5t-30 6l2 4q6 4 45.5 38.5t70.5 48z" />
    <glyph glyph-name="caron" unicode="&#x2c7;" horiz-adv-x="387" 
d="M338 677h8q6 0 6 -2t-1 -5q-14 -12 -46.5 -51t-61.5 -60t-60.5 -21t-55 20.5t-45 49t-38.5 37.5q0 5 23.5 13t39 8t32.5 -16t34.5 -39.5t24.5 -29.5q9 9 25 27q34 37 56 57q12 12 59 12z" />
    <glyph glyph-name="ring" unicode="&#x2da;" horiz-adv-x="331" 
d="M203 696q29 -3 58 -18.5t29 -39.5q0 -50 -37.5 -84.5t-89.5 -34.5q-32 0 -64.5 17t-32.5 42q0 50 42.5 83t94.5 35zM150 565q10 -11 26 -11t30.5 22t14.5 39t-10.5 30.5t-25.5 15.5q-45 -31 -45 -73q0 -12 10 -23z" />
    <glyph glyph-name="tilde" unicode="&#x2dc;" horiz-adv-x="475" 
d="M128 563q-11 -13 -40 -13t-29 13q0 5 4 11q64 76 120 76q32 0 75 -26t53 -26t16.5 6t10.5 12q8 12 19 34q9 16 38 16h4q28 -1 26 -19l-3 -9q-44 -90 -121 -90q-26 0 -67.5 25t-54.5 25q-22 0 -51 -35z" />
    <glyph glyph-name="endash" unicode="&#x2013;" horiz-adv-x="659" 
d="M563 302q31 0 31 -16q0 -22 -46 -34t-106 -13.5t-94 -1.5t-78 0.5t-108 4t-70 3.5q-28 0 -28 11q0 17 37 34q17 8 36 8t106.5 -3.5t128 -3.5t87.5 0.5t72.5 5.5t31.5 5z" />
    <glyph glyph-name="emdash" unicode="&#x2014;" horiz-adv-x="775" 
d="M673 302q31 0 31 -16q0 -22 -56.5 -34t-130 -13.5t-115.5 -1.5t-96 0.5t-130 4t-81 3.5q-28 0 -28 11q0 17 37 34q17 8 33.5 8t131.5 -3.5t169 -3.5t116 0.5t87.5 5.5t31.5 5z" />
    <glyph glyph-name="quoteleft" unicode="&#x2018;" horiz-adv-x="187" 
d="M138 563q0 -74 -36 -74q-28 0 -28 21q0 31 -14.5 88t-16.5 70q0 15 13.5 25t32 10t34 -48.5t15.5 -91.5z" />
    <glyph glyph-name="quoteright" unicode="&#x2019;" horiz-adv-x="189" 
d="M144 675q0 -28 -13 -82.5t-13 -76.5q0 -29 -30 -29l-22 5q-18 9 -18 24q0 28 13 82.5t13 81.5q0 23 31 23l21 -5q18 -8 18 -23z" />
    <glyph glyph-name="quotesinglbase" unicode="&#x201a;" horiz-adv-x="183" 
d="M64 -22q0 9 -3 26.5t-4.5 31.5t-0.5 28q2 31 40 31q32 0 32 -95q0 -164 -109 -247q-12 -8 -23 -8t-21 5t-10 12.5t12 17.5q87 67 87 198z" />
    <glyph glyph-name="quotedblleft" unicode="&#x201c;" horiz-adv-x="330" 
d="M137 563q0 -74 -36 -74q-28 0 -28 21q0 31 -14.5 88t-16.5 70q0 15 13.5 25t32 10t34 -48.5t15.5 -91.5zM200 696.5q14 6.5 25 6.5l13 -2q18 -5 18 -21q0 -27 13 -81.5t13 -82.5q0 -15 -14.5 -22t-25.5 -7l-12 2q-18 5 -18 27t-13 76.5t-13 76t14 28z" />
    <glyph glyph-name="quotedblright" unicode="&#x201d;" horiz-adv-x="330" 
d="M229 489q-36 0 -36 74q0 43 15.5 91.5t34 48.5t32 -10t13.5 -25q-2 -13 -16.5 -70t-14.5 -88q0 -21 -28 -21zM144 675q0 -28 -13 -82.5t-13 -76.5q0 -29 -30 -29l-22 5q-18 9 -18 24q0 28 13 82.5t13 81.5q0 23 31 23l21 -5q18 -8 18 -23z" />
    <glyph glyph-name="quotedblbase" unicode="&#x201e;" horiz-adv-x="338" 
d="M64 -22q0 9 -3 26.5t-4.5 31.5t-0.5 28q2 31 40 31q32 0 32 -95q0 -164 -109 -247q-12 -8 -23 -8t-21 5t-10 12.5t12 17.5q87 67 87 198zM219 -22q0 9 -3 26.5t-4.5 31.5t-0.5 28q2 31 40 31q32 0 32 -95q0 -164 -109 -247q-12 -8 -23 -8t-21 5t-10 12.5t12 17.5
q87 67 87 198z" />
    <glyph glyph-name="dagger" unicode="&#x2020;" horiz-adv-x="422" 
d="M229 559l2 -150q19 -1 62.5 -3.5t67.5 -3.5q31 -4 31 -26q0 -9 -10 -19.5t-28 -10.5h-3l-122 9q0 -213 -11 -390q0 -7 -16 -12.5t-30 -5.5t-16 5q11 212 11 404q-58 0 -82.5 -5.5t-38.5 1.5t-14 20q0 23 36 30q46 9 101 9l-4 135q2 6 19 11q18 6 30.5 6t14.5 -4z" />
    <glyph glyph-name="bullet" unicode="&#x2022;" horiz-adv-x="382" 
d="M118.5 421q42.5 29 81 29t71.5 -33t33 -73t-33 -62.5t-77 -22.5t-81 28.5t-37 66.5t42.5 67z" />
    <glyph glyph-name="ellipsis" unicode="&#x2026;" horiz-adv-x="745" 
d="M71 -16.5q-21 13.5 -21 32.5t22 36.5t45 17.5t39 -13t16 -32.5t-21.5 -37t-40 -17.5t-39.5 13.5zM333 -21.5q-21 13.5 -21 32.5t22 36.5t45 17.5t39 -13t16 -32.5t-21.5 -37t-40 -17.5t-39.5 13.5zM591 -13.5q-21 13.5 -21 32.5t22 36.5t45 17.5t39 -13t16 -32.5
t-21.5 -37t-40 -17.5t-39.5 13.5z" />
    <glyph glyph-name="guilsinglleft" unicode="&#x2039;" horiz-adv-x="421" 
d="M370 135q15 -5 15 -12t-14 -19t-33 -12q-13 0 -52.5 14.5t-64 27.5t-37.5 20.5t-38 27t-33.5 27t-40 36t-39.5 35.5t-8 11q0 20 59 66.5t135.5 90.5t93.5 44t27 -19q4 -6 4 -11q0 -11 -15 -18q-35 -16 -127 -74t-92 -76q0 -37 98 -88t162 -71z" />
    <glyph glyph-name="guilsinglright" unicode="&#x203a;" horiz-adv-x="416" 
d="M47 440q-15 5 -15 12t14 19t33 12q13 0 52.5 -14.5t64 -27.5t37.5 -20.5t38 -27t33.5 -27t40 -36t39.5 -35.5t8 -11q0 -20 -59 -66.5t-135.5 -90.5t-93.5 -44t-25 19q-2 6 -2 14.5t16 16.5q35 16 124.5 72t89.5 74q0 37 -98.5 89.5t-161.5 71.5z" />
    <glyph glyph-name="Euro" unicode="&#x20ac;" horiz-adv-x="767" 
d="M455 181l-211 -5q-26 0 -50 1q29 -65 91.5 -102t150.5 -37q75 0 126 32q55 33 72 52.5t24.5 28.5t20 18t24 8t32.5 -7q-44 -86 -129 -131.5t-196.5 -45.5t-189.5 47.5t-104 139.5q-64 5 -64 18t17.5 26.5t35.5 13.5h1q-2 15 -2 40.5t5 66.5q-20 -4 -26 -5t-12 -1l-20 5
q-16 6 -16 23q0 25 84 35q30 134 118.5 218t225.5 84q80 0 125 -35.5t70 -104.5q-15 -14 -26 -20t-21.5 -1t-14.5 8t-15.5 19.5t-14.5 20.5q-51 63 -124 63q-89 0 -158.5 -69.5t-97.5 -175.5q53 3 177.5 5.5t155.5 6.5q35 0 35 -21t-29 -34q-25 -12 -168 -12.5t-183 -2.5
q-4 -30 -4 -59t5 -55q306 -3 309 -3q25 0 25 -13q0 -17 -29 -33q-14 -7 -25 -7z" />
    <glyph glyph-name="trademark" unicode="&#x2122;" horiz-adv-x="739" 
d="M309 643q11 0 20.5 -9.5t9.5 -16.5t-9 -10t-25 -5t-30 -2.5t-34 -1.5t-27 -1q-8 -90 -8 -113.5t0.5 -40.5t0 -28.5t-2.5 -26.5q-3 -31 -18 -31q-23 0 -26 26q-3 23 -3 72.5t8 139.5q-107 0 -107 27q0 8 6 14t16 6q192 0 229 1zM432 381q-2 -16 -25.5 -16t-23.5 20
q0 127 19 242q3 17 21 17q43 0 97 -105q41 82 61.5 102.5t35.5 20.5q53 0 53 -263q0 -31 -23 -36h-5q-14 0 -19 14q-2 6 -3 66q-2 103 -12 155q-8 -11 -24 -45t-32 -56t-31.5 -22t-27.5 19t-25 47t-23 40q-9 -78 -13 -200z" />
    <glyph glyph-name="infinity" unicode="&#x221e;" horiz-adv-x="794" 
d="M586 409q65 0 107 -30t42 -98q0 -90 -108 -90q-40 0 -82 13.5t-106.5 45.5t-71.5 35q-137 -75 -219 -75q-40 0 -66 19t-26 48q0 44 36 71.5t80 27.5q80 0 186 -44q100 77 228 77zM140 254q16 0 24.5 -1.5t25 3t25 6.5t24.5 9.5t24.5 11.5t24 12t23.5 12q-84 30 -122.5 30
t-59 -15.5t-20.5 -29.5q0 -32 31 -38zM611 232q73 0 73 53q0 31 -26 57.5t-65 26.5q-92 0 -185 -59q37 -22 88 -44.5t73 -27.5t42 -6z" />
    <glyph glyph-name="notequal" unicode="&#x2260;" horiz-adv-x="538" 
d="M442 250q14 -3 19 -13.5t-1 -19.5t-20 -7q-66 9 -108.5 9t-63.5 -1q-5 -7 -18.5 -26.5t-25 -36t-24.5 -33.5q-30 -37 -44 -37q-13 2 -21.5 13.5t-0.5 22.5q11 12 72 95q-21 -2 -63.5 -6t-59 -5.5t-24 6.5t-7.5 17q0 26 184 30l66 93q-120 2 -217 7q-16 1 -24.5 20.5
t9.5 20.5q3 0 55 -3t205 -3q3 4 37 57q70 111 89 111q13 0 20.5 -9.5t7.5 -15.5t-7 -15.5t-38.5 -55t-49.5 -70.5q5 0 22.5 1t27 0t17 -9.5t6.5 -15.5t-7 -11t-20 -5.5t-23 -2t-28.5 0t-22.5 0.5q-50 -74 -65 -94q109 -2 146 -9z" />
    <glyph glyph-name="lessequal" unicode="&#x2264;" horiz-adv-x="447" 
d="M351 243q-45 0 -157.5 22.5t-112.5 43.5t37.5 54t95 70.5t67 45t18.5 7.5t19.5 -9t10.5 -18t-8 -18q-88 -70 -154 -115q11 -3 72 -12q139 -19 139 -46q0 -10 -7.5 -17.5t-19.5 -7.5zM85 175q90 -3 177.5 -3h87.5q21 0 30 -21q3 -7 3 -13q0 -16 -23 -17q-59 -1 -117.5 -1
t-103 1.5t-63 8.5t-17.5 24q0 21 26 21z" />
    <glyph glyph-name="greaterequal" unicode="&#x2265;" horiz-adv-x="414" 
d="M106 188q-34 0 -34 27q0 23 118 75q49 22 60 29l-160 93q-18 9 -18 24q0 4 2 9q4 16 19 16q5 0 31 -11t99 -56.5t87.5 -54t16 -19.5t-8.5 -21q-32 -24 -99 -55.5t-95 -50.5q-8 -5 -18 -5zM89 152l208 6q26 0 40 -1t20 -10.5t6 -15.5t-5 -14.5t-22 -8.5l-197 -8
q-55 0 -67 12q-6 7 -6 18q0 22 23 22z" />
    <glyph glyph-name="fi" unicode="&#xfb01;" horiz-adv-x="510" 
d="M134 -7q-18 0 -18 305q0 127 -1 153h-20q-14 0 -22 0.5t-20.5 1t-20 2.5t-15.5 5q-15 6 -15 21q0 19 62 19q27 0 49 -2q6 168 53 226q41 49 124 49q109 0 145 -116q-15 -18 -29.5 -18t-19.5 2q-30 82 -97 82q-52 0 -80 -58t-29 -161l216 8q49 0 50 -24q-5 -71 -5 -183
l2 -248q0 -28 -14 -42t-25 -14t-23 6l-7 272q0 28 1.5 76.5t14.5 112.5q-28 -3 -76 -4q-120 -2 -134 -7q-2 -27 -2 -72t5 -144.5t5 -151.5t-10.5 -74t-43.5 -22z" />
    <glyph glyph-name="fl" unicode="&#xfb02;" horiz-adv-x="534" 
d="M134 -7q-18 0 -18 303q0 128 -1 155h-20q-14 0 -22 0.5t-20.5 1t-20 2.5t-15.5 5q-15 6 -15 21q0 19 62 19q27 0 49 -2q5 140 12 172q14 72 69 92q30 11 82 11t93 -35q11 11 43 11h10q25 -25 25 -143q0 -66 -7 -153q-12 -155 -12 -224q0 -185 71 -185l37 7q9 0 15 -8
q-3 -36 -63 -36t-91 45t-33 122q-1 20 -1 59q0 49 13.5 190.5t13.5 173.5t-1 48q-16 39 -50 58.5t-68.5 19.5t-55 -17.5t-27.5 -47.5q-10 -45 -10 -86t2 -68l85 8q50 0 50 -23q0 -15 -24 -20t-60.5 -6t-50.5 -6q-2 -28 -2 -73.5t5 -144t5 -150.5t-10.5 -74t-43.5 -22z" />
    </font>
</defs>
</svg>
