<?xml version="1.0" standalone="no"?>
<!DOCTYPE svg PUBLIC "-//W3C//DTD SVG 1.1//EN" "http://www.w3.org/Graphics/SVG/1.1/DTD/svg11.dtd" >
<svg xmlns="http://www.w3.org/2000/svg" xmlns:xlink="http://www.w3.org/1999/xlink" version="1.1">
<metadata>
Created by FontForge 20161013 at Fri Jun  3 08:43:14 2011
 By ,,,
Copyright (c) 2011 by Kimberly Geswein. All rights reserved.
</metadata>
<defs>
<font id="JustMeAgainDownHere" horiz-adv-x="315" >
  <font-face 
    font-family="Just Me Again Down Here"
    font-weight="400"
    font-stretch="normal"
    units-per-em="1000"
    panose-1="2 0 5 0 0 0 0 0 0 0"
    ascent="800"
    descent="-200"
    x-height="289"
    cap-height="554"
    bbox="-108 -429 890 1069"
    underline-thickness="75"
    underline-position="-220"
    unicode-range="U+0020-FB02"
  />
<missing-glyph horiz-adv-x="640" 
 />
    <glyph glyph-name=".notdef" horiz-adv-x="640" 
 />
    <glyph glyph-name=".null" horiz-adv-x="640" 
 />
    <glyph glyph-name="nonmarkingreturn" horiz-adv-x="333" 
 />
    <glyph glyph-name="space" unicode=" " horiz-adv-x="377" 
 />
    <glyph glyph-name="exclam" unicode="!" horiz-adv-x="127" 
d="M45 679q27 -11 27 -32q8 -284 23 -410q-10 -25 -29 -25q-37 0 -37 119q-9 44 -15 319q0 25 31 29zM51 -9q9 31 32.5 31t32.5 -31q-11 -29 -31 -29h-3q-20 0 -31 29z" />
    <glyph glyph-name="quotedbl" unicode="&#x22;" horiz-adv-x="234" 
d="M101 605h3q20 0 31 -29q0 -11 -40 -52q-13 -30 -13 -54v-21q0 -16 19 -57q0 -21 -31 -31q-38 0 -48 96v4q0 95 79 144zM182 551h3q21 0 25 -31q0 -15 -40 -40l-6 -25v-6l8 -38q0 -18 -31 -31q-37 12 -37 71q0 71 78 100z" />
    <glyph glyph-name="numbersign" unicode="#" horiz-adv-x="559" 
d="M331 435q32 0 46 -128l10 -3l34 6q23 0 29 -34q0 -20 -63 -35v-19l3 -2v-4l100 16q16 0 29 -31q0 -31 -98 -37q-27 -3 -27 -10q8 -88 21 -144q-10 -25 -31 -25q-35 0 -47 150q0 12 -6 12q-50 0 -50 -25v-62q0 -34 -31 -34q-29 0 -29 34v66h-2q-37 0 -110 -37h-7
q-21 7 -21 27q0 44 144 73v12l-63 -6q-66 0 -66 34v6q0 8 23 22l43 -3q46 0 65 10q-2 68 -15 137q10 25 34 25q38 0 38 -144v-6l37 9l-21 131q10 19 31 19zM321 222l-37 -8v-13h3l40 6v15h-6z" />
    <glyph glyph-name="dollar" unicode="$" horiz-adv-x="464" 
d="M230 920q20 0 27 -34l-2 -150v-22l-4 -38h4l62 6q68 0 97 -50l6 -15q0 -22 -34 -28q-10 0 -35 28l-25 7h-9q-68 0 -68 -25l-13 -294q194 -89 194 -181q0 -95 -154 -198q-65 -26 -65 -31l-4 -221v-25q0 -48 -33 -48q-24 0 -25 31h-4l4 50l2 229q-84 43 -84 163q0 83 38 83
h2q23 -11 23 -25l-4 -62q0 -62 29 -88h2l17 285q-173 83 -173 188q0 113 191 202l3 110v103q0 50 35 50zM61 464v-15q0 -62 115 -117l13 257q-128 -57 -128 -125zM232 239h-2l-13 -275h3q88 38 144 125l3 22v15q0 58 -135 113z" />
    <glyph glyph-name="percent" unicode="%" horiz-adv-x="475" 
d="M364 644q27 -10 27 -32q-87 -94 -115 -271q-106 -342 -106 -425l-4 -4q0 -31 -37 -31q-22 10 -22 25q0 82 113 454q39 166 77 227q42 57 67 57zM154 547q58 0 68 -97v-9q0 -135 -96 -175l-25 -4q-59 0 -75 79l-4 21v10q0 103 98 169q12 6 34 6zM82 387v-33q0 -24 15 -32
h17q50 39 50 103v35q0 24 -13 27h-4q-65 -48 -65 -100zM397 287q35 0 44 -112v-25q-12 -134 -62 -134l-13 -4q-85 0 -100 135q0 89 63 122l16 3l25 -3q10 18 27 18zM326 144q4 -72 38 -72q18 20 18 75v25l-6 53h-6q-44 -11 -44 -81z" />
    <glyph glyph-name="ampersand" unicode="&#x26;" horiz-adv-x="380" 
d="M111 715l16 4q37 0 75 -75l9 -54q0 -62 -65 -278v-3q4 -55 88 -219l2 -3l10 -6q31 74 31 146v54q0 69 -60 94l-6 21q0 16 25 29q44 0 88 -81q11 -40 16 -94q0 -81 -50 -225q0 -8 56 -44l3 -10q-9 -31 -34 -31q-9 0 -56 29q-72 -85 -142 -85q-52 0 -81 68q-9 22 -9 63v6
q0 93 53 285v3q-38 178 -38 256q12 150 69 150zM121 656q-19 -26 -19 -88.5t13 -133.5h2q32 62 32 137v38q-8 47 -28 47zM117 196h-2q-29 -84 -29 -169v-25q0 -42 23 -56h15q56 0 91 69q-58 85 -94 179z" />
    <glyph glyph-name="quotesingle" unicode="'" horiz-adv-x="144" 
d="M64 592q31 0 40 -75v-6q0 -34 -31.5 -34t-31.5 65q-7 0 -9 23q10 27 32 27z" />
    <glyph glyph-name="parenleft" unicode="(" horiz-adv-x="287" 
d="M202 687q23 0 29 -33q-129 -150 -129 -388v-6q0 -234 129 -298q44 -11 44 -37q0 -16 -29 -28q-87 24 -134 94q-68 106 -68 253v22q0 233 121 396q25 25 37 25z" />
    <glyph glyph-name="parenright" unicode=")" horiz-adv-x="241" 
d="M97 629q48 -18 94 -147q15 -77 15 -131v-6q0 -224 -115 -388l-16 -6q-31 7 -31 31q103 163 103 369q0 151 -81 240v16q15 22 31 22z" />
    <glyph glyph-name="asterisk" unicode="*" horiz-adv-x="640" 
d="M277 620q29 -9 29 -38q0 -66 -31 -183q46 -60 62 -60l9 3q120 0 166 -91l3 -15q0 -27 -46 -37q-57 0 -160 81h-7q-15 0 -15 -6l13 -160v-32q-3 -33 -29 -33q-34 0 -34 75q-25 96 -35 96q-65 -119 -95.5 -119t-35.5 60q0 78 98 134l2 4v2q-56 107 -56 116q0 20 29 25v9
q-38 33 -38 50q9 25 31 25q13 0 72 -59h3q4 0 19 90q18 63 46 63zM202 386l-15 15v-2q7 -19 13 -19h2v6z" />
    <glyph glyph-name="plus" unicode="+" horiz-adv-x="521" 
d="M234 432q14 0 27 -25l-2 -37v-16q0 -60 21 -94q142 50 169 50q21 0 25 -31q0 -27 -82 -40l-93 -35v-3q25 -90 25 -119q-9 -22 -28 -22h-10q-16 0 -37 106l-13 19q-48 -13 -81 -13h-15q-66 0 -66 42q0 11 18 25h7l35 -7h33q50 2 50 13v2q-18 78 -18 113q0 72 35 72z" />
    <glyph glyph-name="comma" unicode="," horiz-adv-x="245" 
d="M135 182q52 -23 62 -141q0 -109 -85 -200l-12 -6q-31 10 -31 31l41 66q25 51 25 103v37q0 25 -31 75v4q7 31 31 31z" />
    <glyph glyph-name="hyphen" unicode="-" horiz-adv-x="419" 
d="M136 275l181 12q25 0 29 -31q0 -31 -94 -31q-69 -10 -122 -10q-65 8 -65 37q0 20 27 32l38 -9h6z" />
    <glyph glyph-name="period" unicode="." horiz-adv-x="182" 
d="M100 59q21 0 25 -34q-6 -35 -35 -35q-20 0 -28 35q12 34 38 34z" />
    <glyph glyph-name="slash" unicode="/" horiz-adv-x="355" 
d="M342 605q29 -8 29 -29q-17 -48 -117.5 -250t-148.5 -325l-21 -6q-29 5 -29 29q0 32 256 556q9 25 31 25z" />
    <glyph glyph-name="zero" unicode="0" horiz-adv-x="366" 
d="M115 575q31 52 62.5 52t43.5 -37l-2 -13v-2q127 -82 127 -306t-131 -298l-34 -6q-103 0 -141 119q-13 53 -13 103v13q0 104 50 287q-24 0 -31 34q0 19 69 54zM87 206v-25q0 -156 88 -156h2q82 0 107 196l3 60q-7 199 -93 238l-19 2h-16q-24 -24 -57 -169
q-15 -80 -15 -146z" />
    <glyph glyph-name="one" unicode="1" horiz-adv-x="155" 
d="M36 484q6 25 36 25t30 -128l3 -54l-9 -315q-7 -31 -31 -31q-29 11 -29 31l10 309z" />
    <glyph glyph-name="two" unicode="2" horiz-adv-x="359" 
d="M187 540q77 0 90 -109q0 -101 -158 -391v-6q41 0 175 72h2q20 0 31 -29q0 -51 -275 -125q-16 0 -27 29q39 89 152 300q38 102 38 138v31q0 20 -21 31h-13q-39 0 -75 -94l3 -12q0 -19 -28 -31q-37 7 -37 37q0 57 87 140q25 19 56 19z" />
    <glyph glyph-name="three" unicode="3" horiz-adv-x="345" 
d="M159 535q63 0 78 -81q-7 -49 -22 -84v-4q64 0 97 -90l3 -37q-10 -121 -134 -260q-56 -38 -81 -38q-81 21 -81 56q4 14 21 25h19q23 -18 35 -18h2q78 0 156 206l4 29v6q0 62 -44 62q-47 0 -68 -43q-44 -50 -67 -57q-13 0 -31 28q0 40 91 116q40 70 40 106q-6 18 -18 22
q-43 0 -90 -113l-23 -6q-27 6 -27 25q48 150 140 150z" />
    <glyph glyph-name="four" unicode="4" horiz-adv-x="500" 
d="M334 667q12 0 28 -22v-9q0 -15 -16 -25q-31 -27 -31 -375v-41h12q51 0 113 56h4q31 -7 31 -31q-26 -49 -85 -71q-35 -13 -65 -13h-6l6 -344q0 -20 -29 -31q-27 0 -31 34l-6 347q-125 38 -138 38h-12q-10 -6 -25 -35l-19 -13q-31 12 -31 38q0 11 43 91q50 152 50 213v37
q0 14 -21 53q7 31 31 31q53 -23 53 -106q0 -58 -56 -250l122 -34v9q0 441 53 441q0 6 25 12z" />
    <glyph glyph-name="five" unicode="5" horiz-adv-x="372" 
d="M219 446h6q65 0 65 -34q-3 -14 -21 -28l-48 3h-6q-48 0 -150 -28l16 -119h6q85 62 138 62q94 0 112 -125v-6q0 -106 -143 -162l-50 -9q-79 9 -79 37q12 32 35 32l34 -10h25q61 0 110 75q8 18 8 31v19q-7 60 -56 60h-2q-62 0 -148 -107h-6q-40 0 -40 103l-25 150
q0 31 81 31q94 25 138 25z" />
    <glyph glyph-name="six" unicode="6" horiz-adv-x="359" 
d="M139 470q28 -10 28 -31l-41 -67q-27 -86 -27 -181v-37h8q59 75 123 75q96 -15 96 -94v-6q0 -100 -115 -172l-47 -6q-107 0 -125 206v40q0 162 68 254q19 19 32 19zM124 45v-4q15 -31 43 -31h7q63 0 93 116v9q0 32 -37 35q-73 0 -106 -125z" />
    <glyph glyph-name="seven" unicode="7" horiz-adv-x="440" 
d="M371 605h6q28 -10 28 -31q-5 -22 -59 -92q-35 -62 -100 -443l-25 -128l-22 -16q-32 11 -32 29q0 45 94 500h-2q-95 -40 -144 -42q-98 14 -98 57q0 26 50 31l38 -28h10q97 0 200 100q6 25 56 63z" />
    <glyph glyph-name="eight" unicode="8" horiz-adv-x="345" 
d="M289 532q28 0 33 -41q0 -56 -131 -259q0 -6 56 -53q44 -53 44 -113q0 -97 -121 -152h-16q-72 0 -88 102v13q0 55 48 187q-92 75 -92 144v4q0 96 125 143l32 3q38 0 66 -31v-9q0 -20 -29 -31q-27 12 -40 12h-6q-88 -22 -88 -85v-9q0 -48 63 -87q119 179 119 215l-7 6v13
q0 25 32 28zM166 172h-2q-38 -88 -38 -146v-16q0 -26 21 -38h7q44 0 75 75l3 17v15q0 45 -66 93z" />
    <glyph glyph-name="nine" unicode="9" horiz-adv-x="410" 
d="M367 555q20 0 25 -29v-6q0 -17 -41 -146q-34 -161 -34 -313q0 -72 9 -137q-11 -29 -31 -29q-38 0 -38 154v18q0 77 13 194q-5 0 -46 -50q-78 -72 -123 -72q-53 0 -81 78v22q0 111 169 247q77 50 112 50l16 -4h19q0 19 31 23zM80 249v-23q0 -16 15 -25h10q76 0 200 238
q9 17 9 31v4h-15q-77 0 -194 -160q-25 -47 -25 -65z" />
    <glyph glyph-name="colon" unicode=":" horiz-adv-x="155" 
d="M86 221q26 0 31 -35q0 -21 -31 -31q-24 0 -29 41q13 25 29 25zM89 109q31 -12 31 -38q0 -21 -28 -25q-25 0 -35 34q11 29 32 29z" />
    <glyph glyph-name="semicolon" unicode=";" horiz-adv-x="171" 
d="M76 190q31 -7 31 -31q-18 -40 -50 -40q-26 0 -27 31q0 21 46 40zM76 90q58 0 66 -84q-7 -94 -31 -94l-10 -3q-17 0 -27 28q8 50 8 78q0 18 -25 19q-12 14 -12 25q7 31 31 31z" />
    <glyph glyph-name="less" unicode="&#x3c;" horiz-adv-x="317" 
d="M232 291q17 0 32 -21v-10q0 -29 -125 -106l-4 -3v-10q7 0 137 -106q17 -8 17 -26.5t-29 -29.5q-13 0 -144 110q-69 31 -69 37q-6 0 -6 19q0 16 141 106q38 38 50 40z" />
    <glyph glyph-name="equal" unicode="=" horiz-adv-x="377" 
d="M115 214l47 -13l125 10q34 -6 34 -35q0 -16 -21 -25l-135 -9q-69 0 -81 44q10 28 31 28zM159 120l156 16q14 -5 19 -16v-13q0 -33 -72 -33q-28 -9 -100 -17q-81 0 -81 44q0 13 19 25h6l34 -6h19z" />
    <glyph glyph-name="greater" unicode="&#x3e;" horiz-adv-x="326" 
d="M87 319q21 0 32 -29l-7 -38q24 -38 163 -90l15 -22q0 -20 -121 -140q-37 -60 -44 -60l-13 -3q-28 4 -28 25q2 43 110 140q15 18 15 25h-3q-154 63 -154 135q8 57 35 57z" />
    <glyph glyph-name="question" unicode="?" horiz-adv-x="352" 
d="M221 714q91 -15 91 -90q0 -102 -131 -248q17 -45 40 -244q10 -10 10 -25h3q0 -26 -38 -31q-40 0 -56 238q-11 50 -31 50q-22 22 -22 41q7 25 32 25l25 -6q108 112 108 206q-6 18 -21 25h-12q-65 0 -123 -129q0 -65 -25 -65l-2 -4h-4q-28 0 -28 48v2q0 89 107 179
q37 28 77 28zM246 -1q44 -20 44 -54q-10 -25 -31 -25q-47 27 -47 49.5t34 29.5z" />
    <glyph glyph-name="at" unicode="@" horiz-adv-x="589" 
d="M302 637h10q150 0 209 -200l6 -68v-7l-6 -65q16 -31 16 -75q0 -143 -166 -266q-58 -31 -100 -31q-177 0 -225 244l-2 56v16q0 229 150 363q58 33 108 33zM102 247v-16q0 -193 125 -240l42 -6q121 0 202 187l6 47h-2q-39 -15 -55.5 -15t-48.5 25h-2q-53 -92 -100 -92h-4
q-64 0 -75 92q0 109 129 206q27 15 56 15h9q41 0 41 -50l-16 -94v-6q6 -38 16 -38h6q24 0 38 98q0 159 -110 209l-34 10h-35q-99 0 -165 -188q-23 -66 -23 -144zM256 266l-6 -25v-29q6 -15 21 -15q79 70 79 184q-43 0 -94 -115z" />
    <glyph glyph-name="A" unicode="A" horiz-adv-x="472" 
d="M227 594l25 8q34 0 34 -90l31 -231l4 -4l115 42q23 0 25 -35q0 -26 -127 -63l-4 -2v-4q0 -21 66 -219v-2q0 -19 -31 -32q-29 0 -38 69q-23 50 -56 165h-4q-131 -27 -131 -46q-72 -156 -109 -156q-21 0 -25 27q0 24 53 94l16 35h-25l-19 -4q-37 9 -37 38q15 35 44 35
l25 -10q56 0 56 41q51 120 112 344zM236 412l-59 -178q82 16 82 31q-15 147 -23 147z" />
    <glyph glyph-name="B" unicode="B" horiz-adv-x="377" 
d="M194 609q47 0 56 -72v-3q0 -36 -41 -157l47 10q86 0 100 -110v-15q0 -132 -166 -241q-54 -21 -78 -21q-81 0 -112 94q2 11 25 31q11 452 19 452q17 17 31 17q27 -10 27 -32h4q41 47 88 47zM96 287h4q82 155 87 240v23h-10q-21 0 -56 -113q-25 -107 -25 -150zM134 225
l-15 -6l-25 2v-2l-4 -13v-104l-3 -37l22 -6q85 0 168 128q23 57 23 94q0 46 -44 46h-4q-48 0 -118 -102z" />
    <glyph glyph-name="C" unicode="C" horiz-adv-x="500" 
d="M146 519q68 0 79 -98q0 -81 -38 -102h-6q-29 2 -29 21l4 75v37l-6 7h-10q-32 0 -75 -178l-6 -75v-22q0 -104 93 -122h42q104 0 252 134h4q27 0 31 -34q-23 -60 -54 -60q-143 -102 -257 -102t-161 125l-9 71v13q0 155 87 285q28 25 59 25z" />
    <glyph glyph-name="D" unicode="D" horiz-adv-x="447" 
d="M115 584q141 0 272 -150q40 -79 40 -153q0 -174 -177 -256q-57 -25 -123 -25h-25q-37 1 -37 31h-3q0 27 34 28h23v6h2q-62 263 -62 391h-3l-25 -16q-26 0 -31 35q0 55 62 96q25 13 53 13zM127 525h-8v-48q0 -164 62 -412h3q185 50 185 216q0 178 -207 238q-12 6 -35 6z
" />
    <glyph glyph-name="E" unicode="E" horiz-adv-x="430" 
d="M319 577q18 0 25 -31q0 -18 -63 -50q-78 -68 -116 -234v-18q87 43 125 52q12 0 29 -21v-19q0 -11 -88 -44q-66 -36 -66 -41v-9q0 -56 72 -97l34 -6q33 0 98 41h12q21 -10 21 -29v-6q-62 -65 -137 -65q-107 0 -156 144l-63 -13q-46 7 -46 30t27 33l23 -4q52 15 52 22
q0 170 129 315q65 50 88 50z" />
    <glyph glyph-name="F" unicode="F" horiz-adv-x="407" 
d="M321 626q51 0 60 -37q0 -15 -29 -32l-33 9h-4q-56 0 -128 -159q-10 -39 -10 -75v-41h4q122 29 156 29q44 -8 44 -35q-9 -28 -29 -28l-18 3q-102 -9 -150 -31v-7l12 -162q0 -115 -46 -115q-16 0 -29 25q16 41 16 103.5t-12 142.5l-48 -6q-65 6 -65 41q10 28 32 28l25 -7
h18l32 4v56q0 155 137 272q31 22 65 22z" />
    <glyph glyph-name="G" unicode="G" horiz-adv-x="480" 
d="M316 751q16 0 29 -31q0 -24 -73 -40q-92 -51 -142.5 -178t-50.5 -251q0 -199 128 -256l32 -6q107 0 152 187l4 41q0 80 -54 134h-6q-21 -24 -84 -169l-22 -15q-28 0 -32 34q95 225 129 225h6q122 -71 122 -209q0 -156 -128 -260q-21 -18 -85 -27q-121 0 -200 175
q-21 75 -21 137v15q0 214 137 404q89 90 159 90z" />
    <glyph glyph-name="H" unicode="H" horiz-adv-x="422" 
d="M99 557q35 0 35 -122l6 -156h2l160 62q24 204 44 204l13 2q17 0 31 -27q-35 -172 -35 -298v-43q0 -92 44 -175q-10 -28 -32 -28q-48 0 -71 194v102h-6q-150 -53 -150 -68q0 -238 -44 -238h-4q-21 0 -27 35q15 109 15 169l-44 -23l-9 -2q-25 9 -25 31t78 69v2
q-3 172 -13 285q0 22 32 25z" />
    <glyph glyph-name="I" unicode="I" horiz-adv-x="177" 
d="M66 554q24 0 31 -25l-6 -59v-19q25 -207 31 -322q11 -107 23 -107q0 -21 -35 -27q-50 0 -50 202l-28 260v9q0 88 34 88z" />
    <glyph glyph-name="J" unicode="J" horiz-adv-x="410" 
d="M312 637h17q31 -6 31 -31q0 -7 -19 -29v-50q0 -72 34 -437q0 -140 -84 -140q-70 0 -206 196q-44 0 -56 31l-7 25q9 38 34 38q56 -23 163 -178q53 -53 72 -53h6q15 7 15 47v63l-31 375l-2 65q0 78 33 78z" />
    <glyph glyph-name="K" unicode="K" horiz-adv-x="530" 
d="M129 647q18 0 28 -25q-43 -114 -43 -297v-109h2q56 56 173 346q30 38 46 38h4q17 0 27 -19v-19q-28 -17 -137 -283l-82 -123v-2q113 -117 235 -117h38q37 0 50 7q27 -11 27 -32v-8q0 -25 -87 -25h-15q-143 0 -273 118h-6v-116q0 -34 -31 -34q-28 0 -28 34v119
q-37 28 -37 60q0 27 34 27v142q0 194 50 308q13 10 25 10z" />
    <glyph glyph-name="L" unicode="L" 
d="M66 511q24 0 31 -75l4 -54q0 -61 -22 -318h6v-3l4 3h8l117 -9h8l50 15h7q16 -10 22 -28q0 -38 -85 -47l-102 10h-19l-48 -13q-27 10 -27 32l21 343v15l-6 100q0 25 31 29z" />
    <glyph glyph-name="M" unicode="M" horiz-adv-x="435" 
d="M307 730h3q25 -13 25 -29l-25 -190q0 -104 62 -431l50 -125q0 -13 -21 -29h-19q-20 6 -60 123q-26 94 -52 290h-6q-58 -172 -82 -178l-16 -4q-21 0 -52 82h-7q-12 -247 -47 -247h-3q-32 0 -35 50q25 96 25 200l-27 265v19q0 38 27 38q39 0 69 -153q44 -139 54 -150
q23 36 46 128q18 47 35 147l-4 3l4 16v6q9 169 56 169z" />
    <glyph glyph-name="N" unicode="N" horiz-adv-x="432" 
d="M95 552q47 -15 179 -365l15 -18v56q0 223 110 315q25 0 31 -34q-75 -112 -75 -181q-5 0 -6 -63v-53q0 -69 15 -197q-9 -25 -32 -25t-65 94q-51 81 -112 246h-4v-6l6 -127q0 -197 -75 -254l-25 -3q-31 0 -52 57q7 31 31 31h6l19 -16h3q35 47 35 178.5t-38 333.5
q0 27 34 31z" />
    <glyph glyph-name="O" unicode="O" horiz-adv-x="440" 
d="M146 541l25 4h10q20 0 44 -25q44 0 125 -110q69 -130 69 -231q0 -138 -100 -184l-63 -13q-150 0 -216 225q-15 59 -15 115v10q0 169 121 209zM137 445l-22 9q-31 -37 -31 -107v-27q0 -185 125 -269l28 -6h38q52 0 75 65l6 44v31q0 150 -119 269l-41 12h-2q-20 0 -57 -21z
" />
    <glyph glyph-name="P" unicode="P" horiz-adv-x="455" 
d="M204 657h16q163 0 209 -118l3 -32v-10q0 -116 -141 -215q-34 -10 -34 -22q40 -153 40 -250v-13q0 -40 -33 -40q-25 3 -25 25v25q0 115 -42 250q-81 7 -90 44v6q0 18 28 28l44 -15v2q-34 148 -34 200q0 29 34 29q31 0 31 -106l29 -119q72 24 112 94q21 40 21 71v13
q0 82 -140 93h-41q-137 -15 -137 -65v-6q0 -15 16 -47q0 -22 -35 -28q-40 19 -40 78q0 110 209 128z" />
    <glyph glyph-name="Q" unicode="Q" horiz-adv-x="580" 
d="M320 644q145 0 204 -275q6 -16 6 -65v-7q0 -105 -66 -241q26 -9 80.5 -9t125.5 38q21 0 29 -35q0 -43 -167 -63h-2l-113 17q-72 -57 -137 -57q-136 0 -213 188q-25 74 -25 156v15q0 234 119 300l59 16l22 -3q38 25 78 25zM195 366v-31q0 -176 206 -260q69 96 69 225v6
q0 156 -100 263q-31 16 -46 16h-10q-44 0 -88 -66q-31 -68 -31 -153zM101 310v-31q0 -203 144 -267q12 -6 35 -6h6q40 0 63 23v6q-213 102 -213 315v16q0 90 38 175h-7q-66 -61 -66 -231z" />
    <glyph glyph-name="R" unicode="R" horiz-adv-x="520" 
d="M190 569h4q121 -22 121 -117v-18q0 -105 -134 -209v-4q217 -194 300 -194q15 -11 15 -27q0 -23 -34 -29q-83 0 -310 200l-43 23h-3q28 -112 28 -173q0 -26 -32 -37q-46 0 -58 225q-32 104 -32 166v9q0 91 40 91l19 -10h6q48 104 113 104zM109 302l-3 -37q93 0 150 154v37
q0 44 -60 53h-6q-63 0 -81 -207z" />
    <glyph glyph-name="S" unicode="S" horiz-adv-x="455" 
d="M322 592h10q28 0 32 -33q0 -29 -79 -29q-127 -48 -171 -140l-7 -29v-6q0 -44 59 -44l110 6q111 0 150 -108l6 -35q0 -104 -168 -190q-50 -14 -88 -19q-102 0 -144 115q-12 39 -12 79q0 12 19 25h12q31 0 31 -79q26 -78 82 -78h27q81 0 160 94q21 30 21 65q0 49 -77 69h-4
l-131 -3q-109 13 -109 90l-4 13q0 103 154 200q67 37 121 37z" />
    <glyph glyph-name="T" unicode="T" horiz-adv-x="425" 
d="M214 631l300 19q13 0 25 -25q0 -38 -88 -38l-175 -10l-4 -2q25 -163 25 -619q-5 -44 -31.5 -44t-30.5 40v232q0 232 -21 387q-179 -17 -179 -40l-9 -4q-31 9 -31 32q0 55 219 72z" />
    <glyph glyph-name="U" unicode="U" horiz-adv-x="407" 
d="M291 594q44 0 44 -163l-13 -147q0 -188 50 -290v-4q0 -20 -27 -25h-4q-37 2 -65 141h-4q-52 -156 -133 -156t-104 131l-3 59v19l15 228v44q0 20 23 31h9q28 0 28 -37v-6l-16 -267v-37q0 -80 38 -106h18q51 31 98 210l15 68l-13 163q0 144 44 144z" />
    <glyph glyph-name="V" unicode="V" horiz-adv-x="380" 
d="M422 597q19 0 25 -31q0 -18 -62 -47q-54 -34 -96 -163q-50 -209 -50 -369q-17 -15 -32 -15q-25 0 -47 100q-153 382 -153 422q0 20 32 25q26 0 50 -103l96 -247h4q6 0 18 100q38 158 75 218q83 110 140 110z" />
    <glyph glyph-name="W" unicode="W" horiz-adv-x="637" 
d="M255 716q81 0 200 -106q162 -188 162 -389.5t-197 -275.5l-28 -4q-106 0 -166 154h-2q-35 -125 -94 -125h-6q-78 0 -107 294v58q2 104 59 119q16 0 29 -31q-29 -40 -29 -94v-9q0 -185 54 -275q40 29 59 238q0 169 25 169l10 2q33 0 33 -65l-6 -110q0 -111 69 -231
q34 -34 69 -34q57 0 122 71q46 61 46 154q0 206 -181 378q-47 38 -144 62l-8 19q7 31 31 31z" />
    <glyph glyph-name="X" unicode="X" horiz-adv-x="477" 
d="M185 231q67 283 187 421l19 4q25 -9 25 -29v-6q-127 -158 -187 -477q52 -82 106 -82h31l44 9h6q16 -7 16 -25v-6q0 -31 -78 -40q-64 0 -132 62h-6q-10 -111 -21 -300q-17 -16 -29 -16q-27 10 -27 31q1 155 27 354q-66 107 -146 363q0 10 21 27h16q17 0 109 -269l16 -21h3
z" />
    <glyph glyph-name="Y" unicode="Y" horiz-adv-x="412" 
d="M166 652q18 0 31 -31q-40 -110 -40 -206v-34q0 -112 57 -112q73 0 100 256q0 119 21 119l16 2q21 0 25 -34v-337q0 -315 -106 -369q-20 -11 -60 -19q-88 0 -200 103l-3 12q0 23 34 29l79 -56q46 -25 69 -25h27q100 0 100 309v12h-9q-38 -59 -97 -59q-73 0 -103 94
q-10 37 -10 75v9q16 262 69 262z" />
    <glyph glyph-name="Z" unicode="Z" horiz-adv-x="470" 
d="M135 464l210 6h21q60 0 60 -34q-20 -92 -169 -262q-87 -83 -87 -92q152 -137 184 -140l47 -6q37 0 75 15q28 -10 28 -31q0 -37 -100 -44h-13q-93 0 -244 154l-31 19q-56 -32 -69 -32q-22 0 -27 32q0 51 71 68l13 -3q130 105 216 228q34 56 34 69h-9l-210 -6l-3 -4h-3
q-59 0 -59 31v4q0 28 34 28h31z" />
    <glyph glyph-name="bracketleft" unicode="[" horiz-adv-x="345" 
d="M129 586l112 28q13 0 29 -22v-10q0 -31 -110 -46q-34 -25 -34 -210v-81l-10 -163v-15q88 -78 173 -78q15 -17 15 -28q0 -24 -34 -31q-60 0 -160 69l-21 -10q-29 0 -32 37v63l9 156v81q0 221 63 260z" />
    <glyph glyph-name="backslash" unicode="\" horiz-adv-x="355" 
d="M335 574q29 -8 29 -28q-19 -49 -135 -287q-83 -161 -132 -288l-21 -6q-29 5 -29 27q0 32 257 557q7 25 31 25z" />
    <glyph glyph-name="bracketright" unicode="]" horiz-adv-x="292" 
d="M141 600q37 -24 110 -44l9 -21q-44 -235 -44 -366v-19l6 -119q0 -26 -162 -109q-21 0 -28 34q0 17 128 88l-3 135q0 82 38 333h-4q-84 33 -84 60q0 22 34 28z" />
    <glyph glyph-name="asciicircum" unicode="^" horiz-adv-x="634" 
d="M280 695l19 10q36 0 150 -241l43 -90q0 -20 -27 -25h-4q-27 0 -100 162q-46 90 -56 100q-110 -222 -138 -229l-12 -2q-34 10 -34 37q0 14 34 32z" />
    <glyph glyph-name="underscore" unicode="_" horiz-adv-x="507" 
d="M150 54l286 12q37 0 44 -31q0 -31 -148 -31q-112 -9 -192 -9q-103 7 -103 37q0 18 44 32l59 -10h10z" />
    <glyph glyph-name="grave" unicode="`" horiz-adv-x="450" 
d="M310 424q-4 -28 -25 -30q-48 13 -59 27q-141 59 -141 92q0 6 4 11q3 28 26 30q46 -13 169 -100q24 -7 26 -30z" />
    <glyph glyph-name="a" unicode="a" horiz-adv-x="292" 
d="M206 386q44 0 44 -35l-9 -19l-6 -183q0 -124 50 -154l2 -15q-3 -29 -27 -29h-6q-75 51 -75 156h-7q-40 -112 -97 -112q-53 15 -53 79q0 141 113 281q38 31 71 31zM85 114l-4 -28v-19h10q75 187 75 228h-4q-58 -65 -77 -181z" />
    <glyph glyph-name="b" unicode="b" 
d="M27 475q52 0 67 -204l6 -31q46 94 75 94q0 4 21 6h4q66 0 84 -103v-3q0 -88 -88 -194q-37 -40 -81 -40q-50 11 -50 50l-50 359l-15 37q0 18 27 29zM131 69h3q52 21 91 143v38q-9 31 -23 31h-8q-44 -26 -63 -212z" />
    <glyph glyph-name="c" unicode="c" 
d="M121 339l41 6q25 0 28 -31q0 -27 -65 -35q-41 -32 -41 -82v-33q20 -110 68 -110h10q28 0 84 53h6q20 0 32 -28q-14 -43 -90 -78q-14 -6 -35 -6q-103 0 -134 162v22q0 117 96 160z" />
    <glyph glyph-name="d" unicode="d" horiz-adv-x="320" 
d="M254 549q17 0 31 -32l-44 -278v-78q0 -122 38 -122q25 -12 25 -32q0 -23 -40 -27q-44 0 -69 81h-10q-37 -81 -90 -81q-62 0 -75 94q0 109 146 231q29 0 29 81q22 163 59 163zM79 82v-27l16 -16h6q32 0 75 193h-6q-91 -91 -91 -150z" />
    <glyph glyph-name="e" unicode="e" 
d="M109 359q40 -1 135 -140l2 -17q0 -28 -137 -43l-3 -3v-4q21 -90 44 -90h12q32 0 97 69h6q20 0 31 -29q0 -24 -84 -83q-22 -13 -53 -19q-81 0 -113 152q-46 7 -46 38q0 22 34 29v-4l10 4v25q0 115 65 115zM115 287h-9l-4 -37v-31h4q56 2 56 12q-26 39 -47 56z" />
    <glyph glyph-name="f" unicode="f" horiz-adv-x="270" 
d="M175 450q47 0 65 -100v-4q0 -23 -31 -27q-25 0 -34 62l-4 3h-12q-22 -32 -22 -84l3 -50q40 0 87 21q19 0 35 -27q0 -41 -112 -54l25 -163q0 -21 -35 -27q-31 0 -31 96l-19 85l-65 -10q-21 0 -25 31q0 30 81 38l-4 62q16 148 98 148z" />
    <glyph glyph-name="g" unicode="g" horiz-adv-x="270" 
d="M180 384q46 0 46 -44q6 0 6 -15h4l-4 -29l4 -202l-6 -160q90 0 121 -132q0 -27 -37 -31q-17 0 -38 75q-20 29 -46 29h-4q-32 -213 -56 -213q-29 -53 -84 -53q-81 19 -81 81v6q0 94 134 204l31 19l4 108v25h-4q-34 -43 -65 -43h-6q-69 0 -79 106v22q0 128 94 222
q29 25 66 25zM80 150v-48q4 -33 15 -33h10q28 0 69 206v50q-60 0 -94 -175zM64 -306q4 -25 28 -25q48 0 69 171h-6q-91 -79 -91 -146z" />
    <glyph glyph-name="h" unicode="h" horiz-adv-x="292" 
d="M61 552q28 0 28 -68l12 -172h4l50 19q84 0 102 -172q7 -49 7 -144v-81q0 -38 -28 -38h-4q-27 4 -27 29v94q0 226 -44 250h-6q-30 0 -44 -92v-56q0 -150 -25 -150l-19 -2q-28 0 -28 83q3 88 12 144l-21 329q0 26 31 27z" />
    <glyph glyph-name="i" unicode="i" horiz-adv-x="147" 
d="M31 521q38 -8 38 -34q-10 -28 -32 -28q-37 7 -37 37q10 25 31 25zM69 381q16 0 27 -29l-9 -71v-47q0 -82 28 -215q-10 -19 -34 -19q-41 0 -54 240v35q0 106 42 106z" />
    <glyph glyph-name="j" unicode="j" horiz-adv-x="147" 
d="M71 342q31 -10 31 -46q0 -21 -28 -25h-3q-29 0 -31 38v6q0 26 31 27zM77 236q14 0 32 -27q-10 -27 -10 -73l25 -252v-29q0 -131 -63 -165l-21 -4q-69 0 -106 138l-7 53v3q0 35 32 35q27 0 27 -55.5t48 -110.5l8 -3q23 41 23 96v42l-25 250q0 102 37 102z" />
    <glyph glyph-name="k" unicode="k" horiz-adv-x="380" 
d="M70 529h6q13 0 25 -22l-4 -68v-38l4 -175l3 -10h3q43 40 75 141l22 7q28 -4 28 -25q0 -65 -93 -175v-7q123 -143 162 -143h6l25 15h9q21 0 31 -28q0 -32 -71 -44q-71 0 -185 144h-9l3 -54v-52q-6 -31 -31 -31q-28 6 -28 31v6l-4 115q-11 0 -15 31l13 25l-6 225v44
q0 88 31 88z" />
    <glyph glyph-name="l" unicode="l" horiz-adv-x="167" 
d="M76 551q28 -10 28 -31l10 -381v-123q0 -34 -29 -34h-13q-18 12 -18 28v116l-9 396q0 25 31 29z" />
    <glyph glyph-name="m" unicode="m" horiz-adv-x="442" 
d="M35 350q7 25 32 25t33 -50h4l46 10q32 0 62 -60h4q44 69 90 69q98 -18 98 -128l2 -35l-9 -202v-19q0 -25 -31 -29q-31 0 -31 73l12 181q0 100 -47 100q-27 0 -65 -131q-19 -150 -31 -150q-17 0 -17 -7q-31 4 -31 32l13 121q-3 125 -25 125h-3q-25 -19 -25 -75v-53
l-4 -153q-7 -25 -31 -25q-21 0 -27 35l-4 118l6 97q-6 75 -21 131z" />
    <glyph glyph-name="n" unicode="n" horiz-adv-x="277" 
d="M149 337q85 -7 85 -83l2 -13l-2 -156q0 -27 31 -73v-2q-8 -29 -29 -29q-62 26 -62 110v13l-3 2l3 4v2l3 138q0 29 -25 29h-12q-50 -20 -50 -219q0 -69 -35 -69q-27 0 -28 34v100q0 194 34 194l10 3l21 -3q27 18 57 18z" />
    <glyph glyph-name="o" unicode="o" horiz-adv-x="320" 
d="M179 377q74 0 112 -110l4 -21q0 -107 -100 -219q-40 -37 -81 -37q-60 0 -85 69q-9 32 -9 56v12q0 158 115 240q20 10 44 10zM79 117q0 -68 35 -68q73 0 121 187v19q-17 62 -63 62q-18 0 -18 -25q0 -17 -40 -27q-35 -59 -35 -148z" />
    <glyph glyph-name="p" unicode="p" horiz-adv-x="295" 
d="M142 297q106 0 125 -133q0 -118 -110 -169q-12 -6 -33 -6h-7l-22 2v-2l4 -267q-7 -31 -32 -31q-28 9 -28 29l-9 544q0 26 31 27l21 -9q28 15 60 15zM92 191l-3 -31l3 -106l28 -7q67 0 87 98v15q-7 79 -56 79h-15q-44 0 -44 -48z" />
    <glyph glyph-name="q" unicode="q" horiz-adv-x="382" 
d="M199 346q62 -15 62 -34q-22 -122 -22 -243v-63q0 -153 28 -194q44 50 44 140v10q0 47 -31 63q-8 0 -13 21q9 29 34 29q69 -20 69 -131q-14 -164 -96 -198h-7q-87 0 -87 269v29h-4q-44 -60 -75 -60q-56 0 -71 93q0 105 90 229q37 40 79 40zM95 131l-6 -50v-22l12 -13
q29 0 88 204l6 37h-9q-44 -22 -91 -156z" />
    <glyph glyph-name="r" unicode="r" horiz-adv-x="365" 
d="M151 394q63 0 75 -88v-9q0 -97 -100 -178q58 -57 203 -57q22 -7 22 -31q0 -27 -35 -27q-98 0 -206 50v-29q0 -103 -44 -103q-31 0 -31 119v78l-3 28l7 32l-7 96v4q0 27 28 37q39 78 91 78zM101 175q29 0 65 104v43l-12 13h-9q-44 -30 -44 -160z" />
    <glyph glyph-name="s" unicode="s" horiz-adv-x="307" 
d="M220 405q27 0 37 -91q-10 -25 -33 -25q-16 3 -32 37l-18 6q-47 0 -85 -62v-9q0 -15 141 -50q59 -35 59 -85q0 -82 -132 -140l-37 -6q-84 9 -84 84v3q0 24 31 28q24 0 32 -50l8 -6h17q57 0 106 78v13q0 30 -131 56q-69 28 -69 78q0 65 109 122q48 6 81 19z" />
    <glyph glyph-name="t" unicode="t" horiz-adv-x="355" 
d="M137 607q28 -6 28 -28l-6 -44v-13q0 -44 10 -93h2q116 35 144 35q29 -8 29 -29q0 -34 -69 -34l-104 -37q0 -135 29 -367q-6 -27 -29 -27h-2q-35 0 -35 90q-13 67 -22 291h-18q-94 6 -94 44q0 11 21 27h10l46 -12h32l-9 125q0 72 37 72z" />
    <glyph glyph-name="u" unicode="u" horiz-adv-x="327" 
d="M59 301l18 10q24 0 35 -29q-16 -74 -16 -152q0 -39 23 -85h6q29 0 69 229q14 12 27 12q31 0 31 -110q13 -121 29 -121l15 6q29 -11 29 -31q-18 -38 -50 -38q-36 0 -69 72q-40 -84 -81 -84q-61 0 -85 127l-3 32v10q0 80 22 152z" />
    <glyph glyph-name="v" unicode="v" horiz-adv-x="275" 
d="M34 337q23 0 50 -110q38 -88 43 -93q5 0 37 100t61 100q27 -10 27 -32q-83 -214 -83 -283l-19 -19h-19q-36 26 -122 275l-9 37q7 25 34 25z" />
    <glyph glyph-name="w" unicode="w" horiz-adv-x="400" 
d="M302 314q69 -46 69 -142q0 -130 -87 -177l-38 -6q-34 0 -72 33h-7q-31 -40 -58 -40q-71 0 -82 134v54q7 127 53 127q25 0 29 -31q-23 -40 -23 -112v-19q4 -90 19 -90t31 52l-2 69q0 69 33 69q38 0 38 -75h4l-10 -63q17 -50 47 -50h6q44 0 57 94v56q0 32 -38 79l-4 9
q0 21 35 29z" />
    <glyph glyph-name="x" unicode="x" horiz-adv-x="260" 
d="M154 289h2q20 0 25 -32q-25 -101 -25 -156q26 -44 75 -44q13 -12 13 -25v-12q-9 -19 -40 -19q-28 2 -54 23h-9q-11 -107 -29 -107h-18q-22 12 -22 28l19 150v4q-69 127 -69 158q0 24 34 25q24 0 44 -77l4 -4h6q10 88 44 88z" />
    <glyph glyph-name="y" unicode="y" horiz-adv-x="265" 
d="M51 300q35 0 48 -154q17 -71 25 -71h6q25 63 25 125l-6 69q11 27 31 27q37 0 37 -131q22 -136 22 -253v-47q0 -215 -122 -290l-22 -4q-57 0 -106 106l-9 60v3q0 66 37 66l25 -16l-3 -63q0 -46 47 -93h13q55 0 81 210l2 58q-1 101 -8 129q-40 -35 -63 -35q-51 0 -91 273
l-3 2q0 23 34 29z" />
    <glyph glyph-name="z" unicode="z" horiz-adv-x="312" 
d="M172 302q19 0 28 -28q-89 -226 -94 -250l4 -3h31q48 0 131 44q28 0 28 -35q-56 -69 -175 -69l-46 6q-23 -15 -32 -15q-31 0 -31 57q0 12 34 37l69 184v4h-3l-85 -7q-34 7 -34 34q0 25 28 25q54 0 147 16z" />
    <glyph glyph-name="braceleft" unicode="{" horiz-adv-x="430" 
d="M344 726l27 6q21 0 25 -31q0 -22 -50 -40q-56 -59 -56 -150q6 -72 46.5 -72t40.5 -34q0 -21 -68 -44q-37 -22 -44 -35v-2h4l12 2q20 -4 28 -21v-19q-78 -154 -78 -285v-44q0 -173 159 -243l6 -9v-19l-19 -19h-6q-94 28 -150 115q-50 91 -50 204t54 263v2h-4l-44 -2
q-27 11 -27 31q14 44 121 127q-40 53 -40 113q0 129 113 206z" />
    <glyph glyph-name="bar" unicode="|" horiz-adv-x="167" 
d="M76 551q28 -10 28 -31l10 -381v-123q0 -34 -29 -34h-13q-18 12 -18 28v116l-9 396q0 25 31 29z" />
    <glyph glyph-name="braceright" unicode="}" horiz-adv-x="394" 
d="M217 744q55 -16 75 -157v-6q0 -86 -68 -237q93 -28 93 -57v-10q-33 -31 -33 -62v-6q0 -47 46 -278l4 -41q0 -109 -98 -153l-69 -12q-21 7 -21 31q0 27 84 40q44 26 44 94q0 39 -50 291v21l12 73v2q-81 23 -81 57q79 162 79 237v25q0 53 -50 106v10q8 32 33 32z" />
    <glyph glyph-name="asciitilde" unicode="~" horiz-adv-x="634" 
d="M542 537q-2 -9 -22.5 -3t-40.5 13q-17 39 -88 59l-11 1q-18 0 -66 -70q-42 -27 -99 -27q-98 0 -161 69l-5 20q8 23 29 23t49 -15l-8 -5v-7q-5 -29 85 -55h15h1q35 0 72 64q37 32 92 32q78 0 141 -57q5 -26 17 -42z" />
    <glyph glyph-name="nonbreakingspace" unicode="&#xa0;" horiz-adv-x="377" 
 />
    <glyph glyph-name="exclamdown" unicode="&#xa1;" horiz-adv-x="127" 
d="M57 43q-31 3 -31 22q6 203 15 235q0 88 37 88q20 0 30 -18q-16 -100 -24 -303q0 -17 -27 -24zM129 552q-9 -23 -33 -23t-33 23q11 21 31 21h4q20 0 31 -21z" />
    <glyph glyph-name="cent" unicode="&#xa2;" 
d="M170 490q8 -12 16 -91l41 5q11 -15 11 -26.5t-11 -19.5t-36 -16q9 -99 14 -225q24 13 57 45h7q18 0 31 -28q-13 -43 -91 -78q-1 -1 -3 -1q-2 -80 -27 -80h-13q-15 61 -17 77q-81 20 -109 160v22q0 117 97 160h3l-1 67q0 25 31 29zM100 252v-33q15 -87 47 -105v67l-5 153
h-2q-40 -31 -40 -82z" />
    <glyph glyph-name="sterling" unicode="&#xa3;" horiz-adv-x="521" 
d="M248 464q-82 0 -82 -113q0 -35 8 -80l96 6q25 0 29 -31q0 -31 -94 -31q-29 -4 -35 -5l-13 -146h7l142 22l149 -7h6q15 -10 23 -28q0 -27 -73 -27q-36 0 -91 7l-128 -26h-18l-48 -13q-27 11 -27 32l11 181h-28q-65 8 -65 37q0 20 28 32l37 -9h7l25 1l10 173q6 80 91 80
q15 0 32 -2q181 -24 176 -72q-2 -16 -22 -34q-96 53 -153 53z" />
    <glyph glyph-name="currency" unicode="&#xa4;" horiz-adv-x="579" 
d="M92 140q-28 48 -28 100v12q0 87 35 152q-39 51 -84 102q0 12 21 28h16q14 0 85 -77q16 16 42 35l77 7q5 1 15 1h18q24 -3 40 -10q16 15 70 77l18 4q25 -9 25 -29v-6q-26 -32 -72 -85q18 -33 18 -92.5t-23 -151.5l111 -101l44 9h6q16 -7 16 -25v-6q0 -32 -78 -40
q-75 55 -149 112l-10 -6q-127 -35 -164 -38l-20 -21q-62 -65 -72 -65q-63 13 33 93zM120 249q0 -69 35 -69h4q137 0 183 185v19q-17 62 -62 62h-17q-68 0 -68 -22l-40 -28q-35 -58 -35 -147z" />
    <glyph glyph-name="yen" unicode="&#xa5;" horiz-adv-x="437" 
d="M357 680q19 0 25 -31q0 -19 -62 -48q-67 -150 -90 -206q3 3 5 -8l6 -61l50 5q34 -6 34 -35q0 -16 -21 -25l-59 -4q0 -11 1 -18l73 7q13 -4 18 -16v-13q0 -33 -71 -33q-10 -4 -17 -5q3 -57 3 -97t-1 -67q-17 -15 -31 -15q-18 0 -31 169q-5 0 -23 -2q-81 0 -81 44
q0 13 19 25h6l34 -6h18l22 2l-3 20h-12q-68 0 -82 44q10 28 32 28l47 -13h11q-1 27 -1 35.5v10.5q-127 247 -127 287q0 21 31 25q26 0 50 -103l61 -119h4q5 0 54.5 111.5t107.5 111.5z" />
    <glyph glyph-name="brokenbar" unicode="&#xa6;" horiz-adv-x="155" 
d="M47 251h57l-8 -239q-7 -31 -31 -31q-29 11 -29 31zM111 291l-62 -4l-2 88l-10 162q7 25 35 25q32 0 32 -127l2 -54z" />
    <glyph glyph-name="section" unicode="&#xa7;" horiz-adv-x="349" 
d="M245 611q27 0 37 -91q-10 -25 -33 -25q-16 5 -32 37l-18 7q-47 0 -85 -63v-9q0 -15 141 -50q59 -33 59 -90t-74 -105l5 -1q59 -35 59 -85q0 -82 -132 -140l-37 -6q-84 9 -84 84v3q0 24 31 28q24 0 32 -50l8 -6h17q57 0 106 78v13q0 24 -93 47l-7 -1q-44 4 -66 28
q-34 25 -34 60q0 61 95 115l-16 3q-69 28 -69 78q0 65 109 122q49 8 81 19zM111 291l24 -40l20 -6q45 5 82 54l-30 37l-18 6q-43 0 -78 -51z" />
    <glyph glyph-name="dieresis" unicode="&#xa8;" horiz-adv-x="344" 
d="M232 445q-21 1 -28 34q1 25 43 25q23 -16 23 -29q0 -28 -38 -30zM119 451q-23 0 -24 30q1 23 36 31q28 -12 26 -33q-13 -28 -38 -28z" />
    <glyph glyph-name="copyright" unicode="&#xa9;" horiz-adv-x="944" 
d="M434 519q67 0 78 -98q0 -81 -37 -102h-6q-29 2 -29 21l4 75v37l-7 7h-10q-32 0 -75 -178l-6 -75v-22q0 -104 94 -122h41q104 0 253 134h3q28 0 32 -34q-23 -60 -54 -60q-144 -102 -257.5 -102t-161.5 125l-9 71v13q0 155 88 285q26 25 59 25zM299 651l53 4h20
q45 0 97 -34q96 0 271 -151q150 -178 150 -318q0 -187 -218 -252l-136 -18q-325 0 -469 310q-35 84 -35 159v13q0 232 267 287zM235 565q-102 -64 -102 -212q0 -30 4 -63q26 -198 263 -325l139 -23q151 27 213 102l73 103q-89 424 -491 424q-47 0 -99 -6z" />
    <glyph glyph-name="ordfeminine" unicode="&#xaa;" horiz-adv-x="216" 
d="M89 528q29 17 55.5 17t26.5 -19l-6 -11l-5 -99q0 -66 36 -83l2 -8q-2 -15 -20 -15h-4q-54 27 -54 84h-5q-28 -61 -69 -61q-38 8 -38 43q0 76 81 152zM53 398l-3 -16v-10h7q54 100 54 123h-3q-42 -36 -55 -97z" />
    <glyph glyph-name="guillemotleft" unicode="&#xab;" horiz-adv-x="474" 
d="M236 356q16 0 31 -22v-9q0 -31 -125 -106l-3 -4v-9q7 0 137 -106q16 -9 16 -27.5t-28 -28.5q-14 0 -144 108q-69 33 -69 38q-6 0 -6 19q0 16 141 106q39 39 50 41zM391 365q16 0 31 -21v-10q0 -30 -125 -107l-2 -2v-10q7 0 137 -106q15 -7 15 -26t-27 -31q-13 0 -144 110
q-69 32 -69 38q-6 0 -6 19q0 16 140 106q40 39 50 40z" />
    <glyph glyph-name="logicalnot" unicode="&#xac;" horiz-adv-x="590" 
d="M66 332q5 29 28 29l93 -6h15l324 17q20 0 30 -25l-11 -43v-18l7 -94q-8 -77 -45 -77q-15 5 -26 20v6l15 46v8l-7 106v9l2 2h-2v7q-246 -19 -273 -19h-29l-50 4q-71 8 -71 28z" />
    <glyph glyph-name="hyphen_" unicode="&#xad;" horiz-adv-x="419" 
d="M136 275l181 12q25 0 29 -31q0 -31 -94 -31q-69 -10 -122 -10q-65 8 -65 37q0 20 27 32l38 -9h6z" />
    <glyph glyph-name="registered" unicode="&#xae;" horiz-adv-x="952" 
d="M297 746l55 4h20q46 0 95 -34q95 0 273 -151q149 -179 149 -318q0 -187 -218 -252l-135 -18q-325 0 -470 310q-34 81 -34 159v13q0 232 265 287zM195 644q-86 -62 -86 -235q0 -24 2 -49q13 -174 216 -255q-19 54 -26 189q-27 83 -27 136v7q0 75 35 75l16 -7h6
q40 85 98 85h3q107 -18 107 -95v-16q0 -88 -118 -173v-2q188 -160 263 -160q13 -9 13 -24q0 -18 -30 -23q-73 0 -271 165l-37 18h-4q25 -91 25 -141q0 -19 -21 -45q32 -12 75 -22l61 -8h81q114 0 173 71l25 69l8 43q-49 406 -456 406q-61 0 -131 -9zM359 371l-4 -31
q81 0 131 126v31q0 37 -51 44h-6q-53 0 -70 -170z" />
    <glyph glyph-name="macron" unicode="&#xaf;" horiz-adv-x="447" 
d="M156 625l181 12q25 0 29 -31q0 -31 -94 -31q-69 -10 -122 -10q-65 8 -65 37q0 20 27 32l38 -9h6z" />
    <glyph glyph-name="degree" unicode="&#xb0;" horiz-adv-x="305" 
d="M166 532q64 0 95 -55l3 -11q0 -54 -84 -111q-34 -19 -75.5 -19t-64.5 35q-8 19 -8 29v6q0 80 98 121q18 5 36 5zM111 476q-29 -31 -29 -70.5t29 -39.5q62 0 103 95v10q-13 31 -53 31q-15 0 -15 -12q0 -9 -35 -14z" />
    <glyph glyph-name="plusminus" unicode="&#xb1;" horiz-adv-x="467" 
d="M270 85l122 44q24 0 29 -32q0 -31 -136 -68q-70 -10 -123 -10q-65 8 -65 37q0 21 28 31l37 -8h7l47 2q-10 25 -21 85l-13 19l-60 -16h-15q-66 0 -66 41q0 12 19 25h6l35 -6l13 3q50 2 50 13v2q-19 76 -19 113q0 72 35 72q14 0 27 -25l-2 -37v-16q0 -60 21 -94
q100 35 126 35q21 0 25 -31q0 -26 -81 -40l-51 -20v-3q23 -85 25 -116z" />
    <glyph glyph-name="twosuperior" unicode="&#xb2;" horiz-adv-x="226" 
d="M115 540q43 0 51 -50q0 -47 -89 -181v-2q25 0 98 33h2q11 0 17 -14q0 -22 -155 -57q-9 0 -15 13q23 44 86 138q21 46 21 64v14q0 9 -12 15h-7q-22 0 -42 -44l1 -5q0 -9 -15 -15q-21 5 -21 18q0 27 49 64q14 9 31 9z" />
    <glyph glyph-name="threesuperior" unicode="&#xb3;" horiz-adv-x="217" 
d="M92 535q33 0 41 -35q-5 -25 -11 -36v-2q33 0 51 -39l1 -16q-6 -52 -70 -112q-29 -17 -43 -17q-42 10 -42 25q3 6 11 11h10q11 -8 18 -8h1q41 0 82 89l2 12v3q0 27 -23 27q-26 0 -36 -19q-23 -21 -35 -24q-5 0 -16 12q0 17 48 50q21 30 21 46q-3 8 -10 9q-22 0 -47 -49
l-12 -2q-14 2 -14 11q25 64 73 64z" />
    <glyph glyph-name="acute" unicode="&#xb4;" horiz-adv-x="372" 
d="M35 541q2 29 30 38q163 78 201 78h3q25 -1 28 -37l-7 -28q-136 -48 -163 -55q-11 -17 -63 -33q-24 2 -29 37z" />
    <glyph glyph-name="mu" unicode="&#xb5;" horiz-adv-x="327" 
d="M59 301l18 10q24 0 35 -29q-16 -74 -16 -152q0 -39 23 -85h6q29 0 69 229q14 12 27 12q31 0 31 -110q13 -121 29 -121l15 6q29 -11 29 -31q-18 -38 -50 -38q-36 0 -69 72q-31 -64 -86 -64q-18 0 -38 7q-2 -108 -32 -108q-10 0 -25 15l12 225v10q0 80 22 152z" />
    <glyph glyph-name="paragraph" unicode="&#xb6;" horiz-adv-x="485" 
d="M412 675q15 0 15 -79.5t-20 -279.5v-264q-7 -31 -31 -31q-29 11 -29 31l19 540q-61 -3 -70 -101q-34 -160 -34 -312q0 -73 9 -138q-11 -29 -31 -29q-38 0 -38 154v19q0 76 13 194q-5 0 -33 -29.5t-73 -29.5q-54 0 -82 79v21q0 110 107 184q78 50 178 68q39 0 82 -1
q7 4 18 4z" />
    <glyph glyph-name="periodcentered" unicode="&#xb7;" horiz-adv-x="182" 
d="M104 331q31 0 35 -46q-9 -46 -48 -46q-30 0 -39 46q16 46 52 46z" />
    <glyph glyph-name="cedilla" unicode="&#xb8;" horiz-adv-x="361" 
d="M111 21l56 -4l-28 -51v-7q0 -15 103 -43q44 -27 44 -70q0 -66 -96 -116l-29 -5q-61 7 -61 70v2q0 20 22 24q20 0 24 -42l6 -5h12q42 0 78 65v10q0 26 -96 47q-51 24 -51 65q0 53 16 60z" />
    <glyph glyph-name="onesuperior" unicode="&#xb9;" horiz-adv-x="155" 
d="M62 508q22 0 22 -64l2 -28l-6 -158q-4 -16 -23 -16q-21 5 -21 16l7 155l-7 82q4 13 26 13z" />
    <glyph glyph-name="ordmasculine" unicode="&#xba;" horiz-adv-x="205" 
d="M107 538q53 0 79 -59l3 -11q0 -58 -70 -118q-29 -20 -57 -20q-41 0 -60 37q-6 17 -6 30v6q0 87 81 130q15 5 30 5zM62 478q-25 -31 -25 -74t25 -43q50 0 85 101v10q-12 34 -45 34q-12 0 -12 -14q0 -10 -28 -14z" />
    <glyph glyph-name="guillemotright" unicode="&#xbb;" horiz-adv-x="521" 
d="M107 349q26 -38 163 -92l16 -21q0 -21 -122 -141q-38 -59 -44 -59l-13 -4q-27 7 -27 25q1 43 109 142q16 16 16 25h-4q-131 70 -131 102q0 17 37 23zM272 376q26 -38 163 -90l16 -22q0 -20 -122 -140q-38 -60 -44 -60l-13 -3q-27 5 -27 25q2 41 109 140q16 17 16 25h-4
q-130 71 -130 103q0 16 36 22z" />
    <glyph glyph-name="onequarter" unicode="&#xbc;" horiz-adv-x="600" 
d="M58 509q18 0 18 -69l2 -29l-5 -169q-4 -16 -19 -16q-17 5 -17 16l6 166l-6 87q3 14 21 14zM321 605q29 -8 29 -29q-17 -48 -117.5 -250t-148.5 -325l-21 -6q-29 5 -29 29q0 32 256 556q9 25 31 25zM434 356q0 2 12.5 3t23.5 -7v-4q0 -4 -11 -9q-21 -11 -21 -144v-15h8
q35 0 77 21h2q21 -3 21 -12q-16 -18 -50 -25t-51 -7h-4l4 -132q0 -8 -20 -11q-17 0 -21 13l-4 132q-82 15 -93 15h-8q-6 -2 -17 -14l-13 -4q-21 4 -21 14q0 3 29 35q34 56 34 81v15q0 4 -14 20q5 12 21 12q36 -9 36 -41q0 -22 -38 -96l82 -13v4q0 169 36 169z" />
    <glyph glyph-name="onehalf" unicode="&#xbd;" horiz-adv-x="479" 
d="M36 495q5 14 26.5 14t21.5 -69l2 -29l-6 -169q-4 -16 -23 -16q-21 4 -21 16l7 166zM333 594q29 -8 29 -29q-17 -48 -117.5 -250t-148.5 -325l-21 -6q-29 5 -29 29q0 32 256 556q9 25 31 25zM347 317q49 0 56 -58q0 -53 -98 -208v-3q24 0 108 38h1q12 0 20 -15
q0 -26 -170 -67q-10 0 -17 16q23 46 94 159q24 54 24 74v16q0 11 -13 17h-8q-24 0 -47 -50l2 -7q0 -10 -17 -16q-23 5 -23 20q0 31 54 74q14 10 34 10z" />
    <glyph glyph-name="threequarters" unicode="&#xbe;" horiz-adv-x="665" 
d="M141 614q41 0 50 -46q-4 -28 -14 -47v-2q41 0 62 -50l2 -21q-8 -69 -86 -146q-35 -21 -51 -21q-52 12 -52 31q3 9 14 14h12q13 -10 22 -10h1q50 0 100 116l2 16v3q0 35 -28.5 35t-42.5 -24q-27 -27 -43 -32q-8 0 -20 16q0 22 58 65q26 40 26 59q-5 9 -12 12
q-27 0 -57 -63l-15 -3q-17 3 -17 14q31 84 89 84zM426 621q29 -8 29 -29q-17 -48 -117.5 -250t-148.5 -325l-21 -6q-29 5 -29 29q0 32 256 556q9 25 31 25zM550 470q7 0 16 -11v-5q0 -8 -9 -12q-18 -14 -18 -191v-21h7q29 0 66 29h2q18 -5 18 -16q-13 -25 -50 -36
q-20 -7 -38 -7h-3l3 -175q0 -10 -17 -15q-15 0 -18 17l-3 176q-70 19 -81 19h-7q-4 -1 -15 -17l-11 -7q-18 6 -18 19q0 6 25 47q29 78 29 108v19q0 7 -12 27q4 15 18 15q31 -10 31 -53q0 -30 -33 -128l72 -17v5q0 224 31 224q0 3 15 6z" />
    <glyph glyph-name="questiondown" unicode="&#xbf;" horiz-adv-x="352" 
d="M205 25q-39 0 -73 19q-101 62 -101 123v2q0 33 26 33h4l2 -3q24 0 24 -45q56 -89 116 -89h11q15 6 20 17q0 65 -102 143l-23 -5q-23 0 -31 18q0 13 21 28q19 0 29 34q15 165 53 165q36 -5 36 -22h-3q0 -9 -9 -17q-21 -135 -38 -168q124 -100 124 -171q0 -51 -86 -62z
M229 518q-33 4 -33 20t45 34q18 0 29 -17q0 -23 -41 -37z" />
    <glyph glyph-name="Agrave" unicode="&#xc0;" horiz-adv-x="472" 
d="M227 594l25 8q34 0 34 -90l31 -231l4 -4l115 42q23 0 25 -35q0 -26 -127 -63l-4 -2v-4q0 -21 66 -219v-2q0 -19 -31 -32q-29 0 -38 69q-23 50 -56 165h-4q-131 -27 -131 -46q-72 -156 -109 -156q-21 0 -25 27q0 24 53 94l16 35h-25l-19 -4q-37 9 -37 38q15 35 44 35
l25 -10q56 0 56 41q51 120 112 344zM236 412l-59 -178q82 16 82 31q-15 147 -23 147zM350 704q-4 -28 -25 -30q-48 13 -59 27q-141 59 -141 92q0 6 4 11q3 28 26 30q46 -13 169 -100q24 -7 26 -30z" />
    <glyph glyph-name="Aacute" unicode="&#xc1;" horiz-adv-x="472" 
d="M227 594l25 8q34 0 34 -90l31 -231l4 -4l115 42q23 0 25 -35q0 -26 -127 -63l-4 -2v-4q0 -21 66 -219v-2q0 -19 -31 -32q-29 0 -38 69q-23 50 -56 165h-4q-131 -27 -131 -46q-72 -156 -109 -156q-21 0 -25 27q0 24 53 94l16 35h-25l-19 -4q-37 9 -37 38q15 35 44 35
l25 -10q56 0 56 41q51 120 112 344zM236 412l-59 -178q82 16 82 31q-15 147 -23 147zM87 687q2 29 30 38q163 78 201 78h3q25 -1 28 -37l-7 -28q-136 -48 -163 -55q-11 -17 -63 -33q-24 2 -29 37z" />
    <glyph glyph-name="Acircumflex" unicode="&#xc2;" horiz-adv-x="472" 
d="M227 594l25 8q34 0 34 -90l31 -231l4 -4l115 42q23 0 25 -35q0 -26 -127 -63l-4 -2v-4q0 -21 66 -219v-2q0 -19 -31 -32q-29 0 -38 69q-23 50 -56 165h-4q-131 -27 -131 -46q-72 -156 -109 -156q-21 0 -25 27q0 24 53 94l16 35h-25l-19 -4q-37 9 -37 38q15 35 44 35
l25 -10q56 0 56 41q51 120 112 344zM236 412l-59 -178q82 16 82 31q-15 147 -23 147zM224 787l16 7q30 0 126 -144l38 -54q0 -12 -24 -15l-26 -2q0 3 -72 88q-20 49 -33 49q-4 0 -7 -5q-88 -105 -96 -126l-27 15q-29 6 -29 22q0 8 29 19z" />
    <glyph glyph-name="Atilde" unicode="&#xc3;" horiz-adv-x="472" 
d="M227 594l25 8q34 0 34 -90l31 -231l4 -4l115 42q23 0 25 -35q0 -26 -127 -63l-4 -2v-4q0 -21 66 -219v-2q0 -19 -31 -32q-29 0 -38 69q-23 50 -56 165h-4q-131 -27 -131 -46q-72 -156 -109 -156q-21 0 -25 27q0 24 53 94l16 35h-25l-19 -4q-37 9 -37 38q15 35 44 35
l25 -10q56 0 56 41q51 120 112 344zM236 412l-59 -178q82 16 82 31q-15 147 -23 147zM442 681q-1 -7 -9.5 -7t-38.5 22q-11 59 -63 89l-9 1q-13 0 -49 -105q-31 -41 -73 -41h-2q-71 5 -116 104l-4 30q6 34 24 34q14 0 35 -22l-8 -7v-12q-1 -42 64 -82h10h1q27 0 54 96
q28 49 68 49h2q56 -3 101 -86q3 -39 13 -63z" />
    <glyph glyph-name="Adieresis" unicode="&#xc4;" horiz-adv-x="472" 
d="M227 594l25 8q34 0 34 -90l31 -231l4 -4l115 42q23 0 25 -35q0 -26 -127 -63l-4 -2v-4q0 -21 66 -219v-2q0 -19 -31 -32q-29 0 -38 69q-23 50 -56 165h-4q-131 -27 -131 -46q-72 -156 -109 -156q-21 0 -25 27q0 24 53 94l16 35h-25l-19 -4q-37 9 -37 38q15 35 44 35
l25 -10q56 0 56 41q51 120 112 344zM236 412l-59 -178q82 16 82 31q-15 147 -23 147zM281 632q-21 1 -28 34q1 25 43 25q23 -16 23 -29q0 -28 -38 -30zM168 638q-23 0 -24 30q1 23 36 31q28 -12 26 -33q-13 -28 -38 -28z" />
    <glyph glyph-name="Aring" unicode="&#xc5;" horiz-adv-x="472" 
d="M262 774q64 0 95 -55l3 -12q0 -53 -84 -111q-3 -1 -6 -4q16 -17 16 -80l31 -231l4 -4l115 42q23 0 25 -35q0 -26 -127 -63l-4 -2v-4q0 -21 66 -219v-2q0 -19 -31 -32q-29 0 -38 69q-23 50 -56 165h-4q-131 -27 -131 -46q-72 -156 -109 -156q-21 0 -25 27q0 24 53 94
l16 35h-25l-19 -4q-37 9 -37 38q15 35 44 35l25 -10q56 0 56 41q51 124 107 327h-15q-48 0 -71 35q-7 17 -7 29v6q0 80 97 122q20 5 36 5zM179 642q0 -35 28 -35q62 0 103 95v10q-14 32 -53 32q-15 0 -15 -13q0 -9 -35 -14q-28 -29 -28 -75zM236 412l-59 -178q82 16 82 31
q-15 147 -23 147z" />
    <glyph glyph-name="AE" unicode="&#xc6;" horiz-adv-x="631" 
d="M517 629q19 0 25 -32q0 -18 -62 -50q-78 -66 -116 -233v-19q87 43 125 52q11 0 28 -21v-19q0 -11 -61 -33q-14 -17 -75 -38q-17 -11 -17 -14v-8q0 -58 72 -98l34 -6q33 0 97 41h13q21 -11 21 -29v-6q-62 -65 -137 -65q-58 0 -102 44q6 -19 34 -99v-2q0 -19 -31 -32
q-29 0 -38 69q-24 50 -55 156l-27 -5l-20 4q-89 -21 -89 -36q-72 -156 -109 -156q-21 0 -25 27q0 24 53 94l16 35h-25l-19 -4q-37 9 -37 38q15 35 44 35l25 -10q56 0 56 41q51 120 112 344l25 8q34 0 34 -90l23 -167q22 123 121 234q65 50 87 50zM236 412l-59 -178
q82 16 82 31q-15 147 -23 147z" />
    <glyph glyph-name="Ccedilla" unicode="&#xc7;" horiz-adv-x="500" 
d="M146 519q68 0 79 -98q0 -81 -38 -102h-6q-29 2 -29 21l4 75v37l-6 7h-10q-32 0 -75 -178l-6 -75v-22q0 -104 93 -122h42q104 0 252 134h4q27 0 31 -34q-23 -60 -54 -60q-113 -81 -208 -98l-22 -38v-7q0 -14 104 -43q44 -27 44 -70q0 -66 -96 -116l-29 -5q-61 7 -61 70v2
q0 20 22 24q19 0 24 -42l6 -5h11q43 0 79 65v10q0 26 -96 47q-51 24 -51 65q0 21 2 39q-104 11 -147 125l-9 71v13q0 155 87 285q28 25 59 25z" />
    <glyph glyph-name="Egrave" unicode="&#xc8;" horiz-adv-x="430" 
d="M319 577q18 0 25 -31q0 -18 -63 -50q-78 -68 -116 -234v-18q87 43 125 52q12 0 29 -21v-19q0 -11 -88 -44q-66 -36 -66 -41v-9q0 -56 72 -97l34 -6q33 0 98 41h12q21 -10 21 -29v-6q-62 -65 -137 -65q-107 0 -156 144l-63 -13q-46 7 -46 30t27 33l23 -4q52 15 52 22
q0 170 129 315q65 50 88 50zM404 638q-4 -28 -25 -30q-48 13 -59 27q-141 59 -141 92q0 6 4 11q3 28 26 30q46 -13 169 -100q24 -7 26 -30z" />
    <glyph glyph-name="Eacute" unicode="&#xc9;" horiz-adv-x="430" 
d="M319 577q18 0 25 -31q0 -18 -63 -50q-78 -68 -116 -234v-18q87 43 125 52q12 0 29 -21v-19q0 -11 -88 -44q-66 -36 -66 -41v-9q0 -56 72 -97l34 -6q33 0 98 41h12q21 -10 21 -29v-6q-62 -65 -137 -65q-107 0 -156 144l-63 -13q-46 7 -46 30t27 33l23 -4q52 15 52 22
q0 170 129 315q65 50 88 50zM171 655q2 29 30 38q163 78 201 78h3q25 -1 28 -37l-7 -28q-136 -48 -163 -55q-11 -17 -63 -33q-24 2 -29 37z" />
    <glyph glyph-name="Ecircumflex" unicode="&#xca;" horiz-adv-x="430" 
d="M319 577q18 0 25 -31q0 -18 -63 -50q-78 -68 -116 -234v-18q87 43 125 52q12 0 29 -21v-19q0 -11 -88 -44q-66 -36 -66 -41v-9q0 -56 72 -97l34 -6q33 0 98 41h12q21 -10 21 -29v-6q-62 -65 -137 -65q-107 0 -156 144l-63 -13q-46 7 -46 30t27 33l23 -4q52 15 52 22
q0 170 129 315q65 50 88 50zM231 804l16 7q30 0 126 -144l38 -54q0 -12 -24 -15l-26 -2q0 2 -72 88q-20 49 -33 49q-4 0 -7 -5q-89 -105 -96 -126l-27 15q-29 6 -29 22q0 8 29 19z" />
    <glyph glyph-name="Edieresis" unicode="&#xcb;" horiz-adv-x="430" 
d="M319 577q18 0 25 -31q0 -18 -63 -50q-78 -68 -116 -234v-18q87 43 125 52q12 0 29 -21v-19q0 -11 -88 -44q-66 -36 -66 -41v-9q0 -56 72 -97l34 -6q33 0 98 41h12q21 -10 21 -29v-6q-62 -65 -137 -65q-107 0 -156 144l-63 -13q-46 7 -46 30t27 33l23 -4q52 15 52 22
q0 170 129 315q65 50 88 50zM263 624q-21 1 -28 34q1 25 43 25q23 -16 23 -29q0 -28 -38 -30zM150 630q-23 0 -24 30q1 23 36 31q28 -12 26 -33q-13 -28 -38 -28z" />
    <glyph glyph-name="Igrave" unicode="&#xcc;" horiz-adv-x="177" 
d="M66 554q24 0 31 -25l-6 -59v-19q25 -207 31 -322q11 -107 23 -107q0 -21 -35 -27q-50 0 -50 202l-28 260v9q0 88 34 88zM270 595q-4 -28 -25 -30q-48 13 -59 27q-141 59 -141 92q0 6 4 11q3 28 26 30q46 -13 169 -100q24 -7 26 -30z" />
    <glyph glyph-name="Iacute" unicode="&#xcd;" horiz-adv-x="177" 
d="M66 554q24 0 31 -25l-6 -59v-19q25 -207 31 -322q11 -107 23 -107q0 -21 -35 -27q-50 0 -50 202l-28 260v9q0 88 34 88zM-59 693q2 29 30 38q163 78 201 78h3q25 -1 28 -37l-7 -28q-136 -48 -163 -55q-11 -17 -63 -33q-24 2 -29 37z" />
    <glyph glyph-name="Icircumflex" unicode="&#xce;" horiz-adv-x="177" 
d="M66 554q24 0 31 -25l-6 -59v-19q25 -207 31 -322q11 -107 23 -107q0 -21 -35 -27q-50 0 -50 202l-28 260v9q0 88 34 88zM55 784l16 7q30 0 126 -144l38 -54q0 -12 -24 -15l-26 -2q0 2 -72 88q-20 49 -33 49q-4 0 -7 -5q-89 -105 -96 -126l-27 15q-29 6 -29 22q0 8 29 19z
" />
    <glyph glyph-name="Idieresis" unicode="&#xcf;" horiz-adv-x="177" 
d="M66 554q24 0 31 -25l-6 -59v-19q25 -207 31 -322q11 -107 23 -107q0 -21 -35 -27q-50 0 -50 202l-28 260v9q0 88 34 88zM126 581q-21 1 -28 34q1 25 43 25q23 -16 23 -29q0 -28 -38 -30zM13 587q-23 0 -24 30q1 23 36 31q28 -12 26 -33q-13 -28 -38 -28z" />
    <glyph glyph-name="Eth" unicode="&#xd0;" horiz-adv-x="459" 
d="M11 475q0 55 63 96q25 13 52 13q142 0 273 -150q40 -79 40 -153q0 -174 -178 -256q-54 -23 -114 -25l-60 7q-11 8 -11 24h-2q0 14 8 20q-7 91 -11 216h-19q-93 7 -93 44q0 11 21 28h10l46 -13h31l-8 124l-17 -10q-26 0 -31 35zM139 525h-9l-10 -51l-3 -23v-12
q0 -45 10 -94h3q116 35 144 35q28 -6 28 -29q0 -34 -68 -34l-104 -37q0 -85 11 -215h54q185 50 185 216q0 178 -206 238q-13 6 -35 6z" />
    <glyph glyph-name="Ntilde" unicode="&#xd1;" horiz-adv-x="432" 
d="M95 552q47 -15 179 -365l15 -18v56q0 223 110 315q25 0 31 -34q-75 -112 -75 -181q-5 0 -6 -63v-53q0 -69 15 -197q-9 -25 -32 -25t-65 94q-51 81 -112 246h-4v-6l6 -127q0 -197 -75 -254l-25 -3q-31 0 -52 57q7 31 31 31h6l19 -16h3q35 47 35 178.5t-38 333.5
q0 27 34 31zM481 660q-1 -7 -9.5 -7t-38.5 22q-11 59 -63 89l-9 1q-13 0 -49 -105q-31 -41 -73 -41h-2q-71 5 -116 104l-4 30q6 34 24 34q14 0 35 -22l-8 -7v-12q-1 -42 64 -82h10h1q27 0 54 96q28 49 68 49h2q56 -3 101 -86q3 -39 13 -63z" />
    <glyph glyph-name="Ograve" unicode="&#xd2;" horiz-adv-x="440" 
d="M146 541l25 4h10q20 0 44 -25q44 0 125 -110q69 -130 69 -231q0 -138 -100 -184l-63 -13q-150 0 -216 225q-15 59 -15 115v10q0 169 121 209zM137 445l-22 9q-31 -37 -31 -107v-27q0 -185 125 -269l28 -6h38q52 0 75 65l6 44v31q0 150 -119 269l-41 12h-2q-20 0 -57 -21z
M324 660q-4 -28 -25 -30q-48 13 -59 27q-141 59 -141 92q0 6 4 11q3 28 26 30q46 -13 169 -100q24 -7 26 -30z" />
    <glyph glyph-name="Oacute" unicode="&#xd3;" horiz-adv-x="440" 
d="M146 541l25 4h10q20 0 44 -25q44 0 125 -110q69 -130 69 -231q0 -138 -100 -184l-63 -13q-150 0 -216 225q-15 59 -15 115v10q0 169 121 209zM137 445l-22 9q-31 -37 -31 -107v-27q0 -185 125 -269l28 -6h38q52 0 75 65l6 44v31q0 150 -119 269l-41 12h-2q-20 0 -57 -21z
M-8 655q2 29 30 38q163 78 201 78h3q25 -1 28 -37l-7 -28q-136 -48 -163 -55q-10 -17 -63 -33q-24 2 -29 37z" />
    <glyph glyph-name="Ocircumflex" unicode="&#xd4;" horiz-adv-x="440" 
d="M146 541l25 4h10q20 0 44 -25q44 0 125 -110q69 -130 69 -231q0 -138 -100 -184l-63 -13q-150 0 -216 225q-15 59 -15 115v10q0 169 121 209zM137 445l-22 9q-31 -37 -31 -107v-27q0 -185 125 -269l28 -6h38q52 0 75 65l6 44v31q0 150 -119 269l-41 12h-2q-20 0 -57 -21z
M141 793l16 7q30 0 126 -144l38 -54q0 -12 -24 -15l-26 -2q0 3 -72 88q-20 49 -33 49q-4 0 -7 -5q-89 -105 -96 -126l-27 15q-29 6 -29 22q0 8 29 19z" />
    <glyph glyph-name="Otilde" unicode="&#xd5;" horiz-adv-x="440" 
d="M146 541l25 4h10q20 0 44 -25q44 0 125 -110q69 -130 69 -231q0 -138 -100 -184l-63 -13q-150 0 -216 225q-15 59 -15 115v10q0 169 121 209zM137 445l-22 9q-31 -37 -31 -107v-27q0 -185 125 -269l28 -6h38q52 0 75 65l6 44v31q0 150 -119 269l-41 12h-2q-20 0 -57 -21z
M359 643q-1 -7 -9.5 -7t-38.5 22q-11 59 -63 89l-9 1q-13 0 -49 -105q-31 -41 -73 -41h-2q-71 5 -116 104l-4 30q6 34 24 34q14 0 35 -22l-8 -7v-12q-1 -42 64 -82h10h1q27 0 54 96q28 49 68 49h2q56 -3 101 -86q3 -39 13 -63z" />
    <glyph glyph-name="Odieresis" unicode="&#xd6;" horiz-adv-x="440" 
d="M146 541l25 4h10q20 0 44 -25q44 0 125 -110q69 -130 69 -231q0 -138 -100 -184l-63 -13q-150 0 -216 225q-15 59 -15 115v10q0 169 121 209zM137 445l-22 9q-31 -37 -31 -107v-27q0 -185 125 -269l28 -6h38q52 0 75 65l6 44v31q0 150 -119 269l-41 12h-2q-20 0 -57 -21z
M222 567q-21 1 -28 34q1 25 43 25q23 -16 23 -29q0 -28 -38 -30zM109 573q-23 0 -24 30q1 23 36 31q28 -12 26 -33q-13 -28 -38 -28z" />
    <glyph glyph-name="multiply" unicode="&#xd7;" horiz-adv-x="260" 
d="M152 392h3q21 0 25 -31q-25 -101 -25 -156q26 -44 75 -44q12 -12 12 -25v-12q-7 -19 -40 -19q-27 2 -53 22h-9q-10 -106 -29 -106h-19q-21 11 -21 28l19 150v3q-69 129 -69 159q0 24 34 25q24 0 44 -77l3 -4h7q11 87 43 87z" />
    <glyph glyph-name="Oslash" unicode="&#xd8;" horiz-adv-x="440" 
d="M86 92q-61 115 -61 230v10q0 169 121 209l25 4h10q20 0 44 -25q21 0 50 -26l42 86q9 25 32 25q28 -7 28 -29q-11 -28 -57 -129l30 -37q69 -130 69 -231q0 -138 -100 -184l-63 -13q-76 0 -130 57l-15 -38l-21 -6q-29 5 -29 29q0 11 25 68zM209 51l28 -6h38q52 0 75 65
l6 44v31q0 109 -65 204l-49 -100q-51 -102 -90 -189q23 -27 57 -49zM137 445l-22 9q-31 -37 -31 -107v-27q0 -95 31 -163q44 98 135 283l-13 14l-41 12h-2q-20 0 -57 -21z" />
    <glyph glyph-name="Ugrave" unicode="&#xd9;" horiz-adv-x="407" 
d="M291 594q44 0 44 -163l-13 -147q0 -188 50 -290v-4q0 -20 -27 -25h-4q-37 2 -65 141h-4q-52 -156 -133 -156t-104 131l-3 59v19l15 228v44q0 20 23 31h9q28 0 28 -37v-6l-16 -267v-37q0 -80 38 -106h18q51 31 98 210l15 68l-13 163q0 144 44 144zM296 729q-4 -28 -25 -30
q-48 13 -59 27q-141 59 -141 92q0 6 4 11q3 28 26 30q46 -13 169 -100q24 -7 26 -30z" />
    <glyph glyph-name="Uacute" unicode="&#xda;" horiz-adv-x="407" 
d="M291 594q44 0 44 -163l-13 -147q0 -188 50 -290v-4q0 -20 -27 -25h-4q-37 2 -65 141h-4q-52 -156 -133 -156t-104 131l-3 59v19l15 228v44q0 20 23 31h9q28 0 28 -37v-6l-16 -267v-37q0 -80 38 -106h18q51 31 98 210l15 68l-13 163q0 144 44 144zM24 625q2 29 30 38
q163 78 201 78h3q25 -1 28 -37l-7 -28q-136 -48 -163 -55q-10 -17 -63 -33q-24 2 -29 37z" />
    <glyph glyph-name="Ucircumflex" unicode="&#xdb;" horiz-adv-x="407" 
d="M291 594q44 0 44 -163l-13 -147q0 -188 50 -290v-4q0 -20 -27 -25h-4q-37 2 -65 141h-4q-52 -156 -133 -156t-104 131l-3 59v19l15 228v44q0 20 23 31h9q28 0 28 -37v-6l-16 -267v-37q0 -80 38 -106h18q51 31 98 210l15 68l-13 163q0 144 44 144zM169 831l16 7
q30 0 126 -144l38 -54q0 -12 -24 -15l-26 -2q0 3 -72 88q-20 49 -33 49q-4 0 -7 -5q-89 -105 -96 -126l-27 15q-29 6 -29 22q0 8 29 19z" />
    <glyph glyph-name="Udieresis" unicode="&#xdc;" horiz-adv-x="407" 
d="M291 594q44 0 44 -163l-13 -147q0 -188 50 -290v-4q0 -20 -27 -25h-4q-37 2 -65 141h-4q-52 -156 -133 -156t-104 131l-3 59v19l15 228v44q0 20 23 31h9q28 0 28 -37v-6l-16 -267v-37q0 -80 38 -106h18q51 31 98 210l15 68l-13 163q0 144 44 144zM239 629q-21 1 -28 34
q1 25 43 25q23 -16 23 -29q0 -28 -38 -30zM126 635q-23 0 -24 30q1 23 36 31q28 -12 26 -33q-13 -28 -38 -28z" />
    <glyph glyph-name="Yacute" unicode="&#xdd;" horiz-adv-x="412" 
d="M166 652q18 0 31 -31q-40 -110 -40 -206v-34q0 -112 57 -112q73 0 100 256q0 119 21 119l16 2q21 0 25 -34v-337q0 -315 -106 -369q-20 -11 -60 -19q-88 0 -200 103l-3 12q0 23 34 29l79 -56q46 -25 69 -25h27q100 0 100 309v12h-9q-38 -59 -97 -59q-73 0 -103 94
q-10 37 -10 75v9q16 262 69 262zM122 762q2 29 30 38q163 78 201 78h3q25 -1 28 -37l-7 -28q-136 -48 -163 -55q-10 -16 -63 -33q-24 2 -29 37z" />
    <glyph glyph-name="Thorn" unicode="&#xde;" 
d="M78 -8q-14 0 -32 22l6 526l-15 37q0 19 28 29q35 0 35 -125q0 -59 -8 -145q48 94 75 94q0 5 22 6h3q68 0 84 -102v-4q0 -86 -87 -194q-37 -40 -82 -40q-1 -104 -29 -104zM124 165h2q54 21 91 144v37q-7 31 -22 31h-9q-43 -26 -62 -212z" />
    <glyph glyph-name="germandbls" unicode="&#xdf;" horiz-adv-x="367" 
d="M119 60q75 13 148 127q23 57 23 94q0 46 -44 46h-4q-48 0 -118 -102l-14 95q62 129 66 192q-5 20 -13 20q-17 0 -46 -77l-6 -18q-25 -107 -31 -335l-25 -163q-16 -8 -26 -8t-13 5t-3 28.5t21 146.5q4 486 150 498q47 0 56 -72v-3q0 -36 -41 -157l47 10q86 0 100 -110v-15
q0 -132 -166 -241q-7 -3 -14 -3q-26 0 -47 42z" />
    <glyph glyph-name="agrave" unicode="&#xe0;" horiz-adv-x="292" 
d="M206 386q44 0 44 -35l-9 -19l-6 -183q0 -124 50 -154l2 -15q-3 -29 -27 -29h-6q-75 51 -75 156h-7q-40 -112 -97 -112q-53 15 -53 79q0 141 113 281q38 31 71 31zM85 114l-4 -28v-19h10q75 187 75 228h-4q-58 -65 -77 -181zM340 424q-4 -28 -25 -30q-48 13 -59 27
q-141 59 -141 92q0 6 4 11q3 28 26 30q46 -13 169 -100q24 -7 26 -30z" />
    <glyph glyph-name="aacute" unicode="&#xe1;" horiz-adv-x="292" 
d="M206 386q44 0 44 -35l-9 -19l-6 -183q0 -124 50 -154l2 -15q-3 -29 -27 -29h-6q-75 51 -75 156h-7q-40 -112 -97 -112q-53 15 -53 79q0 141 113 281q38 31 71 31zM85 114l-4 -28v-19h10q75 187 75 228h-4q-58 -65 -77 -181zM35 498q2 29 30 38q163 78 201 78h3
q25 -1 28 -37l-7 -28q-136 -48 -163 -55q-11 -16 -63 -33q-24 2 -29 37z" />
    <glyph glyph-name="acircumflex" unicode="&#xe2;" horiz-adv-x="292" 
d="M206 386q44 0 44 -35l-9 -19l-6 -183q0 -124 50 -154l2 -15q-3 -29 -27 -29h-6q-75 51 -75 156h-7q-40 -112 -97 -112q-53 15 -53 79q0 141 113 281q38 31 71 31zM85 114l-4 -28v-19h10q75 187 75 228h-4q-58 -65 -77 -181zM125 631l16 7q30 0 126 -144l38 -54
q0 -12 -24 -15l-26 -2q0 2 -72 88q-20 49 -33 49q-4 0 -7 -5q-89 -105 -96 -126l-27 15q-29 6 -29 22q0 8 29 19z" />
    <glyph glyph-name="atilde" unicode="&#xe3;" horiz-adv-x="292" 
d="M206 386q44 0 44 -35l-9 -19l-6 -183q0 -124 50 -154l2 -15q-3 -29 -27 -29h-6q-75 51 -75 156h-7q-40 -112 -97 -112q-53 15 -53 79q0 141 113 281q38 31 71 31zM85 114l-4 -28v-19h10q75 187 75 228h-4q-58 -65 -77 -181zM342 452q-1 -6 -8 -6t-33 21q-11 59 -54 87
l-8 1q-12 0 -43 -103q-25 -40 -61 -40q-62 0 -103 102l-4 30q6 33 21 33q12 0 30 -22l-7 -6v-12q-1 -40 55 -81h9h1l23 23q12 24 24 72q23 48 58 48q49 0 89 -85q3 -34 11 -62z" />
    <glyph glyph-name="adieresis" unicode="&#xe4;" horiz-adv-x="292" 
d="M206 386q44 0 44 -35l-9 -19l-6 -183q0 -124 50 -154l2 -15q-3 -29 -27 -29h-6q-75 51 -75 156h-7q-40 -112 -97 -112q-53 15 -53 79q0 141 113 281q38 31 71 31zM85 114l-4 -28v-19h10q75 187 75 228h-4q-58 -65 -77 -181zM197 445q-21 1 -28 34q1 25 43 25
q23 -16 23 -29q0 -28 -38 -30zM84 451q-23 0 -24 30q1 23 36 31q28 -12 26 -33q-13 -28 -38 -28z" />
    <glyph glyph-name="aring" unicode="&#xe5;" horiz-adv-x="292" 
d="M224 566q51 0 75 -59l2 -12q0 -56 -64 -116q13 -9 13 -28l-9 -19l-6 -183q0 -124 50 -154l2 -15q-3 -29 -27 -29h-6q-75 51 -75 156h-7q-40 -112 -97 -112q-53 15 -53 79q0 141 113 281l12 10q-15 9 -22.5 27.5t-7.5 32.5v6q0 85 78 130q15 5 29 5zM180 506
q-23 -32 -23 -74.5t23 -42.5q49 0 81 101v10q-10 34 -41 34q-13 0 -13 -14q0 -10 -27 -14zM85 114l-4 -28v-19h10q75 187 75 228h-4q-58 -65 -77 -181z" />
    <glyph glyph-name="ae" unicode="&#xe6;" horiz-adv-x="509" 
d="M284 346q41 -2 135 -140l2 -16q0 -29 -137 -44l-3 -2v-4q21 -90 44 -90h12q33 0 97 69h6q20 0 31 -29q0 -26 -84 -84q-22 -12 -53 -19q-59 0 -92 78q14 -54 43 -70l2 -15q-3 -29 -27 -29h-6q-75 51 -75 156h-7q-40 -112 -97 -112q-53 15 -53 79q0 141 113 281
q38 31 71 31q44 0 44 -35l-9 -19v-6q15 20 43 20zM85 114l-4 -28v-19h10q75 187 75 228h-4q-58 -65 -77 -181zM290 275h-9l-4 -38v-31h4q56 3 56 13q-26 38 -47 56z" />
    <glyph glyph-name="ccedilla" unicode="&#xe7;" 
d="M121 339l41 6q25 0 28 -31q0 -27 -65 -35q-41 -32 -41 -82v-33q20 -110 68 -110h10q28 0 84 53h6q20 0 32 -28q-14 -43 -90 -78q-14 -5 -33 -6l-16 -29v-7q0 -14 104 -43q43 -27 43 -70q0 -66 -96 -116l-29 -5q-61 7 -61 70v2q0 19 23 24q19 0 23 -42l7 -5h11q41 0 79 65
v10q0 26 -97 47q-51 24 -51 65q0 31 5 46q-58 35 -81 150v22q0 117 96 160z" />
    <glyph glyph-name="egrave" unicode="&#xe8;" 
d="M109 359q40 -1 135 -140l2 -17q0 -28 -137 -43l-3 -3v-4q21 -90 44 -90h12q32 0 97 69h6q20 0 31 -29q0 -24 -84 -83q-22 -13 -53 -19q-81 0 -113 152q-46 7 -46 38q0 22 34 29v-4l10 4v25q0 115 65 115zM115 287h-9l-4 -37v-31h4q56 2 56 12q-26 39 -47 56zM185 459
q-3 -21 -13 -22q-27 11 -32 20q-75 42 -75 66q0 4 2 8q1 19 14 21q24 -8 90 -72q14 -5 14 -21z" />
    <glyph glyph-name="eacute" unicode="&#xe9;" 
d="M109 359q40 -1 135 -140l2 -17q0 -28 -137 -43l-3 -3v-4q21 -90 44 -90h12q32 0 97 69h6q20 0 31 -29q0 -24 -84 -83q-22 -13 -53 -19q-81 0 -113 152q-46 7 -46 38q0 22 34 29v-4l10 4v25q0 115 65 115zM115 287h-9l-4 -37v-31h4q56 2 56 12q-26 39 -47 56zM45 449
q2 24 21 31q110 61 137 61q21 0 22 -29l-5 -22q-105 -42 -112 -44q-7 -12 -43 -26q-17 2 -20 29z" />
    <glyph glyph-name="ecircumflex" unicode="&#xea;" 
d="M109 359q40 -1 135 -140l2 -17q0 -28 -137 -43l-3 -3v-4q21 -90 44 -90h12q32 0 97 69h6q20 0 31 -29q0 -24 -84 -83q-22 -13 -53 -19q-81 0 -113 152q-46 7 -46 38q0 22 34 29v-4l10 4v25q0 115 65 115zM115 287h-9l-4 -37v-31h4q56 2 56 12q-26 39 -47 56zM99 549l14 5
q26 0 109 -95l33 -35q0 -8 -21 -10l-23 -2q0 2 -62 58q-17 32 -28 32q-3 0 -6 -3q-77 -69 -83 -83l-24 10q-25 4 -25 15q0 5 25 12z" />
    <glyph glyph-name="edieresis" unicode="&#xeb;" 
d="M109 359q40 -1 135 -140l2 -17q0 -28 -137 -43l-3 -3v-4q21 -90 44 -90h12q32 0 97 69h6q20 0 31 -29q0 -24 -84 -83q-22 -13 -53 -19q-81 0 -113 152q-46 7 -46 38q0 22 34 29v-4l10 4v25q0 115 65 115zM115 287h-9l-4 -37v-31h4q56 2 56 12q-26 39 -47 56zM173 389
q-21 1 -28 34q1 25 43 25q23 -16 23 -29q0 -28 -38 -30zM60 395q-23 0 -24 30q1 23 36 31q28 -12 26 -33q-13 -28 -38 -28z" />
    <glyph glyph-name="igrave" unicode="&#xec;" horiz-adv-x="147" 
d="M69 381q16 0 27 -29l-9 -71v-47q0 -82 28 -215q-10 -19 -34 -19q-41 0 -54 240v35q0 106 42 106zM164 452q-4 -20 -18 -21q-35 11 -42 19q-101 42 -101 64q0 4 3 7q3 20 19 21q33 -8 120 -70q17 -5 19 -20z" />
    <glyph glyph-name="iacute" unicode="&#xed;" horiz-adv-x="147" 
d="M69 381q16 0 27 -29l-9 -71v-47q0 -82 28 -215q-10 -19 -34 -19q-41 0 -54 240v35q0 106 42 106zM-3 485q0 24 20 32q116 69 142 69q17 0 22 -32l-6 -25l-114 -48q-6 -15 -44 -30q-17 3 -20 34z" />
    <glyph glyph-name="icircumflex" unicode="&#xee;" horiz-adv-x="147" 
d="M69 381q16 0 27 -29l-9 -71v-47q0 -82 28 -215q-10 -19 -34 -19q-41 0 -54 240v35q0 106 42 106zM56 564l11 3q19 0 87 -101l26 -39q0 -9 -16 -10l-19 -2q0 3 -49 64q-15 34 -22 34q-3 0 -5 -4q-63 -75 -67 -89l-18 10q-20 5 -20 16q0 5 20 14z" />
    <glyph glyph-name="idieresis" unicode="&#xef;" horiz-adv-x="147" 
d="M69 381q16 0 27 -29l-9 -71v-47q0 -82 28 -215q-10 -19 -34 -19q-41 0 -54 240v35q0 106 42 106zM122 445q-21 1 -28 34q1 25 43 25q23 -16 23 -29q0 -28 -38 -30zM9 451q-23 0 -24 30q1 23 36 31q28 -12 26 -33q-13 -28 -38 -28z" />
    <glyph glyph-name="eth" unicode="&#xf0;" horiz-adv-x="414" 
d="M210 346l49 -4q-6 20 -10 30l-44 57q0 18 30 27q12 0 34 -16q37 -43 57 -103l65 -5h6q8 -20 8 -34q0 -31 -40 -31q-11 0 -25 2q2 -30 2 -48v-35q-20 -177 -133 -177l-52 5q-122 62 -122 147v6q0 68 102 80q71 0 132 -63h10v32q0 28 -5 61q-93 0 -93 34q5 35 29 35z
M251 86v4q-36 107 -114 107q-40 -1 -40 -30v-7q33 -101 102 -101h6q29 0 46 27z" />
    <glyph glyph-name="ntilde" unicode="&#xf1;" horiz-adv-x="277" 
d="M149 337q85 -7 85 -83l2 -13l-2 -156q0 -27 31 -73v-2q-8 -29 -29 -29q-62 26 -62 110v13l-3 2l3 4v2l3 138q0 29 -25 29h-12q-50 -20 -50 -219q0 -69 -35 -69q-27 0 -28 34v100q0 194 34 194l10 3l21 -3q27 18 57 18zM337 433q-1 -7 -9.5 -7t-38.5 22q-11 59 -63 89
l-9 1q-13 0 -49 -105q-31 -41 -73 -41h-2q-71 5 -116 104l-4 30q6 34 24 34q14 0 35 -22l-8 -7v-12q-1 -42 64 -82h10h1q27 0 54 96q28 49 68 49h2q56 -3 101 -86q3 -39 13 -63z" />
    <glyph glyph-name="ograve" unicode="&#xf2;" horiz-adv-x="320" 
d="M179 377q74 0 112 -110l4 -21q0 -107 -100 -219q-40 -37 -81 -37q-60 0 -85 69q-9 32 -9 56v12q0 158 115 240q20 10 44 10zM79 117q0 -68 35 -68q73 0 121 187v19q-17 62 -63 62q-18 0 -18 -25q0 -17 -40 -27q-35 -59 -35 -148zM276 445q-4 -28 -25 -30q-48 13 -59 27
q-141 59 -141 92q0 6 4 11q3 28 26 30q46 -13 169 -100q24 -7 26 -30z" />
    <glyph glyph-name="oacute" unicode="&#xf3;" horiz-adv-x="320" 
d="M179 377q74 0 112 -110l4 -21q0 -107 -100 -219q-40 -37 -81 -37q-60 0 -85 69q-9 32 -9 56v12q0 158 115 240q20 10 44 10zM79 117q0 -68 35 -68q73 0 121 187v19q-17 62 -63 62q-18 0 -18 -25q0 -17 -40 -27q-35 -59 -35 -148zM9 502q2 29 30 38q163 78 201 78h3
q25 -1 28 -37l-7 -28q-136 -48 -163 -55q-11 -16 -63 -33q-24 2 -29 37z" />
    <glyph glyph-name="ocircumflex" unicode="&#xf4;" horiz-adv-x="320" 
d="M179 377q74 0 112 -110l4 -21q0 -107 -100 -219q-40 -37 -81 -37q-60 0 -85 69q-9 32 -9 56v12q0 158 115 240q20 10 44 10zM79 117q0 -68 35 -68q73 0 121 187v19q-17 62 -63 62q-18 0 -18 -25q0 -17 -40 -27q-35 -59 -35 -148zM139 627l16 7q30 0 126 -144l38 -54
q0 -12 -24 -15l-26 -2q0 3 -72 88q-20 49 -33 49q-4 0 -7 -5q-89 -105 -96 -126l-27 15q-29 6 -29 22q0 8 29 19z" />
    <glyph glyph-name="otilde" unicode="&#xf5;" horiz-adv-x="320" 
d="M179 377q74 0 112 -110l4 -21q0 -107 -100 -219q-40 -37 -81 -37q-60 0 -85 69q-9 32 -9 56v12q0 158 115 240q20 10 44 10zM79 117q0 -68 35 -68q73 0 121 187v19q-17 62 -63 62q-18 0 -18 -25q0 -17 -40 -27q-35 -59 -35 -148zM372 468q-1 -6 -9.5 -6t-37.5 19
q-10 52 -62 79l-9 1q-14 0 -48 -93q-30 -36 -72 -36q-71 0 -116 92l-4 26q6 31 23 31q14 0 35 -20l-8 -6v-11q-1 -37 63 -73h10h1q25 0 53 85q26 44 67 44h2q56 -3 99 -76q3 -35 13 -56z" />
    <glyph glyph-name="odieresis" unicode="&#xf6;" horiz-adv-x="320" 
d="M179 377q74 0 112 -110l4 -21q0 -107 -100 -219q-40 -37 -81 -37q-60 0 -85 69q-9 32 -9 56v12q0 158 115 240q20 10 44 10zM79 117q0 -68 35 -68q73 0 121 187v19q-17 62 -63 62q-18 0 -18 -25q0 -17 -40 -27q-35 -59 -35 -148zM211 445q-21 1 -28 34q1 25 43 25
q23 -16 23 -29q0 -28 -38 -30zM98 451q-23 0 -24 30q1 23 36 31q28 -12 26 -33q-13 -28 -38 -28z" />
    <glyph glyph-name="divide" unicode="&#xf7;" horiz-adv-x="304" 
d="M137 315q27 0 32 -35q0 -20 -32 -31q-25 0 -28 41q13 25 28 25zM141 109q31 -12 31 -35.5t-27 -27.5q-25 0 -35 34q11 29 31 29zM82 219l182 12q24 0 28 -31q0 -31 -93 -31q-70 -10 -123 -10q-65 8 -65 37q0 21 28 31l37 -8h6z" />
    <glyph glyph-name="oslash" unicode="&#xf8;" horiz-adv-x="320" 
d="M286 501q29 -8 29 -29q-7 -20 -61 -133q22 -26 37 -72l4 -21q0 -107 -100 -219q-40 -37 -81 -37q-16 0 -25 4q-25 -56 -40 -97l-22 -6q-28 4 -28 29q0 15 43 110q-6 9 -14 35t-8 50v12q0 158 115 240q20 10 38 10t32 -3q33 66 50 102q9 25 31 25zM112 49h2q73 0 121 187
v19l-9 25zM79 117v-7q32 72 98 207h-5q-18 0 -18 -25q0 -17 -40 -27q-35 -59 -35 -148z" />
    <glyph glyph-name="ugrave" unicode="&#xf9;" horiz-adv-x="327" 
d="M59 301l18 10q24 0 35 -29q-16 -74 -16 -152q0 -39 23 -85h6q29 0 69 229q14 12 27 12q31 0 31 -110q13 -121 29 -121l15 6q29 -11 29 -31q-18 -38 -50 -38q-36 0 -69 72q-40 -84 -81 -84q-61 0 -85 127l-3 32v10q0 80 22 152zM253 406q-4 -28 -23 -30q-43 13 -52 27
q-126 58 -126 91q0 6 4 11q3 28 23 30q39 -12 151 -100q22 -7 23 -29z" />
    <glyph glyph-name="uacute" unicode="&#xfa;" horiz-adv-x="327" 
d="M59 301l18 10q24 0 35 -29q-16 -74 -16 -152q0 -39 23 -85h6q29 0 69 229q14 12 27 12q31 0 31 -110q13 -121 29 -121l15 6q29 -11 29 -31q-18 -38 -50 -38q-36 0 -69 72q-40 -84 -81 -84q-61 0 -85 127l-3 32v10q0 80 22 152zM85 404q1 22 20 29q109 61 134 61
q18 0 20 -29l-5 -22q-98 -39 -108 -42q-7 -12 -42 -26q-16 1 -19 29z" />
    <glyph glyph-name="ucircumflex" unicode="&#xfb;" horiz-adv-x="327" 
d="M59 301l18 10q24 0 35 -29q-16 -74 -16 -152q0 -39 23 -85h6q29 0 69 229q14 12 27 12q31 0 31 -110q13 -121 29 -121l15 6q29 -11 29 -31q-18 -38 -50 -38q-36 0 -69 72q-40 -84 -81 -84q-61 0 -85 127l-3 32v10q0 80 22 152zM150 473l13 4q23 0 98 -84l29 -31
q0 -8 -18 -9l-21 -1q0 1 -56 51q-16 29 -26 29q-3 0 -38.5 -33t-41.5 -44l-21 9q-22 4 -22 13q0 5 22 11z" />
    <glyph glyph-name="udieresis" unicode="&#xfc;" horiz-adv-x="327" 
d="M59 301l18 10q24 0 35 -29q-16 -74 -16 -152q0 -39 23 -85h6q29 0 69 229q14 12 27 12q31 0 31 -110q13 -121 29 -121l15 6q29 -11 29 -31q-18 -38 -50 -38q-36 0 -69 72q-40 -84 -81 -84q-61 0 -85 127l-3 32v10q0 80 22 152zM214 359q-21 1 -28 34q1 25 43 25
q23 -16 23 -29q0 -28 -38 -30zM101 365q-23 0 -24 30q1 23 36 31q28 -12 26 -33q-13 -28 -38 -28z" />
    <glyph glyph-name="yacute" unicode="&#xfd;" horiz-adv-x="265" 
d="M51 300q35 0 48 -154q17 -71 25 -71h6q25 63 25 125l-6 69q11 27 31 27q37 0 37 -131q22 -136 22 -253v-47q0 -215 -122 -290l-22 -4q-57 0 -106 106l-9 60v3q0 66 37 66l25 -16l-3 -63q0 -46 47 -93h13q55 0 81 210l2 58q-1 101 -8 129q-40 -35 -63 -35q-51 0 -91 273
l-3 2q0 23 34 29zM52 432q2 20 19 27q102 56 129 56q18 0 20 -27l-5 -20q-92 -35 -104 -39q-6 -14 -40 -24q-14 1 -19 27z" />
    <glyph glyph-name="thorn" unicode="&#xfe;" horiz-adv-x="262" 
d="M116 385q105 0 125 -134q0 -116 -110 -169q-12 -6 -34 -6h-6l-22 3v-3l2 -51q-7 -31 -31 -31q-29 8 -29 28v433q11 32 22.5 32t22.5 -26v-91q28 15 60 15zM66 279l-4 -32l4 -106l28 -6q68 0 87 97v15q-7 79 -56 79h-15q-44 0 -44 -47z" />
    <glyph glyph-name="ydieresis" unicode="&#xff;" horiz-adv-x="265" 
d="M51 300q35 0 48 -154q17 -71 25 -71h6q25 63 25 125l-6 69q11 27 31 27q37 0 37 -131q22 -136 22 -253v-47q0 -215 -122 -290l-22 -4q-57 0 -106 106l-9 60v3q0 66 37 66l25 -16l-3 -63q0 -46 47 -93h13q55 0 81 210l2 58q-1 101 -8 129q-40 -35 -63 -35q-51 0 -91 273
l-3 2q0 23 34 29zM174 355q-21 1 -28 34q1 25 43 25q23 -16 23 -29q0 -28 -38 -30zM61 361q-23 0 -24 30q1 23 36 31q28 -12 26 -33q-13 -28 -38 -28z" />
    <glyph glyph-name="Amacron" unicode="&#x100;" horiz-adv-x="472" 
d="M227 594l25 8q34 0 34 -90l31 -231l4 -4l115 42q23 0 25 -35q0 -26 -127 -63l-4 -2v-4q0 -21 66 -219v-2q0 -19 -31 -32q-29 0 -38 69q-23 50 -56 165h-4q-131 -27 -131 -46q-72 -156 -109 -156q-21 0 -25 27q0 24 53 94l16 35h-25l-19 -4q-37 9 -37 38q15 35 44 35
l25 -10q56 0 56 41q51 120 112 344zM236 412l-59 -178q82 16 82 31q-15 147 -23 147zM160 709l181 12q25 0 29 -31q0 -31 -94 -31q-69 -10 -122 -10q-65 8 -65 37q0 20 27 32l38 -9h6z" />
    <glyph glyph-name="amacron" unicode="&#x101;" horiz-adv-x="292" 
d="M206 386q44 0 44 -35l-9 -19l-6 -183q0 -124 50 -154l2 -15q-3 -29 -27 -29h-6q-75 51 -75 156h-7q-40 -112 -97 -112q-53 15 -53 79q0 141 113 281q38 31 71 31zM85 114l-4 -28v-19h10q75 187 75 228h-4q-58 -65 -77 -181zM100 524l181 12q25 0 29 -31q0 -31 -94 -31
q-69 -10 -122 -10q-65 8 -65 37q0 20 27 32l38 -9h6z" />
    <glyph glyph-name="Abreve" unicode="&#x102;" horiz-adv-x="472" 
d="M227 594l25 8q34 0 34 -90l31 -231l4 -4l115 42q23 0 25 -35q0 -26 -127 -63l-4 -2v-4q0 -21 66 -219v-2q0 -19 -31 -32q-29 0 -38 69q-23 50 -56 165h-4q-131 -27 -131 -46q-72 -156 -109 -156q-21 0 -25 27q0 24 53 94l16 35h-25l-19 -4q-37 9 -37 38q15 35 44 35
l25 -10q56 0 56 41q51 120 112 344zM236 412l-59 -178q82 16 82 31q-15 147 -23 147zM221 700q66 0 76 91h36q-4 -79 -46 -101q-40 -19 -60 -19h-2.5h-3.5q-59 0 -71 42q-8 28 -8 45.5t3 28.5l37 -1v-51q0 -35 33 -35h6z" />
    <glyph glyph-name="abreve" unicode="&#x103;" horiz-adv-x="292" 
d="M206 386q44 0 44 -35l-9 -19l-6 -183q0 -124 50 -154l2 -15q-3 -29 -27 -29h-6q-75 51 -75 156h-7q-40 -112 -97 -112q-53 15 -53 79q0 141 113 281q38 31 71 31zM85 114l-4 -28v-19h10q75 187 75 228h-4q-58 -65 -77 -181zM132 455q66 0 76 91h36q-4 -79 -46 -101
q-40 -19 -60 -19h-2.5h-3.5q-59 0 -71 42q-8 28 -8 45.5t3 28.5l37 -1v-51q0 -35 33 -35h6z" />
    <glyph glyph-name="Aogonek" unicode="&#x104;" horiz-adv-x="472" 
d="M227 594l25 8q34 0 34 -90l31 -231l4 -4l115 42q23 0 25 -35q0 -26 -127 -63l-4 -2v-4q0 -21 66 -219v-2q0 -19 -31 -32h-1l-53 -63v-10q0 -5 21.5 -5t101.5 18q30 14 30 2q0 -7 -10 -23q-29 -45 -133 -67q-69 28 -69 78q0 63 80 110q-4 18 -5 29q-23 50 -56 165h-4
q-131 -27 -131 -46q-72 -156 -109 -156q-21 0 -25 27q0 24 53 94l16 35h-25l-19 -4q-37 9 -37 38q15 35 44 35l25 -10q56 0 56 41q51 120 112 344zM236 412l-59 -178q82 16 82 31q-15 147 -23 147z" />
    <glyph glyph-name="aogonek" unicode="&#x105;" horiz-adv-x="292" 
d="M206 386q44 0 44 -35l-9 -19l-6 -183q0 -124 50 -154l2 -15q-3 -29 -27 -29h-6l-10 8l-53 -65v-10q0 -5 21.5 -5t101.5 18q30 14 30 2q0 -7 -10 -23q-29 -45 -133 -67q-69 29 -69 78q0 62 77 109q-30 44 -30 111h-7q-40 -112 -97 -112q-53 15 -53 79q0 141 113 281
q38 31 71 31zM85 114l-4 -28v-19h10q75 187 75 228h-4q-58 -65 -77 -181z" />
    <glyph glyph-name="Cacute" unicode="&#x106;" horiz-adv-x="500" 
d="M146 519q68 0 79 -98q0 -81 -38 -102h-6q-29 2 -29 21l4 75v37l-6 7h-10q-32 0 -75 -178l-6 -75v-22q0 -104 93 -122h42q104 0 252 134h4q27 0 31 -34q-23 -60 -54 -60q-143 -102 -257 -102t-161 125l-9 71v13q0 155 87 285q28 25 59 25zM22 641q2 29 30 38
q163 78 201 78h3q25 -1 28 -37l-7 -28q-136 -48 -163 -55q-10 -17 -63 -33q-24 2 -29 37z" />
    <glyph glyph-name="cacute" unicode="&#x107;" 
d="M121 339l41 6q25 0 28 -31q0 -27 -65 -35q-41 -32 -41 -82v-33q20 -110 68 -110h10q28 0 84 53h6q20 0 32 -28q-14 -43 -90 -78q-14 -6 -35 -6q-103 0 -134 162v22q0 117 96 160zM17 456q2 29 30 38q163 78 201 78h3q25 -1 28 -37l-7 -28q-136 -48 -163 -55
q-11 -16 -63 -33q-24 2 -29 37z" />
    <glyph glyph-name="Ccircumflex" unicode="&#x108;" horiz-adv-x="500" 
d="M146 519q68 0 79 -98q0 -81 -38 -102h-6q-29 2 -29 21l4 75v37l-6 7h-10q-32 0 -75 -178l-6 -75v-22q0 -104 93 -122h42q104 0 252 134h4q27 0 31 -34q-23 -60 -54 -60q-143 -102 -257 -102t-161 125l-9 71v13q0 155 87 285q28 25 59 25zM175 782l16 7q30 0 126 -144
l38 -54q0 -12 -24 -15l-26 -2q0 2 -72 88q-20 49 -33 49q-4 0 -7 -5q-89 -105 -96 -126l-27 15q-29 6 -29 22q0 8 29 19z" />
    <glyph glyph-name="ccircumflex" unicode="&#x109;" 
d="M121 339l41 6q25 0 28 -31q0 -27 -65 -35q-41 -32 -41 -82v-33q20 -110 68 -110h10q28 0 84 53h6q20 0 32 -28q-14 -43 -90 -78q-14 -6 -35 -6q-103 0 -134 162v22q0 117 96 160zM136 752l16 7q30 0 126 -144l38 -54q0 -12 -24 -15l-26 -2q0 2 -72 88q-20 49 -33 49
q-4 0 -7 -5q-88 -105 -96 -126l-27 15q-29 6 -29 22q0 8 29 19z" />
    <glyph glyph-name="Cdotaccent" unicode="&#x10a;" horiz-adv-x="500" 
d="M146 519q68 0 79 -98q0 -81 -38 -102h-6q-29 2 -29 21l4 75v37l-6 7h-10q-32 0 -75 -178l-6 -75v-22q0 -104 93 -122h42q104 0 252 134h4q27 0 31 -34q-23 -60 -54 -60q-143 -102 -257 -102t-161 125l-9 71v13q0 155 87 285q28 25 59 25zM189 709q30 0 35 -48
q-9 -46 -49 -46q-30 0 -39 46q16 48 53 48z" />
    <glyph glyph-name="cdotaccent" unicode="&#x10b;" 
d="M121 339l41 6q25 0 28 -31q0 -27 -65 -35q-41 -32 -41 -82v-33q20 -110 68 -110h10q28 0 84 53h6q20 0 32 -28q-14 -43 -90 -78q-14 -6 -35 -6q-103 0 -134 162v22q0 117 96 160zM166 550q30 0 35 -48q-9 -46 -49 -46q-30 0 -39 46q17 48 53 48z" />
    <glyph glyph-name="Ccaron" unicode="&#x10c;" horiz-adv-x="500" 
d="M146 519q68 0 79 -98q0 -81 -38 -102h-6q-29 2 -29 21l4 75v37l-6 7h-10q-32 0 -75 -178l-6 -75v-22q0 -104 93 -122h42q104 0 252 134h4q27 0 31 -34q-23 -60 -54 -60q-143 -102 -257 -102t-161 125l-9 71v13q0 155 87 285q28 25 59 25zM211 604l-16 7l-115 132
q-32 11 -32 18q0 12 32 20l11 -2q25 -3 126 -123q10 6 51 53q68 89 93 89h2q27 -2 27 -14l-40 -48q-105 -132 -139 -132z" />
    <glyph glyph-name="ccaron" unicode="&#x10d;" 
d="M121 339l41 6q25 0 28 -31q0 -27 -65 -35q-41 -32 -41 -82v-33q20 -110 68 -110h10q28 0 84 53h6q20 0 32 -28q-14 -43 -90 -78q-14 -6 -35 -6q-103 0 -134 162v22q0 117 96 160zM151 387l-16 7l-115 132q-32 11 -32 18q0 12 32 20l11 -2q25 -3 126 -123q10 6 51 53
q68 89 93 89h2q27 -1 27 -14l-40 -48q-105 -132 -139 -132z" />
    <glyph glyph-name="Dcaron" unicode="&#x10e;" horiz-adv-x="447" 
d="M115 584q141 0 272 -150q40 -79 40 -153q0 -174 -177 -256q-57 -25 -123 -25h-25q-37 1 -37 31h-3q0 27 34 28h23v6h2q-62 263 -62 391h-3l-25 -16q-26 0 -31 35q0 55 62 96q25 13 53 13zM127 525h-8v-48q0 -164 62 -412h3q185 50 185 216q0 178 -207 238q-12 6 -35 6z
M217 697l-16 7l-115 132q-32 11 -32 18q0 12 32 20l11 -2q25 -3 126 -123q10 6 51 53q68 89 93 89h2q27 -1 27 -14l-40 -48q-105 -132 -139 -132z" />
    <glyph glyph-name="Emacron" unicode="&#x112;" horiz-adv-x="430" 
d="M319 577q18 0 25 -31q0 -18 -63 -50q-78 -68 -116 -234v-18q87 43 125 52q12 0 29 -21v-19q0 -11 -88 -44q-66 -36 -66 -41v-9q0 -56 72 -97l34 -6q33 0 98 41h12q21 -10 21 -29v-6q-62 -65 -137 -65q-107 0 -156 144l-63 -13q-46 7 -46 30t27 33l23 -4q52 15 52 22
q0 170 129 315q65 50 88 50zM183 714l181 12q25 0 29 -31q0 -31 -94 -31q-69 -10 -122 -10q-65 8 -65 37q0 20 27 32l38 -9h6z" />
    <glyph glyph-name="emacron" unicode="&#x113;" 
d="M109 359q40 -1 135 -140l2 -17q0 -28 -137 -43l-3 -3v-4q21 -90 44 -90h12q32 0 97 69h6q20 0 31 -29q0 -24 -84 -83q-22 -13 -53 -19q-81 0 -113 152q-46 7 -46 38q0 22 34 29v-4l10 4v25q0 115 65 115zM115 287h-9l-4 -37v-31h4q56 2 56 12q-26 39 -47 56zM68 502
l181 12q25 0 29 -31q0 -31 -94 -31q-69 -10 -122 -10q-65 8 -65 37q0 20 27 32l38 -9h6z" />
    <glyph glyph-name="Ebreve" unicode="&#x114;" horiz-adv-x="430" 
d="M319 577q18 0 25 -31q0 -18 -63 -50q-78 -68 -116 -234v-18q87 43 125 52q12 0 29 -21v-19q0 -11 -88 -44q-66 -36 -66 -41v-9q0 -56 72 -97l34 -6q33 0 98 41h12q21 -10 21 -29v-6q-62 -65 -137 -65q-107 0 -156 144l-63 -13q-46 7 -46 30t27 33l23 -4q52 15 52 22
q0 170 129 315q65 50 88 50zM200 700q66 0 76 91h36q-4 -79 -46 -101q-40 -19 -60 -19h-2.5h-3.5q-59 0 -71 42q-8 28 -8 45.5t3 28.5l37 -1v-51q0 -35 33 -35h6z" />
    <glyph glyph-name="ebreve" unicode="&#x115;" 
d="M109 359q40 -1 135 -140l2 -17q0 -28 -137 -43l-3 -3v-4q21 -90 44 -90h12q32 0 97 69h6q20 0 31 -29q0 -24 -84 -83q-22 -13 -53 -19q-81 0 -113 152q-46 7 -46 38q0 22 34 29v-4l10 4v25q0 115 65 115zM115 287h-9l-4 -37v-31h4q56 2 56 12q-26 39 -47 56zM122 470
q66 0 76 91h36q-4 -79 -46 -101q-40 -19 -60 -19h-2.5h-3.5q-59 0 -71 42q-8 28 -8 45.5t3 28.5l37 -1v-51q0 -35 33 -35h6z" />
    <glyph glyph-name="Edotaccent" unicode="&#x116;" horiz-adv-x="430" 
d="M319 577q18 0 25 -31q0 -18 -63 -50q-78 -68 -116 -234v-18q87 43 125 52q12 0 29 -21v-19q0 -11 -88 -44q-66 -36 -66 -41v-9q0 -56 72 -97l34 -6q33 0 98 41h12q21 -10 21 -29v-6q-62 -65 -137 -65q-107 0 -156 144l-63 -13q-46 7 -46 30t27 33l23 -4q52 15 52 22
q0 170 129 315q65 50 88 50zM272 694q30 0 35 -48q-9 -46 -49 -46q-30 0 -39 46q17 48 53 48z" />
    <glyph glyph-name="edotaccent" unicode="&#x117;" 
d="M109 359q40 -1 135 -140l2 -17q0 -28 -137 -43l-3 -3v-4q21 -90 44 -90h12q32 0 97 69h6q20 0 31 -29q0 -24 -84 -83q-22 -13 -53 -19q-81 0 -113 152q-46 7 -46 38q0 22 34 29v-4l10 4v25q0 115 65 115zM115 287h-9l-4 -37v-31h4q56 2 56 12q-26 39 -47 56zM166 550
q30 0 35 -48q-9 -46 -49 -46q-30 0 -39 46q17 48 53 48z" />
    <glyph glyph-name="Eogonek" unicode="&#x118;" horiz-adv-x="430" 
d="M319 577q18 0 25 -31q0 -18 -63 -50q-78 -68 -116 -234v-18q87 43 125 52q12 0 29 -21v-19q0 -11 -88 -44q-66 -36 -66 -41v-9q0 -56 72 -97l34 -6q33 0 98 41h12q21 -10 21 -29v-6q-27 -30 -58 -46l-64 -78v-10q0 -5 20.5 -5t101.5 19q17 8 24 8t7 -6.5t-10 -22.5
q-29 -44 -133 -68q-69 28 -69 79q0 36 25 65q-92 12 -137 144l-63 -13q-46 7 -46 30t27 33l23 -4q52 15 52 22q0 170 129 315q65 50 88 50z" />
    <glyph glyph-name="eogonek" unicode="&#x119;" 
d="M192 9l10 -3l-76 -92v-10q0 -5 21.5 -5t101.5 18q24 11 29 6t-9 -27q-29 -45 -133 -67q-69 29 -69 80.5t62 95.5q-57 24 -83 147q-46 7 -46 38q0 22 34 29v-4l10 4v25q0 115 65 115q40 -1 135 -140l2 -17q0 -28 -137 -43l-3 -3v-4q21 -90 44 -90h12q32 0 97 69h6
q20 0 31 -29q0 -24 -84 -83zM115 287h-9l-4 -37v-31h4q56 2 56 12q-26 39 -47 56z" />
    <glyph glyph-name="Ecaron" unicode="&#x11a;" horiz-adv-x="430" 
d="M319 577q18 0 25 -31q0 -18 -63 -50q-78 -68 -116 -234v-18q87 43 125 52q12 0 29 -21v-19q0 -11 -88 -44q-66 -36 -66 -41v-9q0 -56 72 -97l34 -6q33 0 98 41h12q21 -10 21 -29v-6q-62 -65 -137 -65q-107 0 -156 144l-63 -13q-46 7 -46 30t27 33l23 -4q52 15 52 22
q0 170 129 315q65 50 88 50zM209 697l-16 7l-115 132q-32 11 -32 18q0 12 32 20l11 -2q25 -3 126 -123q10 6 51 53q68 89 93 89h2q27 -1 27 -14l-40 -48q-105 -132 -139 -132z" />
    <glyph glyph-name="ecaron" unicode="&#x11b;" 
d="M109 359q40 -1 135 -140l2 -17q0 -28 -137 -43l-3 -3v-4q21 -90 44 -90h12q32 0 97 69h6q20 0 31 -29q0 -24 -84 -83q-22 -13 -53 -19q-81 0 -113 152q-46 7 -46 38q0 22 34 29v-4l10 4v25q0 115 65 115zM115 287h-9l-4 -37v-31h4q56 2 56 12q-26 39 -47 56zM151 387
l-16 7l-115 132q-32 11 -32 18q0 12 32 20l11 -2q25 -3 126 -123q10 6 51 53q68 89 93 89h2q27 -1 27 -14l-40 -48q-105 -132 -139 -132z" />
    <glyph glyph-name="Gcircumflex" unicode="&#x11c;" horiz-adv-x="480" 
d="M316 751q16 0 29 -31q0 -24 -73 -40q-92 -51 -142.5 -178t-50.5 -251q0 -199 128 -256l32 -6q107 0 152 187l4 41q0 80 -54 134h-6q-21 -24 -84 -169l-22 -15q-28 0 -32 34q95 225 129 225h6q122 -71 122 -209q0 -156 -128 -260q-21 -18 -85 -27q-121 0 -200 175
q-21 75 -21 137v15q0 214 137 404q89 90 159 90zM219 1062l16 7q30 0 126 -144l38 -54q0 -12 -24 -15l-26 -2q0 2 -72 88q-20 49 -33 49q-4 0 -7 -5q-89 -105 -96 -126l-27 15q-29 6 -29 22q0 8 29 19z" />
    <glyph glyph-name="gcircumflex" unicode="&#x11d;" horiz-adv-x="270" 
d="M180 384q46 0 46 -44q6 0 6 -15h4l-4 -29l4 -202l-6 -160q90 0 121 -132q0 -27 -37 -31q-17 0 -38 75q-20 29 -46 29h-4q-32 -213 -56 -213q-29 -53 -84 -53q-81 19 -81 81v6q0 94 134 204l31 19l4 108v25h-4q-34 -43 -65 -43h-6q-69 0 -79 106v22q0 128 94 222
q29 25 66 25zM80 150v-48q4 -33 15 -33h10q28 0 69 206v50q-60 0 -94 -175zM64 -306q4 -25 28 -25q48 0 69 171h-6q-91 -79 -91 -146zM98 667l16 7q30 0 126 -144l38 -54q0 -12 -24 -15l-26 -2q0 3 -72 88q-20 49 -33 49q-4 0 -7 -5q-88 -105 -96 -126l-27 15q-29 6 -29 22
q0 8 29 19z" />
    <glyph glyph-name="Gbreve" unicode="&#x11e;" horiz-adv-x="480" 
d="M316 751q16 0 29 -31q0 -24 -73 -40q-92 -51 -142.5 -178t-50.5 -251q0 -199 128 -256l32 -6q107 0 152 187l4 41q0 80 -54 134h-6q-21 -24 -84 -169l-22 -15q-28 0 -32 34q95 225 129 225h6q122 -71 122 -209q0 -156 -128 -260q-21 -18 -85 -27q-121 0 -200 175
q-21 75 -21 137v15q0 214 137 404q89 90 159 90zM220 830q66 0 76 91h36q-4 -79 -46 -101q-40 -19 -60 -19h-2.5h-3.5q-59 0 -71 42q-8 28 -8 45.5t3 28.5l37 -1v-51q0 -35 33 -35h6z" />
    <glyph glyph-name="gbreve" unicode="&#x11f;" horiz-adv-x="270" 
d="M180 384q46 0 46 -44q6 0 6 -15h4l-4 -29l4 -202l-6 -160q90 0 121 -132q0 -27 -37 -31q-17 0 -38 75q-20 29 -46 29h-4q-32 -213 -56 -213q-29 -53 -84 -53q-81 19 -81 81v6q0 94 134 204l31 19l4 108v25h-4q-34 -43 -65 -43h-6q-69 0 -79 106v22q0 128 94 222
q29 25 66 25zM80 150v-48q4 -33 15 -33h10q28 0 69 206v50q-60 0 -94 -175zM64 -306q4 -25 28 -25q48 0 69 171h-6q-91 -79 -91 -146zM147 502q66 0 76 91h36q-4 -79 -46 -101q-40 -19 -60 -19h-2.5h-3.5q-59 0 -71 42q-8 28 -8 45.5t3 28.5l37 -1v-51q0 -35 33 -35h6z" />
    <glyph glyph-name="Gdotaccent" unicode="&#x120;" horiz-adv-x="480" 
d="M316 751q16 0 29 -31q0 -24 -73 -40q-92 -51 -142.5 -178t-50.5 -251q0 -199 128 -256l32 -6q107 0 152 187l4 41q0 80 -54 134h-6q-21 -24 -84 -169l-22 -15q-28 0 -32 34q95 225 129 225h6q122 -71 122 -209q0 -156 -128 -260q-21 -18 -85 -27q-121 0 -200 175
q-21 75 -21 137v15q0 214 137 404q89 90 159 90zM249 860q31 0 35 -48q-9 -46 -49 -46q-30 0 -39 46q17 48 53 48z" />
    <glyph glyph-name="gdotaccent" unicode="&#x121;" horiz-adv-x="270" 
d="M180 384q46 0 46 -44q6 0 6 -15h4l-4 -29l4 -202l-6 -160q90 0 121 -132q0 -27 -37 -31q-17 0 -38 75q-20 29 -46 29h-4q-32 -213 -56 -213q-29 -53 -84 -53q-81 19 -81 81v6q0 94 134 204l31 19l4 108v25h-4q-34 -43 -65 -43h-6q-69 0 -79 106v22q0 128 94 222
q29 25 66 25zM80 150v-48q4 -33 15 -33h10q28 0 69 206v50q-60 0 -94 -175zM64 -306q4 -25 28 -25q48 0 69 171h-6q-91 -79 -91 -146zM144 550q30 0 35 -48q-9 -46 -49 -46q-30 0 -39 46q17 48 53 48z" />
    <glyph glyph-name="Gcommaaccent" unicode="&#x122;" horiz-adv-x="480" 
d="M316 751q16 0 29 -31q0 -24 -73 -40q-92 -51 -142.5 -178t-50.5 -251q0 -199 128 -256l32 -6q107 0 152 187l4 41q0 80 -54 134h-6q-21 -24 -84 -169l-22 -15q-28 0 -32 34q95 225 129 225h6q122 -71 122 -209q0 -156 -128 -260q-21 -18 -85 -27q-121 0 -200 175
q-21 75 -21 137v15q0 214 137 404q89 90 159 90zM227 -240q0 51 31 51q12 0 27 -6l15 -96q-54 -87 -83 -87q-19 0 -26 43l41 45q-5 29 -5 50z" />
    <glyph glyph-name="gcommaaccent" unicode="&#x123;" horiz-adv-x="270" 
d="M180 384q46 0 46 -44q6 0 6 -15h4l-4 -29l4 -202l-6 -160q90 0 121 -132q0 -27 -37 -31q-17 0 -38 75q-20 29 -46 29h-4q-32 -213 -56 -213q-29 -53 -84 -53q-81 19 -81 81v6q0 94 134 204l31 19l4 108v25h-4q-34 -43 -65 -43h-6q-69 0 -79 106v22q0 128 94 222
q29 25 66 25zM80 150v-48q4 -33 15 -33h10q28 0 69 206v50q-60 0 -94 -175zM64 -306q4 -25 28 -25q48 0 69 171h-6q-91 -79 -91 -146zM153 558q31 0 40 -75v-6q0 -34 -31.5 -34t-31.5 65q-7 0 -9 23q11 27 32 27z" />
    <glyph glyph-name="Hcircumflex" unicode="&#x124;" horiz-adv-x="422" 
d="M99 557q35 0 35 -122l6 -156h2l160 62q24 204 44 204l13 2q17 0 31 -27q-35 -172 -35 -298v-43q0 -92 44 -175q-10 -28 -32 -28q-48 0 -71 194v102h-6q-150 -53 -150 -68q0 -238 -44 -238h-4q-21 0 -27 35q15 109 15 169l-44 -23l-9 -2q-25 9 -25 31t78 69v2
q-3 172 -13 285q0 22 32 25zM215 873l16 7q30 0 126 -144l38 -54q0 -12 -24 -15l-26 -2q0 3 -72 88q-20 49 -33 49q-4 0 -7 -5q-89 -105 -96 -126l-27 15q-29 6 -29 22q0 8 29 19z" />
    <glyph glyph-name="hcircumflex" unicode="&#x125;" horiz-adv-x="292" 
d="M61 552q28 0 28 -68l12 -172h4l50 19q84 0 102 -172q7 -49 7 -144v-81q0 -38 -28 -38h-4q-27 4 -27 29v94q0 226 -44 250h-6q-30 0 -44 -92v-56q0 -150 -25 -150l-19 -2q-28 0 -28 83q3 88 12 144l-21 329q0 26 31 27zM146 794l16 7q30 0 126 -144l38 -54q0 -12 -24 -15
l-26 -2q0 2 -72 88q-20 49 -33 49q-4 0 -7 -5q-88 -105 -96 -126l-27 15q-29 6 -29 22q0 8 29 19z" />
    <glyph glyph-name="Hbar" unicode="&#x126;" horiz-adv-x="422" 
d="M75 419l-8 113q0 22 32 25q35 0 35 -122v-5h10l171 11q17 104 31 104l13 2q17 0 31 -27q-35 -172 -35 -298v-43q0 -92 44 -175q-10 -28 -32 -28q-48 0 -71 194v102h-6q-150 -53 -150 -68q0 -238 -44 -238h-4q-21 0 -27 35q15 109 15 169l-44 -23l-9 -2q-25 9 -25 31
t78 69v2q-2 100 -5 147q-3 6 -3 13t3 12zM136 370l4 -91h2l160 62q4 28 5 41q-26 -2 -47 -2q-70 -10 -123 -10h-1z" />
    <glyph glyph-name="hbar" unicode="&#x127;" horiz-adv-x="292" 
d="M91 446l136 10q25 0 29 -31q0 -31 -94 -31q-54 -7 -67 -8l6 -74h4l50 19q84 0 102 -172q7 -49 7 -144v-81q0 -38 -28 -38h-4q-27 4 -27 29v94q0 226 -44 250h-6q-30 0 -44 -92v-56q0 -150 -25 -150l-19 -2q-28 0 -28 83q3 88 12 144l-12 188q-64 7 -64 37q0 21 27 31
l33 -7l-5 80q0 26 31 27q28 0 28 -68z" />
    <glyph glyph-name="Itilde" unicode="&#x128;" horiz-adv-x="177" 
d="M66 554q24 0 31 -25l-6 -59v-19q25 -207 31 -322q11 -107 23 -107q0 -21 -35 -27q-50 0 -50 202l-28 260v9q0 88 34 88zM256 666q-1 -7 -9.5 -7t-38.5 22q-11 59 -63 89l-9 1q-13 0 -49 -105q-31 -41 -73 -41h-2q-71 5 -116 104l-4 30q6 34 24 34q14 0 35 -22l-8 -7v-12
q-1 -42 64 -82h10h1q27 0 54 96q28 49 68 49h2q56 -3 101 -86q3 -39 13 -63z" />
    <glyph glyph-name="itilde" unicode="&#x129;" horiz-adv-x="147" 
d="M69 381q16 0 27 -29l-9 -71v-47q0 -82 28 -215q-10 -19 -34 -19q-41 0 -54 240v35q0 106 42 106zM256 551q-1 -7 -9.5 -7t-37.5 22q-12 59 -64 89l-9 1q-11 0 -49 -105q-31 -41 -73 -41h-2q-71 5 -116 104l-4 30q7 34 24 34q14 0 35 -22l-7 -7v-12q-3 -42 63 -82h10h1
q27 0 54 96q28 49 68 49h2q57 -3 102 -86q2 -38 12 -63z" />
    <glyph glyph-name="imacron" unicode="&#x12b;" horiz-adv-x="147" 
d="M69 381q16 0 27 -29l-9 -71v-47q0 -82 28 -215q-10 -19 -34 -19q-41 0 -54 240v35q0 106 42 106zM5 625l181 12q25 0 29 -31q0 -31 -94 -31q-69 -10 -122 -10q-65 8 -65 37q0 20 27 32l38 -9h6z" />
    <glyph glyph-name="Ibreve" unicode="&#x12c;" horiz-adv-x="177" 
d="M66 554q24 0 31 -25l-6 -59v-19q25 -207 31 -322q11 -107 23 -107q0 -21 -35 -27q-50 0 -50 202l-28 260v9q0 88 34 88zM75 700q66 0 76 91h36q-4 -79 -46 -101q-40 -19 -60 -19h-2.5h-3.5q-59 0 -71 42q-8 28 -8 45.5t3 28.5l37 -1v-51q0 -35 33 -35h6z" />
    <glyph glyph-name="Iogonek" unicode="&#x12e;" horiz-adv-x="177" 
d="M66 554q24 0 31 -25l-6 -59v-19q25 -207 31 -322q11 -107 23 -107q0 -20 -31 -26l-63 -76v-10q0 -5 20.5 -5t102.5 19q30 14 30 2q0 -7 -10 -23q-29 -44 -133 -68q-69 29 -69 79q0 63 85 112h2q-19 47 -19 171l-28 260v9q0 88 34 88z" />
    <glyph glyph-name="iogonek" unicode="&#x12f;" horiz-adv-x="147" 
d="M114 24l7 -2l-76 -92v-10q0 -5 20.5 -5t101.5 19q17 8 24 8t7 -6.5t-10 -22.5q-29 -44 -133 -68q-69 29 -69 83t70 99q-20 56 -29 213v35q0 106 42 106q16 0 27 -29l-9 -71v-47q0 -80 27 -210zM31 521q38 -8 38 -34q-10 -28 -32 -28q-37 7 -37 37q10 25 31 25z" />
    <glyph glyph-name="Idotaccent" unicode="&#x130;" horiz-adv-x="177" 
d="M66 554q24 0 31 -25l-6 -59v-19q25 -207 31 -322q11 -107 23 -107q0 -21 -35 -27q-50 0 -50 202l-28 260v9q0 88 34 88zM97 860q31 0 35 -48q-9 -46 -49 -46q-30 0 -39 46q16 48 53 48z" />
    <glyph glyph-name="dotlessi" unicode="&#x131;" horiz-adv-x="147" 
d="M69 381q16 0 27 -29l-9 -71v-47q0 -82 28 -215q-10 -19 -34 -19q-41 0 -54 240v35q0 106 42 106z" />
    <glyph glyph-name="Jcircumflex" unicode="&#x134;" horiz-adv-x="410" 
d="M312 637h17q31 -6 31 -31q0 -7 -19 -29v-50q0 -72 34 -437q0 -140 -84 -140q-70 0 -206 196q-44 0 -56 31l-7 25q9 38 34 38q56 -23 163 -178q53 -53 72 -53h6q15 7 15 47v63l-31 375l-2 65q0 78 33 78zM184 1062l16 7q30 0 126 -144l38 -54q0 -12 -24 -15l-26 -2
q0 2 -72 88q-20 49 -33 49q-4 0 -7 -5q-88 -105 -96 -126l-27 15q-29 6 -29 22q0 8 29 19z" />
    <glyph glyph-name="jcircumflex" unicode="&#x135;" horiz-adv-x="147" 
d="M77 236q14 0 32 -27q-10 -27 -10 -73l25 -252v-29q0 -131 -63 -165l-21 -4q-69 0 -106 138l-7 53v3q0 35 32 35q27 0 27 -55.5t48 -110.5l8 -3q23 41 23 96v42l-25 250q0 102 37 102zM51 585l16 6q29 0 127 -144l37 -53q0 -14 -24 -15l-26 -3q0 3 -71 89q-22 49 -33 49
q-4 0 -7 -5q-89 -105 -96 -127l-28 15q-29 8 -29 23q0 7 29 19z" />
    <glyph glyph-name="Kcommaaccent" unicode="&#x136;" horiz-adv-x="530" 
d="M129 647q18 0 28 -25q-43 -114 -43 -297v-109h2q56 56 173 346q30 38 46 38h4q17 0 27 -19v-19q-28 -17 -137 -283l-82 -123v-2q113 -117 235 -117h38q37 0 50 7q27 -11 27 -32v-8q0 -25 -87 -25h-15q-143 0 -273 118h-6v-116q0 -34 -31 -34q-28 0 -28 34v119
q-37 28 -37 60q0 27 34 27v142q0 194 50 308q13 10 25 10zM229 -160q0 51 31 51q12 0 27 -6l15 -96q-54 -87 -83 -87q-19 0 -26 43l41 45q-5 29 -5 50z" />
    <glyph glyph-name="kcommaaccent" unicode="&#x137;" horiz-adv-x="380" 
d="M70 529h6q13 0 25 -22l-4 -68v-38l4 -175l3 -10h3q43 40 75 141l22 7q28 -4 28 -25q0 -65 -93 -175v-7q123 -143 162 -143h6l25 15h9q21 0 31 -28q0 -32 -71 -44q-71 0 -185 144h-9l3 -54v-52q-6 -31 -31 -31q-28 6 -28 31v6l-4 115q-11 0 -15 31l13 25l-6 225v44
q0 88 31 88zM171 -160q0 51 31 51q12 0 27 -6l15 -96q-54 -87 -83 -87q-19 0 -26 43l41 45q-5 29 -5 50z" />
    <glyph glyph-name="Lacute" unicode="&#x139;" 
d="M66 511q24 0 31 -75l4 -54q0 -61 -22 -318h6v-3l4 3h8l117 -9h8l50 15h7q16 -10 22 -28q0 -38 -85 -47l-102 10h-19l-48 -13q-27 10 -27 32l21 343v15l-6 100q0 25 31 29zM27 732q2 29 30 38q163 78 201 78h3q25 -1 28 -37l-7 -28q-136 -48 -163 -55q-11 -16 -63 -33
q-24 2 -29 37z" />
    <glyph glyph-name="lacute" unicode="&#x13a;" horiz-adv-x="167" 
d="M76 551q28 -10 28 -31l10 -381v-123q0 -34 -29 -34h-13q-18 12 -18 28v116l-9 396q0 25 31 29zM-35 676q2 29 30 38q163 78 201 78h3q25 -1 28 -37l-7 -28q-136 -48 -163 -55q-11 -16 -63 -33q-24 2 -29 37z" />
    <glyph glyph-name="Lcommaaccent" unicode="&#x13b;" 
d="M66 511q24 0 31 -75l4 -54q0 -61 -22 -318h6v-3l4 3h8l117 -9h8l50 15h7q16 -10 22 -28q0 -38 -85 -47l-102 10h-19l-48 -13q-27 10 -27 32l21 343v15l-6 100q0 25 31 29zM141 -160q0 51 31 51q12 0 27 -6l15 -96q-54 -87 -83 -87q-19 0 -26 43l41 45q-5 29 -5 50z" />
    <glyph glyph-name="lcommaaccent" unicode="&#x13c;" horiz-adv-x="167" 
d="M76 551q28 -10 28 -31l10 -381v-123q0 -34 -29 -34h-13q-18 12 -18 28v116l-9 396q0 25 31 29zM67 -160q0 51 31 51q12 0 27 -6l15 -96q-54 -87 -83 -87q-19 0 -26 43l41 45q-5 29 -5 50z" />
    <glyph glyph-name="Ldot" unicode="&#x13f;" 
d="M66 511q24 0 31 -75l4 -54q0 -61 -22 -318h6v-3l4 3h8l117 -9h8l50 15h7q16 -10 22 -28q0 -38 -85 -47l-102 10h-19l-48 -13q-27 10 -27 32l21 343v15l-6 100q0 25 31 29zM209 286q31 0 35 -46q-9 -46 -48 -46q-30 0 -39 46q16 46 52 46z" />
    <glyph glyph-name="ldot" unicode="&#x140;" horiz-adv-x="280" 
d="M76 551q28 -10 28 -31l10 -381v-123q0 -34 -29 -34h-13q-18 12 -18 28v116l-9 396q0 25 31 29zM223 331q31 0 35 -46q-9 -46 -48 -46q-30 0 -39 46q16 46 52 46z" />
    <glyph glyph-name="Lslash" unicode="&#x141;" 
d="M95 277l97 7q24 0 29 -32q0 -31 -94 -31q-12 -1 -36 -5l-12 -152h6v-3l4 3h8l117 -9h8l50 15h7q16 -10 22 -28q0 -38 -85 -47l-102 10h-19l-48 -13q-27 10 -27 32l11 187h-26q-65 8 -65 38q0 21 27 31l38 -9h6l24 1l6 95v15l-6 100q0 25 31 29q24 0 31 -75l4 -54
q0 -27 -6 -105z" />
    <glyph glyph-name="lslash" unicode="&#x142;" horiz-adv-x="167" 
d="M110 281l86 6q25 0 29 -31q0 -31 -94 -31q-12 -2 -20 -4l3 -82v-123q0 -34 -29 -34h-13q-18 12 -18 28v116l-3 90q-15 -1 -42 -1q-65 8 -65 37q0 20 27 32l38 -9h6l35 2l-5 245q0 25 31 29q28 -10 28 -31z" />
    <glyph glyph-name="Nacute" unicode="&#x143;" horiz-adv-x="432" 
d="M95 552q47 -15 179 -365l15 -18v56q0 223 110 315q25 0 31 -34q-75 -112 -75 -181q-5 0 -6 -63v-53q0 -69 15 -197q-9 -25 -32 -25t-65 94q-51 81 -112 246h-4v-6l6 -127q0 -197 -75 -254l-25 -3q-31 0 -52 57q7 31 31 31h6l19 -16h3q35 47 35 178.5t-38 333.5
q0 27 34 31zM106 673q2 29 30 38q163 78 201 78h3q25 -1 28 -37l-7 -28q-136 -48 -163 -55q-10 -17 -63 -33q-24 2 -29 37z" />
    <glyph glyph-name="nacute" unicode="&#x144;" horiz-adv-x="277" 
d="M149 337q85 -7 85 -83l2 -13l-2 -156q0 -27 31 -73v-2q-8 -29 -29 -29q-62 26 -62 110v13l-3 2l3 4v2l3 138q0 29 -25 29h-12q-50 -20 -50 -219q0 -69 -35 -69q-27 0 -28 34v100q0 194 34 194l10 3l21 -3q27 18 57 18zM9 541q2 29 30 38q163 78 201 78h3q25 -1 28 -37
l-7 -28q-136 -48 -163 -55q-11 -17 -63 -33q-24 2 -29 37z" />
    <glyph glyph-name="Ncommaaccent" unicode="&#x145;" horiz-adv-x="432" 
d="M95 552q47 -15 179 -365l15 -18v56q0 223 110 315q25 0 31 -34q-75 -112 -75 -181q-5 0 -6 -63v-53q0 -69 15 -197q-9 -25 -32 -25t-65 94q-51 81 -112 246h-4v-6l6 -127q0 -197 -75 -254l-25 -3q-31 0 -52 57q7 31 31 31h6l19 -16h3q35 47 35 178.5t-38 333.5
q0 27 34 31zM197 -160q0 51 31 51q12 0 27 -6l15 -96q-54 -87 -83 -87q-19 0 -26 43l41 45q-5 29 -5 50z" />
    <glyph glyph-name="ncommaaccent" unicode="&#x146;" horiz-adv-x="277" 
d="M149 337q85 -7 85 -83l2 -13l-2 -156q0 -27 31 -73v-2q-8 -29 -29 -29q-62 26 -62 110v13l-3 2l3 4v2l3 138q0 29 -25 29h-12q-50 -20 -50 -219q0 -69 -35 -69q-27 0 -28 34v100q0 194 34 194l10 3l21 -3q27 18 57 18zM122 -160q0 51 31 51q12 0 27 -6l15 -96
q-54 -87 -83 -87q-19 0 -26 43l41 45q-5 29 -5 50z" />
    <glyph glyph-name="Ncaron" unicode="&#x147;" horiz-adv-x="432" 
d="M95 552q47 -15 179 -365l15 -18v56q0 223 110 315q25 0 31 -34q-75 -112 -75 -181q-5 0 -6 -63v-53q0 -69 15 -197q-9 -25 -32 -25t-65 94q-51 81 -112 246h-4v-6l6 -127q0 -197 -75 -254l-25 -3q-31 0 -52 57q7 31 31 31h6l19 -16h3q35 47 35 178.5t-38 333.5
q0 27 34 31zM210 697l-16 7l-115 132q-32 11 -32 18q0 12 32 20l11 -2q26 -3 126 -123q10 6 51 53q68 89 93 89h2q27 -1 27 -14l-40 -48q-105 -132 -139 -132z" />
    <glyph glyph-name="ncaron" unicode="&#x148;" horiz-adv-x="277" 
d="M149 337q85 -7 85 -83l2 -13l-2 -156q0 -27 31 -73v-2q-8 -29 -29 -29q-62 26 -62 110v13l-3 2l3 4v2l3 138q0 29 -25 29h-12q-50 -20 -50 -219q0 -69 -35 -69q-27 0 -28 34v100q0 194 34 194l10 3l21 -3q27 18 57 18zM132 387l-16 7l-115 132q-32 11 -32 18q0 12 32 20
l11 -2q26 -3 126 -123q10 6 51 53q68 89 93 89h2q27 -1 27 -14l-40 -48q-105 -132 -139 -132z" />
    <glyph glyph-name="napostrophe" unicode="&#x149;" horiz-adv-x="277" 
d="M149 337q85 -7 85 -83l2 -13l-2 -156q0 -27 31 -73v-2q-8 -29 -29 -29q-62 26 -62 110v13l-3 2l3 4v2l3 138q0 29 -25 29h-12q-50 -20 -50 -219q0 -69 -35 -69q-27 0 -28 34v100q0 194 34 194l10 3l21 -3q27 18 57 18zM64 571q0 51 31 51q12 0 27 -6l15 -96
q-54 -87 -83 -87q-19 0 -26 43l41 45q-5 29 -5 50z" />
    <glyph glyph-name="Omacron" unicode="&#x14c;" horiz-adv-x="440" 
d="M146 541l25 4h10q20 0 44 -25q44 0 125 -110q69 -130 69 -231q0 -138 -100 -184l-63 -13q-150 0 -216 225q-15 59 -15 115v10q0 169 121 209zM137 445l-22 9q-31 -37 -31 -107v-27q0 -185 125 -269l28 -6h38q52 0 75 65l6 44v31q0 150 -119 269l-41 12h-2q-20 0 -57 -21z
M125 681l181 12q25 0 29 -31q0 -31 -94 -31q-69 -10 -122 -10q-65 8 -65 37q0 20 27 32l38 -9h6z" />
    <glyph glyph-name="omacron" unicode="&#x14d;" horiz-adv-x="320" 
d="M179 377q74 0 112 -110l4 -21q0 -107 -100 -219q-40 -37 -81 -37q-60 0 -85 69q-9 32 -9 56v12q0 158 115 240q20 10 44 10zM79 117q0 -68 35 -68q73 0 121 187v19q-17 62 -63 62q-18 0 -18 -25q0 -17 -40 -27q-35 -59 -35 -148zM102 496l181 12q25 0 29 -31
q0 -31 -94 -31q-69 -10 -122 -10q-65 8 -65 37q0 20 27 32l38 -9h6z" />
    <glyph glyph-name="Obreve" unicode="&#x14e;" horiz-adv-x="440" 
d="M146 541l25 4h10q20 0 44 -25q44 0 125 -110q69 -130 69 -231q0 -138 -100 -184l-63 -13q-150 0 -216 225q-15 59 -15 115v10q0 169 121 209zM137 445l-22 9q-31 -37 -31 -107v-27q0 -185 125 -269l28 -6h38q52 0 75 65l6 44v31q0 150 -119 269l-41 12h-2q-20 0 -57 -21z
M205 700q66 0 76 91h36q-4 -79 -46 -101q-40 -19 -60 -19h-2.5h-3.5q-59 0 -71 42q-8 28 -8 45.5t3 28.5l37 -1v-51q0 -35 33 -35h6z" />
    <glyph glyph-name="obreve" unicode="&#x14f;" horiz-adv-x="320" 
d="M179 377q74 0 112 -110l4 -21q0 -107 -100 -219q-40 -37 -81 -37q-60 0 -85 69q-9 32 -9 56v12q0 158 115 240q20 10 44 10zM79 117q0 -68 35 -68q73 0 121 187v19q-17 62 -63 62q-18 0 -18 -25q0 -17 -40 -27q-35 -59 -35 -148zM146 476q66 0 76 91h36q-4 -79 -46 -101
q-40 -19 -60 -19h-2.5h-3.5q-59 0 -71 42q-8 28 -8 45.5t3 28.5l37 -1v-51q0 -35 33 -35h6z" />
    <glyph glyph-name="Ohungarumlaut" unicode="&#x150;" horiz-adv-x="440" 
d="M146 541l25 4h10q20 0 44 -25q44 0 125 -110q69 -130 69 -231q0 -138 -100 -184l-63 -13q-150 0 -216 225q-15 59 -15 115v10q0 169 121 209zM137 445l-22 9q-31 -37 -31 -107v-27q0 -185 125 -269l28 -6h38q52 0 75 65l6 44v31q0 150 -119 269l-41 12h-2q-20 0 -57 -21z
M70 633q-3 5 -3 12.5t9 16.5q82 109 103 117q4 2 11.5 2t16.5 -13l5 -16q-73 -78 -88 -93q0 -12 -25 -37q-4 -1 -11 -1t-18 12zM181 611q-3 5 -3 12t8 16q83 108 104 118q4 2 12 2t17 -12l3 -18q-1 1 -2 1q-16 0 -85 -93q0 -14 -25 -36q-4 -2 -11 -2t-18 12z" />
    <glyph glyph-name="ohungarumlaut" unicode="&#x151;" horiz-adv-x="320" 
d="M179 377q74 0 112 -110l4 -21q0 -107 -100 -219q-40 -37 -81 -37q-60 0 -85 69q-9 32 -9 56v12q0 158 115 240q20 10 44 10zM79 117q0 -68 35 -68q73 0 121 187v19q-17 62 -63 62q-18 0 -18 -25q0 -17 -40 -27q-35 -59 -35 -148zM39 506q-3 5 -3 12.5t9 16.5
q82 109 103 117q4 2 11.5 2t16.5 -13l5 -16q-73 -78 -88 -93q0 -12 -25 -37q-4 -1 -11 -1t-18 12zM150 484q-3 5 -3 12t8 16q83 108 104 118q4 2 12 2t17 -12l3 -18q-1 1 -2 1q-16 0 -85 -93q0 -14 -25 -36q-4 -2 -11 -2t-18 12z" />
    <glyph glyph-name="OE" unicode="&#x152;" horiz-adv-x="757" 
d="M641 586q19 0 25 -31q0 -18 -62 -50q-80 -69 -117 -234v-19q84 43 125 53q12 0 29 -21v-19q0 -11 -87 -44q-67 -36 -67 -41v-9q0 -57 73 -97l34 -7q32 0 97 42h13q21 -11 21 -29v-6q-62 -65 -138 -65q-106 0 -156 143l-14 -2q-11 -114 -98 -155l-63 -13q-150 0 -216 225
q-15 59 -15 115v10q0 169 121 209l25 4h10q20 0 44 -25q44 0 125 -110q57 -110 66 -196q9 3 9 7q0 169 129 315q65 50 87 50zM137 445l-22 9q-31 -37 -31 -107v-27q0 -185 125 -269l28 -6h38q52 0 75 65l4 32q-32 9 -32 29.5t28 30.5l6 -1q-6 140 -119 253l-41 12h-2
q-20 0 -57 -21z" />
    <glyph glyph-name="oe" unicode="&#x153;" horiz-adv-x="535" 
d="M337 355q43 -2 135 -140l3 -16q0 -29 -138 -44l-2 -3v-3q21 -90 44 -90h12q31 0 96 68h7q21 0 31 -28q0 -25 -84 -84q-21 -13 -54 -19q-81 0 -112 153q-27 -63 -80 -122q-40 -37 -81 -37q-60 0 -85 69q-9 32 -9 56v12q0 158 115 240q20 10 44 10q62 0 100 -77
q13 55 58 55zM79 117q0 -68 35 -68q73 0 121 187v19q-17 62 -63 62q-18 0 -18 -25q0 -17 -40 -27q-35 -59 -35 -148zM344 284h-9l-4 -38v-31h4q56 2 56 12q-25 38 -47 57z" />
    <glyph glyph-name="Racute" unicode="&#x154;" horiz-adv-x="520" 
d="M190 569h4q121 -22 121 -117v-18q0 -105 -134 -209v-4q217 -194 300 -194q15 -11 15 -27q0 -23 -34 -29q-83 0 -310 200l-43 23h-3q28 -112 28 -173q0 -26 -32 -37q-46 0 -58 225q-32 104 -32 166v9q0 91 40 91l19 -10h6q48 104 113 104zM109 302l-3 -37q93 0 150 154v37
q0 44 -60 53h-6q-63 0 -81 -207zM47 662q2 29 30 38q163 78 201 78h3q25 -1 28 -37l-7 -28q-136 -48 -163 -55q-11 -16 -63 -33q-24 2 -29 37z" />
    <glyph glyph-name="racute" unicode="&#x155;" horiz-adv-x="365" 
d="M151 394q63 0 75 -88v-9q0 -97 -100 -178q58 -57 203 -57q22 -7 22 -31q0 -27 -35 -27q-98 0 -206 50v-29q0 -103 -44 -103q-31 0 -31 119v78l-3 28l7 32l-7 96v4q0 27 28 37q39 78 91 78zM101 175q29 0 65 104v43l-12 13h-9q-44 -30 -44 -160zM51 541q2 29 30 38
q163 78 201 78h3q25 -1 28 -37l-7 -28q-136 -48 -163 -55q-11 -17 -63 -33q-24 2 -29 37z" />
    <glyph glyph-name="Rcommaaccent" unicode="&#x156;" horiz-adv-x="520" 
d="M190 569h4q121 -22 121 -117v-18q0 -105 -134 -209v-4q217 -194 300 -194q15 -11 15 -27q0 -23 -34 -29q-83 0 -310 200l-43 23h-3q28 -112 28 -173q0 -26 -32 -37q-46 0 -58 225q-32 104 -32 166v9q0 91 40 91l19 -10h6q48 104 113 104zM109 302l-3 -37q93 0 150 154v37
q0 44 -60 53h-6q-63 0 -81 -207zM241 -160q0 51 31 51q12 0 27 -6l15 -96q-54 -87 -83 -87q-19 0 -26 43l41 45q-5 29 -5 50z" />
    <glyph glyph-name="rcommaaccent" unicode="&#x157;" horiz-adv-x="365" 
d="M151 394q63 0 75 -88v-9q0 -97 -100 -178q58 -57 203 -57q22 -7 22 -31q0 -27 -35 -27q-98 0 -206 50v-29q0 -103 -44 -103q-31 0 -31 119v78l-3 28l7 32l-7 96v4q0 27 28 37q39 78 91 78zM101 175q29 0 65 104v43l-12 13h-9q-44 -30 -44 -160zM163 -160q0 51 31 51
q12 0 27 -6l15 -96q-54 -87 -83 -87q-19 0 -26 43l41 45q-5 29 -5 50z" />
    <glyph glyph-name="Rcaron" unicode="&#x158;" horiz-adv-x="520" 
d="M190 569h4q121 -22 121 -117v-18q0 -105 -134 -209v-4q217 -194 300 -194q15 -11 15 -27q0 -23 -34 -29q-83 0 -310 200l-43 23h-3q28 -112 28 -173q0 -26 -32 -37q-46 0 -58 225q-32 104 -32 166v9q0 91 40 91l19 -10h6q48 104 113 104zM109 302l-3 -37q93 0 150 154v37
q0 44 -60 53h-6q-63 0 -81 -207zM254 697l-16 7l-115 132q-32 11 -32 18q0 12 32 20l11 -2q26 -3 126 -123q10 6 51 53q68 89 93 89h2q27 -1 27 -14l-40 -48q-105 -132 -139 -132z" />
    <glyph glyph-name="rcaron" unicode="&#x159;" horiz-adv-x="365" 
d="M151 394q63 0 75 -88v-9q0 -97 -100 -178q58 -57 203 -57q22 -7 22 -31q0 -27 -35 -27q-98 0 -206 50v-29q0 -103 -44 -103q-31 0 -31 119v78l-3 28l7 32l-7 96v4q0 27 28 37q39 78 91 78zM101 175q29 0 65 104v43l-12 13h-9q-44 -30 -44 -160zM160 463l-16 7l-115 132
q-32 11 -32 18q0 12 32 20l11 -2q26 -3 126 -123q10 6 51 53q68 89 93 89h2q27 -1 27 -14l-40 -48q-105 -132 -139 -132z" />
    <glyph glyph-name="Sacute" unicode="&#x15a;" horiz-adv-x="455" 
d="M322 592h10q28 0 32 -33q0 -29 -79 -29q-127 -48 -171 -140l-7 -29v-6q0 -44 59 -44l110 6q111 0 150 -108l6 -35q0 -104 -168 -190q-50 -14 -88 -19q-102 0 -144 115q-12 39 -12 79q0 12 19 25h12q31 0 31 -79q26 -78 82 -78h27q81 0 160 94q21 30 21 65q0 49 -77 69h-4
l-131 -3q-109 13 -109 90l-4 13q0 103 154 200q67 37 121 37zM91 690q2 29 30 38q163 78 201 78h3q25 -1 28 -37l-7 -28q-136 -48 -163 -55q-11 -16 -63 -33q-24 2 -29 37z" />
    <glyph glyph-name="sacute" unicode="&#x15b;" horiz-adv-x="307" 
d="M220 405q27 0 37 -91q-10 -25 -33 -25q-16 3 -32 37l-18 6q-47 0 -85 -62v-9q0 -15 141 -50q59 -35 59 -85q0 -82 -132 -140l-37 -6q-84 9 -84 84v3q0 24 31 28q24 0 32 -50l8 -6h17q57 0 106 78v13q0 30 -131 56q-69 28 -69 78q0 65 109 122q48 6 81 19zM24 541
q2 29 30 38q163 78 201 78h3q25 -1 28 -37l-7 -28q-136 -48 -163 -55q-10 -17 -63 -33q-24 2 -29 37z" />
    <glyph glyph-name="Scircumflex" unicode="&#x15c;" horiz-adv-x="455" 
d="M322 592h10q28 0 32 -33q0 -29 -79 -29q-127 -48 -171 -140l-7 -29v-6q0 -44 59 -44l110 6q111 0 150 -108l6 -35q0 -104 -168 -190q-50 -14 -88 -19q-102 0 -144 115q-12 39 -12 79q0 12 19 25h12q31 0 31 -79q26 -78 82 -78h27q81 0 160 94q21 30 21 65q0 49 -77 69h-4
l-131 -3q-109 13 -109 90l-4 13q0 103 154 200q67 37 121 37zM211 899l16 7q30 0 126 -144l38 -54q0 -12 -24 -15l-26 -2q0 3 -72 88q-20 49 -33 49q-4 0 -7 -5q-89 -105 -96 -126l-27 15q-29 6 -29 22q0 8 29 19z" />
    <glyph glyph-name="scircumflex" unicode="&#x15d;" horiz-adv-x="307" 
d="M220 405q27 0 37 -91q-10 -25 -33 -25q-16 3 -32 37l-18 6q-47 0 -85 -62v-9q0 -15 141 -50q59 -35 59 -85q0 -82 -132 -140l-37 -6q-84 9 -84 84v3q0 24 31 28q24 0 32 -50l8 -6h17q57 0 106 78v13q0 30 -131 56q-69 28 -69 78q0 65 109 122q48 6 81 19zM133 752l16 7
q30 0 126 -144l38 -54q0 -12 -24 -15l-26 -2q0 2 -72 88q-20 49 -33 49q-4 0 -7 -5q-89 -105 -96 -126l-27 15q-29 6 -29 22q0 8 29 19z" />
    <glyph glyph-name="Scedilla" unicode="&#x15e;" horiz-adv-x="455" 
d="M322 592h10q28 0 32 -33q0 -29 -79 -29q-127 -48 -171 -140l-7 -29v-6q0 -44 59 -44l110 6q111 0 150 -108l6 -35q0 -104 -168 -190q-23 -7 -44 -12l-24 -43v-8q0 -13 104 -42q44 -29 44 -70q0 -68 -97 -117l-28 -5q-62 8 -62 70v3q0 19 23 24q20 0 24 -43l6 -5h11
q43 0 79 65v10q0 25 -96 48q-52 22 -52 65q0 29 4 42q-87 11 -124 114q-12 39 -12 79q0 12 19 25h12q31 0 31 -79q26 -78 82 -78h27q81 0 160 94q21 30 21 65q0 49 -77 69h-4l-131 -3q-109 13 -109 90l-4 13q0 103 154 200q67 37 121 37z" />
    <glyph glyph-name="scedilla" unicode="&#x15f;" horiz-adv-x="307" 
d="M220 405q27 0 37 -91q-10 -25 -33 -25q-16 3 -32 37l-18 6q-47 0 -85 -62v-9q0 -15 141 -50q59 -35 59 -85q0 -77 -118 -134l-20 -36v-7q0 -14 104 -43q44 -27 44 -70q0 -67 -97 -116l-28 -5q-62 8 -62 70v2q0 19 23 24q19 0 24 -42l6 -5h11q43 0 79 65v10q0 26 -96 47
q-52 24 -52 65q0 15 2 31q-73 12 -73 82v3q0 24 31 28q24 0 32 -50l8 -6h17q57 0 106 78v13q0 30 -131 56q-69 28 -69 78q0 65 109 122q48 6 81 19z" />
    <glyph glyph-name="Scaron" unicode="&#x160;" horiz-adv-x="455" 
d="M322 592h10q28 0 32 -33q0 -29 -79 -29q-127 -48 -171 -140l-7 -29v-6q0 -44 59 -44l110 6q111 0 150 -108l6 -35q0 -104 -168 -190q-50 -14 -88 -19q-102 0 -144 115q-12 39 -12 79q0 12 19 25h12q31 0 31 -79q26 -78 82 -78h27q81 0 160 94q21 30 21 65q0 49 -77 69h-4
l-131 -3q-109 13 -109 90l-4 13q0 103 154 200q67 37 121 37zM212 618l-16 7l-115 132q-32 11 -32 18q0 12 32 20l11 -2q26 -3 126 -123q10 6 51 53q68 89 93 89h2q27 -2 27 -14l-40 -48q-105 -132 -139 -132z" />
    <glyph glyph-name="scaron" unicode="&#x161;" horiz-adv-x="307" 
d="M220 405q27 0 37 -91q-10 -25 -33 -25q-16 3 -32 37l-18 6q-47 0 -85 -62v-9q0 -15 141 -50q59 -35 59 -85q0 -82 -132 -140l-37 -6q-84 9 -84 84v3q0 24 31 28q24 0 32 -50l8 -6h17q57 0 106 78v13q0 30 -131 56q-69 28 -69 78q0 65 109 122q48 6 81 19zM147 429l-16 7
l-115 132q-32 11 -32 18q0 12 32 20l11 -2q25 -3 126 -123q10 6 51 53q68 89 93 89h2q27 -1 27 -14l-40 -48q-105 -132 -139 -132z" />
    <glyph glyph-name="Tcommaaccent" unicode="&#x162;" horiz-adv-x="425" 
d="M214 631l300 19q13 0 25 -25q0 -38 -88 -38l-175 -10l-4 -2q25 -163 25 -619q-5 -44 -31.5 -44t-30.5 40v232q0 232 -21 387q-179 -17 -179 -40l-9 -4q-31 9 -31 32q0 55 219 72zM247 -219q0 51 31 51q12 0 27 -6l15 -96q-54 -87 -83 -87q-19 0 -26 43l41 45q-5 29 -5 50
z" />
    <glyph glyph-name="tcommaaccent" unicode="&#x163;" horiz-adv-x="355" 
d="M137 607q28 -6 28 -28l-6 -44v-13q0 -44 10 -93h2q116 35 144 35q29 -8 29 -29q0 -34 -69 -34l-104 -37q0 -135 29 -367q-6 -27 -29 -27h-2q-35 0 -35 90q-13 67 -22 291h-18q-94 6 -94 44q0 11 21 27h10l46 -12h32l-9 125q0 72 37 72zM161 -160q0 51 31 51q12 0 27 -6
l15 -96q-54 -87 -83 -87q-19 0 -26 43l41 45q-5 29 -5 50z" />
    <glyph glyph-name="Tcaron" unicode="&#x164;" horiz-adv-x="425" 
d="M214 631l300 19q13 0 25 -25q0 -38 -88 -38l-175 -10l-4 -2q25 -163 25 -619q-5 -44 -31.5 -44t-30.5 40v232q0 232 -21 387q-179 -17 -179 -40l-9 -4q-31 9 -31 32q0 55 219 72zM206 697l-16 7l-115 132q-32 11 -32 18q0 12 32 20l11 -2q26 -3 126 -123q10 6 51 53
q68 89 93 89h2q27 -1 27 -14l-40 -48q-105 -132 -139 -132z" />
    <glyph glyph-name="Tbar" unicode="&#x166;" horiz-adv-x="425" 
d="M287 415l70 5q25 0 29 -31q0 -32 -94 -32l-2 -1q7 -148 7 -400q-5 -44 -31.5 -44t-30.5 40v232q0 97 -4 166q-35 -3 -61 -3q-65 8 -65 38q0 21 27 31l38 -9h6l53 4q-5 90 -15 160q-179 -17 -179 -40l-9 -4q-31 9 -31 32q0 55 219 72l300 19q13 0 25 -25q0 -38 -88 -38
l-175 -10l-4 -2q9 -62 15 -160z" />
    <glyph glyph-name="tbar" unicode="&#x167;" horiz-adv-x="355" 
d="M171 317l120 9q25 0 29 -31q0 -31 -94 -31q-18 -3 -52 -7q9 -128 26 -260q-6 -27 -29 -27h-2q-35 0 -35 90q-10 54 -18 194h-12q-65 8 -65 37q0 21 27 31l38 -8h10q-2 22 -2 37h-18q-94 6 -94 44q0 11 21 27h10l46 -12h32l-9 125q0 72 37 72q28 -6 28 -28l-6 -44v-13
q0 -44 10 -93h2q116 35 144 35q29 -8 29 -29q0 -34 -69 -34l-104 -37v-47z" />
    <glyph glyph-name="Utilde" unicode="&#x168;" horiz-adv-x="407" 
d="M291 594q44 0 44 -163l-13 -147q0 -188 50 -290v-4q0 -20 -27 -25h-4q-37 2 -65 141h-4q-52 -156 -133 -156t-104 131l-3 59v19l15 228v44q0 20 23 31h9q28 0 28 -37v-6l-16 -267v-37q0 -80 38 -106h18q51 31 98 210l15 68l-13 163q0 144 44 144zM350 672q-1 -7 -9.5 -7
t-38.5 22q-11 59 -63 89l-9 1q-13 0 -49 -105q-31 -41 -73 -41h-2q-71 5 -116 104l-4 30q6 34 24 34q14 0 35 -22l-8 -7v-12q-1 -42 64 -82h10h1q27 0 54 96q28 49 68 49h2q56 -3 101 -86q3 -39 13 -63z" />
    <glyph glyph-name="utilde" unicode="&#x169;" horiz-adv-x="327" 
d="M59 301l18 10q24 0 35 -29q-16 -74 -16 -152q0 -39 23 -85h6q29 0 69 229q14 12 27 12q31 0 31 -110q13 -121 29 -121l15 6q29 -11 29 -31q-18 -38 -50 -38q-36 0 -69 72q-40 -84 -81 -84q-61 0 -85 127l-3 32v10q0 80 22 152zM370 407q-1 -7 -9.5 -7t-38.5 22
q-11 59 -63 89l-9 1q-13 0 -49 -105q-31 -41 -73 -41h-2q-71 5 -116 104l-4 30q6 34 24 34q14 0 35 -22l-8 -7v-12q-1 -42 64 -82h10h1q27 0 54 96q28 49 68 49h2q56 -3 101 -86q3 -39 13 -63z" />
    <glyph glyph-name="Umacron" unicode="&#x16a;" horiz-adv-x="407" 
d="M291 594q44 0 44 -163l-13 -147q0 -188 50 -290v-4q0 -20 -27 -25h-4q-37 2 -65 141h-4q-52 -156 -133 -156t-104 131l-3 59v19l15 228v44q0 20 23 31h9q28 0 28 -37v-6l-16 -267v-37q0 -80 38 -106h18q51 31 98 210l15 68l-13 163q0 144 44 144zM115 746l181 12
q25 0 29 -31q0 -31 -94 -31q-69 -10 -122 -10q-65 8 -65 37q0 20 27 32l38 -9h6z" />
    <glyph glyph-name="umacron" unicode="&#x16b;" horiz-adv-x="327" 
d="M59 301l18 10q24 0 35 -29q-16 -74 -16 -152q0 -39 23 -85h6q29 0 69 229q14 12 27 12q31 0 31 -110q13 -121 29 -121l15 6q29 -11 29 -31q-18 -38 -50 -38q-36 0 -69 72q-40 -84 -81 -84q-61 0 -85 127l-3 32v10q0 80 22 152zM91 470l181 12q25 0 29 -31q0 -31 -94 -31
q-69 -10 -122 -10q-65 8 -65 37q0 20 27 32l38 -9h6z" />
    <glyph glyph-name="Ubreve" unicode="&#x16c;" horiz-adv-x="407" 
d="M291 594q44 0 44 -163l-13 -147q0 -188 50 -290v-4q0 -20 -27 -25h-4q-37 2 -65 141h-4q-52 -156 -133 -156t-104 131l-3 59v19l15 228v44q0 20 23 31h9q28 0 28 -37v-6l-16 -267v-37q0 -80 38 -106h18q51 31 98 210l15 68l-13 163q0 144 44 144zM189 700q66 0 76 91h36
q-4 -79 -46 -101q-40 -19 -60 -19h-2.5h-3.5q-59 0 -71 42q-8 28 -8 45.5t3 28.5l37 -1v-51q0 -35 33 -35h6z" />
    <glyph glyph-name="ubreve" unicode="&#x16d;" horiz-adv-x="327" 
d="M59 301l18 10q24 0 35 -29q-16 -74 -16 -152q0 -39 23 -85h6q29 0 69 229q14 12 27 12q31 0 31 -110q13 -121 29 -121l15 6q29 -11 29 -31q-18 -38 -50 -38q-36 0 -69 72q-40 -84 -81 -84q-61 0 -85 127l-3 32v10q0 80 22 152zM150 390q66 0 76 91h36q-4 -79 -46 -101
q-40 -19 -60 -19h-2.5h-3.5q-59 0 -71 42q-8 28 -8 45.5t3 28.5l37 -1v-51q0 -35 33 -35h6z" />
    <glyph glyph-name="Uring" unicode="&#x16e;" horiz-adv-x="407" 
d="M291 594q44 0 44 -163l-13 -147q0 -188 50 -290v-4q0 -20 -27 -25h-4q-37 2 -65 141h-4q-52 -156 -133 -156t-104 131l-3 59v19l15 228v44q0 20 23 31h9q28 0 28 -37v-6l-16 -267v-37q0 -80 38 -106h18q51 31 98 210l15 68l-13 163q0 144 44 144zM221 866q64 0 95 -55
l2 -11q0 -54 -83 -111q-34 -19 -75.5 -19t-64.5 35q-8 18 -8 29v6q0 80 98 121q18 5 36 5zM166 810q-29 -31 -29 -70.5t29 -39.5q61 0 102 95v10q-13 31 -52 31q-15 0 -15 -12q0 -9 -35 -14z" />
    <glyph glyph-name="uring" unicode="&#x16f;" horiz-adv-x="327" 
d="M59 301l18 10q24 0 35 -29q-16 -74 -16 -152q0 -39 23 -85h6q29 0 69 229q14 12 27 12q31 0 31 -110q13 -121 29 -121l15 6q29 -11 29 -31q-18 -38 -50 -38q-36 0 -69 72q-40 -84 -81 -84q-61 0 -85 127l-3 32v10q0 80 22 152zM184 556q64 0 95 -55l2 -11q0 -54 -83 -111
q-34 -19 -75.5 -19t-64.5 35q-8 18 -8 29v6q0 80 98 121q18 5 36 5zM129 500q-29 -31 -29 -70.5t29 -39.5q61 0 102 95v10q-13 31 -52 31q-15 0 -15 -12q0 -9 -35 -14z" />
    <glyph glyph-name="Uhungarumlaut" unicode="&#x170;" horiz-adv-x="407" 
d="M291 594q44 0 44 -163l-13 -147q0 -188 50 -290v-4q0 -20 -27 -25h-4q-37 2 -65 141h-4q-52 -156 -133 -156t-104 131l-3 59v19l15 228v44q0 20 23 31h9q28 0 28 -37v-6l-16 -267v-37q0 -80 38 -106h18q51 31 98 210l15 68l-13 163q0 144 44 144zM65 718q-3 5 -3 12.5
t9 16.5q82 109 103 117q4 2 11.5 2t16.5 -13l5 -16q-73 -78 -88 -93q0 -12 -25 -37q-4 -1 -11 -1t-18 12zM176 696q-3 5 -3 12t8 16q83 108 104 118q4 2 12 2t17 -12l3 -18q-1 1 -2 1q-16 0 -85 -93q0 -14 -25 -36q-4 -2 -11 -2t-18 12z" />
    <glyph glyph-name="uhungarumlaut" unicode="&#x171;" horiz-adv-x="327" 
d="M59 301l18 10q24 0 35 -29q-16 -74 -16 -152q0 -39 23 -85h6q29 0 69 229q14 12 27 12q31 0 31 -110q13 -121 29 -121l15 6q29 -11 29 -31q-18 -38 -50 -38q-36 0 -69 72q-40 -84 -81 -84q-61 0 -85 127l-3 32v10q0 80 22 152zM42 506q-3 5 -3 12.5t9 16.5
q82 109 103 117q4 2 11.5 2t16.5 -13l5 -16q-73 -78 -88 -93q0 -12 -25 -37q-4 -1 -11 -1t-18 12zM153 484q-3 5 -3 12t8 16q83 108 104 118q4 2 12 2t17 -12l3 -18q-1 1 -2 1q-16 0 -85 -93q0 -14 -25 -36q-4 -2 -11 -2t-18 12z" />
    <glyph glyph-name="Uogonek" unicode="&#x172;" horiz-adv-x="407" 
d="M291 594q44 0 44 -163l-13 -147q0 -188 50 -290v-4q0 -20 -27 -25h-4q-8 2 -11 5l-54 -66v-10q0 -5 21.5 -5t101.5 18q30 14 30 2q0 -7 -10 -23q-29 -45 -133 -67q-69 29 -69 78q0 64 85 113q-11 29 -26 96h-4q-52 -156 -133 -156t-104 131l-3 59v19l15 228v44
q0 20 23 31h9q28 0 28 -37v-6l-16 -267v-37q0 -80 38 -106h18q51 31 98 210l15 68l-13 163q0 144 44 144z" />
    <glyph glyph-name="uogonek" unicode="&#x173;" horiz-adv-x="327" 
d="M59 301l18 10q24 0 35 -29q-16 -74 -16 -152q0 -39 23 -85h6q29 0 69 229q14 12 27 12q31 0 31 -110q13 -121 29 -121l15 6q29 -11 29 -31q-18 -38 -50 -38q-3 0 -9 2l-52 -64v-10q0 -5 20.5 -5t101.5 19q17 8 24 8t7 -6.5t-10 -22.5q-29 -44 -133 -68q-69 29 -69 83
t70 99q-8 13 -19 37q-40 -84 -81 -84q-61 0 -85 127l-3 32v10q0 80 22 152z" />
    <glyph glyph-name="Wcircumflex" unicode="&#x174;" horiz-adv-x="637" 
d="M255 716q81 0 200 -106q162 -188 162 -389.5t-197 -275.5l-28 -4q-106 0 -166 154h-2q-35 -125 -94 -125h-6q-78 0 -107 294v58q2 104 59 119q16 0 29 -31q-29 -40 -29 -94v-9q0 -185 54 -275q40 29 59 238q0 169 25 169l10 2q33 0 33 -65l-6 -110q0 -111 69 -231
q34 -34 69 -34q57 0 122 71q46 61 46 154q0 206 -181 378q-47 38 -144 62l-8 19q7 31 31 31zM295 1062l16 7q30 0 126 -144l38 -54q0 -12 -24 -15l-26 -2q0 2 -72 88q-20 49 -33 49q-4 0 -7 -5q-89 -105 -96 -126l-27 15q-29 6 -29 22q0 8 29 19z" />
    <glyph glyph-name="wcircumflex" unicode="&#x175;" horiz-adv-x="400" 
d="M302 314q69 -46 69 -142q0 -130 -87 -177l-38 -6q-34 0 -72 33h-7q-31 -40 -58 -40q-71 0 -82 134v54q7 127 53 127q25 0 29 -31q-23 -40 -23 -112v-19q4 -90 19 -90t31 52l-2 69q0 69 33 69q38 0 38 -75h4l-10 -63q17 -50 47 -50h6q44 0 57 94v56q0 32 -38 79l-4 9
q0 21 35 29zM173 596l16 7q30 0 126 -144l38 -54q0 -12 -24 -15l-26 -2q0 2 -72 88q-20 49 -33 49q-4 0 -7 -5q-89 -105 -96 -126l-27 15q-29 6 -29 22q0 8 29 19z" />
    <glyph glyph-name="Ycircumflex" unicode="&#x176;" horiz-adv-x="412" 
d="M166 652q18 0 31 -31q-40 -110 -40 -206v-34q0 -112 57 -112q73 0 100 256q0 119 21 119l16 2q21 0 25 -34v-337q0 -315 -106 -369q-20 -11 -60 -19q-88 0 -200 103l-3 12q0 23 34 29l79 -56q46 -25 69 -25h27q100 0 100 309v12h-9q-38 -59 -97 -59q-73 0 -103 94
q-10 37 -10 75v9q16 262 69 262zM185 1062l16 7q30 0 126 -144l38 -54q0 -12 -24 -15l-26 -2q0 2 -72 88q-20 49 -33 49q-4 0 -7 -5q-89 -105 -96 -126l-27 15q-29 6 -29 22q0 8 29 19z" />
    <glyph glyph-name="ycircumflex" unicode="&#x177;" horiz-adv-x="265" 
d="M51 300q35 0 48 -154q17 -71 25 -71h6q25 63 25 125l-6 69q11 27 31 27q37 0 37 -131q22 -136 22 -253v-47q0 -215 -122 -290l-22 -4q-57 0 -106 106l-9 60v3q0 66 37 66l25 -16l-3 -63q0 -46 47 -93h13q55 0 81 210l2 58q-1 101 -8 129q-40 -35 -63 -35q-51 0 -91 273
l-3 2q0 23 34 29zM90 576l16 7q30 0 126 -144l38 -54q0 -12 -24 -15l-26 -2q0 2 -72 88q-20 49 -33 49q-4 0 -7 -5q-88 -105 -96 -126l-27 15q-29 6 -29 22q0 8 29 19z" />
    <glyph glyph-name="Ydieresis" unicode="&#x178;" horiz-adv-x="412" 
d="M166 652q18 0 31 -31q-40 -110 -40 -206v-34q0 -112 57 -112q73 0 100 256q0 119 21 119l16 2q21 0 25 -34v-337q0 -315 -106 -369q-20 -11 -60 -19q-88 0 -200 103l-3 12q0 23 34 29l79 -56q46 -25 69 -25h27q100 0 100 309v12h-9q-38 -59 -97 -59q-73 0 -103 94
q-10 37 -10 75v9q16 262 69 262zM254 755q-21 1 -28 34q1 25 43 25q23 -16 23 -29q0 -28 -38 -30zM141 761q-23 0 -24 30q1 23 36 31q28 -12 26 -33q-13 -28 -38 -28z" />
    <glyph glyph-name="Zacute" unicode="&#x179;" horiz-adv-x="470" 
d="M135 464l210 6h21q60 0 60 -34q-20 -92 -169 -262q-87 -83 -87 -92q152 -137 184 -140l47 -6q37 0 75 15q28 -10 28 -31q0 -37 -100 -44h-13q-93 0 -244 154l-31 19q-56 -32 -69 -32q-22 0 -27 32q0 51 71 68l13 -3q130 105 216 228q34 56 34 69h-9l-210 -6l-3 -4h-3
q-59 0 -59 31v4q0 28 34 28h31zM109 586q2 29 30 38q163 78 201 78h3q25 -1 28 -37l-7 -28q-136 -48 -163 -55q-11 -16 -63 -33q-24 2 -29 37z" />
    <glyph glyph-name="zacute" unicode="&#x17a;" horiz-adv-x="312" 
d="M172 302q19 0 28 -28q-89 -226 -94 -250l4 -3h31q48 0 131 44q28 0 28 -35q-56 -69 -175 -69l-46 6q-23 -15 -32 -15q-31 0 -31 57q0 12 34 37l69 184v4h-3l-85 -7q-34 7 -34 34q0 25 28 25q54 0 147 16zM16 423q2 29 30 38q163 78 201 78h3q25 -1 28 -37l-7 -28
q-136 -48 -163 -55q-10 -17 -63 -33q-24 2 -29 37z" />
    <glyph glyph-name="Zdotaccent" unicode="&#x17b;" horiz-adv-x="470" 
d="M135 464l210 6h21q60 0 60 -34q-20 -92 -169 -262q-87 -83 -87 -92q152 -137 184 -140l47 -6q37 0 75 15q28 -10 28 -31q0 -37 -100 -44h-13q-93 0 -244 154l-31 19q-56 -32 -69 -32q-22 0 -27 32q0 51 71 68l13 -3q130 105 216 228q34 56 34 69h-9l-210 -6l-3 -4h-3
q-59 0 -59 31v4q0 28 34 28h31zM239 627q31 0 35 -48q-9 -46 -49 -46q-30 0 -39 46q16 48 53 48z" />
    <glyph glyph-name="zdotaccent" unicode="&#x17c;" horiz-adv-x="312" 
d="M172 302q19 0 28 -28q-89 -226 -94 -250l4 -3h31q48 0 131 44q28 0 28 -35q-56 -69 -175 -69l-46 6q-23 -15 -32 -15q-31 0 -31 57q0 12 34 37l69 184v4h-3l-85 -7q-34 7 -34 34q0 25 28 25q54 0 147 16zM165 550q30 0 35 -48q-9 -46 -49 -46q-30 0 -39 46q16 48 53 48z
" />
    <glyph glyph-name="Zcaron" unicode="&#x17d;" horiz-adv-x="470" 
d="M135 464l210 6h21q60 0 60 -34q-20 -92 -169 -262q-87 -83 -87 -92q152 -137 184 -140l47 -6q37 0 75 15q28 -10 28 -31q0 -37 -100 -44h-13q-93 0 -244 154l-31 19q-56 -32 -69 -32q-22 0 -27 32q0 51 71 68l13 -3q130 105 216 228q34 56 34 69h-9l-210 -6l-3 -4h-3
q-59 0 -59 31v4q0 28 34 28h31zM274 553l-16 7l-115 132q-32 11 -32 18q0 12 32 20l11 -2q26 -3 126 -123q10 6 51 53q68 89 93 89h2q27 -1 27 -14l-40 -48q-105 -132 -139 -132z" />
    <glyph glyph-name="zcaron" unicode="&#x17e;" horiz-adv-x="312" 
d="M172 302q19 0 28 -28q-89 -226 -94 -250l4 -3h31q48 0 131 44q28 0 28 -35q-56 -69 -175 -69l-46 6q-23 -15 -32 -15q-31 0 -31 57q0 12 34 37l69 184v4h-3l-85 -7q-34 7 -34 34q0 25 28 25q54 0 147 16zM150 387l-16 7l-115 132q-32 11 -32 18q0 12 32 20l11 -2
q26 -3 126 -123q10 6 51 53q68 89 93 89h2q27 -1 27 -14l-40 -48q-105 -132 -139 -132z" />
    <glyph glyph-name="florin" unicode="&#x192;" horiz-adv-x="270" 
d="M175 450q47 0 65 -100v-4q0 -23 -31 -27q-25 0 -34 62l-4 3h-12q-22 -32 -22 -84l3 -50q40 0 87 21q19 0 35 -27q0 -41 -112 -54l29 -343q-55 -20 -83.5 -20t-28.5 21q0 11 7 26q14 -8 24 -8q30 0 30 71q0 57 -19 159l-19 85l-65 -10q-21 0 -25 31q0 30 81 38l-4 62
q16 148 98 148z" />
    <glyph glyph-name="AEacute" unicode="&#x1fc;" horiz-adv-x="631" 
d="M517 629q19 0 25 -32q0 -18 -62 -50q-78 -66 -116 -233v-19q87 43 125 52q11 0 28 -21v-19q0 -11 -61 -33q-14 -17 -75 -38q-17 -11 -17 -14v-8q0 -58 72 -98l34 -6q33 0 97 41h13q21 -11 21 -29v-6q-62 -65 -137 -65q-58 0 -102 44q6 -19 34 -99v-2q0 -19 -31 -32
q-29 0 -38 69q-24 50 -55 156l-27 -5l-20 4q-89 -21 -89 -36q-72 -156 -109 -156q-21 0 -25 27q0 24 53 94l16 35h-25l-19 -4q-37 9 -37 38q15 35 44 35l25 -10q56 0 56 41q51 120 112 344l25 8q34 0 34 -90l23 -167q22 123 121 234q65 50 87 50zM236 412l-59 -178
q82 16 82 31q-15 147 -23 147zM184 851q2 29 30 38q163 78 201 78h3q25 -1 28 -37l-7 -28q-136 -48 -163 -55q-10 -17 -63 -33q-24 2 -29 37z" />
    <glyph glyph-name="aeacute" unicode="&#x1fd;" horiz-adv-x="509" 
d="M284 346q41 -2 135 -140l2 -16q0 -29 -137 -44l-3 -2v-4q21 -90 44 -90h12q33 0 97 69h6q20 0 31 -29q0 -26 -84 -84q-22 -12 -53 -19q-59 0 -92 78q14 -54 43 -70l2 -15q-3 -29 -27 -29h-6q-75 51 -75 156h-7q-40 -112 -97 -112q-53 15 -53 79q0 141 113 281
q38 31 71 31q44 0 44 -35l-9 -19v-6q15 20 43 20zM85 114l-4 -28v-19h10q75 187 75 228h-4q-58 -65 -77 -181zM290 275h-9l-4 -38v-31h4q56 3 56 13q-26 38 -47 56zM122 541q2 29 30 38q163 78 201 78h3q25 -1 28 -37l-7 -28q-136 -48 -163 -55q-10 -17 -63 -33
q-24 2 -29 37z" />
    <glyph glyph-name="Oslashacute" unicode="&#x1fe;" horiz-adv-x="440" 
d="M86 92q-61 115 -61 230v10q0 169 121 209l25 4h10q20 0 44 -25q21 0 50 -26l42 86q9 25 32 25q28 -7 28 -29q-11 -28 -57 -129l30 -37q69 -130 69 -231q0 -138 -100 -184l-63 -13q-76 0 -130 57l-15 -38l-21 -6q-29 5 -29 29q0 11 25 68zM209 51l28 -6h38q52 0 75 65
l6 44v31q0 109 -65 204l-49 -100q-51 -102 -90 -189q23 -27 57 -49zM137 445l-22 9q-31 -37 -31 -107v-27q0 -95 31 -163q44 98 135 283l-13 14l-41 12h-2q-20 0 -57 -21zM66 695q2 30 30 37q163 79 201 79h3q24 -1 29 -37l-8 -28q-139 -49 -162 -55q-11 -18 -64 -34
q-24 3 -29 38z" />
    <glyph glyph-name="oslashacute" unicode="&#x1ff;" horiz-adv-x="320" 
d="M40 35q-20 37 -20 80v12q0 158 115 240q20 10 45.5 10t48.5 -15l11 18q6 15 25 15q22 -4 22 -18l-26 -47q17 -26 30 -63l4 -21q0 -107 -100 -219q-40 -37 -77.5 -37t-60.5 21q-18 5 -18 19q0 2 1 5zM40 472q2 29 30 38q165 79 202 79h2q25 -3 28 -38l-7 -27
q-142 -51 -163 -55q-10 -17 -63 -34q-24 2 -29 37zM114 49q73 0 121 187v19l-6 19q-23 -34 -48 -78q-52 -81 -85 -142q8 -5 18 -5zM79 117v-8q48 83 118 202q-11 6 -25 6q-18 0 -18 -25q0 -17 -40 -27q-35 -59 -35 -148z" />
    <glyph glyph-name="Scommaaccent" unicode="&#x218;" horiz-adv-x="455" 
d="M322 592h10q28 0 32 -33q0 -29 -79 -29q-127 -48 -171 -140l-7 -29v-6q0 -44 59 -44l110 6q111 0 150 -108l6 -35q0 -104 -168 -190q-50 -14 -88 -19q-102 0 -144 115q-12 39 -12 79q0 12 19 25h12q31 0 31 -79q26 -78 82 -78h27q81 0 160 94q21 30 21 65q0 49 -77 69h-4
l-131 -3q-109 13 -109 90l-4 13q0 103 154 200q67 37 121 37zM241 -160q0 51 31 51q12 0 27 -6l15 -96q-54 -87 -83 -87q-19 0 -26 43l41 45q-5 29 -5 50z" />
    <glyph glyph-name="scommaaccent" unicode="&#x219;" horiz-adv-x="307" 
d="M220 405q27 0 37 -91q-10 -25 -33 -25q-16 3 -32 37l-18 6q-47 0 -85 -62v-9q0 -15 141 -50q59 -35 59 -85q0 -82 -132 -140l-37 -6q-84 9 -84 84v3q0 24 31 28q24 0 32 -50l8 -6h17q57 0 106 78v13q0 30 -131 56q-69 28 -69 78q0 65 109 122q48 6 81 19zM137 -160
q0 51 31 51q12 0 27 -6l15 -96q-54 -87 -83 -87q-19 0 -26 43l41 45q-5 29 -5 50z" />
    <glyph glyph-name="circumflex" unicode="&#x2c6;" horiz-adv-x="526" 
d="M229 752l16 7q30 0 126 -144l38 -54q0 -12 -24 -15l-26 -2q0 2 -72 88q-20 49 -33 49q-4 0 -7 -5q-89 -105 -96 -126l-27 15q-29 6 -29 22q0 8 29 19z" />
    <glyph glyph-name="caron" unicode="&#x2c7;" horiz-adv-x="539" 
d="M285 387l-16 7l-115 132q-32 11 -32 18q0 12 32 20l11 -2q25 -3 126 -123q10 6 51 53q68 89 93 89h2q27 -1 27 -14l-40 -48q-105 -132 -139 -132z" />
    <glyph glyph-name="breve" unicode="&#x2d8;" horiz-adv-x="461" 
d="M175 390q66 0 76 91h36q-4 -79 -46 -101q-40 -19 -60 -19h-2.5h-3.5q-59 0 -71 42q-8 28 -8 45.5t3 28.5l37 -1v-51q0 -35 33 -35h6z" />
    <glyph glyph-name="dotaccent" unicode="&#x2d9;" horiz-adv-x="182" 
d="M90 550q30 0 35 -48q-9 -46 -49 -46q-30 0 -39 46q16 48 53 48z" />
    <glyph glyph-name="ring" unicode="&#x2da;" horiz-adv-x="461" 
d="M220 556q64 0 95 -55l2 -11q0 -54 -83 -111q-34 -19 -75.5 -19t-64.5 35q-8 18 -8 29v6q0 80 98 121q18 5 36 5zM165 500q-29 -31 -29 -70.5t29 -39.5q61 0 102 95v10q-13 31 -52 31q-15 0 -15 -12q0 -9 -35 -14z" />
    <glyph glyph-name="ogonek" unicode="&#x2db;" horiz-adv-x="337" 
d="M159 20l50 -14l-77 -92v-10q0 -5 21.5 -5t101.5 18q31 13 31 3q0 -7 -11 -24q-29 -45 -133 -67q-68 29 -68 78q0 64 85 113z" />
    <glyph glyph-name="tilde" unicode="&#x2dc;" horiz-adv-x="511" 
d="M420 551q-1 -7 -9.5 -7t-38.5 22q-11 59 -63 89l-9 1q-13 0 -49 -105q-31 -41 -73 -41h-2q-71 5 -116 104l-4 30q6 34 24 34q14 0 35 -22l-8 -7v-12q-1 -42 64 -82h10h1q27 0 54 96q28 49 68 49h2q56 -3 101 -86q3 -39 13 -63z" />
    <glyph glyph-name="hungarumlaut" unicode="&#x2dd;" horiz-adv-x="374" 
d="M55 506q-3 5 -3 12.5t9 16.5q82 109 103 117q4 2 11.5 2t16.5 -13l5 -16q-73 -78 -88 -93q0 -12 -25 -37q-4 -1 -11 -1t-18 12zM166 484q-3 5 -3 12t8 16q83 108 104 118q4 2 12 2t17 -12l3 -18q-1 1 -2 1q-16 0 -85 -93q0 -14 -25 -36q-4 -2 -11 -2t-18 12z" />
    <glyph glyph-name="Wgrave" unicode="&#x1e80;" horiz-adv-x="637" 
d="M255 716q81 0 200 -106q162 -188 162 -389.5t-197 -275.5l-28 -4q-106 0 -166 154h-2q-35 -125 -94 -125h-6q-78 0 -107 294v58q2 104 59 119q16 0 29 -31q-29 -40 -29 -94v-9q0 -185 54 -275q40 29 59 238q0 169 25 169l10 2q33 0 33 -65l-6 -110q0 -111 69 -231
q34 -34 69 -34q57 0 122 71q46 61 46 154q0 206 -181 378q-47 38 -144 62l-8 19q7 31 31 31zM442 734q-4 -28 -25 -30q-48 13 -59 27q-141 59 -141 92q0 6 4 11q3 28 26 30q46 -13 169 -100q24 -7 26 -30z" />
    <glyph glyph-name="wgrave" unicode="&#x1e81;" horiz-adv-x="400" 
d="M302 314q69 -46 69 -142q0 -130 -87 -177l-38 -6q-34 0 -72 33h-7q-31 -40 -58 -40q-71 0 -82 134v54q7 127 53 127q25 0 29 -31q-23 -40 -23 -112v-19q4 -90 19 -90t31 52l-2 69q0 69 33 69q38 0 38 -75h4l-10 -63q17 -50 47 -50h6q44 0 57 94v56q0 32 -38 79l-4 9
q0 21 35 29zM324 424q-4 -28 -25 -30q-48 13 -59 27q-141 59 -141 92q0 6 4 11q3 28 26 30q46 -13 169 -100q24 -7 26 -30z" />
    <glyph glyph-name="Wacute" unicode="&#x1e82;" horiz-adv-x="637" 
d="M255 716q81 0 200 -106q162 -188 162 -389.5t-197 -275.5l-28 -4q-106 0 -166 154h-2q-35 -125 -94 -125h-6q-78 0 -107 294v58q2 104 59 119q16 0 29 -31q-29 -40 -29 -94v-9q0 -185 54 -275q40 29 59 238q0 169 25 169l10 2q33 0 33 -65l-6 -110q0 -111 69 -231
q34 -34 69 -34q57 0 122 71q46 61 46 154q0 206 -181 378q-47 38 -144 62l-8 19q7 31 31 31zM187 851q2 29 30 38q163 78 201 78h3q25 -1 28 -37l-7 -28q-136 -48 -163 -55q-11 -17 -63 -33q-24 2 -29 37z" />
    <glyph glyph-name="wacute" unicode="&#x1e83;" horiz-adv-x="400" 
d="M302 314q69 -46 69 -142q0 -130 -87 -177l-38 -6q-34 0 -72 33h-7q-31 -40 -58 -40q-71 0 -82 134v54q7 127 53 127q25 0 29 -31q-23 -40 -23 -112v-19q4 -90 19 -90t31 52l-2 69q0 69 33 69q38 0 38 -75h4l-10 -63q17 -50 47 -50h6q44 0 57 94v56q0 32 -38 79l-4 9
q0 21 35 29zM69 541q2 29 30 38q163 78 201 78h3q25 -1 28 -37l-7 -28q-136 -48 -163 -55q-11 -17 -63 -33q-24 2 -29 37z" />
    <glyph glyph-name="Wdieresis" unicode="&#x1e84;" horiz-adv-x="637" 
d="M255 716q81 0 200 -106q162 -188 162 -389.5t-197 -275.5l-28 -4q-106 0 -166 154h-2q-35 -125 -94 -125h-6q-78 0 -107 294v58q2 104 59 119q16 0 29 -31q-29 -40 -29 -94v-9q0 -185 54 -275q40 29 59 238q0 169 25 169l10 2q33 0 33 -65l-6 -110q0 -111 69 -231
q34 -34 69 -34q57 0 122 71q46 61 46 154q0 206 -181 378q-47 38 -144 62l-8 19q7 31 31 31zM281 766q-21 1 -28 34q1 25 43 25q23 -16 23 -29q0 -28 -38 -30zM168 772q-23 0 -24 30q1 23 36 31q28 -12 26 -33q-13 -28 -38 -28z" />
    <glyph glyph-name="wdieresis" unicode="&#x1e85;" horiz-adv-x="400" 
d="M302 314q69 -46 69 -142q0 -130 -87 -177l-38 -6q-34 0 -72 33h-7q-31 -40 -58 -40q-71 0 -82 134v54q7 127 53 127q25 0 29 -31q-23 -40 -23 -112v-19q4 -90 19 -90t31 52l-2 69q0 69 33 69q38 0 38 -75h4l-10 -63q17 -50 47 -50h6q44 0 57 94v56q0 32 -38 79l-4 9
q0 21 35 29zM248 445q-21 1 -28 34q1 25 43 25q23 -16 23 -29q0 -28 -38 -30zM135 451q-23 0 -24 30q1 23 36 31q28 -12 26 -33q-13 -28 -38 -28z" />
    <glyph glyph-name="Ygrave" unicode="&#x1ef2;" horiz-adv-x="412" 
d="M166 652q18 0 31 -31q-40 -110 -40 -206v-34q0 -112 57 -112q73 0 100 256q0 119 21 119l16 2q21 0 25 -34v-337q0 -315 -106 -369q-20 -11 -60 -19q-88 0 -200 103l-3 12q0 23 34 29l79 -56q46 -25 69 -25h27q100 0 100 309v12h-9q-38 -59 -97 -59q-73 0 -103 94
q-10 37 -10 75v9q16 262 69 262zM330 734q-4 -28 -25 -30q-48 13 -59 27q-141 59 -141 92q0 6 4 11q3 28 26 30q46 -13 169 -100q24 -7 26 -30z" />
    <glyph glyph-name="ygrave" unicode="&#x1ef3;" horiz-adv-x="265" 
d="M51 300q35 0 48 -154q17 -71 25 -71h6q25 63 25 125l-6 69q11 27 31 27q37 0 37 -131q22 -136 22 -253v-47q0 -215 -122 -290l-22 -4q-57 0 -106 106l-9 60v3q0 66 37 66l25 -16l-3 -63q0 -46 47 -93h13q55 0 81 210l2 58q-1 101 -8 129q-40 -35 -63 -35q-51 0 -91 273
l-3 2q0 23 34 29zM259 424q-4 -28 -25 -30q-48 13 -59 27q-141 59 -141 92q0 6 4 11q3 28 26 30q46 -13 169 -100q24 -7 26 -30z" />
    <glyph glyph-name="endash" unicode="&#x2013;" horiz-adv-x="419" 
d="M136 275l181 12q25 0 29 -31q0 -31 -94 -31q-69 -10 -122 -10q-65 8 -65 37q0 20 27 32l38 -9h6z" />
    <glyph glyph-name="emdash" unicode="&#x2014;" horiz-adv-x="539" 
d="M136 275l323 14q23 0 28 -32q0 -31 -93 -31q-225 -11 -264 -11q-65 8 -65 37q0 20 27 32l38 -9h6z" />
    <glyph glyph-name="quoteleft" unicode="&#x2018;" horiz-adv-x="144" 
d="M64 592q31 0 40 -75v-6q0 -34 -31.5 -34t-31.5 65q-7 0 -9 23q10 27 32 27z" />
    <glyph glyph-name="quoteright" unicode="&#x2019;" horiz-adv-x="144" 
d="M64 592q31 0 40 -75v-6q0 -34 -31.5 -34t-31.5 65q-7 0 -9 23q10 27 32 27z" />
    <glyph glyph-name="quotesinglbase" unicode="&#x201a;" horiz-adv-x="144" 
d="M61 132q31 0 40 -75v-6q0 -34 -31 -34t-31 65q-7 0 -9 23q10 27 31 27z" />
    <glyph glyph-name="quotedblleft" unicode="&#x201c;" horiz-adv-x="234" 
d="M101 605h3q20 0 31 -29q0 -11 -40 -52q-13 -30 -13 -54v-21q0 -16 19 -57q0 -21 -31 -31q-38 0 -48 96v4q0 95 79 144zM182 551h3q21 0 25 -31q0 -15 -40 -40l-6 -25v-6l8 -38q0 -18 -31 -31q-37 12 -37 71q0 71 78 100z" />
    <glyph glyph-name="quotedblright" unicode="&#x201d;" horiz-adv-x="234" 
d="M101 605h3q20 0 31 -29q0 -11 -40 -52q-13 -30 -13 -54v-21q0 -16 19 -57q0 -21 -31 -31q-38 0 -48 96v4q0 95 79 144zM182 551h3q21 0 25 -31q0 -15 -40 -40l-6 -25v-6l8 -38q0 -18 -31 -31q-37 12 -37 71q0 71 78 100z" />
    <glyph glyph-name="quotedblbase" unicode="&#x201e;" horiz-adv-x="234" 
d="M111 221h4q19 0 31 -27q0 -10 -41 -54q-13 -30 -13 -53v-22q0 -17 19 -56q0 -20 -31 -32q-35 0 -46 98v2q0 94 77 144zM192 169h4q20 0 25 -32q0 -12 -41 -41l-6 -25v-6l10 -38q0 -17 -32 -31q-37 13 -37 73q0 71 77 100z" />
    <glyph glyph-name="dagger" unicode="&#x2020;" horiz-adv-x="355" 
d="M137 607q28 -6 28 -28l-6 -44v-13q0 -44 10 -93h2q116 35 144 35q29 -8 29 -29q0 -34 -69 -34l-104 -37q0 -135 29 -367q-6 -27 -29 -27h-2q-35 0 -35 90q-13 67 -22 291h-18q-94 6 -94 44q0 11 21 27h10l46 -12h32l-9 125q0 72 37 72z" />
    <glyph glyph-name="daggerdbl" unicode="&#x2021;" horiz-adv-x="355" 
d="M172 294l148 26q23 0 27 -31q0 -32 -93 -32q-47 -16 -78 -23q6 -104 24 -237q-6 -27 -29 -27h-2q-35 0 -35 90q-9 46 -15 162q-9 -1 -25 -1q-65 8 -65 38q0 17 27 31l38 -10h6l15 2l-3 69h-18q-94 6 -94 44q0 11 21 27h10l46 -12h32l-9 125q0 72 37 72q28 -6 28 -28
l-6 -44v-13q0 -44 10 -93h2q116 35 144 35q29 -8 29 -29q0 -34 -69 -34l-104 -37q0 -45 1 -70z" />
    <glyph glyph-name="bullet" unicode="&#x2022;" horiz-adv-x="262" 
d="M145 331q55 0 62 -82q-16 -82 -86 -82q-54 0 -69 82q28 82 93 82z" />
    <glyph glyph-name="ellipsis" unicode="&#x2026;" horiz-adv-x="549" 
d="M100 59q21 0 25 -34q-6 -35 -35 -35q-20 0 -28 35q12 34 38 34zM245 25q12 34 36.5 34t25.5 -34q-6 -35 -33 -35q-23 0 -29 35zM466 59q21 0 25 -34q-6 -35 -35 -35q-21 0 -27 35q10 34 37 34z" />
    <glyph glyph-name="guilsinglleft" unicode="&#x2039;" horiz-adv-x="317" 
d="M230 347q16 0 31 -22v-9q0 -31 -125 -106l-4 -4v-9q8 0 138 -106q16 -9 16 -27t-29 -29q-13 0 -143 109q-69 32 -69 37q-6 0 -6 19q0 16 141 106q39 40 50 41z" />
    <glyph glyph-name="guilsinglright" unicode="&#x203a;" horiz-adv-x="326" 
d="M107 349q26 -38 163 -92l16 -21q0 -21 -122 -141q-38 -59 -44 -59l-13 -4q-27 7 -27 25q1 43 109 142q16 16 16 25h-4q-131 70 -131 102q0 17 37 23z" />
    <glyph glyph-name="fraction" unicode="&#x2044;" horiz-adv-x="355" 
d="M342 605q29 -8 29 -29q-17 -48 -117.5 -250t-148.5 -325l-21 -6q-29 5 -29 29q0 32 256 556q9 25 31 25z" />
    <glyph glyph-name="Euro" unicode="&#x20ac;" horiz-adv-x="500" 
d="M374 606q0 -18 -46 -18q-13 0 -28 1q-175 -25 -214 -173l-4 -25l58 4q34 -6 34 -34q0 -16 -22 -25l-77 -6l-6 -50l95 10q11 -4 18 -16v-13q0 -34 -72 -34q-17 -5 -50 -10l-1 -11v-22q0 -104 93 -122h42q104 0 252 134h4q27 0 31 -34q-23 -60 -54 -60q-143 -102 -257 -102
t-161 125l-9 71v15q-71 5 -71 44q0 11 18 25h7l35 -6h16l7 52q-65 3 -76 44q11 29 31 29l48 -13h6q20 89 65 158q67 103 238 103h22q28 -26 28 -41z" />
    <glyph glyph-name="trademark" unicode="&#x2122;" horiz-adv-x="861" 
d="M214 631l300 19q13 0 25 -25q0 -38 -88 -38l-175 -10l-4 -2q25 -163 25 -619q-5 -44 -31.5 -44t-30.5 40v232q0 232 -21 387q-179 -17 -179 -40l-9 -4q-31 9 -31 32q0 55 219 72zM732 730h4q25 -13 25 -29l-25 -190q0 -107 63 -431l50 -125q0 -12 -23 -29h-19
q-21 6 -58 123q-28 97 -54 290h-6q-58 -172 -82 -178l-15 -4q-22 0 -53 82h-7q-12 -247 -46 -247h-4q-31 0 -33 50q25 96 25 200l-29 265v19q0 38 29 38q36 0 68 -153q44 -141 53 -150q24 35 47 128q19 50 34 147l-2 3l2 16v6q10 169 56 169z" />
    <glyph glyph-name="minus" unicode="&#x2212;" horiz-adv-x="419" 
d="M136 275l181 12q25 0 29 -31q0 -31 -94 -31q-69 -10 -122 -10q-65 8 -65 37q0 20 27 32l38 -9h6z" />
    <glyph glyph-name="commaaccent" unicode="&#xf6c3;" horiz-adv-x="377" 
d="M162 -160q0 51 31 51q12 0 27 -6l15 -96q-54 -87 -83 -87q-19 0 -26 43l41 45q-5 29 -5 50z" />
    <glyph glyph-name="fi" unicode="&#xfb01;" horiz-adv-x="356" 
d="M287 334q17 0 28 -29l-9 -71v-48q0 -82 28 -215q-10 -19 -34 -19q-40 0 -54 240v24q-26 -17 -96 -26l25 -163q0 -21 -35 -27q-31 0 -31 96l-19 85l-65 -10q-21 0 -25 31q0 30 81 38l-4 62q16 148 98 148q47 0 65 -100v-4q0 -23 -31 -27q-25 0 -34 62l-4 3h-12
q-22 -32 -22 -84l3 -50q40 0 87 21q9 0 20 -9q7 72 40 72zM250 474q37 -7 37 -34q-11 -29 -31 -29q-37 7 -37 38q10 25 31 25z" />
    <glyph glyph-name="fl" unicode="&#xfb02;" horiz-adv-x="361" 
d="M277 509q28 -10 28 -32l10 -381v-122q0 -34 -29 -34h-12q-19 10 -19 27v117l-4 137q-23 -22 -101 -31l25 -163q0 -21 -35 -27q-31 0 -31 96l-19 85l-65 -10q-21 0 -25 31q0 30 81 38l-4 62q16 148 98 148q47 0 65 -100v-4q0 -23 -31 -27q-25 0 -34 62l-4 3h-12
q-22 -32 -22 -84l3 -50q40 0 87 21q13 0 24 -12l-5 221q0 25 31 29z" />
    <glyph glyph-name="CR" horiz-adv-x="640" 
 />
  </font>
</defs>
</svg>
