<?xml version="1.0" standalone="no"?>
<!DOCTYPE svg PUBLIC "-//W3C//DTD SVG 1.1//EN" "http://www.w3.org/Graphics/SVG/1.1/DTD/svg11.dtd" >
<svg xmlns="http://www.w3.org/2000/svg" xmlns:xlink="http://www.w3.org/1999/xlink" version="1.1">
<metadata>
Created by FontForge 20161013 at Tue Oct 18 05:15:06 2011
 By ,,,
Copyright (c) 2010 by Julia Petretta (www.juliapetretta.com), with Reserved Font Name "Kreon".
</metadata>
<defs>
<font id="Kreon-Regular" horiz-adv-x="651" >
  <font-face 
    font-family="Kreon"
    font-weight="400"
    font-stretch="normal"
    units-per-em="1000"
    panose-1="2 0 5 6 0 0 0 2 0 4"
    ascent="800"
    descent="-200"
    x-height="486"
    cap-height="691"
    bbox="-37 -276 889 948"
    underline-thickness="50"
    underline-position="-150"
    unicode-range="U+0020-20AC"
  />
<missing-glyph horiz-adv-x="157" 
 />
    <glyph glyph-name=".notdef" horiz-adv-x="157" 
 />
    <glyph glyph-name=".null" horiz-adv-x="0" 
 />
    <glyph glyph-name="nonmarkingreturn" horiz-adv-x="240" 
 />
    <glyph glyph-name="space" unicode=" " horiz-adv-x="240" 
 />
    <glyph glyph-name="space" unicode="&#xa0;" horiz-adv-x="240" 
 />
    <glyph glyph-name="exclam" unicode="!" horiz-adv-x="268" 
d="M91 13q-17 17 -17 42t17 42t41.5 17t42.5 -17.5t18 -41.5t-18 -41.5t-42.5 -17.5t-41.5 17zM66 677l117 13l21 -38l-37 -415h-69z" />
    <glyph glyph-name="quotedbl" unicode="&#x22;" horiz-adv-x="323" 
d="M36 689l93 10l17 -30l-29 -202h-55zM177 689l93 10l17 -30l-29 -202h-55z" />
    <glyph glyph-name="numbersign" unicode="#" horiz-adv-x="646" 
d="M70 483l13 23h165l69 185h66l11 -14l-64 -171h101l67 185h66l11 -14l-62 -171h94q6 0 6 -8v-67h-128l-41 -114h122q6 0 6 -8v-67h-156l-70 -194h-66l-11 13l66 181h-102l-71 -194h-66l-11 13l66 181h-109l-13 52l13 23h137l42 114h-138zM261 317h101l41 114h-100z" />
    <glyph glyph-name="dollar" unicode="$" horiz-adv-x="482" 
d="M198 -3q-89 4 -155 37v169h72l18 -107q43 -16 86 -16q86 0 118 56q11 19 11 49.5t-18.5 55t-61 45.5t-84 38t-75 40.5t-55 58t-21.5 79.5t12.5 74t34.5 51q44 44 118 59v188h90v-184q67 -6 133 -29l14 -172h-69l-44 108q-30 10 -75.5 10t-77 -21t-31.5 -64q0 -50 50 -82
q22 -15 49 -26.5t62.5 -27.5t66.5 -38t50 -46q36 -45 36 -98t-13 -85.5t-35 -56.5q-44 -45 -116 -60v-194h-90v189z" />
    <glyph glyph-name="percent" unicode="%" horiz-adv-x="719" 
d="M31 517q0 30 8.5 60.5t25.5 55.5q39 57 107 57t106 -52q35 -49 35 -120q0 -75 -39 -125q-39 -51 -102 -51q-70 0 -108 58q-33 49 -33 117zM122.5 593.5q-17.5 -31.5 -17.5 -77t18.5 -77t48.5 -31.5t48 32t18 77.5t-17.5 76.5t-49 31t-49 -31.5zM408 170q0 68 34 116
q39 57 106 57q68 0 106 -53q35 -47 35 -120q0 -74 -38 -124q-39 -50 -103 -50q-68 0 -107 57q-33 49 -33 117zM499.5 246.5q-16.5 -31.5 -16.5 -77.5t18 -77t48 -31t47.5 31.5t17.5 77.5t-17.5 77t-49 31t-48 -31.5zM615 691l4 -14l-438 -677h-87l-6 13l443 678h84z" />
    <glyph glyph-name="ampersand" unicode="&#x26;" horiz-adv-x="672" 
d="M675 29q-38 -32 -102 -32t-142 67q-73 -68 -178 -68q-96 0 -159 60q-62 58 -62 145q0 106 126 206q-54 92 -54 156q0 73 46 119q49 49 119.5 49t110.5 -39.5t40 -100.5q0 -91 -128 -199q43 -59 89 -112l52 -62q26 54 38 110h-45l-16 70h156l11 -14q-22 -131 -73 -223
l-8 -13q60 -62 77 -67q4 1 12.5 7.5t18.5 13.5l29 19zM367 128q-83 97 -164 209q-31 -30 -49 -61.5t-18 -79t33.5 -81t91.5 -33.5t106 46zM247 457q78 71 78 134q0 32 -17.5 48.5t-47 16.5t-45.5 -22.5t-16 -50.5q0 -48 48 -126z" />
    <glyph glyph-name="quotesingle" unicode="'" horiz-adv-x="182" 
d="M36 679l93 10l17 -30l-29 -202h-55z" />
    <glyph glyph-name="parenleft" unicode="(" horiz-adv-x="276" 
d="M153 -147q-63 127 -91 295q-11 67 -11 145t11 147.5t27 126.5q28 98 71 175h84q-65 -130 -89 -309q-9 -67 -9 -143t10.5 -144.5t25.5 -125.5q21 -81 62 -182h-84z" />
    <glyph glyph-name="parenright" unicode=")" horiz-adv-x="276" 
d="M116 742q109 -204 109 -452q0 -130 -37 -265q-23 -82 -65 -172l-7 -15h-84q41 101 59 170q39 150 39 283q0 255 -98 451h84z" />
    <glyph glyph-name="asterisk" unicode="*" horiz-adv-x="362" 
d="M196 597l91 83l40 -43l-6 -23l-113 -42l119 -38l-16 -56l-24 -6l-92 75l23 -121l-56 -12l-16 17l20 116l-91 -83l-40 43l6 23l113 42l-119 38l16 56l24 6l92 -75l-23 121l56 12l16 -17zM173 558h17l7 14l-8 14h-18l-7 -15z" />
    <glyph glyph-name="plus" unicode="+" horiz-adv-x="401" 
d="M240 518v-128h125v-75h-125v-150h-62l-13 12v138h-131v61l13 14h118v128h75z" />
    <glyph glyph-name="comma" unicode="," horiz-adv-x="214" 
d="M151 133q11 -44 11 -76.5t-8.5 -63.5t-21.5 -57q-24 -49 -58 -83l-52 30v14l50 102l-26 115z" />
    <glyph glyph-name="hyphen" unicode="-" horiz-adv-x="399" 
d="M58 305l12 14h265q6 0 6 -8v-67h-283v61z" />
    <glyph glyph-name="period" unicode="." horiz-adv-x="208" 
d="M62 13q-17 17 -17 42t17 42t41.5 17t42.5 -17.5t18 -41.5t-17.5 -41.5t-42.5 -17.5t-42 17z" />
    <glyph glyph-name="slash" unicode="/" horiz-adv-x="461" 
d="M440 690l-1 -14l-328 -676h-86l-3 13l328 677h90z" />
    <glyph glyph-name="zero" unicode="0" horiz-adv-x="583" 
d="M46 343q0 236 127 317q47 30 118 30q130 0 193 -108q53 -90 53 -239q0 -235 -128 -317q-47 -30 -118 -30q-130 0 -193 109q-52 89 -52 238zM151 343q0 -181 77 -241q26 -20 63 -20q71 0 108 76q33 68 33 185q0 182 -77 241q-27 20 -64.5 20t-64 -20.5t-42.5 -55.5
q-33 -69 -33 -185z" />
    <glyph glyph-name="one" unicode="1" horiz-adv-x="362" 
d="M154 83v496l-114 -23l-15 72l209 65l20 -9v-605l93 -12v-67h-295l-11 66z" />
    <glyph glyph-name="two" unicode="2" horiz-adv-x="518" 
d="M40 69q20 22 50 53.5t63.5 69t67.5 78.5t61 82q61 89 65 148v7q0 48 -33 75q-29 22 -64 22q-50 0 -89 -26l-27 -84l-112 60q35 64 92.5 100t129.5 36q88 0 144 -42q64 -47 64 -138q0 -93 -110 -233q-58 -75 -103.5 -122t-64.5 -69h201l39 107h66l-21 -193h-407z" />
    <glyph glyph-name="three" unicode="3" horiz-adv-x="523" 
d="M85 144q73 -62 156 -62q66 0 97.5 31t31.5 68.5t-13.5 59.5t-36.5 37q-42 27 -115 27h-51v86q104 0 150 20q58 26 58 96q0 49 -33 75q-29 23 -68 23t-60.5 -8.5t-35.5 -16.5l-37 -82l-101 58q35 64 95.5 99t144.5 35q79 0 137 -44q63 -49 63 -133q0 -57 -30.5 -98.5
t-81.5 -59.5q45 -15 78 -52q42 -47 42 -103.5t-20.5 -94t-52.5 -61.5q-64 -48 -147 -48q-140 0 -223 68z" />
    <glyph glyph-name="four" unicode="4" horiz-adv-x="518" 
d="M398 197v-115l81 -13v-68h-318v68l138 16v112h-264l-33 75l288 419h108v-408h82v-86h-82zM299 283v285l-199 -285h199z" />
    <glyph glyph-name="five" unicode="5" horiz-adv-x="502" 
d="M167 375q-46 0 -88 -6v289l32 32h319v-86h-256v-144h24q17 0 48.5 -1.5t73.5 -15.5t75 -41q74 -62 74 -167q0 -104 -78 -173q-76 -66 -182 -66q-61 0 -109.5 20t-80.5 49l49 77q65 -60 147 -60q64 0 107 42q42 40 42 104q0 80 -57 117q-46 30 -140 30z" />
    <glyph glyph-name="six" unicode="6" horiz-adv-x="557" 
d="M200.5 667.5q50.5 28.5 103 28.5t85 -10.5t56.5 -25.5q37 -23 64 -62l-95 -67l-50 71q-24 8 -52.5 8t-58 -18.5t-51.5 -51.5q-47 -69 -53 -168q23 26 61.5 45.5t87.5 19.5t89 -14.5t69 -42.5q62 -60 62 -160q0 -93 -60 -156q-64 -68 -159 -68q-129 0 -199 111
q-57 92 -57 232q0 152 72 251q35 49 85.5 77.5zM164 210q34 -128 130 -128q59 0 90 41q29 37 29 94q0 59 -34 97t-85 38q-55 0 -92 -41q-36 -40 -38 -101z" />
    <glyph glyph-name="seven" unicode="7" horiz-adv-x="444" 
d="M90 483h-63v207h394l18 -26l-209 -664h-103l-5 27l219 577h-226z" />
    <glyph glyph-name="eight" unicode="8" horiz-adv-x="532" 
d="M41 184q0 118 122 186q-38 25 -64.5 61.5t-26.5 84t17.5 79t45.5 53.5q59 48 133 48q77 0 134 -44q61 -49 61 -124q0 -70 -61 -120q-17 -15 -36 -28q62 -37 83 -65q42 -54 42 -121q0 -86 -69 -144q-64 -55 -155 -55q-93 0 -157 47q-69 52 -69 142zM243 327
q-97 -53 -97 -140q0 -51 42 -81q35 -25 70 -25t57 8.5t37 22.5q34 32 34 74q0 68 -90 114q-25 13 -53 27zM337 466.5q21 24.5 21 60t-25 59.5t-65 24t-65.5 -22.5t-25.5 -50t9.5 -44.5t24.5 -29q23 -19 73 -42q32 20 53 44.5z" />
    <glyph glyph-name="nine" unicode="9" horiz-adv-x="543" 
d="M98 143q70 -61 145 -61q134 0 148 218q-30 -29 -68.5 -42t-75.5 -13t-76 14t-67 41q-61 57 -61 158q0 99 57 166q61 70 168 70q121 0 181 -114q49 -93 49 -242q0 -143 -62 -238q-30 -47 -77 -75.5t-99 -28.5t-85 7.5t-59 18.5q-36 15 -74 43zM262 331q21 0 42 7.5
t38 22.5q39 35 43 86q-17 112 -75 148q-21 13 -49 13q-49 0 -81 -36t-32 -105q0 -67 34 -103q31 -33 80 -33z" />
    <glyph glyph-name="colon" unicode=":" horiz-adv-x="235" 
d="M75 389.5q-17 17.5 -17 42t17.5 42t42 17.5t42 -18t17.5 -42.5t-17.5 -41.5t-42.5 -17t-42 17.5zM75.5 153q-17.5 17 -17.5 42t17.5 42t42 17t42 -17.5t17.5 -41.5t-17.5 -41.5t-42 -17.5t-42 17z" />
    <glyph glyph-name="semicolon" unicode=";" horiz-adv-x="244" 
d="M74 289.5q-17 17.5 -17 42t17.5 42t42 17.5t42 -18t17.5 -42.5t-17.5 -41.5t-42.5 -17t-42 17.5zM173 133q11 -44 11 -76.5t-8.5 -63.5t-21.5 -57q-24 -49 -58 -83l-52 30v14l50 102l-26 115z" />
    <glyph glyph-name="less" unicode="&#x3c;" horiz-adv-x="423" 
d="M125 339l231 -138v-97l-327 202v68l327 198v-94z" />
    <glyph glyph-name="equal" unicode="=" horiz-adv-x="451" 
d="M390 308v-76h-329v76h329zM390 434v-76h-329v76h329z" />
    <glyph glyph-name="greater" unicode="&#x3e;" horiz-adv-x="423" 
d="M394 374v-68l-327 -202v97l231 138l-231 139v94z" />
    <glyph glyph-name="question" unicode="?" horiz-adv-x="408" 
d="M111 13.5q-17 17.5 -17 42t17 41.5t41.5 17t42.5 -17.5t18 -41.5t-18 -41.5t-42.5 -17.5t-41.5 17.5zM190 237l-79 -1l-2 10q-4 14 -4 43.5t12.5 51.5t31.5 39t41 32t41 32q44 38 44 88q0 30 -21.5 52.5t-63.5 22.5q-43 0 -63 -9l-27 -96h-61l17 159q85 30 138 30
t86.5 -12.5t55.5 -33.5q43 -41 43 -105q0 -85 -63 -143q-19 -17 -38 -31l-37 -26q-46 -33 -50 -82q-1 -12 -1 -21z" />
    <glyph glyph-name="at" unicode="@" horiz-adv-x="831" 
d="M438 -47q70 0 117 19l18 -4l-28 -86q-49 -15 -127.5 -15t-150 27.5t-123.5 79.5q-113 110 -113 296q0 90 32.5 161t86.5 121q112 101 277 101q159 0 263 -101q50 -47 78.5 -112t28.5 -127.5t-13.5 -108t-38.5 -80.5q-55 -76 -141 -76q-58 0 -85 31q-48 -31 -108 -31
q-81 0 -134 50q-59 56 -59 156q0 113 74 170q57 43 133 43q53 0 99 -22l36 14l27 -9v-286q0 -21 8 -27t21 -6t29 12t29 35q29 50 29 115t-19 114.5t-54 84.5q-76 76 -202 76q-130 0 -216 -84t-86 -216q0 -153 90 -237q82 -78 222 -78zM436 122q30 0 58 23q-1 10 -1 19v215
q-30 15 -58 15t-49 -8t-37 -24q-35 -37 -35 -104q0 -69 36 -106q29 -30 86 -30z" />
    <glyph glyph-name="A" unicode="A" horiz-adv-x="608" 
d="M-1 62l52 18l202 611h96l213 -611l46 -18l-11 -62h-235v59l88 21l-48 148h-214l-46 -148l86 -20v-60h-216zM214 314h160l-82 251z" />
    <glyph glyph-name="B" unicode="B" horiz-adv-x="577" 
d="M49 70l61 14v526l-64 6v75h231q108 0 172 -51q61 -49 61 -130q0 -57 -32 -102q-29 -41 -71 -54q54 -11 91 -50q40 -42 40 -104t-21.5 -100t-56.5 -60q-60 -40 -162 -40h-239zM405 500q0 105 -134 105h-61v-215h44q77 0 114 26.5t37 83.5zM210 86h78q98 0 132 56
q13 22 13 54t-12.5 53t-33.5 33q-39 22 -101 22h-76v-218z" />
    <glyph glyph-name="C" unicode="C" horiz-adv-x="582" 
d="M554 41q-63 -45 -177 -45q-138 0 -236 88q-107 97 -107 254q0 166 102 264q93 89 236 89q64 0 148 -19l19 -182h-68l-39 108q-19 7 -66 7t-90.5 -21t-73.5 -56q-63 -74 -63 -180q0 -115 69 -190q70 -76 186 -76q43 0 79 13t52 25z" />
    <glyph glyph-name="D" unicode="D" horiz-adv-x="633" 
d="M217 85q275 0 275 266q0 120 -72 189q-70 66 -187 66l-24 -1v-519zM110 85v526l-60 6v74h189q163 0 259 -87q99 -89 99 -254t-95 -258q-94 -92 -259 -92h-184l-10 71z" />
    <glyph glyph-name="E" unicode="E" horiz-adv-x="539" 
d="M49 691h426l20 -188h-63l-38 102h-186v-210h158v-86h-158v-223h196l35 101h63l-20 -187h-424l-10 71l61 13v527l-60 5v75z" />
    <glyph glyph-name="F" unicode="F" horiz-adv-x="511" 
d="M58 0l-10 71l61 13v527l-60 5v75h426l21 -188h-62l-40 102h-186v-210h158v-86h-158v-221l162 -23l-6 -65h-306z" />
    <glyph glyph-name="G" unicode="G" horiz-adv-x="615" 
d="M459 86l1 147l-114 14l18 71h195v-304q-72 -18 -157 -18t-150.5 23t-114.5 67q-104 93 -104 251q0 160 97 257t251 97q75 0 156 -21l15 -181h-73l-36 111q-30 5 -74 5t-88 -20t-75 -55q-68 -77 -68 -190q0 -117 72 -187q73 -71 195 -71q34 0 54 4z" />
    <glyph glyph-name="H" unicode="H" horiz-adv-x="672" 
d="M109 610l-60 5v76h210l10 -75l-60 -10v-207h254v211l-57 5v76h207l10 -75l-60 -10v-525l60 -8v-73h-207l-10 72l57 11v230h-254v-232l61 -8v-73h-211l-10 72l60 11v527z" />
    <glyph glyph-name="I" unicode="I" horiz-adv-x="319" 
d="M109 610l-63 5v76h218l10 -75l-65 -10v-525l65 -8v-73h-219l-9 72l63 11v527z" />
    <glyph glyph-name="J" unicode="J" horiz-adv-x="367" 
d="M61 126q44 -41 73 -41q37 0 37 55v466l-77 10l10 75h229v-76l-62 -5v-461q0 -89 -53 -128q-34 -25 -79 -25q-78 0 -131 51z" />
    <glyph glyph-name="K" unicode="K" horiz-adv-x="613" 
d="M595 71v-71h-139l-158 297l-89 -107v-109l61 -8v-73h-215l-9 72l63 11v527l-63 4v77h214l9 -74l-60 -11v-282l233 284l-71 11v72h221v-73l-33 -7l-192 -231l173 -299z" />
    <glyph glyph-name="L" unicode="L" horiz-adv-x="511" 
d="M49 691h215l9 -74l-65 -11v-520h196l35 101h63l-20 -187h-424l-10 71l61 11v529l-60 5v75z" />
    <glyph glyph-name="M" unicode="M" horiz-adv-x="854" 
d="M747 81l55 -11l-4 -70h-194l-8 72l58 13v514l-177 -584h-115l-171 589v-522l59 -11v-71h-193l-12 71l63 13v525l-50 5v77h206l162 -560l168 560h195l10 -77l-52 -8v-525z" />
    <glyph glyph-name="N" unicode="N" horiz-adv-x="696" 
d="M194 161l1 -71q0 -6 1 -9l57 -10v-71h-194l-12 71l63 13v525l-60 6v76h209l252 -595v513l-62 8v74h197l13 -75l-64 -12v-604h-148l-253 596v-435z" />
    <glyph glyph-name="O" unicode="O" 
d="M148 342q0 -108 44 -181q47 -79 133 -79q87 0 135 79q44 72 44 181q0 110 -44 184q-49 80 -135 80t-133 -80q-44 -74 -44 -184zM325 -4q-136 0 -212 104q-70 96 -70 244t70 244q76 104 212 104t213 -104q71 -97 71 -244t-71 -244q-77 -104 -213 -104z" />
    <glyph glyph-name="P" unicode="P" horiz-adv-x="553" 
d="M210 87q25 -5 145 -20l-3 -67h-296l-10 70l64 14v526l-63 5v76h211q139 0 210 -63q64 -58 64 -158q0 -117 -79 -175q-70 -51 -197 -51h-46v-157zM427 471q0 134 -182 134h-35v-275h42q92 0 136 42q39 37 39 99z" />
    <glyph glyph-name="Q" unicode="Q" 
d="M148 342q0 -108 44 -181q47 -79 133 -79q87 0 135 79q44 72 44 181q0 110 -44 184q-49 80 -135 80t-133 -80q-44 -74 -44 -184zM325 -4q-136 0 -212 104q-70 96 -70 244t70 244q76 104 212 104t213 -104q71 -97 71 -244t-71 -244q-77 -104 -213 -104zM508 -97l6 -33
l-89 -79q-43 35 -83.5 71.5t-82.5 73.5l39 42z" />
    <glyph glyph-name="R" unicode="R" horiz-adv-x="584" 
d="M110 84v526l-63 5v76h211q139 0 210 -63q64 -58 64 -158q0 -69 -35 -117t-95 -73l97 -199l57 -12v-69h-139l-112 256q-24 -3 -49 -3h-46v-170l79 -14v-69h-233l-10 70zM427 471q0 134 -182 134h-35v-266h42q89 0 136 43q39 34 39 89z" />
    <glyph glyph-name="S" unicode="S" horiz-adv-x="507" 
d="M52 34l7 169h70l18 -107q43 -16 86 -16q86 0 118 56q11 19 11 49.5t-18.5 55t-61 45.5t-84 38t-75 40.5t-55 58t-21.5 83t17.5 81.5t47.5 56q63 48 154 48q88 0 169 -30l14 -172h-69l-44 108q-30 10 -75.5 10t-77 -21t-31.5 -64q0 -50 50 -82q22 -15 49 -26.5t62.5 -27.5
t66.5 -38t50 -46q36 -45 36 -103t-19.5 -95.5t-52.5 -61.5q-62 -46 -164 -46t-178 38z" />
    <glyph glyph-name="T" unicode="T" horiz-adv-x="580" 
d="M125 66l114 20v519h-123l-41 -99h-61l21 185h510l22 -185h-61l-42 99h-125v-519l116 -20l-9 -66h-308z" />
    <glyph glyph-name="U" unicode="U" horiz-adv-x="647" 
d="M411 691h202v-74l-57 -10v-377q0 -116 -70 -178q-61 -56 -155 -56q-115 0 -177 61.5t-62 172.5v380l-62 6v75h231v-74l-69 -9v-375q0 -71 35 -111t107 -40q93 0 126 80q12 29 12 72v375l-61 9v73z" />
    <glyph glyph-name="V" unicode="V" horiz-adv-x="579" 
d="M575 623l-38 -13l-202 -610h-92l-200 610l-36 13v68h226l8 -62l-91 -19l147 -454l149 456l-90 17v62h219v-68z" />
    <glyph glyph-name="W" unicode="W" horiz-adv-x="894" 
d="M239 629l-73 -16l91 -500l149 560h100l150 -564l94 506l-82 15l6 61h215v-68l-59 -19l-118 -604h-132l-134 511l-135 -511h-133l-113 607l-50 15v69h215z" />
    <glyph glyph-name="X" unicode="X" horiz-adv-x="574" 
d="M20 62l44 7l163 266l-165 274l-42 12v70h223l8 -61l-71 -15l117 -191l112 190l-59 14v63h203v-73l-43 -7l-163 -268l162 -265l44 -12v-66h-226v62l63 5l-113 187l-110 -188l56 -7v-59h-203v62z" />
    <glyph glyph-name="Y" unicode="Y" horiz-adv-x="563" 
d="M556 616l-43 -10l-180 -360v-163l116 -20l-10 -63h-310l-10 63l115 20v169l-190 355l-40 9v75h213l7 -66l-64 -12l136 -250l122 251l-57 11v66h195v-75z" />
    <glyph glyph-name="Z" unicode="Z" horiz-adv-x="553" 
d="M504 598q-32 -49 -74 -114t-87.5 -134.5t-91 -138t-82.5 -125.5h255l19 106h64v-192h-454l-16 77l355 528h-259l-20 -107h-63v193h442z" />
    <glyph glyph-name="bracketleft" unicode="[" horiz-adv-x="321" 
d="M318 702q6 0 6 -7v-67h-151v-733h151v-66q0 -8 -6 -8h-229l-11 14v855l8 12h232z" />
    <glyph glyph-name="backslash" unicode="\" horiz-adv-x="460" 
d="M21 691h89l329 -678l-8 -13h-81l-329 679v12z" />
    <glyph glyph-name="bracketright" unicode="]" horiz-adv-x="321" 
d="M243 -165l-11 -14h-229q-6 0 -6 8v66h151v733h-151v67q0 7 6 7h232l8 -12v-855z" />
    <glyph glyph-name="asciicircum" unicode="^" horiz-adv-x="443" 
d="M235 724l156 -163l-2 -5h-81l-87 59l-86 -59h-80l-3 6l157 162h26z" />
    <glyph glyph-name="underscore" unicode="_" horiz-adv-x="563" 
d="M5 -13l14 13h533q6 0 6 -7v-68h-553v62z" />
    <glyph glyph-name="grave" unicode="`" horiz-adv-x="302" 
d="M52 632l60 71l31 -8l107 -158l-37 -37z" />
    <glyph glyph-name="a" unicode="a" horiz-adv-x="460" 
d="M299 41q-44 -46 -112 -46t-109.5 38t-41.5 91t21.5 84t56.5 49q61 31 179 33v71q0 20 -18.5 36.5t-57.5 16.5q-37 0 -55 -16l-20 -65l-105 31q23 83 113 112q32 10 72 10q78 0 119.5 -39t41.5 -102v-256q0 -21 14 -21q7 0 21 7l22 -53q-31 -26 -69 -26q-57 0 -72 45z
M180 71.5q12 -2.5 27 -2.5t30.5 6.5t26.5 15.5q21 16 29 40v86q-66 0 -97 -10.5t-48 -27t-17 -41t7.5 -37t18.5 -20t23 -10z" />
    <glyph glyph-name="b" unicode="b" horiz-adv-x="490" 
d="M144 19q-48 -24 -52 -25l-23 14v648l-58 -4l-9 60l127 19l30 -32v-240q42 27 92 27t86 -17t62 -48q55 -66 55 -174q0 -136 -74 -201q-57 -50 -140 -50q-55 0 -96 23zM240 410q-24 0 -46.5 -9.5t-34.5 -23.5v-280q8 -10 30.5 -18t44.5 -8t43 7.5t39 27.5q43 44 43 135
q0 86 -37 130q-32 39 -82 39z" />
    <glyph glyph-name="c" unicode="c" horiz-adv-x="432" 
d="M396 42q-60 -46 -146 -46q-90 0 -148 58q-66 64 -66 179q0 131 70 199q56 54 145 54q65 0 113 -34q39 -27 52 -57l-99 -47l-32 58q-20 5 -33 5q-121 0 -121 -176q0 -75 36.5 -119.5t96.5 -44.5q28 0 59 10.5t51 30.5z" />
    <glyph glyph-name="d" unicode="d" horiz-adv-x="502" 
d="M341 29q-47 -33 -99.5 -33t-88.5 17t-62 48q-55 66 -55 174q0 136 74 201q57 50 140 50q42 0 80 -16v186l-57 -4l-9 60l125 21l31 -34v-610q0 -21 14 -21q7 0 21 7l22 -53q-31 -26 -75 -26t-61 33zM330 104v282q-9 9 -30.5 17t-43.5 8t-43 -7.5t-39 -27.5
q-43 -44 -43 -135q0 -86 37 -130q32 -39 82 -39t80 32z" />
    <glyph glyph-name="e" unicode="e" horiz-adv-x="444" 
d="M408 354q0 -31 -10.5 -60.5t-40.5 -53.5q-68 -54 -222 -56q16 -79 81 -104q23 -9 50 -9t46 4.5t33 10.5q27 13 38 24l22 -70q-11 -11 -37 -22q-100 -41 -196 -7q-87 31 -120 121q-17 45 -17 105.5t18 107t48 77.5q60 64 150 64q66 0 111 -35q46 -37 46 -97zM298 392
q-15 18 -43.5 18t-48 -9t-35.5 -27q-35 -41 -41 -116q73 0 109 11.5t55 30t19 46.5t-15 46z" />
    <glyph glyph-name="f" unicode="f" horiz-adv-x="337" 
d="M17 476l7 10h75v91q0 76 41 117q36 36 96 36q69 0 128 -42q12 -8 15 -11l-71 -83l-64 59q-6 2 -14 2q-40 0 -40 -66v-103h113q5 0 5 -6v-69h-118v-340l114 -17v-54h-250l-12 54l57 12v345h-68z" />
    <glyph glyph-name="g" unicode="g" horiz-adv-x="488" 
d="M116 155q-77 51 -77 147q0 80 55 132q53 52 129.5 52t130.5 -44l99 50l21 -3l10 -83l-90 -11q24 -44 24 -90.5t-16.5 -79.5t-43.5 -55q-53 -44 -130 -44q-25 0 -44 4l-25 -39l4 -17q10 -2 43 -6.5t76 -14.5t73.5 -25.5t48.5 -33.5q30 -33 30 -83t-18 -84t-47 -57
q-59 -45 -144 -45q-90 0 -146 38q-61 41 -61 111q0 94 83 135q-24 20 -24 63.5t39 82.5zM224 411q-41 -2 -65.5 -31t-24.5 -65.5t8 -56.5t21 -32q25 -25 65.5 -25t67.5 27t27 78t-28.5 78t-66.5 27h-4zM330.5 -65.5q-27.5 12.5 -77 23t-76.5 18.5q-71 -29 -71 -88
q0 -33 37 -55q34 -20 88 -20q53 0 89 23q38 23 38 54.5t-27.5 44z" />
    <glyph glyph-name="h" unicode="h" horiz-adv-x="521" 
d="M174 450q50 36 118 36q104 0 136 -76q12 -26 12 -64v-276l60 -16v-54h-199l-12 54l61 14v263q0 45 -21 61.5t-44.5 16.5t-39 -4t-29.5 -10q-28 -12 -42 -26v-299l59 -16v-54h-199l-12 54l62 14v588l-57 -4l-9 60l125 21l31 -34v-249z" />
    <glyph glyph-name="i" unicode="i" horiz-adv-x="268" 
d="M184 70l59 -16v-54h-200l-11 54l62 14v340l-55 -4l-10 60l123 22l32 -32v-384zM62 666q0 26 18 44t44 18t44 -19t18 -44t-18 -43t-44 -18t-44 18t-18 44z" />
    <glyph glyph-name="j" unicode="j" horiz-adv-x="243" 
d="M50 -196q35 0 35 61v543l-53 -4l-9 60l121 22l31 -32v-578q0 -79 -32.5 -113.5t-87.5 -34.5q-51 0 -92 26l38 73q7 -5 19.5 -14t29.5 -9zM52 666q0 26 18 44t44 18t44 -19t18 -44t-18 -43t-44.5 -18t-44 18t-17.5 44z" />
    <glyph glyph-name="k" unicode="k" horiz-adv-x="485" 
d="M174 264l153 159h-49l-8 63h159l24 -46l-155 -150l115 -222l53 -12v-56h-125l-114 221l-53 -51v-104l59 -12v-54h-199l-12 54l62 14v588l-57 -4l-9 60l125 21l31 -34v-435z" />
    <glyph glyph-name="l" unicode="l" horiz-adv-x="260" 
d="M174 70l63 -16v-54h-204l-12 54l63 14v588l-57 -4l-10 60l125 21l32 -34v-629z" />
    <glyph glyph-name="m" unicode="m" horiz-adv-x="797" 
d="M448 363l1 -29v-264l60 -16v-54h-199l-12 54l61 14v263q0 45 -21 61.5t-52 16.5t-60 -13t-42 -26v-300l58 -16v-54h-199l-12 54l63 14v340l-55 -4l-10 60q13 2 30 5.5t34 6.5t33 5.5t26 4.5l29 -37q48 37 125.5 37t114.5 -48q65 48 146 48q104 0 138 -76q12 -26 12 -64
v-276l59 -16v-54h-200l-11 54l62 14v263q0 42 -25 62q-21 16 -53 16t-59.5 -12t-41.5 -24v-10z" />
    <glyph glyph-name="n" unicode="n" horiz-adv-x="530" 
d="M181 449q48 37 120 37q104 0 137 -76q11 -26 11 -64v-275l60 -17v-54h-199l-12 54l61 14v263q0 45 -21 61.5t-52 16.5t-60 -13t-42 -26v-300l58 -16v-54h-199l-12 54l63 14v340l-55 -4l-10 60q13 2 30 5.5t34 6.5t33 5.5t26 4.5z" />
    <glyph glyph-name="o" unicode="o" horiz-adv-x="495" 
d="M163 112.5q32 -41.5 84 -41.5t85 40.5t33 123.5t-31.5 129.5t-85.5 46.5q-57 0 -88 -49q-29 -47 -29 -127.5t32 -122zM36 245q0 58 17 103t47 76q58 62 148 62q92 0 152 -66t60 -177q0 -116 -64 -183q-59 -64 -148 -64q-93 0 -152 68q-60 67 -60 181z" />
    <glyph glyph-name="p" unicode="p" horiz-adv-x="505" 
d="M171 457q45 29 95 29t86 -17t62 -48q55 -66 55 -174q0 -136 -74 -201q-57 -50 -140 -50q-46 0 -80 15v-210l122 -22v-53h-262l-12 53l62 15v615l-57 -4l-9 60l125 21zM175 378v-282q9 -10 30.5 -17.5t43.5 -7.5t43 7.5t40 27.5q42 44 42 135q0 86 -36 130q-33 39 -82 39
t-81 -32z" />
    <glyph glyph-name="q" unicode="q" horiz-adv-x="489" 
d="M330 22q-40 -26 -90.5 -26t-86.5 17t-62 48q-55 66 -55 174q0 136 74 201q57 50 140 50q50 0 90 -20l57 21l23 -19v-650l55 -19v-73h-257l-11 63l123 24v209zM330 104v282q-9 9 -30.5 17t-43.5 8t-43 -7.5t-39 -27.5q-43 -44 -43 -135q0 -86 37 -130q32 -39 82 -39t80 32
z" />
    <glyph glyph-name="r" unicode="r" horiz-adv-x="405" 
d="M178 439q40 46 104 46q44 0 74.5 -22t45.5 -54l-99 -50l-31 48q-34 0 -61 -29q-28 -29 -28 -77v-216q0 -4 17 -7l113 -24v-54h-270l-12 54l62 14v337h-55l-9 59q56 9 118 21z" />
    <glyph glyph-name="s" unicode="s" horiz-adv-x="404" 
d="M206 486q32 0 59 -9t47 -23q38 -26 59 -67l-102 -39l-23 51q-20 10 -43 10t-42 -13.5t-19 -39.5t25 -42.5t69 -34.5t67.5 -34t36.5 -34q25 -33 25 -73.5t-15 -66.5t-39 -43q-47 -32 -114 -32q-56 0 -109 31q-49 30 -64 74l103 39l24 -58q23 -10 42.5 -10t31.5 3t22 9
q23 15 23 44q0 37 -45.5 56.5t-78 35.5t-54.5 34q-45 38 -45 100q0 61 49 98q46 34 110 34z" />
    <glyph glyph-name="t" unicode="t" horiz-adv-x="325" 
d="M292 101q2 -7 21 -66q-14 -13 -41 -26t-70 -13t-72.5 26t-29.5 85v304h-82l-14 65l7 10h89v167l80 19l5 -15v-171h104q5 0 5 -6v-69h-109v-287q0 -32 9.5 -41.5t24 -9.5t24.5 3t19 8q19 8 30 17z" />
    <glyph glyph-name="u" unicode="u" horiz-adv-x="510" 
d="M349 41q-47 -45 -112 -45q-110 0 -147 90q-13 31 -13 75v245h-55l-10 58l124 22l31 -33v-271q0 -94 55 -106q15 -4 28.5 -4t27 3.5t26.5 10.5q29 16 38 39v281h-52l-9 58l122 23l29 -34v-353q0 -33 18 -33l18 2l14 -45q-28 -28 -65 -28q-52 0 -68 45z" />
    <glyph glyph-name="v" unicode="v" horiz-adv-x="467" 
d="M277 -5h-79l-151 425h-39l-8 57l121 9l127 -369l123 303h-54l-7 57l121 9l32 -38z" />
    <glyph glyph-name="w" unicode="w" horiz-adv-x="704" 
d="M146 -3l-90 419h-44l-7 62l133 10l78 -383l94 370h109l102 -371l77 312h-45l-7 62l111 9l22 -35l-109 -455h-118l-95 357l-92 -357h-119z" />
    <glyph glyph-name="x" unicode="x" horiz-adv-x="464" 
d="M246 310l96 176h90v-63h-38l-107 -182l106 -176h43v-65h-117l-101 169l-97 -169h-89l-4 63h42l104 179l-105 178h-41v66h112z" />
    <glyph glyph-name="y" unicode="y" horiz-adv-x="480" 
d="M62 -166q28 -34 59 -34q32 0 55 60q7 17 13 32l22 59l-162 465h-40l-8 62l124 8l135 -405l126 335h-52l-7 61l121 9l26 -34q-90 -255 -161 -437.5t-82.5 -206t-26.5 -42.5q-35 -41 -90 -41q-44 0 -89 40z" />
    <glyph glyph-name="z" unicode="z" horiz-adv-x="423" 
d="M272 410q-78 2 -157 2l-14 -78h-58v152h337v-78l-230 -333h159l14 82h57v-157h-337v77z" />
    <glyph glyph-name="braceleft" unicode="{" horiz-adv-x="337" 
d="M116 38l2 97q0 69 -69 91q-20 7 -42 7v83q48 0 79.5 28t31.5 82l-1 38l-1 45q0 100 26 143q32 54 123 54q26 0 49.5 -4.5t24.5 -5t3 -0.5l-30 -96l-71 24q-31 -17 -31 -98l1 -100q0 -145 -105 -153q105 -4 105 -152l-1 -88q0 -70 14 -96q6 -11 17 -16l71 24l30 -96
q-59 -11 -77 -11q-89 0 -124 62q-25 44 -25 138z" />
    <glyph glyph-name="bar" unicode="|" horiz-adv-x="247" 
d="M78 -214v908h91v-908h-91z" />
    <glyph glyph-name="braceright" unicode="}" horiz-adv-x="337" 
d="M-5 696q60 10 93 10t62 -14t45 -40q26 -42 26 -143l-1 -45l-1 -38q0 -54 31.5 -82t79.5 -28v-83q-45 0 -78 -25q-33 -26 -33 -73l2 -97q0 -94 -25 -138q-35 -62 -124 -62q-21 0 -41 4t-36 7l30 96l71 -24q31 14 31 112l-1 88q0 149 106 155q-106 0 -106 150l1 100
q0 81 -31 98l-71 -24z" />
    <glyph glyph-name="asciitilde" unicode="~" horiz-adv-x="410" 
d="M391 611q-53 -59 -104 -59q-27 0 -57 14t-47 20.5t-39 6.5t-37.5 -15.5t-22.5 -33.5l-59 35l1 13q17 36 37 52q39 31 80 31q34 0 77 -23l31 -15q14 -7 26 -7l55 49z" />
    <glyph glyph-name="exclamdown" unicode="&#xa1;" horiz-adv-x="254" 
d="M84 391q-17 17 -17 42t17 42t41.5 17t42.5 -17.5t18 -41.5t-18 -41.5t-42.5 -17.5t-41.5 17zM91 251h69l37 -415l-21 -38l-117 13z" />
    <glyph glyph-name="cent" unicode="&#xa2;" horiz-adv-x="437" 
d="M391 42q-44 -33 -101 -42v-210h-90v210q-73 15 -118 71q-51 62 -51 162q0 114 51 179q45 56 118 69v205h90v-205q47 -9 82 -39q23 -19 39 -47l-99 -47l-32 58q-20 5 -33 5q-121 0 -121 -176q0 -75 36.5 -119.5t96.5 -44.5q28 0 59 10.5t51 30.5z" />
    <glyph glyph-name="sterling" unicode="&#xa3;" horiz-adv-x="527" 
d="M150 413l-2 94q0 141 100 173q29 10 60.5 10t56 -6t44.5 -14q32 -14 56 -32l-71 -91l-80 68q-47 -2 -61 -40q-9 -24 -9 -110v-52h140q7 0 7 -8v-67h-150q-7 -135 -40 -202q55 -4 154 -40q19 -7 30 -7l76 51l39 -106q-35 -38 -113 -38q-49 0 -96.5 15.5t-70.5 22.5t-50 7
t-43.5 -14t-21.5 -30h-73q-1 2 -1 5q-1 3 -1 18.5t10.5 38t31.5 40.5q40 40 55.5 104t19.5 135h-89v66l8 9h84z" />
    <glyph glyph-name="currency" unicode="&#xa4;" horiz-adv-x="602" 
d="M118 222q-38 55 -38 124q0 70 40 127l-69 70l69 71l75 -75q48 27 105.5 27t105.5 -28l76 76l70 -71l-72 -71q40 -57 40 -126q0 -68 -38 -123l70 -68l-70 -71l-73 72q-50 -29 -108.5 -29t-108.5 28l-72 -71l-69 71zM175 346q0 -55 35 -91t90 -36t90 36t35 91t-35 91
t-90 36t-90 -36t-35 -91z" />
    <glyph glyph-name="yen" unicode="&#xa5;" horiz-adv-x="610" 
d="M258 211v21h-119v77h112l-186 300l-40 9v73h207l7 -63l-61 -13l139 -220l137 221l-59 11v64h190v-73l-38 -10l-188 -299h109v-77h-110v-21h110v-77h-110v-51l114 -20l-8 -63h-308l-9 63l111 20v51h-119v77h119z" />
    <glyph glyph-name="brokenbar" unicode="&#xa6;" horiz-adv-x="258" 
d="M177 194v-380h-96v380h96zM177 690v-380h-96v380h96z" />
    <glyph glyph-name="section" unicode="&#xa7;" horiz-adv-x="503" 
d="M109 406q-57 48 -57 117q0 72 58 119q60 49 149 49q86 0 174 -30l13 -172h-69l-43 113q-28 10 -73.5 10t-75 -22t-29.5 -51t15.5 -47t39 -32.5t51 -25.5t60 -27t60.5 -35.5t45 -39.5q32 -39 32 -96.5t-54 -111.5q46 -44 46 -107q0 -87 -69 -136q-61 -42 -157 -42
q-55 0 -95.5 10.5t-81.5 26.5l8 169h68l14 -113q48 -14 81 -14t54 4.5t37 15.5q37 23 37 59.5t-21.5 57.5t-54.5 38.5t-70.5 34t-70.5 38.5q-76 49 -76 119.5t55 120.5zM331 177q23 31 23 54t-15.5 40.5t-40 32t-55 28t-60.5 28.5q-25 -25 -25 -56t30 -52t64 -36
q57 -27 79 -39z" />
    <glyph glyph-name="dieresis" unicode="&#xa8;" horiz-adv-x="386" 
d="M216 609q0 23 17.5 41t42 18t41.5 -18t17 -41.5t-17.5 -41t-41 -17.5t-41.5 18t-18 41zM69 567.5q-17 17.5 -17 41t16.5 41.5t41 18t42 -18t17.5 -42t-18 -41t-41.5 -17t-40.5 17.5z" />
    <glyph glyph-name="copyright" unicode="&#xa9;" horiz-adv-x="716" 
d="M290 290.5q30 -31.5 74.5 -31.5t80.5 22l26 -65q-48 -31 -94 -31t-80 13t-59 36q-55 51 -55 133q0 89 55 142q52 51 133 51q28 0 46 -2l26 -5l9 -121h-47l-14 51l-18 1q-51 0 -82 -28t-31 -81t30 -84.5zM120 374q0 -50 18.5 -93t51.5 -75q69 -70 168 -70t168.5 69.5
t69.5 168.5t-69.5 168.5t-168.5 69.5t-168.5 -69.5t-69.5 -168.5zM57.5 246.5q-25.5 59.5 -25.5 127t25.5 127t69.5 104t103.5 70t127 25.5t127 -25.5t104 -70t70 -104t25.5 -127t-25.5 -127t-70 -103.5t-104 -69.5t-127 -25.5t-127 25.5t-103.5 69.5t-69.5 103.5z" />
    <glyph glyph-name="ordfeminine" unicode="&#xaa;" horiz-adv-x="342" 
d="M206 443q-26 -26 -70 -26t-71 24t-27 57t13.5 52t35.5 29q37 17 107 17v9q0 23 -11.5 30t-22.5 7q-15 0 -30 -3l-4 -24l-87 17q9 38 45 60q31 18 73.5 18t67 -13.5t35.5 -36.5t13 -54t2 -67.5t1.5 -45.5t6.5 -9l13 3l15 -46q-29 -22 -59.5 -22t-45.5 24zM194 546
q-76 0 -76 -39q0 -10 6.5 -19.5t24.5 -9.5q34 0 45 25v43z" />
    <glyph glyph-name="guillemotleft" unicode="&#xab;" horiz-adv-x="461" 
d="M6 339l213 214l54 -54l-161 -161l161 -162l-54 -53zM176 339l192 193l54 -54l-140 -140l140 -141l-54 -53z" />
    <glyph glyph-name="logicalnot" unicode="&#xac;" horiz-adv-x="588" 
d="M49 380v64l11 11h453l11 -11v-202q0 -7 -8 -7h-70v145h-397z" />
    <glyph glyph-name="uni00AD" unicode="&#xad;" horiz-adv-x="403" 
d="M-28 312v86h458v-86h-458z" />
    <glyph glyph-name="registered" unicode="&#xae;" horiz-adv-x="716" 
d="M57.5 246.5q-25.5 59.5 -25.5 127t25.5 127t69.5 104t103.5 70t127 25.5t127 -25.5t104 -70t70 -104t25.5 -127t-25.5 -127t-70 -103.5t-104 -69.5t-127 -25.5t-127 25.5t-103.5 69.5t-69.5 103.5zM120 374q0 -50 18.5 -93t51.5 -75q69 -70 168 -70t168.5 69.5
t69.5 168.5t-69.5 168.5t-168.5 69.5t-168.5 -69.5t-69.5 -168.5zM495 436q0 -72 -65 -103l46 -84l31 -6v-50h-88l-57 123q-11 -2 -21 -2h-20v-64l46 -11v-46h-134l-4 48l23 8v247l-24 5v58h100q85 0 128 -36q39 -32 39 -87zM335 379q87 0 87 56.5t-83 56.5h-18v-113h14z
" />
    <glyph glyph-name="macron" unicode="&#xaf;" horiz-adv-x="442" 
d="M57 614v76h328v-76h-328z" />
    <glyph glyph-name="degree" unicode="&#xb0;" horiz-adv-x="305" 
d="M112 596q0 -40 20 -58q7 -7 19.5 -7t20 6.5t12.5 16.5q9 18 9 42q0 38 -21 56q-8 7 -20.5 7t-20 -6.5t-11.5 -16.5q-8 -17 -8 -40zM33 596q0 58 31 95q32 38 88 38q55 0 88 -38q32 -38 32 -95.5t-31.5 -95t-89 -37.5t-88 37.5t-30.5 95.5z" />
    <glyph glyph-name="plusminus" unicode="&#xb1;" horiz-adv-x="455" 
d="M189 487v117h76v-117h127v-76h-127v-129h-76v129h-126v76h126zM392 245v-76h-329v76h329z" />
    <glyph glyph-name="twosuperior" unicode="&#xb2;" horiz-adv-x="300" 
d="M172 614q0 33 -33 33q-11 0 -21 -4l-15 -36l-68 21q14 42 47 61.5t60.5 19.5t45 -5.5t31.5 -16.5q32 -25 32 -60t-12 -58t-28.5 -40.5t-34 -30.5t-27.5 -22h52l15 34h42l-11 -92h-191l-10 43l35 31q64 59 77.5 83t13.5 39z" />
    <glyph glyph-name="threesuperior" unicode="&#xb3;" horiz-adv-x="295" 
d="M248 632q0 -52 -49 -63q22 -5 40.5 -20t18.5 -42.5t-10 -44t-26 -27.5q-32 -21 -75 -21q-70 0 -112 42l31 53q17 -14 33 -24.5t38 -10.5t32.5 10.5t10.5 27.5q0 29 -71 29v48q61 0 61 35q0 8 -7 16t-17 8q-26 0 -28 -5l-14 -30l-66 22q29 74 114 74q35 0 56 -15
q40 -29 40 -62z" />
    <glyph glyph-name="acute" unicode="&#xb4;" horiz-adv-x="313" 
d="M168 700l32 8l61 -81l-168 -122l-41 44z" />
    <glyph glyph-name="mu" unicode="&#xb5;" horiz-adv-x="536" 
d="M183 147q9 -75 85 -75q35 0 70 27q11 9 17 21v285h-49l-10 59l122 23l29 -34v-353q0 -21 4.5 -27t14.5 -6l17 2l14 -45q-28 -28 -72 -28t-62 43q-43 -43 -107 -43q-43 0 -77 14l3 -15v-269h-92v680h-54l-9 58l124 22l31 -32v-38l1 -114v-155z" />
    <glyph glyph-name="mu" unicode="&#x3bc;" horiz-adv-x="536" 
d="M183 147q9 -75 85 -75q35 0 70 27q11 9 17 21v285h-49l-10 59l122 23l29 -34v-353q0 -21 4.5 -27t14.5 -6l17 2l14 -45q-28 -28 -72 -28t-62 43q-43 -43 -107 -43q-43 0 -77 14l3 -15v-269h-92v680h-54l-9 58l124 22l31 -32v-38l1 -114v-155z" />
    <glyph glyph-name="paragraph" unicode="&#xb6;" horiz-adv-x="584" 
d="M350 133l-1 -33q0 -40 -91 -113l-66 90l68 43v179q-110 5 -171 59t-61 142q0 75 46 126q60 65 173 65h281v-80h-48v-611h-85v611h-45v-478z" />
    <glyph glyph-name="periodcentered" unicode="&#xb7;" horiz-adv-x="237" 
d="M179 384l-1 -145h-119v160h107z" />
    <glyph glyph-name="cedilla" unicode="&#xb8;" horiz-adv-x="406" 
d="M141 -82l35 97h99l-23 -58q37 -10 64.5 -36.5t27.5 -77t-40.5 -85t-111.5 -34.5q-72 0 -120 27l43 86l71 -47q38 0 57 27q7 10 7 28.5t-18 35.5t-61 17l-13 1z" />
    <glyph glyph-name="onesuperior" unicode="&#xb9;" horiz-adv-x="237" 
d="M87 465v179l-44 -8l-9 47l118 34l11 -16v-233l36 -8v-42h-147l-3 40z" />
    <glyph glyph-name="ordmasculine" unicode="&#xba;" horiz-adv-x="334" 
d="M127.5 614q-13.5 -22 -13.5 -54t13.5 -52t39.5 -20t40 19.5t14 52.5t-13.5 54.5t-40 21.5t-40 -22zM44 497q-10 28 -10 65.5t10.5 65.5t28.5 46q36 37 94 37q59 0 95 -37q38 -40 38 -111q0 -108 -80 -139q-25 -10 -53 -10q-91 0 -123 83z" />
    <glyph glyph-name="guillemotright" unicode="&#xbb;" horiz-adv-x="462" 
d="M350 337l-161 162l55 54l213 -216l-213 -214l-54 53zM179 338l-139 140l54 54l192 -195l-192 -193l-54 53z" />
    <glyph glyph-name="onequarter" unicode="&#xbc;" horiz-adv-x="656" 
d="M578 108v-53l42 -6v-49h-206l-4 44l84 12v52h-159v73l155 205h88v-212h47v-66h-47zM517 691l-1 -14l-333 -688l-86 11l-3 2l334 689h89zM175 371q0 -9 36 -9v-47h-165v45l45 7v255l-52 -8l-8 51l133 38l12 -8v-56q0 -6 -1 -12v-256zM494 174v116l-90 -116h90z" />
    <glyph glyph-name="onehalf" unicode="&#xbd;" horiz-adv-x="701" 
d="M519 691l-1 -14l-333 -688l-86 11l-3 2l334 689h89zM395 49q18 19 45.5 45.5t53.5 57.5q62 76 62 129q0 23 -14 31t-26 8q-13 0 -28 -6l-24 -57l-85 40q22 45 54 68t74 23t66 -9t39 -25q31 -31 31 -80q0 -69 -75 -152q-21 -24 -41 -46l-10 -11h89l21 56h45l-13 -121h-251
zM177 371q0 -9 36 -9v-47h-165v45l45 7v255l-52 -8l-8 51l133 38l12 -8v-56q0 -6 -1 -12v-256z" />
    <glyph glyph-name="threequarters" unicode="&#xbe;" horiz-adv-x="706" 
d="M626 108v-53l42 -6v-49h-206l-4 44l84 12v52h-159v73l155 205h88v-212h47v-66h-47zM572 691l-1 -14l-333 -688l-86 11l-3 2l333 689h90zM220 427q0 55 -84 55h-13v58h13q39 0 53 7q28 14 28 38.5t-18 36t-34 11.5q-17 0 -37 -8l-23 -49l-76 35q22 59 91 82q24 8 51.5 8
t50.5 -6.5t40 -18.5q38 -27 38 -78q0 -30 -16 -53.5t-45 -32.5q32 -9 49.5 -31t17.5 -53q0 -58 -47 -90q-41 -29 -91 -29q-81 0 -128 35l54 56q29 -23 65 -23t55 27q6 9 6 23zM542 174v116l-90 -116h90z" />
    <glyph glyph-name="questiondown" unicode="&#xbf;" horiz-adv-x="391" 
d="M289.5 469.5q17.5 -17.5 17.5 -42t-18 -41.5t-43 -17t-41.5 17t-16.5 42t17 42t42 17t42.5 -17.5zM211 247l79 1l2 -10q3 -15 3 -43t-12.5 -52t-31 -42.5t-40 -33t-39.5 -31.5q-44 -38 -44 -84q0 -48 42 -68q15 -7 34 -7q41 0 66 9l26 95h61l-17 -158q-32 -11 -66.5 -20
t-78.5 -9q-83 0 -127.5 41t-44.5 103.5t28 103.5t70.5 72.5t66 57t23.5 63.5v12z" />
    <glyph glyph-name="Agrave" unicode="&#xc0;" horiz-adv-x="608" 
d="M362 59l88 21l-48 150h-214l-46 -150l86 -20v-60h-216l-13 62l52 18l202 611h96l213 -611l46 -18l-11 -62h-235v59zM189 843l56 82l34 -6l140 -155l-37 -44zM214 314h160l-82 251z" />
    <glyph glyph-name="Aacute" unicode="&#xc1;" horiz-adv-x="608" 
d="M-1 62l52 18l202 611h96l213 -611l46 -18l-11 -62h-235v59l88 21l-48 148h-214l-46 -148l86 -20v-60h-216zM332 928l33 4l58 -91l-195 -112l-39 51zM214 314h160l-82 251z" />
    <glyph glyph-name="Acircumflex" unicode="&#xc2;" horiz-adv-x="608" 
d="M-1 62l52 18l202 611h96l213 -611l46 -18l-11 -62h-235v59l88 21l-48 148h-214l-46 -148l86 -20v-60h-216zM317 894l156 -163l-2 -5h-81l-87 59l-86 -59h-80l-3 6l157 162h26zM214 314h160l-82 251z" />
    <glyph glyph-name="Atilde" unicode="&#xc3;" horiz-adv-x="608" 
d="M-1 62l52 18l202 611h96l213 -611l46 -18l-11 -62h-235v59l88 21l-48 148h-214l-46 -148l86 -20v-60h-216zM504 791q-55 -61 -100 -61q-24 0 -41 7.5t-32.5 16.5t-31.5 16.5t-42.5 7.5t-42.5 -17t-24 -34l-56 34v17q22 49 72 70q22 9 55.5 9t62 -16t51.5 -33l9 -6l61 56z
M214 314h160l-82 251z" />
    <glyph glyph-name="Adieresis" unicode="&#xc4;" horiz-adv-x="608" 
d="M-1 62l52 18l202 611h96l213 -611l46 -18l-11 -62h-235v59l88 21l-48 148h-214l-46 -148l86 -20v-60h-216zM214 314h160l-82 251zM348.5 828.5q-19.5 19.5 -19.5 45t19 44.5t45.5 19t45 -19t18.5 -45t-19 -45t-44.5 -19t-45 19.5zM152 873q0 26 18 45t44.5 19t45 -19
t18.5 -45.5t-19.5 -45t-44.5 -18.5t-43.5 19t-18.5 45z" />
    <glyph glyph-name="Aring" unicode="&#xc5;" horiz-adv-x="604" 
d="M357 662l203 -582l46 -18l-11 -62h-235v59l88 21l-48 148h-214l-46 -148l86 -20v-60h-216l-13 62l52 18l192 582q-42 29 -42 83q0 42 29 71t71 29t71.5 -29.5t29.5 -76.5t-43 -77zM212 314h160l-82 251zM261 745q0 -18 10.5 -28t28 -10t28 10t10.5 28t-10.5 28t-28 10
t-28 -10t-10.5 -28z" />
    <glyph glyph-name="AE" unicode="&#xc6;" horiz-adv-x="786" 
d="M-12 62l52 18l256 611h426l20 -188h-63l-38 102h-186v-210h158v-86h-158v-223h196l35 101h63l-20 -187h-424l-10 71l61 13v174h-156l-71 -178l88 -20v-60h-216zM342 612l-107 -268h121v267z" />
    <glyph glyph-name="Ccedilla" unicode="&#xc7;" horiz-adv-x="583" 
d="M281 -76l28 78q-116 21 -191 106q-83 94 -83 230q0 166 101 264q94 89 237 89q64 0 148 -19l19 -182h-68l-39 108q-19 7 -65.5 7t-90.5 -21t-75 -56q-62 -72 -62 -180q0 -115 69 -190q70 -76 186 -76q43 0 79 13t52 25l29 -79q-55 -39 -156 -44l-14 -36q35 -9 60.5 -34
t25.5 -72.5t-38 -80t-104 -32.5q-49 0 -107 24l-6 2l41 80l66 -43q35 0 53 25q7 9 7 26t-16.5 33.5t-57.5 16.5l-12 1z" />
    <glyph glyph-name="Egrave" unicode="&#xc8;" horiz-adv-x="539" 
d="M147 843l57 82l34 -6l139 -155l-36 -44zM49 691h426l20 -188h-63l-38 102h-186v-210h158v-86h-158v-223h196l35 101h63l-20 -187h-424l-10 71l61 13v527l-60 5v75z" />
    <glyph glyph-name="Eacute" unicode="&#xc9;" horiz-adv-x="539" 
d="M333 928l34 4l57 -91l-195 -112l-40 51zM49 691h426l20 -188h-63l-38 102h-186v-210h158v-86h-158v-223h196l35 101h63l-20 -187h-424l-10 71l61 13v527l-60 5v75z" />
    <glyph glyph-name="Ecircumflex" unicode="&#xca;" horiz-adv-x="539" 
d="M284 894l156 -163l-2 -5h-81l-87 59l-86 -59h-80l-3 6l157 162h26zM49 691h426l20 -188h-63l-38 102h-186v-210h158v-86h-158v-223h196l35 101h63l-20 -187h-424l-10 71l61 13v527l-60 5v75z" />
    <glyph glyph-name="Edieresis" unicode="&#xcb;" horiz-adv-x="539" 
d="M49 691h426l20 -188h-63l-38 102h-186v-210h158v-86h-158v-223h196l35 101h63l-20 -187h-424l-10 71l61 13v527l-60 5v75zM322.5 839.5q-19.5 19.5 -19.5 45t19 44.5t45.5 19t45 -19t18.5 -45t-19 -45t-44.5 -19t-45 19.5zM126 884q0 26 18 45t44.5 19t45 -19t18.5 -45.5
t-19.5 -45t-44.5 -18.5t-43.5 19t-18.5 45z" />
    <glyph glyph-name="Igrave" unicode="&#xcc;" horiz-adv-x="320" 
d="M38 843l57 82l32 -6l140 -155l-36 -44zM110 610l-63 5v76h218l10 -75l-65 -10v-525l65 -8v-73h-219l-18 72l72 11v527z" />
    <glyph glyph-name="Iacute" unicode="&#xcd;" horiz-adv-x="319" 
d="M190 928l34 4l57 -91l-195 -112l-39 51zM109 610l-63 5v76h218l10 -75l-65 -10v-525l65 -8v-73h-219l-9 72l63 11v527z" />
    <glyph glyph-name="Icircumflex" unicode="&#xce;" horiz-adv-x="319" 
d="M109 610l-63 5v76h218l10 -75l-65 -10v-525l65 -8v-73h-219l-9 72l63 11v527zM173 894l156 -163l-2 -5h-81l-87 59l-86 -59h-80l-3 6l157 162h26z" />
    <glyph glyph-name="Idieresis" unicode="&#xcf;" horiz-adv-x="319" 
d="M109 610l-63 5v76h218l10 -75l-65 -10v-525l65 -8v-73h-219l-9 72l63 11v527zM200 753q-19 18 -19 44.5t19 45t45 18.5t43.5 -19t17.5 -44.5t-18 -44t-43.5 -18.5t-44.5 18zM21 798q0 26 18 44.5t43 18.5t44.5 -18.5t19.5 -44.5t-19.5 -44.5t-44.5 -18.5t-43 18.5
t-18 44.5z" />
    <glyph glyph-name="Eth" unicode="&#xd0;" horiz-adv-x="632" 
d="M37 379l10 11h62v221l-60 6v74h189q163 0 259 -87q99 -89 99 -254t-95 -258q-94 -92 -259 -92h-184l-10 71l61 14v226h-72v68zM491 354q0 63 -20.5 111t-58.5 79q-74 63 -204 63v-217h166q7 0 7 -8v-71h-173v-225h24q129 0 195 72q64 68 64 196z" />
    <glyph glyph-name="Ntilde" unicode="&#xd1;" horiz-adv-x="696" 
d="M194 161l1 -71q0 -6 1 -9l57 -10v-71h-194l-12 71l63 13v525l-60 6v76h209l252 -595v513l-62 8v74h197l13 -75l-64 -12v-604h-117l-284 597v-436zM537 791q-55 -61 -100 -61q-24 0 -41 7.5t-32.5 16.5t-31.5 16.5t-42.5 7.5t-42.5 -17t-24 -34l-56 34v17q22 49 73 70
q21 9 54.5 9t62 -16t51.5 -33l9 -6l61 56z" />
    <glyph glyph-name="Ograve" unicode="&#xd2;" 
d="M148 342q0 -108 44 -181q47 -79 133 -79q87 0 135 79q44 72 44 181q0 110 -44 184q-49 80 -135 80t-133 -80q-44 -74 -44 -184zM325 -4q-136 0 -212 104q-70 96 -70 244t70 244q76 104 212 104t213 -104q71 -97 71 -244t-71 -244q-77 -104 -213 -104zM209 843l56 82
l33 -6l140 -155l-36 -44z" />
    <glyph glyph-name="Oacute" unicode="&#xd3;" 
d="M148 342q0 -108 44 -181q47 -79 133 -79q87 0 135 79q44 72 44 181q0 110 -44 184q-49 80 -135 80t-133 -80q-44 -74 -44 -184zM325 -4q-136 0 -212 104q-70 96 -70 244t70 244q76 104 212 104t213 -104q71 -97 71 -244t-71 -244q-77 -104 -213 -104zM362 928l34 4
l57 -91l-195 -112l-39 51z" />
    <glyph glyph-name="Ocircumflex" unicode="&#xd4;" 
d="M148 342q0 -108 44 -181q47 -79 133 -79q87 0 135 79q44 72 44 181q0 110 -44 184q-49 80 -135 80t-133 -80q-44 -74 -44 -184zM325 -4q-136 0 -212 104q-70 96 -70 244t70 244q76 104 212 104t213 -104q71 -97 71 -244t-71 -244q-77 -104 -213 -104zM339 894l156 -163
l-1 -5h-82l-87 59l-86 -59h-82l-1 6l157 162h26z" />
    <glyph glyph-name="Otilde" unicode="&#xd5;" 
d="M148 342q0 -108 44 -181q47 -79 133 -79q87 0 135 79q44 72 44 181q0 110 -44 184q-49 80 -135 80t-133 -80q-44 -74 -44 -184zM325 -4q-136 0 -212 104q-70 96 -70 244t70 244q76 104 212 104t213 -104q71 -97 71 -244t-71 -244q-77 -104 -213 -104zM454 858l59 -67
q-32 -40 -72 -55q-14 -6 -32.5 -6t-36 7.5t-32.5 16.5t-31 16.5t-42 7.5q-41 0 -68 -51l-54 34v17q22 49 71 70q22 9 57 9t66 -18.5t54 -36.5z" />
    <glyph glyph-name="Odieresis" unicode="&#xd6;" 
d="M148 342q0 -108 44 -181q47 -79 133 -79q87 0 135 79q44 72 44 181q0 110 -44 184q-49 80 -135 80t-133 -80q-44 -74 -44 -184zM325 -4q-136 0 -212 104q-70 96 -70 244t70 244q76 104 212 104t213 -104q71 -97 71 -244t-71 -244q-77 -104 -213 -104zM377.5 839.5
q-19.5 19.5 -19.5 45t19 44.5t45.5 19t45 -19t18.5 -45t-19 -45t-44.5 -19t-45 19.5zM181 884q0 26 18 45t44.5 19t45 -19t18.5 -45.5t-19.5 -45t-44.5 -18.5t-43.5 19t-18.5 45z" />
    <glyph glyph-name="multiply" unicode="&#xd7;" horiz-adv-x="478" 
d="M293 353l133 -132l-53 -53l-133 132l-135 -135l-53 54l135 135l-138 138l53 53l138 -138l134 134l54 -53z" />
    <glyph glyph-name="Oslash" unicode="&#xd8;" 
d="M552 751l-1 -19l-49 -106q54 -48 80.5 -122.5t26.5 -152t-18 -140.5t-53 -111q-77 -104 -213 -104q-60 0 -105 19l-31 -68h-94l-3 18l48 104q-49 48 -73 120t-24 148.5t17.5 139.5t52.5 111q76 104 212 104q51 0 95 -16l34 75h98zM457 529l-199 -432q30 -15 71 -15
t75 21.5t56 57.5q44 72 44 182t-47 186zM148 344q0 -108 38 -175l196 426q-27 11 -64.5 11t-71 -22t-54.5 -58q-44 -74 -44 -182z" />
    <glyph glyph-name="Ugrave" unicode="&#xd9;" horiz-adv-x="638" 
d="M205 843l56 82l34 -6l140 -155l-37 -44zM192 233q0 -151 138 -151q92 0 122 80q11 29 11 72v375l-61 9v73h202v-74l-57 -10v-377q0 -116 -67 -178q-59 -56 -153 -56q-115 0 -175 61.5t-60 172.5v380l-62 6v75h231v-74l-69 -9v-375z" />
    <glyph glyph-name="Uacute" unicode="&#xda;" horiz-adv-x="638" 
d="M381 928l34 4l56 -91l-194 -112l-40 51zM192 233q0 -151 138 -151q92 0 122 80q11 29 11 72v375l-61 9v73h202v-74l-57 -10v-377q0 -116 -67 -178q-59 -56 -153 -56q-115 0 -175 61.5t-60 172.5v380l-62 6v75h231v-74l-69 -9v-375z" />
    <glyph glyph-name="Ucircumflex" unicode="&#xdb;" horiz-adv-x="638" 
d="M192 233q0 -151 138 -151q92 0 122 80q11 29 11 72v375l-61 9v73h202v-74l-57 -10v-377q0 -116 -67 -178q-59 -56 -153 -56q-115 0 -175 61.5t-60 172.5v380l-62 6v75h231v-74l-69 -9v-375zM342 894l156 -163l-1 -5h-82l-87 59l-86 -59h-82l-1 6l157 162h26z" />
    <glyph glyph-name="Udieresis" unicode="&#xdc;" horiz-adv-x="647" 
d="M411 691h202v-74l-57 -10v-377q0 -116 -70 -178q-61 -56 -155 -56q-115 0 -177 61.5t-62 172.5v380l-62 6v75h231v-74l-69 -9v-375q0 -71 35 -111t107 -40q93 0 126 80q12 29 12 72v375l-61 9v73zM389.5 839.5q-19.5 19.5 -19.5 45t19 44.5t45.5 19t45 -19t18.5 -45
t-19 -45t-44.5 -19t-45 19.5zM193 884q0 26 18 45t44.5 19t45 -19t18.5 -45.5t-19.5 -45t-44.5 -18.5t-43.5 19t-18.5 45z" />
    <glyph glyph-name="Yacute" unicode="&#xdd;" horiz-adv-x="563" 
d="M556 616l-43 -10l-180 -360v-163l116 -20l-10 -63h-310l-10 63l115 20v169l-190 355l-40 9v75h213l7 -66l-67 -12l139 -256l126 257l-61 11v66h195v-75zM345 928l34 4l56 -91l-194 -112l-40 51z" />
    <glyph glyph-name="Thorn" unicode="&#xde;" horiz-adv-x="525" 
d="M109 610l-63 5v76h218l10 -75l-65 -10l2 -37q147 0 220.5 -50.5t73.5 -156.5q0 -107 -79 -162q-70 -48 -197 -48h-20v-71l115 -18v-63h-269l-9 72l63 11v527zM209 478v-240h16q97 0 136 31.5t39 84.5q0 69 -46 96.5t-137 27.5h-8z" />
    <glyph glyph-name="germandbls" unicode="&#xdf;" horiz-adv-x="527" 
d="M261 656q-86 0 -86 -106v-550h-143v58l51 10v463q0 99 52 153q47 47 128 47q70 0 119 -39q54 -43 54 -114q0 -46 -16.5 -75.5t-36.5 -50.5t-36.5 -37t-16.5 -34q4 -22 45 -43q131 -68 131 -175q0 -78 -56 -127q-50 -44 -119 -44q-58 0 -112 24l54 94q13 -11 26 -23.5
t24 -19.5q35 0 61.5 26t26.5 72q0 43 -44 79q-19 15 -41 28.5t-41 29.5q-44 35 -44 77q0 29 16 49t35.5 40t35.5 45t16 65q-2 32 -25.5 55t-57.5 23z" />
    <glyph glyph-name="agrave" unicode="&#xe0;" horiz-adv-x="460" 
d="M299 41q-44 -46 -112 -46t-109.5 38t-41.5 91t21.5 84t56.5 49q61 31 179 33v71q0 20 -18.5 36.5t-57.5 16.5q-37 0 -55 -16l-20 -65l-105 31q23 83 113 112q32 10 72 10q78 0 119.5 -39t41.5 -102v-256q0 -21 14 -21q7 0 21 7l22 -53q-31 -26 -69 -26q-57 0 -72 45z
M180 71.5q12 -2.5 27 -2.5t30.5 6.5t26.5 15.5q21 16 29 40v86q-66 0 -97 -10.5t-48 -27t-17 -41t7.5 -37t18.5 -20t23 -10zM125 632l60 71l31 -8l107 -158l-37 -37z" />
    <glyph glyph-name="aacute" unicode="&#xe1;" horiz-adv-x="460" 
d="M299 41q-44 -46 -112 -46t-109.5 38t-41.5 91t21.5 84t56.5 49q61 31 179 33v71q0 20 -18.5 36.5t-57.5 16.5q-37 0 -55 -16l-20 -65l-105 31q23 83 113 112q32 10 72 10q78 0 119.5 -39t41.5 -102v-256q0 -21 14 -21q7 0 21 7l22 -53q-31 -26 -69 -26q-57 0 -72 45z
M180 71.5q12 -2.5 27 -2.5t30.5 6.5t26.5 15.5q21 16 29 40v86q-66 0 -97 -10.5t-48 -27t-17 -41t7.5 -37t18.5 -20t23 -10zM247 722l32 8l60 -80l-166 -121l-41 44z" />
    <glyph glyph-name="acircumflex" unicode="&#xe2;" horiz-adv-x="460" 
d="M60 541l133 159h33l134 -160l-6 -11h-78l-67 52l-67 -52h-77zM299 41q-44 -46 -112 -46t-109.5 38t-41.5 91t21.5 84t56.5 49q61 31 179 33v71q0 20 -18.5 36.5t-57.5 16.5q-37 0 -55 -16l-20 -65l-105 31q23 83 113 112q32 10 72 10q78 0 119.5 -39t41.5 -102v-256
q0 -21 14 -21q7 0 21 7l22 -53q-31 -26 -69 -26q-57 0 -72 45zM180 71.5q12 -2.5 27 -2.5t30.5 6.5t26.5 15.5q21 16 29 40v86q-66 0 -97 -10.5t-48 -27t-17 -41t7.5 -37t18.5 -20t23 -10z" />
    <glyph glyph-name="atilde" unicode="&#xe3;" horiz-adv-x="460" 
d="M178 596q-36 0 -55 -45l-53 34q0 28 26 56q32 35 80 35q36 0 86 -29q12 -7 23 -11l1 -3l46 47l56 -66q-21 -23 -43.5 -39t-46 -16t-38 6t-28 12.5t-26.5 12.5t-28 6zM299 41q-44 -46 -112 -46t-109.5 38t-41.5 91t21.5 84t56.5 49q61 31 179 33v71q0 20 -18.5 36.5
t-57.5 16.5q-37 0 -55 -16l-20 -65l-105 31q23 83 113 112q32 10 72 10q78 0 119.5 -39t41.5 -102v-256q0 -21 14 -21q7 0 21 7l22 -53q-31 -26 -69 -26q-57 0 -72 45zM180 71.5q12 -2.5 27 -2.5t30.5 6.5t26.5 15.5q21 16 29 40v86q-66 0 -97 -10.5t-48 -27t-17 -41
t7.5 -37t18.5 -20t23 -10z" />
    <glyph glyph-name="adieresis" unicode="&#xe4;" horiz-adv-x="460" 
d="M69 624q0 26 18 44t44 18t44 -18t18 -44t-18 -44t-44 -18t-44 18t-18 44zM230 624q0 26 18 44t44 18t44 -18t18 -44t-18 -44t-44 -18t-44 18t-18 44zM299 41q-44 -46 -112 -46t-109.5 38t-41.5 91t21.5 84t56.5 49q61 31 179 33v71q0 20 -18.5 36.5t-57.5 16.5
q-37 0 -55 -16l-20 -65l-105 31q23 83 113 112q32 10 72 10q78 0 119.5 -39t41.5 -102v-256q0 -21 14 -21q7 0 21 7l22 -53q-31 -26 -69 -26q-57 0 -72 45zM180 71.5q12 -2.5 27 -2.5t30.5 6.5t26.5 15.5q21 16 29 40v86q-66 0 -97 -10.5t-48 -27t-17 -41t7.5 -37t18.5 -20
t23 -10z" />
    <glyph glyph-name="aring" unicode="&#xe5;" horiz-adv-x="460" 
d="M190 630q0 -15 10.5 -25.5t25.5 -10.5t26 10.5t11 25.5t-11 25.5t-26 10.5t-25.5 -10.5t-10.5 -25.5zM131 630q0 40 27.5 67.5t68 27.5t68 -27.5t27.5 -67.5t-27.5 -67.5t-68 -27.5t-68 27.5t-27.5 67.5zM299 41q-44 -46 -112 -46t-109.5 38t-41.5 91t21.5 84t56.5 49
q61 31 179 33v71q0 20 -18.5 36.5t-57.5 16.5q-37 0 -55 -16l-20 -65l-105 31q23 83 113 112q32 10 72 10q78 0 119.5 -39t41.5 -102v-256q0 -21 14 -21q7 0 21 7l22 -53q-31 -26 -69 -26q-57 0 -72 45zM180 71.5q12 -2.5 27 -2.5t30.5 6.5t26.5 15.5q21 16 29 40v86
q-66 0 -97 -10.5t-48 -27t-17 -41t7.5 -37t18.5 -20t23 -10z" />
    <glyph glyph-name="ae" unicode="&#xe6;" horiz-adv-x="704" 
d="M362 422q64 64 155 64q67 0 112 -34q47 -35 47 -97q0 -104 -136 -138q-48 -12 -115 -12h-18q-9 0 -19 1q10 -94 80 -124q25 -11 60.5 -11t64 14t39.5 23l19 -68q-12 -13 -48 -28.5t-89 -15.5t-102.5 22.5t-81.5 70.5q-26 -62 -89 -85q-23 -9 -52 -9q-70 0 -111.5 38
t-41.5 90.5t22.5 83.5t59.5 49q66 34 175 34v71q0 20 -18.5 36.5t-57.5 16.5q-37 0 -55 -16l-20 -65l-105 31q23 83 113 112q32 10 72 10q97 0 140 -64zM293 217q-162 0 -162 -83q0 -35 26 -52q18 -13 41.5 -13t39 6.5t26.5 15.5q21 16 29 40v86zM546.5 405q-13.5 6 -33.5 6
t-40.5 -8t-37.5 -25q-40 -38 -47 -98h37q66 0 96 9.5t45 24t15 31t-3 27t-10.5 19t-21 14.5z" />
    <glyph glyph-name="ccedilla" unicode="&#xe7;" horiz-adv-x="431" 
d="M374 112l22 -70q-45 -36 -111 -44l-12 -35q26 -7 47 -25.5t21 -56.5t-30.5 -63.5t-84.5 -25.5q-41 0 -88 19l33 66l54 -37q30 0 45 21q5 8 5 19q0 44 -71 44l-12 15l21 60q-76 13 -123 69q-54 63 -54 165q0 131 70 199q56 54 145 54q65 0 113 -34q39 -27 52 -57l-99 -47
l-32 58q-20 5 -33 5q-121 0 -121 -176q0 -75 36.5 -119.5t96.5 -44.5q28 0 59 10.5t51 30.5z" />
    <glyph glyph-name="egrave" unicode="&#xe8;" horiz-adv-x="453" 
d="M360 596l-41 -43l-164 120l59 79l32 -8zM408 354q0 30 -12.5 55t-33.5 42q-45 35 -111 35q-90 0 -150 -64q-66 -69 -66 -185q0 -118 65 -181q61 -60 163 -60q69 0 126 33q12 7 16 11l-22 70q-23 -23 -71 -34q-19 -5 -46 -5t-50 9t-40 24q-30 28 -41 80q154 2 222 56
q51 41 51 114zM254 410q29 0 44 -18t15 -46t-19 -46.5t-47 -27.5q-44 -14 -117 -14q6 75 41 116q32 36 83 36z" />
    <glyph glyph-name="eacute" unicode="&#xe9;" horiz-adv-x="444" 
d="M408 354q0 -31 -10.5 -60.5t-40.5 -53.5q-68 -54 -222 -56q16 -79 81 -104q23 -9 50 -9t46 4.5t33 10.5q27 13 38 24l22 -70q-11 -11 -37 -22q-100 -41 -196 -7q-87 31 -120 121q-17 45 -17 105.5t18 107t48 77.5q60 64 150 64q66 0 111 -35q46 -37 46 -97zM298 392
q-15 18 -43.5 18t-48 -9t-35.5 -27q-35 -41 -41 -116q73 0 109 11.5t55 30t19 46.5t-15 46zM271 722l32 8l60 -80l-166 -121l-41 44z" />
    <glyph glyph-name="ecircumflex" unicode="&#xea;" horiz-adv-x="453" 
d="M97 541l133 159h33l134 -160l-6 -11h-78l-67 52l-67 -52h-77zM408 354q0 -31 -10.5 -60.5t-40.5 -53.5q-68 -54 -222 -56q16 -79 81 -104q23 -9 50 -9t46 4.5t33 10.5q27 13 38 24l22 -70q-11 -11 -37 -22q-100 -41 -196 -7q-87 31 -120 121q-17 45 -17 105.5t18 107
t48 77.5q60 64 150 64q66 0 111 -35q46 -37 46 -97zM298 392q-15 18 -43.5 18t-48 -9t-35.5 -27q-35 -41 -41 -116q73 0 109 11.5t55 30t19 46.5t-15 46z" />
    <glyph glyph-name="edieresis" unicode="&#xeb;" horiz-adv-x="453" 
d="M121.5 587q-15.5 16 -15.5 39t15.5 39t39 16t39.5 -16.5t16 -39t-16.5 -38.5t-39.5 -16t-38.5 16zM271.5 587.5q-15.5 16.5 -15.5 39t15.5 38.5t39 16t39.5 -16.5t16 -39t-16.5 -38.5t-39.5 -16t-38.5 16.5zM408 354q0 -31 -10.5 -60.5t-40.5 -53.5q-68 -54 -222 -56
q16 -79 81 -104q23 -9 50 -9t46 4.5t33 10.5q27 13 38 24l22 -70q-11 -11 -37 -22q-100 -41 -196 -7q-87 31 -120 121q-17 45 -17 105.5t18 107t48 77.5q60 64 150 64q66 0 111 -35q46 -37 46 -97zM298 392q-15 18 -43.5 18t-48 -9t-35.5 -27q-35 -41 -41 -116
q73 0 109 11.5t55 30t19 46.5t-15 46z" />
    <glyph glyph-name="igrave" unicode="&#xec;" horiz-adv-x="268" 
d="M195 531l-166 120l60 80l32 -8l114 -149zM184 454l-32 32l-123 -22l10 -60l55 4v-340l-62 -14l11 -54h200v54l-59 16v384z" />
    <glyph glyph-name="iacute" unicode="&#xed;" horiz-adv-x="268" 
d="M147 722l32 8l59 -80l-165 -120l-41 43zM184 70l59 -16v-54h-200l-11 54l62 14v340l-55 -4l-10 60l123 22l32 -32v-384z" />
    <glyph glyph-name="icircumflex" unicode="&#xee;" horiz-adv-x="268" 
d="M114 695h24l125 -150l-5 -8h-67l-66 54l-67 -54h-65l-4 7zM184 70l59 -16v-54h-200l-11 54l62 14v340l-55 -4l-10 60l123 22l32 -32v-384z" />
    <glyph glyph-name="idieresis" unicode="&#xef;" horiz-adv-x="268" 
d="M154 587.5q-16 16.5 -16 39t16 38.5t39 16t39.5 -16.5t16.5 -39t-17 -38.5t-39.5 -16t-38.5 16.5zM14.5 587q-15.5 16 -15.5 39t15.5 39t39 16t39.5 -16.5t16 -39t-16.5 -38.5t-39.5 -16t-38.5 16zM184 70l59 -16v-54h-200l-11 54l62 14v340l-55 -4l-10 60l123 22l32 -32
v-384z" />
    <glyph glyph-name="eth" unicode="&#xf0;" horiz-adv-x="511" 
d="M225 582q-41 31 -101 59l37 89q75 -29 148 -90l107 73l49 -80l-97 -55q92 -112 101 -258v-20q0 -125 -52 -208q-60 -96 -170 -96q-104 0 -161 70q-51 61 -51 148q0 93 53 160q56 68 143 68q83 0 127 -46q-22 76 -76 134l-106 -60l-32 57zM248 82q95 0 119 134
q0 69 -39 108q-33 33 -87 33q-56 0 -85 -44q-26 -38 -26 -99t33 -96.5t85 -35.5z" />
    <glyph glyph-name="ntilde" unicode="&#xf1;" horiz-adv-x="530" 
d="M181 449q48 37 120 37q104 0 137 -76q11 -26 11 -64v-275l60 -17v-54h-199l-12 54l61 14v263q0 45 -21 61.5t-52 16.5t-60 -13t-42 -26v-300l58 -16v-54h-199l-12 54l63 14v340l-55 -4l-10 60q13 2 30 5.5t34 6.5t33 5.5t26 4.5zM228 596q-36 0 -55 -45l-53 34
q0 28 26 56q32 35 80 35q36 0 86 -29q12 -7 23 -11l1 -3l46 47l56 -66q-21 -23 -43.5 -39t-46 -16t-38 6t-28 12.5t-26.5 12.5t-28 6z" />
    <glyph glyph-name="ograve" unicode="&#xf2;" horiz-adv-x="495" 
d="M322 530l-166 121l60 80l32 -8l114 -150zM131 237q0 122 66 161q22 13 51 13q54 0 85.5 -46.5t31.5 -129.5t-33 -123.5t-85 -40.5t-84 41.5t-32 124.5zM36 245q0 -58 15.5 -103.5t44.5 -77.5q59 -68 152 -68q89 0 148 64q64 67 64 183q0 111 -60 177t-152 66
q-90 0 -148 -62q-64 -67 -64 -179z" />
    <glyph glyph-name="oacute" unicode="&#xf3;" horiz-adv-x="495" 
d="M274 722l32 8l60 -80l-166 -121l-41 44zM163 112.5q32 -41.5 84 -41.5t85 40.5t33 123.5t-31.5 129.5t-85.5 46.5q-57 0 -88 -49q-29 -47 -29 -127.5t32 -122zM36 245q0 58 17 103t47 76q58 62 148 62q92 0 152 -66t60 -177q0 -116 -64 -183q-59 -64 -148 -64
q-93 0 -152 68q-60 67 -60 181z" />
    <glyph glyph-name="ocircumflex" unicode="&#xf4;" horiz-adv-x="494" 
d="M234 695h24l125 -150l-4 -8h-66l-67 54l-67 -54h-65l-5 7zM163 112.5q32 -41.5 84 -41.5t85 40.5t33 123.5t-31.5 129.5t-85.5 46.5q-57 0 -88 -49q-29 -47 -29 -127.5t32 -122zM36 245q0 58 17 103t47 76q58 62 148 62q92 0 152 -66t60 -177q0 -116 -64 -183
q-59 -64 -148 -64q-93 0 -152 68q-60 67 -60 181z" />
    <glyph glyph-name="otilde" unicode="&#xf5;" horiz-adv-x="494" 
d="M357 679l56 -66q-22 -23 -43.5 -38.5t-46 -15.5t-39 5.5t-27.5 12.5q-33 18 -55 18t-35.5 -14t-18.5 -31l-54 34q0 28 26 56q34 36 80 36q35 0 86 -29q13 -7 24 -11l1 -3zM163 112.5q32 -41.5 84 -41.5t85 40.5t33 123.5t-31.5 129.5t-85.5 46.5q-57 0 -88 -49
q-29 -47 -29 -127.5t32 -122zM36 245q0 58 17 103t47 76q58 62 148 62q92 0 152 -66t60 -177q0 -116 -64 -183q-59 -64 -148 -64q-93 0 -152 68q-60 67 -60 181z" />
    <glyph glyph-name="odieresis" unicode="&#xf6;" horiz-adv-x="494" 
d="M285.5 587.5q-15.5 16.5 -15.5 39t15.5 38.5t39 16t39.5 -16.5t16 -39t-16.5 -38.5t-39.5 -16t-38.5 16.5zM135.5 587q-15.5 16 -15.5 39t15.5 39t39 16t39.5 -16.5t16 -39t-16.5 -38.5t-39.5 -16t-38.5 16zM163 112.5q32 -41.5 84 -41.5t85 40.5t33 123.5t-31.5 129.5
t-85.5 46.5q-57 0 -88 -49q-29 -47 -29 -127.5t32 -122zM36 245q0 58 17 103t47 76q58 62 148 62q92 0 152 -66t60 -177q0 -116 -64 -183q-59 -64 -148 -64q-93 0 -152 68q-60 67 -60 181z" />
    <glyph glyph-name="divide" unicode="&#xf7;" horiz-adv-x="419" 
d="M175.5 99.5q-15.5 16.5 -15.5 39t15.5 38.5t39 16t39.5 -16.5t16 -39t-16.5 -38.5t-39.5 -16t-38.5 16.5zM175.5 408q-15.5 16 -15.5 39t15.5 39t39 16t39.5 -16.5t16 -39t-16.5 -38.5t-39.5 -16t-38.5 16zM374 330v-76h-329v76h329z" />
    <glyph glyph-name="oslash" unicode="&#xf8;" horiz-adv-x="494" 
d="M114 45q-78 67 -78 198q0 113 64 181q58 62 148 62q30 0 61 -9l53 116h85l-1 -13l-64 -142q77 -68 77 -195q0 -116 -63 -183q-60 -64 -148 -64q-30 0 -62 9l-46 -103h-82l-3 13zM331.5 111.5q32.5 40.5 32.5 117t-23 119.5l-123 -273q12 -4 30 -4q51 0 83.5 40.5z
M277 405q-14 4 -29 4q-58 0 -87.5 -48t-29.5 -120t21 -111z" />
    <glyph glyph-name="ugrave" unicode="&#xf9;" horiz-adv-x="510" 
d="M450 67q-18 0 -18 33v353l-29 34l-122 -23l9 -58h52v-281q-9 -23 -38 -39q-26 -14 -46.5 -14t-36 3.5t-27.5 14.5q-27 26 -27 92v271l-31 33l-124 -22l10 -58h55v-245q0 -83 48 -127q42 -38 112 -38q65 0 112 45q16 -45 68 -45q37 0 65 28l-14 45zM280 530l-165 121
l59 80l32 -8l115 -150z" />
    <glyph glyph-name="uacute" unicode="&#xfa;" horiz-adv-x="510" 
d="M349 41q-47 -45 -112 -45q-110 0 -147 90q-13 31 -13 75v245h-55l-10 58l124 22l31 -33v-271q0 -94 55 -106q15 -4 28.5 -4t27 3.5t26.5 10.5q29 16 38 39v281h-52l-9 58l122 23l29 -34v-353q0 -33 18 -33l18 2l14 -45q-28 -28 -65 -28q-52 0 -68 45zM264 722l32 8
l60 -80l-166 -121l-41 44z" />
    <glyph glyph-name="ucircumflex" unicode="&#xfb;" horiz-adv-x="510" 
d="M349 41q-47 -45 -112 -45q-110 0 -147 90q-13 31 -13 75v245h-55l-10 58l124 22l31 -33v-271q0 -94 55 -106q15 -4 28.5 -4t27 3.5t26.5 10.5q29 16 38 39v281h-52l-9 58l122 23l29 -34v-353q0 -33 18 -33l18 2l14 -45q-28 -28 -65 -28q-52 0 -68 45zM223 695h24
l125 -150l-5 -8h-67l-66 54l-67 -54h-65l-4 7z" />
    <glyph glyph-name="udieresis" unicode="&#xfc;" horiz-adv-x="510" 
d="M140.5 587q-15.5 16 -15.5 39t15.5 39t39 16t39.5 -16.5t16 -39t-16.5 -38.5t-39.5 -16t-38.5 16zM290.5 587.5q-15.5 16.5 -15.5 39t15.5 38.5t39 16t39.5 -16.5t16 -39t-16.5 -38.5t-39.5 -16t-38.5 16.5zM349 41q-47 -45 -112 -45q-110 0 -147 90q-13 31 -13 75v245
h-55l-10 58l124 22l31 -33v-271q0 -94 55 -106q15 -4 28.5 -4t27 3.5t26.5 10.5q29 16 38 39v281h-52l-9 58l122 23l29 -34v-353q0 -33 18 -33l18 2l14 -45q-28 -28 -65 -28q-52 0 -68 45z" />
    <glyph glyph-name="yacute" unicode="&#xfd;" horiz-adv-x="480" 
d="M62 -166q28 -34 59 -34q32 0 55 60q7 17 13 32l22 59l-162 465h-40l-8 62l124 8l135 -405l126 335h-52l-7 61l121 9l26 -34q-90 -255 -161 -437.5t-82.5 -206t-26.5 -42.5q-35 -41 -90 -41q-44 0 -89 40zM253 722l32 8l60 -80l-166 -121l-41 44z" />
    <glyph glyph-name="thorn" unicode="&#xfe;" horiz-adv-x="492" 
d="M159 12q2 -32 2 -45v-161l120 -24v-55h-259l-7 54l55 13v866l-57 -4l-9 60l127 19l30 -32v-244q42 27 92 27t86 -17t62 -48q55 -66 55 -174q0 -136 -74 -201q-57 -50 -140 -50q-50 0 -83 16zM242 409q-24 0 -46.5 -9.5t-34.5 -23.5v-280q9 -10 31 -17.5t44 -7.5t43 7.5
t39 27.5q43 44 43 135q0 84 -37 129q-30 39 -82 39z" />
    <glyph glyph-name="ydieresis" unicode="&#xff;" horiz-adv-x="478" 
d="M58 -166q28 -34 59 -34q32 0 55 60q7 17 13 32l22 59l-162 469h-37l-8 58l121 8l135 -405l129 339h-53l-7 57l122 9l25 -34q-80 -226 -138.5 -375.5t-77 -197t-30 -71t-26.5 -42.5q-35 -41 -90 -41q-44 0 -89 40zM120.5 587q-15.5 16 -15.5 39t15.5 39t39 16t39.5 -16.5
t16 -39t-16.5 -38.5t-39.5 -16t-38.5 16zM270.5 587.5q-15.5 16.5 -15.5 39t15.5 38.5t39 16t39.5 -16.5t16 -39t-16.5 -38.5t-39.5 -16t-38.5 16.5z" />
    <glyph glyph-name="OE" unicode="&#x152;" horiz-adv-x="873" 
d="M390 0q-34 -4 -65 -4q-136 0 -212 104q-70 96 -70 244t70 244q76 104 212 104l27 -1h457l20 -188h-63l-38 102h-186v-210h158v-86h-158v-223h196l35 101h63l-20 -187h-426zM443 568q-47 38 -97.5 38t-87 -22t-60.5 -58q-50 -74 -50 -184q0 -105 54 -181q55 -79 143 -79
q65 0 98 35v451z" />
    <glyph glyph-name="oe" unicode="&#x153;" horiz-adv-x="775" 
d="M594 -4q-121 0 -182 82q-30 -41 -73 -61.5t-90.5 -20.5t-86 17.5t-66.5 50.5q-60 67 -60 179q0 114 64 181q58 62 148 62q107 0 167 -85q31 42 75 63.5t84 21.5t68.5 -9t49.5 -26q47 -37 47 -99q0 -71 -51 -112q-68 -54 -222 -56q16 -79 81 -104q23 -9 50 -9t46 4.5
t33 10.5q27 13 38 24l22 -70q-11 -11 -37 -22q-53 -22 -105 -22zM163 112.5q32 -41.5 84 -41.5t85 40.5t33 123.5t-31.5 129.5t-85.5 46.5q-57 0 -88 -49q-29 -47 -29 -127.5t32 -122zM629 392q-15 18 -43.5 18t-48 -9t-35.5 -27q-35 -41 -41 -116q73 0 109 11.5t55 30
t19 46.5t-15 46z" />
    <glyph glyph-name="endash" unicode="&#x2013;" horiz-adv-x="482" 
d="M54 376h371v-75h-371v75z" />
    <glyph glyph-name="emdash" unicode="&#x2014;" horiz-adv-x="632" 
d="M54 376h521v-75h-521v75z" />
    <glyph glyph-name="quoteleft" unicode="&#x2018;" horiz-adv-x="201" 
d="M146 702l-24 -114l54 -102l-97 -45q-41 66 -41 143q0 33 13 73.5t36 74.5l55 -16z" />
    <glyph glyph-name="quoteright" unicode="&#x2019;" horiz-adv-x="199" 
d="M159 731q11 -44 11 -76.5t-8.5 -63.5t-21.5 -57q-24 -49 -58 -83l-52 30v14l50 102l-26 115z" />
    <glyph glyph-name="quotesinglbase" unicode="&#x201a;" horiz-adv-x="212" 
d="M36 -97l41 104l-37 112l99 29q5 -8 14.5 -35.5t9.5 -61.5t-8 -62.5t-21 -52.5q-22 -45 -53 -76l-45 31v12z" />
    <glyph glyph-name="quotedblleft" unicode="&#x201c;" horiz-adv-x="334" 
d="M189 453q-11 44 -11 76.5t7 63.5t17 57q17 45 44 83l52 -30v-14l-30 -102l26 -115zM164 689l-30 -102l26 -135l-105 -21q-1 4 -2.5 15.5t-3.5 25.5q-5 37 -5 57q0 101 59 204l61 -30v-14z" />
    <glyph glyph-name="quotedblright" unicode="&#x201d;" horiz-adv-x="329" 
d="M148 701q11 -44 11 -76.5t-7 -63.5t-17 -57q-17 -45 -44 -83l-52 30v14l30 102l-26 115zM173 465l30 102l-26 135l105 21q1 -4 2.5 -15.5t3.5 -25.5q5 -37 5 -57q0 -101 -59 -204l-61 30v14z" />
    <glyph glyph-name="quotedblbase" unicode="&#x201e;" horiz-adv-x="346" 
d="M274 156q23 -69 23 -133q0 -73 -51 -149q-15 -22 -30 -36l-55 30v12l51 105l-37 142zM33 -109l41 94l-37 112l95 29q4 -9 13 -41t9 -64t-7.5 -56t-19.5 -46q-22 -40 -53 -71l-41 31v12z" />
    <glyph glyph-name="bullet" unicode="&#x2022;" horiz-adv-x="259" 
d="M43 383q0 36 25 61.5t61 25.5t61.5 -25.5t25.5 -61.5t-25.5 -61t-61.5 -25t-61 25t-25 61z" />
    <glyph glyph-name="guilsinglleft" unicode="&#x2039;" horiz-adv-x="349" 
d="M11 314l283 216l5 -2v-91l-179 -137l179 -136v-91l-6 -3l-282 218v26z" />
    <glyph glyph-name="guilsinglright" unicode="&#x203a;" horiz-adv-x="350" 
d="M338 288l-282 -218l-6 3v91l179 136l-179 137v91l5 2l283 -216v-26z" />
    <glyph glyph-name="Euro" unicode="&#x20ac;" horiz-adv-x="569" 
d="M353 -4q-211 0 -256 226h-66v76h57q-1 10 -1 19v31h-56v76h61q17 138 87.5 203.5t183.5 65.5q92 0 149 -17l19 -176h-68l-39 98q-24 9 -62 9t-69 -14t-51 -39q-37 -47 -46 -130h254v-76h-258l1 -50h257v-76h-249q13 -69 50 -102q42 -38 119 -38q43 0 75.5 13t48.5 25
l29 -79q-63 -45 -170 -45z" />
    </font>
</defs>
</svg>
