<?xml version="1.0" standalone="no"?>
<!DOCTYPE svg PUBLIC "-//W3C//DTD SVG 1.1//EN" "http://www.w3.org/Graphics/SVG/1.1/DTD/svg11.dtd" >
<svg xmlns="http://www.w3.org/2000/svg" xmlns:xlink="http://www.w3.org/1999/xlink" version="1.1">
<metadata>
Created by FontForge 20161013 at Sat Dec 18 15:34:41 2010
 By ,,,
Copyright (c) 2008, 2009, 2010, Accademia di Belle Arti di Urbino. Licensed under the SIL Open Font License, Version 1.1

</metadata>
<defs>
<font id="Lekton-Regular" horiz-adv-x="500" >
  <font-face 
    font-family="Lekton"
    font-weight="400"
    font-stretch="normal"
    units-per-em="1000"
    panose-1="2 0 0 0 0 0 0 0 0 0"
    ascent="750"
    descent="-250"
    x-height="475"
    cap-height="655"
    bbox="-624 -585 1002 1112"
    underline-thickness="50"
    underline-position="-150"
    unicode-range="U+0020-FB04"
  />
<missing-glyph 
 />
    <glyph glyph-name="f_i" unicode="fi" 
d="M397 604q-74 20 -131.5 20t-84.5 -36.5t-27 -112.5h269v-475h-53v425h-216v-425h-53v425h-95v50h95q0 98 42.5 148t122.5 50q64 0 122 -15l19 -5z" />
    <glyph glyph-name="f_l" unicode="fl" 
d="M310 475v-50h-161v-425h-53v425h-95v50h95q0 98 42.5 148t122.5 50q65 -1 146 -11l27 -3v-659h-53v616q-71 8 -125 8q-108 0 -107 -149h161z" />
    <glyph glyph-name="f_f_i" unicode="ffi" horiz-adv-x="1000" 
d="M815 604q-104 20 -161.5 20t-84.5 -36.5t-27 -112.5h299v-475h-53v425h-246v-425h-53v425h-206v-425h-53v425h-115v50h115q0 95 53.5 146.5t136.5 51.5q49 0 138 -23q38 23 82 23q76 0 158 -15l27 -5zM422 624q-63 0 -101 -38.5t-38 -110.5h206q0 84 28 133
q-62 16 -95 16z" />
    <glyph glyph-name="f_f_l" unicode="ffl" horiz-adv-x="1000" 
d="M707 475v-50h-171v-425h-53v425h-210v-425h-53v425h-105v50h105q0 95 52.5 146.5t135.5 51.5q59 0 148 -24q38 24 81 24q76 -1 172 -11l32 -3v-659h-53v616q-90 8 -144 8q-108 0 -108 -149h171zM483 475q0 85 32 134q-73 15 -105 15q-63 0 -100 -38.5t-37 -110.5h210z
" />
    <glyph glyph-name="f_f_b" unicode="ffb" horiz-adv-x="1000" 
d="M324 673q46 0 121 -22q35 22 73 22q68 -1 136 -11l23 -3v-184h111q163 0 163 -229q0 -115 -46.5 -182.5t-133.5 -67.5q-43 0 -95 24l-2 -20h-50v425h-192v-425h-53v425h-170v-425h-53v425h-105v50h105q0 96 47 147t121 51zM784 425h-107v-353q50 -24 92 -24
q62 0 93.5 53.5t31.5 143.5t-26 135t-84 45zM432 475h192v141q-51 8 -100.5 8t-70.5 -36t-21 -113zM326 624q-55 0 -86 -38t-31 -111h170q0 87 28 136q-54 13 -81 13z" />
    <glyph glyph-name=".notdef" 
 />
    <glyph glyph-name=".null" horiz-adv-x="0" 
 />
    <glyph glyph-name="nonmarkingreturn" horiz-adv-x="333" 
 />
    <glyph glyph-name="space" unicode=" " 
 />
    <glyph glyph-name="exclam" unicode="!" 
d="M195 -6v86h76v-86h-76zM209 188l-9 500h66l-9 -500h-48z" />
    <glyph glyph-name="quotedbl" unicode="&#x22;" 
d="M143 463v217h53v-217h-53zM303 463v217h53v-217h-53z" />
    <glyph glyph-name="numbersign" unicode="#" 
d="M312 236l22 202h-144l-22 -202h144zM477 192h-118l-21 -192h-53l22 192h-144l-22 -192h-52l22 192h-111v44h116l22 202h-115v43h119l19 174h52l-19 -174h145l18 174h52l-18 -174h109v-43h-114l-22 -202h113v-44z" />
    <glyph glyph-name="dollar" unicode="$" 
d="M252 592q-137 0 -137 -110q0 -54 30 -81t118.5 -48t129 -60.5t40.5 -118t-48.5 -126.5t-126.5 -55v-85h-50v84q-68 4 -153 29l13 50q97 -29 160.5 -29t104.5 35.5t41 96.5t-29.5 86t-120 47t-130 60t-39.5 111.5t46 114.5t115 48v84h51v-83q79 -3 157 -31l-14 -50
q-86 31 -158 31z" />
    <glyph glyph-name="percent" unicode="%" 
d="M359 665h56l-277 -665h-56zM0 525q0 60 35 95t88 35t88 -35t35 -95t-35 -95t-88 -35t-88 35t-35 95zM48 525q0 -40 21.5 -62t53.5 -22t53.5 22t21.5 62t-21.5 62t-53.5 22t-53.5 -22t-21.5 -62zM253 130q0 60 35 95t88 35t88 -35t35 -95t-35 -95t-88 -35t-88 35t-35 95z
M301 130q0 -40 21.5 -62t53.5 -22t53.5 22t21.5 62t-21.5 62t-53.5 22t-53.5 -22t-21.5 -62z" />
    <glyph glyph-name="ampersand" unicode="&#x26;" 
d="M5 197q0 143 156 204q-49 79 -49 134.5t39 92.5t101.5 37t100.5 -36.5t38 -94t-32 -94t-116 -74.5l133 -207q36 75 64 206l49 -8q-24 -132 -80 -240q13 -21 33 -47l47 -59l-39 -32q-48 56 -75 97q-76 -86 -168.5 -86t-147 54.5t-54.5 152.5zM308.5 459.5
q26.5 29.5 26.5 71.5t-22 63.5t-60 21.5t-61.5 -22.5t-23.5 -57.5t11.5 -62.5t39.5 -67.5q63 24 89.5 53.5zM62 197q0 -74 38 -116t105 -42q37 0 76 21t65 55l-162 247q-122 -51 -122 -165z" />
    <glyph glyph-name="quotesingle" unicode="'" 
d="M221 463v217h53v-217h-53z" />
    <glyph glyph-name="parenleft" unicode="(" 
d="M219.5 57.5q-39.5 111.5 -39.5 261t39.5 261t112.5 216.5l42 -27q-66 -97 -102.5 -201t-36.5 -249.5t37 -250.5t102 -200l-42 -28q-73 106 -112.5 217.5z" />
    <glyph glyph-name="parenright" unicode=")" 
d="M228 68q37 105 37 250.5t-36.5 249.5t-102.5 201l42 27q73 -105 112.5 -216.5t39.5 -261t-39.5 -261t-112.5 -217.5l-42 28q65 95 102 200z" />
    <glyph glyph-name="asterisk" unicode="*" 
d="M70 505v45h148l-45 140l45 15l44 -142l119 87l27 -36l-120 -88l120 -85l-28 -39l-119 88l-46 -140l-45 16l47 139h-147z" />
    <glyph glyph-name="plus" unicode="+" 
d="M475 260h-201v-199h-50v199h-200v46h200v198h50v-198h201v-46z" />
    <glyph glyph-name="comma" unicode="," 
d="M173 0v112h95v-82q0 -90 -77 -173l-27 24q45 66 49 119h-40z" />
    <glyph glyph-name="hyphen" unicode="-" 
d="M110 213v54h287v-54h-287z" />
    <glyph glyph-name="period" unicode="." 
d="M175 0v121h110v-121h-110z" />
    <glyph glyph-name="slash" unicode="/" 
d="M25 -25l413 729l37 -22l-414 -729z" />
    <glyph glyph-name="zero" unicode="0" 
d="M103 569q45 75 146.5 75t146.5 -75t45 -250.5t-45 -251.5t-146.5 -76t-146.5 76t-45 251.5t45 250.5zM249 43q72 0 100 64t28 212.5t-27 210.5t-100 62t-100.5 -62.5t-27.5 -210.5t27.5 -212t99.5 -64z" />
    <glyph glyph-name="one" unicode="1" 
d="M454 0h-375v51h171v520l-165 -76l-23 53l194 87h53v-584h145v-51z" />
    <glyph glyph-name="two" unicode="2" 
d="M340 277q-38 -36 -76 -69q-98 -84 -125 -151h309v-57h-375v49q18 51 55.5 98t76.5 81l76 68q84 78 84 163q0 59 -35 95.5t-87.5 36.5t-149.5 -67l-28 42q105 77 181.5 77t127 -48.5t50.5 -142t-84 -175.5z" />
    <glyph glyph-name="three" unicode="3" 
d="M136 293l-7 45l72 11q81 12 120.5 43.5t39.5 88.5t-35.5 83.5t-91.5 26.5t-156 -44l-19 47q39 19 92 34t88 15q82 0 130.5 -39t48.5 -119q0 -56 -22.5 -87.5t-74.5 -57.5v-2q123 -26 123 -163q0 -185 -207 -185q-83 0 -191 40l18 51q101 -39 171 -39t110 33t40 100
t-34 98.5t-106 31.5z" />
    <glyph glyph-name="four" unicode="4" 
d="M459 179v-52h-90v-137h-55v137h-271v47l164 460h57l-159 -455h209v210h55v-210h90z" />
    <glyph glyph-name="five" unicode="5" 
d="M396.5 353q49.5 -52 49.5 -149t-54.5 -155.5t-153.5 -58.5q-79 0 -181 42l19 51q92 -41 163 -41t110 45.5t39 117.5t-35.5 110t-101 38t-133.5 -58l-37 11l10 328h334v-55h-284l-7 -217q60 43 123 43q90 0 139.5 -52z" />
    <glyph glyph-name="six" unicode="6" 
d="M403 353q51 -51 51 -149.5t-52 -156t-146.5 -57.5t-148 57t-53.5 167t31.5 189t95.5 135.5t178 112.5l22 -49q-130 -65 -183.5 -121.5t-75.5 -140.5q64 64 133 64q97 0 148 -51zM396 205q0 147 -141 147q-59 0 -101 -41.5t-42 -102.5q0 -166 143 -166q69 0 105 43t36 120
z" />
    <glyph glyph-name="seven" unicode="7" 
d="M56 529l19 105h355v-56q-6 -60 -113 -251q-39 -70 -71.5 -161.5t-32.5 -165.5h-59q0 77 32 172q32 94 72 166l76 142q36 70 39 102h-254l-14 -57z" />
    <glyph glyph-name="eight" unicode="8" 
d="M50 166q0 118 106 158q-93 46 -93 148q0 76 49.5 123.5t140 47.5t139.5 -47.5t49 -123.5q0 -107 -94 -146q108 -40 108 -160q0 -81 -52.5 -128.5t-150.5 -47.5t-150 47.5t-52 128.5zM145.5 264q-37.5 -35 -37.5 -96t37 -94t107 -33t107.5 33.5t37.5 94t-37 95.5t-107 35
t-107.5 -35zM152.5 560q-32.5 -32 -32.5 -87t32.5 -89.5t100 -34.5t99.5 33t32 89.5t-32.5 88.5t-99.5 32t-99.5 -32z" />
    <glyph glyph-name="nine" unicode="9" 
d="M114 290.5q-51 51.5 -51 145t54 150.5t144.5 57t141.5 -55t51 -153q0 -135 -47 -235t-153 -217l-67 11q94 102 135.5 168t63.5 141q-64 -64 -128 -64q-93 0 -144 51.5zM121 438q0 -147 137 -147q59 0 98.5 41t39.5 103q0 156 -137 156q-65 0 -101.5 -42t-36.5 -111z" />
    <glyph glyph-name="colon" unicode=":" 
d="M174 0v121h110v-121h-110zM174 290v121h110v-121h-110z" />
    <glyph glyph-name="semicolon" unicode=";" 
d="M173 303v102h92v-102h-92zM173 0v112h95v-82q0 -90 -77 -173l-27 24q45 66 49 119h-40z" />
    <glyph glyph-name="less" unicode="&#x3c;" 
d="M450 502l-346 -210l345 -220l-26 -41l-379 245v32l379 235z" />
    <glyph glyph-name="equal" unicode="=" 
d="M25 207h449v-44h-449v44zM25 375h449v-44h-449v44z" />
    <glyph glyph-name="greater" unicode="&#x3e;" 
d="M390 292l-346 210l27 41l379 -235v-32l-379 -245l-26 41z" />
    <glyph glyph-name="question" unicode="?" 
d="M195 -6v93h85v-93h-85zM377.5 643.5q48.5 -39.5 48.5 -104t-18 -100t-71 -85t-66.5 -71.5t-13.5 -54t2 -68l-52 -2q-8 32 -8 74.5t17 70t70 77.5t67.5 78t14.5 73t-30.5 72t-75.5 27t-80 -18.5t-84 -56.5l-30 41q56 44 98 65t90 21q73 0 121.5 -39.5z" />
    <glyph glyph-name="at" unicode="@" 
d="M115.5 -29q-60.5 80 -60.5 235.5t61.5 237t175.5 81.5q47 0 86.5 -9.5t55.5 -19.5l17 -9v-433q-57 -27 -140 -27q-132 0 -130 189q1 64 25 114q29 60 105 59q41 0 86 -12v81q-38 19 -105 19q-85 0 -134.5 -68.5t-49.5 -201.5t49.5 -200t118.5 -67t156 27l13 -48
q-82 -28 -164 -28q-105 0 -165.5 80zM235 216q0 -68 16.5 -104t65.5 -36q29 0 69 8l11 3v238q-25 14 -84 14q-78 0 -78 -123z" />
    <glyph glyph-name="A" unicode="A" 
d="M17 0l188 655h96l181 -655h-59l-41 151h-265l-42 -151h-58zM369 201l-108 404h-17l-113 -404h238z" />
    <glyph glyph-name="B" unicode="B" 
d="M67 0v655h154q110 0 163.5 -39.5t53.5 -130.5q0 -114 -111 -148q66 -15 97.5 -50t31.5 -102q0 -106 -60 -145.5t-184 -39.5h-145zM398 185q0 122 -166 122h-110v-258h90q93 0 139.5 29.5t46.5 106.5zM328 588q-43 18 -107 18h-99v-250h107q63 0 107 28.5t45 104.5t-53 99
z" />
    <glyph glyph-name="C" unicode="C" 
d="M111 70q-56 80 -56 257t54 257.5t173 80.5q78 0 157 -25v-132h-55v89q-44 16 -102 16q-90 0 -129 -67t-39 -217t42 -218t126 -68q63 0 150 27l13 -52q-82 -28 -164 -28q-114 0 -170 80z" />
    <glyph glyph-name="D" unicode="D" 
d="M60 0v655h134q74 0 121.5 -14.5t80.5 -51.5t47.5 -100.5t14.5 -161t-16 -162t-51 -100.5t-82 -50.5t-117 -14.5h-132zM376.5 154.5q22.5 60.5 22.5 173t-22 173t-64 82.5t-119 22h-79v-555h77q77 0 119.5 22t65 82.5z" />
    <glyph glyph-name="E" unicode="E" 
d="M82 0v655h341v-49h-286v-248h259v-49h-259v-260h289v-49h-344z" />
    <glyph glyph-name="F" unicode="F" 
d="M86 0v655h342v-51h-287v-286h246v-50h-246v-268h-55z" />
    <glyph glyph-name="G" unicode="G" 
d="M94 70q-56 80 -56 257.5t55 257.5t179 80q81 0 170 -32l-14 -51q-91 31 -156 31q-94 0 -134.5 -66.5t-40.5 -217t42 -219t127 -68.5q51 0 123 24v200h-113v49h168v-288q-103 -37 -178 -37q-116 0 -172 80z" />
    <glyph glyph-name="H" unicode="H" 
d="M54 0v655h55v-304h282v304h55v-655h-55v300h-282v-300h-55z" />
    <glyph glyph-name="I" unicode="I" 
d="M111 0v50h113v555h-113v50h279v-50h-111v-555h111v-50h-279z" />
    <glyph glyph-name="J" unicode="J" 
d="M312 605v-390q0 -136 -23.5 -180.5t-110.5 -45.5q-17 0 -59 6t-61 11l11 52q68 -17 114 -17t60 30.5t14 146.5v387h-161v50h267v-50h-51z" />
    <glyph glyph-name="K" unicode="K" 
d="M390 655h63q-100 -200 -179 -318q30 -45 76 -129l110 -208h-67q-112 219 -166 305l-101 -10v-295h-55v655h55v-309l97 10q71 108 141 248z" />
    <glyph glyph-name="L" unicode="L" 
d="M419 51v-51h-328v655h55v-604h273z" />
    <glyph glyph-name="M" unicode="M" 
d="M48 0v655h53l141 -367h15l141 367h53v-655h-54v508h-4l-105 -271h-77l-105 272h-4v-509h-54z" />
    <glyph glyph-name="N" unicode="N" 
d="M394 0v103l-285 448h-3v-551h-55v655h54l286 -453h3v453h55v-655h-55z" />
    <glyph glyph-name="O" unicode="O" 
d="M40 334q0 78 10 135t32 103q45 93 168 93q140 -1 184 -131q26 -75 26 -176.5t-10 -161.5t-32 -108q-46 -98 -168 -98q-120 0 -167 98q-43 89 -43 246zM401 326q0 54 -2.5 87t-11.5 73t-24.5 66t-44 43.5t-68.5 17.5t-68.5 -17.5t-44 -43.5t-24.5 -66q-14 -62 -14 -137.5
t5.5 -122t20.5 -91.5q31 -93 125 -93q96 0 126 94q26 80 25 190z" />
    <glyph glyph-name="P" unicode="P" 
d="M216 240h-92v-240h-55v655h147q120 0 177.5 -45.5t57.5 -157.5t-58 -162t-177 -50zM216 605h-92v-315h92q92 0 134.5 37t42.5 124t-42 120.5t-135 33.5z" />
    <glyph glyph-name="Q" unicode="Q" 
d="M425 -73l-65 93q-44 -30 -107 -30t-105 25t-65 73q-43 90 -43 248q0 246 106 306q42 24 97.5 23.5t92.5 -16.5t60 -44q24 -29 38 -71q26 -75 26 -198q0 -196 -62 -278l59 -88zM100.5 400q-1.5 -28 -1.5 -77.5t5.5 -96t20.5 -92.5q31 -93 125 -93q44 0 74 22l-56 55l25 52
l67 -68q41 69 41 234q1 130 -23 186q-26 62 -69 80q-26 12 -59 12t-59 -11.5t-42 -33.5t-26.5 -47t-15.5 -59.5t-6.5 -62.5z" />
    <glyph glyph-name="R" unicode="R" 
d="M268 269q-54 -3 -70 -3h-82v-266h-55v655h147q122 0 179 -42t57 -148q0 -71 -28.5 -114t-91.5 -70q68 -129 124 -281h-60q-55 146 -120 269zM206 605h-90v-289h80q92 0 141 33.5t49 115.5t-43.5 111t-136.5 29z" />
    <glyph glyph-name="S" unicode="S" 
d="M95.5 377.5q-41.5 41.5 -41.5 120.5t54.5 123t140.5 44t175 -31l-14 -51q-83 30 -152.5 30t-106.5 -29.5t-37 -85.5t30 -85t119.5 -52.5t129.5 -62t40 -124t-57.5 -135t-148.5 -49.5q-68 0 -172 29l13 51q102 -28 164 -28t102 34.5t40 96.5t-29 91t-118.5 50.5t-131 63z
" />
    <glyph glyph-name="T" unicode="T" 
d="M48 604v51h402v-51h-174v-604h-55v604h-173z" />
    <glyph glyph-name="U" unicode="U" 
d="M54 189v466h55v-459q0 -154 141 -154q71 0 106 42.5t35 111.5v459h55v-466q0 -97 -50.5 -148t-147.5 -51t-145.5 53t-48.5 146z" />
    <glyph glyph-name="V" unicode="V" 
d="M43 655h59l145 -606h10l144 606h58l-161 -655h-94z" />
    <glyph glyph-name="W" unicode="W" 
d="M75 0l-73 655h57l67 -605h11l88 316h53l84 -316h12l67 605h57l-73 -655h-101l-72 282h-3l-75 -282h-99z" />
    <glyph glyph-name="X" unicode="X" 
d="M239 287l-127 -287h-68l161 336l-153 319h70l122 -270h2l121 270h67l-154 -319l170 -336h-72l-137 287h-2z" />
    <glyph glyph-name="Y" unicode="Y" 
d="M276 283v-283h-54v283l-193 372h66l153 -315h2l153 315h66z" />
    <glyph glyph-name="Z" unicode="Z" 
d="M70 605v50h360v-40l-295 -565h311v-50h-376v40l294 565h-294z" />
    <glyph glyph-name="bracketleft" unicode="[" 
d="M174 -156v949h206v-50h-149v-849h149v-50h-206z" />
    <glyph glyph-name="backslash" unicode="\" 
d="M16 688l37 22l413 -729l-36 -22z" />
    <glyph glyph-name="bracketright" unicode="]" 
d="M120 -156v50h149v849h-149v50h206v-949h-206z" />
    <glyph glyph-name="underscore" unicode="_" 
d="M0 -128v43h500v-43h-500z" />
    <glyph glyph-name="a" unicode="a" 
d="M218 43q37 0 80.5 23.5t63.5 43.5v119q-66 5 -126 5t-90 -25.5t-30 -68.5q0 -97 102 -97zM217 -9q-73 0 -115 37.5t-42 106.5t46 107q46 39 122 39t134 -6q0 89 -22 121.5t-89 32.5t-158 -32l-15 50q93 34 168 34q99 0 134 -44t35 -154v-210l8 -76l-51 -5l-10 60
q-23 -20 -65 -40.5t-80 -20.5z" />
    <glyph glyph-name="b" unicode="b" 
d="M77 0v664h53v-235q75 52 136 52q90 0 139 -61.5t49 -175.5t-55 -183.5t-150 -69.5q-58 0 -120 29l-2 -20h-50zM362.5 380q-34.5 49 -99.5 49t-133 -57v-300q21 -10 57.5 -19.5t59.5 -9.5q70 0 110 56t40 144t-34.5 137z" />
    <glyph glyph-name="c" unicode="c" 
d="M359 320v99q-49 11 -78 11q-72 0 -107.5 -51t-35.5 -141t36 -142.5t107 -52.5q45 0 125 28l15 -50q-79 -30 -139 -30q-98 0 -149.5 65.5t-51.5 182.5t51 179.5t150 62.5q66 0 131 -21v-140h-54z" />
    <glyph glyph-name="d" unicode="d" 
d="M428 664v-581l10 -87l-51 -6l-10 53q-75 -52 -138 -52q-89 0 -138.5 66t-49.5 179.5t55 179t150 65.5q56 0 119 -27v210h53zM142.5 96.5q34.5 -53.5 99.5 -53.5t133 57v300q-21 10 -57.5 19.5t-59.5 9.5q-71 0 -110.5 -51.5t-39.5 -139.5t34.5 -141.5z" />
    <glyph glyph-name="e" unicode="e" 
d="M114.5 416.5q47.5 64.5 138.5 64.5t135.5 -60t44.5 -160l-3 -50h-306q5 -75 40 -121.5t96.5 -46.5t144.5 29l15 -50q-81 -31 -152 -31q-98 0 -149.5 65.5t-51.5 180.5t47.5 179.5zM257 430q-126 0 -133 -169h252q0 169 -119 169z" />
    <glyph glyph-name="f" unicode="f" 
d="M180 425h-95v50h95q0 198 147 198q48 0 106 -17l-12 -51q-56 16 -92 16q-52 0 -74 -35t-22 -111h181v-50h-181v-375h183v-50h-335v50h99v375z" />
    <glyph glyph-name="g" unicode="g" 
d="M428 115l3 -138q0 -89 -53.5 -133t-132.5 -44t-180 40l18 50q99 -38 157.5 -38t98 30.5t39.5 93.5q0 8 -1.5 35.5t-1.5 40.5q-73 -51 -136 -51q-90 0 -138.5 61.5t-48.5 175t54 178.5t150 65q53 0 119 -35l2 29h51v-360zM143 102q34 -49 99 -49t133 57v280
q-62 39 -117 39q-71 0 -110 -51.5t-39 -139t34 -136.5z" />
    <glyph glyph-name="h" unicode="h" 
d="M131 388v-388h-53v664h53v-225q94 42 155 42q143 0 143 -164v-317h-53v317q0 51 -22 81.5t-76 30.5t-147 -41z" />
    <glyph glyph-name="i" unicode="i" 
d="M123 425v50h169v-425h116v-50h-293v50h124v375h-116zM230.5 583.5q-12.5 12.5 -12.5 32t12.5 31t30.5 11.5t29.5 -11t11.5 -31t-11.5 -32.5t-29.5 -12.5t-30.5 12.5z" />
    <glyph glyph-name="j" unicode="j" 
d="M332 475v-485q0 -94 -47.5 -128t-167.5 -50l-6 52q99 14 133.5 37.5t34.5 88.5v436h-127v49h180zM252 616q0 43 44 43q42 -1 42 -45t-42 -44q-21 0 -32.5 12.5t-11.5 33.5z" />
    <glyph glyph-name="k" unicode="k" 
d="M359 475h60q-70 -113 -161 -222q62 -88 167 -253h-60q-80 130 -145 221l-70 -9v-212h-53v664h53v-404l65 10q71 92 144 205z" />
    <glyph glyph-name="l" unicode="l" 
d="M109 614l-1 49l173 1v-614h122v-50h-298v50h123v565z" />
    <glyph glyph-name="m" unicode="m" 
d="M85 475l3 -30q50 36 77 36q66 0 91 -43q56 43 98 43q65 0 89 -40t24 -123v-318h-53v318q0 57 -12 84.5t-46 27.5t-84 -32q6 -34 6 -80v-166h-53v166q0 57 -12 84q-13 28 -47 28t-78 -32v-398h-53v475h50z" />
    <glyph glyph-name="n" unicode="n" 
d="M127 475l2 -40q97 46 161 46t100.5 -44t36.5 -120v-317h-53v317q0 49 -24 81q-24 31 -72 31t-149 -44v-385h-53v475h51z" />
    <glyph glyph-name="o" unicode="o" 
d="M250 481q191 0 191 -245t-191 -245t-191 245t191 245zM116 236q0 -193 134 -193t134 193t-134 193t-134 -193z" />
    <glyph glyph-name="p" unicode="p" 
d="M77 -192v581l-9 87l50 6l9 -54q73 53 139 53q89 0 138 -65t49 -179t-54 -180t-150 -66q-56 0 -119 27v-210h-53zM362 376.5q-34 52.5 -97.5 52.5t-134.5 -57v-300q21 -10 57.5 -19.5t59.5 -9.5q71 0 110 52t39 140.5t-34 141z" />
    <glyph glyph-name="q" unicode="q" 
d="M428 475v-665h-53v232q-73 -51 -136 -51q-89 0 -138 66t-49 180t54 179t150 65q53 0 119 -35l2 29h51zM143.5 96q34.5 -53 99 -53t132.5 57v290q-62 39 -117 39q-71 0 -110 -51.5t-39 -140t34.5 -141.5z" />
    <glyph glyph-name="r" unicode="r" 
d="M91 425v50h147l2 -58q32 20 90 40t102 24v-59q-41 -3 -101.5 -20t-90.5 -35v-317h160v-50h-309v50h94v375h-94z" />
    <glyph glyph-name="s" unicode="s" 
d="M78 23l13 52q99 -33 153 -33t83.5 23.5t29.5 62.5t-23.5 57.5t-97.5 35.5t-111 49q-37 30 -37 90t45.5 91.5t117.5 31.5t156 -32l-14 -47q-85 28 -137 28t-82 -18q-30 -20 -30 -54t26.5 -53t102.5 -38t108 -48.5t32 -92.5t-43 -100q-42 -37 -120 -37t-172 32z" />
    <glyph glyph-name="t" unicode="t" 
d="M160 418h-84v50h84v115l53 10v-125h190v-50h-190v-234q0 -78 15.5 -110t63.5 -32t106 19l12 -50q-58 -21 -108 -21t-78.5 13t-42 41.5t-17.5 58.5t-4 79v236z" />
    <glyph glyph-name="u" unicode="u" 
d="M374 0l-2 41q-96 -50 -160 -50t-101 44t-37 120v320h53v-320q0 -49 23.5 -80.5t71.5 -31.5t150 50v382h53v-475h-51z" />
    <glyph glyph-name="v" unicode="v" 
d="M53 475h60l131 -427h18l126 427h60l-145 -475h-100z" />
    <glyph glyph-name="w" unicode="w" 
d="M413 475h52l-57 -475h-106l-51 207h-4l-52 -207h-105l-55 475h52l52 -427h18l67 241h52l67 -241h18z" />
    <glyph glyph-name="x" unicode="x" 
d="M60 475h69l121 -196l120 196h67l-150 -234l159 -241h-68l-128 203l-127 -203h-68l161 241z" />
    <glyph glyph-name="y" unicode="y" 
d="M53 475h60l141 -404h8l126 404h60l-184 -556q-26 -79 -54.5 -101t-115.5 -24v51q56 1 75 16t35 63l23 69z" />
    <glyph glyph-name="z" unicode="z" 
d="M87 425v50h326l5 -41l-269 -384h272v-50h-335l-8 41l268 384h-259z" />
    <glyph glyph-name="braceleft" unicode="{" 
d="M104 300v52l90 46q0 84 -5 175t-5 121q0 99 98 99h108v-50h-103q-46 0 -46 -55q0 -33 5 -136t5 -186l-90 -36v-8l90 -37q0 -74 -5 -183.5t-5 -152.5q0 -55 46 -55h103v-50h-108q-98 0 -98 99q0 40 5 138t5 172z" />
    <glyph glyph-name="bar" unicode="|" 
d="M277 743v-987h-53v987h53z" />
    <glyph glyph-name="braceright" unicode="}" 
d="M94 -156v50h103q46 0 46 55q0 43 -5 152.5t-5 183.5l90 37v7l-90 37q0 83 5 186t5 136q0 55 -46 55h-103v50h108q98 0 98 -99q0 -30 -5 -121t-5 -175l90 -47v-51l-90 -47q0 -74 5 -172t5 -138q0 -99 -98 -99h-108z" />
    <glyph glyph-name="asciitilde" unicode="~" 
d="M439 316l35 -30q-37 -40 -64.5 -59t-59.5 -19t-70 19.5t-71 39t-57 19.5q-32 1 -90 -62l-36 31q73 78 126 78q40 0 106 -39t94 -39t87 61z" />
    <glyph glyph-name="exclamdown" unicode="&#xa1;" 
d="M260 502v-86h-76v86h76zM246 308l9 -500h-66l9 500h48z" />
    <glyph glyph-name="cent" unicode="&#xa2;" 
d="M81 237q0 224 172 242v70h53v-69q54 -5 98 -18l-13 -50q-54 18 -110 18q-72 0 -107.5 -51t-35.5 -141t36 -143t107 -53q45 0 125 28l15 -50q-58 -22 -113 -28v-64h-53v64q-86 9 -130 73t-44 172z" />
    <glyph glyph-name="sterling" unicode="&#xa3;" 
d="M56 307v51h69q-22 53 -22 107q0 88 46 133.5t134 45.5q61 0 134 -19l-9 -50q-66 18 -128.5 18t-91.5 -31t-29 -94.5t21 -109.5h199v-51h-180q1 -2 7 -21l10 -26q8 -26 8 -54q0 -65 -87 -139q0 -1 0.5 -1t0.5 -1q20 10 43.5 10t44.5 -3.5t59.5 -17.5t62 -14t46.5 8
q24 6 36 14l12 8l23 -45q-47 -36 -120 -36q-27 -1 -67 13q-57 20 -92 20q-59 0 -89 -24l-10 -8l-32 57l13 11q63 56 88 104q12 24 12 53t-24 92h-88z" />
    <glyph glyph-name="currency" unicode="&#xa4;" 
d="M130 527q114 80 235 -1l67 82l40 -32l-69 -83q49 -57 49.5 -135t-48.5 -136l69 -85l-41 -34l-70 84q-58 -38 -111.5 -38.5t-117.5 38.5l-70 -83l-41 33l69 85q-49 58 -48.5 136.5t49.5 135.5l-69 82l40 32zM94.5 357q-0.5 -65 45 -109.5t105.5 -45t113 46.5
q43 43 42.5 108t-44.5 110t-107 46t-108.5 -45t-46 -111z" />
    <glyph glyph-name="yen" unicode="&#xa5;" 
d="M65 361h136l-172 294h69l152 -280h2l154 280h63l-169 -294h134v-50h-156v-93h156v-50h-156v-168h-55v168h-158v50h158v93h-158v50z" />
    <glyph glyph-name="brokenbar" unicode="&#xa6;" 
d="M276 195v-439h-53v439h53zM276 742v-439h-53v439h53z" />
    <glyph glyph-name="section" unicode="&#xa7;" 
d="M118 251.5q-40 30.5 -40 88t62 97.5q-52 31 -52 99t45 101.5t120 33.5t154 -30l-14 -49q-89 29 -140 29q-109 0 -109 -81q0 -36 26 -55.5t106 -38.5t113.5 -46t33.5 -85.5t-50 -106.5q36 -27 36 -86t-43 -95t-118.5 -36t-169.5 32l13 52q102 -34 154 -34t80 21.5t28 55
t-19.5 50t-97.5 35t-118 49zM134 346q0 -21 5.5 -34t23.5 -22q17 -10 35 -16l58 -18q40 -12 73 -25q40 43 40 86q0 28 -27.5 47.5t-77.5 30t-80 21.5q-50 -34 -50 -70z" />
    <glyph glyph-name="copyright" unicode="&#xa9;" 
d="M70 66.5q-60 72.5 -60 205t62 205t179 72.5q239 0 239 -279q0 -137 -64 -206.5t-180 -69.5t-176 72.5zM55 270q0 -125 50 -180.5t146 -55.5q194 0 194 236q0 127 -50 183t-144 56q-196 0 -196 -239zM199 190q16 -20 50 -20t71 11l12 -41q-34 -14 -75 -14q-67 0 -96 31
t-29 113.5t26.5 118t90.5 35.5q41 0 83 -14l-12 -41q-31 11 -69.5 10.5t-53 -22.5t-14.5 -84.5t16 -82.5z" />
    <glyph glyph-name="ordfeminine" unicode="&#xaa;" 
d="M202 490.5q-17 -13.5 -17 -37t14.5 -38.5t47.5 -15t73 35v67q-42 2 -71.5 2t-46.5 -13.5zM372 365q-40 -5 -44 -5l-6 33q-45 -35 -87 -35t-69 24.5t-27 69t28.5 68t77.5 23.5t75 -3q0 47 -13.5 65t-46.5 18t-99 -23l-13 41q65 24 117.5 24t76.5 -28.5t24 -97.5v-124z" />
    <glyph glyph-name="guillemotleft" unicode="&#xab;" 
d="M70 248l197 169v-65l-145 -126l145 -123v-64l-197 169v40zM242 248l197 169v-65l-145 -126l145 -123v-64l-197 169v40z" />
    <glyph glyph-name="logicalnot" unicode="&#xac;" 
d="M36 452h432v-221h-54v167h-378v54z" />
    <glyph glyph-name="registered" unicode="&#xae;" 
d="M69 260.5q-69 68.5 -69 181t68.5 180t181.5 67.5t181.5 -68t68.5 -180.5t-68.5 -180.5t-181 -68t-181.5 68.5zM40 441q0 -95 57.5 -152.5t151.5 -57.5t152 57t58 152.5t-57 153t-152 57.5t-152.5 -57.5t-57.5 -152.5zM156 300v292h80q64 0 94 -20t30 -71q0 -73 -59 -88
q27 -39 49 -95l7 -18h-46q-21 59 -50 105h-65v-105h-40zM300.5 453q17.5 10 17.5 46t-18 45.5t-67 9.5h-37v-111h33q54 0 71.5 10z" />
    <glyph glyph-name="degree" unicode="&#xb0;" 
d="M111 560q0 59 39 96t100 37t99.5 -37t38.5 -96.5t-38.5 -96.5t-100 -37t-100 37.5t-38.5 96.5zM310.5 495.5q24.5 24.5 24.5 64t-23.5 64.5t-63.5 25t-62 -23.5t-22 -64.5t23 -65.5t61 -24.5t62.5 24.5z" />
    <glyph glyph-name="plusminus" unicode="&#xb1;" 
d="M485 298h-210v-152h-50v152h-210v43h210v161h50v-161h210v-43zM485 54h-470v42h470v-42z" />
    <glyph glyph-name="mu" unicode="&#xb5;" 
d="M75 -49v524h53v-321q0 -49 23 -80.5t73 -31.5t146 48v385h53v-475h-51l-2 38q-98 -48 -152 -48q-31 0 -57.5 12t-39.5 31l5 -64v-21q0 -90 -30 -140l-42 19q13 32 17 54.5t4 69.5z" />
    <glyph glyph-name="mu" unicode="&#x3bc;" 
d="M75 -49v524h53v-321q0 -49 23 -80.5t73 -31.5t146 48v385h53v-475h-51l-2 38q-98 -48 -152 -48q-31 0 -57.5 12t-39.5 31l5 -64v-21q0 -90 -30 -140l-42 19q13 32 17 54.5t4 69.5z" />
    <glyph glyph-name="paragraph" unicode="&#xb6;" 
d="M455 0h-35v700h35v-700zM295 0h-35v264q-114 9 -167 54t-53 161t52.5 168.5t167.5 52.5h35v-700zM260 296v372q-47 -1 -76.5 -7.5t-56.5 -26.5q-52 -38 -52 -159q0 -98 43.5 -134.5t141.5 -44.5z" />
    <glyph glyph-name="periodcentered" unicode="&#xb7;" 
d="M247 245q-45 0 -45 57t45.5 57t45.5 -59q0 -29 -10.5 -42t-35.5 -13z" />
    <glyph glyph-name="ordmasculine" unicode="&#xba;" 
d="M156 399q-32 41 -32 113.5t31 112.5t92 40q125 0 125 -152q0 -73 -32.5 -114t-92 -41t-91.5 41zM305 425q19 25 19 87t-19 86.5t-57 24.5t-57 -25.5t-19 -84.5q0 -113 75 -113q39 0 58 25z" />
    <glyph glyph-name="guillemotright" unicode="&#xbb;" 
d="M242 417l197 -169v-40l-197 -169v64l145 123l-145 126v65zM70 417l197 -169v-40l-197 -169v64l145 123l-145 126v65z" />
    <glyph glyph-name="questiondown" unicode="&#xbf;" 
d="M299 489v-93h-85v93h85zM116.5 -160.5q-48.5 39.5 -48.5 104t18 100t71 85t66.5 71.5t13.5 54t-2 68l52 2q8 -32 8 -74.5t-17 -70t-70 -77.5t-67.5 -78t-14.5 -73t30.5 -72t75.5 -27t80 18.5t84 56.5l30 -41q-56 -44 -98 -65t-90 -21q-73 0 -121.5 39.5z" />
    <glyph glyph-name="Agrave" unicode="&#xc0;" 
d="M148 883l204 -88l-17 -42l-206 84zM17 0l188 655h96l181 -655h-59l-41 151h-265l-42 -151h-58zM369 201l-108 404h-17l-113 -404h238z" />
    <glyph glyph-name="Aacute" unicode="&#xc1;" 
d="M164 794l204 88l19 -46l-206 -84zM17 0l188 655h96l181 -655h-59l-41 151h-265l-42 -151h-58zM369 201l-108 404h-17l-113 -404h238z" />
    <glyph glyph-name="Acircumflex" unicode="&#xc2;" 
d="M107 752l126 130h40l126 -130h-58l-88 90l-88 -90h-58zM17 0l188 655h96l181 -655h-59l-41 151h-265l-42 -151h-58zM369 201l-108 404h-17l-113 -404h238z" />
    <glyph glyph-name="Atilde" unicode="&#xc3;" 
d="M379 859l25 -33q-50 -55 -84 -55t-72 27t-60 27t-65 -41l-28 34q57 54 93 54t74 -26.5t56 -26.5t61 40zM17 0l188 655h96l181 -655h-59l-41 151h-265l-42 -151h-58zM369 201l-108 404h-17l-113 -404h238z" />
    <glyph glyph-name="Adieresis" unicode="&#xc4;" 
d="M117 812q0 15 10 26t26 11t26 -11t10 -26t-10 -26t-26 -11t-26 11t-10 26zM310 812q0 15 10 26t26 11t26.5 -11t10.5 -26t-10.5 -26t-26.5 -11t-26 11t-10 26zM17 0l188 655h96l181 -655h-59l-41 151h-265l-42 -151h-58zM369 201l-108 404h-17l-113 -404h238z" />
    <glyph glyph-name="Aring" unicode="&#xc5;" 
d="M325.5 888.5q28.5 -25.5 28.5 -70t-28.5 -70t-76 -25.5t-76 25.5t-28.5 70t28.5 70t76 25.5t76 -25.5zM187 818q0 -27 16.5 -42t45.5 -15t45.5 15t16.5 42q0 57 -62 57t-62 -57zM17 0l188 655h96l181 -655h-59l-41 151h-265l-42 -151h-58zM369 201l-108 404h-17
l-113 -404h238z" />
    <glyph glyph-name="AE" unicode="&#xc6;" 
d="M16 0l190 655h272v-48h-164v-250h137v-48h-137v-261h167v-48h-222v151h-143l-42 -151h-58zM259 201v407h-11l-118 -407h129z" />
    <glyph glyph-name="Ccedilla" unicode="&#xc7;" 
d="M332.5 -80.5q25.5 -23.5 25.5 -68t-25.5 -69t-67.5 -24.5q-23 0 -63 7l5 43q20 -5 47 -5q53 0 53 49q0 47 -53 47q-18 0 -43 -5l-6 41q32 8 67 8t60.5 -23.5zM111 70q-56 80 -56 257t54 257.5t173 80.5q78 0 157 -25v-132h-55v89q-44 16 -102 16q-90 0 -129 -67t-39 -217
t42 -218t126 -68q63 0 150 27l13 -52q-82 -28 -164 -28q-114 0 -170 80z" />
    <glyph glyph-name="Egrave" unicode="&#xc8;" 
d="M157 883l204 -88l-17 -42l-206 84zM82 0v655h341v-49h-286v-248h259v-49h-259v-260h289v-49h-344z" />
    <glyph glyph-name="Eacute" unicode="&#xc9;" 
d="M148 794l204 88l19 -46l-206 -84zM82 0v655h341v-49h-286v-248h259v-49h-259v-260h289v-49h-344z" />
    <glyph glyph-name="Ecircumflex" unicode="&#xca;" 
d="M107 752l126 130h40l126 -130h-58l-88 90l-88 -90h-58zM82 0v655h341v-49h-286v-248h259v-49h-259v-260h289v-49h-344z" />
    <glyph glyph-name="Edieresis" unicode="&#xcb;" 
d="M117 812q0 15 10 26t26 11t26 -11t10 -26t-10 -26t-26 -11t-26 11t-10 26zM310 812q0 15 10 26t26 11t26.5 -11t10.5 -26t-10.5 -26t-26.5 -11t-26 11t-10 26zM82 0v655h341v-49h-286v-248h259v-49h-259v-260h289v-49h-344z" />
    <glyph glyph-name="Igrave" unicode="&#xcc;" 
d="M151 883l204 -88l-17 -42l-206 84zM111 0v50h113v555h-113v50h279v-50h-111v-555h111v-50h-279z" />
    <glyph glyph-name="Iacute" unicode="&#xcd;" 
d="M141 794l204 88l19 -46l-206 -84zM111 0v50h113v555h-113v50h279v-50h-111v-555h111v-50h-279z" />
    <glyph glyph-name="Icircumflex" unicode="&#xce;" 
d="M107 752l126 130h40l126 -130h-58l-88 90l-88 -90h-58zM111 0v50h113v555h-113v50h279v-50h-111v-555h111v-50h-279z" />
    <glyph glyph-name="Idieresis" unicode="&#xcf;" 
d="M117 812q0 15 10 26t26 11t26 -11t10 -26t-10 -26t-26 -11t-26 11t-10 26zM310 812q0 15 10 26t26 11t26.5 -11t10.5 -26t-10.5 -26t-26.5 -11t-26 11t-10 26zM111 0v50h113v555h-113v50h279v-50h-111v-555h111v-50h-279z" />
    <glyph glyph-name="Eth" unicode="&#xd0;" 
d="M80 0v303h-54v54h54v298h114q74 0 121.5 -14.5t80.5 -51.5t47.5 -100.5t14.5 -161t-16 -162t-51 -100.5t-82 -50.5t-117 -14.5h-112zM376.5 154.5q22.5 60.5 22.5 173t-22 173t-64 82.5t-119 22h-59v-248h118v-54h-118v-253h57q77 0 119.5 22t65 82.5z" />
    <glyph glyph-name="Ntilde" unicode="&#xd1;" 
d="M379 859l25 -33q-50 -55 -84 -55t-72 27t-60 27t-65 -41l-28 34q57 54 93 54t74 -26.5t56 -26.5t61 40zM394 0v103l-285 448h-3v-551h-55v655h54l286 -453h3v453h55v-655h-55z" />
    <glyph glyph-name="Ograve" unicode="&#xd2;" 
d="M160 883l204 -88l-17 -42l-206 84zM40 334q0 78 10 135t32 103q45 93 168 93q140 -1 184 -131q26 -75 26 -176.5t-10 -161.5t-32 -108q-46 -98 -168 -98q-120 0 -167 98q-43 89 -43 246zM401 326q0 54 -2.5 87t-11.5 73t-24.5 66t-44 43.5t-68.5 17.5t-68.5 -17.5
t-44 -43.5t-24.5 -66q-14 -62 -14 -137.5t5.5 -122t20.5 -91.5q31 -93 125 -93q96 0 126 94q26 80 25 190z" />
    <glyph glyph-name="Oacute" unicode="&#xd3;" 
d="M155 794l204 88l19 -46l-206 -84zM40 334q0 78 10 135t32 103q45 93 168 93q140 -1 184 -131q26 -75 26 -176.5t-10 -161.5t-32 -108q-46 -98 -168 -98q-120 0 -167 98q-43 89 -43 246zM401 326q0 54 -2.5 87t-11.5 73t-24.5 66t-44 43.5t-68.5 17.5t-68.5 -17.5
t-44 -43.5t-24.5 -66q-14 -62 -14 -137.5t5.5 -122t20.5 -91.5q31 -93 125 -93q96 0 126 94q26 80 25 190z" />
    <glyph glyph-name="Ocircumflex" unicode="&#xd4;" 
d="M107 752l126 130h40l126 -130h-58l-88 90l-88 -90h-58zM40 334q0 78 10 135t32 103q45 93 168 93q140 -1 184 -131q26 -75 26 -176.5t-10 -161.5t-32 -108q-46 -98 -168 -98q-120 0 -167 98q-43 89 -43 246zM401 326q0 54 -2.5 87t-11.5 73t-24.5 66t-44 43.5t-68.5 17.5
t-68.5 -17.5t-44 -43.5t-24.5 -66q-14 -62 -14 -137.5t5.5 -122t20.5 -91.5q31 -93 125 -93q96 0 126 94q26 80 25 190z" />
    <glyph glyph-name="Otilde" unicode="&#xd5;" 
d="M379 859l25 -33q-51 -55 -84.5 -55t-71 27t-60 27t-65.5 -41l-28 34q56 54 92.5 54t74.5 -26.5t56 -26.5t61 40zM40 334q0 78 10 135t32 103q45 93 168 93q140 -1 184 -131q26 -75 26 -176.5t-10 -161.5t-32 -108q-46 -98 -168 -98q-120 0 -167 98q-43 89 -43 246z
M401 326q0 54 -2.5 87t-11.5 73t-24.5 66t-44 43.5t-68.5 17.5t-68.5 -17.5t-44 -43.5t-24.5 -66q-14 -62 -14 -137.5t5.5 -122t20.5 -91.5q31 -93 125 -93q96 0 126 94q26 80 25 190z" />
    <glyph glyph-name="Odieresis" unicode="&#xd6;" 
d="M117 812q0 15 10 26t26 11t26 -11t10 -26t-10 -26t-26 -11t-26 11t-10 26zM310 812q0 15 10.5 26t26 11t26 -11t10.5 -26t-10.5 -26t-26 -11t-26 11t-10.5 26zM40 334q0 78 10 135t32 103q45 93 168 93q140 -1 184 -131q26 -75 26 -176.5t-10 -161.5t-32 -108
q-46 -98 -168 -98q-120 0 -167 98q-43 89 -43 246zM401 326q0 54 -2.5 87t-11.5 73t-24.5 66t-44 43.5t-68.5 17.5t-68.5 -17.5t-44 -43.5t-24.5 -66q-14 -62 -14 -137.5t5.5 -122t20.5 -91.5q31 -93 125 -93q96 0 126 94q26 80 25 190z" />
    <glyph glyph-name="multiply" unicode="&#xd7;" 
d="M402 108l-155 155l-155 -155l-34 33l156 156l-156 155l34 33l155 -155l155 155l34 -33l-156 -155l156 -156z" />
    <glyph glyph-name="Oslash" unicode="&#xd8;" 
d="M40 336q0 246 106 306q42 24 104 23q84 0 135 -49l28 50l37 -22l-37 -64q47 -79 47 -244q0 -257 -107 -321q-42 -25 -103 -25q-89 0 -139 56l-30 -54l-36 22l40 71q-45 83 -45 251zM120 148l235 415q-38 50 -105 50q-40 0 -68.5 -17.5t-44 -43.5t-24.5 -66
q-14 -62 -14 -167.5t21 -170.5zM378 518l-236 -418q35 -58 108 -58q96 0 126 94q26 80 25.5 200t-23.5 182z" />
    <glyph glyph-name="Ugrave" unicode="&#xd9;" 
d="M149 883l204 -88l-17 -42l-206 84zM54 189v466h55v-459q0 -154 141 -154q71 0 106 42.5t35 111.5v459h55v-466q0 -97 -50.5 -148t-147.5 -51t-145.5 53t-48.5 146z" />
    <glyph glyph-name="Uacute" unicode="&#xda;" 
d="M159 794l204 88l19 -46l-206 -84zM54 189v466h55v-459q0 -154 141 -154q71 0 106 42.5t35 111.5v459h55v-466q0 -97 -50.5 -148t-147.5 -51t-145.5 53t-48.5 146z" />
    <glyph glyph-name="Ucircumflex" unicode="&#xdb;" 
d="M107 752l126 130h40l126 -130h-58l-88 90l-88 -90h-58zM54 189v466h55v-459q0 -154 141 -154q71 0 106 42.5t35 111.5v459h55v-466q0 -97 -50.5 -148t-147.5 -51t-145.5 53t-48.5 146z" />
    <glyph glyph-name="Udieresis" unicode="&#xdc;" 
d="M117 812q0 15 10 26t26 11t26 -11t10 -26t-10 -26t-26 -11t-26 11t-10 26zM310 812q0 15 10 26t26 11t26.5 -11t10.5 -26t-10.5 -26t-26.5 -11t-26 11t-10 26zM54 189v466h55v-459q0 -154 141 -154q71 0 106 42.5t35 111.5v459h55v-466q0 -97 -50.5 -148t-147.5 -51
t-145.5 53t-48.5 146z" />
    <glyph glyph-name="Yacute" unicode="&#xdd;" 
d="M158 762l181 100l23 -49l-183 -90zM276 283v-283h-54v283l-193 372h66l153 -315h2l153 315h66z" />
    <glyph glyph-name="Thorn" unicode="&#xde;" 
d="M120 125v-125h-55v655h55v-115h109q53 0 94.5 -23t62.5 -59.5t30 -81t-1.5 -88.5t-32.5 -80.5t-63 -59.5t-92 -23h-107zM229 490h-109v-315h107q36 0 65 17.5t44 45t22 61t0.5 67.5t-21.5 61.5t-43.5 45t-64.5 17.5z" />
    <glyph glyph-name="germandbls" unicode="&#xdf;" 
d="M69 0v469q0 92 45 144t129.5 52t126 -42.5t41.5 -103.5v-84q-61 -6 -98.5 -14t-50.5 -24t-13 -45.5t18.5 -47t83 -38.5t88.5 -48t24 -83q0 -144 -146 -144q-49 0 -127 26l14 52q75 -27 117 -27q88 0 88 91q0 35 -16.5 52t-79 36.5t-90.5 48.5t-28 79q0 105 114 120l49 6
v32q0 108 -118 108q-58 0 -88 -38t-30 -111v-466h-53z" />
    <glyph glyph-name="agrave" unicode="&#xe0;" 
d="M218 43q37 0 80.5 23.5t63.5 43.5v119q-66 5 -126 5t-90 -25.5t-30 -68.5q0 -97 102 -97zM217 -9q-73 0 -115 37.5t-42 106.5t46 107q46 39 122 39t134 -6q0 89 -22 121.5t-89 32.5t-158 -32l-15 50q93 34 168 34q99 0 134 -44t35 -154v-210l8 -76l-51 -5l-10 60
q-23 -20 -65 -40.5t-80 -20.5zM171 717l181 -100l-21 -39l-183 90z" />
    <glyph glyph-name="aacute" unicode="&#xe1;" 
d="M218 43q37 0 80.5 23.5t63.5 43.5v119q-66 5 -126 5t-90 -25.5t-30 -68.5q0 -97 102 -97zM217 -9q-73 0 -115 37.5t-42 106.5t46 107q46 39 122 39t134 -6q0 89 -22 121.5t-89 32.5t-158 -32l-15 50q93 34 168 34q99 0 134 -44t35 -154v-210l8 -76l-51 -5l-10 60
q-23 -20 -65 -40.5t-80 -20.5zM135 617l181 100l23 -49l-183 -90z" />
    <glyph glyph-name="acircumflex" unicode="&#xe2;" 
d="M218 43q37 0 80.5 23.5t63.5 43.5v119q-66 5 -126 5t-90 -25.5t-30 -68.5q0 -97 102 -97zM217 -9q-73 0 -115 37.5t-42 106.5t46 107q46 39 122 39t134 -6q0 89 -22 121.5t-89 32.5t-158 -32l-15 50q93 34 168 34q99 0 134 -44t35 -154v-210l8 -76l-51 -5l-10 60
q-23 -20 -65 -40.5t-80 -20.5zM273 750l128 -162h-58l-93 122l-93 -122h-58l128 162h46z" />
    <glyph glyph-name="atilde" unicode="&#xe3;" 
d="M218 43q37 0 80.5 23.5t63.5 43.5v119q-66 5 -126 5t-90 -25.5t-30 -68.5q0 -97 102 -97zM217 -9q-73 0 -115 37.5t-42 106.5t46 107q46 39 122 39t134 -6q0 89 -22 121.5t-89 32.5t-158 -32l-15 50q93 34 168 34q99 0 134 -44t35 -154v-210l8 -76l-51 -5l-10 60
q-23 -20 -65 -40.5t-80 -20.5zM367 694l25 -33q-50 -55 -84 -55t-72 27t-60 27t-65 -41l-28 34q57 54 93 54t74 -26.5t56 -26.5t61 40z" />
    <glyph glyph-name="adieresis" unicode="&#xe4;" 
d="M218 43q37 0 80.5 23.5t63.5 43.5v119q-66 5 -126 5t-90 -25.5t-30 -68.5q0 -97 102 -97zM217 -9q-73 0 -115 37.5t-42 106.5t46 107q46 39 122 39t134 -6q0 89 -22 121.5t-89 32.5t-158 -32l-15 50q93 34 168 34q99 0 134 -44t35 -154v-210l8 -76l-51 -5l-10 60
q-23 -20 -65 -40.5t-80 -20.5zM117 647q0 15 10 26t26 11t26 -11t10 -26t-10 -26t-26 -11t-26 11t-10 26zM310 647q0 15 10 26t26 11t26.5 -11t10.5 -26t-10.5 -26t-26.5 -11t-26 11t-10 26z" />
    <glyph glyph-name="aring" unicode="&#xe5;" 
d="M218 43q37 0 80.5 23.5t63.5 43.5v119q-65 5 -125.5 5t-90.5 -25.5t-30 -68.5q0 -97 102 -97zM217 -9q-73 0 -115 37.5t-42 106.5t45.5 107.5t122 38.5t134.5 -6q0 89 -22 121.5t-89 32.5t-158 -32l-15 50q93 34 168 34q99 0 134 -44t35 -154v-210l8 -76l-51 -5l-10 60
q-23 -20 -65 -40.5t-80 -20.5zM325.5 698.5q28.5 -25.5 28.5 -70t-28.5 -70t-76 -25.5t-76 25.5t-28.5 70t28.5 70t76 25.5t76 -25.5zM187 628q0 -27 16.5 -42t45.5 -15t45.5 15t16.5 42q0 57 -62 57t-62 -57z" />
    <glyph glyph-name="ae" unicode="&#xe6;" 
d="M135 -10q-53 0 -84.5 38.5t-31.5 103t36.5 101t100.5 36.5h65q0 101 -5.5 114.5t-11.5 23.5q-10 16 -49 16t-103 -31l-18 48q72 35 120.5 35t71 -13.5t33.5 -46.5q27 65 96.5 65t99.5 -50.5t30 -160.5l-3 -52h-208q10 -133 50 -163q18 -14 39 -13q33 1 85 17l18 5l15 -48
q-65 -25 -108.5 -25t-70.5 16.5t-47 53.5q-38 -70 -120 -70zM221 92v126h-65q-38 0 -59.5 -22t-21.5 -62q0 -93 65 -93q40 1 68 33q6 8 13 18zM412.5 388.5q-15.5 39.5 -58.5 39.5t-60.5 -38t-19.5 -123h154q0 82 -15.5 121.5z" />
    <glyph glyph-name="ccedilla" unicode="&#xe7;" 
d="M359 320v99q-49 11 -78 11q-72 0 -107.5 -51t-35.5 -141t36 -142.5t107 -52.5q45 0 125 28l15 -50q-79 -30 -139 -30q-98 0 -149.5 65.5t-51.5 182.5t51 179.5t150 62.5q66 0 131 -21v-140h-54zM337.5 -80.5q25.5 -23.5 25.5 -68t-25.5 -69t-67.5 -24.5q-23 0 -63 7l5 43
q20 -5 47 -5q53 0 53 49q0 47 -53 47q-18 0 -43 -5l-6 41q32 8 67 8t60.5 -23.5z" />
    <glyph glyph-name="egrave" unicode="&#xe8;" 
d="M114.5 416.5q47.5 64.5 138.5 64.5t135.5 -60t44.5 -160l-3 -50h-306q5 -75 40 -121.5t96.5 -46.5t144.5 29l15 -50q-81 -31 -152 -31q-98 0 -149.5 65.5t-51.5 180.5t47.5 179.5zM257 430q-126 0 -133 -169h252q0 169 -119 169zM171 717l181 -100l-21 -39l-183 90z" />
    <glyph glyph-name="eacute" unicode="&#xe9;" 
d="M114.5 416.5q47.5 64.5 138.5 64.5t135.5 -60t44.5 -160l-3 -50h-306q5 -75 40 -121.5t96.5 -46.5t144.5 29l15 -50q-81 -31 -152 -31q-98 0 -149.5 65.5t-51.5 180.5t47.5 179.5zM257 430q-126 0 -133 -169h252q0 169 -119 169zM143 617l181 100l23 -49l-183 -90z" />
    <glyph glyph-name="ecircumflex" unicode="&#xea;" 
d="M114.5 416.5q47.5 64.5 138.5 64.5t135.5 -60t44.5 -160l-3 -50h-306q5 -75 40 -121.5t96.5 -46.5t144.5 29l15 -50q-81 -31 -152 -31q-98 0 -149.5 65.5t-51.5 180.5t47.5 179.5zM257 430q-126 0 -133 -169h252q0 169 -119 169zM273 750l128 -162h-58l-93 122l-93 -122
h-58l128 162h46z" />
    <glyph glyph-name="edieresis" unicode="&#xeb;" 
d="M114.5 416.5q47.5 64.5 138.5 64.5t135.5 -60t44.5 -160l-3 -50h-306q5 -75 40 -121.5t96.5 -46.5t144.5 29l15 -50q-81 -31 -152 -31q-98 0 -149.5 65.5t-51.5 180.5t47.5 179.5zM257 430q-126 0 -133 -169h252q0 169 -119 169zM117 647q0 15 10 26t26 11t26 -11t10 -26
t-10 -26t-26 -11t-26 11t-10 26zM310 647q0 15 10.5 26t26 11t26 -11t10.5 -26t-10.5 -26t-26 -11t-26 11t-10.5 26z" />
    <glyph glyph-name="igrave" unicode="&#xec;" 
d="M154 617l181 100l23 -49l-183 -90zM123 425v50h169v-425h116v-50h-293v50h124v375h-116z" />
    <glyph glyph-name="iacute" unicode="&#xed;" 
d="M123 425v50h169v-425h116v-50h-293v50h124v375h-116zM148 617l181 100l23 -49l-183 -90z" />
    <glyph glyph-name="icircumflex" unicode="&#xee;" 
d="M123 425v50h169v-425h116v-50h-293v50h124v375h-116zM273 750l128 -162h-58l-93 122l-93 -122h-58l128 162h46z" />
    <glyph glyph-name="idieresis" unicode="&#xef;" 
d="M127 647q0 15 10 26t26 11t26 -11t10 -26t-10 -26t-26 -11t-26 11t-10 26zM310 647q0 15 10 26t26 11t26.5 -11t10.5 -26t-10.5 -26t-26.5 -11t-26 11t-10 26zM123 425v50h169v-425h116v-50h-293v50h124v375h-116z" />
    <glyph glyph-name="eth" unicode="&#xf0;" 
d="M267 589l-100 -70l-25 36l88 62q-28 20 -90 54l23 44q58 -28 111 -68l92 65l25 -36l-82 -58q71 -64 101.5 -148.5t30.5 -199.5q4 -144 -43 -211.5t-148 -67.5q-191 0 -191 245t191 245q67 0 115 -33q-26 79 -98 141zM116 236q0 -193 134 -193q70 0 101.5 47.5t33.5 147.5
t-28.5 145.5t-106.5 45.5q-134 0 -134 -193z" />
    <glyph glyph-name="ntilde" unicode="&#xf1;" 
d="M129 475l2 -40q97 46 161 46t100.5 -44t36.5 -120v-317h-53v317q0 49 -24 81q-24 31 -72 31t-149 -44v-385h-53v475h51zM380 694l25 -33q-51 -55 -85 -55t-71 27t-59 27t-66 -41l-28 34q56 54 92 54t74 -26.5t57 -26.5t61 40z" />
    <glyph glyph-name="ograve" unicode="&#xf2;" 
d="M250 481q191 0 191 -245t-191 -245t-191 245t191 245zM116 236q0 -193 134 -193t134 193t-134 193t-134 -193zM171 717l181 -100l-21 -39l-183 90z" />
    <glyph glyph-name="oacute" unicode="&#xf3;" 
d="M250 481q191 0 191 -245t-191 -245t-191 245t191 245zM116 236q0 -193 134 -193t134 193t-134 193t-134 -193zM151 617l181 100l23 -49l-183 -90z" />
    <glyph glyph-name="ocircumflex" unicode="&#xf4;" 
d="M250 481q191 0 191 -245t-191 -245t-191 245t191 245zM116 236q0 -193 134 -193t134 193t-134 193t-134 -193zM273 750l128 -162h-58l-93 122l-93 -122h-58l128 162h46z" />
    <glyph glyph-name="otilde" unicode="&#xf5;" 
d="M250 481q191 0 191 -245t-191 -245t-191 245t191 245zM116 236q0 -193 134 -193t134 193t-134 193t-134 -193zM381 694l25 -33q-50 -55 -84 -55t-72 27t-60 27t-65 -41l-28 34q57 54 93 54t74 -26.5t56 -26.5t61 40z" />
    <glyph glyph-name="odieresis" unicode="&#xf6;" 
d="M250 481q191 0 191 -245t-191 -245t-191 245t191 245zM116 236q0 -193 134 -193t134 193t-134 193t-134 -193zM117 647q0 15 10 26t26 11t26 -11t10 -26t-10 -26t-26 -11t-26 11t-10 26zM310 647q0 15 10 26t26 11t26.5 -11t10.5 -26t-10.5 -26t-26.5 -11t-26 11t-10 26z
" />
    <glyph glyph-name="divide" unicode="&#xf7;" 
d="M247 92q-41 0 -41 45t41 45t41 -45t-41 -45zM247 380q-41 0 -41 45t41 45t41 -45t-41 -45zM35 261v46h430v-46h-430z" />
    <glyph glyph-name="oslash" unicode="&#xf8;" 
d="M250 481q58 0 98 -23l33 57l43 -26l-36 -64q53 -60 53 -189q0 -245 -191 -245q-56 0 -97 22l-32 -56l-42 26l35 61q-55 61 -55 192q0 245 191 245zM116 236q0 -92 28 -138l177 312q-30 19 -71 19q-134 0 -134 -193zM384 236q0 89 -27 136l-177 -311q27 -18 70 -18
q134 0 134 193z" />
    <glyph glyph-name="ugrave" unicode="&#xf9;" 
d="M374 0l-2 41q-96 -50 -160 -50t-101 44t-37 120v320h53v-320q0 -49 23.5 -80.5t71.5 -31.5t150 50v382h53v-475h-51zM171 717l181 -100l-21 -39l-183 90z" />
    <glyph glyph-name="uacute" unicode="&#xfa;" 
d="M374 0l-2 41q-96 -50 -160 -50t-101 44t-37 120v320h53v-320q0 -49 23.5 -80.5t71.5 -31.5t150 50v382h53v-475h-51zM157 617l181 100l23 -49l-183 -90z" />
    <glyph glyph-name="ucircumflex" unicode="&#xfb;" 
d="M374 0l-2 41q-96 -50 -160 -50t-101 44t-37 120v320h53v-320q0 -49 23.5 -80.5t71.5 -31.5t150 50v382h53v-475h-51zM273 750l128 -162h-58l-93 122l-93 -122h-58l128 162h46z" />
    <glyph glyph-name="udieresis" unicode="&#xfc;" 
d="M374 0l-2 41q-96 -50 -160 -50t-101 44t-37 120v320h53v-320q0 -49 23.5 -80.5t71.5 -31.5t150 50v382h53v-475h-51zM117 647q0 15 10 26t26 11t26 -11t10 -26t-10 -26t-26 -11t-26 11t-10 26zM310 647q0 15 10 26t26 11t26.5 -11t10.5 -26t-10.5 -26t-26.5 -11t-26 11
t-10 26z" />
    <glyph glyph-name="yacute" unicode="&#xfd;" 
d="M53 475h60l141 -404h8l126 404h60l-184 -556q-26 -79 -54.5 -101t-115.5 -24v51q56 1 75 16t35 63l23 69zM148 617l181 100l23 -49l-183 -90z" />
    <glyph glyph-name="thorn" unicode="&#xfe;" 
d="M77 -192v847h50v-227q73 53 139 53q89 0 137.5 -65t48.5 -179.5t-53.5 -180t-149.5 -65.5q-56 0 -119 27v-210h-53zM363 377q-35 53 -98 53t-135 -58v-300q21 -10 57.5 -20t59.5 -10q71 0 111 53t40 141t-35 141z" />
    <glyph glyph-name="ydieresis" unicode="&#xff;" 
d="M53 475h60l141 -404h8l126 404h60l-184 -556q-26 -79 -54.5 -101t-115.5 -24v51q56 1 75 16t35 63l23 69zM117 647q0 15 10 26t26 11t26 -11t10 -26t-10 -26t-26 -11t-26 11t-10 26zM310 647q0 15 10 26t26 11t26.5 -11t10.5 -26t-10.5 -26t-26.5 -11t-26 11t-10 26z" />
    <glyph glyph-name="Amacron" unicode="&#x100;" 
d="M104 834h293v-45h-293v45zM17 0l188 655h96l181 -655h-59l-41 151h-265l-42 -151h-58zM369 201l-108 404h-17l-113 -404h238z" />
    <glyph glyph-name="amacron" unicode="&#x101;" 
d="M218 43q37 0 80.5 23.5t63.5 43.5v119q-66 5 -126 5t-90 -25.5t-30 -68.5q0 -97 102 -97zM217 -9q-73 0 -115 37.5t-42 106.5t46 107q46 39 122 39t134 -6q0 89 -22 121.5t-89 32.5t-158 -32l-15 50q93 34 168 34q99 0 134 -44t35 -154v-210l8 -76l-51 -5l-10 60
q-23 -20 -65 -40.5t-80 -20.5zM104 669h293v-45h-293v45z" />
    <glyph glyph-name="Abreve" unicode="&#x102;" 
d="M250 754q-122 0 -136 121h46q6 -41 26.5 -60t63.5 -19t63 18.5t26 60.5h47q-14 -121 -136 -121zM17 0l188 655h96l181 -655h-59l-41 151h-265l-42 -151h-58zM369 201l-108 404h-17l-113 -404h238z" />
    <glyph glyph-name="abreve" unicode="&#x103;" 
d="M218 43q37 0 80.5 23.5t63.5 43.5v119q-66 5 -126 5t-90 -25.5t-30 -68.5q0 -97 102 -97zM217 -9q-73 0 -115 37.5t-42 106.5t46 107q46 39 122 39t134 -6q0 89 -22 121.5t-89 32.5t-158 -32l-15 50q93 34 168 34q99 0 134 -44t35 -154v-210l8 -76l-51 -5l-10 60
q-23 -20 -65 -40.5t-80 -20.5zM250 579q-122 0 -136 121h46q6 -41 26.5 -60t63.5 -19t63 18.5t26 60.5h47q-14 -121 -136 -121z" />
    <glyph glyph-name="Aogonek" unicode="&#x104;" 
d="M472 -239q-42 -10 -81.5 -9.5t-66 29.5t-26.5 76t35 86t118 90l30 -33q-74 -48 -102.5 -80t-28.5 -61q0 -62 58 -62q31 0 58 6zM17 0l188 655h96l181 -655h-59l-41 151h-265l-42 -151h-58zM369 201l-108 404h-17l-113 -404h238z" />
    <glyph glyph-name="aogonek" unicode="&#x105;" 
d="M414 -239q-50 -10 -85.5 -9.5t-62 29.5t-26.5 73.5t30.5 79.5t101.5 80l-6 38q-22 -19 -66.5 -40t-82.5 -21q-73 0 -115 37.5t-42 106.5t45.5 107.5t122 38.5t134.5 -6q0 89 -22 121.5t-89 32.5t-158 -32l-15 50q93 34 168 34q99 0 134 -44t35 -154v-210l8 -76
q-75 -49 -103 -79t-28 -59q0 -62 58 -62q31 0 58 6zM218 43q37 0 80.5 23.5t63.5 43.5v119q-65 5 -125.5 5t-90.5 -25.5t-30 -68.5q0 -97 102 -97z" />
    <glyph glyph-name="Cacute" unicode="&#x106;" 
d="M164 794l204 88l19 -46l-206 -84zM111 70q-56 80 -56 257t54 257.5t173 80.5q78 0 157 -25v-132h-55v89q-44 16 -102 16q-90 0 -129 -67t-39 -217t42 -218t126 -68q63 0 150 27l13 -52q-82 -28 -164 -28q-114 0 -170 80z" />
    <glyph glyph-name="cacute" unicode="&#x107;" 
d="M359 320v99q-49 11 -78 11q-72 0 -107.5 -51t-35.5 -141t36 -142.5t107 -52.5q45 0 125 28l15 -50q-79 -30 -139 -30q-98 0 -149.5 65.5t-51.5 182.5t51 179.5t150 62.5q66 0 131 -21v-140h-54zM148 617l181 100l23 -49l-183 -90z" />
    <glyph glyph-name="Ccircumflex" unicode="&#x108;" 
d="M122 752l126 130h40l126 -130h-58l-88 90l-88 -90h-58zM111 70q-56 80 -56 257t54 257.5t173 80.5q78 0 157 -25v-132h-55v89q-44 16 -102 16q-90 0 -129 -67t-39 -217t42 -218t126 -68q63 0 150 27l13 -52q-82 -28 -164 -28q-114 0 -170 80z" />
    <glyph glyph-name="ccircumflex" unicode="&#x109;" 
d="M359 320v99q-49 11 -78 11q-72 0 -107.5 -51t-35.5 -141t36 -142.5t107 -52.5q45 0 125 28l15 -50q-79 -30 -139 -30q-98 0 -149.5 65.5t-51.5 182.5t51 179.5t150 62.5q66 0 131 -21v-140h-54zM273 750l128 -162h-58l-93 122l-93 -122h-58l128 162h46z" />
    <glyph glyph-name="Cdotaccent" unicode="&#x10a;" 
d="M243 812q0 15 10.5 26t26 11t26 -11t10.5 -26t-10.5 -26t-26 -11t-26 11t-10.5 26zM111 70q-56 80 -56 257t54 257.5t173 80.5q78 0 157 -25v-132h-55v89q-44 16 -102 16q-90 0 -129 -67t-39 -217t42 -218t126 -68q63 0 150 27l13 -52q-82 -28 -164 -28q-114 0 -170 80z
" />
    <glyph glyph-name="cdotaccent" unicode="&#x10b;" 
d="M359 320v99q-49 11 -78 11q-72 0 -107.5 -51t-35.5 -141t36 -142.5t107 -52.5q45 0 125 28l15 -50q-79 -30 -139 -30q-98 0 -149.5 65.5t-51.5 182.5t51 179.5t150 62.5q66 0 131 -21v-140h-54zM223 647q0 15 10.5 26t26.5 11t26 -11t10 -26t-10 -26t-26 -11t-26.5 11
t-10.5 26z" />
    <glyph glyph-name="Ccaron" unicode="&#x10c;" 
d="M414 882l-126 -130h-40l-126 130h59l87 -89l87 89h59zM111 70q-56 80 -56 257t54 257.5t173 80.5q78 0 157 -25v-132h-55v89q-44 16 -102 16q-90 0 -129 -67t-39 -217t42 -218t126 -68q63 0 150 27l13 -52q-82 -28 -164 -28q-114 0 -170 80z" />
    <glyph glyph-name="ccaron" unicode="&#x10d;" 
d="M359 320v99q-49 11 -78 11q-72 0 -107.5 -51t-35.5 -141t36 -142.5t107 -52.5q45 0 125 28l15 -50q-79 -30 -139 -30q-98 0 -149.5 65.5t-51.5 182.5t51 179.5t150 62.5q66 0 131 -21v-140h-54zM396 722l-126 -130h-40l-126 130h59l87 -89l87 89h59z" />
    <glyph glyph-name="Dcaron" unicode="&#x10e;" 
d="M374 882l-126 -130h-40l-126 130h59l87 -89l87 89h59zM60 0v655h134q74 0 121.5 -14.5t80.5 -51.5t47.5 -100.5t14.5 -161t-16 -162t-51 -100.5t-82 -50.5t-117 -14.5h-132zM376.5 154.5q22.5 60.5 22.5 173t-22 173t-64 82.5t-119 22h-79v-555h77q77 0 119.5 22t65 82.5
z" />
    <glyph glyph-name="dcaron" unicode="&#x10f;" 
d="M358 664v-581l9 -87l-49 -6l-9 53q-66 -52 -124 -52q-80 0 -124.5 66t-44.5 179.5t49.5 179t134.5 65.5q51 0 107 -27v210h51zM98.5 96.5q31.5 -53.5 89.5 -53.5t119 57v300q-18 10 -51 19.5t-54 9.5q-64 0 -99.5 -51.5t-35.5 -139.5t31.5 -141.5zM415 599v83h74v-59
q0 -71 -61 -138l-21 20q38 55 40 94h-32z" />
    <glyph glyph-name="Dcroat" unicode="&#x110;" 
d="M65 0v309h-65v47h65v299h134q74 0 121.5 -14.5t80.5 -51.5t47.5 -100.5t14.5 -161t-16 -162t-51 -100.5t-82 -50.5t-117 -14.5h-132zM199 605h-79v-249h135v-47h-135v-259h77q77 0 119 22q88 45 88 255q0 211 -86 256q-42 22 -119 22z" />
    <glyph glyph-name="dcroat" unicode="&#x111;" 
d="M247 587h253v-41h-253v41zM428 664v-581l10 -87l-51 -6l-10 53q-75 -52 -138 -52q-89 0 -138.5 66t-49.5 179.5t55 179t150 65.5q56 0 119 -27v210h53zM142.5 96.5q34.5 -53.5 99.5 -53.5t133 57v300q-21 10 -57.5 19.5t-59.5 9.5q-71 0 -110.5 -51.5t-39.5 -139.5
t34.5 -141.5z" />
    <glyph glyph-name="Emacron" unicode="&#x112;" 
d="M104 834h293v-45h-293v45zM82 0v655h341v-49h-286v-248h259v-49h-259v-260h289v-49h-344z" />
    <glyph glyph-name="emacron" unicode="&#x113;" 
d="M114.5 416.5q47.5 64.5 138.5 64.5t135.5 -60t44.5 -160l-3 -50h-306q5 -75 40 -121.5t96.5 -46.5t144.5 29l15 -50q-81 -31 -152 -31q-98 0 -149.5 65.5t-51.5 180.5t47.5 179.5zM257 430q-126 0 -133 -169h252q0 169 -119 169zM104 669h293v-45h-293v45z" />
    <glyph glyph-name="Ebreve" unicode="&#x114;" 
d="M250 754q-122 0 -136 121h46q6 -41 26.5 -60t63.5 -19t63 18.5t26 60.5h47q-14 -121 -136 -121zM82 0v655h341v-49h-286v-248h259v-49h-259v-260h289v-49h-344z" />
    <glyph glyph-name="ebreve" unicode="&#x115;" 
d="M114.5 416.5q47.5 64.5 138.5 64.5t135.5 -60t44.5 -160l-3 -50h-306q5 -75 40 -121.5t96.5 -46.5t144.5 29l15 -50q-81 -31 -152 -31q-98 0 -149.5 65.5t-51.5 180.5t47.5 179.5zM257 430q-126 0 -133 -169h252q0 169 -119 169zM250 579q-122 0 -136 121h46
q6 -41 26.5 -60t63.5 -19t63 18.5t26 60.5h47q-14 -121 -136 -121z" />
    <glyph glyph-name="Edotaccent" unicode="&#x116;" 
d="M213 812q0 15 10.5 26t26.5 11t26 -11t10 -26t-10 -26t-26 -11t-26.5 11t-10.5 26zM82 0v655h341v-49h-286v-248h259v-49h-259v-260h289v-49h-344z" />
    <glyph glyph-name="edotaccent" unicode="&#x117;" 
d="M114.5 416.5q47.5 64.5 138.5 64.5t135.5 -60t44.5 -160l-3 -50h-306q5 -75 40 -121.5t96.5 -46.5t144.5 29l15 -50q-81 -31 -152 -31q-98 0 -149.5 65.5t-51.5 180.5t47.5 179.5zM257 430q-126 0 -133 -169h252q0 169 -119 169zM213 647q0 15 10.5 26t26 11t26 -11
t10.5 -26t-10.5 -26t-26 -11t-26 11t-10.5 26z" />
    <glyph glyph-name="Eogonek" unicode="&#x118;" 
d="M417 -236q-50 -10 -85.5 -9.5t-62 29.5t-26.5 74q0 73 84 127l69 55l30 -40l-66 -45q-32 -24 -50 -45.5t-18 -49t15.5 -45t46 -17.5t57.5 6zM82 0v655h341v-49h-286v-248h259v-49h-259v-260h289v-49h-344z" />
    <glyph glyph-name="eogonek" unicode="&#x119;" 
d="M378 -236q-50 -10 -85.5 -9.5t-62 29.5t-26.5 75t27.5 79t78.5 61q-22 -3 -42 -3q-98 0 -149.5 63t-51.5 178t47.5 179.5t138.5 64.5t135.5 -60t44.5 -160l-3 -50h-306q5 -75 40 -121.5t101.5 -46.5t123.5 17l15 -49l-42 -27q-78 -51 -92 -71q-18 -27 -17.5 -53.5t16 -44
t46 -17.5t57.5 6zM257 430q-126 0 -133 -169h252q0 169 -119 169z" />
    <glyph glyph-name="Ecaron" unicode="&#x11a;" 
d="M399 882l-126 -130h-40l-126 130h59l87 -89l87 89h59zM82 0v655h341v-49h-286v-248h259v-49h-259v-260h289v-49h-344z" />
    <glyph glyph-name="ecaron" unicode="&#x11b;" 
d="M114.5 416.5q47.5 64.5 138.5 64.5t135.5 -60t44.5 -160l-3 -50h-306q5 -75 40 -121.5t96.5 -46.5t144.5 29l15 -50q-81 -31 -152 -31q-98 0 -149.5 65.5t-51.5 180.5t47.5 179.5zM257 430q-126 0 -133 -169h252q0 169 -119 169zM396 722l-126 -130h-40l-126 130h59
l87 -89l87 89h59z" />
    <glyph glyph-name="Gcircumflex" unicode="&#x11c;" 
d="M117 752l126 130h40l126 -130h-58l-88 90l-88 -90h-58zM94 70q-56 80 -56 257.5t55 257.5t179 80q81 0 170 -32l-14 -51q-91 31 -156 31q-94 0 -134.5 -66.5t-40.5 -217t42 -219t127 -68.5q51 0 123 24v200h-113v49h168v-288q-103 -37 -178 -37q-116 0 -172 80z" />
    <glyph glyph-name="gcircumflex" unicode="&#x11d;" 
d="M428 115l3 -138q0 -89 -53.5 -133t-132.5 -44t-180 40l18 50q99 -38 157.5 -38t98 30.5t39.5 93.5q0 8 -1.5 35.5t-1.5 40.5q-73 -51 -136 -51q-90 0 -138.5 61.5t-48.5 175t54 178.5t150 65q53 0 119 -35l2 29h51v-360zM143 102q34 -49 99 -49t133 57v280
q-62 39 -117 39q-71 0 -110 -51.5t-39 -139t34 -136.5zM273 750l128 -162h-58l-93 122l-93 -122h-58l128 162h46z" />
    <glyph glyph-name="Gbreve" unicode="&#x11e;" 
d="M260 754q-122 0 -136 121h46q6 -41 26.5 -60t63.5 -19t63 18.5t26 60.5h47q-14 -121 -136 -121zM94 70q-56 80 -56 257.5t55 257.5t179 80q81 0 170 -32l-14 -51q-91 31 -156 31q-94 0 -134.5 -66.5t-40.5 -217t42 -219t127 -68.5q51 0 123 24v200h-113v49h168v-288
q-103 -37 -178 -37q-116 0 -172 80z" />
    <glyph glyph-name="gbreve" unicode="&#x11f;" 
d="M428 115l3 -138q0 -89 -53.5 -133t-132.5 -44t-180 40l18 50q99 -38 157.5 -38t98 30.5t39.5 93.5q0 8 -1.5 35.5t-1.5 40.5q-73 -51 -136 -51q-90 0 -138.5 61.5t-48.5 175t54 178.5t150 65q53 0 119 -35l2 29h51v-360zM143 102q34 -49 99 -49t133 57v280
q-62 39 -117 39q-71 0 -110 -51.5t-39 -139t34 -136.5zM250 579q-122 0 -136 121h46q6 -41 26.5 -60t63.5 -19t63 18.5t26 60.5h47q-14 -121 -136 -121z" />
    <glyph glyph-name="Gdotaccent" unicode="&#x120;" 
d="M233 812q0 15 10.5 26t26 11t26 -11t10.5 -26t-10.5 -26t-26 -11t-26 11t-10.5 26zM94 70q-56 80 -56 257.5t55 257.5t179 80q81 0 170 -32l-14 -51q-91 31 -156 31q-94 0 -134.5 -66.5t-40.5 -217t42 -219t127 -68.5q51 0 123 24v200h-113v49h168v-288
q-103 -37 -178 -37q-116 0 -172 80z" />
    <glyph glyph-name="gdotaccent" unicode="&#x121;" 
d="M428 115l3 -138q0 -89 -53.5 -133t-132.5 -44t-180 40l18 50q99 -38 157.5 -38t98 30.5t39.5 93.5q0 8 -1.5 35.5t-1.5 40.5q-73 -51 -136 -51q-90 0 -138.5 61.5t-48.5 175t54 178.5t150 65q53 0 119 -35l2 29h51v-360zM143 102q34 -49 99 -49t133 57v280
q-62 39 -117 39q-71 0 -110 -51.5t-39 -139t34 -136.5zM228 647q0 15 10.5 26t26 11t26 -11t10.5 -26t-10.5 -26t-26 -11t-26 11t-10.5 26z" />
    <glyph glyph-name="Gcommaaccent" unicode="&#x122;" 
d="M236 -207q25 25 25 49v8h-24v78h67v-51q0 -39 -8.5 -61t-37.5 -45zM94 70q-56 80 -56 257.5t55 257.5t179 80q81 0 170 -32l-14 -51q-91 31 -156 31q-94 0 -134.5 -66.5t-40.5 -217t42 -219t127 -68.5q51 0 123 24v200h-113v49h168v-288q-103 -37 -178 -37
q-116 0 -172 80z" />
    <glyph glyph-name="gcommaaccent" unicode="&#x123;" 
d="M294 722q-25 -25 -25 -49v-8h24v-78h-67v51q0 39 8.5 61t37.5 45zM428 115l3 -138q0 -89 -53.5 -133t-132.5 -44t-180 40l18 50q99 -38 157.5 -38t98 30.5t39.5 93.5q0 8 -1.5 35.5t-1.5 40.5q-73 -51 -136 -51q-90 0 -138.5 61.5t-48.5 175t54 178.5t150 65
q53 0 119 -35l2 29h51v-360zM143 102q34 -49 99 -49t133 57v280q-62 39 -117 39q-71 0 -110 -51.5t-39 -139t34 -136.5z" />
    <glyph glyph-name="Hcircumflex" unicode="&#x124;" 
d="M104 752l126 130h40l126 -130h-58l-88 90l-88 -90h-58zM54 0v655h55v-304h282v304h55v-655h-55v300h-282v-300h-55z" />
    <glyph glyph-name="hcircumflex" unicode="&#x125;" 
d="M131 388v-388h-53v664h53v-225q94 42 155 42q143 0 143 -164v-317h-53v317q0 51 -22 81.5t-76 30.5t-147 -41zM273 914l128 -162h-58l-93 122l-93 -122h-58l128 162h46z" />
    <glyph glyph-name="Hbar" unicode="&#x126;" 
d="M0 513h500v-41h-500v41zM54 0v655h55v-304h282v304h55v-655h-55v300h-282v-300h-55z" />
    <glyph glyph-name="hbar" unicode="&#x127;" 
d="M0 587h283v-41h-283v41zM131 388v-388h-53v664h53v-225q94 42 155 42q143 0 143 -164v-317h-53v317q0 51 -22 81.5t-76 30.5t-147 -41z" />
    <glyph glyph-name="Itilde" unicode="&#x128;" 
d="M379 859l25 -33q-50 -55 -84 -55t-72 27t-60 27t-65 -41l-28 34q57 54 93 54t74 -26.5t56 -26.5t61 40zM111 0v50h113v555h-113v50h279v-50h-111v-555h111v-50h-279z" />
    <glyph glyph-name="itilde" unicode="&#x129;" 
d="M123 425v50h169v-425h116v-50h-293v50h124v375h-116zM379 694l25 -33q-50 -55 -84 -55t-72 27t-60 27t-65 -41l-28 34q57 54 93 54t74 -26.5t56 -26.5t61 40z" />
    <glyph glyph-name="imacron" unicode="&#x12b;" 
d="M123 425v50h169v-425h116v-50h-293v50h124v375h-116zM104 669h293v-45h-293v45z" />
    <glyph glyph-name="Ibreve" unicode="&#x12c;" 
d="M251 754q-122 0 -136 121h46q6 -41 26.5 -60t63.5 -19t63 18.5t26 60.5h47q-14 -121 -136 -121zM111 0v50h113v555h-113v50h279v-50h-111v-555h111v-50h-279z" />
    <glyph glyph-name="Iogonek" unicode="&#x12e;" 
d="M381 -236q-50 -10 -85.5 -9.5t-62 29.5t-26.5 74q0 73 84 127l69 55l30 -40l-66 -45q-32 -24 -50 -45.5t-18 -49t15.5 -45t46 -17.5t57.5 6zM111 0v50h113v555h-113v50h279v-50h-111v-555h111v-50h-279z" />
    <glyph glyph-name="iogonek" unicode="&#x12f;" 
d="M399 -239q-42 -10 -81.5 -9.5t-66 29.5t-26.5 76t35.5 86.5t117.5 90.5l30 -34q-74 -48 -102.5 -80t-28.5 -61q0 -62 58 -62q31 0 58 6zM123 425v50h169v-425h116v-50h-293v50h124v375h-116zM230.5 583.5q-12.5 12.5 -12.5 32t12.5 31t30.5 11.5t29.5 -11t11.5 -31
t-11.5 -32.5t-29.5 -12.5t-30.5 12.5z" />
    <glyph glyph-name="Idotaccent" unicode="&#x130;" 
d="M213 812q0 15 10.5 26t26.5 11t26 -11t10 -26t-10 -26t-26 -11t-26.5 11t-10.5 26zM111 0v50h113v555h-113v50h279v-50h-111v-555h111v-50h-279z" />
    <glyph glyph-name="dotlessi" unicode="&#x131;" 
d="M123 425v50h169v-425h116v-50h-293v50h124v375h-116z" />
    <glyph glyph-name="I_J" unicode="&#x132;" 
d="M146 237v372h-103v46h249v-46h-93v-372h93v-46h-249v46h103zM414 655h55v-477q0 -96 -64.5 -133.5t-226.5 -54.5l-7 52q139 15 191 41.5t52 94.5v477z" />
    <glyph glyph-name="Jcircumflex" unicode="&#x134;" 
d="M90 752l126 130h40l126 -130h-58l-88 90l-88 -90h-58zM312 605v-390q0 -136 -23.5 -180.5t-110.5 -45.5q-17 0 -59 6t-61 11l11 52q68 -17 114 -17t60 30.5t14 146.5v387h-161v50h267v-50h-51z" />
    <glyph glyph-name="jcircumflex" unicode="&#x135;" 
d="M332 475v-485q0 -94 -47.5 -128t-167.5 -50l-6 52q99 14 133.5 37.5t34.5 88.5v436h-127v49h180zM273 750l128 -162h-58l-93 122l-93 -122h-58l128 162h46z" />
    <glyph glyph-name="Kcommaaccent" unicode="&#x136;" 
d="M216 -207q25 25 25 49v8h-24v78h67v-51q0 -39 -8.5 -61t-37.5 -45zM390 655h63q-100 -200 -179 -318q30 -45 76 -129l110 -208h-67q-112 219 -166 305l-101 -10v-295h-55v655h55v-309l97 10q71 108 141 248z" />
    <glyph glyph-name="kcommaaccent" unicode="&#x137;" 
d="M359 475h60q-76 -122 -159 -222q72 -102 168 -253h-63q-80 130 -145 221l-70 -9v-212h-53v664h53v-404l65 10q71 92 144 205zM218 -207q25 25 25 49v8h-24v78h67v-51q0 -39 -8.5 -61t-37.5 -45z" />
    <glyph glyph-name="Lacute" unicode="&#x139;" 
d="M144 794l204 88l19 -46l-206 -84zM419 51v-51h-328v655h55v-604h273z" />
    <glyph glyph-name="lacute" unicode="&#x13a;" 
d="M109 614l-1 49l173 1v-614h122v-50h-298v50h123v565zM158 762l181 100l23 -49l-183 -90z" />
    <glyph glyph-name="Lcommaaccent" unicode="&#x13b;" 
d="M216 -207q25 25 25 49v8h-24v78h67v-51q0 -39 -8.5 -61t-37.5 -45zM419 51v-51h-328v655h55v-604h273z" />
    <glyph glyph-name="lcommaaccent" unicode="&#x13c;" 
d="M109 614l-1 49l173 1v-614h122v-50h-298v50h123v565zM223 -207q25 25 25 49v8h-24v78h67v-51q0 -39 -8.5 -61t-37.5 -45z" />
    <glyph glyph-name="Lcaron" unicode="&#x13d;" 
d="M315 599v83h74v-59q0 -66 -61 -133l-21 20l21 32q17 25 19 57h-32zM419 51v-51h-328v655h55v-604h273z" />
    <glyph glyph-name="lcaron" unicode="&#x13e;" 
d="M388 599v83h74v-59q0 -71 -61 -138l-21 20q38 55 40 94h-32zM109 614l-1 49l173 1v-614h122v-50h-298v50h123v565z" />
    <glyph glyph-name="Lslash" unicode="&#x141;" 
d="M308 344l-298 -72v51l298 72v-51zM419 51v-51h-328v655h55v-604h273z" />
    <glyph glyph-name="lslash" unicode="&#x142;" 
d="M403 344l-298 -72v51l298 72v-51zM109 614l-1 49l173 1v-614h122v-50h-298v50h123v565z" />
    <glyph glyph-name="Nacute" unicode="&#x143;" 
d="M144 794l204 88l19 -46l-206 -84zM394 0v103l-285 448h-3v-551h-55v655h54l286 -453h3v453h55v-655h-55z" />
    <glyph glyph-name="nacute" unicode="&#x144;" 
d="M127 475l2 -40q97 46 161 46t100.5 -44t36.5 -120v-317h-53v317q0 49 -24 81q-24 31 -72 31t-149 -44v-385h-53v475h51zM148 617l181 100l23 -49l-183 -90z" />
    <glyph glyph-name="Ncommaaccent" unicode="&#x145;" 
d="M216 -207q25 25 25 49v8h-24v78h67v-51q0 -39 -8.5 -61t-37.5 -45zM394 0v103l-285 448h-3v-551h-55v655h54l286 -453h3v453h55v-655h-55z" />
    <glyph glyph-name="ncommaaccent" unicode="&#x146;" 
d="M127 475l2 -40q98 46 161.5 46t100 -44t36.5 -120v-317h-53v317q0 49 -23.5 80.5t-72 31.5t-149.5 -44v-385h-53v475h51zM218 -207q25 25 25 49v8h-24v78h67v-51q0 -39 -8.5 -61t-37.5 -45z" />
    <glyph glyph-name="Ncaron" unicode="&#x147;" 
d="M399 882l-126 -130h-40l-126 130h59l87 -89l87 89h59zM394 0v103l-285 448h-3v-551h-55v655h54l286 -453h3v453h55v-655h-55z" />
    <glyph glyph-name="ncaron" unicode="&#x148;" 
d="M127 475l2 -40q97 46 161 46t100.5 -44t36.5 -120v-317h-53v317q0 49 -24 81q-24 31 -72 31t-149 -44v-385h-53v475h51zM396 722l-126 -130h-40l-126 130h59l87 -89l87 89h59z" />
    <glyph glyph-name="Eng" unicode="&#x14a;" 
d="M449 655v-665q0 -50 -12 -81.5t-42 -50.5t-65.5 -28.5t-96.5 -17.5l-6 52q99 14 133 37.5t34 88.5v113l-288 454v-557h-55v655h54l289 -459v459h55z" />
    <glyph glyph-name="eng" unicode="&#x14b;" 
d="M427 317v-327q0 -94 -47.5 -128t-167.5 -50l-6 52q99 14 133.5 37.5t34.5 88.5v327q0 49 -24 81q-24 31 -72 31t-149 -44v-385h-53v475h51l2 -40q97 46 161 46t100.5 -44t36.5 -120z" />
    <glyph glyph-name="Omacron" unicode="&#x14c;" 
d="M104 834h293v-45h-293v45zM40 334q0 78 10 135t32 103q45 93 168 93q140 -1 184 -131q26 -75 26 -176.5t-10 -161.5t-32 -108q-46 -98 -168 -98q-120 0 -167 98q-43 89 -43 246zM401 326q0 54 -2.5 87t-11.5 73t-24.5 66t-44 43.5t-68.5 17.5t-68.5 -17.5t-44 -43.5
t-24.5 -66q-14 -62 -14 -137.5t5.5 -122t20.5 -91.5q31 -93 125 -93q96 0 126 94q26 80 25 190z" />
    <glyph glyph-name="omacron" unicode="&#x14d;" 
d="M250 481q191 0 191 -245t-191 -245t-191 245t191 245zM116 236q0 -193 134 -193t134 193t-134 193t-134 -193zM104 669h293v-45h-293v45z" />
    <glyph glyph-name="Obreve" unicode="&#x14e;" 
d="M251 754q-122 0 -136 121h46q6 -41 26.5 -60t63.5 -19t63 18.5t26 60.5h47q-14 -121 -136 -121zM40 334q0 78 10 135t32 103q45 93 168 93q140 -1 184 -131q26 -75 26 -176.5t-10 -161.5t-32 -108q-46 -98 -168 -98q-120 0 -167 98q-43 89 -43 246zM401 326q0 54 -2.5 87
t-11.5 73t-24.5 66t-44 43.5t-68.5 17.5t-68.5 -17.5t-44 -43.5t-24.5 -66q-14 -62 -14 -137.5t5.5 -122t20.5 -91.5q31 -93 125 -93q96 0 126 94q26 80 25 190z" />
    <glyph glyph-name="obreve" unicode="&#x14f;" 
d="M250 481q191 0 191 -245t-191 -245t-191 245t191 245zM116 236q0 -193 134 -193t134 193t-134 193t-134 -193zM250 579q-122 0 -136 121h46q6 -41 26.5 -60t63.5 -19t63 18.5t26 60.5h47q-14 -121 -136 -121z" />
    <glyph glyph-name="Ohungarumlaut" unicode="&#x150;" 
d="M105 741l150 124l33 -41l-157 -116zM262 741l151 123l32 -40l-157 -116zM40 334q0 78 10 135t32 103q45 93 168 93q140 -1 184 -131q26 -75 26 -176.5t-10 -161.5t-32 -108q-46 -98 -168 -98q-120 0 -167 98q-43 89 -43 246zM401 326q0 54 -2.5 87t-11.5 73t-24.5 66
t-44 43.5t-68.5 17.5t-68.5 -17.5t-44 -43.5t-24.5 -66q-14 -62 -14 -137.5t5.5 -122t20.5 -91.5q31 -93 125 -93q96 0 126 94q26 80 25 190z" />
    <glyph glyph-name="ohungarumlaut" unicode="&#x151;" 
d="M250 481q191 0 191 -245t-191 -245t-191 245t191 245zM116 236q0 -193 134 -193t134 193t-134 193t-134 -193zM105 601l150 124l33 -41l-157 -116zM262 601l151 123l32 -40l-157 -116z" />
    <glyph glyph-name="OE" unicode="&#x152;" 
d="M258 655h220v-48h-154v-250h127v-48h-127v-261h157v-48h-223q-220 0 -220 336q0 235 114 296q44 23 106 23zM97 334q0 -60 7 -108t24 -90q35 -87 130 -87h11v556q-8 1 -11 1q-98 0 -132 -84q-28 -70 -29 -188z" />
    <glyph glyph-name="oe" unicode="&#x153;" 
d="M44.5 421.5q27.5 59.5 107.5 59.5t101 -96q2 21 14 46q24 50 90.5 50t97 -53.5t30.5 -160.5l-3 -50h-206q10 -174 100 -174q32 1 76 17l14 5l15 -50q-60 -24 -101 -24t-67.5 15t-38.5 38q-18 36 -20 59q0 -23 -12 -53q-24 -60 -97 -60t-100.5 60t-27.5 186t27.5 185.5z
M76 319q-2 -31 -2 -82.5t2 -82.5t9.5 -59t23 -40.5t39.5 -12.5t40 12q14 13 22 41q12 43 12 118t-2 106t-9.5 58.5t-22.5 39.5t-40 12t-40 -12t-22.5 -39.5t-9.5 -58.5zM355 429q-30 0 -41 -11l-16 -18q-6 -6 -9.5 -21t-6 -23t-3.5 -28.5t-1.5 -28.5t-1.5 -32h152
q0 83 -15.5 122.5t-57.5 39.5z" />
    <glyph glyph-name="Racute" unicode="&#x154;" 
d="M124 794l204 88l19 -46l-206 -84zM268 269q-54 -3 -70 -3h-82v-266h-55v655h147q122 0 179 -42t57 -148q0 -71 -28.5 -114t-91.5 -70q68 -129 124 -281h-60q-55 146 -120 269zM206 605h-90v-289h80q92 0 141 33.5t49 115.5t-43.5 111t-136.5 29z" />
    <glyph glyph-name="racute" unicode="&#x155;" 
d="M91 425v50h147l2 -58q32 20 90 40t102 24v-59q-41 -3 -101.5 -20t-90.5 -35v-317h160v-50h-309v50h96v375h-96zM148 617l181 100l23 -49l-183 -90z" />
    <glyph glyph-name="Rcommaaccent" unicode="&#x156;" 
d="M216 -207q25 25 25 49v8h-24v78h67v-51q0 -39 -8.5 -61t-37.5 -45zM268 269q-54 -3 -70 -3h-82v-266h-55v655h147q122 0 179 -42t57 -148q0 -71 -28.5 -114t-91.5 -70q68 -129 124 -281h-60q-55 146 -120 269zM206 605h-90v-289h80q92 0 141 33.5t49 115.5t-43.5 111
t-136.5 29z" />
    <glyph glyph-name="rcommaaccent" unicode="&#x157;" 
d="M91 425v50h147l2 -58q32 20 90 40t102 24v-59q-41 -3 -101.5 -20t-90.5 -35v-317h160v-50h-309v50h96v375h-96zM218 -207q25 25 25 49v8h-24v78h67v-51q0 -39 -8.5 -61t-37.5 -45z" />
    <glyph glyph-name="Rcaron" unicode="&#x158;" 
d="M379 882l-126 -130h-40l-126 130h59l87 -89l87 89h59zM268 269q-54 -3 -70 -3h-82v-266h-55v655h147q122 0 179 -42t57 -148q0 -71 -28.5 -114t-91.5 -70q68 -129 124 -281h-60q-55 146 -120 269zM206 605h-90v-289h80q92 0 141 33.5t49 115.5t-43.5 111t-136.5 29z" />
    <glyph glyph-name="rcaron" unicode="&#x159;" 
d="M91 425v50h147l2 -58q32 20 90 40t102 24v-59q-41 -3 -101.5 -20t-90.5 -35v-317h160v-50h-309v50h96v375h-96zM396 722l-126 -130h-40l-126 130h59l87 -89l87 89h59z" />
    <glyph glyph-name="Sacute" unicode="&#x15a;" 
d="M158 762l181 100l23 -49l-183 -90zM95.5 377.5q-41.5 41.5 -41.5 120.5t54.5 123t140.5 44t175 -31l-14 -51q-83 30 -152.5 30t-106.5 -29.5t-37 -85.5t30 -85t119.5 -52.5t129.5 -62t40 -124t-57.5 -135t-148.5 -49.5q-68 0 -172 29l13 51q102 -28 164 -28t102 34.5
t40 96.5t-29 91t-118.5 50.5t-131 63z" />
    <glyph glyph-name="sacute" unicode="&#x15b;" 
d="M78 23l13 52q99 -33 153 -33t83.5 23.5t29.5 62.5t-23.5 57.5t-97.5 35.5t-111 49q-37 30 -37 90t45.5 91.5t117.5 31.5t156 -32l-14 -47q-85 28 -137 28t-82 -18q-30 -20 -30 -54t26.5 -53t102.5 -38t108 -48.5t32 -92.5t-43 -100q-42 -37 -120 -37t-172 32zM148 617
l181 100l23 -49l-183 -90z" />
    <glyph glyph-name="Scircumflex" unicode="&#x15c;" 
d="M107 752l126 130h40l126 -130h-58l-88 90l-88 -90h-58zM95.5 377.5q-41.5 41.5 -41.5 120.5t54.5 123t140.5 44t175 -31l-14 -51q-83 30 -152.5 30t-106.5 -29.5t-37 -85.5t30 -85t119.5 -52.5t129.5 -62t40 -124t-57.5 -135t-148.5 -49.5q-68 0 -172 29l13 51
q102 -28 164 -28t102 34.5t40 96.5t-29 91t-118.5 50.5t-131 63z" />
    <glyph glyph-name="scircumflex" unicode="&#x15d;" 
d="M78 23l13 52q99 -33 153 -33t83.5 23.5t29.5 62.5t-23.5 57.5t-97.5 35.5t-111 49q-37 30 -37 90t45.5 91.5t117.5 31.5t156 -32l-14 -47q-85 28 -137 28t-82 -18q-30 -20 -30 -54t26.5 -53t102.5 -38t108 -48.5t32 -92.5t-43 -100q-42 -37 -120 -37t-172 32zM273 750
l128 -162h-58l-93 122l-93 -122h-58l128 162h46z" />
    <glyph glyph-name="Scedilla" unicode="&#x15e;" 
d="M302.5 -80.5q25.5 -23.5 25.5 -68t-25.5 -69t-67.5 -24.5q-23 0 -63 7l5 43q20 -5 47 -5q53 0 53 49q0 47 -53 47q-18 0 -43 -5l-6 41q32 8 67 8t60.5 -23.5zM95.5 377.5q-41.5 41.5 -41.5 120.5t54.5 123t140.5 44t175 -31l-14 -51q-83 30 -152.5 30t-106.5 -29.5
t-37 -85.5t30 -85t119.5 -52.5t129.5 -62t40 -124t-57.5 -135t-148.5 -49.5q-68 0 -172 29l13 51q102 -28 164 -28t102 34.5t40 96.5t-29 91t-118.5 50.5t-131 63z" />
    <glyph glyph-name="scedilla" unicode="&#x15f;" 
d="M78 23l13 52q99 -33 153.5 -33t83.5 23.5t29 62.5t-23.5 57.5t-97.5 35.5t-111 48.5t-37 91t45.5 91t117.5 31.5t156 -32l-14 -47q-86 28 -129.5 28t-65.5 -7q-54 -17 -54 -68q0 -31 26.5 -50t102.5 -38t108 -48.5t32 -92.5t-43 -100t-120.5 -37t-171.5 32zM302.5 -80.5
q25.5 -23.5 25.5 -68t-25.5 -69t-67.5 -24.5q-23 0 -63 7l5 43q20 -5 47 -5q53 0 53 49q0 47 -53 47q-18 0 -43 -5l-6 41q32 8 67 8t60.5 -23.5z" />
    <glyph glyph-name="Scaron" unicode="&#x160;" 
d="M389 882l-126 -130h-40l-126 130h59l87 -89l87 89h59zM95.5 377.5q-41.5 41.5 -41.5 120.5t54.5 123t140.5 44t175 -31l-14 -51q-83 30 -152.5 30t-106.5 -29.5t-37 -85.5t30 -85t119.5 -52.5t129.5 -62t40 -124t-57.5 -135t-148.5 -49.5q-68 0 -172 29l13 51
q102 -28 164 -28t102 34.5t40 96.5t-29 91t-118.5 50.5t-131 63z" />
    <glyph glyph-name="scaron" unicode="&#x161;" 
d="M78 23l13 52q99 -33 153 -33t83.5 23.5t29.5 62.5t-23.5 57.5t-97.5 35.5t-111 49q-37 30 -37 90t45.5 91.5t117.5 31.5t156 -32l-14 -47q-85 28 -137 28t-82 -18q-30 -20 -30 -54t26.5 -53t102.5 -38t108 -48.5t32 -92.5t-43 -100q-42 -37 -120 -37t-172 32zM396 722
l-126 -130h-40l-126 130h59l87 -89l87 89h59z" />
    <glyph glyph-name="Tcommaaccent" unicode="&#x162;" 
d="M216 -207q25 25 25 49v8h-24v78h67v-51q0 -39 -8.5 -61t-37.5 -45zM48 604v51h402v-51h-174v-604h-55v604h-173z" />
    <glyph glyph-name="tcommaaccent" unicode="&#x163;" 
d="M160 418h-84v50h84v115l53 10v-125h190v-50h-190v-234q0 -78 15.5 -110t64 -32t105.5 19l12 -50q-58 -21 -107.5 -21t-78.5 13t-42.5 41.5t-17.5 58.5t-4 79v236zM238 -207q25 25 25 49v8h-24v78h67v-51q0 -39 -8.5 -61t-37.5 -45z" />
    <glyph glyph-name="Tcaron" unicode="&#x164;" 
d="M399 882l-126 -130h-40l-126 130h59l87 -89l87 89h59zM48 604v51h402v-51h-174v-604h-55v604h-173z" />
    <glyph glyph-name="tcaron" unicode="&#x165;" 
d="M415 599v83h74v-59q0 -66 -61 -133l-21 20l21 32q17 25 19 57h-32zM160 398h-84v50h84v135l53 10v-145h190v-50h-190v-214q0 -78 15.5 -110t64 -32t105.5 19l12 -50q-58 -21 -107.5 -21t-78.5 13t-42.5 41.5t-17.5 58.5t-4 79v216z" />
    <glyph glyph-name="Tbar" unicode="&#x166;" 
d="M104 454h293v-45h-293v45zM48 604v51h402v-51h-174v-604h-55v604h-173z" />
    <glyph glyph-name="tbar" unicode="&#x167;" 
d="M76 587h84v116l53 10v-126h190v-44h-190v-95h190v-44h-190v-220q0 -78 15.5 -110t63.5 -32t106 19l12 -50q-58 -21 -108 -21t-78.5 13t-42 41.5t-17.5 58.5t-4 79v222h-84v44h84v95h-84v44z" />
    <glyph glyph-name="Utilde" unicode="&#x168;" 
d="M379 859l25 -33q-50 -55 -84 -55t-72 27t-60 27t-65 -41l-28 34q57 54 93 54t74 -26.5t56 -26.5t61 40zM54 189v466h55v-459q0 -154 141 -154q71 0 106 42.5t35 111.5v459h55v-466q0 -97 -50.5 -148t-147.5 -51t-145.5 53t-48.5 146z" />
    <glyph glyph-name="utilde" unicode="&#x169;" 
d="M374 0l-2 41q-96 -50 -160 -50t-101 44t-37 120v320h53v-320q0 -49 23.5 -80.5t71.5 -31.5t150 50v382h53v-475h-51zM379 694l25 -33q-50 -55 -84 -55t-72 27t-60 27t-65 -41l-28 34q57 54 93 54t74 -26.5t56 -26.5t61 40z" />
    <glyph glyph-name="Umacron" unicode="&#x16a;" 
d="M104 834h293v-45h-293v45zM54 189v466h55v-459q0 -154 141 -154q71 0 106 42.5t35 111.5v459h55v-466q0 -97 -50.5 -148t-147.5 -51t-145.5 53t-48.5 146z" />
    <glyph glyph-name="umacron" unicode="&#x16b;" 
d="M374 0l-2 41q-96 -50 -160 -50t-101 44t-37 120v320h53v-320q0 -49 23.5 -80.5t71.5 -31.5t150 50v382h53v-475h-51zM104 669h293v-45h-293v45z" />
    <glyph glyph-name="Ubreve" unicode="&#x16c;" 
d="M250 754q-122 0 -136 121h46q6 -41 26.5 -60t63.5 -19t63 18.5t26 60.5h47q-14 -121 -136 -121zM54 189v466h55v-459q0 -154 141 -154q71 0 106 42.5t35 111.5v459h55v-466q0 -97 -50.5 -148t-147.5 -51t-145.5 53t-48.5 146z" />
    <glyph glyph-name="ubreve" unicode="&#x16d;" 
d="M374 0l-2 41q-96 -50 -160 -50t-101 44t-37 120v320h53v-320q0 -49 23.5 -80.5t71.5 -31.5t150 50v382h53v-475h-51zM250 579q-122 0 -136 121h46q6 -41 26.5 -60t63.5 -19t63 18.5t26 60.5h47q-14 -121 -136 -121z" />
    <glyph glyph-name="Uring" unicode="&#x16e;" 
d="M325.5 888.5q28.5 -25.5 28.5 -70t-28.5 -70t-76 -25.5t-76 25.5t-28.5 70t28.5 70t76 25.5t76 -25.5zM187 818q0 -27 16.5 -42t45.5 -15t45.5 15t16.5 42q0 57 -62 57t-62 -57zM54 189v466h55v-459q0 -154 141 -154q71 0 106 42.5t35 111.5v459h55v-466
q0 -97 -50.5 -148t-147.5 -51t-145.5 53t-48.5 146z" />
    <glyph glyph-name="uring" unicode="&#x16f;" 
d="M374 0l-2 41q-96 -50 -160 -50t-101 44t-37 120v320h53v-320q0 -49 23.5 -80.5t71.5 -31.5t150 50v382h53v-475h-51zM325.5 728.5q28.5 -25.5 28.5 -70t-28.5 -70t-76 -25.5t-76 25.5t-28.5 70t28.5 70t76 25.5t76 -25.5zM187 658q0 -27 16.5 -42t45.5 -15t45.5 15
t16.5 42q0 57 -62 57t-62 -57z" />
    <glyph glyph-name="Uhungarumlaut" unicode="&#x170;" 
d="M112 741l150 124l33 -41l-157 -116zM269 741l151 123l32 -40l-157 -116zM54 189v466h55v-459q0 -154 141 -154q71 0 106 42.5t35 111.5v459h55v-466q0 -97 -50.5 -148t-147.5 -51t-145.5 53t-48.5 146z" />
    <glyph glyph-name="uhungarumlaut" unicode="&#x171;" 
d="M374 0l-2 41q-96 -50 -160 -50t-101 44t-37 120v320h53v-320q0 -49 23.5 -80.5t71.5 -31.5t150 50v382h53v-475h-51zM105 601l150 124l33 -41l-157 -116zM262 601l151 123l32 -40l-157 -116z" />
    <glyph glyph-name="Uogonek" unicode="&#x172;" 
d="M398 -237q-50 -10 -85.5 -9.5t-62 29.5t-26.5 68t16 68.5t57 69.5h-47q-96 0 -146 54.5t-50 146.5v465h55v-458q0 -156 141 -156q49 0 69 7q72 25 72 123v484h54v-493q0 -58 -18.5 -95t-69.5 -85t-66 -73.5t-15 -50.5t14.5 -42t44.5 -17t57 6z" />
    <glyph glyph-name="uogonek" unicode="&#x173;" 
d="M416 -239q-50 -10 -85.5 -9.5t-62 29.5t-26.5 74t30 81t101 80q0 5 -0.5 15t-0.5 15q-100 -52 -149.5 -52t-79 15t-43.5 45q-26 54 -26 154v267h53v-320q0 -49 23.5 -79t69.5 -30t152 52v377h53v-478q-75 -49 -103 -79t-28 -59q0 -62 58 -62q31 0 58 6z" />
    <glyph glyph-name="Wcircumflex" unicode="&#x174;" 
d="M107 752l126 130h40l126 -130h-58l-88 90l-88 -90h-58zM75 0l-73 655h57l67 -605h11l88 316h53l84 -316h12l67 605h57l-73 -655h-101l-72 282h-3l-75 -282h-99z" />
    <glyph glyph-name="wcircumflex" unicode="&#x175;" 
d="M413 475h52l-57 -475h-106l-51 207h-4l-52 -207h-105l-55 475h52l52 -427h18l67 241h52l67 -241h18zM273 750l128 -162h-58l-93 122l-93 -122h-58l128 162h46z" />
    <glyph glyph-name="Ycircumflex" unicode="&#x176;" 
d="M107 752l126 130h40l126 -130h-58l-88 90l-88 -90h-58zM276 283v-283h-54v283l-193 372h66l153 -315h2l153 315h66z" />
    <glyph glyph-name="ycircumflex" unicode="&#x177;" 
d="M53 475h60l141 -404h8l126 404h60l-184 -556q-26 -79 -54.5 -101t-115.5 -24v51q56 1 75 16t35 63l23 69zM273 750l128 -162h-58l-93 122l-93 -122h-58l128 162h46z" />
    <glyph glyph-name="Ydieresis" unicode="&#x178;" 
d="M278 283v-283h-55v283l-194 372h69l152 -315h2l154 315h63zM310 812q0 15 10 26t26 11t26.5 -11t10.5 -26t-10.5 -26t-26.5 -11t-26 11t-10 26zM117 812q0 15 10 26t26 11t26 -11t10 -26t-10 -26t-26 -11t-26 11t-10 26z" />
    <glyph glyph-name="Zacute" unicode="&#x179;" 
d="M70 605v50h360v-40l-295 -565h311v-50h-376v40l294 565h-294zM158 762l181 100l23 -49l-183 -90z" />
    <glyph glyph-name="zacute" unicode="&#x17a;" 
d="M87 425v50h326l5 -41l-269 -384h272v-50h-335l-8 41l268 384h-259zM148 617l181 100l23 -49l-183 -90z" />
    <glyph glyph-name="Zdotaccent" unicode="&#x17b;" 
d="M70 605v50h360v-40l-295 -565h311v-50h-376v40l294 565h-294zM213 812q0 15 10.5 26t26.5 11t26 -11t10 -26t-10 -26t-26 -11t-26.5 11t-10.5 26z" />
    <glyph glyph-name="zdotaccent" unicode="&#x17c;" 
d="M87 425v50h326l5 -41l-269 -384h272v-50h-335l-8 41l268 384h-259zM213 647q0 15 10.5 26t26.5 11t26 -11t10 -26t-10 -26t-26 -11t-26.5 11t-10.5 26z" />
    <glyph glyph-name="Zcaron" unicode="&#x17d;" 
d="M399 882l-126 -130h-40l-126 130h59l87 -89l87 89h59zM70 605v50h360v-40l-295 -565h311v-50h-376v40l294 565h-294z" />
    <glyph glyph-name="zcaron" unicode="&#x17e;" 
d="M87 425v50h326l5 -41l-269 -384h272v-50h-335l-8 41l268 384h-259zM400 722l-126 -130h-40l-126 130h59l87 -89l87 89h59z" />
    <glyph glyph-name="florin" unicode="&#x192;" 
d="M133 6l51 399h-90l8 50h89q22 198 163 198q46 0 99 -17l-18 -51q-52 16 -85 16q-89 0 -106 -146h168l-8 -50h-166l-52 -399q-14 -102 -53 -150t-108 -48l3 49q45 0 69 36.5t36 112.5z" />
    <glyph glyph-name="Aringacute" unicode="&#x1fa;" 
d="M322 730l56 191l59 -15l-74 -189zM255.5 888.5q28.5 -25.5 28.5 -70t-28.5 -70t-76 -25.5t-76 25.5t-28.5 70t28.5 70t76 25.5t76 -25.5zM117 818q0 -27 16.5 -42t45.5 -15t45.5 15t16.5 42q0 57 -62 57t-62 -57zM17 0l188 655h96l181 -655h-59l-41 151h-265l-42 -151
h-58zM369 201l-108 404h-17l-113 -404h238z" />
    <glyph glyph-name="aringacute" unicode="&#x1fb;" 
d="M154 792l181 100l23 -44l-183 -90zM218 43q37 0 80.5 23.5t63.5 43.5v119q-65 5 -125.5 5t-90.5 -25.5t-30 -68.5q0 -97 102 -97zM217 -9q-73 0 -115 37.5t-42 106.5t45.5 107.5t122 38.5t134.5 -6q0 89 -22 121.5t-89 32.5t-158 -32l-15 50q93 34 168 34q99 0 134 -44
t35 -154v-210l8 -76l-51 -5l-10 60q-23 -20 -65 -40.5t-80 -20.5zM325.5 693.5q28.5 -25.5 28.5 -70t-28.5 -70t-76 -25.5t-76 25.5t-28.5 70t28.5 70t76 25.5t76 -25.5zM187 623q0 -27 16.5 -42t45.5 -15t45.5 15t16.5 42q0 57 -62 57t-62 -57z" />
    <glyph glyph-name="AEacute" unicode="&#x1fc;" 
d="M481 0h-222v151h-143l-42 -151h-58l190 655h272v-48h-164v-250h137v-48h-137v-261h167v-48zM174 794l204 88l19 -46l-206 -84zM130 201h129v407h-11z" />
    <glyph glyph-name="aeacute" unicode="&#x1fd;" 
d="M148 617l181 100l23 -49l-183 -90zM135 -10q-53 0 -84.5 38.5t-31.5 103t36.5 101t100.5 36.5h65q0 101 -5.5 114.5t-11.5 23.5q-10 16 -49 16t-103 -31l-18 48q72 35 120.5 35t71 -13.5t33.5 -46.5q27 65 96.5 65t99.5 -50.5t30 -160.5l-3 -52h-208q10 -133 50 -163
q18 -14 39 -13q33 1 85 17l18 5l15 -48q-65 -25 -108.5 -25t-70.5 16.5t-47 53.5q-38 -70 -120 -70zM221 92v126h-65q-38 0 -59.5 -22t-21.5 -62q0 -93 65 -93q40 1 68 33q6 8 13 18zM412.5 388.5q-15.5 39.5 -58.5 39.5t-60.5 -38t-19.5 -123h154q0 82 -15.5 121.5z" />
    <glyph glyph-name="Oslashacute" unicode="&#x1fe;" 
d="M155 794l204 88l19 -46l-206 -84zM40 336q0 246 106 306q42 24 104 23q84 0 135 -49l28 50l37 -22l-37 -64q47 -79 47 -244q0 -257 -107 -321q-42 -25 -103 -25q-89 0 -139 56l-30 -54l-36 22l40 71q-45 83 -45 251zM120 148l235 415q-38 50 -105 50q-40 0 -68.5 -17.5
t-44 -43.5t-24.5 -66q-14 -62 -14 -167.5t21 -170.5zM378 518l-236 -418q35 -58 108 -58q96 0 126 94q26 80 25.5 200t-23.5 182z" />
    <glyph glyph-name="oslashacute" unicode="&#x1ff;" 
d="M424 489l-36 -64q53 -60 53 -189q0 -245 -191 -245q-56 0 -97 22l-32 -56l-42 26l35 61q-55 61 -55 192q0 245 191 245q58 0 98 -23l33 57zM116 236q0 -92 28 -138l177 312q-30 19 -71 19q-134 0 -134 -193zM384 236q0 89 -27 136l-177 -311q27 -18 70 -18q134 0 134 193
zM148 617l181 100l23 -49l-183 -90z" />
    <glyph glyph-name="Scommaaccent" unicode="&#x218;" 
d="M196 -207q25 25 25 49v8h-24v78h67v-51q0 -39 -8.5 -61t-37.5 -45zM95.5 377.5q-41.5 41.5 -41.5 120.5t54.5 123t140.5 44t175 -31l-14 -51q-83 30 -152.5 30t-106.5 -29.5t-37 -85.5t30 -85t119.5 -52.5t129.5 -62t40 -124t-57.5 -135t-148.5 -49.5q-68 0 -172 29
l13 51q102 -28 164 -28t102 34.5t40 96.5t-29 91t-118.5 50.5t-131 63z" />
    <glyph glyph-name="scommaaccent" unicode="&#x219;" 
d="M78 23l13 52q99 -33 153.5 -33t83.5 23.5t29 62.5t-23.5 57.5t-97.5 35.5t-111 48.5t-37 91t45.5 91t117.5 31.5t156 -32l-14 -47q-86 28 -137.5 28t-81.5 -18.5t-30 -53t26.5 -53.5t102.5 -38t108 -48.5t32 -92.5t-43 -100t-120.5 -37t-171.5 32zM196 -207q25 25 25 49
v8h-24v78h67v-51q0 -39 -8.5 -61t-37.5 -45z" />
    <glyph glyph-name="Delta" unicode="&#x394;" 
d="M481 0h-465l190 654h96zM88 50h321l-149 558h-13z" />
    <glyph glyph-name="Delta" unicode="&#x2206;" 
d="M481 0h-465l190 654h96zM88 50h321l-149 558h-13z" />
    <glyph glyph-name="Omega" unicode="&#x3a9;" 
d="M147 45v5q-65 45 -86 115.5t-21 164t10 148.5t32 99q45 88 168 88q122 0 168 -88q42 -80 42 -231q0 -169 -49 -239q-23 -33 -58 -57v-5l99 5v-50h-173v50q37 12 62.5 45t37.5 78q22 82 22 149.5t-2.5 100t-11 70.5t-24.5 62.5t-44.5 41t-68.5 16.5t-68.5 -16.5
t-44.5 -40.5q-17 -24 -25 -63q-14 -60 -13.5 -121t3 -93.5t11 -71t21 -68.5t35 -54.5t52.5 -34.5v-50h-167v50z" />
    <glyph glyph-name="Omega" unicode="&#x2126;" 
d="M147 45v5q-65 45 -86 115.5t-21 164t10 148.5t32 99q45 88 168 88q122 0 168 -88q42 -80 42 -231q0 -169 -49 -239q-23 -33 -58 -57v-5l99 5v-50h-173v50q37 12 62.5 45t37.5 78q22 82 22 149.5t-2.5 100t-11 70.5t-24.5 62.5t-44.5 41t-68.5 16.5t-68.5 -16.5
t-44.5 -40.5q-17 -24 -25 -63q-14 -60 -13.5 -121t3 -93.5t11 -71t21 -68.5t35 -54.5t52.5 -34.5v-50h-167v50z" />
    <glyph glyph-name="pi" unicode="&#x3c0;" 
d="M21 475h468v-50h-94v-425h-53v425h-174v-425h-53v425h-94v50z" />
    <glyph glyph-name="Wgrave" unicode="&#x1e80;" 
d="M160 883l204 -88l-17 -42l-206 84zM75 0l-73 655h57l67 -605h11l88 316h53l84 -316h12l67 605h57l-73 -655h-101l-72 282h-3l-75 -282h-99z" />
    <glyph glyph-name="wgrave" unicode="&#x1e81;" 
d="M413 475h52l-57 -475h-106l-51 207h-4l-52 -207h-105l-55 475h52l52 -427h18l67 241h52l67 -241h18zM171 717l181 -100l-21 -39l-183 90z" />
    <glyph glyph-name="Wacute" unicode="&#x1e82;" 
d="M155 794l204 88l19 -46l-206 -84zM75 0l-73 655h57l67 -605h11l88 316h53l84 -316h12l67 605h57l-73 -655h-101l-72 282h-3l-75 -282h-99z" />
    <glyph glyph-name="wacute" unicode="&#x1e83;" 
d="M413 475h52l-57 -475h-106l-51 207h-4l-52 -207h-105l-55 475h52l52 -427h18l67 241h52l67 -241h18zM148 617l181 100l23 -49l-183 -90z" />
    <glyph glyph-name="Wdieresis" unicode="&#x1e84;" 
d="M117 812q0 15 10 26t26 11t26 -11t10 -26t-10 -26t-26 -11t-26 11t-10 26zM310 812q0 15 10 26t26 11t26.5 -11t10.5 -26t-10.5 -26t-26.5 -11t-26 11t-10 26zM75 0l-73 655h57l67 -605h11l88 316h53l84 -316h12l67 605h57l-73 -655h-101l-72 282h-3l-75 -282h-99z" />
    <glyph glyph-name="wdieresis" unicode="&#x1e85;" 
d="M413 475h52l-57 -475h-106l-51 207h-4l-52 -207h-105l-55 475h52l52 -427h18l67 241h52l67 -241h18zM117 647q0 15 10 26t26 11t26 -11t10 -26t-10 -26t-26 -11t-26 11t-10 26zM310 647q0 15 10 26t26 11t26.5 -11t10.5 -26t-10.5 -26t-26.5 -11t-26 11t-10 26z" />
    <glyph glyph-name="Ygrave" unicode="&#x1ef2;" 
d="M160 883l204 -88l-17 -42l-206 84zM276 283v-283h-54v283l-193 372h66l153 -315h2l153 315h66z" />
    <glyph glyph-name="ygrave" unicode="&#x1ef3;" 
d="M53 475h60l141 -404h8l126 404h60l-184 -556q-26 -79 -54.5 -101t-115.5 -24v51q56 1 75 16t35 63l23 69zM171 717l181 -100l-21 -39l-183 90z" />
    <glyph glyph-name="endash" unicode="&#x2013;" 
d="M70 261v44h359v-44h-359z" />
    <glyph glyph-name="emdash" unicode="&#x2014;" 
d="M0 261v44h500v-44h-500z" />
    <glyph glyph-name="quoteleft" unicode="&#x2018;" 
d="M310 661l-58 -207l-64 17l80 201z" />
    <glyph glyph-name="quoteright" unicode="&#x2019;" 
d="M189 472l58 207l64 -17l-80 -201z" />
    <glyph glyph-name="quotedblleft" unicode="&#x201c;" 
d="M369 656l-58 -207l-64 17l80 201zM226 674l-58 -207l-64 17l80 201z" />
    <glyph glyph-name="quotedblright" unicode="&#x201d;" 
d="M117 475l58 207l64 -17l-80 -201zM260 457l58 207l64 -17l-80 -201z" />
    <glyph glyph-name="dagger" unicode="&#x2020;" 
d="M46 500v48l179 -1l-1 211h53l-1 -211l179 1v-48l-179 1l1 -618h-53l1 618z" />
    <glyph glyph-name="daggerdbl" unicode="&#x2021;" 
d="M46 113v48h178v339h-178v48h178v210h53v-210h178v-48h-178v-339h178v-48h-178v-230h-53v230h-178z" />
    <glyph glyph-name="bullet" unicode="&#x2022;" 
d="M278 331v-64h-58v64h58z" />
    <glyph glyph-name="ellipsis" unicode="&#x2026;" 
d="M52 0v81h69v-81h-69zM205 0v81h69v-81h-69zM359 0v81h69v-81h-69z" />
    <glyph glyph-name="perthousand" unicode="&#x2030;" 
d="M500 391l-500 -123v51l500 122v-50zM0 525q0 60 35 95t88 35t88 -35t35 -95t-35 -95t-88 -35t-88 35t-35 95zM48 525q0 -40 21.5 -62t53.5 -22t53.5 22t21.5 62t-21.5 62t-53.5 22t-53.5 -22t-21.5 -62zM260 130q0 60 34 95t86 35t86 -35t34 -95t-34 -95t-86 -35t-86 35
t-34 95zM308 130q0 -40 19.5 -62t51.5 -22t52.5 22t20.5 62t-20.5 62t-52.5 22t-51.5 -22t-19.5 -62zM240 130q0 -60 -34 -95t-86 -35t-86 35t-34 95t34 95t86 35t86 -35t34 -95zM192 130q0 40 -19.5 62t-51.5 22t-52.5 -22t-20.5 -62t20.5 -62t52.5 -22t51.5 22t19.5 62z
" />
    <glyph glyph-name="guilsinglleft" unicode="&#x2039;" 
d="M142 248l197 169v-65l-145 -126l145 -123v-64l-197 169v40z" />
    <glyph glyph-name="guilsinglright" unicode="&#x203a;" 
d="M142 417l197 -169v-40l-197 -169v64l145 123l-145 126v65z" />
    <glyph glyph-name="fraction" unicode="&#x2044;" 
d="M359 665h56l-277 -665h-56z" />
    <glyph glyph-name="Euro" unicode="&#x20ac;" 
d="M15 404h48q12 123 66 181q53 58 147 58t167 -25l-15 -51q-78 24 -148 24t-109 -45t-49 -142h242v-44h-245q-1 -14 -1 -42v-33h246v-44h-243q11 -105 52.5 -151.5t108.5 -46.5t154 27l13 -51q-83 -28 -173 -28t-146 58t-68 192h-47v44h44v33q0 28 1 42h-45v44z" />
    <glyph glyph-name="trademark" unicode="&#x2122;" 
d="M14 551v39h180v-39h-67v-258h-43v258h-70zM271 489l1 -196h-38v297h35l78 -187h2l83 187h35v-297h-38l1 196h-4l-66 -140h-24l-61 140h-4z" />
    <glyph glyph-name="partialdiff" unicode="&#x2202;" 
d="M64 198q0 199 174 199q77 0 120 -64q-24 84 -45 119.5t-43 53.5q-45 39 -125 75l22 47q136 -52 192.5 -148.5t56.5 -278.5q0 -208 -177 -208q-87 0 -131 55.5t-44 149.5zM122 198q0 -156 117 -156q65 0 92 39.5t27 112t-31.5 113.5t-91 41t-86.5 -37t-27 -113z" />
    <glyph glyph-name="product" unicode="&#x220f;" 
d="M16 605v50h468v-50h-78v-674h-55v674h-206v-674h-55v674h-74z" />
    <glyph glyph-name="summation" unicode="&#x2211;" 
d="M449 655v-49h-340l206 -332l-206 -345h339v-49h-401v56l201 338l-201 326v55h402z" />
    <glyph glyph-name="minus" unicode="&#x2212;" 
d="M35 261v44h430v-44h-430z" />
    <glyph glyph-name="radical" unicode="&#x221a;" 
d="M21 354v44h137l83 -354h22l143 611h53l-158 -655h-100l-86 354h-94z" />
    <glyph glyph-name="infinity" unicode="&#x221e;" 
d="M119 121q-114 0 -114 170t119 170q56 0 82 -22t53 -91q19 57 46 84.5t84.5 27.5t81.5 -44t24 -128q0 -167 -110 -167q-56 0 -82.5 26.5t-50.5 85.5q-24 -58 -52.5 -85t-80.5 -27zM57 290q0 -120 69 -120q37 0 56 24.5t48 95.5q-31 79 -49.5 100.5t-54 21.5t-52.5 -33.5
t-17 -88.5zM443 288q0 65 -15.5 94.5t-49.5 29.5t-51.5 -23t-45.5 -92q21 -74 41 -100.5t56 -26.5q65 0 65 118z" />
    <glyph glyph-name="integral" unicode="&#x222b;" 
d="M210 582q0 198 147 198q36 0 67 -7l-13 -51q-27 6 -52 6q-52 0 -74 -35t-22 -111v-584q0 -198 -147 -198q-36 0 -67 7l13 51q27 -6 52 -6q52 0 74 35t22 111v584z" />
    <glyph glyph-name="approxequal" unicode="&#x2248;" 
d="M439 394l35 -30q-37 -40 -64.5 -59t-59.5 -19t-70 19.5t-71 39t-57 19.5q-32 1 -90 -62l-36 31q73 78 126 78q40 0 106 -39t94 -39t87 61zM439 200l35 -30q-37 -40 -64.5 -59t-59.5 -19t-70 19.5t-71 39t-57 19.5q-32 1 -90 -62l-36 31q73 78 126 78q40 0 106 -39t94 -39
t87 61z" />
    <glyph glyph-name="notequal" unicode="&#x2260;" 
d="M25 375h281l111 134l37 -30l-87 -104h107v-44h-144l-105 -124h249v-44h-287l-110 -134l-37 31l90 103h-105v44h141l101 124h-242v44z" />
    <glyph glyph-name="lessequal" unicode="&#x2264;" 
d="M463 484l-364 -139l364 -149l-18 -41l-411 170v39l411 161zM378 34h-302l-7 34l51 5h302l7 -35z" />
    <glyph glyph-name="greaterequal" unicode="&#x2265;" 
d="M398 345l-364 139l18 41l411 -161v-39l-411 -170l-18 41zM422 34h-302l-51 4l7 35h302l51 -5z" />
    <glyph glyph-name="lozenge" unicode="&#x25ca;" 
d="M470 346l-218 -344l-218 344l218 344zM408 346l-156 248l-156 -248l156 -249z" />
    <glyph glyph-name="Imacron" 
d="M104 834h293v-45h-293v45zM111 0v50h113v555h-113v50h279v-50h-111v-555h111v-50h-279z" />
    <glyph glyph-name="ibreve" 
d="M123 425v50h169v-425h116v-50h-293v50h124v375h-116zM250 579q-122 0 -136 121h46q6 -41 26.5 -60t63.5 -19t63 18.5t26 60.5h47q-14 -121 -136 -121z" />
    <glyph glyph-name="a.sc" 
d="M52 0l159 517h88l149 -517h-57l-33 113h-216l-33 -113h-57zM345 163l-87 307h-8l-94 -307h189z" />
    <glyph glyph-name="b.sc" 
d="M96 0v517h139q92 0 136.5 -30.5t44.5 -104.5q0 -88 -91 -113q106 -22 106 -121q0 -84 -49.5 -116t-153.5 -32h-132zM375 148q0 92 -132 92h-93v-194h80q72 0 108.5 24t36.5 78zM361 381q0 57 -41 75q-34 14 -84 15h-86v-183h90q120 0 121 93z" />
    <glyph glyph-name="c.sc" 
d="M130.5 56q-47.5 63 -47.5 202t46.5 202t145.5 63q61 0 136 -21v-107h-54v67q-32 12 -82 12q-71 0 -103 -49t-32 -165.5t34.5 -165.5t93.5 -49t135 21l13 -50q-70 -22 -141 -22q-97 -1 -144.5 62z" />
    <glyph glyph-name="d.sc" 
d="M88 0v518h116q82 0 128 -21q94 -43 94 -238q0 -155 -57 -209q-30 -28 -69 -39t-98 -11h-114zM359 147.5q10 42.5 10 104t-7 100t-19.5 61.5t-34.5 35q-37 20 -108 21h-58v-420h57q46 0 74 7t52 28t34 63.5z" />
    <glyph glyph-name="e.sc" 
d="M102 0v517h293v-49h-239v-180h217v-49h-217v-190h242v-49h-296z" />
    <glyph glyph-name="f.sc" 
d="M103 0v517h294v-50h-240v-211h205v-48h-205v-208h-54z" />
    <glyph glyph-name="g.sc" 
d="M117.5 56.5q-47.5 62.5 -47.5 202t47 202t152 62.5q69 0 144 -25l-12 -48q-71 23 -132 23q-77 0 -109.5 -49.5t-32.5 -163t34 -164.5t103 -51q47 0 99 16v145h-94v48h148v-232q-79 -28 -153 -28q-99 0 -146.5 62.5z" />
    <glyph glyph-name="h.sc" 
d="M86 0v517h54v-231h229v231h54v-517h-54v237h-229v-237h-54z" />
    <glyph glyph-name="i.sc" 
d="M129 0v49h96v418h-96v50h243v-50h-93v-418h93v-49h-243z" />
    <glyph glyph-name="j.sc" 
d="M108 467v50h279v-339q0 -97 -56 -134.5t-205 -53.5l-7 52q126 14 169.5 40.5t43.5 95.5v289h-224z" />
    <glyph glyph-name="k.sc" 
d="M94 0v517h54v-238l74 7q74 104 122 198l16 33h61q-64 -126 -150 -251q71 -100 135 -224l21 -42h-64q-69 142 -137 235l-78 -6v-229h-54z" />
    <glyph glyph-name="l.sc" 
d="M104 0v517h55v-467h241v-50h-296z" />
    <glyph glyph-name="m.sc" 
d="M76 0v517h52l121 -288h8l117 288h50v-517h-53v394h-3l-84 -210h-62l-90 210h-3v-394h-53z" />
    <glyph glyph-name="n.sc" 
d="M78 0v517h54l233 -350h3v350h54v-517h-54v78l-232 346h-3v-424h-55z" />
    <glyph glyph-name="o.sc" 
d="M72 266q0 194 90 239q36 18 89 18q101 0 139.5 -66t38.5 -194.5t-39 -198.5t-138.5 -70t-139.5 70.5t-40 201.5zM368 182.5q4 34.5 4 75.5t-2 66t-9 55t-19.5 49.5t-35.5 32.5t-55 13t-55.5 -13t-36 -32.5t-19.5 -49.5q-11 -47 -11 -104.5t4.5 -92t16.5 -69t37.5 -52.5
t63.5 -18t63.5 18t37.5 52.5t16 69z" />
    <glyph glyph-name="p.sc" 
d="M98 0v517h133q100 0 147 -35.5t47 -124t-48 -128t-146 -39.5h-79v-190h-54zM335 267q34 27 34 90t-34 87t-107 24h-76v-228h76q73 0 107 27z" />
    <glyph glyph-name="q.sc" 
d="M72 266q0 194 90 239q36 18 89 18q101 0 139.5 -66t38.5 -193.5t-35 -192.5l50 -41l-32 -40l-49 42q-40 -38 -112 -38q-99 0 -139 70.5t-40 201.5zM131 324q-2 -25 -2 -66t4.5 -75.5t16.5 -68.5q25 -71 101 -71q44 0 71 25l-69 63l32 38l65 -60q22 51 22 156
q0 115 -30 163q-29 45 -91 46q-32 0 -55.5 -13t-36 -32.5t-19.5 -49.5t-9 -55z" />
    <glyph glyph-name="r.sc" 
d="M89 0v517h133q103 0 149 -33.5t46 -113.5q0 -56 -29 -95.5t-80 -52.5q52 -78 108 -188l17 -34h-62q-53 116 -117 211q-30 -2 -60 -2h-51v-209h-54zM318 285q41 26 41 82.5t-33 78.5t-110 22h-74v-209h56q79 0 120 26z" />
    <glyph glyph-name="s.sc" 
d="M125 291q-36 33 -36 98t47 99.5t119.5 34.5t147.5 -25l-13 -48q-82 24 -132 24q-112 0 -112 -88q0 -38 25.5 -59t99.5 -39.5t107.5 -50t33.5 -100.5t-49 -106t-127 -37q-52 0 -146 23l11 49q103 -23 135 -23q56 0 87.5 25.5t31.5 69t-23.5 65t-97 38.5t-109.5 50z" />
    <glyph glyph-name="t.sc" 
d="M78 467v50h343v-50h-145v-467h-54v467h-144z" />
    <glyph glyph-name="u.sc" 
d="M82 158v359h54v-353q0 -119 115 -119q58 0 86 32.5t28 86.5v353h54v-359q-1 -164 -169 -164t-168 164z" />
    <glyph glyph-name="v.sc" 
d="M202 0l-130 517h59l113 -465h15l112 465h58l-130 -517h-97z" />
    <glyph glyph-name="w.sc" 
d="M100 0l-60 517h56l51 -466h9l71 242h46l70 -242h10l52 466h56l-60 -517h-92l-58 213h-3l-59 -213h-89z" />
    <glyph glyph-name="x.sc" 
d="M241 218l-102 -218h-66l134 265l-127 252h67l98 -207h3l97 207h65l-129 -252l142 -265h-69l-111 218h-2z" />
    <glyph glyph-name="y.sc" 
d="M60 517h66l122 -239h7l122 239h62l-161 -295v-222h-54v222z" />
    <glyph glyph-name="z.sc" 
d="M97 0l-6 39l239 428h-239v50h298l7 -41l-238 -427h251v-49h-312z" />
    <glyph glyph-name="aacute.sc" 
d="M52 0l159 517h88l149 -517h-57l-33 113h-216l-33 -113h-57zM345 163l-87 307h-8l-94 -307h189zM147 597l181 100l23 -49l-183 -90z" />
    <glyph glyph-name="agrave.sc" 
d="M52 0l159 517h88l149 -517h-57l-33 113h-216l-33 -113h-57zM345 163l-87 307h-8l-94 -307h189zM152 648l23 49l181 -100l-21 -39z" />
    <glyph glyph-name="acircumflex.sc" 
d="M52 0l159 517h88l149 -517h-57l-33 113h-216l-33 -113h-57zM345 163l-87 307h-8l-94 -307h189zM110 585l119 110h52l120 -110l-29 -34l-117 101l-115 -101z" />
    <glyph glyph-name="atilde.sc" 
d="M52 0l159 517h88l149 -517h-57l-33 113h-216l-33 -113h-57zM345 163l-87 307h-8l-94 -307h189zM101 633q51 49 90 49t77 -20t60 -20t57 32l25 -33q-44 -47 -81 -47t-75 20q-38 21 -64 21t-62 -34z" />
    <glyph glyph-name="adieresis.sc" 
d="M52 0l159 517h88l149 -517h-57l-33 113h-216l-33 -113h-57zM345 163l-87 307h-8l-94 -307h189zM117 626q0 15 10 26t26 11t26 -11t10 -26t-10 -26t-26 -11t-26 11t-10 26zM310 626q0 15 10 26t26 11t26.5 -11t10.5 -26t-10.5 -26t-26.5 -11t-26 11t-10 26z" />
    <glyph glyph-name="amacron.sc" 
d="M104 639h293v-45h-293v45zM52 0l159 517h88l149 -517h-57l-33 113h-216l-33 -113h-57zM345 163l-87 307h-8l-94 -307h189z" />
    <glyph glyph-name="abreve.sc" 
d="M250 579q-122 0 -136 121h46q6 -41 26.5 -60t63.5 -19t63 18.5t26 60.5h47q-14 -121 -136 -121zM52 0l159 517h88l149 -517h-57l-33 113h-216l-33 -113h-57zM345 163l-87 307h-8l-94 -307h189z" />
    <glyph glyph-name="aring.sc" 
d="M52 0l159 517h88l149 -517h-57l-33 113h-216l-33 -113h-57zM345 163l-87 307h-8l-94 -307h189zM180.5 574.5q-28.5 25.5 -28.5 70t28.5 70t76 25.5t76 -25.5t28.5 -70t-28.5 -70t-76 -25.5t-76 25.5zM319 644q0 27 -16.5 42t-46.5 15q-62 0 -62 -57q0 -27 16.5 -42
t45.5 -15t46 15t17 42z" />
    <glyph glyph-name="aringacute.sc" 
d="M161 782l181 100l23 -44l-183 -90zM52 0l159 517h88l149 -517h-57l-33 113h-216l-33 -113h-57zM345 163l-87 307h-8l-94 -307h189zM180.5 574.5q-28.5 25.5 -28.5 70t28.5 70t76 25.5t76 -25.5t28.5 -70t-28.5 -70t-76 -25.5t-76 25.5zM319 644q0 27 -16.5 42t-46.5 15
q-62 0 -62 -57q0 -27 16.5 -42t45.5 -15t46 15t17 42z" />
    <glyph glyph-name="aogonek.sc" 
d="M449 -239q-40 -8 -80.5 -7.5t-66 28.5t-25.5 73t25 79.5t86 75.5l-30 103h-216l-33 -113h-57l159 517h88l149 -517q-71 -46 -96 -78t-25 -62q0 -63 58 -63q31 0 58 6zM345 163l-87 307h-8l-94 -307h189z" />
    <glyph glyph-name="ae.sc" 
d="M52 0l159 517h248v-49h-147v-180h125v-49h-125v-190h150v-49h-204v113h-116l-33 -113h-57zM258 163v307h-8l-94 -307h102z" />
    <glyph glyph-name="aeacute.sc" 
d="M157 597l181 100l23 -49l-183 -90zM52 0l159 517h248v-49h-147v-180h125v-49h-125v-190h150v-49h-204v113h-116l-33 -113h-57zM258 163v307h-8l-94 -307h102z" />
    <glyph glyph-name="cacute.sc" 
d="M130.5 56q-47.5 63 -47.5 202t46.5 202t145.5 63q61 0 136 -21v-107h-54v67q-32 12 -82 12q-71 0 -103 -49t-32 -165.5t34.5 -165.5t93.5 -49t135 21l13 -50q-70 -22 -141 -22q-97 -1 -144.5 62zM167 597l181 100l23 -49l-183 -90z" />
    <glyph glyph-name="ccircumflex.sc" 
d="M130.5 56q-47.5 63 -47.5 202t46.5 202t145.5 63q61 0 136 -21v-107h-54v67q-32 12 -82 12q-71 0 -103 -49t-32 -165.5t34.5 -165.5t93.5 -49t135 21l13 -50q-70 -22 -141 -22q-97 -1 -144.5 62zM132 585l119 110h52l120 -110l-29 -34l-117 106l-115 -106z" />
    <glyph glyph-name="ccaron.sc" 
d="M130.5 56q-47.5 63 -47.5 202t46.5 202t145.5 63q61 0 136 -21v-107h-54v67q-32 12 -82 12q-71 0 -103 -49t-32 -165.5t34.5 -165.5t93.5 -49t135 21l13 -50q-70 -22 -141 -22q-97 -1 -144.5 62zM249 551l-119 110l30 34l115 -106l117 106l29 -34l-120 -110h-52z" />
    <glyph glyph-name="cdotaccent.sc" 
d="M130.5 56q-47.5 63 -47.5 202t46.5 202t145.5 63q61 0 136 -21v-107h-54v67q-32 12 -82 12q-71 0 -103 -49t-32 -165.5t34.5 -165.5t93.5 -49t135 21l13 -50q-70 -22 -141 -22q-97 -1 -144.5 62zM238 627q0 15 10.5 26t26 11t26 -11t10.5 -26t-10.5 -26t-26 -11t-26 11
t-10.5 26z" />
    <glyph glyph-name="ccedilla.sc" 
d="M130.5 56q-47.5 63 -47.5 202t46.5 202t145.5 63q61 0 136 -21v-107h-54v67q-32 12 -82 12q-71 0 -103 -49t-32 -165.5t34.5 -165.5t93.5 -49t135 21l13 -50q-70 -22 -141 -22q-97 -1 -144.5 62zM307 -148q0 47 -53 47q-18 0 -43 -5l-6 41q32 8 67 8t60.5 -23.5t25.5 -68
t-25.5 -69t-67.5 -24.5q-23 0 -63 7l5 43q20 -5 47 -5q53 0 53 49z" />
    <glyph glyph-name="dcaron.sc" 
d="M88 0v518h116q82 0 128 -21q94 -43 94 -238q0 -155 -57 -209q-30 -28 -69 -39t-98 -11h-114zM359 147.5q10 42.5 10 104t-7 100t-19.5 61.5t-34.5 35q-37 20 -108 21h-58v-420h57q46 0 74 7t52 28t34 63.5zM199 551l-119 110l30 34l115 -106l117 106l29 -34l-120 -110
h-52z" />
    <glyph glyph-name="dcroat.sc" 
d="M33 243v48h62v227h109q82 0 128 -21q94 -43 94 -238q0 -155 -57 -209q-30 -28 -69 -39t-98 -11h-107v243h-62zM359 147.5q10 42.5 10 104t-7 100t-19.5 61.5t-34.5 35q-37 20 -108 21h-51v-178h105v-48h-105v-194h50q46 0 74 7t52 28t34 63.5z" />
    <glyph glyph-name="eacute.sc" 
d="M102 0v517h293v-49h-239v-180h217v-49h-217v-190h242v-49h-296zM147 597l181 100l23 -49l-183 -90z" />
    <glyph glyph-name="egrave.sc" 
d="M102 0v517h293v-49h-239v-180h217v-49h-217v-190h242v-49h-296zM152 648l23 49l181 -100l-21 -39z" />
    <glyph glyph-name="ecircumflex.sc" 
d="M102 0v517h293v-49h-239v-180h217v-49h-217v-190h242v-49h-296zM105 585l119 110h52l120 -110l-29 -34l-117 101l-115 -101z" />
    <glyph glyph-name="ecaron.sc" 
d="M102 0v517h293v-49h-239v-180h217v-49h-217v-190h242v-49h-296zM219 551l-119 110l30 34l115 -106l117 106l29 -34l-120 -110h-52z" />
    <glyph glyph-name="edieresis.sc" 
d="M102 0v517h293v-49h-239v-180h217v-49h-217v-190h242v-49h-296zM117 626q0 15 10 26t26 11t26 -11t10 -26t-10 -26t-26 -11t-26 11t-10 26zM310 626q0 15 10 26t26 11t26.5 -11t10.5 -26t-10.5 -26t-26.5 -11t-26 11t-10 26z" />
    <glyph glyph-name="emacron.sc" 
d="M102 0v517h293v-49h-239v-180h217v-49h-217v-190h242v-49h-296zM100 639h293v-45h-293v45z" />
    <glyph glyph-name="ebreve.sc" 
d="M102 0v517h293v-49h-239v-180h217v-49h-217v-190h242v-49h-296zM250 579q-122 0 -136 121h46q6 -41 26.5 -60t63.5 -19t63 18.5t26 60.5h47q-14 -121 -136 -121z" />
    <glyph glyph-name="edotaccent.sc" 
d="M102 0v517h293v-49h-239v-180h217v-49h-217v-190h242v-49h-296zM208 627q0 15 10 26t26 11t26.5 -11t10.5 -26t-10.5 -26t-26.5 -11t-26 11t-10 26z" />
    <glyph glyph-name="eogonek.sc" 
d="M399 -239q-40 -8 -80.5 -7.5t-66 28.5t-25.5 73q0 87 103 145h-228v517h293v-49h-239v-180h217v-49h-217v-190h242v-49q-72 -47 -96.5 -78.5t-24.5 -61.5q0 -63 58 -63q31 0 58 6z" />
    <glyph glyph-name="gcircumflex.sc" 
d="M117.5 56.5q-47.5 62.5 -47.5 202t47 202t152 62.5q69 0 144 -25l-12 -48q-71 23 -132 23q-77 0 -109.5 -49.5t-32.5 -163t34 -164.5t103 -51q47 0 99 16v145h-94v48h148v-232q-79 -28 -153 -28q-99 0 -146.5 62.5zM115 585l119 110h52l120 -110l-29 -34l-117 106
l-115 -106z" />
    <glyph glyph-name="gbreve.sc" 
d="M117.5 56.5q-47.5 62.5 -47.5 202t47 202t152 62.5q69 0 144 -25l-12 -48q-71 23 -132 23q-77 0 -109.5 -49.5t-32.5 -163t34 -164.5t103 -51q47 0 99 16v145h-94v48h148v-232q-79 -28 -153 -28q-99 0 -146.5 62.5zM270 579q-122 0 -136 121h46q6 -41 26.5 -60t63.5 -19
t63 18.5t26 60.5h47q-14 -121 -136 -121z" />
    <glyph glyph-name="gdotaccent.sc" 
d="M117.5 56.5q-47.5 62.5 -47.5 202t47 202t152 62.5q69 0 144 -25l-12 -48q-71 23 -132 23q-77 0 -109.5 -49.5t-32.5 -163t34 -164.5t103 -51q47 0 99 16v145h-94v48h148v-232q-79 -28 -153 -28q-99 0 -146.5 62.5zM228 627q0 15 10.5 26t26 11t26 -11t10.5 -26
t-10.5 -26t-26 -11t-26 11t-10.5 26z" />
    <glyph glyph-name="gcommaaccent.sc" 
d="M304 722q-25 -25 -25 -49v-8h24v-78h-67v51q0 39 8.5 61t37.5 45zM117.5 56.5q-47.5 62.5 -47.5 202t47 202t152 62.5q69 0 144 -25l-12 -48q-71 23 -132 23q-77 0 -109.5 -49.5t-32.5 -163t34 -164.5t103 -51q47 0 99 16v145h-94v48h148v-232q-79 -28 -153 -28
q-99 0 -146.5 62.5z" />
    <glyph glyph-name="hcircumflex.sc" 
d="M86 0v517h54v-231h229v231h54v-517h-54v237h-229v-237h-54zM107 585l119 110h52l120 -110l-29 -34l-117 101l-115 -101z" />
    <glyph glyph-name="hbar.sc" 
d="M86 0v383h-70v41h70v93h54v-93h229v93h54v-93h61v-41h-61v-383h-54v237h-229v-237h-54zM140 286h229v97h-229v-97z" />
    <glyph glyph-name="iacute.sc" 
d="M129 0v49h96v418h-96v50h243v-50h-93v-418h93v-49h-243zM147 597l181 100l23 -49l-183 -90z" />
    <glyph glyph-name="igrave.sc" 
d="M129 0v49h96v418h-96v50h243v-50h-93v-418h93v-49h-243zM152 648l23 49l181 -100l-21 -39z" />
    <glyph glyph-name="icircumflex.sc" 
d="M129 0v49h96v418h-96v50h243v-50h-93v-418h93v-49h-243zM107 585l119 110h52l120 -110l-29 -34l-117 101l-115 -101z" />
    <glyph glyph-name="itilde.sc" 
d="M89 633q51 49 90 49t77 -20t60 -20t57 32l25 -33q-44 -47 -81 -47t-75 20q-38 21 -64 21t-62 -34zM129 0v49h96v418h-96v50h243v-50h-93v-418h93v-49h-243z" />
    <glyph glyph-name="idieresis.sc" 
d="M129 0v49h96v418h-96v50h243v-50h-93v-418h93v-49h-243zM117 626q0 15 10 26t26 11t26 -11t10 -26t-10 -26t-26 -11t-26 11t-10 26zM310 626q0 15 10 26t26 11t26.5 -11t10.5 -26t-10.5 -26t-26.5 -11t-26 11t-10 26z" />
    <glyph glyph-name="imacron.sc" 
d="M109 0v49h116v418h-116v50h283v-50h-113v-418h113v-49h-283zM100 639h293v-45h-293v45z" />
    <glyph glyph-name="ibreve.sc" 
d="M129 0v49h96v418h-96v50h243v-50h-93v-418h93v-49h-243zM251 579q-122 0 -136 121h46q6 -41 26.5 -60t63.5 -19t63 18.5t26 60.5h47q-14 -121 -136 -121z" />
    <glyph glyph-name="idotaccent.sc" 
d="M129 0v49h96v418h-96v50h243v-50h-93v-418h93v-49h-243zM216 627q0 15 10 26t26 11t26.5 -11t10.5 -26t-10.5 -26t-26.5 -11t-26 11t-10 26z" />
    <glyph glyph-name="iogonek.sc" 
d="M373 -239q-40 -8 -80.5 -7.5t-66 28.5t-25.5 73q0 87 103 145h-175v49h96v418h-96v50h243v-50h-93v-418h93v-49q-72 -47 -96.5 -78.5t-24.5 -61.5q0 -64 58 -63q31 0 58 6z" />
    <glyph glyph-name="jcircumflex.sc" 
d="M108 467v50h279v-339q0 -97 -56 -134.5t-205 -53.5l-7 52q126 14 169.5 40.5t43.5 95.5v289h-224zM107 590l119 105h52l120 -105l-29 -34l-117 96l-115 -96z" />
    <glyph glyph-name="kcommaaccent.sc" 
d="M94 0v517h54v-238l74 7q74 104 122 198l16 33h61q-64 -126 -150 -251q71 -100 135 -224l21 -42h-64q-69 142 -137 235l-78 -6v-229h-54zM220 -207q25 25 25 49v8h-24v78h67v-51q0 -39 -8.5 -61t-37.5 -45z" />
    <glyph glyph-name="lacute.sc" 
d="M104 0v517h55v-467h241v-50h-296zM147 597l181 100l23 -49l-183 -90z" />
    <glyph glyph-name="lcaron.sc" 
d="M104 0v517h55v-467h241v-50h-296zM390 545q25 25 25 49v8h-24v78h67v-51q0 -39 -8.5 -61t-37.5 -45z" />
    <glyph glyph-name="lcommaaccent.sc" 
d="M104 0v517h55v-467h241v-50h-296zM304 722q-25 -25 -25 -49v-8h24v-78h-67v51q0 39 8.5 61t37.5 45z" />
    <glyph glyph-name="lslash.sc" 
d="M104 0v244l-94 -22v51l94 22v222h55v-208l149 36v-51l-149 -36v-208h241v-50h-296z" />
    <glyph glyph-name="nacute.sc" 
d="M147 597l181 100l23 -49l-183 -90zM78 0v517h54l233 -350h3v350h54v-517h-54v78l-232 346h-3v-424h-55z" />
    <glyph glyph-name="ncaron.sc" 
d="M78 0v517h54l233 -350h3v350h54v-517h-54v78l-232 346h-3v-424h-55zM219 551l-119 110l30 34l115 -106l117 106l29 -34l-120 -110h-52z" />
    <glyph glyph-name="ntilde.sc" 
d="M78 0v517h54l233 -350h3v350h54v-517h-54v78l-232 346h-3v-424h-55zM89 633q51 49 90 49t77 -20t60 -20t57 32l25 -33q-44 -47 -81 -47t-75 20q-38 21 -64 21t-62 -34z" />
    <glyph glyph-name="ncommaaccent.sc" 
d="M78 0v517h54l233 -350h3v350h54v-517h-54v78l-232 346h-3v-424h-55zM284 722q-25 -25 -25 -49v-8h24v-78h-67v51q0 39 8.5 61t37.5 45z" />
    <glyph glyph-name="oacute.sc" 
d="M72 266q0 194 90 239q36 18 89 18q101 0 139.5 -66t38.5 -194.5t-39 -198.5t-138.5 -70t-139.5 70.5t-40 201.5zM368 182.5q4 34.5 4 75.5t-2 66t-9 55t-19.5 49.5t-35.5 32.5t-55 13t-55.5 -13t-36 -32.5t-19.5 -49.5q-11 -47 -11 -104.5t4.5 -92t16.5 -69t37.5 -52.5
t63.5 -18t63.5 18t37.5 52.5t16 69zM147 597l181 100l23 -49l-183 -90z" />
    <glyph glyph-name="ograve.sc" 
d="M72 266q0 194 90 239q36 18 89 18q101 0 139.5 -66t38.5 -194.5t-39 -198.5t-138.5 -70t-139.5 70.5t-40 201.5zM368 182.5q4 34.5 4 75.5t-2 66t-9 55t-19.5 49.5t-35.5 32.5t-55 13t-55.5 -13t-36 -32.5t-19.5 -49.5q-11 -47 -11 -104.5t4.5 -92t16.5 -69t37.5 -52.5
t63.5 -18t63.5 18t37.5 52.5t16 69zM152 648l23 49l181 -100l-21 -39z" />
    <glyph glyph-name="ocircumflex.sc" 
d="M72 266q0 194 90 239q36 18 89 18q101 0 139.5 -66t38.5 -194.5t-39 -198.5t-138.5 -70t-139.5 70.5t-40 201.5zM368 182.5q4 34.5 4 75.5t-2 66t-9 55t-19.5 49.5t-35.5 32.5t-55 13t-55.5 -13t-36 -32.5t-19.5 -49.5q-11 -47 -11 -104.5t4.5 -92t16.5 -69t37.5 -52.5
t63.5 -18t63.5 18t37.5 52.5t16 69zM110 585l119 110h52l120 -110l-29 -34l-117 101l-115 -101z" />
    <glyph glyph-name="otilde.sc" 
d="M72 266q0 194 90 239q36 18 89 18q101 0 139.5 -66t38.5 -194.5t-39 -198.5t-138.5 -70t-139.5 70.5t-40 201.5zM368 182.5q4 34.5 4 75.5t-2 66t-9 55t-19.5 49.5t-35.5 32.5t-55 13t-55.5 -13t-36 -32.5t-19.5 -49.5q-11 -47 -11 -104.5t4.5 -92t16.5 -69t37.5 -52.5
t63.5 -18t63.5 18t37.5 52.5t16 69zM101 633q51 49 90 49t77 -20t60.5 -20t56.5 32l25 -33q-44 -47 -81 -47t-74.5 20.5t-64 20.5t-62.5 -34z" />
    <glyph glyph-name="odieresis.sc" 
d="M72 266q0 194 90 239q36 18 89 18q101 0 139.5 -66t38.5 -194.5t-39 -198.5t-138.5 -70t-139.5 70.5t-40 201.5zM368 182.5q4 34.5 4 75.5t-2 66t-9 55t-19.5 49.5t-35.5 32.5t-55 13t-55.5 -13t-36 -32.5t-19.5 -49.5q-11 -47 -11 -104.5t4.5 -92t16.5 -69t37.5 -52.5
t63.5 -18t63.5 18t37.5 52.5t16 69zM117 626q0 15 10 26t26 11t26 -11t10 -26t-10 -26t-26 -11t-26 11t-10 26zM310 626q0 15 10.5 26t26 11t26 -11t10.5 -26t-10.5 -26t-26 -11t-26 11t-10.5 26z" />
    <glyph glyph-name="omacron.sc" 
d="M72 266q0 194 90 239q36 18 89 18q101 0 139.5 -66t38.5 -194.5t-39 -198.5t-138.5 -70t-139.5 70.5t-40 201.5zM368 182.5q4 34.5 4 75.5t-2 66t-9 55t-19.5 49.5t-35.5 32.5t-55 13t-55.5 -13t-36 -32.5t-19.5 -49.5q-11 -47 -11 -104.5t4.5 -92t16.5 -69t37.5 -52.5
t63.5 -18t63.5 18t37.5 52.5t16 69zM100 639h293v-45h-293v45z" />
    <glyph glyph-name="obreve.sc" 
d="M72 266q0 194 90 239q36 18 89 18q101 0 139.5 -66t38.5 -194.5t-39 -198.5t-138.5 -70t-139.5 70.5t-40 201.5zM368 182.5q4 34.5 4 75.5t-2 66t-9 55t-19.5 49.5t-35.5 32.5t-55 13t-55.5 -13t-36 -32.5t-19.5 -49.5q-11 -47 -11 -104.5t4.5 -92t16.5 -69t37.5 -52.5
t63.5 -18t63.5 18t37.5 52.5t16 69zM250 579q-122 0 -136 121h46q6 -41 26.5 -60t63.5 -19t63 18.5t26 60.5h47q-14 -121 -136 -121z" />
    <glyph glyph-name="ohungarumlaut.sc" 
d="M72 266q0 194 90 239q36 18 89 18q101 0 139.5 -66t38.5 -194.5t-39 -198.5t-138.5 -70t-139.5 70.5t-40 201.5zM368 182.5q4 34.5 4 75.5t-2 66t-9 55t-19.5 49.5t-35.5 32.5t-55 13t-55.5 -13t-36 -32.5t-19.5 -49.5q-11 -47 -11 -104.5t4.5 -92t16.5 -69t37.5 -52.5
t63.5 -18t63.5 18t37.5 52.5t16 69zM112 590l150 124l33 -41l-157 -116zM269 590l151 123l32 -40l-157 -116z" />
    <glyph glyph-name="oslash.sc" 
d="M72 266q0 194 90 239q36 18 93.5 18t99.5 -29l30 57l38 -22l-36 -68q42 -61 42 -194t-39 -203t-139 -70q-61 0 -100 27l-33 -62l-36 20l38 73q-48 64 -48 214zM151 109l177 335q-28 30 -68.5 30t-64 -13t-36 -32.5t-19.5 -49.5q-11 -47 -11 -133t22 -137zM368 182.5
q4 34.5 4 102.5t-18 116l-177 -331q29 -27 70.5 -27t67 18t37.5 52.5t16 69z" />
    <glyph glyph-name="oslashacute.sc" 
d="M72 266q0 194 90 239q36 18 93.5 18t99.5 -29l30 57l38 -22l-36 -68q42 -61 42 -194t-39 -203t-139 -70q-61 0 -100 27l-33 -62l-36 20l38 73q-48 64 -48 214zM148 617l181 100l23 -49l-183 -90zM151 109l177 335q-28 30 -68.5 30t-64 -13t-36 -32.5t-19.5 -49.5
q-11 -47 -11 -133t22 -137zM368 182.5q4 34.5 4 102.5t-18 116l-177 -331q29 -27 70.5 -27t67 18t37.5 52.5t16 69z" />
    <glyph glyph-name="oe.sc" 
d="M481 0h-250q-68 0 -109.5 34t-56.5 88t-15 122.5t8 110.5q8 43 28 77q40 70 145 70h247v-47h-178v-177h156v-49h-156v-182h181v-47zM109.5 179q4.5 -33 16.5 -65q25 -67 102 -67h17v408q-5 1 -17 1q-80 0 -104 -70q-20 -56 -19.5 -115t5 -92z" />
    <glyph glyph-name="racute.sc" 
d="M89 0v517h133q103 0 149 -33.5t46 -113.5q0 -56 -29 -95.5t-80 -52.5q52 -78 108 -188l17 -34h-62q-53 116 -117 211q-30 -2 -60 -2h-51v-209h-54zM318 285q41 26 41 82.5t-33 78.5t-110 22h-74v-209h56q79 0 120 26zM147 597l181 100l23 -49l-183 -90z" />
    <glyph glyph-name="rcaron.sc" 
d="M89 0v517h133q103 0 149 -33.5t46 -113.5q0 -56 -29 -95.5t-80 -52.5q52 -78 108 -188l17 -34h-62q-53 116 -117 211q-30 -2 -60 -2h-51v-209h-54zM318 285q41 26 41 82.5t-33 78.5t-110 22h-74v-209h56q79 0 120 26zM219 551l-119 110l30 34l115 -106l117 106l29 -34
l-120 -110h-52z" />
    <glyph glyph-name="rcommaaccent.sc" 
d="M89 0v517h133q103 0 149 -33.5t46 -113.5q0 -56 -29 -95.5t-80 -52.5q52 -78 108 -188l17 -34h-62q-53 116 -117 211q-30 -2 -60 -2h-51v-209h-54zM318 285q41 26 41 82.5t-33 78.5t-110 22h-74v-209h56q79 0 120 26zM284 722q-25 -25 -25 -49v-8h24v-78h-67v51
q0 39 8.5 61t37.5 45z" />
    <glyph glyph-name="sacute.sc" 
d="M135 291q-36 33 -36 98t47 99.5t119.5 34.5t147.5 -25l-13 -48q-82 24 -132 24q-112 0 -112 -88q0 -38 25.5 -59t99.5 -39.5t107.5 -50t33.5 -100.5t-49 -106t-127 -37q-52 0 -146 23l11 49q103 -23 135 -23q56 0 87.5 25.5t31.5 69t-23.5 65t-97 38.5t-109.5 50z
M157 597l181 100l23 -49l-183 -90z" />
    <glyph glyph-name="scircumflex.sc" 
d="M135 291q-36 33 -36 98t47 99.5t119.5 34.5t147.5 -25l-13 -48q-82 24 -132 24q-112 0 -112 -88q0 -38 25.5 -59t99.5 -39.5t107.5 -50t33.5 -100.5t-49 -106t-127 -37q-52 0 -146 23l11 49q103 -23 135 -23q56 0 87.5 25.5t31.5 69t-23.5 65t-97 38.5t-109.5 50z
M115 585l119 110h52l120 -110l-29 -34l-117 101l-115 -101z" />
    <glyph glyph-name="scaron.sc" 
d="M135 291q-36 33 -36 98t47 99.5t119.5 34.5t147.5 -25l-13 -48q-82 24 -132 24q-112 0 -112 -88q0 -38 25.5 -59t99.5 -39.5t107.5 -50t33.5 -100.5t-49 -106t-127 -37q-52 0 -146 23l11 49q103 -23 135 -23q56 0 87.5 25.5t31.5 69t-23.5 65t-97 38.5t-109.5 50z
M229 551l-119 110l30 34l115 -106l117 106l29 -34l-120 -110h-52z" />
    <glyph glyph-name="scedilla.sc" 
d="M135 291q-36 33 -36 98t47 99.5t119.5 34.5t147.5 -25l-13 -48q-82 24 -132 24q-112 0 -112 -88q0 -38 25.5 -59t99.5 -39.5t107.5 -50t33.5 -100.5t-49 -106t-127 -37q-52 0 -146 23l11 49q103 -23 135 -23q56 0 87.5 25.5t31.5 69t-23.5 65t-97 38.5t-109.5 50z
M307 -148q0 47 -53 47q-18 0 -43 -5l-6 41q32 8 67 8t60.5 -23.5t25.5 -68t-25.5 -69t-67.5 -24.5q-23 0 -63 7l5 43q20 -5 47 -5q53 0 53 49z" />
    <glyph glyph-name="scommaaccent.sc" 
d="M135 291q-36 33 -36 98t47 99.5t119.5 34.5t147.5 -25l-13 -48q-82 24 -132 24q-112 0 -112 -88q0 -38 25.5 -59t99.5 -39.5t107.5 -50t33.5 -100.5t-49 -106t-127 -37q-52 0 -146 23l11 49q103 -23 135 -23q56 0 87.5 25.5t31.5 69t-23.5 65t-97 38.5t-109.5 50z
M235 -207q25 25 25 49v8h-24v78h67v-51q0 -39 -8.5 -61t-37.5 -45z" />
    <glyph glyph-name="tcaron.sc" 
d="M78 467v50h343v-50h-145v-467h-54v467h-144zM229 551l-119 110l30 34l115 -106l117 106l29 -34l-120 -110h-52z" />
    <glyph glyph-name="tcommaaccent.sc" 
d="M78 467v50h343v-50h-145v-467h-54v467h-144zM284 722q-25 -25 -25 -49v-8h24v-78h-67v51q0 39 8.5 61t37.5 45z" />
    <glyph glyph-name="tbar.sc" 
d="M78 467v50h343v-50h-145v-152h121v-45h-121v-270h-54v270h-118v45h118v152h-144z" />
    <glyph glyph-name="uacute.sc" 
d="M82 158v359h54v-353q0 -119 115 -119q58 0 86 32.5t28 86.5v353h54v-359q-1 -164 -169 -164t-168 164zM147 597l181 100l23 -49l-183 -90z" />
    <glyph glyph-name="ugrave.sc" 
d="M82 158v359h54v-353q0 -119 115 -119q58 0 86 32.5t28 86.5v353h54v-359q-1 -164 -169 -164t-168 164zM152 648l23 49l181 -100l-21 -39z" />
    <glyph glyph-name="ucircumflex.sc" 
d="M82 158v359h54v-353q0 -119 115 -119q58 0 86 32.5t28 86.5v353h54v-359q-1 -164 -169 -164t-168 164zM110 585l119 110h52l120 -110l-29 -34l-117 101l-115 -101z" />
    <glyph glyph-name="utilde.sc" 
d="M82 158v359h54v-353q0 -119 115 -119q58 0 86 32.5t28 86.5v353h54v-359q-1 -164 -169 -164t-168 164zM89 633q51 49 90 49t77 -20t60 -20t57 32l25 -33q-44 -47 -81 -47t-75 20q-38 21 -64 21t-62 -34z" />
    <glyph glyph-name="udieresis.sc" 
d="M82 158v359h54v-353q0 -119 115 -119q58 0 86 32.5t28 86.5v353h54v-359q-1 -164 -169 -164t-168 164zM117 626q0 15 10 26t26 11t26 -11t10 -26t-10 -26t-26 -11t-26 11t-10 26zM310 626q0 15 10 26t26 11t26.5 -11t10.5 -26t-10.5 -26t-26.5 -11t-26 11t-10 26z" />
    <glyph glyph-name="umacron.sc" 
d="M82 158v359h54v-353q0 -119 115 -119q58 0 86 32.5t28 86.5v353h54v-359q-1 -164 -169 -164t-168 164zM100 639h293v-45h-293v45z" />
    <glyph glyph-name="ubreve.sc" 
d="M419 498v-341q-1 -164 -169 -164t-168 164v341h54v-335q0 -119 115 -119q58 0 86 32.5t28 86.5v335h54zM250 579q-122 0 -136 121h46q6 -41 26.5 -60t63.5 -19t63 18.5t26 60.5h47q-14 -121 -136 -121z" />
    <glyph glyph-name="uring.sc" 
d="M82 158v359h54v-353q0 -119 115 -119q58 0 86 32.5t28 86.5v353h54v-359q0 -164 -168.5 -164t-168.5 164zM175.5 574.5q-28.5 25.5 -28.5 70t28.5 70t76 25.5t76 -25.5t28.5 -70t-28.5 -70t-76 -25.5t-76 25.5zM314 644q0 27 -16.5 42t-46.5 15q-62 0 -62 -57
q0 -27 16.5 -42t45.5 -15t46 15t17 42z" />
    <glyph glyph-name="uhungarumlaut.sc" 
d="M82 158v359h54v-353q0 -119 115 -119q58 0 86 32.5t28 86.5v353h54v-359q-1 -164 -169 -164t-168 164zM112 590l150 124l33 -41l-157 -116zM269 590l151 123l32 -40l-157 -116z" />
    <glyph glyph-name="uogonek.sc" 
d="M271 -6l-20 -1q-108 0 -141 60q-17 31 -22.5 65.5t-5.5 87.5v311h54v-354q0 -119 115 -119q88 0 105 70q9 36 9 97v306h54v-311q0 -94 -17.5 -134.5t-69.5 -89t-67 -74t-15 -50.5t14.5 -42t44.5 -17t57 6l6 -42q-50 -10 -85.5 -9.5t-62 29.5t-26.5 74q0 65 73 137z" />
    <glyph glyph-name="wacute.sc" 
d="M100 0l-60 517h56l51 -466h9l71 242h46l70 -242h10l52 466h56l-60 -517h-92l-58 213h-3l-59 -213h-89zM147 597l181 100l23 -49l-183 -90z" />
    <glyph glyph-name="wgrave.sc" 
d="M100 0l-60 517h56l51 -466h9l71 242h46l70 -242h10l52 466h56l-60 -517h-92l-58 213h-3l-59 -213h-89zM152 648l23 49l181 -100l-21 -39z" />
    <glyph glyph-name="wcircumflex.sc" 
d="M100 0l-60 517h56l51 -466h9l71 242h46l70 -242h10l52 466h56l-60 -517h-92l-58 213h-3l-59 -213h-89zM110 585l119 110h52l120 -110l-29 -34l-117 101l-115 -101z" />
    <glyph glyph-name="wdieresis.sc" 
d="M100 0l-60 517h56l51 -466h9l71 242h46l70 -242h10l52 466h56l-60 -517h-92l-58 213h-3l-59 -213h-89zM117 626q0 15 10 26t26 11t26 -11t10 -26t-10 -26t-26 -11t-26 11t-10 26zM310 626q0 15 10 26t26 11t26.5 -11t10.5 -26t-10.5 -26t-26.5 -11t-26 11t-10 26z" />
    <glyph glyph-name="yacute.sc" 
d="M60 517h66l122 -239h7l122 239h62l-161 -295v-222h-54v222zM147 597l181 100l23 -49l-183 -90z" />
    <glyph glyph-name="ygrave.sc" 
d="M60 517h66l122 -239h7l122 239h62l-161 -295v-222h-54v222zM152 648l23 49l181 -100l-21 -39z" />
    <glyph glyph-name="ycircumflex.sc" 
d="M60 517h66l122 -239h7l122 239h62l-161 -295v-222h-54v222zM110 585l119 110h52l120 -110l-29 -34l-117 101l-115 -101z" />
    <glyph glyph-name="ydieresis.sc" 
d="M60 517h66l122 -239h7l122 239h62l-161 -295v-222h-54v222zM117 626q0 15 10 26t26 11t26 -11t10 -26t-10 -26t-26 -11t-26 11t-10 26zM310 626q0 15 10 26t26 11t26.5 -11t10.5 -26t-10.5 -26t-26.5 -11t-26 11t-10 26z" />
    <glyph glyph-name="zacute.sc" 
d="M147 597l181 100l23 -49l-183 -90zM97 0l-6 39l239 428h-239v50h298l7 -41l-238 -427h251v-49h-312z" />
    <glyph glyph-name="zcaron.sc" 
d="M97 0l-6 39l239 428h-239v50h298l7 -41l-238 -427h251v-49h-312zM229 551l-119 110l30 34l115 -106l117 106l29 -34l-120 -110h-52z" />
    <glyph glyph-name="zdotaccent.sc" 
d="M97 0l-6 39l239 428h-239v50h298l7 -41l-238 -427h251v-49h-312zM208 627q0 15 10 26t26 11t26.5 -11t10.5 -26t-10.5 -26t-26.5 -11t-26 11t-10 26z" />
    <glyph glyph-name="eng.sc" 
d="M368 -10v85l-235 352v-427h-55v517h54l236 -354v354h54v-527q0 -49 -12 -81t-40.5 -51t-62 -28.5t-90.5 -17.5l-6 52q92 14 124.5 37.5t32.5 88.5z" />
    <glyph glyph-name="eth.sc" 
d="M33 243v48h62v227h109q82 0 128 -21q94 -43 94 -238q0 -155 -57 -209q-30 -28 -69 -39t-98 -11h-107v243h-62zM359 147.5q10 42.5 10 104t-7 100t-19.5 61.5t-34.5 35q-37 20 -108 21h-51v-178h105v-48h-105v-194h50q46 0 74 7t52 28t34 63.5z" />
    <glyph glyph-name="thorn.sc" 
d="M98 0v517h55v-88h78q100 0 147 -35.5t47 -124t-48 -128t-146 -39.5h-79v-102h-54zM335 179q34 27 34 90t-34 87t-107 24h-76v-228h76q73 0 107 27z" />
    <glyph glyph-name="bullet.001" 
d="M278 331v-64h-58v64h58z" />
    <glyph glyph-name="zero.onum" 
d="M53 270q0 123 47 194.5t150 71.5q197 0 197 -266q0 -280 -198 -280q-196 0 -196 280zM391 270q0 216 -141 216t-141 -216q0 -230 140 -230q142 0 142 230z" />
    <glyph glyph-name="one.onum" 
d="M454 0h-349v52h145v411l-155 -55l-23 54l184 65h53v-475h145v-52z" />
    <glyph glyph-name="two.onum" 
d="M235 486q-31 0 -63.5 -12t-49.5 -24l-17 -12l-28 43q28 21 74.5 39t83.5 18q85 0 131.5 -44t46.5 -123.5t-79 -157.5l-174 -161h288v-52h-374v44q159 145 218 204q34 36 49 62.5t15 69t-32.5 74.5t-88.5 32z" />
    <glyph glyph-name="three.onum" 
d="M386 50q0 144 -141 144l-108 -10l-5 46l72 9q157 24 157 138q0 57 -35.5 83.5t-91.5 26.5t-156 -44l-19 47q39 19 92 34t88 15q82 0 130.5 -39t48.5 -119q0 -57 -23 -91.5t-74 -60.5v-2q59 -13 91 -58.5t31 -114.5q0 -118 -79.5 -164.5t-273.5 -64.5l-5 49
q175 19 238.5 53t62.5 123z" />
    <glyph glyph-name="four.onum" 
d="M39 107l243 423h110v-418h86v-51h-86v-168h-55v168h-292zM104 112h233v367h-25z" />
    <glyph glyph-name="five.onum" 
d="M106 -176l-10 50q147 31 207.5 77t60.5 113q0 46 -16 72q-36 56 -236 74l17 320h304v-51h-251l-11 -228q190 -17 230 -93q19 -36 19 -94q0 -89 -68.5 -145.5t-245.5 -94.5z" />
    <glyph glyph-name="six.onum" 
d="M251 -10q-94 0 -148 62t-54 168q0 179 72 302t234 202l22 -49q-127 -65 -187 -157q-50 -78 -73 -166q48 46 107.5 58t109 -7t83 -68.5t33.5 -117.5q0 -102 -52.5 -164.5t-146.5 -62.5zM107 220q0 -85 37 -131.5t106 -46.5t105.5 48t36.5 127q0 42 -15.5 74t-41 47.5
t-55.5 22.5t-60.5 -1.5t-56 -25t-41 -47t-15.5 -67.5z" />
    <glyph glyph-name="seven.onum" 
d="M369 470h-297v57h356v-56l-172 -579h-64z" />
    <glyph glyph-name="eight.onum" 
d="M50 181q0 140 114 176q-50 21 -70.5 55t-20.5 88q0 76 46.5 122.5t133.5 46.5t132.5 -45.5t45.5 -123.5q0 -57 -18.5 -91.5t-65.5 -50.5q108 -34 108 -177q0 -85 -52.5 -138t-150.5 -53t-150 53t-52 138zM144.5 290.5q-38.5 -39.5 -38.5 -106t39.5 -105t106.5 -38.5
t107 38.5t40 105.5t-39 106t-108 39t-107.5 -39.5zM159.5 589q-31.5 -31 -31.5 -86.5t31 -88.5t93 -33q124 0 124 119q0 59 -32.5 89.5t-92.5 30.5t-91.5 -31z" />
    <glyph glyph-name="nine.onum" 
d="M102.5 154.5q-51.5 55.5 -51.5 155t52.5 163t146 63.5t148 -63t54.5 -168q0 -179 -72 -301.5t-234 -201.5l-22 49q128 64 186 150q49 72 73 162q-64 -64 -133 -64q-96 0 -147.5 55.5zM145.5 434.5q-36.5 -47.5 -36.5 -124t36 -118t100.5 -41.5t106.5 44t42 119.5
t-37 121.5t-106 46t-105.5 -47.5z" />
    <glyph glyph-name="C.calt" 
d="M426 68l13 -51q-88 -26 -158 -26q-115 0 -170.5 79.5t-55.5 256.5t54 257.5t173 80.5q73 0 152 -31l-16 -50q-72 30 -136 30q-89 0 -128.5 -67.5t-39.5 -217.5t42 -218t126 -68q56 0 144 25z" />
    <glyph glyph-name="J.calt" 
d="M95 585v50h309v-457q0 -96 -64.5 -133.5t-226.5 -54.5l-7 52q139 15 191 41.5t52 94.5v407h-254z" />
    <glyph glyph-name="K.calt" 
d="M71 0v655h55v-309l97 10q85 124 147 254l21 45h61q-86 -178 -179 -319q81 -128 159 -282l28 -54h-64q-82 175 -168 305l-102 -10v-295h-55z" />
    <glyph glyph-name="Q.calt" 
d="M40 334q0 78 10 135t32 103q45 93 168 93q140 -1 184 -131q26 -75 26 -198q0 -170 -46 -254l49 -56l-40 -36l-40 49q-49 -49 -133 -49q-120 0 -167 98q-43 89 -43 246zM100.5 400q-1.5 -28 -1.5 -77.5t5.5 -96t20.5 -92.5q31 -93 125 -93q60 0 96 42l-74 88l38 35l64 -76
q27 68 27 206q1 130 -23 186q-26 62 -69 80q-26 12 -59 12t-59 -11.5t-42 -33.5t-26.5 -47t-15.5 -59.5t-6.5 -62.5z" />
    <glyph glyph-name="V.calt" 
d="M201 0l-158 655h58l142 -605h18l142 605h56l-158 -655h-100z" />
    <glyph glyph-name="Z.calt" 
d="M70 605v50h353l6 -42l-294 -563h311v-50h-369l-7 40l294 565h-294z" />
    <glyph glyph-name="c.calt" 
d="M408 459l-12 -52q-62 22 -115 22q-72 0 -107.5 -50.5t-35.5 -140.5t36 -142.5t107 -52.5q48 0 120 26l16 -50q-73 -28 -135 -28q-98 0 -150 65.5t-52 182.5t51 179.5t150 62.5q63 0 127 -22z" />
    <glyph glyph-name="f.calt" 
d="M69 0v50h111v375h-107v50h107q0 198 147 198q48 0 126 -23l-12 -50q-77 22 -112 22q-51 0 -73.5 -35.5t-22.5 -111.5h201v-50h-201v-375h203v-50h-367z" />
    <glyph glyph-name="g.calt" 
d="M101 62q-48 62 -48 175.5t53.5 178.5t149.5 65q53 0 119 -35l2 29h51v-360q15 -119 15 -138q0 -88 -59 -132.5t-138.5 -44.5t-180.5 40l18 50q99 -38 158.5 -38t104 31t44.5 93l-9 79q-79 -55 -142 -55q-90 0 -138 62zM147 378.5q-40 -52.5 -40 -140t35 -138t98 -50.5
t135 60v280q-65 41 -117 41q-71 0 -111 -52.5z" />
    <glyph glyph-name="i.calt" 
d="M83 0v50h146v375h-146v50h199v-425h146v-50h-345zM208 616q0 20 11.5 31t31.5 11q41 0 41 -44t-41 -43q-43 0 -43 45z" />
    <glyph glyph-name="j.calt" 
d="M92 426v49h260v-485q0 -72 -40 -114q-30 -32 -118 -50q-32 -6 -87 -14l-6 52q89 13 122 24.5t46 23.5q30 29 30 78v436h-207zM272 616q0 43 44 43q42 0 42 -44.5t-42 -44.5q-21 0 -32.5 12.5t-11.5 33.5z" />
    <glyph glyph-name="k.calt" 
d="M97 0v665h53v-405l85 10q62 76 121 174l19 31h60q-78 -137 -152 -226q70 -89 138 -210l22 -39h-62q-68 128 -140 221l-91 -9v-212h-53z" />
    <glyph glyph-name="l.calt" 
d="M95 0v50h153v566l-149 -1l-1 49l203 1v-615h158v-50h-364z" />
    <glyph glyph-name="r.calt" 
d="M81 0v50h114v375h-114v50h167l2 -58q32 20 90 40t102 24h11v-59h-11q-41 -3 -101.5 -20t-90.5 -35v-317h160v-50h-329z" />
    <glyph glyph-name="t.calt" 
d="M56 412v50h97v121l53 10v-131h229v-50h-229v-228q0 -76 22.5 -109.5t80.5 -33.5q22 0 68 7.5t63 13.5l12 -49q-19 -7 -69.5 -15t-73.5 -8q-90 0 -123 47.5t-33 144.5v230h-97z" />
    <glyph glyph-name="v.calt" 
d="M53 475h60l131 -427h18l126 427h60l-145 -475h-100z" />
    <glyph glyph-name="y.calt" 
d="M55 475h60l141 -404h8l126 404h60l-184 -556q-26 -79 -54.5 -101t-115.5 -24v51q56 1 75 16t35 63l23 69z" />
    <glyph glyph-name="cent.calt" 
d="M321 563l-9 -84q51 -6 96 -20l-12 -52q-36 12 -89 20l-38 -384q57 0 137 28l15 -50q-79 -30 -139 -30q-12 0 -18 1l-8 -86h-52l9 95q-132 42 -132 236q0 112 45.5 174.5t134.5 68.5l8 83h52zM135 237q0 -139 84 -181l36 371q-59 -9 -89.5 -59t-30.5 -131z" />
    <glyph glyph-name="guillemotleft.calt" 
d="M70 202v57l162 161l37 -37l-148 -145v-14l142 -141l-37 -37zM240 202v57l162 161l37 -37l-148 -145v-14l142 -141l-37 -37z" />
    <glyph glyph-name="guillemotright.calt" 
d="M68 83l142 141v14l-148 145l37 37l162 -161v-57l-156 -156zM238 83l142 141v14l-148 145l37 37l162 -161v-57l-156 -156z" />
    <glyph glyph-name="guilsinglleft.calt" 
d="M142 202v57l162 161l37 -37l-148 -145v-14l142 -141l-37 -37z" />
    <glyph glyph-name="guilsinglright.calt" 
d="M165 83l142 141v14l-148 145l37 37l162 -161v-57l-156 -156z" />
    <glyph glyph-name="eth.calt" 
d="M84 196q0 201 171 201q44 0 71.5 -16t48.5 -48q-28 107 -84 169l-114 -41l-15 42l94 34q-1 1 -83 73l37 37q68 -56 101 -90l73 27l15 -43l-56 -20q49 -61 69.5 -134t20.5 -188q0 -209 -177 -209q-87 0 -129.5 55.5t-42.5 150.5zM142 196q0 -157 114 -157q65 0 92 40
q27 41 27 113t-31.5 114t-91.5 42t-85 -37.5t-25 -114.5z" />
    <glyph glyph-name="Thorn.calt" 
d="M69 0v655h56v-105h91q123 0 179 -41t56 -152t-57.5 -158.5t-177.5 -47.5h-92v-151h-55zM351 236q42 35 42 121t-40.5 114.5t-136.5 28.5h-92v-299h92q93 0 135 35z" />
    <glyph glyph-name="numbersign.calt" 
d="M40 188v44h92l22 191h-114v43h119l15 123h50l-15 -123h115l15 123h50l-15 -123h87v-43h-92l-22 -191h114v-44h-119l-16 -134h-50l16 134h-115l-16 -134h-50l16 134h-87zM204 423l-22 -191h115l22 191h-115z" />
    <glyph glyph-name="plus.calt" 
d="M78 260v46h142v144h50v-144h139v-46h-139v-145h-50v145h-142z" />
    <glyph glyph-name="equal.calt" 
d="M105 163v44h299v-44h-299zM105 331v44h299v-44h-299z" />
    <glyph glyph-name="minus.calt" 
d="M405 261h-310v46h310v-46z" />
    <glyph glyph-name="multiply.calt" 
d="M89 172l128 128l-124 123l32 34l125 -124l128 127l33 -33l-128 -127l125 -125l-33 -34l-125 125l-127 -127z" />
    <glyph glyph-name="divide.calt" 
d="M206 418q0 20 11.5 32t29.5 12t29.5 -11t11.5 -31.5t-12 -32t-29.5 -11.5t-29 11t-11.5 31zM85 261v46h330v-46h-330zM217 104q-11 12 -11 31t11.5 31t29.5 12t29.5 -11t11.5 -31.5t-12 -32t-30 -11.5t-29 12z" />
    <glyph glyph-name="notequal.calt" 
d="M105 163v44h91l84 124h-175v44h204l53 79l31 -21l-41 -58h52v-44h-81l-84 -124h165v-44h-195l-69 -104l-31 21l57 83h-61z" />
    <glyph glyph-name="plusminus.calt" 
d="M90 298v43h137v141h50v-141h133v-43h-133v-135h-50v135h-137zM90 54v42h320v-42h-320z" />
    <glyph glyph-name="lessequal.calt" 
d="M83 258v59l314 109l14 -42l-281 -90v-11l278 -90l-12 -41zM87 54v42h320v-42h-320z" />
    <glyph glyph-name="greaterequal.calt" 
d="M87 54v42h320v-42h-320zM98 152l-12 41l278 90v11l-281 90l14 42l314 -109v-59z" />
    <glyph glyph-name="ampersand.calt" 
d="M35 195q0 69 25.5 106.5t73.5 62.5q-46 56 -46 127q0 174 180 174q44 0 94 -11l18 -4l-9 -52q-60 15 -103 15q-67 0 -96.5 -29t-29.5 -91t39 -110h303v-51h-94v-320q-79 -22 -149 -22q-206 0 -206 205zM206 332q-116 0 -116 -146q0 -74 36.5 -109t117.5 -35q51 0 93 12
v278h-131z" />
    <glyph glyph-name="ampersand.alt" 
d="M154 395h334v-51h-57v-331q-103 -22 -208 -22q-206 0 -206 208q0 72 22 113t66 64q-11 62 -11 88q0 97 39 149t129 52q40 0 116 -13l-7 -52q-61 13 -109 13q-66 0 -90.5 -39t-24.5 -114q0 -21 7 -65zM378 57v287h-201q-105 0 -105 -145q5 -84 40 -120q36 -36 110 -36
t156 14z" />
    <glyph glyph-name="G.001" 
d="M94 70q-56 80 -56 257.5t55 257.5t179 80q81 0 170 -32l-14 -51q-91 31 -156 31q-94 0 -134.5 -66.5t-40.5 -217t42 -219t127 -68.5q51 0 123 24v249h55v-288q-103 -37 -178 -37q-116 0 -172 80z" />
    <glyph glyph-name="OE.001" 
d="M249 665q25 0 57 -10h172v-48h-154v-250h127v-48h-127v-261h157v-48h-170q-42 -10 -62 -10q-107 0 -158.5 83t-51.5 258t50 254.5t160 79.5zM134.5 547.5q-36.5 -65.5 -36.5 -218t38 -220t113 -67.5l20 1v569q-17 1 -20 1q-78 0 -114.5 -65.5z" />
    <glyph glyph-name="oe.001" 
d="M17 236q0 126 27.5 185.5t103.5 59.5q38 0 64 -16.5t34 -32.5l7 -16q13 42 59 58q20 7 43 7q69 0 99.5 -53.5t30.5 -160.5l-3 -50h-206q5 -141 62 -167q18 -8 36 -8q32 0 78 18l14 5l15 -50q-60 -24 -95.5 -24t-57.5 6t-34 14t-22 18q-14 15 -17 24q-13 -39 -65 -57
q-19 -6 -42 -6q-76 0 -103.5 60t-27.5 186zM86 384q-15 -46 -15 -122t3 -108q2 -32 10 -60q15 -53 64 -53q48 0 62 53q12 43 12 113t-1 96.5t-5 52.5q-5 28 -13 42q-18 32 -60 32t-57 -46zM302 406q-8 -14 -13 -24.5t-8 -35.5q-3 -28 -5 -79h155q0 82 -17 122.5t-57.5 40.5
t-54.5 -24z" />
    <glyph glyph-name="parenleft.001" 
d="M355 -32l-49 -31q-126 167 -126 373q0 95 34 193.5t88 172.5l48 -30q-105 -164 -105 -338t110 -340z" />
    <glyph glyph-name="parenright.001" 
d="M169 -63l-49 31q110 166 110 340t-105 338l48 30q54 -73 87.5 -171.5t33.5 -194.5q0 -207 -125 -373z" />
    <glyph glyph-name="space.bi" horiz-adv-x="250" 
 />
    <glyph glyph-name="exclam.bi" horiz-adv-x="250" 
d="M158 688l-9 -500h-48l-9 500h66zM87 -6v86h76v-86h-76z" />
    <glyph glyph-name="comma.bi" horiz-adv-x="250" 
d="M72 0v112h95v-82q0 -90 -77 -173l-27 24q45 66 49 119h-40z" />
    <glyph glyph-name="period.bi" horiz-adv-x="250" 
d="M77 0v112h95v-112h-95z" />
    <glyph glyph-name="colon.bi" horiz-adv-x="250" 
d="M79 303v102h92v-102h-92zM79 0v102h92v-102h-92z" />
    <glyph glyph-name="semicolon.bi" horiz-adv-x="250" 
d="M75 303v102h92v-102h-92zM75 0v102h92v-72q0 -90 -77 -173l-27 24q45 66 49 119h-37z" />
    <glyph glyph-name="I.bi" horiz-adv-x="250" 
d="M153 605v-555h76v-50h-209v50h78v555h-78v50h209v-50h-76z" />
    <glyph glyph-name="I.001.bi" horiz-adv-x="250" 
d="M153 655v-655h-55v655h55z" />
    <glyph glyph-name="J.bi" horiz-adv-x="250" 
d="M202 655v-440q0 -142 -23 -184t-111 -42l-55 7l6 51q31 -6 48 -6q52 0 66 30.5t14 146.5v387h-111v50h166z" />
    <glyph glyph-name="J.001.bi" horiz-adv-x="250" 
d="M202 605v-390q0 -142 -23 -184t-111 -42l-55 7l6 51q31 -6 48 -6q52 0 66 30.5t14 146.5v387h-111v50h211v-50h-45z" />
    <glyph glyph-name="J.002.bi" horiz-adv-x="250" 
d="M202 655v-440q0 -141 -20.5 -183.5t-93.5 -42.5l-45 3l4 51q23 -2 45 -2q20 0 32 12q22 23 23 165v437h55z" />
    <glyph glyph-name="f.bi" horiz-adv-x="250" 
d="M70 425h-65v50h65q0 113 28 155.5t101 42.5l68 -5l-5 -52q-40 5 -61 5q-47 0 -62.5 -28.5t-15.5 -117.5h131v-50h-131v-425h-53v425z" />
    <glyph glyph-name="f.001.bi" horiz-adv-x="250" 
d="M70 425h-65v50h65q0 113 28 155.5t101 42.5l68 -5l-5 -52q-40 5 -61 5q-47 0 -62.5 -28.5t-15.5 -117.5h131v-50h-131v-375h118v-50h-240v50h69v375z" />
    <glyph glyph-name="i.bi" horiz-adv-x="250" 
d="M99 475h53v-475h-53v475zM82 616q0 43 44 43q42 -1 42 -45t-42 -44q-21 0 -32.5 12.5t-11.5 33.5z" />
    <glyph glyph-name="i.001.bi" horiz-adv-x="250" 
d="M13 425v50h139v-475h-53v425h-86zM77 616q0 43 44 43q42 -1 42 -45t-42 -44q-21 0 -32.5 12.5t-11.5 33.5z" />
    <glyph glyph-name="i.002.bi" horiz-adv-x="250" 
d="M13 425v50h139v-425h86v-50h-233v50h94v375h-86zM77 616q0 43 44 43q42 -1 42 -45t-42 -44q-21 0 -32.5 12.5t-11.5 33.5z" />
    <glyph glyph-name="j.bi" horiz-adv-x="250" 
d="M162 475v-496q0 -78 -30.5 -113t-123.5 -65l-14 50q68 23 91.5 48t23.5 80v496h53zM92 616q0 43 44 43q42 -1 42 -45t-42 -44q-21 0 -32.5 12.5t-11.5 33.5z" />
    <glyph glyph-name="j.001.bi" horiz-adv-x="250" 
d="M172 475v-496q0 -78 -30.5 -113t-123.5 -65l-14 50q68 23 91.5 48t23.5 80v447h-87v49h140zM92 616q0 43 44 43q42 -1 42 -45t-42 -44q-21 0 -32.5 12.5t-11.5 33.5z" />
    <glyph glyph-name="l.bi" horiz-adv-x="250" 
d="M70 655h53v-556q0 -57 51 -57q30 0 55 4l5 -52q-29 -4 -64 -4q-100 0 -100 107v558z" />
    <glyph glyph-name="l.001.bi" horiz-adv-x="250" 
d="M-5 605l-5 48l153 14v-568q0 -57 51 -57q30 0 55 4l5 -52q-29 -4 -64 -4q-100 0 -100 107v517q-31 -4 -49 -5z" />
    <glyph glyph-name="l.002.bi" horiz-adv-x="250" 
d="M-9 614l-1 49l163 1v-664h-53v615z" />
    <glyph glyph-name="l.003.bi" horiz-adv-x="250" 
d="M99 655h53v-655h-53v655z" />
    <glyph glyph-name="r.bi" horiz-adv-x="250" 
d="M38 476l52 6l9 -65q88 49 143 64v-61q-52 -12 -118 -42l-24 -11v-367h-53v385z" />
    <glyph glyph-name="r.001.bi" horiz-adv-x="250" 
d="M-19 425v50h117l2 -58q87 49 142 64v-60q-48 -11 -118 -43l-24 -11v-367h-53v425h-66z" />
    <glyph glyph-name="t.bi" horiz-adv-x="250" 
d="M50 418h-54v50h54v115l53 10v-125h132v-50h-132v-234q0 -77 12.5 -109.5t53.5 -32.5l71 6l6 -51q-38 -7 -73.5 -7t-57.5 9.5t-35 24.5q-12 16 -19 42q-11 42 -11 116v236z" />
    <glyph glyph-name="C.calt.sc" 
d="M403 65l13 -51q-78 -21 -139 -21q-100 0 -147 61t-47 194t47 195t147 62q63 0 128 -24l-16 -47q-55 22 -119 22t-97 -48t-33 -158t34 -158q36 -48 96 -48t133 21z" />
    <glyph glyph-name="J.bi.sc" horiz-adv-x="250" 
d="M188 455v-285q0 -112 -19.5 -145t-93.5 -33l-45 5l5 44q26 -4 40 -4q40 0 50.5 22t10.5 113v283h-88v43h177v-43h-37z" />
    <glyph glyph-name="M.tri.sc" horiz-adv-x="750" 
d="M635 0h-53v423l-173 -327h-61l-180 327v-423h-54v498h64l200 -346h1l194 346h62v-498z" />
    <glyph glyph-name="W.titl.sc" 
d="M406 498h58l-59 -498h-95l-60 188l-58 -188h-96l-60 498h57l51 -458h10l67 206v55h57v-55l69 -206h9z" />
    <glyph glyph-name="W.tri.sc" horiz-adv-x="750" 
d="M629 498h59l-118 -498h-83l-109 417h-5l-112 -417h-82l-117 498h58l99 -448h5l114 423h74l113 -423h5z" />
    <glyph glyph-name="b.001" 
d="M129 664v-225q80 40 121 40q102 0 144.5 -59t42.5 -184q0 -246 -206 -246q-79 0 -155 12v662h53zM245 427q-22 0 -57.5 -12.5t-58.5 -25.5v-340q54 -7 101 -7q150 0 150 194q0 102 -29 146.5t-106 44.5z" />
    <glyph glyph-name="g.001" 
d="M397 -183q-51 -37 -150.5 -37t-151.5 36t-52 106q0 45 21 70.5t72 58.5q-21 16 -21 48q0 11 12 31.5t24 32.5q-93 42 -93 147q0 81 47 126t115 45t114 -29l118 34l13 -53l-103 -25q35 -31 35 -98q0 -160 -171 -160q-16 0 -31 6q-10 -9 -19 -25.5t-9 -26.5q0 -14 21 -21.5
t103.5 -21t119.5 -42t37 -97t-51 -105.5zM364.5 -15q-28.5 20 -86 28t-104.5 21q-43 -26 -59.5 -48t-16.5 -56q0 -99 152 -99q67 0 105 24t38 67t-28.5 63zM226 199q115 0 115 111q0 121 -115 121q-54 0 -83.5 -31t-29.5 -87.5t30 -85t83 -28.5z" />
    <glyph glyph-name="l.001" 
d="M26 600l-5 48l205 19v-568q0 -57 51 -57q60 0 139 19l9 -50q-70 -21 -152 -21q-100 0 -100 107v517q-31 -4 -49 -5z" />
    <glyph glyph-name="r.001" 
d="M61 424v51h177l2 -59q32 21 89.5 41t102.5 24v-59q-41 -3 -101.5 -20t-90.5 -35v-316h159v-51h-338v51h125v373h-125z" />
    <glyph glyph-name="v.titl" 
d="M365 327v148h53v-150q0 -76 -42 -167.5t-103 -163.5h-52q-61 69 -101 161.5t-40 169.5v150h53v-148q0 -61 35.5 -149.5t77.5 -136.5q43 49 81 138t38 148z" />
    <glyph glyph-name="w.001" 
d="M438.5 46q-25.5 -46 -83 -46t-107.5 34q-50 -34 -98 -34q-64 0 -89 46t-25 133v302h54v-301q0 -129 60 -129q41 0 79 23q-6 63 -6 116v139h54v-139q0 -74 -4 -116q38 -23 79 -23q58 0 58 129v301h54v-302q0 -87 -25.5 -133z" />
    <glyph glyph-name="y.001" 
d="M355 99v376h53v-494q0 -81 -53 -126t-141 -45t-138 19l13 51q57 -19 121 -19t104.5 32t40.5 88v66q-40 -30 -69.5 -41.5t-65.5 -11.5q-90 0 -123.5 41.5t-33.5 137.5v302h53v-300q0 -76 22 -102.5t87 -26.5t130 53z" />
    <glyph glyph-name="period.002" 
d="M237 -25q-45 0 -45 57t45.5 57t45.5 -59q0 -29 -10.5 -42t-35.5 -13z" />
    <glyph glyph-name="seven.001" 
d="M68 557v59h372v-40l-241 -576h-70l237 557h-298z" />
    <glyph glyph-name="I.swsh" 
d="M275 605v-555h109v-50h-229v50h62v555h-122v50h242v-50h-62z" />
    <glyph glyph-name="w.titl" 
d="M410 475h53v-145q0 -102 -17.5 -179t-59.5 -151h-75q-17 35 -37 96t-25 101h-4q-13 -83 -62 -197h-75q-41 73 -58 150t-17 180v145h53v-144q0 -173 51 -283h18q56 155 67 251v49h52v-49q11 -113 67 -251h18q51 110 51 281v146z" />
    <glyph glyph-name="three.001" 
d="M136 294v52h65q160 24 160 135q0 57 -35.5 83.5t-91.5 26.5t-156 -44l-19 47q100 49 179 49t129.5 -38.5t50.5 -119.5q0 -58 -28 -92.5t-88 -61.5v-4q142 -36 142 -152q0 -185 -207 -185q-83 0 -191 40l18 51q101 -39 171.5 -39t110 32t39.5 97q0 69 -59 95
q-49 21 -127 28h-63z" />
    <glyph glyph-name="w.002" 
d="M411 475h52l-57 -475h-106l-51 207h-4l-52 -207h-105l-55 475h52l52 -427h18l67 241v59h52v-59l67 -241h18z" />
    <glyph glyph-name="v.ss01" 
d="M53 475h60l131 -427h18l126 427h60l-145 -475h-100z" />
    <glyph glyph-name="w.ss01" 
d="M411 475h52l-57 -475h-106l-51 207h-4l-52 -207h-105l-55 475h52l52 -427h18l67 241h52l67 -241h18z" />
    <glyph glyph-name="W.titl" 
d="M437 655h58l-71 -655h-99l-76 256l-74 -256h-101l-71 655h58l64 -605h13l83 273v58h56v-58l84 -273h12z" />
    <glyph glyph-name="W.tri" horiz-adv-x="750" 
d="M683 655h58l-140 -655h-92l-132 566h-6l-135 -566h-91l-140 655h58l124 -605h6l143 573h76l141 -573h6z" />
    <glyph glyph-name="M.tri" horiz-adv-x="750" 
d="M686 0h-55v559l-224 -427h-56l-233 427v-559h-55v655h61l249 -456h11l242 456h60v-655z" />
    <glyph glyph-name="m.tri" horiz-adv-x="750" 
d="M115 475l3 -40q84 46 130 46q79 0 119 -56q96 56 164 56t110 -45.5t42 -117.5v-318h-53v318q0 48 -30 80t-76 32t-134 -45q11 -29 11 -67v-318h-53v318q0 48 -30 80t-73 32t-127 -42v-388h-53v475h50z" />
    <glyph glyph-name="w.tri" horiz-adv-x="750" 
d="M651 475h54l-120 -475h-103l-107 395h-11l-110 -395h-101l-118 475h54l106 -427h22l115 401h76l114 -401h22z" />
    <glyph glyph-name="at.002" 
d="M277 507q51 0 97.5 -12.5t67.5 -24.5l21 -12l-20 -47q-24 17 -74.5 30.5t-101.5 13.5q-81 0 -130 -61.5t-53 -179.5q-6 -142 57 -201q54 -50 131 -50q51 0 96 11q46 10 66 22l21 12l13 -44q-7 -6 -21 -15t-66 -23.5t-116 -14.5q-108 0 -177 73t-63 224t70.5 225t181.5 74
zM417 112q24 0 44 13l10 -20q-24 -33 -62 -33t-50 16q-18 -16 -54 -16t-46 31q-23 -32 -57 -32q-79 0 -72 122q4 69 31 108t60.5 39t59.5 -29l9 23h30l-16 -192q-2 -32 16 -32q14 0 30 8v3l16 262h45l-3 -50h66l-5 -41h-63l-7 -154q-2 -26 18 -26zM180 132q7 -21 30.5 -21
t46.5 27l13 142q-14 19 -37 19t-38 -26.5t-18.5 -73t3.5 -67.5z" />
    <glyph glyph-name="at.003" 
d="M445 131q20 0 44 13l10 -20q-24 -33 -62 -33t-50 16q-22 -16 -56 -16t-44 31q-23 -32 -57 -32q-79 0 -72 122q4 69 31 108t60.5 39t59.5 -29l9 23h30l-16 -192q-2 -32 15 -32t31 8v3l14 223q4 45 -34.5 72t-88.5 27q-75 0 -133 -64.5t-62 -178.5q-8 -230 172 -232
q51 0 96.5 11.5t65.5 22.5l21 11l13 -44q-7 -6 -21 -14.5t-66 -23t-104.5 -14.5t-90 14.5t-72 46t-54 91t-16.5 139.5q6 138 82.5 211.5t178.5 73.5q75 0 119.5 -43.5t41.5 -100.5l-1 -16h63l-5 -41h-61l-9 -154q-2 -26 18 -26zM298 299q-19 19 -39.5 19t-35.5 -26.5
t-18.5 -73t3.5 -67.5t30.5 -21t46.5 27z" />
    <glyph glyph-name="at.004" 
d="M435 272q5 105 -32 145.5t-120 40.5t-140 -58q-57 -60 -61 -180t38.5 -174.5t131.5 -53.5q52 0 94 12t58 24l17 12l12 -49q-8 -6 -22 -14t-63 -22t-103 -14q-106 0 -166 68.5t-54 212.5t79.5 215t188.5 71t158.5 -64.5t37.5 -190.5q-3 -81 -41 -122q-40 -41 -90 -41
t-65 41q-25 -40 -63 -40q-79 0 -72 122q4 69 31 108t59 39t61 -31l9 25h30l-12 -174q-2 -46 30 -46q17 0 29 7.5t24.5 40t15.5 90.5zM258 319q-20 0 -35 -26.5t-19 -72.5t4 -68q8 -21 32 -21t47 30q0 10 1 15l10 123q-20 20 -40 20z" />
    <glyph glyph-name="Omega.001" 
d="M33 0v50l124 -10v5q-110 66 -110 207q0 100 55 164.5t149 64.5t148 -64.5t54 -164.5q0 -142 -111 -207v-5l128 10v-50h-191v50q47 20 82 78t35 128t-38 121.5t-106 51.5t-108 -52.5t-40 -120.5t34.5 -127t82.5 -79v-50h-188z" />
    <glyph glyph-name="paragraph.001" 
d="M440 -56h-51v756h51v-756zM91 320q-51 47 -51 163.5t54 166.5t177 50h40v-756h-51v320q-118 9 -169 56z" />
    <glyph glyph-name="Delta.alt" 
d="M58 0l-4 44l147 611h100l148 -614l-3 -41h-388zM242 605l-129 -554h274l-129 554h-16z" />
    <glyph glyph-name="lozenge.alt" 
d="M52 375l150 375h100l145 -375l-145 -375h-100zM115 375l128 -327h18l123 327l-123 327h-18z" />
    <glyph glyph-name="florin.alt" 
d="M115 367v50h95q0 198 147 198q36 0 67 -7l-13 -51q-27 6 -52 6q-52 0 -74 -35t-22 -111h121v-50h-121v-370q0 -198 -147 -198q-36 0 -67 7l13 51q27 -6 52 -6q52 0 74 35t22 111v370h-95z" />
    <glyph glyph-name="fi.001" 
d="M152 475h254v-425h66v-50h-119v425h-201v-375h88v-50h-210v50h69v375h-65v50h65q0 198 157 198q60 0 136 -18l-11 -52q-75 18 -128 18t-77 -35t-24 -111z" />
    <glyph glyph-name="fi.002" 
d="M263 624q-60 0 -87 -36.5t-27 -112.5h269v-475h-53v425h-216v-425h-53v425h-95v50h95q0 98 42.5 148t122.5 50h121v-49h-119z" />
    <glyph glyph-name="fl.001" 
d="M248 475v-50h-96v-375h88v-50h-210v50h69v375h-65v50h65q0 198 157 198q71 0 150 -21v-553q0 -57 51 -57q18 0 45 3l5 -51q-24 -4 -54 -4q-100 0 -100 107v511q-41 13 -97 13t-80 -35t-24 -111h96z" />
    <glyph glyph-name="fl.002" 
d="M353 0v610q-45 11 -99 11t-78 -35t-24 -111h86v-50h-86v-375h88v-50h-210v50h69v375h-65v50h65q0 198 157 198q80 0 150 -22v-601h66v-50h-119z" />
    <glyph glyph-name="fl.003" 
d="M310 475v-50h-161v-425h-53v425h-95v50h95q0 98 42.5 148t122.5 50h173v-673h-53v624h-118q-60 0 -87 -36.5t-27 -112.5h161z" />
    <glyph glyph-name="c_k" horiz-adv-x="1000" 
d="M773 253q72 -102 168 -253h-63q-80 130 -145 221l-70 -9v-212h-53v365q0 133 19 176h-64q-75 0 -115 -25t-40 -92v-104h-54v99q-50 11 -78 11q-72 0 -107.5 -51t-35.5 -141t36 -142.5t107 -52.5q45 0 125 28l15 -50q-79 -30 -139 -30q-98 0 -149.5 65.5t-51.5 182.5
t51 179.5t150 62.5q30 0 82 -9q26 122 200 122q84 0 124 -7q26 8 61 8l1 -49q-36 0 -52.5 -12.5t-24 -50t-7.5 -118.5v-105l65 10q71 92 144 205h60q-76 -122 -159 -222z" />
    <glyph glyph-name="c_t" horiz-adv-x="1000" 
d="M149.5 55.5q-51.5 65.5 -51.5 182t51 180t150 63.5q38 0 84 -10q14 45 47.5 64.5t102.5 19.5q54 0 108 -18l18 -6v92l53 10v-103h190v-53h-190v-293q0 -75 22.5 -109t79.5 -34q22 0 68.5 7.5t63.5 13.5l12 -50q-18 -7 -69.5 -14.5t-74.5 -7.5q-90 0 -122.5 48.5
t-32.5 143.5v296q-76 27 -132.5 27t-77 -22t-20.5 -90v-73h-54v99q-54 12 -77 12q-146 0 -146 -194q0 -88 37.5 -142t108.5 -54q41 0 124 29l15 -50q-79 -30 -138 -30q-98 0 -149.5 65.5z" />
    <glyph glyph-name="p_t" horiz-adv-x="1000" 
d="M104 -192v581l-9 87l50 6l9 -54q76 56 144 53q-21 44 -21 93q0 82 55 138t146.5 56t143 -55t52.5 -155v-96h229v-50h-229v-229q0 -74 22 -108t89.5 -34t157.5 30l13 -49q-102 -32 -184 -32t-116.5 45.5t-34.5 148.5v228h-97v50h97v95q0 162 -142 162q-67 0 -108 -42
t-41 -105t34 -104q115 -48 115 -232q0 -114 -53.5 -180t-149.5 -66q-54 0 -119 28v-210h-53zM385 93.5q40 53.5 40 142t-35 142t-97.5 53.5t-135.5 -59v-300q67 -32 117 -32q71 0 111 53.5z" />
    <glyph glyph-name="L_I" 
d="M464 50v-50h-398v655h54v-605h344zM372 609v-372h92v-46h-229v46h84v372h-84v46h229v-46h-92z" />
    <glyph glyph-name="flourish.left" 
d="M384 654q24 -19 10 -67q42 9 60 -11q23 -29 6 -84q17 -55 -6 -84q-21 -24 -68 -10q9 -42 -14 -61.5t-81 -4.5q-1 0 -6 -1.5t-7.5 -2t-8.5 -1.5t-10 -1.5t-10 -0.5t-10.5 1t-10.5 2q-9 2 -20 11q-25 20 -11 66q-41 -9 -61.5 16t-3.5 80q-17 56 4.5 82t67.5 12
q-9 41 16.5 62t80.5 4q55 17 83 -7zM203 112v40q0 43 23 71q22 27 54 37q64 20 118 14l22 -3q0 -142 -123 -162q-53 -9 -94 3zM351 30h61v-30h-61q-105 0 -183 53t-116 142l26 12q9 -21 24 -45q0 45 1 54q8 70 38 140l28 -11q-48 -107 -37 -219q85 -96 219 -96zM372 496
q0 34 -22 56t-56 22t-56.5 -21.5t-22.5 -56t22 -57t56 -22.5t56.5 22.5t22.5 56.5zM141 356q-29 -23 -63 -23q-50 0 -78 74q10 7 32.5 14.5t38.5 7.5t33.5 -12t27.5 -37zM301 642q-50 22 -72 -3q-15 -15 -6 -51q30 22 74.5 23t78.5 -30v1q14 38 -3 57q-10 11 -28 12t-31 -4z
M441 492q22 49 -3 72q-16 14 -51 5q24 -32 24 -75.5t-29 -77.5q42 -8 54.5 3t13.5 29t-4 31zM291 351q50 -21 72 3q16 17 5 50q-29 -23 -74 -23t-79 29q-12 -37 1 -52q22 -26 62 -12zM151 501q-22 -49 2 -72q15 -14 50 -5q-23 29 -23.5 74.5t30.5 78.5q-38 14 -57 -3
q-11 -10 -11.5 -28.5t4.5 -31.5z" />
    <glyph glyph-name="flourish.right" 
d="M105 587q-14 47 12.5 69t81.5 5q24 9 63 3q20 -3 30 -20.5t3 -48.5q47 14 68.5 -12t4.5 -82q8 -27 2 -63q-4 -20 -20.5 -30t-46.5 -3q11 -47 -11 -66q-12 -9 -19 -10.5t-11.5 -2.5t-10.5 -1t-10 0.5t-10 1.5t-8.5 1.5t-7.5 2t-11.5 0t-21.5 -2.5t-35.5 1.5t-30.5 20
t-3 48.5q-48 -14 -69 12.5t-4 81.5q-8 30 -4 56q6 53 69 39zM422 207q24 -11 26 -12q-38 -89 -116 -142t-183 -53q-6 0 -21.5 -1.5t-21.5 -0.5t-12 8.5t-6 23.5h61q134 0 219 96q11 112 -37 219l28 11q39 -94 39 -194q15 24 24 45zM80 271q4 1 28.5 2.5t54.5 0t65 -16.5
q69 -30 69 -105v-40h-2q-64 -17 -124 5q-31 12 -43 24q-48 48 -48 130zM128 496q0 -34 22.5 -56.5t56.5 -22.5t56 22.5t22 57t-22.5 56t-56.5 21.5t-56 -22t-22 -56zM500 407q-28 -74 -78 -74q-35 0 -63 23l9 24q10 25 27 37q17 11 35 11q36 -1 60 -15zM199 642
q-49 22 -72 -3q-8 -8 -8.5 -22.5t2.5 -24.5l3 -10q34 30 81 30q43 -2 71 -24q12 35 -7 50t-43 13t-27 -9zM59 492q-22 -49 3 -72q13 -13 56 -4q-29 32 -29 77t23 76q-37 10 -51 -9t-11 -43t9 -25zM209 351q49 -21 72 3q16 18 3 56q-32 -29 -78 -29t-75 23q-9 -37 10 -51
t42.5 -10.5t25.5 8.5zM349 501q22 50 -2 73q-8 8 -22.5 8.5t-24.5 -2.5l-10 -3q30 -33 30 -77.5t-23 -75.5q37 -9 51 10t10 42.5t-9 24.5z" />
    <glyph glyph-name="acorn.left" 
d="M365 628l-19 -1q-8 -46 -36 -83.5t-70 -57.5q4 -36 16 -90l10 -44h7q62 -5 92.5 -32t26.5 -79t-43 -74l-10 -88q-3 -37 -25 -57t-54 -22l-2 -28l-25 2l2 27q-30 6 -48.5 31.5t-15.5 59.5v87q-40 29 -34 82q6 82 96 90l-8 37q-11 43 -16 86q-27 -9 -58 -9h-51v29l-26 -2
q-76 3 -74 104q2 0 5.5 0.5t14 0t20 -2.5t21 -7.5t19.5 -13.5q20 -18 20 -55v-24h51q32 0 56 10q-2 79 36 117t121 38h43v-31h-42zM175 227l30 -16q20 22 58.5 18.5t54.5 -26.5l31 13q-22 43 -84 46.5t-90 -35.5zM313 622q-71 -18 -74 -102q57 35 74 102z" />
    <glyph glyph-name="acorn.right" 
d="M154 627l-19 1h-42v31h43q83 0 120.5 -38t35.5 -117q26 -10 57 -10h51v-29h-51q-31 0 -59 9q-2 -30 -15 -86l-9 -37q91 -8 97 -90q4 -54 -34 -82v-87q2 -34 -16.5 -59.5t-47.5 -31.5l2 -27l-25 -2l-3 28q-31 2 -53.5 22.5t-24.5 56.5l-10 88q-39 23 -43 74.5t26.5 78.5
t92.5 32h7l10 44q13 56 15 90q-41 20 -69 57.5t-36 83.5zM400 494v24q0 40 25 60q25 18 50 18h25q1 -97 -69 -104q-21 -2 -31 2zM295 211l30 16q-28 39 -90 35.5t-84 -46.5l31 -13q16 23 54.5 26.5t58.5 -18.5zM187 622q15 -65 73 -102q-2 83 -73 102z" />
    <glyph glyph-name="clover.left" horiz-adv-x="750" 
d="M693 264l26 -32q-97 -87 -163 -123t-135 -26q-36 5 -66 21.5t-46 39t-19 47.5t15 50.5t55 43.5l-45 24q-38 21 -57 26q-35 -51 -94.5 -66.5t-115.5 14.5q-23 11 -34 24l18 22q0 -1 17 -11t18 -10q33 36 79.5 52t94.5 8q27 56 1 112l28 13q31 -64 3 -132q13 -3 14.5 -3.5
l4.5 -1.5t4.5 -2t8 -4.5l13 -7t21 -12t31.5 -17.5q-17 53 15 86t75 25.5t77 -46t105 -154.5zM100 297q35 -7 68 4.5t56 39.5q-72 5 -124 -44z" />
    <glyph glyph-name="leftarrow" 
d="M248 -10l-248 248l248 248h71l-220 -221h407v-55h-407l220 -220h-71z" />
    <glyph glyph-name="uparrow" 
d="M250 485l248 -248v-71l-221 220v-396h-55v396l-220 -220v71z" />
    <glyph glyph-name="rightarrow" 
d="M500 238l-248 -248h-72l221 220h-407v55h407l-221 221h72z" />
    <glyph glyph-name="downarrow" 
d="M498 238l-248 -248l-248 248v71l220 -220v396h55v-396l221 220v-71z" />
    <glyph glyph-name="up-leftdiagonalarrow" 
d="M93 364v-312l-50 51v350h350l51 -50h-312l317 -318l-38 -38z" />
    <glyph glyph-name="up-rightdiagonalarrow" 
d="M371 397h-312l50 50h351v-350l-51 -51v312l-336 -336l-39 39z" />
    <glyph glyph-name="down-rightdiagonalarrow" 
d="M406 136v312l50 -51v-350h-350l-51 50h312l-317 317l39 39z" />
    <glyph glyph-name="down-leftdiagonalarrow" 
d="M86 448v-312l316 317l39 -39l-317 -317h312l-51 -50h-350v350z" />
    <glyph glyph-name="bracketleft.center" 
d="M241 820v-1040h-55v1040h55z" />
    <glyph glyph-name="bracketright.center" 
d="M314 820v-1040h-55v1040h55z" />
    <glyph glyph-name="braceleft.center.3" 
d="M186 820h55v-455l-87 -37v-4l87 -37v-507h-55v472l-91 50v48l91 50v420z" />
    <glyph glyph-name="braceright.center.3" 
d="M259 820h55v-420l91 -50v-48l-91 -50v-472h-55v507l87 37v4l-87 37v455z" />
    <glyph glyph-name="braceleft.center.2" 
d="M186 820h55v-907l-87 -37v-4l87 -37v-35h-55l-91 50v48l91 50v872z" />
    <glyph glyph-name="braceright.center.2" 
d="M259 820h55v-872l91 -50v-48l-91 -50h-55v35l87 37v4l-87 37v907z" />
    <glyph glyph-name="bracket.center.1" 
d="M222 1020h55v-1585h-55v1585z" />
    <glyph glyph-name="parenleft.up" 
d="M336 820l49 -28q-68 -100 -106 -203t-38 -247v-538h-55v538q0 150 39 262t111 216z" />
    <glyph glyph-name="parenright.up" 
d="M115 768l49 28q72 -104 111 -216t39 -262v-538h-55v538q0 144 -38 247t-106 203z" />
    <glyph glyph-name="parenleft.down" 
d="M385 -168l-49 -28q-72 104 -111 216t-39 262v538h55v-538q0 -144 38 -247t106 -203z" />
    <glyph glyph-name="parenright.down" 
d="M164 -196l-49 28q68 100 106 203t38 247v538h55v-538q0 -150 -39 -262t-111 -216z" />
    <glyph glyph-name="bracketleft.up" 
d="M241 745v-965h-55v1013h206v-48h-151z" />
    <glyph glyph-name="bracketright.up" 
d="M259 -220v965h-151v48h206v-1013h-55z" />
    <glyph glyph-name="bracketleft.down" 
d="M241 820v-963h151v-48h-206v1011h55z" />
    <glyph glyph-name="bracketright.down" 
d="M259 -143v963h55v-1011h-206v48h151z" />
    <glyph glyph-name="braceleft.up" 
d="M241 -220h-55q0 386 -4.5 640t-4.5 275q0 98 97 98h107v-52h-100q-46 0 -46 -52q-1 -23 1 -139q4 -346 5 -770z" />
    <glyph glyph-name="braceright.up" 
d="M314 -220h-55q0 423 3 654t3 255q0 52 -46 52h-100v52h107q97 0 97 -98q0 -21 -2 -134q-7 -395 -7 -781z" />
    <glyph glyph-name="braceleft.down" 
d="M186 820h55q0 -417 -3 -651t-3 -255q0 -53 44 -53h102v-52h-107q-98 0 -98 98q0 19 2 133q8 342 8 780z" />
    <glyph glyph-name="braceright.down" 
d="M259 820h55q0 -438 5 -666t5 -247q0 -98 -98 -98h-107v52h102q44 0 44 53q1 21 -1 138q-4 351 -5 768z" />
    <glyph glyph-name="braceleft.up.2" 
d="M243 -87l-87 -37v-4l87 -37v-35h-55l-91 50v48l91 50q-2 409 -5.5 567t-3.5 180q0 98 97 98h107v-52h-100q-46 0 -46 -52q-1 -23 1 -121q4 -294 5 -655z" />
    <glyph glyph-name="braceright.up.2" 
d="M259 -87q0 361 3 557t3 219q0 52 -46 52h-100v52h107q97 0 97 -98q0 -23 -2 -113q-5 -225 -7 -634l91 -50v-48l-91 -50h-55v35l87 37v4z" />
    <glyph glyph-name="braceleft.down.2" 
d="M156 717l87 -37q0 -361 -3 -557t-3 -219q0 -52 46 -52h100v-52h-107q-97 0 -97 98q0 22 2 112q5 225 7 635l-91 50v48l91 50h55v-35l-87 -37v-4z" />
    <glyph glyph-name="braceright.down.2" 
d="M259 680l87 37v4l-87 37v35h55l91 -50v-48l-91 -50q2 -409 5.5 -567t3.5 -180q0 -98 -97 -98h-107v52h100q46 0 46 52q1 23 -1 121q-4 294 -5 655z" />
    <glyph glyph-name="braceleft.up.3" 
d="M235 688l6 -323l-87 -37v-4l87 -37v-507h-55v472l-91 50v48l91 50q0 84 -4.5 174t-4.5 120q0 99 95 99h109v-52h-103q-43 0 -43 -53z" />
    <glyph glyph-name="braceright.up.3" 
d="M259 365l6 323q0 53 -43 53h-103v52h109q95 0 95 -99q0 -30 -4.5 -120t-4.5 -174l91 -50v-48l-91 -50v-472h-55v507l87 37v4z" />
    <glyph glyph-name="braceleft.down.3" 
d="M241 287l-6 -373q0 -53 43 -53h103v-52h-109q-95 0 -95 99q0 30 4.5 145t4.5 199l-91 50v48l91 50v420h55v-455l-87 -37v-4z" />
    <glyph glyph-name="braceright.down.3" 
d="M265 -86l-6 373l87 37v4l-87 37v455h55v-420l91 -50v-48l-91 -50q0 -84 4.5 -199t4.5 -145q0 -99 -95 -99h-109v52h103q43 0 43 53z" />
    <glyph glyph-name="bracketleft.up.1" 
d="M277 972v-1537h-55v1585h206v-48h-151z" />
    <glyph glyph-name="bracketright.up.1" 
d="M222 -565v1537h-151v48h206v-1585h-55z" />
    <glyph glyph-name="bracketleft.down.1" 
d="M277 1020v-1537h151v-48h-206v1585h55z" />
    <glyph glyph-name="bracketright.down.1" 
d="M222 -517v1537h55v-1585h-206v48h151z" />
    <glyph glyph-name="braceleft.up.1" 
d="M271 915l6 -1480h-55q0 438 -5 953t-5 534q0 98 98 98h107v-52h-102q-44 0 -44 -53z" />
    <glyph glyph-name="braceright.up.1" 
d="M222 -565l6 1480q0 53 -44 53h-102v52h107q98 0 98 -98q-1 -18 -3 -276q-8 -772 -7 -1211h-55z" />
    <glyph glyph-name="braceleft.down.1" 
d="M277 1020l-6 -1480q0 -53 44 -53h102v-52h-107q-98 0 -98 98q0 19 2 277q8 772 8 1210h55z" />
    <glyph glyph-name="braceright.down.1" 
d="M228 -460l-6 1480h55q0 -438 5 -953t5 -534q0 -98 -98 -98h-107v52h102q44 0 44 53z" />
    <glyph glyph-name="parenleft.up.1" 
d="M372 1020l49 -28q-68 -100 -106 -203t-38 -247v-1107h-55v1107q0 150 39 262t111 216z" />
    <glyph glyph-name="parenleft.down.1" 
d="M421 -537l-49 -28q-72 104 -111 216t-39 262v1107h55v-1107q0 -144 38 -247t106 -203z" />
    <glyph glyph-name="eight.002" 
d="M78 992l49 28q72 -104 111 -216t39 -262v-1107h-55v1107q0 144 -38 247t-106 203z" />
    <glyph glyph-name="parenright.down.1" 
d="M127 -565l-49 28q68 100 106 203t38 247v1107h55v-1107q0 -150 -39 -262t-111 -216z" />
    <glyph glyph-name="i.001" 
d="M-624 1073l38 39l662 -662l-39 -39zM612 -87l-39 -38l-525 525l39 39z" />
    <glyph glyph-name="j.001" 
d="M-85 47l38 38l632 -631l-39 -39z" />
    <glyph glyph-name="h.001" 
d="M169 210v55h341v-55h-341z" />
    <glyph glyph-name="I.001" 
d="M0 210v55h506v-55h-506z" />
    <glyph glyph-name="V.001" 
d="M0 360l28 49q100 -68 203 -106t247 -38h22v-55h-22q-150 0 -262 39t-216 111z" />
    <glyph glyph-name="J.001" 
d="M472 409l28 -49q-104 -72 -216 -111t-262 -39h-22v55h22q144 0 247 38t203 106z" />
    <glyph glyph-name="K.001" 
d="M500 115l-28 -49q-100 68 -203 106t-247 38h-22v55h22q150 0 262 -39t216 -111z" />
    <glyph glyph-name="W.001" 
d="M28 66l-28 49q104 72 216 111t262 39h22v-55h-22q-144 0 -247 -38t-203 -106z" />
    <glyph glyph-name="X.001" 
d="M-500 360l28 49q100 -68 203 -106t247 -38h522v-55h-522q-150 0 -262 39t-216 111z" />
    <glyph glyph-name="L.001" 
d="M972 409l28 -49q-104 -72 -216 -111t-262 -39h-522v55h522q144 0 247 38t203 106z" />
    <glyph glyph-name="M.001" 
d="M1000 115l-28 -49q-100 68 -203 106t-247 38h-522v55h522q150 0 262 -39t216 -111z" />
    <glyph glyph-name="Y.001" 
d="M-472 66l-28 49q104 72 216 111t262 39h522v-55h-522q-144 0 -247 -38t-203 -106z" />
    <glyph glyph-name="Z.001" 
d="M500 265v-55h-402q-54 0 -76 23t-22 65v107h52v-102q0 -21 12.5 -29.5t40.5 -8.5h395z" />
    <glyph glyph-name="N.001" 
d="M0 210v55h395q28 0 40.5 8.5t12.5 29.5v102h52v-107q0 -42 -22 -65t-76 -23h-402z" />
    <glyph glyph-name="O.001" 
d="M0 210v55h402q54 0 76 -23t22 -65v-107h-52v102q0 21 -12.5 29.5t-40.5 8.5h-395z" />
    <glyph glyph-name="a.001" 
d="M500 265v-55h-395q-28 0 -40.5 -8.5t-12.5 -29.5v-102h-52v107q0 42 22 65t76 23h402z" />
    <glyph glyph-name="b.002" 
d="M500 265v-55h-902q-54 0 -76 23t-22 65v107h52v-102q0 -21 12.5 -29.5t40.5 -8.5h895z" />
    <glyph glyph-name="P.001" 
d="M0 210v55h895q28 0 40.5 8.5t12.5 29.5v102h52v-107q0 -42 -22 -65t-76 -23h-902z" />
    <glyph glyph-name="Q.001" 
d="M0 210v55h902q54 0 76 -23t22 -65v-107h-52v102q0 21 -12.5 29.5t-40.5 8.5h-895z" />
    <glyph glyph-name="c.001" 
d="M500 265v-55h-895q-28 0 -40.5 -8.5t-12.5 -29.5v-102h-52v107q0 42 22 65t76 23h902z" />
    <glyph glyph-name="d.001" 
d="M48 264l452 1v-55l-500 -1v206h48v-151z" />
    <glyph glyph-name="R.001" 
d="M0 265l452 -1v151h48v-206l-500 1v55z" />
    <glyph glyph-name="S.001" 
d="M452 211l-452 -1v55l500 1v-206h-48v151z" />
    <glyph glyph-name="e.001" 
d="M500 210l-452 1v-151h-48v206l500 -1v-55z" />
    <glyph glyph-name="f.001" 
d="M-452 264l952 1v-55l-1000 -1v206h48v-151z" />
    <glyph glyph-name="T.001" 
d="M0 265l952 -1v151h48v-206l-1000 1v55z" />
    <glyph glyph-name="U.001" 
d="M952 211l-952 -1v55l1000 1v-206h-48v151z" />
    <glyph glyph-name="g.002" 
d="M500 210l-952 1v-151h-48v206l1000 -1v-55z" />
    <glyph glyph-name="zero.small" 
d="M144.5 481q32.5 54 106 54t106 -54t32.5 -181t-32.5 -181.5t-106 -54.5t-106 54.5t-32.5 181.5t32.5 181zM178.5 147q19.5 -46 72 -46t72 46t19.5 153.5t-19 152.5t-72 45t-72.5 -45t-19.5 -152.5t19.5 -153.5z" />
    <glyph glyph-name="one.small" 
d="M395 71h-270v36h123v377l-118 -55l-17 37l140 64h37v-423h105v-36z" />
    <glyph glyph-name="two.small" 
d="M337.5 501.5q35.5 -34.5 35.5 -89t-26.5 -96.5t-60.5 -69q-96 -77 -119 -133h224v-41h-271v34q23 64 95 129l55 50q61 56 61 118q0 42 -25.5 69t-64.5 27t-107 -50l-20 31q72 55 130 55t93.5 -34.5z" />
    <glyph glyph-name="three.small" 
d="M169 282l-5 32l52 9q116 18 116 95q0 41 -26 60.5t-70 19.5t-109 -33l-13 35q72 35 130 35t93 -28q35 -27 35 -77t-16 -72.5t-54 -40.5v-3q89 -18 89 -116q0 -134 -149 -134q-61 0 -137 28l12 36q73 -27 123 -27t79.5 23.5t29.5 72.5t-24.5 71.5t-76.5 22.5z" />
    <glyph glyph-name="four.small" 
d="M405 199v-37h-64v-99h-41v99h-195v33l118 332h41l-115 -328h151v151h41v-151h64z" />
    <glyph glyph-name="five.small" 
d="M356 324.5q36 -37.5 36 -108t-39 -112t-106 -41.5t-136 30l13 37q68 -31 118.5 -31t79 33.5t28.5 85t-25.5 79.5t-73.5 28t-96 -42l-26 8l6 236h241v-38h-204l-6 -159q44 32 89 32q65 0 101 -37.5z" />
    <glyph glyph-name="six.small" 
d="M356 327q37 -38 37 -108.5t-37.5 -112t-105.5 -41.5t-106.5 40.5t-38.5 116.5q0 123 48.5 191.5t171.5 128.5l16 -36q-94 -47 -133 -87.5t-55 -101.5q48 48 97 48q69 0 106 -38zM351 219q0 107 -101 107q-43 0 -73 -29.5t-30 -74.5q0 -120 103 -120q50 0 75.5 31t25.5 86
z" />
    <glyph glyph-name="seven.small" 
d="M111 453l14 76h256v-40q-5 -43 -82 -183q-28 -50 -51.5 -116t-23.5 -119h-43q0 71 37.5 159t77.5 161t43 100h-183l-10 -41z" />
    <glyph glyph-name="eight.small" 
d="M250 535q65 0 100.5 -34t35.5 -89q0 -78 -67 -105q77 -30 77 -116q0 -59 -37.5 -93t-108.5 -34t-108 34t-37 93q0 86 76 113q-67 34 -67 108q0 55 35.5 89t100.5 34zM173.5 262q-26.5 -25 -26.5 -69t26.5 -68t76.5 -24t77 24t27 66q0 96 -104 96q-50 0 -76.5 -25z
M178 475q-24 -23 -24 -62.5t23.5 -64.5t72.5 -25t73 24t24 65q0 86 -97 86q-48 0 -72 -23z" />
    <glyph glyph-name="nine.small" 
d="M152 280q-37 37 -37 104.5t39 108.5t104.5 41t102.5 -39.5t37 -110.5q0 -97 -34 -169.5t-110 -157.5l-49 9q68 74 98.5 121.5t44.5 100.5q-45 -45 -92 -45q-67 0 -104 37zM157 386q0 -105 99 -105q43 0 71.5 29t28.5 74q0 113 -99 113q-47 0 -73.5 -30.5t-26.5 -80.5z
" />
    <glyph glyph-name="square.small" 
d="M147 178v209h206v-209h-206z" />
    <glyph glyph-name="downclosed.arrow.small" 
d="M370 390l-122 -217l-118 217h240z" />
    <glyph glyph-name="leftclosed.arrow.small" 
d="M360 166l-217 122l217 118v-240z" />
    <glyph glyph-name="upclosed.arrow.small" 
d="M130 190l122 217l118 -217h-240z" />
    <glyph glyph-name="rightclosed.arrow.small" 
d="M140 407l217 -122l-217 -118v240z" />
    <glyph glyph-name="square" 
d="M70 91v367h360v-367h-360z" />
    <glyph glyph-name="downclosed.arrow" 
d="M452 462l-205 -379l-199 379h404z" />
    <glyph glyph-name="leftclosed.arrow" 
d="M443 74l-379 205l379 199v-404z" />
    <glyph glyph-name="upclosed.arrow" 
d="M48 92l205 379l199 -379h-404z" />
    <glyph glyph-name="rightclosed.arrow" 
d="M57 479l379 -205l-379 -199v404z" />
    <glyph glyph-name="upsidebar" horiz-adv-x="0" 
d="M-16 -189v979h25v-979h-25z" />
    <glyph glyph-name="roundedcornersleft.white" 
d="M437 714v-827q0 -26 18 -44.5t45 -18.5v-23q-36 0 -61.5 25.5t-25.5 60.5v827q0 35 25.5 60.5t61.5 25.5v-22q-27 0 -45 -18.5t-18 -45.5z" />
    <glyph glyph-name="roundedcornersright.white" 
d="M62 -113v827q0 27 -18 45.5t-45 18.5v22q36 0 61.5 -25.5t25.5 -60.5v-827q0 -35 -25.5 -60.5t-61.5 -25.5v23q27 0 45 18.5t18 44.5z" />
    <glyph glyph-name="cornersleft.white" 
d="M437 778v-954h63v-23h-87v999h87v-22h-63z" />
    <glyph glyph-name="cornersright.white" 
d="M62 -176v954h-63v22h87v-999h-87v23h63z" />
    <glyph glyph-name="bar.white" 
d="M-1 778v22h502v-22h-238v-954h238v-23h-502v23h238v954h-238z" />
    <glyph glyph-name="handleleft.wt" 
d="M-1 778v22h502v-22q-130 0 -240 -64t-173.5 -174t-63.5 -240q0 -197 140 -336.5t337 -139.5v-23h-502v23h350q-154 49 -251 179q-98 129 -98 297t98 299t254 179h-353z" />
    <glyph glyph-name="zero.handleleft.wt" 
d="M203.5 481q32.5 54 106 54t106 -54t32.5 -181t-32.5 -181.5t-106 -54.5t-106 54.5t-32.5 181.5t32.5 181zM237.5 147q19.5 -46 72 -46t72 46t19.5 153.5t-19 152.5t-72 45t-72.5 -45t-19.5 -152.5t19.5 -153.5zM-1 778v22h502v-22q-130 0 -240 -64t-173.5 -174
t-63.5 -240q0 -197 140 -336.5t337 -139.5v-23h-502v23h350q-154 49 -251.5 179t-97.5 297.5t98 298.5t254 179h-353z" />
    <glyph glyph-name="one.handleleft.wt" 
d="M459 71h-270v36h123v377l-118 -55l-17 37l140 64h37v-423h105v-36zM-1 778v22h502v-22q-130 0 -240 -64t-173.5 -174t-63.5 -240q0 -197 140 -336.5t337 -139.5v-23h-502v23h350q-154 49 -251 179q-98 129 -98 297t98 299t254 179h-353z" />
    <glyph glyph-name="two.handleleft.wt" 
d="M401.5 501.5q35.5 -34.5 35.5 -89t-26.5 -96.5t-60.5 -69q-96 -77 -119 -133h224v-41h-271v34q23 64 95 129l55 50q61 56 61 118q0 42 -25.5 69t-64.5 27t-107 -50l-20 31q72 55 130 55t93.5 -34.5zM-1 778v22h502v-22q-130 0 -240 -64t-173.5 -174t-63.5 -240
q0 -197 140 -336.5t337 -139.5v-23h-502v23h350q-154 49 -251.5 179t-97.5 297.5t98 298.5t254 179h-353z" />
    <glyph glyph-name="three.handleleft.wt" 
d="M233 282l-5 32l52 9q116 18 116 95q0 41 -26 60.5t-70 19.5t-109 -33l-13 35q72 35 130 35t93 -28q35 -27 35 -77t-16 -72.5t-54 -40.5v-3q89 -18 89 -116q0 -134 -149 -134q-61 0 -137 28l12 36q73 -27 123 -27t79.5 23.5t29.5 72.5t-24.5 71.5t-76.5 22.5zM-1 778v22
h502v-22q-130 0 -240 -64t-173.5 -174t-63.5 -240q0 -197 140 -336.5t337 -139.5v-23h-502v23h350q-154 49 -251 179q-98 129 -98 297t98 299t254 179h-353z" />
    <glyph glyph-name="four.handleleft.wt" 
d="M469 199v-37h-64v-99h-41v99h-195v33l118 332h41l-115 -328h151v151h41v-151h64zM-1 778v22h502v-22q-130 0 -240 -64t-173.5 -174t-63.5 -240q0 -197 140 -336.5t337 -139.5v-23h-502v23h350q-154 49 -251 179q-98 129 -98 297t98 299t254 179h-353z" />
    <glyph glyph-name="five.handleleft.wt" 
d="M420 324.5q36 -37.5 36 -108t-39 -112t-106 -41.5t-136 30l13 37q68 -31 118.5 -31t79 33.5t28.5 85t-25.5 79.5t-73.5 28t-96 -42l-26 8l6 236h241v-38h-204l-6 -159q44 32 89 32q65 0 101 -37.5zM-1 778v22h502v-22q-130 0 -240 -64t-173.5 -174t-63.5 -240
q0 -197 140 -336.5t337 -139.5v-23h-502v23h350q-154 49 -251.5 179t-97.5 297.5t98 298.5t254 179h-353z" />
    <glyph glyph-name="six.handleleft.wt" 
d="M420 327q37 -38 37 -108.5t-37.5 -112t-105.5 -41.5t-106.5 40.5t-38.5 116.5q0 123 48.5 191.5t171.5 128.5l16 -36q-94 -47 -133 -87.5t-55 -101.5q48 48 97 48q69 0 106 -38zM415 219q0 107 -101 107q-43 0 -73 -29.5t-30 -74.5q0 -120 103 -120q50 0 75.5 31t25.5 86
zM-1 778v22h502v-22q-130 0 -240 -64t-173.5 -174t-63.5 -240q0 -197 140 -336.5t337 -139.5v-23h-502v23h350q-154 49 -251.5 179t-97.5 297.5t98 298.5t254 179h-353z" />
    <glyph glyph-name="seven.handleleft.wt" 
d="M175 453l14 76h256v-40q-5 -43 -82 -183q-28 -50 -51.5 -116t-23.5 -119h-43q0 71 37.5 159t77.5 161t43 100h-183l-10 -41zM-1 778v22h502v-22q-130 0 -240 -64t-173.5 -174t-63.5 -240q0 -197 140 -336.5t337 -139.5v-23h-502v23h350q-154 49 -251.5 179t-97.5 297.5
t98 298.5t254 179h-353z" />
    <glyph glyph-name="eight.handleleft.wt" 
d="M314 535q65 0 100.5 -34t35.5 -89q0 -78 -67 -105q77 -30 77 -116q0 -59 -37.5 -93t-108.5 -34t-108 34t-37 93q0 86 76 113q-67 34 -67 108q0 55 35.5 89t100.5 34zM237.5 262q-26.5 -25 -26.5 -69t26.5 -68t76.5 -24t77 24t27 66q0 96 -104 96q-50 0 -76.5 -25z
M242 475q-24 -23 -24 -62.5t23.5 -64.5t72.5 -25t73 24t24 65q0 86 -97 86q-48 0 -72 -23zM-1 778v22h502v-22q-130 0 -240 -64t-173.5 -174t-63.5 -240q0 -197 140 -336.5t337 -139.5v-23h-502v23h350q-154 49 -251.5 179t-97.5 297.5t98 298.5t254 179h-353z" />
    <glyph glyph-name="nine.handleleft.wt" 
d="M216 280q-37 37 -37 104.5t39 108.5t104.5 41t102.5 -39.5t37 -110.5q0 -97 -34 -169.5t-110 -157.5l-49 9q68 74 98.5 121.5t44.5 100.5q-45 -45 -92 -45q-67 0 -104 37zM221 386q0 -105 99 -105q43 0 71.5 29t28.5 74q0 113 -99 113q-47 0 -73.5 -30.5t-26.5 -80.5z
M-1 778v22h502v-22q-130 0 -240 -64t-173.5 -174t-63.5 -240q0 -197 140 -336.5t337 -139.5v-23h-502v23h350q-154 49 -251.5 179t-97.5 297.5t98 298.5t254 179h-353z" />
    <glyph glyph-name="handleright.wt" 
d="M501 800v-22h-353q156 -48 254 -179t98 -299t-97.5 -297.5t-251.5 -178.5h350v-23h-502v23q197 0 337 139.5t140 336.5q0 130 -63.5 240t-173.5 174t-240 64v22h502z" />
    <glyph glyph-name="zero.handleright.wt" 
d="M85.5 481q32.5 54 106 54t106 -54t32.5 -181t-32.5 -181.5t-106 -54.5t-106 54.5t-32.5 181.5t32.5 181zM119.5 147q19.5 -46 72 -46t72 46t19.5 153.5t-19 152.5t-72 45t-72.5 -45t-19.5 -152.5t19.5 -153.5zM501 800v-22h-353q156 -48 254 -179t98 -298.5t-97.5 -297.5
t-251.5 -179h350v-23h-502v23q197 0 337 139.5t140 336.5q0 130 -63.5 240t-173.5 174t-240 64v22h502z" />
    <glyph glyph-name="one.handleright.wt" 
d="M331 71h-270v36h123v377l-118 -55l-17 37l140 64h37v-423h105v-36zM501 800v-22h-353q156 -48 254 -179t98 -299t-97.5 -297.5t-251.5 -178.5h350v-23h-502v23q197 0 337 139.5t140 336.5q0 130 -63.5 240t-173.5 174t-240 64v22h502z" />
    <glyph glyph-name="two.handleright.wt" 
d="M273.5 501.5q35.5 -34.5 35.5 -89t-26.5 -96.5t-60.5 -69q-96 -77 -119 -133h224v-41h-271v34q23 64 95 129l55 50q61 56 61 118q0 42 -25.5 69t-64.5 27t-107 -50l-20 31q72 55 130 55t93.5 -34.5zM501 800v-22h-353q156 -48 254 -179t98 -298.5t-97.5 -297.5
t-251.5 -179h350v-23h-502v23q197 0 337 139.5t140 336.5q0 130 -63.5 240t-173.5 174t-240 64v22h502z" />
    <glyph glyph-name="three.handleright.wt" 
d="M105 282l-5 32l52 9q116 18 116 95q0 41 -26 60.5t-70 19.5t-109 -33l-13 35q72 35 130 35t93 -28q35 -27 35 -77t-16 -72.5t-54 -40.5v-3q89 -18 89 -116q0 -134 -149 -134q-61 0 -137 28l12 36q73 -27 123 -27t79.5 23.5t29.5 72.5t-24.5 71.5t-76.5 22.5zM501 800v-22
h-353q156 -48 254 -179t98 -299t-97.5 -297.5t-251.5 -178.5h350v-23h-502v23q197 0 337 139.5t140 336.5q0 130 -63.5 240t-173.5 174t-240 64v22h502z" />
    <glyph glyph-name="four.handleright.wt" 
d="M341 199v-37h-64v-99h-41v99h-195v33l118 332h41l-115 -328h151v151h41v-151h64zM501 800v-22h-353q156 -48 254 -179t98 -299t-97.5 -297.5t-251.5 -178.5h350v-23h-502v23q197 0 337 139.5t140 336.5q0 130 -63.5 240t-173.5 174t-240 64v22h502z" />
    <glyph glyph-name="five.handleright.wt" 
d="M292 324.5q36 -37.5 36 -108t-39 -112t-106 -41.5t-136 30l13 37q68 -31 118.5 -31t79 33.5t28.5 85t-25.5 79.5t-73.5 28t-96 -42l-26 8l6 236h241v-38h-204l-6 -159q44 32 89 32q65 0 101 -37.5zM501 800v-22h-353q156 -48 254 -179t98 -298.5t-97.5 -297.5
t-251.5 -179h350v-23h-502v23q197 0 337 139.5t140 336.5q0 130 -63.5 240t-173.5 174t-240 64v22h502z" />
    <glyph glyph-name="six.handleright.wt" 
d="M292 327q37 -38 37 -108.5t-37.5 -112t-105.5 -41.5t-106.5 40.5t-38.5 116.5q0 123 48.5 191.5t171.5 128.5l16 -36q-94 -47 -133 -87.5t-55 -101.5q48 48 97 48q69 0 106 -38zM287 219q0 107 -101 107q-43 0 -73 -29.5t-30 -74.5q0 -120 103 -120q50 0 75.5 31t25.5 86
zM501 800v-22h-353q156 -48 254 -179t98 -298.5t-97.5 -297.5t-251.5 -179h350v-23h-502v23q197 0 337 139.5t140 336.5q0 130 -63.5 240t-173.5 174t-240 64v22h502z" />
    <glyph glyph-name="seven.handleright.wt" 
d="M47 453l14 76h256v-40q-5 -43 -82 -183q-28 -50 -51.5 -116t-23.5 -119h-43q0 71 37.5 159t77.5 161t43 100h-183l-10 -41zM501 800v-22h-353q156 -48 254 -179t98 -298.5t-97.5 -297.5t-251.5 -179h350v-23h-502v23q197 0 337 139.5t140 336.5q0 130 -63.5 240
t-173.5 174t-240 64v22h502z" />
    <glyph glyph-name="eight.handleright.wt" 
d="M186 535q65 0 100.5 -34t35.5 -89q0 -78 -67 -105q77 -30 77 -116q0 -59 -37.5 -93t-108.5 -34t-108 34t-37 93q0 86 76 113q-67 34 -67 108q0 55 35.5 89t100.5 34zM109.5 262q-26.5 -25 -26.5 -69t26.5 -68t76.5 -24t77 24t27 66q0 96 -104 96q-50 0 -76.5 -25z
M114 475q-24 -23 -24 -62.5t23.5 -64.5t72.5 -25t73 24t24 65q0 86 -97 86q-48 0 -72 -23zM501 800v-22h-353q156 -48 254 -179t98 -298.5t-97.5 -297.5t-251.5 -179h350v-23h-502v23q197 0 337 139.5t140 336.5q0 130 -63.5 240t-173.5 174t-240 64v22h502z" />
    <glyph glyph-name="nine.handleright.wt" 
d="M88 280q-37 37 -37 104.5t39 108.5t104.5 41t102.5 -39.5t37 -110.5q0 -97 -34 -169.5t-110 -157.5l-49 9q68 74 98.5 121.5t44.5 100.5q-45 -45 -92 -45q-67 0 -104 37zM93 386q0 -105 99 -105q43 0 71.5 29t28.5 74q0 113 -99 113q-47 0 -73.5 -30.5t-26.5 -80.5z
M501 800v-22h-353q156 -48 254 -179t98 -298.5t-97.5 -297.5t-251.5 -179h350v-23h-502v23q197 0 337 139.5t140 336.5q0 130 -63.5 240t-173.5 174t-240 64v22h502z" />
    <glyph glyph-name="frameleft" 
d="M501 -199h-502v999h502v-22q-130 0 -240 -64t-173.5 -174t-63.5 -240q0 -197 140 -336.5t337 -139.5v-23z" />
    <glyph glyph-name="zero.frameleft" 
d="M203.5 481q32.5 54 106 54t106 -54t32.5 -181t-32.5 -181.5t-106 -54.5t-106 54.5t-32.5 181.5t32.5 181zM237.5 147q19.5 -46 72 -46t72 46t19.5 153.5t-19 152.5t-72 45t-72.5 -45t-19.5 -152.5t19.5 -153.5zM501 -199h-502v999h502v-22q-130 0 -240 -64t-173.5 -174
t-63.5 -240q0 -197 140 -336.5t337 -139.5v-23z" />
    <glyph glyph-name="one.frameleft" 
d="M459 71h-270v36h123v377l-118 -55l-17 37l140 64h37v-423h105v-36zM501 -199h-502v999h502v-22q-130 0 -240 -64t-173.5 -174t-63.5 -240q0 -197 140 -336.5t337 -139.5v-23z" />
    <glyph glyph-name="two.frameleft" 
d="M401.5 501.5q35.5 -34.5 35.5 -89t-26.5 -96.5t-60.5 -69q-96 -77 -119 -133h224v-41h-271v34q23 64 95 129l55 50q61 56 61 118q0 42 -25.5 69t-64.5 27t-107 -50l-20 31q72 55 130 55t93.5 -34.5zM501 -199h-502v999h502v-22q-130 0 -240 -64t-173.5 -174t-63.5 -240
q0 -197 140 -336.5t337 -139.5v-23z" />
    <glyph glyph-name="three.frameleft" 
d="M233 282l-5 32l52 9q116 18 116 95q0 41 -26 60.5t-70 19.5t-109 -33l-13 35q72 35 130 35t93 -28q35 -27 35 -77t-16 -72.5t-54 -40.5v-3q89 -18 89 -116q0 -134 -149 -134q-61 0 -137 28l12 36q73 -27 123 -27t79.5 23.5t29.5 72.5t-24.5 71.5t-76.5 22.5zM501 -199
h-502v999h502v-22q-130 0 -240 -64t-173.5 -174t-63.5 -240q0 -197 140 -336.5t337 -139.5v-23z" />
    <glyph glyph-name="four.frameleft" 
d="M469 199v-37h-64v-99h-41v99h-195v33l118 332h41l-115 -328h151v151h41v-151h64zM501 -199h-502v999h502v-22q-130 0 -240 -64t-173.5 -174t-63.5 -240q0 -197 140 -336.5t337 -139.5v-23z" />
    <glyph glyph-name="five.frameleft" 
d="M420 324.5q36 -37.5 36 -108t-39 -112t-106 -41.5t-136 30l13 37q68 -31 118.5 -31t79 33.5t28.5 85t-25.5 79.5t-73.5 28t-96 -42l-26 8l6 236h241v-38h-204l-6 -159q44 32 89 32q65 0 101 -37.5zM501 -199h-502v999h502v-22q-130 0 -240 -64t-173.5 -174t-63.5 -240
q0 -197 140 -336.5t337 -139.5v-23z" />
    <glyph glyph-name="six.frameleft" 
d="M420 327q37 -38 37 -108.5t-37.5 -112t-105.5 -41.5t-106.5 40.5t-38.5 116.5q0 123 48.5 191.5t171.5 128.5l16 -36q-94 -47 -133 -87.5t-55 -101.5q48 48 97 48q69 0 106 -38zM415 219q0 107 -101 107q-43 0 -73 -29.5t-30 -74.5q0 -120 103 -120q50 0 75.5 31t25.5 86
zM501 -199h-502v999h502v-22q-130 0 -240 -64t-173.5 -174t-63.5 -240q0 -197 140 -336.5t337 -139.5v-23z" />
    <glyph glyph-name="seven.frameleft" 
d="M175 453l14 76h256v-40q-5 -43 -82 -183q-28 -50 -51.5 -116t-23.5 -119h-43q0 71 37.5 159t77.5 161t43 100h-183l-10 -41zM501 -199h-502v999h502v-22q-130 0 -240 -64t-173.5 -174t-63.5 -240q0 -197 140 -336.5t337 -139.5v-23z" />
    <glyph glyph-name="eight.frameleft" 
d="M314 535q65 0 100.5 -34t35.5 -89q0 -78 -67 -105q77 -30 77 -116q0 -59 -37.5 -93t-108.5 -34t-108 34t-37 93q0 86 76 113q-67 34 -67 108q0 55 35.5 89t100.5 34zM237.5 262q-26.5 -25 -26.5 -69t26.5 -68t76.5 -24t77 24t27 66q0 96 -104 96q-50 0 -76.5 -25z
M242 475q-24 -23 -24 -62.5t23.5 -64.5t72.5 -25t73 24t24 65q0 86 -97 86q-48 0 -72 -23zM501 -199h-502v999h502v-22q-130 0 -240 -64t-173.5 -174t-63.5 -240q0 -197 140 -336.5t337 -139.5v-23z" />
    <glyph glyph-name="nine.frameleft" 
d="M216 280q-37 37 -37 104.5t39 108.5t104.5 41t102.5 -39.5t37 -110.5q0 -97 -34 -169.5t-110 -157.5l-49 9q68 74 98.5 121.5t44.5 100.5q-45 -45 -92 -45q-67 0 -104 37zM221 386q0 -105 99 -105q43 0 71.5 29t28.5 74q0 113 -99 113q-47 0 -73.5 -30.5t-26.5 -80.5z
M501 -199h-502v999h502v-22q-130 0 -240 -64t-173.5 -174t-63.5 -240q0 -197 140 -336.5t337 -139.5v-23z" />
    <glyph glyph-name="frameright" 
d="M501 -199h-502v23q197 0 337 139.5t140 336.5q0 130 -63.5 240t-173.5 174t-240 64v22h502v-999z" />
    <glyph glyph-name="zero.frameright" 
d="M85.5 481q32.5 54 106 54t106 -54t32.5 -181t-32.5 -181.5t-106 -54.5t-106 54.5t-32.5 181.5t32.5 181zM119.5 147q19.5 -46 72 -46t72 46t19.5 153.5t-19 152.5t-72 45t-72.5 -45t-19.5 -152.5t19.5 -153.5zM501 -199h-502v23q197 0 337 139.5t140 336.5
q0 130 -63.5 240t-173.5 174t-240 64v22h502v-999z" />
    <glyph glyph-name="one.frameright" 
d="M331 71h-270v36h123v377l-118 -55l-17 37l140 64h37v-423h105v-36zM501 -199h-502v23q197 0 337 139.5t140 336.5q0 130 -63.5 240t-173.5 174t-240 64v22h502v-999z" />
    <glyph glyph-name="two.frameright" 
d="M273.5 501.5q35.5 -34.5 35.5 -89t-26.5 -96.5t-60.5 -69q-96 -77 -119 -133h224v-41h-271v34q23 64 95 129l55 50q61 56 61 118q0 42 -25.5 69t-64.5 27t-107 -50l-20 31q72 55 130 55t93.5 -34.5zM501 -199h-502v23q197 0 337 139.5t140 336.5q0 130 -63.5 240
t-173.5 174t-240 64v22h502v-999z" />
    <glyph glyph-name="three.frameright" 
d="M105 282l-5 32l52 9q116 18 116 95q0 41 -26 60.5t-70 19.5t-109 -33l-13 35q72 35 130 35t93 -28q35 -27 35 -77t-16 -72.5t-54 -40.5v-3q89 -18 89 -116q0 -134 -149 -134q-61 0 -137 28l12 36q73 -27 123 -27t79.5 23.5t29.5 72.5t-24.5 71.5t-76.5 22.5zM501 -199
h-502v23q197 0 337 139.5t140 336.5q0 130 -63.5 240t-173.5 174t-240 64v22h502v-999z" />
    <glyph glyph-name="four.frameright" 
d="M341 199v-37h-64v-99h-41v99h-195v33l118 332h41l-115 -328h151v151h41v-151h64zM501 -199h-502v23q197 0 337 139.5t140 336.5q0 130 -63.5 240t-173.5 174t-240 64v22h502v-999z" />
    <glyph glyph-name="five.frameright" 
d="M292 324.5q36 -37.5 36 -108t-39 -112t-106 -41.5t-136 30l13 37q68 -31 118.5 -31t79 33.5t28.5 85t-25.5 79.5t-73.5 28t-96 -42l-26 8l6 236h241v-38h-204l-6 -159q44 32 89 32q65 0 101 -37.5zM501 -199h-502v23q197 0 337 139.5t140 336.5q0 130 -63.5 240
t-173.5 174t-240 64v22h502v-999z" />
    <glyph glyph-name="six.frameright" 
d="M292 327q37 -38 37 -108.5t-37.5 -112t-105.5 -41.5t-106.5 40.5t-38.5 116.5q0 123 48.5 191.5t171.5 128.5l16 -36q-94 -47 -133 -87.5t-55 -101.5q48 48 97 48q69 0 106 -38zM287 219q0 107 -101 107q-43 0 -73 -29.5t-30 -74.5q0 -120 103 -120q50 0 75.5 31t25.5 86
zM501 -199h-502v23q197 0 337 139.5t140 336.5q0 130 -63.5 240t-173.5 174t-240 64v22h502v-999z" />
    <glyph glyph-name="seven.frameright" 
d="M47 453l14 76h256v-40q-5 -43 -82 -183q-28 -50 -51.5 -116t-23.5 -119h-43q0 71 37.5 159t77.5 161t43 100h-183l-10 -41zM501 -199h-502v23q197 0 337 139.5t140 336.5q0 130 -63.5 240t-173.5 174t-240 64v22h502v-999z" />
    <glyph glyph-name="eight.frameright" 
d="M186 535q65 0 100.5 -34t35.5 -89q0 -78 -67 -105q77 -30 77 -116q0 -59 -37.5 -93t-108.5 -34t-108 34t-37 93q0 86 76 113q-67 34 -67 108q0 55 35.5 89t100.5 34zM109.5 262q-26.5 -25 -26.5 -69t26.5 -68t76.5 -24t77 24t27 66q0 96 -104 96q-50 0 -76.5 -25z
M114 475q-24 -23 -24 -62.5t23.5 -64.5t72.5 -25t73 24t24 65q0 86 -97 86q-48 0 -72 -23zM501 -199h-502v23q197 0 337 139.5t140 336.5q0 130 -63.5 240t-173.5 174t-240 64v22h502v-999z" />
    <glyph glyph-name="nine.frameright" 
d="M88 280q-37 37 -37 104.5t39 108.5t104.5 41t102.5 -39.5t37 -110.5q0 -97 -34 -169.5t-110 -157.5l-49 9q68 74 98.5 121.5t44.5 100.5q-45 -45 -92 -45q-67 0 -104 37zM93 386q0 -105 99 -105q43 0 71.5 29t28.5 74q0 113 -99 113q-47 0 -73.5 -30.5t-26.5 -80.5z
M501 -199h-502v23q197 0 337 139.5t140 336.5q0 130 -63.5 240t-173.5 174t-240 64v22h502v-999z" />
    <glyph glyph-name="rectangle.white" 
d="M-1 778v22h502v-22h-502zM-1 -199v23h502v-23h-502z" />
    <glyph glyph-name="zero.small.white" 
d="M144.5 481q32.5 54 106 54t106 -54t32.5 -181t-32.5 -181.5t-106 -54.5t-106 54.5t-32.5 181.5t32.5 181zM178.5 147q19.5 -46 72 -46t72 46t19.5 153.5t-19 152.5t-72 45t-72.5 -45t-19.5 -152.5t19.5 -153.5zM-1 778v22h502v-22h-502zM-1 -199v23h502v-23h-502z" />
    <glyph glyph-name="one.small.white" 
d="M395 71h-270v36h123v377l-118 -55l-17 37l140 64h37v-423h105v-36zM-1 778v22h502v-22h-502zM-1 -199v23h502v-23h-502z" />
    <glyph glyph-name="two.small.white" 
d="M337.5 501.5q35.5 -34.5 35.5 -89t-26.5 -96.5t-60.5 -69q-96 -77 -119 -133h224v-41h-271v34q23 64 95 129l55 50q61 56 61 118q0 42 -25.5 69t-64.5 27t-107 -50l-20 31q72 55 130 55t93.5 -34.5zM-1 778v22h502v-22h-502zM-1 -199v23h502v-23h-502z" />
    <glyph glyph-name="three.small.white" 
d="M169 282l-5 32l52 9q116 18 116 95q0 41 -26 60.5t-70 19.5t-109 -33l-13 35q72 35 130 35t93 -28q35 -27 35 -77t-16 -72.5t-54 -40.5v-3q89 -18 89 -116q0 -134 -149 -134q-61 0 -137 28l12 36q73 -27 123 -27t79.5 23.5t29.5 72.5t-24.5 71.5t-76.5 22.5zM-1 778v22
h502v-22h-502zM-1 -199v23h502v-23h-502z" />
    <glyph glyph-name="four.small.white" 
d="M405 199v-37h-64v-99h-41v99h-195v33l118 332h41l-115 -328h151v151h41v-151h64zM-1 778v22h502v-22h-502zM-1 -199v23h502v-23h-502z" />
    <glyph glyph-name="five.small.white" 
d="M356 324.5q36 -37.5 36 -108t-39 -112t-106 -41.5t-136 30l13 37q68 -31 118.5 -31t79 33.5t28.5 85t-25.5 79.5t-73.5 28t-96 -42l-26 8l6 236h241v-38h-204l-6 -159q44 32 89 32q65 0 101 -37.5zM-1 778v22h502v-22h-502zM-1 -199v23h502v-23h-502z" />
    <glyph glyph-name="six.small.white" 
d="M356 327q37 -38 37 -108.5t-37.5 -112t-105.5 -41.5t-106.5 40.5t-38.5 116.5q0 123 48.5 191.5t171.5 128.5l16 -36q-94 -47 -133 -87.5t-55 -101.5q48 48 97 48q69 0 106 -38zM351 219q0 107 -101 107q-43 0 -73 -29.5t-30 -74.5q0 -120 103 -120q50 0 75.5 31t25.5 86
zM-1 778v22h502v-22h-502zM-1 -199v23h502v-23h-502z" />
    <glyph glyph-name="seven.small.white" 
d="M111 453l14 76h256v-40q-5 -43 -82 -183q-28 -50 -51.5 -116t-23.5 -119h-43q0 71 37.5 159t77.5 161t43 100h-183l-10 -41zM-1 778v22h502v-22h-502zM-1 -199v23h502v-23h-502z" />
    <glyph glyph-name="eight.small.white" 
d="M250 535q65 0 100.5 -34t35.5 -89q0 -78 -67 -105q77 -30 77 -116q0 -59 -37.5 -93t-108.5 -34t-108 34t-37 93q0 86 76 113q-67 34 -67 108q0 55 35.5 89t100.5 34zM173.5 262q-26.5 -25 -26.5 -69t26.5 -68t76.5 -24t77 24t27 66q0 96 -104 96q-50 0 -76.5 -25z
M178 475q-24 -23 -24 -62.5t23.5 -64.5t72.5 -25t73 24t24 65q0 86 -97 86q-48 0 -72 -23zM-1 778v22h502v-22h-502zM-1 -199v23h502v-23h-502z" />
    <glyph glyph-name="nine.small.white" 
d="M152 280q-37 37 -37 104.5t39 108.5t104.5 41t102.5 -39.5t37 -110.5q0 -97 -34 -169.5t-110 -157.5l-49 9q68 74 98.5 121.5t44.5 100.5q-45 -45 -92 -45q-67 0 -104 37zM157 386q0 -105 99 -105q43 0 71.5 29t28.5 74q0 113 -99 113q-47 0 -73.5 -30.5t-26.5 -80.5z
M-1 778v22h502v-22h-502zM-1 -199v23h502v-23h-502z" />
    <glyph glyph-name="bullet.white" 
d="M279 331v-64h-58v64h58zM-1 778v22h502v-22h-502zM-1 -199v23h502v-23h-502z" />
    <glyph glyph-name="square.small.white" 
d="M-1 778v22h502v-22h-502zM-1 -199v23h502v-23h-502zM147 178v209h206v-209h-206z" />
    <glyph glyph-name="downarrow.small.white" 
d="M-1 778v22h502v-22h-502zM-1 -199v23h502v-23h-502zM370 390l-122 -217l-118 217h240z" />
    <glyph glyph-name="leftarrow.small.white" 
d="M-1 778v22h502v-22h-502zM-1 -199v23h502v-23h-502zM360 166l-217 122l217 118v-240z" />
    <glyph glyph-name="uparrow.small.white" 
d="M-1 778v22h502v-22h-502zM-1 -199v23h502v-23h-502zM130 190l122 217l118 -217h-240z" />
    <glyph glyph-name="srightarrow.small.white" 
d="M-1 778v22h502v-22h-502zM-1 -199v23h502v-23h-502zM140 407l217 -122l-217 -118v240z" />
    <glyph glyph-name="closed.white" 
d="M501 800v-999h-502v999h502zM24 778v-954h452v954h-452z" />
    <glyph glyph-name="zero.closed.white" 
d="M144.5 481q32.5 54 106 54t106 -54t32.5 -181t-32.5 -181.5t-106 -54.5t-106 54.5t-32.5 181.5t32.5 181zM178.5 147q19.5 -46 72 -46t72 46t19.5 153.5t-19 152.5t-72 45t-72.5 -45t-19.5 -152.5t19.5 -153.5zM501 800v-999h-502v999h502zM24 778v-954h452v954h-452z
" />
    <glyph glyph-name="one.closed.white" 
d="M395 71h-270v36h123v377l-118 -55l-17 37l140 64h37v-423h105v-36zM501 800v-999h-502v999h502zM24 778v-954h452v954h-452z" />
    <glyph glyph-name="two.closed.white" 
d="M337.5 501.5q35.5 -34.5 35.5 -89t-26.5 -96.5t-60.5 -69q-96 -77 -119 -133h224v-41h-271v34q23 64 95 129l55 50q61 56 61 118q0 42 -25.5 69t-64.5 27t-107 -50l-20 31q72 55 130 55t93.5 -34.5zM501 800v-999h-502v999h502zM24 778v-954h452v954h-452z" />
    <glyph glyph-name="three.closed.white" 
d="M169 282l-5 32l52 9q116 18 116 95q0 41 -26 60.5t-70 19.5t-109 -33l-13 35q72 35 130 35t93 -28q35 -27 35 -77t-16 -72.5t-54 -40.5v-3q89 -18 89 -116q0 -134 -149 -134q-61 0 -137 28l12 36q73 -27 123 -27t79.5 23.5t29.5 72.5t-24.5 71.5t-76.5 22.5zM501 800
v-999h-502v999h502zM24 778v-954h452v954h-452z" />
    <glyph glyph-name="four.closed.white" 
d="M405 199v-37h-64v-99h-41v99h-195v33l118 332h41l-115 -328h151v151h41v-151h64zM501 800v-999h-502v999h502zM24 778v-954h452v954h-452z" />
    <glyph glyph-name="five.closed.white" 
d="M356 324.5q36 -37.5 36 -108t-39 -112t-106 -41.5t-136 30l13 37q68 -31 118.5 -31t79 33.5t28.5 85t-25.5 79.5t-73.5 28t-96 -42l-26 8l6 236h241v-38h-204l-6 -159q44 32 89 32q65 0 101 -37.5zM501 800v-999h-502v999h502zM24 778v-954h452v954h-452z" />
    <glyph glyph-name="six.closed.white" 
d="M356 327q37 -38 37 -108.5t-37.5 -112t-105.5 -41.5t-106.5 40.5t-38.5 116.5q0 123 48.5 191.5t171.5 128.5l16 -36q-94 -47 -133 -87.5t-55 -101.5q48 48 97 48q69 0 106 -38zM351 219q0 107 -101 107q-43 0 -73 -29.5t-30 -74.5q0 -120 103 -120q50 0 75.5 31t25.5 86
zM501 800v-999h-502v999h502zM24 778v-954h452v954h-452z" />
    <glyph glyph-name="seven.closed.white" 
d="M111 453l14 76h256v-40q-5 -43 -82 -183q-28 -50 -51.5 -116t-23.5 -119h-43q0 71 37.5 159t77.5 161t43 100h-183l-10 -41zM501 800v-999h-502v999h502zM24 778v-954h452v954h-452z" />
    <glyph glyph-name="eight.closed.white" 
d="M250 535q65 0 100.5 -34t35.5 -89q0 -78 -67 -105q77 -30 77 -116q0 -59 -37.5 -93t-108.5 -34t-108 34t-37 93q0 86 76 113q-67 34 -67 108q0 55 35.5 89t100.5 34zM173.5 262q-26.5 -25 -26.5 -69t26.5 -68t76.5 -24t77 24t27 66q0 96 -104 96q-50 0 -76.5 -25z
M178 475q-24 -23 -24 -62.5t23.5 -64.5t72.5 -25t73 24t24 65q0 86 -97 86q-48 0 -72 -23zM501 800v-999h-502v999h502zM24 778v-954h452v954h-452z" />
    <glyph glyph-name="nine.closed.white" 
d="M152 280q-37 37 -37 104.5t39 108.5t104.5 41t102.5 -39.5t37 -110.5q0 -97 -34 -169.5t-110 -157.5l-49 9q68 74 98.5 121.5t44.5 100.5q-45 -45 -92 -45q-67 0 -104 37zM157 386q0 -105 99 -105q43 0 71.5 29t28.5 74q0 113 -99 113q-47 0 -73.5 -30.5t-26.5 -80.5z
M501 800v-999h-502v999h502zM24 778v-954h452v954h-452z" />
    <glyph glyph-name="square.closed.white" 
d="M147 178v209h206v-209h-206zM501 800v-999h-502v999h502zM24 778v-954h452v954h-452z" />
    <glyph glyph-name="downarrow.closed.white" 
d="M370 390l-122 -217l-118 217h240zM501 800v-999h-502v999h502zM24 778v-954h452v954h-452z" />
    <glyph glyph-name="leftarrow.closed.white" 
d="M360 166l-217 122l217 118v-240zM501 800v-999h-502v999h502zM24 778v-954h452v954h-452z" />
    <glyph glyph-name="uparrow.closed.white" 
d="M130 190l122 217l118 -217h-240zM501 800v-999h-502v999h502zM24 778v-954h452v954h-452z" />
    <glyph glyph-name="rightarrow.closed.white" 
d="M140 407l217 -122l-217 -118v240zM501 800v-999h-502v999h502zM24 778v-954h452v954h-452z" />
    <glyph glyph-name="halfcircleleft.wt" 
d="M501 -176v-23q-137 0 -252 66.5t-182 181t-67 251.5q0 209 146 354.5t355 145.5v-22q-130 0 -240 -64t-173.5 -174t-63.5 -240q0 -197 140 -336.5t337 -139.5z" />
    <glyph glyph-name="zero.halfcircleleft.wt" 
d="M203.5 481q32.5 54 106 54t106 -54t32.5 -181t-32.5 -181.5t-106 -54.5t-106 54.5t-32.5 181.5t32.5 181zM237.5 147q19.5 -46 72 -46t72 46t19.5 153.5t-19 152.5t-72 45t-72.5 -45t-19.5 -152.5t19.5 -153.5zM501 -176v-23q-137 0 -252 66.5t-182 181t-67 251.5
q0 209 146 354.5t355 145.5v-22q-130 0 -240 -64t-173.5 -174t-63.5 -240q0 -197 140 -336.5t337 -139.5z" />
    <glyph glyph-name="one.halfcircleleft.wt" 
d="M459 71h-270v36h123v377l-118 -55l-17 37l140 64h37v-423h105v-36zM501 -176v-23q-137 0 -252 66.5t-182 181t-67 251.5q0 209 146 354.5t355 145.5v-22q-130 0 -240 -64t-173.5 -174t-63.5 -240q0 -197 140 -336.5t337 -139.5z" />
    <glyph glyph-name="two.halfcircleleft.wt" 
d="M401.5 501.5q35.5 -34.5 35.5 -89t-26.5 -96.5t-60.5 -69q-96 -77 -119 -133h224v-41h-271v34q23 64 95 129l55 50q61 56 61 118q0 42 -25.5 69t-64.5 27t-107 -50l-20 31q72 55 130 55t93.5 -34.5zM501 -176v-23q-137 0 -252 66.5t-182 181t-67 251.5q0 209 146 354.5
t355 145.5v-22q-130 0 -240 -64t-173.5 -174t-63.5 -240q0 -197 140 -336.5t337 -139.5z" />
    <glyph glyph-name="three.halfcircleleft.wt" 
d="M233 282l-5 32l52 9q116 18 116 95q0 41 -26 60.5t-70 19.5t-109 -33l-13 35q72 35 130 35t93 -28q35 -27 35 -77t-16 -72.5t-54 -40.5v-3q89 -18 89 -116q0 -134 -149 -134q-61 0 -137 28l12 36q73 -27 123 -27t79.5 23.5t29.5 72.5t-24.5 71.5t-76.5 22.5zM501 -176
v-23q-137 0 -252 66.5t-182 181t-67 251.5q0 209 146 354.5t355 145.5v-22q-130 0 -240 -64t-173.5 -174t-63.5 -240q0 -197 140 -336.5t337 -139.5z" />
    <glyph glyph-name="four.halfcircleleft.wt" 
d="M469 199v-37h-64v-99h-41v99h-195v33l118 332h41l-115 -328h151v151h41v-151h64zM501 -176v-23q-137 0 -252 66.5t-182 181t-67 251.5q0 209 146 354.5t355 145.5v-22q-130 0 -240 -64t-173.5 -174t-63.5 -240q0 -197 140 -336.5t337 -139.5z" />
    <glyph glyph-name="five.halfcircleleft.wt" 
d="M420 324.5q36 -37.5 36 -108t-39 -112t-106 -41.5t-136 30l13 37q68 -31 118.5 -31t79 33.5t28.5 85t-25.5 79.5t-73.5 28t-96 -42l-26 8l6 236h241v-38h-204l-6 -159q44 32 89 32q65 0 101 -37.5zM501 -176v-23q-137 0 -252 66.5t-182 181t-67 251.5q0 209 146 354.5
t355 145.5v-22q-130 0 -240 -64t-173.5 -174t-63.5 -240q0 -197 140 -336.5t337 -139.5z" />
    <glyph glyph-name="six.halfcircleleft.wt" 
d="M420 327q37 -38 37 -108.5t-37.5 -112t-105.5 -41.5t-106.5 40.5t-38.5 116.5q0 123 48.5 191.5t171.5 128.5l16 -36q-94 -47 -133 -87.5t-55 -101.5q48 48 97 48q69 0 106 -38zM415 219q0 107 -101 107q-43 0 -73 -29.5t-30 -74.5q0 -120 103 -120q50 0 75.5 31t25.5 86
zM501 -176v-23q-137 0 -252 66.5t-182 181t-67 251.5q0 209 146 354.5t355 145.5v-22q-130 0 -240 -64t-173.5 -174t-63.5 -240q0 -197 140 -336.5t337 -139.5z" />
    <glyph glyph-name="seven.halfcircleleft.wt" 
d="M175 453l14 76h256v-40q-5 -43 -82 -183q-28 -50 -51.5 -116t-23.5 -119h-43q0 71 37.5 159t77.5 161t43 100h-183l-10 -41zM501 -176v-23q-137 0 -252 66.5t-182 181t-67 251.5q0 209 146 354.5t355 145.5v-22q-130 0 -240 -64t-173.5 -174t-63.5 -240
q0 -197 140 -336.5t337 -139.5z" />
    <glyph glyph-name="eight.halfcircleleft.wt" 
d="M314 535q65 0 100.5 -34t35.5 -89q0 -78 -67 -105q77 -30 77 -116q0 -59 -37.5 -93t-108.5 -34t-108 34t-37 93q0 86 76 113q-67 34 -67 108q0 55 35.5 89t100.5 34zM237.5 262q-26.5 -25 -26.5 -69t26.5 -68t76.5 -24t77 24t27 66q0 96 -104 96q-50 0 -76.5 -25z
M242 475q-24 -23 -24 -62.5t23.5 -64.5t72.5 -25t73 24t24 65q0 86 -97 86q-48 0 -72 -23zM501 -176v-23q-137 0 -252 66.5t-182 181t-67 251.5q0 209 146 354.5t355 145.5v-22q-130 0 -240 -64t-173.5 -174t-63.5 -240q0 -197 140 -336.5t337 -139.5z" />
    <glyph glyph-name="nine.halfcircleleft.wt" 
d="M216 280q-37 37 -37 104.5t39 108.5t104.5 41t102.5 -39.5t37 -110.5q0 -97 -34 -169.5t-110 -157.5l-49 9q68 74 98.5 121.5t44.5 100.5q-45 -45 -92 -45q-67 0 -104 37zM221 386q0 -105 99 -105q43 0 71.5 29t28.5 74q0 113 -99 113q-47 0 -73.5 -30.5t-26.5 -80.5z
M501 -176v-23q-137 0 -252 66.5t-182 181t-67 251.5q0 209 146 354.5t355 145.5v-22q-130 0 -240 -64t-173.5 -174t-63.5 -240q0 -197 140 -336.5t337 -139.5z" />
    <glyph glyph-name="square.circleleft.wt" 
d="M207 178v209h206v-209h-206zM501 -176v-23q-137 0 -252 66.5t-182 181t-67 251.5q0 209 146 354.5t355 145.5v-22q-130 0 -240 -64t-173.5 -174t-63.5 -240q0 -197 140 -336.5t337 -139.5z" />
    <glyph glyph-name="downarrow.circleleft.wt" 
d="M377 390l-122 -217l-118 217h240zM501 -176v-23q-137 0 -252 66.5t-182 181t-67 251.5q0 209 146 354.5t355 145.5v-22q-130 0 -240 -64t-173.5 -174t-63.5 -240q0 -197 140 -336.5t337 -139.5z" />
    <glyph glyph-name="leftarrow.circleleft.wt" 
d="M376 166l-217 122l217 118v-240zM501 -176v-23q-137 0 -252 66.5t-182 181t-67 251.5q0 209 146 354.5t355 145.5v-22q-130 0 -240 -64t-173.5 -174t-63.5 -240q0 -197 140 -336.5t337 -139.5z" />
    <glyph glyph-name="uparrow.circleleft.wt" 
d="M155 190l122 217l118 -217h-240zM501 -176v-23q-137 0 -252 66.5t-182 181t-67 251.5q0 209 146 354.5t355 145.5v-22q-130 0 -240 -64t-173.5 -174t-63.5 -240q0 -197 140 -336.5t337 -139.5z" />
    <glyph glyph-name="rightarrow.circleleft.wt" 
d="M175 407l217 -122l-217 -118v240zM501 -176v-23q-137 0 -252 66.5t-182 181t-67 251.5q0 209 146 354.5t355 145.5v-22q-130 0 -240 -64t-173.5 -174t-63.5 -240q0 -197 140 -336.5t337 -139.5z" />
    <glyph glyph-name="halfcircleright.wt" 
d="M-1 -199v23q197 0 337 139.5t140 336.5q0 130 -63.5 240t-173.5 174t-240 64v22q209 0 355 -145.5t146 -354.5q0 -137 -67 -251.5t-182 -181t-252 -66.5z" />
    <glyph glyph-name="zero.halfcircleright.wt" 
d="M85.5 481q32.5 54 106 54t106 -54t32.5 -181t-32.5 -181.5t-106 -54.5t-106 54.5t-32.5 181.5t32.5 181zM119.5 147q19.5 -46 72 -46t72 46t19.5 153.5t-19 152.5t-72 45t-72.5 -45t-19.5 -152.5t19.5 -153.5zM-1 -199v23q197 0 337 139.5t140 336.5q0 130 -63.5 240
t-173.5 174t-240 64v22q209 0 355 -145.5t146 -354.5q0 -137 -67 -251.5t-182 -181t-252 -66.5z" />
    <glyph glyph-name="one.halfcircleright.wt" 
d="M331 71h-270v36h123v377l-118 -55l-17 37l140 64h37v-423h105v-36zM-1 -199v23q197 0 337 139.5t140 336.5q0 130 -63.5 240t-173.5 174t-240 64v22q209 0 355 -145.5t146 -354.5q0 -137 -67 -251.5t-182 -181t-252 -66.5z" />
    <glyph glyph-name="two.halfcircleright.wt" 
d="M273.5 501.5q35.5 -34.5 35.5 -89t-26.5 -96.5t-60.5 -69q-96 -77 -119 -133h224v-41h-271v34q23 64 95 129l55 50q61 56 61 118q0 42 -25.5 69t-64.5 27t-107 -50l-20 31q72 55 130 55t93.5 -34.5zM-1 -199v23q197 0 337 139.5t140 336.5q0 130 -63.5 240t-173.5 174
t-240 64v22q209 0 355 -145.5t146 -354.5q0 -137 -67 -251.5t-182 -181t-252 -66.5z" />
    <glyph glyph-name="three.halfcircleright.wt" 
d="M105 282l-5 32l52 9q116 18 116 95q0 41 -26 60.5t-70 19.5t-109 -33l-13 35q72 35 130 35t93 -28q35 -27 35 -77t-16 -72.5t-54 -40.5v-3q89 -18 89 -116q0 -134 -149 -134q-61 0 -137 28l12 36q73 -27 123 -27t79.5 23.5t29.5 72.5t-24.5 71.5t-76.5 22.5zM-1 -199v23
q197 0 337 139.5t140 336.5q0 130 -63.5 240t-173.5 174t-240 64v22q209 0 355 -145.5t146 -354.5q0 -137 -67 -251.5t-182 -181t-252 -66.5z" />
    <glyph glyph-name="four.halfcircleright.wt" 
d="M341 199v-37h-64v-99h-41v99h-195v33l118 332h41l-115 -328h151v151h41v-151h64zM-1 -199v23q197 0 337 139.5t140 336.5q0 130 -63.5 240t-173.5 174t-240 64v22q209 0 355 -145.5t146 -354.5q0 -137 -67 -251.5t-182 -181t-252 -66.5z" />
    <glyph glyph-name="five.halfcircleright.wt" 
d="M292 324.5q36 -37.5 36 -108t-39 -112t-106 -41.5t-136 30l13 37q68 -31 118.5 -31t79 33.5t28.5 85t-25.5 79.5t-73.5 28t-96 -42l-26 8l6 236h241v-38h-204l-6 -159q44 32 89 32q65 0 101 -37.5zM-1 -199v23q197 0 337 139.5t140 336.5q0 130 -63.5 240t-173.5 174
t-240 64v22q209 0 355 -145.5t146 -354.5q0 -137 -67 -251.5t-182 -181t-252 -66.5z" />
    <glyph glyph-name="six.halfcircleright.wt" 
d="M292 327q37 -38 37 -108.5t-37.5 -112t-105.5 -41.5t-106.5 40.5t-38.5 116.5q0 123 48.5 191.5t171.5 128.5l16 -36q-94 -47 -133 -87.5t-55 -101.5q48 48 97 48q69 0 106 -38zM287 219q0 107 -101 107q-43 0 -73 -29.5t-30 -74.5q0 -120 103 -120q50 0 75.5 31t25.5 86
zM-1 -199v23q197 0 337 139.5t140 336.5q0 130 -63.5 240t-173.5 174t-240 64v22q209 0 355 -145.5t146 -354.5q0 -137 -67 -251.5t-182 -181t-252 -66.5z" />
    <glyph glyph-name="seven.halfcircleright.wt" 
d="M47 453l14 76h256v-40q-5 -43 -82 -183q-28 -50 -51.5 -116t-23.5 -119h-43q0 71 37.5 159t77.5 161t43 100h-183l-10 -41zM-1 -199v23q197 0 337 139.5t140 336.5q0 130 -63.5 240t-173.5 174t-240 64v22q209 0 355 -145.5t146 -354.5q0 -137 -67 -251.5t-182 -181
t-252 -66.5z" />
    <glyph glyph-name="eight.halfcircleright.wt" 
d="M186 535q65 0 100.5 -34t35.5 -89q0 -78 -67 -105q77 -30 77 -116q0 -59 -37.5 -93t-108.5 -34t-108 34t-37 93q0 86 76 113q-67 34 -67 108q0 55 35.5 89t100.5 34zM109.5 262q-26.5 -25 -26.5 -69t26.5 -68t76.5 -24t77 24t27 66q0 96 -104 96q-50 0 -76.5 -25z
M114 475q-24 -23 -24 -62.5t23.5 -64.5t72.5 -25t73 24t24 65q0 86 -97 86q-48 0 -72 -23zM-1 -199v23q197 0 337 139.5t140 336.5q0 130 -63.5 240t-173.5 174t-240 64v22q209 0 355 -145.5t146 -354.5q0 -137 -67 -251.5t-182 -181t-252 -66.5z" />
    <glyph glyph-name="nine.halfcircleright.wt" 
d="M88 280q-37 37 -37 104.5t39 108.5t104.5 41t102.5 -39.5t37 -110.5q0 -97 -34 -169.5t-110 -157.5l-49 9q68 74 98.5 121.5t44.5 100.5q-45 -45 -92 -45q-67 0 -104 37zM93 386q0 -105 99 -105q43 0 71.5 29t28.5 74q0 113 -99 113q-47 0 -73.5 -30.5t-26.5 -80.5z
M-1 -199v23q197 0 337 139.5t140 336.5q0 130 -63.5 240t-173.5 174t-240 64v22q209 0 355 -145.5t146 -354.5q0 -137 -67 -251.5t-182 -181t-252 -66.5z" />
    <glyph glyph-name="square.circleright.wt" 
d="M87 178v209h206v-209h-206zM-1 -199v23q197 0 337 139.5t140 336.5q0 130 -63.5 240t-173.5 174t-240 64v22q209 0 355 -145.5t146 -354.5q0 -137 -67 -251.5t-182 -181t-252 -66.5z" />
    <glyph glyph-name="downarrow.circleright.wt" 
d="M306 390l-122 -217l-118 217h240zM-1 -199v23q197 0 337 139.5t140 336.5q0 130 -63.5 240t-173.5 174t-240 64v22q209 0 355 -145.5t146 -354.5q0 -137 -67 -251.5t-182 -181t-252 -66.5z" />
    <glyph glyph-name="leftarrow.circleright.wt" 
d="M290 166l-217 122l217 118v-240zM-1 -199v23q197 0 337 139.5t140 336.5q0 130 -63.5 240t-173.5 174t-240 64v22q209 0 355 -145.5t146 -354.5q0 -137 -67 -251.5t-182 -181t-252 -66.5z" />
    <glyph glyph-name="uparrow.circleright.wt" 
d="M66 190l122 217l118 -217h-240zM-1 -199v23q197 0 337 139.5t140 336.5q0 130 -63.5 240t-173.5 174t-240 64v22q209 0 355 -145.5t146 -354.5q0 -137 -67 -251.5t-182 -181t-252 -66.5z" />
    <glyph glyph-name="rightarrow.circleright.wt" 
d="M90 407l217 -122l-217 -118v240zM-1 -199v23q197 0 337 139.5t140 336.5q0 130 -63.5 240t-173.5 174t-240 64v22q209 0 355 -145.5t146 -354.5q0 -137 -67 -251.5t-182 -181t-252 -66.5z" />
    <glyph glyph-name="circle.white" horiz-adv-x="1000" 
d="M500 800q136 0 251 -66.5t181 -181.5q67 -116 67 -252t-66.5 -251t-181.5 -181.5t-251 -66.5t-251.5 66.5t-182 181.5t-66.5 251q0 208 146 354t354 146zM500 -176q129 0 238.5 64t173 173.5t63.5 238.5t-63.5 239.5t-173 174.5t-238.5 64q-197 0 -336 -140
q-140 -142 -140 -338t140 -336t336 -140z" />
    <glyph glyph-name="zero.circle.white" horiz-adv-x="1000" 
d="M354 549q45 75 146.5 75t146.5 -75t45 -250.5t-45 -251.5t-146.5 -76t-146.5 76t-45 251.5t45 250.5zM500 23q72 0 100 64t28 212.5t-27 210.5t-100 62t-100.5 -62.5t-27.5 -210.5t27.5 -212t99.5 -64zM500 800q136 0 251 -66.5t181.5 -181.5t66.5 -251.5t-66.5 -251.5
t-181.5 -181.5t-251 -66.5t-251.5 66.5t-182 181.5t-66.5 251q0 208 146 354t354 146zM500 -176q129 0 238.5 64t173 173.5t63.5 238.5t-63.5 239.5t-173 174.5t-238.5 64q-197 0 -336.5 -140.5t-139.5 -337t140 -336.5t336 -140z" />
    <glyph glyph-name="one.circle.white" horiz-adv-x="1000" 
d="M697 -19h-375v51h171v520l-165 -76l-23 53l194 87h53v-584h145v-51zM500 800q136 0 251 -66.5t181 -181.5q67 -116 67 -252t-66.5 -251t-181.5 -181.5t-251 -66.5t-251.5 66.5t-182 181.5t-66.5 251q0 208 146 354t354 146zM500 -176q129 0 238.5 64t173 173.5
t63.5 238.5t-63.5 239.5t-173 174.5t-238.5 64q-197 0 -336 -140q-140 -142 -140 -338t140 -336t336 -140z" />
    <glyph glyph-name="two.circle.white" horiz-adv-x="1000" 
d="M590 258q-38 -36 -76 -69q-98 -84 -125 -151h309v-57h-375v49q18 51 55.5 98t76.5 81l76 69q84 78 84 162q0 59 -35 95.5t-87.5 36.5t-149.5 -67l-28 42q105 77 181.5 77t127 -48.5t50.5 -142t-84 -175.5zM500 800q136 0 251 -66.5t181.5 -181.5t66.5 -251.5
t-66.5 -251.5t-181.5 -181.5t-251 -66.5t-251.5 66.5t-182 181.5t-66.5 251q0 208 146 354t354 146zM500 -176q129 0 238.5 64t173 173.5t63.5 238.5t-63.5 239.5t-173 174.5t-238.5 64q-197 0 -336.5 -140.5t-139.5 -337t140 -336.5t336 -140z" />
    <glyph glyph-name="three.circle.white" horiz-adv-x="1000" 
d="M386 274l-7 45l72 11q81 12 120.5 43.5t39.5 88.5t-35.5 83.5t-91.5 26.5t-156 -44l-19 47q39 19 92 34t88 15q82 0 130.5 -39t48.5 -119q0 -56 -22.5 -87.5t-74.5 -57.5v-2q123 -26 123 -163q0 -185 -207 -185q-83 0 -191 40l18 51q101 -39 171 -39t110 33t40 100
t-34 98.5t-106 31.5zM500 800q136 0 251 -66.5t181 -181.5q67 -116 67 -252t-66.5 -251t-181.5 -181.5t-251 -66.5t-251.5 66.5t-182 181.5t-66.5 251q0 208 146 354t354 146zM500 -176q129 0 238.5 64t173 173.5t63.5 238.5t-63.5 239.5t-173 174.5t-238.5 64
q-197 0 -336 -140q-140 -142 -140 -338t140 -336t336 -140z" />
    <glyph glyph-name="four.circle.white" horiz-adv-x="1000" 
d="M693 160v-52h-90v-137h-55v137h-271v47l164 460h57l-159 -455h209v210h55v-210h90zM500 800q136 0 251 -66.5t181 -181.5q67 -116 67 -252t-66.5 -251t-181.5 -181.5t-251 -66.5t-251.5 66.5t-182 181.5t-66.5 251q0 208 146 354t354 146zM500 -176q129 0 238.5 64
t173 173.5t63.5 238.5t-63.5 239.5t-173 174.5t-238.5 64q-197 0 -336 -140q-140 -142 -140 -338t140 -336t336 -140z" />
    <glyph glyph-name="five.circle.white" horiz-adv-x="1000" 
d="M646.5 334q49.5 -52 49.5 -149t-54.5 -155.5t-153.5 -58.5q-79 0 -181 42l19 51q92 -41 163 -41t110 45.5t39 117.5t-35.5 110t-101 38t-133.5 -58l-37 11l10 328h334v-55h-284l-7 -217q60 43 123 43q90 0 139.5 -52zM500 800q136 0 251 -66.5t181.5 -181.5t66.5 -251.5
t-66.5 -251.5t-181.5 -181.5t-251 -66.5t-251.5 66.5t-182 181.5t-66.5 251q0 208 146 354t354 146zM500 -176q129 0 238.5 64t173 173.5t63.5 238.5t-63.5 239.5t-173 174.5t-238.5 64q-197 0 -336.5 -140.5t-139.5 -337t140 -336.5t336 -140z" />
    <glyph glyph-name="six.circle.white" horiz-adv-x="1000" 
d="M647 334q51 -51 51 -149.5t-52 -156t-146.5 -57.5t-148 57t-53.5 167t31.5 189t95.5 135.5t178 112.5l22 -49q-130 -65 -183.5 -121.5t-75.5 -140.5q64 64 133 64q97 0 148 -51zM640 186q0 147 -141 147q-59 0 -101 -41.5t-42 -102.5q0 -166 143 -166q69 0 105 43t36 120
zM500 800q136 0 251 -66.5t181.5 -181.5t66.5 -251.5t-66.5 -251.5t-181.5 -181.5t-251 -66.5t-251.5 66.5t-182 181.5t-66.5 251q0 208 146 354t354 146zM500 -176q129 0 238.5 64t173 173.5t63.5 238.5t-63.5 239.5t-173 174.5t-238.5 64q-197 0 -336.5 -140.5
t-139.5 -337t140 -336.5t336 -140z" />
    <glyph glyph-name="seven.circle.white" horiz-adv-x="1000" 
d="M315 510l19 105h355v-56q-6 -60 -113 -251q-39 -70 -71.5 -161.5t-32.5 -165.5h-59q0 77 33 171q32 94 72 166l74 142q36 70 40 103h-254l-14 -57zM500 800q136 0 251 -66.5t181.5 -181.5t66.5 -251.5t-66.5 -251.5t-181.5 -181.5t-251 -66.5t-251.5 66.5t-182 181.5
t-66.5 251q0 208 146 354t354 146zM500 -176q129 0 238.5 64t173 173.5t63.5 238.5t-63.5 239.5t-173 174.5t-238.5 64q-197 0 -336.5 -140.5t-139.5 -337t140 -336.5t336 -140z" />
    <glyph glyph-name="eight.circle.white" horiz-adv-x="1000" 
d="M362.5 576.5q49.5 47.5 140 47.5t139.5 -47.5t49 -123.5q0 -107 -94 -146q108 -41 108 -160q0 -81 -52.5 -128.5t-150.5 -47.5t-150 47.5t-52 128.5q0 118 106 158q-93 47 -93 148q0 76 49.5 123.5zM395.5 245q-37.5 -35 -37.5 -95.5t37 -93.5t107 -33t107.5 33
t37.5 93.5t-37 95.5t-107 35t-107.5 -35zM402 540.5q-33 -31.5 -33 -86.5t33 -89.5t100.5 -34.5t100 33t32.5 89.5t-33 88t-100 31.5t-100 -31.5zM500 800q136 0 251 -66.5t181.5 -181.5t66.5 -251.5t-66.5 -251.5t-181.5 -181.5t-251 -66.5t-251.5 66.5t-182 181.5
t-66.5 251q0 208 146 354t354 146zM500 -176q129 0 238.5 64t173 173.5t63.5 238.5t-63.5 239.5t-173 174.5t-238.5 64q-197 0 -336.5 -140.5t-139.5 -337t140 -336.5t336 -140z" />
    <glyph glyph-name="nine.circle.white" horiz-adv-x="1000" 
d="M358 271.5q-51 51.5 -51 145t54 150.5t144.5 57t141.5 -55t51 -153q0 -135 -47 -235t-153 -217l-67 11q94 102 135.5 168t63.5 141q-64 -64 -128 -64q-93 0 -144 51.5zM371 419q0 -147 137 -147q59 0 98.5 41t39.5 103q0 156 -137 156q-65 0 -101.5 -42t-36.5 -111z
M500 800q136 0 251 -66.5t181.5 -181.5t66.5 -251.5t-66.5 -251.5t-181.5 -181.5t-251 -66.5t-251.5 66.5t-182 181.5t-66.5 251q0 208 146 354t354 146zM500 -176q129 0 238.5 64t173 173.5t63.5 238.5t-63.5 239.5t-173 174.5t-238.5 64q-197 0 -336.5 -140.5t-139.5 -337
t140 -336.5t336 -140z" />
    <glyph glyph-name="handle.white" horiz-adv-x="1000" 
d="M-1 -199v23h350q-154 49 -251 179q-98 129 -98 297t98 299t254 179h-353v22h1001v-22h-353q156 -48 254 -179t98 -298t-97.5 -297.5t-251.5 -179.5h350v-23h-1001zM500 -176q129 0 238.5 64t173 173.5t63.5 238.5t-63.5 239.5t-173 174.5t-238.5 64q-197 0 -336 -140
q-140 -142 -140 -338t140 -336t336 -140z" />
    <glyph glyph-name="zero.handle.white" horiz-adv-x="1000" 
d="M354 549q45 75 146.5 75t146.5 -75t45 -250.5t-45 -251.5t-146.5 -76t-146.5 76t-45 251.5t45 250.5zM500 23q72 0 100 64t28 212.5t-27 210.5t-100 62t-100.5 -62.5t-27.5 -210.5t27.5 -212t99.5 -64zM0 -199v23h350q-154 49 -251.5 179t-97.5 297.5t98 298.5t254 179
h-353v22h1001v-22h-353q156 -48 254 -179t98 -298t-97.5 -297.5t-251.5 -179.5h350v-23h-1001zM501 -176q129 0 238.5 64t173 173.5t63.5 238.5t-63.5 239.5t-173 174.5t-238.5 64q-197 0 -336.5 -140.5t-139.5 -337.5q0 -129 64 -238.5t173.5 -173.5t238.5 -64z" />
    <glyph glyph-name="one.handle.white" horiz-adv-x="1000" 
d="M697 -19h-375v51h171v520l-165 -76l-23 53l194 87h53v-584h145v-51zM0 -199v23h350q-154 49 -252 179q-97 129 -97 297t98 299t254 179h-353v22h1001v-22h-353q156 -48 254 -179t98 -298t-97.5 -297.5t-251.5 -179.5h350v-23h-1001zM501 -176q129 0 238.5 64t173 173.5
t63.5 238.5t-63.5 239.5t-173 174.5t-238.5 64q-197 0 -336.5 -140.5t-139.5 -337.5q0 -129 64 -238.5t173.5 -173.5t238.5 -64z" />
    <glyph glyph-name="two.handle.white" horiz-adv-x="1000" 
d="M590 258q-38 -36 -76 -69q-98 -84 -125 -151h309v-57h-375v49q18 51 55.5 98t76.5 81l76 69q84 78 84 162q0 59 -35 95.5t-87.5 36.5t-149.5 -67l-28 42q105 77 181.5 77t127 -48.5t50.5 -142t-84 -175.5zM0 -199v23h350q-154 49 -251.5 179t-97.5 297.5t98 298.5
t254 179h-353v22h1001v-22h-353q156 -48 254 -179t98 -298t-97.5 -297.5t-251.5 -179.5h350v-23h-1001zM501 -176q129 0 238.5 64t173 173.5t63.5 238.5t-63.5 239.5t-173 174.5t-238.5 64q-197 0 -336.5 -140.5t-139.5 -337.5q0 -129 64 -238.5t173.5 -173.5t238.5 -64z
" />
    <glyph glyph-name="three.handle.white" horiz-adv-x="1000" 
d="M386 274l-7 45l72 11q81 12 120.5 43.5t39.5 88.5t-35.5 83.5t-91.5 26.5t-156 -44l-19 47q39 19 92 34t88 15q82 0 130.5 -39t48.5 -119q0 -56 -22.5 -87.5t-74.5 -57.5v-2q123 -26 123 -163q0 -185 -207 -185q-83 0 -191 40l18 51q101 -39 171 -39t110 33t40 100
t-34 98.5t-106 31.5zM0 -199v23h350q-154 49 -252 179q-97 129 -97 297t98 299t254 179h-353v22h1001v-22h-353q156 -48 254 -179t98 -298t-97.5 -297.5t-251.5 -179.5h350v-23h-1001zM501 -176q129 0 238.5 64t173 173.5t63.5 238.5t-63.5 239.5t-173 174.5t-238.5 64
q-197 0 -336.5 -140.5t-139.5 -337.5q0 -129 64 -238.5t173.5 -173.5t238.5 -64z" />
    <glyph glyph-name="four.handle.white" horiz-adv-x="1000" 
d="M693 160v-52h-90v-137h-55v137h-271v47l164 460h57l-159 -455h209v210h55v-210h90zM0 -199v23h350q-154 49 -252 179q-97 129 -97 297t98 299t254 179h-353v22h1001v-22h-353q156 -48 254 -179t98 -298t-97.5 -297.5t-251.5 -179.5h350v-23h-1001zM501 -176
q129 0 238.5 64t173 173.5t63.5 238.5t-63.5 239.5t-173 174.5t-238.5 64q-197 0 -336.5 -140.5t-139.5 -337.5q0 -129 64 -238.5t173.5 -173.5t238.5 -64z" />
    <glyph glyph-name="five.handle.white" horiz-adv-x="1000" 
d="M646.5 334q49.5 -52 49.5 -149t-54.5 -155.5t-153.5 -58.5q-79 0 -181 42l19 51q92 -41 163 -41t110 45.5t39 117.5t-35.5 110t-101 38t-133.5 -58l-37 11l10 328h334v-55h-284l-7 -217q60 43 123 43q90 0 139.5 -52zM0 -199v23h350q-154 49 -251.5 179t-97.5 297.5
t98 298.5t254 179h-353v22h1001v-22h-353q156 -48 254 -179t98 -298t-97.5 -297.5t-251.5 -179.5h350v-23h-1001zM501 -176q129 0 238.5 64t173 173.5t63.5 238.5t-63.5 239.5t-173 174.5t-238.5 64q-197 0 -336.5 -140.5t-139.5 -337.5q0 -129 64 -238.5t173.5 -173.5
t238.5 -64z" />
    <glyph glyph-name="six.handle.white" horiz-adv-x="1000" 
d="M647 334q51 -51 51 -149.5t-52 -156t-146.5 -57.5t-148 57t-53.5 167t31.5 189t95.5 135.5t178 112.5l22 -49q-130 -65 -183.5 -121.5t-75.5 -140.5q64 64 133 64q97 0 148 -51zM640 186q0 147 -141 147q-59 0 -101 -41.5t-42 -102.5q0 -166 143 -166q69 0 105 43t36 120
zM0 -199v23h350q-154 49 -251.5 179t-97.5 297.5t98 298.5t254 179h-353v22h1001v-22h-353q156 -48 254 -179t98 -298t-97.5 -297.5t-251.5 -179.5h350v-23h-1001zM501 -176q129 0 238.5 64t173 173.5t63.5 238.5t-63.5 239.5t-173 174.5t-238.5 64q-197 0 -336.5 -140.5
t-139.5 -337.5q0 -129 64 -238.5t173.5 -173.5t238.5 -64z" />
    <glyph glyph-name="seven.handle.white" horiz-adv-x="1000" 
d="M315 510l19 105h355v-56q-6 -60 -113 -251q-39 -70 -71.5 -161.5t-32.5 -165.5h-59q0 77 33 171q32 94 72 166l74 142q36 70 40 103h-254l-14 -57zM0 -199v23h350q-154 49 -251.5 179t-97.5 297.5t98 298.5t254 179h-353v22h1001v-22h-353q156 -48 254 -179t98 -298
t-97.5 -297.5t-251.5 -179.5h350v-23h-1001zM501 -176q129 0 238.5 64t173 173.5t63.5 238.5t-63.5 239.5t-173 174.5t-238.5 64q-197 0 -336.5 -140.5t-139.5 -337.5q0 -129 64 -238.5t173.5 -173.5t238.5 -64z" />
    <glyph glyph-name="eight.handle.white" horiz-adv-x="1000" 
d="M362.5 576.5q49.5 47.5 140 47.5t139.5 -47.5t49 -123.5q0 -107 -94 -146q108 -41 108 -160q0 -81 -52.5 -128.5t-150.5 -47.5t-150 47.5t-52 128.5q0 118 106 158q-93 47 -93 148q0 76 49.5 123.5zM395.5 245q-37.5 -35 -37.5 -95.5t37 -93.5t107 -33t107.5 33
t37.5 93.5t-37 95.5t-107 35t-107.5 -35zM402 540.5q-33 -31.5 -33 -86.5t33 -89.5t100.5 -34.5t100 33t32.5 89.5t-33 88t-100 31.5t-100 -31.5zM0 -199v23h350q-154 49 -251.5 179t-97.5 297.5t98 298.5t254 179h-353v22h1001v-22h-353q156 -48 254 -179t98 -298
t-97.5 -297.5t-251.5 -179.5h350v-23h-1001zM501 -176q129 0 238.5 64t173 173.5t63.5 238.5t-63.5 239.5t-173 174.5t-238.5 64q-197 0 -336.5 -140.5t-139.5 -337.5q0 -129 64 -238.5t173.5 -173.5t238.5 -64z" />
    <glyph glyph-name="nine.handle.white" horiz-adv-x="1000" 
d="M358 271.5q-51 51.5 -51 145t54 150.5t144.5 57t141.5 -55t51 -153q0 -135 -47 -235t-153 -217l-67 11q94 102 135.5 168t63.5 141q-64 -64 -128 -64q-93 0 -144 51.5zM371 419q0 -147 137 -147q59 0 98.5 41t39.5 103q0 156 -137 156q-65 0 -101.5 -42t-36.5 -111z
M0 -199v23h350q-154 49 -251.5 179t-97.5 297.5t98 298.5t254 179h-353v22h1001v-22h-353q156 -48 254 -179t98 -298t-97.5 -297.5t-251.5 -179.5h350v-23h-1001zM501 -176q129 0 238.5 64t173 173.5t63.5 238.5t-63.5 239.5t-173 174.5t-238.5 64q-197 0 -336.5 -140.5
t-139.5 -337.5q0 -129 64 -238.5t173.5 -173.5t238.5 -64z" />
    <glyph glyph-name="roundedcornersleft.black" 
d="M413 -113v827q0 35 25.5 60.5t61.5 25.5v-999q-36 0 -61.5 25.5t-25.5 60.5z" />
    <glyph glyph-name="roundedcornersright.black" 
d="M86 714v-827q0 -35 -25.5 -60.5t-61.5 -25.5v999q36 0 61.5 -25.5t25.5 -60.5z" />
    <glyph glyph-name="cornersleft.black" 
d="M413 -199v999h87v-999h-87z" />
    <glyph glyph-name="cornersright.black" 
d="M86 800v-999h-87v999h87z" />
    <glyph glyph-name="bar.black" 
d="M-1 -199v999h236v-999h-236zM265 -199v999h236v-999h-236z" />
    <glyph glyph-name="handleleft.bl" 
d="M-1 778v22h502v-999h-502v23h353q-156 48 -254 178t-98 298t97.5 298.5t251.5 179.5h-350z" />
    <glyph glyph-name="zero.handleleft.bl" 
d="M407.5 481q-32.5 54 -106 54t-106 -54t-32.5 -181t32.5 -181.5t106 -54.5t106 54.5t32.5 181.5t-32.5 181zM373.5 147q-19.5 -46 -72 -46t-72 46t-19.5 153.5t19.5 152.5t72.5 45t72 -45t19 -152.5t-19.5 -153.5zM-1 778v22h502v-999h-502v23h353q-156 48 -254 178
t-98 297.5t97.5 298.5t251.5 180h-350z" />
    <glyph glyph-name="one.handleleft.bl" 
d="M181 71h270v36h-105v423h-37l-140 -64l17 -37l118 55v-377h-123v-36zM-1 778v22h502v-999h-502v23h353q-156 48 -254 178t-98 298t97.5 298.5t251.5 179.5h-350z" />
    <glyph glyph-name="two.handleleft.bl" 
d="M402.5 316q26.5 42 26.5 96.5t-35.5 89t-93.5 34.5t-130 -55l20 -31q68 50 107 50t64.5 -27t25.5 -64.5t-17 -67.5t-44 -55l-55 -50q-72 -65 -95 -129v-34h271v41h-224q23 56 119 133q34 27 60.5 69zM-1 778v22h502v-999h-502v23h353q-156 48 -254 178t-98 297.5
t97.5 298.5t251.5 180h-350z" />
    <glyph glyph-name="three.handleleft.bl" 
d="M220 314l5 -32q57 9 79 9q52 0 76.5 -22.5t24.5 -71.5t-29 -73q-30 -23 -80 -23t-123 27l-12 -36q76 -28 137 -28q149 0 149 134q0 98 -89 116v3q38 18 54 40.5t16 72.5t-34 78q-36 27 -94 27t-130 -35l13 -35q65 33 109 33t70 -19.5t26 -60.5q0 -77 -116 -95zM-1 778v22
h502v-999h-502v23h353q-156 48 -254 178t-98 298t97.5 298.5t251.5 179.5h-350z" />
    <glyph glyph-name="four.handleleft.bl" 
d="M461 162v37h-64v151h-41v-151h-151l115 328h-41l-118 -332v-33h195v-99h41v99h64zM-1 778v22h502v-999h-502v23h353q-156 48 -254 178t-98 298t97.5 298.5t251.5 179.5h-350z" />
    </font>
</defs>
</svg>
