<?xml version="1.0" standalone="no"?>
<!DOCTYPE svg PUBLIC "-//W3C//DTD SVG 1.1//EN" "http://www.w3.org/Graphics/SVG/1.1/DTD/svg11.dtd" >
<svg xmlns="http://www.w3.org/2000/svg" xmlns:xlink="http://www.w3.org/1999/xlink" version="1.1">
<metadata>
Created by FontForge 20161013 at Sun Apr  8 01:31:23 2012
 By ,,,
Copyright (c) 2010 by Sorkin Type Co with Reserved Font Name Limelight.This Font Software is licensed under the SIL Open Font License, Version 1.1.This license is copied below, and is also available with a FAQ at:http://scripts.sil.org/OFL
</metadata>
<defs>
<font id="Limelight-Regular" horiz-adv-x="0" >
  <font-face 
    font-family="Limelight"
    font-weight="400"
    font-stretch="normal"
    units-per-em="2048"
    panose-1="2 0 0 0 0 0 0 0 0 0"
    ascent="1638"
    descent="-410"
    x-height="1068"
    cap-height="1415"
    bbox="-124 -629.28 2288 1864"
    underline-thickness="75"
    underline-position="-219"
    unicode-range="U+0001-FB04"
  />
<missing-glyph horiz-adv-x="411" 
 />
    <glyph glyph-name=".notdef" horiz-adv-x="411" 
 />
    <glyph glyph-name=".null" 
 />
    <glyph glyph-name="nonmarkingreturn" 
 />
    <glyph glyph-name="uni0001" 
 />
    <glyph glyph-name="uni0002" 
 />
    <glyph glyph-name="uni0003" 
 />
    <glyph glyph-name="uni0004" 
 />
    <glyph glyph-name="uni0005" 
 />
    <glyph glyph-name="uni0006" 
 />
    <glyph glyph-name="uni0007" 
 />
    <glyph glyph-name="uni0008" 
 />
    <glyph glyph-name="uni0009" unicode="&#x9;" 
 />
    <glyph glyph-name="uni0010" 
 />
    <glyph glyph-name="uni0011" 
 />
    <glyph glyph-name="uni0012" 
 />
    <glyph glyph-name="uni0013" 
 />
    <glyph glyph-name="uni0014" 
 />
    <glyph glyph-name="uni0015" 
 />
    <glyph glyph-name="uni0016" 
 />
    <glyph glyph-name="uni0017" 
 />
    <glyph glyph-name="uni0018" 
 />
    <glyph glyph-name="uni0019" 
 />
    <glyph glyph-name="space" unicode=" " horiz-adv-x="456" 
 />
    <glyph glyph-name="exclam" unicode="!" horiz-adv-x="831" 
d="M399 453q-29 0 -43 54.5t-28 103t-32 95.5q-39 102 -82.5 179.5t-64.5 119t-33 71.5q-19 52 -19 105t22 98.5t62 79.5q87 74 222 74q143 0 227 -70q80 -67 80 -180q0 -59 -13.5 -95.5t-34.5 -76.5l-56 -103q-89 -158 -126 -288q-13 -48 -24 -96q-18 -71 -57 -71zM196 152
q0 85 55 133t151 48t152 -53q50 -49 50 -129q0 -71 -56 -119q-58 -51 -151 -51q-143 0 -187 102q-14 31 -14 69z" />
    <glyph glyph-name="quotedbl" unicode="&#x22;" horiz-adv-x="886" 
d="M668 827q-51 0 -60 52q-21 143 -54 242l-46 136q-12 37 -12 63.5t10 49.5t31 40q47 38 130 38t128 -34.5t45 -90.5q0 -24 -12 -61l-31 -90q-53 -156 -74 -290q-8 -43 -39 -52q-9 -3 -16 -3zM218 827q-51 0 -60 52q-21 143 -54 242l-46 136q-12 37 -12 63.5t10 49.5t31 40
q47 38 130 38t128 -34.5t45 -90.5q0 -24 -12 -61l-31 -90q-53 -156 -74 -290q-8 -43 -39 -52q-9 -3 -16 -3z" />
    <glyph glyph-name="numbersign" unicode="#" horiz-adv-x="937" 
d="M636 629l136 8q23 0 38 -12t15 -31t-15.5 -31.5t-32.5 -12.5q-39 0 -61 3l-94 3l-77 -408q-29 -141 -66 -161q-11 -6 -27.5 -6t-27 14t-10.5 31q0 24 12 53l18 45q22 53 46 182l46 250h-207l-77 -408q-29 -141 -65 -161q-11 -6 -27.5 -6t-27 14t-10.5 31q0 27 12 54
t18.5 44t13.5 42q19 67 33 140l45 250l-80 -3q-21 -3 -53.5 -3t-49 12.5t-16.5 30.5q0 40 46 40h25l57 -4h85l38 209l-127 -6q-25 0 -41 13t-16 31q0 41 45 41l99 -5h54l67 367q27 135 57 149q10 5 24 5q42 0 42 -41q0 -14 -8 -36t-12 -35t-8 -29l-8 -31q-4 -16 -7 -30
l-61 -319h205l68 367q20 98 33 121q19 33 49 33q42 0 42 -41q0 -14 -8 -36t-12 -35t-8 -29l-8 -31q-4 -16 -7 -30l-61 -319q61 0 86 3q42 5 63 5q52 0 52 -44q0 -18 -15 -31t-32 -13q-39 0 -55 2t-30 2l-56 2q-15 1 -27 1zM549 629l39 210h-206l-39 -210h206z" />
    <glyph glyph-name="dollar" unicode="$" horiz-adv-x="1149" 
d="M407 0q-115 26 -222 86q-62 34 -62 79q0 17 11.5 30.5t28.5 13.5q23 0 63 -34q84 -73 197 -101l88 410l-175 168q-188 182 -220 329q-12 52 -12 115t30 124.5t90 109.5q129 103 357 103q71 0 130 -9q7 36 12.5 61.5t8.5 44.5q9 52 45 52q14 0 26 -10t12 -28
q0 -23 -15 -85l-15 -50q9 -3 17.5 -5.5t36.5 -13t57.5 -26t45.5 -29.5q28 -23 28 -48q0 -46 -40 -46q-17 0 -45 24q-48 42 -118 67l-76 -360q331 -275 371 -448q13 -55 13 -132.5t-35 -157.5t-101 -136q-138 -117 -375 -117q-41 0 -83 6q-6 -29 -10 -53l-9 -51
q-9 -71 -53 -71q-17 0 -30 12t-13 26q0 18 12 49q17 45 29 101zM696 1350q-54 10 -119.5 10t-103 -28.5t-37.5 -69.5q0 -82 190 -238zM497 60q50 -5 80 -5q98 0 144.5 29t46.5 62t-6.5 53.5t-26.5 49t-59 69.5l-102 104z" />
    <glyph glyph-name="percent" unicode="%" horiz-adv-x="1592" 
d="M344 -19q-39 0 -39 43q0 23 18.5 46t35.5 42q33 35 91 127l660 1032q35 56 52 92.5t27 49.5t31 13t35 -11t14 -24.5t-4.5 -24t-12.5 -22.5l-21 -30q-12 -17 -28 -42l-755 -1190q-45 -71 -66 -86t-38 -15zM458 788q-69 0 -130.5 22.5t-106.5 64.5q-96 90 -96 228
q0 131 98 217q97 86 239 86q136 0 228 -84q96 -87 96 -224q0 -133 -96 -222q-93 -86 -232 -88zM457 856q108 0 179 61q77 66 77 179q0 106 -76 175q-73 67 -180 67h-7q-4 0 -9 -1v-481h16zM826 314q0 68 25.5 123.5t70.5 96.5q96 86 239 86q135 0 227 -84q96 -87 96 -225
q0 -133 -96 -222q-94 -88 -229 -88q-144 -2 -239 87q-94 88 -94 226zM1156 70q106 0 178 61q78 65 78 178q0 107 -76 175q-74 67 -180 67h-8t-8 -1v-480h16z" />
    <glyph glyph-name="ampersand" unicode="&#x26;" horiz-adv-x="1422" 
d="M1330 787q0 -38 -69 -38q-21 0 -42 1l-43 4q-68 4 -106 4q117 -66 154 -235q11 -50 11 -117.5t-39.5 -147.5t-110.5 -142q-156 -135 -393 -135q-250 0 -396 118q-151 122 -151 333q0 123 81 225q82 103 220 147q-155 64 -207 208q-16 44 -16 104t35.5 120t102.5 104
q142 93 380 93q59 0 116 -6.5t101 -19t72 -27.5q55 -29 55 -66t-42 -37q-23 0 -39.5 14.5t-43.5 31.5q-62 39 -165.5 39t-133.5 -5v-1296q107 -21 204.5 12.5t158.5 82.5q134 108 134 257q0 155 -79 251q-77 92 -197 92h-23q-74 0 -74 47q0 33 52 33l100 -7q212 0 282.5 6
t90.5 -9.5t20 -38.5z" />
    <glyph glyph-name="quotesingle" unicode="'" horiz-adv-x="436" 
d="M218 827q-51 0 -60 52q-21 143 -54 242l-46 136q-12 37 -12 63.5t10 49.5t31 40q47 38 130 38t128 -34.5t45 -90.5q0 -24 -12 -61l-31 -90q-53 -156 -74 -290q-8 -43 -39 -52q-9 -3 -16 -3z" />
    <glyph glyph-name="parenleft" unicode="(" horiz-adv-x="939" 
d="M848 1536q0 -45 -81 -41q-76 4 -168 -41v-1529q90 -43 182 -47q67 -4 67 -40t-68 -36t-146.5 28t-153 81.5t-141.5 131t-118 177.5q-110 214 -110 478q0 357 199 616q125 165 296 228q86 31 148 31q94 0 94 -37z" />
    <glyph glyph-name="parenright" unicode=")" horiz-adv-x="939" 
d="M171 -121.5q80 4.5 169 46.5v1529q-94 45 -153 42t-77.5 7t-18.5 29q0 41 78 41t164 -31.5t160.5 -89t136 -138t106.5 -177.5q92 -202 92 -439q0 -264 -110 -478q-99 -193 -260 -308q-152 -110 -303 -110q-64 0 -64 36t80 40.5z" />
    <glyph glyph-name="asterisk" unicode="*" horiz-adv-x="760" 
d="M584 888q0 -37 -38 -37q-30 0 -44 22.5t-25 43.5l-97 189l-66 -110l-32 -58q-11 -21 -21 -43q-18 -41 -42 -41q-47 0 -47 40q0 26 44 87l108 156q-61 -3 -109 -4t-67 -3q-32 -2 -55 -2t-36.5 12.5t-13.5 32t16.5 30.5t34.5 11q30 0 54 -2q31 -4 74 -6l105 -5l-105 167
q-31 45 -31 68q0 42 43 42q25 0 47 -46l100 -197l90 176q18 40 32 54t30 14q37 0 37 -35q0 -25 -39 -90l-95 -152l174 8q34 3 52 3q55 0 55 -43t-55 -43q-18 0 -40 2q-56 5 -187 9q113 -182 118 -187.5t13 -16.5q18 -25 18 -46z" />
    <glyph glyph-name="plus" unicode="+" horiz-adv-x="1014" 
d="M531 365l8 -157q0 -18 -11.5 -30t-31.5 -12t-33.5 14.5t-11.5 38.5l5 150v158h-163t-79 -1q-46 -3 -68 -5t-35.5 12t-13.5 33.5t11.5 31t27.5 11.5q38 0 64 -3l36 -3q22 -2 56 -2h164v158l-5 151q-2 24 11.5 38t33.5 14t31.5 -12t11.5 -30l-8 -154v-165h163q34 0 50 1
l28 3q44 4 70 4q51 0 51 -43q0 -19 -15.5 -33t-31.5 -13q-67 7 -101 7h-214v-162z" />
    <glyph glyph-name="comma" unicode="," horiz-adv-x="682" 
d="M446 15q-53 -34 -117.5 -34t-105 17.5t-68.5 45.5q-58 60 -58 137q0 83 61 141q63 59 158 59q113 0 180 -69q65 -66 65 -172q0 -161 -105 -286q-54 -66 -84.5 -78t-47.5 -12q-47 0 -47 44q0 16 11 21l37 16q51 23 97 90q20 31 24 80z" />
    <glyph glyph-name="hyphen" unicode="-" horiz-adv-x="737" 
d="M262 611l-110 -6q-24 0 -39.5 12t-15.5 31q0 44 55 44l143 -9h105l159 9q57 0 57 -43.5t-61 -43.5q-17 0 -32 1l-31 2q-27 3 -80 3h-150z" />
    <glyph glyph-name="period" unicode="." horiz-adv-x="685" 
d="M112 109q-15 40 -15 84t17.5 80.5t49.5 64.5q68 61 170 61q105 0 170 -69q60 -63 60 -148t-68 -142q-70 -59 -168 -59q-166 0 -216 128z" />
    <glyph glyph-name="slash" unicode="/" horiz-adv-x="680" 
d="M123 -19q-41 0 -41 48q0 27 26 64q22 44 49 134l307 1052q40 135 72 149q11 5 25 5q38 0 38 -37q0 -21 -11 -41.5t-16.5 -32.5t-11.5 -26l-10 -29q-6 -15 -10 -28l-322 -1091q-32 -109 -46 -132q-21 -35 -49 -35z" />
    <glyph glyph-name="zero" unicode="0" horiz-adv-x="1348" 
d="M670 -19q-137 0 -244.5 47t-182.5 141q-155 194 -155 567q0 332 156 514q156 183 443 183q276 0 426 -185q147 -183 147 -526q0 -362 -158 -555q-154 -186 -432 -186zM677 50q355 0 466 364q39 127 39 305t-37 301t-103 200q-127 148 -357 148h-11v-1318h3z" />
    <glyph glyph-name="one" unicode="1" horiz-adv-x="986" 
d="M283 1212l-65 -19q-62 -18 -93 -34q-55 -30 -81 -29q-43 1 -40 37q2 37 67 52q37 10 74 21l649 195v-1435h-512z" />
    <glyph glyph-name="two" unicode="2" horiz-adv-x="1248" 
d="M1111 50q0 -50 -101 -50h-972q25 200 312 605q331 452 355.5 493t32.5 60q14 30 14 61t-13.5 58.5t-40.5 46.5q-59 42 -168 42q-103 0 -178 -32q-127 -55 -163 -115q-27 -42 -62 -42t-35 43q0 53 96 116q152 97 361 97q255 0 409 -109q147 -104 147 -266
q0 -93 -25.5 -154.5t-49.5 -105.5t-58 -98l-192 -287q-138 -203 -193 -341h293q56 0 104 9q59 11 81.5 11t34 -13.5t11.5 -28.5z" />
    <glyph glyph-name="three" unicode="3" horiz-adv-x="1298" 
d="M565 824q24 0 46 2v532l-22 2q-11 1 -21 1h-42.5t-80.5 -6.5t-87 -18.5q-78 -22 -110 -59q-30 -35 -57 -37q-54 -4 -56 35q-4 60 168 119q121 39 268.5 39t247 -26t164.5 -71q129 -88 129 -240q0 -149 -151 -250q-52 -35 -122 -58q230 -74 302 -255q23 -60 23 -141
t-41.5 -159t-119.5 -134q-164 -118 -447 -118q-243 0 -420 135q-62 47 -83 102q-6 16 -5 28q3 42 38 39q36 -5 56 -44.5t55 -71t84 -57.5q109 -57 238 -57h92v691q-36 4 -66 4h-38l-104 -6q-69 0 -69 39q0 48 66 48zM730 1334q-21 7 -46 12z" />
    <glyph glyph-name="four" unicode="4" horiz-adv-x="1477" 
d="M158 279l-42 -1h-13q-25 0 -47 15t-22 40.5t4.5 41t14.5 32.5t25 39l658 968h413v-1060q123 0 145 6q34 8 51.5 8t29.5 -11t12 -29q0 -40 -61 -44q-38 -5 -107 -5h-70v-279h-512v279h-479zM637 354v774l-496 -742q-13 -20 -6.5 -26t38.5 -6h464z" />
    <glyph glyph-name="five" unicode="5" horiz-adv-x="1259" 
d="M271 921q156 69 308.5 69t259 -41.5t179.5 -111.5q147 -142 147 -349q0 -213 -159 -356q-167 -151 -440 -151q-192 0 -375 115q-65 43 -93 98q-8 15 -8 27q0 49 36 49q35 0 59.5 -41t60.5 -72t86 -55q108 -51 243 -51h29q14 0 27 2v861q-33 3 -87.5 3t-132 -21
t-118.5 -43q-54 -29 -73 -29t-28.5 13t-7.5 27l53 456q2 8 2 16v17q0 52 8 60q12 11 41 11l147 -10h197q246 0 350 20q8 1 23 1t27 -14t12 -29q0 -47 -112 -48q-29 -1 -55 -1h-557z" />
    <glyph glyph-name="six" unicode="6" horiz-adv-x="1396" 
d="M1097 1256q-87 110 -283 110q-84 0 -145 -14v-1297q28 -4 59 -4q233 0 370 133q128 124 128 311q0 164 -88 259q-87 95 -234 95q-52 0 -74 -9q-62 -23 -90 -12q-13 5 -16.5 25t7.5 31.5t31 17.5q49 17 138 17t161 -25t126 -78q117 -115 117 -331q0 -231 -173 -373
q-161 -131 -393 -131q-261 0 -422 165q-180 184 -180 529q0 352 196 561q185 197 470 197q171 0 298 -72q94 -55 94 -112q0 -32 -38 -32q-22 0 -35 13z" />
    <glyph glyph-name="seven" unicode="7" horiz-adv-x="1224" 
d="M899 176q0 -102 4 -176h-565q-5 53 -5 145.5t10.5 206.5t28.5 229t43 227.5t54 212.5q60 205 125 322h-28l-259 1h-71q-32 0 -53 -2q-2 -35 -7 -57.5t-7 -37.5q-7 -52 -11 -69q-12 -42 -53 -32q-19 4 -30 21t-7.5 33t9.5 34.5t12 42.5q17 61 17 99t48 38h1013
q-100 -186 -178 -518q-90 -376 -90 -720z" />
    <glyph glyph-name="eight" unicode="8" horiz-adv-x="1362" 
d="M145 200.5q-42 69.5 -42 141.5t16.5 120.5t43.5 85.5q56 76 135 88q20 3 31.5 -9t11.5 -27.5t-12.5 -29.5t-39.5 -19t-49.5 -26.5t-35.5 -49.5q-23 -50 -23 -119.5t34.5 -127t96.5 -97.5q129 -82 337 -82q103 0 189 45q88 45 88 106q0 54 -46 106q-70 76 -246.5 180.5
t-266.5 172t-141 129.5q-91 108 -91 248q2 175 166 286q162 111 421 111q166 0 302 -66q101 -48 143 -131q22 -42 22 -102t-15.5 -106t-42.5 -76q-48 -54 -137 -75q-12 -3 -25.5 -3t-24.5 11t-11 25.5t12.5 29t40.5 16t51.5 12.5t40.5 32q38 45 38 108t-19 100t-51 64
t-72.5 46t-83.5 31q-79 22 -162 22q-151 0 -216 -61q-24 -24 -24 -58.5t15.5 -70.5t52.5 -75q80 -86 237 -174.5t250 -153.5t147 -122q96 -103 96 -234q-2 -166 -119 -274q-181 -167 -530 -167q-227 0 -378 101q-72 49 -114 118.5z" />
    <glyph glyph-name="nine" unicode="9" horiz-adv-x="1364" 
d="M727 1356q-28 4 -59 4q-242 0 -376 -134q-120 -120 -120 -312q0 -169 103 -264q94 -88 257 -94q20 -1 40 3l29 6q68 14 72 -34q3 -46 -98 -46h-22t-56 2t-123.5 24.5t-141.5 73.5q-140 115 -140 345q0 231 174 372q162 131 394 131q260 0 422 -165q178 -183 178 -528
q0 -354 -196 -562q-184 -197 -468 -197q-175 0 -300 73q-93 54 -93 112q0 33 39 33q21 0 34 -14l23 -27q90 -109 303 -109q64 0 125 14v1293z" />
    <glyph glyph-name="colon" unicode=":" horiz-adv-x="685" 
d="M325 579q-53 0 -96 15.5t-72 43.5q-60 59 -60 157q0 82 67 141q68 61 170 61q105 0 170 -69q60 -63 60 -148t-68 -142q-70 -59 -171 -59zM112 109q-15 40 -15 84t17.5 80.5t49.5 64.5q68 61 170 61q105 0 170 -69q60 -63 60 -148t-68 -142q-70 -59 -168 -59
q-166 0 -216 128z" />
    <glyph glyph-name="semicolon" unicode=";" horiz-adv-x="685" 
d="M325 579q-53 0 -96 15.5t-72 43.5q-60 59 -60 157q0 82 67 141q68 61 170 61q105 0 170 -69q60 -63 60 -148t-68 -142q-70 -59 -171 -59zM447 15q-53 -34 -117.5 -34t-105 17.5t-68.5 45.5q-58 60 -58 137q0 83 61 141q63 59 158 59q113 0 181 -69q64 -66 64 -172
q0 -161 -104 -286q-55 -66 -85.5 -78t-47.5 -12q-47 0 -47 44q0 16 12 21l36 16q51 23 97 90q20 31 24 80z" />
    <glyph glyph-name="less" unicode="&#x3c;" horiz-adv-x="935" 
d="M77 475q-47 36 -47 61q0 45 47 76l548 382q54 36 81 59q39 33 64 33q48 0 48 -34q0 -26 -43 -53q-93 -59 -101 -64l-554 -393q500 -364 523 -379l112 -74q29 -18 46 -32.5t17 -34t-12.5 -30.5t-27.5 -11q-28 0 -57 23.5t-69 52.5z" />
    <glyph glyph-name="equal" unicode="=" horiz-adv-x="1014" 
d="M303 724l-151 -6q-24 0 -39.5 12.5t-15.5 31.5q0 43 55 43q13 0 28 -1l31 -2q50 -5 84 -5h380q61 0 89 3q47 5 71 5q58 0 58 -43q0 -19 -16.5 -31.5t-45.5 -12.5l-143 6h-385zM262 332l-110 -6q-24 0 -39.5 12.5t-15.5 30.5q0 45 55 45l143 -9h380l160 9q58 0 58 -45
q0 -18 -16.5 -30.5t-45.5 -12.5l-100 6h-469z" />
    <glyph glyph-name="greater" unicode="&#x3e;" horiz-adv-x="935" 
d="M114 -8q-12 11 -12 30.5t17 34t37 27.5q138 89 166 110l477 348l-553 393q-72 45 -83 52t-29 19q-32 20 -32 40q0 40 40 40q32 0 59 -22q45 -37 94 -70l548 -382q47 -31 47 -67q0 -34 -47 -70l-611 -444q-15 -11 -29 -23q-55 -45 -89 -16z" />
    <glyph glyph-name="question" unicode="?" horiz-adv-x="926" 
d="M674 502q-126 -68 -282 -22q-134 38 -194 150q-31 57 -31 112.5t8 91.5t26 75q35 77 95 150t85.5 109t41.5 64q29 51 29 77q0 51 -58 51q-87 0 -158 -64q-26 -26 -46 -26q-41 0 -41 36q0 28 35.5 57t83.5 45q78 25 167.5 25t155.5 -21t113 -58q98 -79 98 -194t-60 -232.5
t-130.5 -206t-81.5 -108.5t-11 -36q0 -34 36 -34q49 0 81 24q51 39 79 39t28 -33t-69 -71zM257 152q0 85 56.5 133t151.5 48t150 -53q50 -50 50 -129q0 -72 -55 -119q-58 -51 -151 -51q-142 0 -188 102q-14 31 -14 69z" />
    <glyph glyph-name="at" unicode="@" horiz-adv-x="1935" 
d="M942 1021q121 0 217 -71l10 57h341l-140 -809q170 33 288 189q120 161 120 374q0 278 -204 427q-196 142 -533 142q-228 0 -433 -116q-201 -115 -320 -303q-125 -197 -125 -420q0 -342 239 -536q216 -176 517 -176q141 0 280 58q43 17 62.5 17t31.5 -11t12 -31
q0 -59 -215 -92q-96 -15 -194.5 -15t-202.5 22.5t-195.5 67t-167.5 110.5t-130 153q-116 183 -116 427q0 251 136 465q131 206 354 327q226 123 484 123q353 0 570 -168q228 -177 228 -480q0 -198 -108 -356q-100 -148 -274 -232q-170 -83 -368 -83l-97 10l15 84
q-125 -72 -222 -72t-160.5 25.5t-107.5 73.5q-92 99 -92 273q0 231 128 382q138 164 372 164zM789 178q4 -1 38.5 -1t94 21.5t117.5 61.5l106 613q-97 75 -212 75h-4z" />
    <glyph glyph-name="A" unicode="A" horiz-adv-x="1355" 
d="M427 178q-183 0 -250 3l-29 -69q-13 -29 -24 -61q-23 -62 -64 -62q-19 0 -31 12t-12 25q0 22 19 49q30 42 59 110q-86 8 -86 50t49 42q30 0 70 -10l499 1212l684 -1479h-521l-83 178h-280zM209 259q96 -8 172 -8h293l-250 539z" />
    <glyph glyph-name="B" unicode="B" horiz-adv-x="1503" 
d="M177 1415h429.5t193.5 -1q148 -7 209 -34.5t97 -61.5q77 -76 77 -184q0 -107 -75 -188q-23 -25 -53 -43q163 -30 267 -137q113 -116 113 -283q0 -170 -105 -293q-147 -170 -454 -186q-78 -4 -154 -4h-545v1415zM833 923l51 -6h16q79 0 137 58q62 62 62 152q0 110 -95 169
q-48 30 -95.5 35.5t-74.5 7.5q-56 4 -147 4v-1269h111q170 0 277 42q128 44 203 142q71 93 71 195t-30 172t-87 119q-116 101 -323 101l-69 -6q-32 0 -47 13t-15 30q0 41 55 41z" />
    <glyph glyph-name="C" unicode="C" horiz-adv-x="1436" 
d="M1324 237q41 0 41 -46q0 -38 -58 -76q-108 -71 -182 -93q-139 -41 -292 -41t-294.5 54.5t-241.5 152.5q-209 206 -209 532q0 157 59 288.5t163 225.5q220 199 553 199q187 0 329 -64q151 -67 151 -114q0 -19 -12.5 -33t-28.5 -14q-32 0 -58 28.5t-70.5 51.5t-97.5 40
q-108 33 -196.5 33t-146.5 -12v-1282q70 -12 124 -12t110 7t110 23q121 36 182 106q22 26 35 36t30 10z" />
    <glyph glyph-name="D" unicode="D" horiz-adv-x="1578" 
d="M177 1415h416q291 0 427 -41q155 -48 239.5 -123t132.5 -155q98 -163 98 -370q0 -326 -234 -528q-166 -145 -391 -179q-125 -19 -350 -19h-338v1415zM687 83q16 -1 29 -1h23q271 0 463 169q203 178 203 473q0 186 -89 335q-129 217 -408 263q-91 15 -221 17v-1256z" />
    <glyph glyph-name="E" unicode="E" horiz-adv-x="1196" 
d="M1054 86q51 0 51 -40q0 -18 -22 -32t-76 -14h-847v1415h788l82 3q75 0 75 -44q0 -17 -12.5 -31.5t-28.5 -14.5q-26 0 -55 6q-43 9 -118 9h-221v-305h182l123 5q22 0 37.5 -10.5t15.5 -29.5q0 -42 -56 -42l-43 1q-33 3 -55 3h-204v-892h221q74 0 105 6q37 7 58 7z" />
    <glyph glyph-name="F" unicode="F" horiz-adv-x="1158" 
d="M1008 908l-41 1q-22 2 -56 2h-224v-911h-510v1415h794l99 3h18q75 0 75 -44q0 -17 -13.5 -31.5t-29.5 -14.5q-26 0 -50 5q-46 10 -120 10h-263v-360h201l124 5q54 0 54 -40t-58 -40z" />
    <glyph glyph-name="G" unicode="G" horiz-adv-x="1619" 
d="M1364 73l2 69v158q-141 -235 -416 -299q-87 -20 -202.5 -20t-239 48t-216.5 139q-204 198 -204 521q0 309 216 523q225 221 565 221q172 0 311 -64q85 -38 120 -70.5t35 -52t-12 -33.5t-33.5 -14t-47.5 23q-77 68 -135.5 89t-93.5 30t-63 13q-43 6 -102 6t-109 -10v-1294
q11 -1 22 -1h20q297 0 481 225q63 77 104 182v96l-5 90q0 53 42 53q22 0 34 -14.5t12 -35.5l-6 -83v-372l6 -155q0 -24 -13.5 -38t-31.5 -14q-44 0 -44 46q0 12 4 38z" />
    <glyph glyph-name="H" unicode="H" horiz-adv-x="1461" 
d="M1268 145l3 -102q0 -26 -15 -40t-34.5 -14t-31 13t-11.5 33t5 45q7 31 7 155v730h-503v-965h-511v1415h511v-377h344.5t158.5 1v174q0 87 -3 113l-4 30q-1 14 -1 24q0 46 42 46q15 0 31 -12t16 -40l-4 -128v-203l63 9q18 0 30 -10.5t12 -27.5q0 -39 -62 -44
q-11 -2 -21.5 -2.5t-21.5 -1.5v-821z" />
    <glyph glyph-name="I" unicode="I" horiz-adv-x="829" 
d="M160 1415h510v-1415h-510v1415z" />
    <glyph glyph-name="J" unicode="J" horiz-adv-x="1140" 
d="M293 54.5q42 -6.5 83.5 -6.5t79.5 9v1358h511v-881q0 -263 -133 -400q-149 -153 -465 -153q-208 0 -316 95l-17 17q-36 38 -33 66q7 47 42 43q34 -6 53.5 -39t49 -54t66.5 -34.5t79 -20z" />
    <glyph glyph-name="K" unicode="K" horiz-adv-x="1453" 
d="M177 1415h510v-414l356 269q75 57 109 93t42.5 43.5t15.5 11.5q12 8 30.5 8t29.5 -10.5t11 -23t-3 -21t-12 -19.5q-20 -24 -76 -67l-224 -170l375 -917q11 -26 21 -46l16 -36l18 -34q7 -14 12 -27t4 -25t-7 -22q-14 -22 -34 -22q-28 0 -42 16q-18 22 -27 49l-18 56
q-9 28 -24 67l-363 889l-210 -159v-904h-510v1415z" />
    <glyph glyph-name="L" unicode="L" horiz-adv-x="1101" 
d="M1034 91q53 0 53 -45q0 -18 -21.5 -32t-76.5 -14h-812v1415h510v-1349h187q63 0 108.5 12.5t51.5 12.5z" />
    <glyph glyph-name="M" unicode="M" horiz-adv-x="1923" 
d="M22 2q-10 15 -8 33q5 31 19 57t20.5 39t13.5 29l38 88l411 1231l442 -854l429 854l513 -1479h-537l-248 764l-384 -800l-404 720l-140 -437q-33 -73 -47 -124t-23 -79q-20 -63 -66 -59q-19 2 -29 17z" />
    <glyph glyph-name="N" unicode="N" horiz-adv-x="1535" 
d="M267 143l3 -100q0 -26 -14 -40t-33.5 -14t-32.5 13t-13 28.5t2.5 29t4.5 30.5q5 29 5 145v1244l1087 -862v596q0 68 -4 97q-5 47 -5 66q0 50 43 50q17 0 32.5 -12t15.5 -35v-35l-4 -145v-1254l-1087 853v-655z" />
    <glyph glyph-name="O" unicode="O" horiz-adv-x="1673" 
d="M167.5 414.5q-58.5 137.5 -58.5 300t55.5 292t153.5 224.5q210 202 527 202q315 0 516 -199q204 -202 204 -524q0 -321 -209 -528q-131 -128 -322 -177q-95 -24 -220.5 -24t-257.5 51.5t-231 148t-157.5 234zM844 1360q-55 0 -103 -8v-1290q46 -8 103 -8q267 0 450 178
q191 185 191 478q0 279 -179 464q-181 186 -462 186z" />
    <glyph glyph-name="P" unicode="P" horiz-adv-x="1517" 
d="M839 415l89 -4q194 0 320 128q128 129 134 334q11 316 -304 427q-118 42 -307 42h-84v-1342h-510v1415h383q310 0 374 -9t133.5 -23t150 -61t136.5 -112q113 -132 109 -310q-6 -227 -133 -378q-129 -152 -356 -188q-66 -9 -104 -9q-90 0 -90 49q0 18 16 29.5t43 11.5z
" />
    <glyph glyph-name="Q" unicode="Q" horiz-adv-x="1632" 
d="M1234 101q-184 -120 -420 -120q-147 0 -279 51.5t-231 147.5q-216 211 -216 544q0 305 209.5 507t526.5 202q315 0 516 -199q204 -202 204 -524q0 -181 -67 -324.5t-185 -240.5l94 -74q68 -51 89 -56t43 -7q45 -3 45 -36q0 -41 -54 -41q-42 0 -80.5 23.5t-82.5 57.5z
M823 1360q-55 0 -103 -8v-1290q46 -8 122 -8q172 0 329 98q-107 78 -195 78q-29 0 -44 11.5t-15 28.5q0 40 54 40q105 0 260 -116q106 86 169.5 216.5t63.5 284t-47 272.5t-132 207q-181 186 -462 186z" />
    <glyph glyph-name="R" unicode="R" horiz-adv-x="1501" 
d="M851 485l82 -6q176 0 299 123t123 306q0 240 -211 356q-116 64 -248 74q-56 5 -104 5h-68q-21 0 -37 -1v-1342h-510v1415h379t189 -1t78.5 -2.5t64.5 -3.5q44 -4 124.5 -19t159.5 -57t136 -104q123 -132 123 -314q0 -180 -114 -318q-117 -141 -312 -182q93 -288 237 -344
q44 -17 88 -17l79 19q37 0 37 -38q0 -53 -124 -53q-90 0 -165 50q-117 70 -199 272l-29 71q-7 17 -12.5 21t-19 4t-23.5 -2l-24 -1q-40 0 -54.5 15t-14.5 31q0 43 70 43z" />
    <glyph glyph-name="S" unicode="S" horiz-adv-x="1190" 
d="M177 72q-35 20 -60.5 42t-25.5 47q0 48 41 48q27 0 60 -30t74 -52.5t89 -38.5q99 -33 183 -33t129.5 11t76.5 30q66 41 66 105q0 59 -57 119q-48 51 -136 122l-171 134q-257 198 -303 362q-16 57 -16 127t31.5 138t93.5 119q133 111 362 111q117 0 210 -34.5t127 -61.5
t34 -49q0 -46 -38 -46q-22 0 -47 22t-55.5 38.5t-69.5 29.5q-84 28 -165 28q-149 0 -149 -98q0 -41 27 -76q48 -61 187.5 -174.5t224 -198.5t128.5 -153q70 -107 70 -222.5t-40.5 -196t-113.5 -138.5q-154 -122 -382 -122t-385 91z" />
    <glyph glyph-name="T" unicode="T" horiz-adv-x="1239" 
d="M1204 1389q0 -46 -97 -46h-232v-1343h-512v1343h-150q-77 0 -106 -7q-38 -8 -55 -8q-51 0 -51 40q0 47 99 47h892q69 0 102 6q40 7 60 7q50 0 50 -39z" />
    <glyph glyph-name="U" unicode="U" horiz-adv-x="1570" 
d="M1424 1373l-6 -124v-598q0 -296 -170 -481q-174 -189 -462 -189q-308 0 -480 193q-160 177 -160 454v787h511v-1349q77 -11 169.5 -11t188 37t167.5 116q156 170 158 497v542q0 30 -4.5 71t-4.5 56q0 52 49 52q44 0 44 -53z" />
    <glyph glyph-name="V" unicode="V" horiz-adv-x="1260" 
d="M1186 1426q41 0 41 -43q0 -22 -13.5 -50.5t-21.5 -46.5l-543 -1341l-658 1470h546l318 -748l223 558q36 90 47 130t24 55.5t37 15.5z" />
    <glyph glyph-name="W" unicode="W" horiz-adv-x="1963" 
d="M1931 1382q0 -15 -7 -37q-24 -65 -43 -113l-530 -1287l-377 842l-391 -842l-592 1470h548l281 -749l381 813l355 -811l250 587q13 33 22 65l17 61q11 45 48.5 45t37.5 -44z" />
    <glyph glyph-name="X" unicode="X" horiz-adv-x="1319" 
d="M114 -11q-41 0 -41 39q0 30 44 68q40 37 65 72l277 404l-406 843h530l240 -500l209 300q58 86 86 161q22 50 60 50t38 -43q0 -24 -52 -102l-300 -451l400 -830h-528l-235 486l-256 -368q-76 -106 -107 -123q-12 -6 -24 -6z" />
    <glyph glyph-name="Y" unicode="Y" horiz-adv-x="1320" 
d="M482 -11q-43 0 -43 44q0 27 26 59q52 62 99 143l51 91l-594 1089h583l286 -603l256 455q28 52 48 105.5t53 53.5q41 0 41 -41q0 -24 -18 -55l-684 -1220q-11 -20 -18 -33l-17 -36q-26 -52 -69 -52z" />
    <glyph glyph-name="Z" unicode="Z" horiz-adv-x="1182" 
d="M1080 86q52 0 52 -40q0 -18 -22 -32t-78 -14h-981l522 1343h-255q-76 0 -107 -7q-39 -8 -55 -8q-52 0 -52 40q0 47 98 47h893l-509 -1342h333q75 0 105 6q35 7 56 7z" />
    <glyph glyph-name="bracketleft" unicode="[" horiz-adv-x="926" 
d="M790 -152q0 -49 -86 -49h-577v1735h577q86 0 86 -40q0 -42 -62 -42l-168 11h-21v-1589h37q50 0 92.5 5.5t65.5 5.5t39.5 -11.5t16.5 -25.5z" />
    <glyph glyph-name="backslash" unicode="\" horiz-adv-x="672" 
d="M590 36q0 -47 -39 -47q-29 0 -43 23q-25 42 -53 143l-315 1076q-17 58 -30.5 82t-18 34t-6.5 17q-3 10 -3 23.5t9.5 26t25.5 12.5t27 -5.5t22 -22.5q21 -32 50 -127l301 -1036q27 -95 43 -123q30 -51 30 -76z" />
    <glyph glyph-name="bracketright" unicode="]" horiz-adv-x="926" 
d="M177 -201q-86 0 -86 49q0 14 16.5 25.5t39.5 11.5t39 -2l32 -4q45 -5 87 -5h37v1589h-21l-168 -11q-62 0 -62 42q0 40 86 40h577v-1735h-577z" />
    <glyph glyph-name="asciicircum" unicode="^" horiz-adv-x="937" 
d="M202 942q-26 -43 -58 -43q-12 0 -24 11.5t-12 26.5q0 23 26 55l39 50q14 18 35 48l206 297q31 46 68 46q36 0 69 -46q243 -338 256 -355l23 -29q32 -39 32 -60t-12.5 -32.5t-31.5 -11.5t-33 16.5t-27 36.5l-111 166l-165 227q-225 -319 -233 -330l-35 -54q-8 -12 -12 -19
z" />
    <glyph glyph-name="underscore" unicode="_" horiz-adv-x="876" 
d="M777 -107q82 0 117 -5.5t35 -32t-32.5 -32t-106.5 -5.5h-705q-76 0 -112 5.5t-36 32t39 32t123 5.5h678z" />
    <glyph glyph-name="grave" unicode="`" horiz-adv-x="581" 
d="M91 1479h281l117 -284h-154z" />
    <glyph glyph-name="a" unicode="a" horiz-adv-x="1410" 
d="M842 66q-128 -85 -284 -85q-207 0 -332 104q-130 107 -130 297q0 168 129 276q132 109 347 109q144 0 270 -55v275q-91 26 -160.5 26t-117.5 -6t-91 -18q-93 -26 -141 -70q-28 -26 -51 -26t-35 11.5t-12 25.5t5 25.5t19 23.5q30 26 100 52q145 55 291 55q444 0 567 -212
q54 -94 54 -247v-627h-428v66zM842 634q-126 61 -251 61q-20 0 -38 -3v-636q5 -1 11 -1h12q137 0 266 97v482z" />
    <glyph glyph-name="b" unicode="b" horiz-adv-x="1513" 
d="M853 -19q-139 0 -269 63v-44h-411v1415h411v-398q127 69 266 69t244 -41t180 -113q155 -152 155 -389q0 -239 -153 -397q-158 -165 -423 -165zM850 1013q-148 0 -266 -82v-802q131 -74 294 -74h26q12 0 23 2v950q-38 6 -77 6z" />
    <glyph glyph-name="c" unicode="c" horiz-adv-x="1128" 
d="M573 64q47 -9 94.5 -9t92 7.5t84.5 21.5q85 30 137 76q37 32 54 32q38 0 38 -34t-62 -81q-144 -96 -346 -96q-263 0 -425 158q-159 156 -159 405q0 236 169 390q168 152 422 152q145 0 279 -60q102 -44 102 -91q0 -20 -11.5 -30.5t-25.5 -10.5q-21 0 -54 23
q-65 62 -193 87q-46 9 -101 9t-95 -8v-941z" />
    <glyph glyph-name="d" unicode="d" horiz-adv-x="1496" 
d="M930 55q-125 -74 -264.5 -74t-245 41.5t-180.5 115.5q-156 155 -156 403q0 230 154 383q164 162 428 162q140 0 264 -61v390h412v-1415h-412v55zM646 1013q-31 0 -59 -4v-948q36 -6 78 -6q139 0 265 88v793q-135 77 -284 77z" />
    <glyph glyph-name="e" unicode="e" horiz-adv-x="1300" 
d="M1101 243q39 0 39 -36q0 -27 -35 -64q-158 -162 -433 -162q-247 0 -416 149q-175 155 -175 392q0 242 158 398q167 166 444 166q222 0 373 -135q163 -145 163 -381q0 -34 -2 -72h-660v-429q68 -14 153 -14q180 0 307 119q26 26 37 41q23 28 47 28zM834 994
q-65 19 -147 19t-130 -11v-431h277v423z" />
    <glyph glyph-name="f" unicode="f" horiz-adv-x="835" 
d="M821 991l-107 4h-111v-995h-430l1 995h-16l-95 -4q-59 0 -59 40.5t54 40.5l119 -4q21 181 161 277q128 88 335 88q194 0 267 -77q20 -21 20 -40q0 -44 -45 -44q-22 0 -43 15l-36 25q-58 43 -125 47q-18 1 -37.5 1t-36.5 -2l-34 -4v-286h87l134 4q54 0 54 -40.5t-57 -40.5
z" />
    <glyph glyph-name="g" unicode="g" horiz-adv-x="1194" 
d="M391 326q-89 -27 -89 -59q0 -31 52 -43q101 -24 278 -28.5t266.5 -27t142.5 -56.5q96 -63 96 -167q0 -130 -129 -211q-143 -89 -403 -89q-269 0 -444 80q-63 31 -63 70q0 17 12.5 27t26.5 10q17 0 39 -13q51 -29 94.5 -48.5t136.5 -37.5t179.5 -18t141 7.5t90.5 17.5
q71 21 71 47q0 24 -14 35t-36.5 19.5t-62.5 15.5q-82 14 -223 21t-223 27.5t-134 52.5q-101 61 -101 165q0 150 203 243q-93 51 -148 134.5t-55 181t36.5 169t102.5 123.5q139 112 359 112q98 0 197 -30q142 137 263 137q51 0 75.5 -17t24.5 -43t-17 -37.5t-32 -11.5
q-27 0 -46 6q-28 10 -57 10q-54 0 -136 -75q163 -80 213 -230q16 -50 16 -122.5t-42 -144.5t-112 -124q-146 -108 -343 -108q-104 -2 -206 30zM601 369q162 2 279 79q135 88 135 238t-133 242q-122 84 -281 87v-646z" />
    <glyph glyph-name="h" unicode="h" horiz-adv-x="1496" 
d="M990 1086q352 0 352 -342v-744h-430v973q-18 12 -47.5 12t-61.5 -14t-67 -39q-75 -55 -133 -138v-794h-430v1415h430v-516q171 187 387 187z" />
    <glyph glyph-name="i" unicode="i" horiz-adv-x="757" 
d="M222 1289q-58 46 -58 121q0 63 64 108q68 48 144 48t117.5 -15t70.5 -39q58 -49 58 -114t-66 -110t-169 -45t-161 46zM173 1068h430v-1068h-430v1068z" />
    <glyph glyph-name="j" unicode="j" horiz-adv-x="801" 
d="M266 1289q-58 46 -58 121q0 63 64 108q68 48 144 48t117.5 -15t70.5 -39q58 -49 58 -114t-66 -110t-169 -45t-161 46zM-51 -203q23 0 50.5 -24t44.5 -33q39 -20 90 -20t86 5v1343h428l-1 -962q0 -233 -143 -352q-130 -107 -354 -107q-115 0 -164 24q-81 39 -81 82.5
t44 43.5z" />
    <glyph glyph-name="k" unicode="k" horiz-adv-x="1314" 
d="M173 1415h430v-763l421 305q60 45 96 87t61 42q45 0 45 -37q0 -28 -34 -56l-255 -197l368 -796h-447l-255 564v-564h-430v1415z" />
    <glyph glyph-name="l" unicode="l" horiz-adv-x="757" 
d="M173 1415h430v-1415h-430v1415z" />
    <glyph glyph-name="m" unicode="m" horiz-adv-x="2217" 
d="M1331 792q2 -24 2 -48v-744h-429v970q-11 5 -26 5h-32q-78 0 -182 -107q-32 -33 -61 -73v-795h-430v1068h430v-161q169 179 378 179q270 0 333 -200q86 99 189.5 149.5t208.5 50.5q179 0 265 -85t86 -257v-744h-429v971q-9 4 -45 4t-66.5 -13.5t-62.5 -37.5
q-70 -51 -129 -132z" />
    <glyph glyph-name="n" unicode="n" horiz-adv-x="1497" 
d="M913 959q-25 16 -54 16t-60 -13.5t-65 -37.5q-71 -51 -131 -136v-788h-430v1068h430v-171q171 189 387 189q353 0 353 -342v-744h-430v959z" />
    <glyph glyph-name="o" unicode="o" horiz-adv-x="1303" 
d="M81 540q0 120 43.5 218.5t119.5 171.5q164 156 412 156q253 0 412 -162q152 -153 152 -387q0 -235 -156 -393q-161 -163 -412 -163q-245 0 -406 155q-165 160 -165 404zM624 56q8 -1 16 -1h14q202 0 339 125q146 135 146 354q0 214 -137 347q-135 132 -349 132h-15
q-7 0 -14 -1v-956z" />
    <glyph glyph-name="p" unicode="p" horiz-adv-x="1512" 
d="M853 -19q-139 0 -269 63v-364h-411v1388h411v-55q131 73 268 73t242 -41t180 -113q155 -152 155 -389q0 -239 -153 -397q-158 -165 -423 -165zM850 1013q-148 0 -266 -82v-798q135 -78 294 -78h26q12 0 23 2v950q-38 6 -77 6z" />
    <glyph glyph-name="q" unicode="q" horiz-adv-x="1495" 
d="M929 50q-125 -69 -264.5 -69t-245 41.5t-179.5 115.5q-157 155 -157 403q0 230 154 383q164 162 428 162q140 0 264 -61v43h412v-1388h-412v370zM645 1013q-31 0 -59 -4v-948q36 -6 78 -6q148 0 265 84v798q-133 76 -284 76z" />
    <glyph glyph-name="r" unicode="r" horiz-adv-x="965" 
d="M173 1068h430v-314q69 171 148.5 251.5t159.5 80.5q45 0 71.5 -23.5t26.5 -52.5t-8 -46t-21 -29q-27 -25 -51 -25q-38 0 -56 8q-31 14 -55 14t-61 -38.5t-71 -106.5q-83 -166 -83 -360v-427h-430v1068z" />
    <glyph glyph-name="s" unicode="s" horiz-adv-x="1023" 
d="M95 134q0 15 10.5 27.5t27.5 12.5t28 -10l25 -23q104 -91 291 -91q126 0 162 52q10 14 10 28.5t-5.5 28t-23.5 33t-51 46.5l-88 71q-218 170 -299 276q-74 97 -74 198q0 127 117 213q121 90 313 90q135 0 213 -31t110 -56.5t32 -46.5q0 -43 -34 -43q-16 0 -29.5 11.5
t-53.5 39t-106 43.5t-123 16t-80.5 -18t-23.5 -35.5t7 -33t26 -36.5q44 -52 141 -123t164 -130t105 -109q69 -90 69 -182t-34 -157.5t-97 -112.5q-133 -101 -355 -101q-178 0 -297 68q-77 43 -77 85z" />
    <glyph glyph-name="t" unicode="t" horiz-adv-x="963" 
d="M584 -19q-392 0 -392 358l-1 656l-115 -5q-54 0 -54 41t58 41l96 -4h15v155l429 192v-347h134l95 4q59 0 59 -42q0 -19 -16.5 -29.5t-37.5 -10.5l-124 5h-110v-940q117 2 195 67q37 28 52.5 72t28 56.5t29.5 12.5t29 -13.5t12 -32t-10 -41t-30 -47.5q-45 -56 -104 -89
q-107 -59 -238 -59z" />
    <glyph glyph-name="u" unicode="u" horiz-adv-x="1494" 
d="M523 -19q-351 0 -351 343v744h428v-979q10 -5 25 -5h33q80 0 190 108q33 33 62 72v804h430v-1068h-430v154q-163 -173 -387 -173z" />
    <glyph glyph-name="v" unicode="v" horiz-adv-x="1069" 
d="M4 1068h453l272 -561l171 340q53 109 66.5 162t27 65t33 12t30.5 -13t11 -26t-2.5 -26t-9.5 -35q-15 -41 -63 -142l-440 -889z" />
    <glyph glyph-name="w" unicode="w" horiz-adv-x="1636" 
d="M4 1068h453l256 -538l302 584l315 -591l143 324q52 119 62.5 165.5t24.5 60t33 13.5t30.5 -14t11.5 -24.5t-1.5 -20t-8.5 -30t-23 -55.5l-431 -987l-334 639l-323 -639z" />
    <glyph glyph-name="x" unicode="x" horiz-adv-x="1087" 
d="M37 -7.5q-12 11.5 -12 27.5q0 32 36 59t52 49l265 325l-368 615h455l212 -353q185 238 199 260q27 42 36 65q19 46 53 46q16 0 28.5 -10.5t12.5 -25.5t-5.5 -30t-18.5 -38q-26 -44 -91 -127l-169 -215l385 -640h-457l-228 380l-244 -307q-63 -79 -90 -89q-10 -3 -24.5 -3
t-26.5 11.5z" />
    <glyph glyph-name="y" unicode="y" horiz-adv-x="1069" 
d="M359 -236q61 19 85 49q34 40 82 144l23 53l-545 1058h455l284 -604l164 383q45 105 59 160t27.5 67t33 12t30.5 -12t11 -24t-2.5 -25.5t-10 -36t-21.5 -56.5l-415 -962q-74 -174 -142 -245q-58 -63 -117.5 -63t-59.5 41.5t59 60.5z" />
    <glyph glyph-name="z" unicode="z" horiz-adv-x="1123" 
d="M1019 86q54 0 54 -40q0 -18 -23 -32t-78 -14h-931l592 995h-301q-66 0 -101 -6q-47 -8 -67 -8t-33.5 11.5t-13.5 28.5q0 47 99 47h866l-554 -995h329q73 0 104 6q37 7 58 7z" />
    <glyph glyph-name="braceleft" unicode="{" horiz-adv-x="934" 
d="M820 1536q0 -45 -81 -41q-62 4 -132 -27v-446q0 -151 -78.5 -223.5t-251.5 -88.5q166 -15 253 -111q77 -85 77 -220v-466q69 -32 125.5 -34.5t72 -12t15.5 -26.5q0 -38 -64 -38q-99 0 -196 53.5t-176 153.5q-174 220 -197 559q-4 54 -21.5 78.5t-53.5 28.5q-61 7 -61 39
t49 36q47 4 61 20q21 24 25 81q18 316 170 515q156 207 400 207q32 0 48 -11.5t16 -25.5z" />
    <glyph glyph-name="bar" unicode="|" horiz-adv-x="458" 
d="M271 -182l3 -100q0 -27 -14.5 -41.5t-34.5 -14.5t-31.5 13.5t-11.5 29.5t2 29l6 29q4 32 4 146v1304q0 76 -2 102l-4 37q-1 10 -1 24q0 50 40 50q17 0 32.5 -12t15.5 -41l-4 -127v-1428z" />
    <glyph glyph-name="braceright" unicode="}" horiz-adv-x="934" 
d="M162.5 -122.5q71.5 3.5 141.5 35.5v466q0 209 180 293q62 30 150 38q-257 24 -311 181q-19 55 -19 131v446q-70 31 -121 28q-92 -5 -92 40q0 14 16 25.5t48 11.5q244 0 401 -207q151 -199 169 -515q2 -55 16 -71q23 -26 59 -29q60 -5 60 -37t-48.5 -37.5t-66 -30
t-21.5 -78.5q-23 -339 -197 -559q-79 -100 -176 -153.5t-196 -53.5q-64 0 -64 36t71.5 39.5z" />
    <glyph glyph-name="asciitilde" unicode="~" horiz-adv-x="1202" 
d="M560 658q-293 225 -390 -13q-28 -68 -64 -64t-32 50q4 58 72 128q185 177 463 -41l93 -68q70 -49 98.5 -56.5t65.5 -11.5q88 -9 143 120q16 41 30 54t32 11q41 -5 37 -41q-5 -47 -38 -91q-107 -162 -290 -113q-71 18 -220 136z" />
    <glyph glyph-name="nonbreakingspace" unicode="&#xa0;" horiz-adv-x="456" 
 />
    <glyph glyph-name="exclamdown" unicode="&#xa1;" horiz-adv-x="831" 
d="M402 1081q-96 0 -151 48t-55 133q0 76 52 123q54 48 149 48q93 0 151 -51q56 -48 56 -119q0 -124 -114 -167q-37 -15 -88 -15zM119 134.5q-22 45.5 -22 85t4 63.5t15 55q22 56 70 141.5t70 133.5t40 95q27 70 47.5 150t31 91.5t24.5 11.5t29.5 -11.5t27 -60t25 -96.5
t29.5 -91q31 -82 81 -171l71 -128q39 -75 43.5 -109.5t4.5 -76.5t-20.5 -88t-59.5 -79q-83 -69 -227 -69q-135 0 -222 74q-40 34 -62 79.5z" />
    <glyph glyph-name="cent" unicode="&#xa2;" horiz-adv-x="1147" 
d="M1011 77q-144 -96 -335 -96q-92 0 -162 16l-26 -68q-26 -70 -31 -115.5t-14 -60t-23.5 -19.5t-30.5 1t-20.5 20.5t-4 31t5.5 41.5q12 55 48 149l18 41q-165 60 -260 198q-95 140 -95 328q0 236 169 390q168 152 422 152q19 0 41 -2l22 56q26 70 31 115.5t14 60t23.5 19.5
t30.5 -1t20.5 -20.5t4 -31t-6.5 -42.5q-17 -80 -55 -166q142 -27 226 -88q30 -22 30 -46.5t-11.5 -35t-25.5 -10.5q-21 0 -54 23q-65 62 -193 87q-46 9 -101 9t-95 -8v-941q47 -9 94.5 -9t92 7.5t84.5 21.5q85 30 137 76q37 32 54 32q38 0 38 -34t-62 -81z" />
    <glyph glyph-name="sterling" unicode="&#xa3;" horiz-adv-x="1375" 
d="M621 118q-158 -137 -359 -137q-180 0 -232 119q-15 36 -15 78q0 83 60 139q59 55 135 55t148 -29v345l-138 -8q-24 0 -40.5 13.5t-16.5 31.5q0 45 57 45l138 -7v295q0 162 126 266q131 109 361 109q132 0 251 -50q118 -49 118 -101q0 -14 -9 -26.5t-23 -12.5
q-26 0 -58 28.5t-100 54.5t-155 32v-595h100q77 0 97 3q36 4 64 4q56 0 56 -45q0 -18 -15.5 -31t-45.5 -13l-143 7h-113q-4 -308 -192 -515q205 -118 340 -118q101 0 168 64q22 21 36.5 49t24.5 37t25.5 9t27.5 -10.5t12 -36t-26.5 -64.5t-68.5 -67q-85 -55 -203 -55
q-91 0 -153 22q-108 38 -239 115zM358 265q-77 34 -138 34t-94 -32.5t-33 -73.5t11.5 -64t29.5 -39q39 -35 100 -35q124 0 124 191v19z" />
    <glyph glyph-name="currency" unicode="&#xa4;" horiz-adv-x="1394" 
d="M953 183q-111 -63 -254.5 -63t-271.5 100l-63 -70q-54 -59 -72.5 -98.5t-33 -50t-30 -9.5t-28 12t-11.5 26t7.5 30t21.5 37q36 55 97 123l52 55q-120 133 -120 305.5t100 297.5l-70 63q-13 11 -28 23l-29 22q-33 23 -56 34q-45 22 -43 55q1 16 11.5 28.5t25.5 11.5
t30 -7.5t36.5 -20.5t51.5 -38l72 -59l55 -53q134 121 322 121t325 -139l59 66q11 13 23 28l22 29q22 31 34 56q23 47 55 45q15 -1 28 -12t12 -26.5t-7.5 -30t-20.5 -36.5q-28 -45 -97 -123l-56 -59q85 -121 85 -249q0 -235 -167 -376q130 -115 167 -132q85 -41 45 -89
q-18 -21 -44.5 -9.5t-48.5 25.5q-55 37 -123 98zM321 588q0 -163 115 -280q115 -116 281 -116q165 0 281 116t116 280q0 165 -116 281q-117 117 -281 117q-165 0 -281 -117q-115 -117 -115 -281z" />
    <glyph glyph-name="yen" unicode="&#xa5;" horiz-adv-x="1322" 
d="M340 380l-111 -6q-24 0 -40.5 13t-16.5 32t15.5 31t42 12t52.5 -2l47 -5q20 -2 42 -2h261l-120 192h-172l-111 -6q-24 0 -40.5 12.5t-16.5 30.5q0 44 57 44l142 -8h95l-435 697h549l336 -553l218 388l22 44q22 42 35 74.5t25.5 45t31.5 12.5q42 0 42 -37q0 -26 -18 -57
l-345 -614h63l160 8q56 0 56 -44q0 -18 -15.5 -30.5t-44.5 -12.5l-143 6h-117l-108 -192h212l160 9q56 0 56 -44q0 -18 -15.5 -31t-44.5 -13l-143 6h-266q-131 -233 -141 -252l-42 -84q-25 -55 -69 -55q-18 0 -31.5 12t-13.5 29q0 31 24 60q50 58 100 145l81 145h-305z" />
    <glyph glyph-name="brokenbar" unicode="&#xa6;" horiz-adv-x="458" 
d="M271 822l3 -100q0 -27 -14.5 -41.5t-34.5 -14.5t-31.5 13.5t-11.5 29.5q0 20 5 47q7 38 7 157v300q0 76 -2 102l-4 37q-1 10 -1 24q0 50 40 50q17 0 32.5 -12t15.5 -41l-4 -127v-424zM271 -182l3 -100q0 -27 -14.5 -41.5t-34.5 -14.5t-31.5 13.5t-11.5 29.5t2 29l6 29
q4 32 4 146v300q0 76 -2 102l-4 36q-1 10 -1 24q0 50 40 50q17 0 32.5 -11.5t15.5 -40.5l-4 -127v-424z" />
    <glyph glyph-name="section" unicode="&#xa7;" horiz-adv-x="1209" 
d="M292 -53.5q-29 25.5 -29 44.5q0 44 40 44q19 0 57 -34q87 -76 231 -76q86 0 124 23q61 39 61 80q0 49 -38 85q-75 69 -205.5 140t-187 113t-91.5 84q-66 79 -66 172.5t66.5 171.5t193.5 129q-204 130 -232 250q-9 39 -9 88t34 101t94 92q133 89 320 89q116 0 217 -49
q97 -48 97 -94q0 -14 -11 -27t-28 -13q-22 0 -60 34q-87 76 -221 76q-142 0 -176 -58q-10 -17 -10 -39.5t11.5 -48t37.5 -52.5q49 -51 164 -114t189 -113.5t115 -94.5q71 -76 71 -174q0 -198 -257 -303q188 -118 225 -228q13 -39 13 -90.5t-33.5 -107.5t-92.5 -99
q-130 -96 -321 -96q-111 0 -217 48q-47 21 -76 46.5zM714 520q97 39 97 107q0 51 -33 84q-56 54 -208 140l-40 22q-55 -22 -78 -48t-23 -48t9.5 -44.5t39.5 -52.5q66 -66 236 -160z" />
    <glyph glyph-name="dieresis" unicode="&#xa8;" horiz-adv-x="1037" 
d="M898.5 1236.5q-47.5 -34.5 -108.5 -34.5t-93 10t-55 27q-48 35 -48 90q0 87 98 116q34 10 78 10t76.5 -10.5t54.5 -28.5q45 -37 45 -91t-47.5 -88.5zM396 1236.5q-47 -34.5 -108 -34.5t-93 10t-55 27q-49 35 -49 90q0 87 99 116q33 10 77.5 10t76.5 -10.5t54 -28.5
q45 -37 45 -91t-47 -88.5z" />
    <glyph glyph-name="copyright" unicode="&#xa9;" horiz-adv-x="1303" 
d="M648 441q-130 0 -234 43.5t-178 117.5q-151 154 -151 388q0 235 155 392q162 164 413 164q253 0 413 -162q151 -153 151 -387q0 -235 -155 -393q-162 -163 -414 -163zM646 515q101 0 189 32t155 93q146 135 146 354q0 214 -136 347q-136 132 -350 132l1 -1
q-202 0 -339 -126q-146 -134 -146 -353q0 -213 136 -347q133 -131 344 -131zM874 838q35 0 35 -32q0 -34 -43 -63q-78 -52 -168.5 -52t-150.5 22.5t-105 63.5q-97 88 -97 230q0 133 99 219q99 85 241 85q73 0 124 -23q85 -38 85 -74t-33 -36q-21 0 -53 22q-53 38 -129 38
q-21 0 -49 -5v-464q38 -5 70 -5q76 0 130 50q24 24 44 24z" />
    <glyph glyph-name="ordfeminine" unicode="&#xaa;" horiz-adv-x="808" 
d="M478 769q-74 -43 -142 -43t-115.5 16.5t-80.5 46.5q-67 62 -67 163q0 161 155 210q49 16 116.5 16t133.5 -27v202q-46 11 -99 11q-119 0 -169 -54q-15 -17 -39 -17q-38 0 -38 36q0 40 88 73q76 31 154 31q148 0 226 -39q60 -36 81 -82q34 -75 34 -189v-387h-238v33z
M349 1107q-6 0 -30 -3v-304q6 -1 11 -1h10q76 0 138 41v240q-56 27 -129 27z" />
    <glyph glyph-name="guillemotleft" unicode="&#xab;" horiz-adv-x="1025" 
d="M529 699q137 114 211 191.5t88 91t24 20.5q14 12 30.5 12t29.5 -10.5t13 -28t-12.5 -32t-44 -38.5t-70.5 -58l-77 -67l-49 -47q-23 -22 -43 -39l267 -200v-441l-367 327v319zM100 699q137 114 211 191.5t88 91t23 20.5q15 12 31.5 12t29.5 -10.5t13 -28t-12.5 -32
t-44 -38.5t-70.5 -58l-77 -67l-49 -47q-23 -22 -43 -39l267 -200v-441l-367 327v319z" />
    <glyph glyph-name="logicalnot" unicode="&#xac;" horiz-adv-x="1078" 
d="M181 525l-51 -4q-30 0 -44.5 14.5t-14.5 31.5t12.5 29.5t35.5 12.5l121 -8h650q49 0 60 -18.5t11 -40.5v-121q0 -128 4.5 -154t4.5 -41t-12 -27.5t-31.5 -12.5t-33 15t-12.5 31t2.5 35t2.5 37q2 38 2 86v137h-602z" />
    <glyph glyph-name="uni00AD" unicode="&#xad;" horiz-adv-x="1229" 
 />
    <glyph glyph-name="registered" unicode="&#xae;" horiz-adv-x="1303" 
d="M648 441q-130 0 -234 43.5t-178 117.5q-151 154 -151 388q0 235 155 392q162 164 413 164q253 0 413 -162q151 -153 151 -387q0 -235 -155 -393q-162 -163 -414 -163zM646 515q101 0 189 32t155 93q146 135 146 354q0 214 -136 347q-136 132 -350 132l1 -1
q-202 0 -339 -126q-146 -134 -146 -353q0 -213 136 -347q133 -131 344 -131zM634 1316q305 0 305 -205q0 -116 -99 -180q-31 -20 -70 -29q50 -66 124 -118q38 -27 38 -42q0 -32 -33 -32q-36 0 -92 53q-75 63 -100 102t-25 53q0 35 58 45t89.5 48.5t31.5 103.5t-54.5 102.5
t-151.5 34.5q-8 -1 -16 -1h-15v-531h-214v596h224z" />
    <glyph glyph-name="macron" unicode="&#xaf;" horiz-adv-x="904" 
d="M298 1258l-150 -9q-24 0 -40.5 13.5t-16.5 32.5t15.5 31t41.5 12l142 -8h307l159 8q56 0 56 -44q0 -18 -15.5 -31t-44.5 -13l-143 8h-311z" />
    <glyph glyph-name="degree" unicode="&#xb0;" horiz-adv-x="606" 
d="M302 1029q-44 0 -82.5 14.5t-67.5 40.5q-61 58 -61 148q0 86 61 143q61 58 153 58q91 0 149 -55q61 -56 61 -146q0 -89 -63 -146q-62 -57 -150 -57zM437 1212.5q0 43.5 -9.5 68t-27.5 42.5q-38 38 -99 38q-54 0 -82 -27q-50 -47 -50 -103q0 -54 41 -93q39 -37 80 -37
q68 0 107.5 34t39.5 77.5z" />
    <glyph glyph-name="plusminus" unicode="&#xb1;" horiz-adv-x="1035" 
d="M531 620l8 -157q0 -18 -11.5 -30t-31.5 -12t-33.5 14.5t-11.5 38.5l5 150v158h-163t-79 -1q-46 -3 -68 -5t-35.5 12t-13.5 33.5t11.5 31t27.5 11.5q38 0 64 -2l36 -4q22 -2 56 -2h164v158l-5 151q-2 24 11.5 38t33.5 14t31.5 -12t11.5 -30l-8 -154v-165h163q34 0 50 2
l28 2q44 4 70 4q51 0 51 -43q0 -19 -15.5 -33t-31.5 -12q-67 6 -101 6h-214v-162zM316 255l-147 -7q-28 0 -45 12.5t-17 32.5q0 43 59 43q12 0 46 -4t96 -4h403l129 8h17q24 0 40.5 -12t16.5 -31.5t-17.5 -31.5t-43.5 -12l-148 6h-389z" />
    <glyph glyph-name="twosuperior" unicode="&#xb2;" horiz-adv-x="805" 
d="M670 729q44 0 44 -36q0 -41 -98 -41h-543q6 66 40 132q56 113 137 232l110 163q64 97 64 130q0 58 -105 58q-80 0 -137 -41q-18 -14 -33.5 -35.5t-33.5 -21.5t-26 10.5t-8 22.5q0 37 68 76q93 55 192.5 55t159 -16t101.5 -43q87 -56 87 -138q0 -61 -17 -103
q-26 -67 -79 -157l-70 -121q-44 -77 -63 -135h106q45 0 62 4q27 5 42 5z" />
    <glyph glyph-name="threesuperior" unicode="&#xb3;" horiz-adv-x="835" 
d="M127 1298q-32 0 -32 31q0 43 108 78q71 26 157 26q245 0 316 -95q30 -40 30 -87q0 -92 -88 -150q-26 -18 -62 -29q76 -23 124 -80q46 -54 46 -115.5t-38.5 -114t-87.5 -78.5q-95 -51 -244 -51t-241 66q-60 42 -60 81t33 39q27 0 45 -34q36 -56 155 -81q36 -8 59 -8h32
q9 0 17 2v340q-10 1 -20 1h-15l-64 -6q-52 0 -52 36q0 35 44 35l73 -6h34v271q-16 2 -51.5 2t-87 -12.5t-73.5 -30.5q-36 -30 -57 -30zM437 1360q-4 2 -6 2z" />
    <glyph glyph-name="acute" unicode="&#xb4;" horiz-adv-x="581" 
d="M319 1482h281l-243 -284h-156z" />
    <glyph glyph-name="mu" unicode="&#xb5;" horiz-adv-x="1264" 
d="M902 163q-117 -174 -326 -174q-90 0 -161.5 44.5t-111.5 120.5v-195q0 -125 34 -173q12 -17 29 -30q31 -24 31 -52q0 -17 -12.5 -29.5t-41.5 -12.5t-63 34q-55 55 -55 279v956l-4 101q0 26 15.5 40t34.5 14q43 0 43 -46q0 -12 -2 -25t-4 -29q-5 -30 -5 -146v-437
q0 -147 87 -245q84 -96 200 -96q148 0 247 124q34 42 60 100v576q0 24 -1 50v52q-1 24 -1.5 42.5t-0.5 35t15 30.5t35 14t31.5 -13t11.5 -29t-3 -29t-6 -29q-4 -30 -4 -146v-584q0 -150 70 -184q20 -9 36 -9q29 0 47 11q37 23 59 1q9 -10 9 -31t-29.5 -38t-77.5 -17
q-158 0 -186 174z" />
    <glyph glyph-name="mu" unicode="&#x3bc;" horiz-adv-x="1264" 
d="M902 163q-117 -174 -326 -174q-90 0 -161.5 44.5t-111.5 120.5v-195q0 -125 34 -173q12 -17 29 -30q31 -24 31 -52q0 -17 -12.5 -29.5t-41.5 -12.5t-63 34q-55 55 -55 279v956l-4 101q0 26 15.5 40t34.5 14q43 0 43 -46q0 -12 -2 -25t-4 -29q-5 -30 -5 -146v-437
q0 -147 87 -245q84 -96 200 -96q148 0 247 124q34 42 60 100v576q0 24 -1 50v52q-1 24 -1.5 42.5t-0.5 35t15 30.5t35 14t31.5 -13t11.5 -29t-3 -29t-6 -29q-4 -30 -4 -146v-584q0 -150 70 -184q20 -9 36 -9q29 0 47 11q37 23 59 1q9 -10 9 -31t-29.5 -38t-77.5 -17
q-158 0 -186 174z" />
    <glyph glyph-name="paragraph" unicode="&#xb6;" horiz-adv-x="1088" 
d="M664 320q0 -411 -288 -411q-63 0 -99 20t-36 39q0 38 33 38q17 0 39 -10q36 -15 75 -15q198 0 198 348v365q-221 2 -358.5 105t-137.5 263q0 371 506 371h239l124 5q53 0 53 -40q0 -42 -57 -42l-97 4h-21v-1132q0 -124 6 -156.5t6 -43.5q0 -47 -43 -47q-19 0 -34 14.5
t-15 40.5l3 102v1221h-96v-1039z" />
    <glyph glyph-name="periodcentered" unicode="&#xb7;" horiz-adv-x="684" 
d="M324 517q-54 0 -96.5 15.5t-71.5 43.5q-59 58 -59 156q0 80 66 140q69 62 169 62q106 0 172 -69q59 -63 59 -148t-68 -142q-69 -58 -171 -58z" />
    <glyph glyph-name="cedilla" unicode="&#xb8;" horiz-adv-x="649" 
d="M342 -69q216 -4 216 -125q0 -95 -130 -132q-43 -12 -88 -12q-151 0 -220 55q-29 23 -29 43q0 43 40 43q21 0 42.5 -18.5t38.5 -26t38 -12.5q39 -11 99.5 -11t96.5 21.5t36 44t-37.5 39.5t-95 18t-71.5 12t-14 43v108h78v-90z" />
    <glyph glyph-name="onesuperior" unicode="&#xb9;" horiz-adv-x="641" 
d="M58 1238q-39 0 -39 33q0 14 8.5 24t25.5 16.5t29 10.5q41 11 59 16l381 95v-781h-338v627l-22 -7q-26 -8 -38.5 -13t-25.5 -10q-27 -11 -40 -11z" />
    <glyph glyph-name="ordmasculine" unicode="&#xba;" horiz-adv-x="799" 
d="M398 716q-62 0 -122.5 23t-107.5 69q-107 103 -107 275q0 159 105 259q97 91 236 91t233 -93q101 -99 101 -263q0 -169 -107 -271q-95 -90 -231 -90zM401 789q105 0 176 73q77 79 77 213q0 137 -80 217q-70 70 -174 70h-8q-3 0 -8 -1v-572h17z" />
    <glyph glyph-name="guillemotright" unicode="&#xbb;" horiz-adv-x="1025" 
d="M542 63.5q-13 10.5 -13 28t12.5 32t44 38.5t70.5 58l77 67l49 47q23 22 43 39l-267 200v441l367 -327v-319q-95 -80 -130 -113l-133 -132q-57 -63 -70 -66.5t-25 -3.5t-25 10.5zM113 63.5q-13 10.5 -13 28t12.5 32t44 38.5t70.5 58l77 67l49 47q23 22 43 39l-267 200v441
l367 -327v-319q-95 -80 -130 -113l-133 -132q-57 -63 -70 -66.5t-25 -3.5t-25 10.5z" />
    <glyph glyph-name="onequarter" unicode="&#xbc;" horiz-adv-x="1753" 
d="M329.5 -7q-11.5 12 -11.5 30q0 27 36 67q55 63 110 149l666 1037q20 31 33.5 59t24.5 49q26 49 50 49q49 0 49 -37q0 -27 -21 -56q-35 -49 -49 -71l-765 -1201q-45 -69 -62 -78t-33 -9t-27.5 12zM94 1238q-39 0 -39 33q0 14 8.5 24t25.5 16.5t29 10.5q41 11 59 16l381 95
v-781h-338v627l-22 -7q-26 -8 -38.5 -13t-25.5 -10q-27 -11 -40 -11zM846.5 166.5q-12.5 10.5 -12.5 21t1.5 18t6.5 17.5q10 21 36 61l314 497h329v-561q57 0 69 2q23 5 41 5q39 0 39 -30q0 -39 -90 -41h-52h-7v-156h-342v156h-294q-26 0 -38.5 10.5zM934 242q-8 -10 -8 -16
t12 -6h241v408z" />
    <glyph glyph-name="onehalf" unicode="&#xbd;" horiz-adv-x="1696" 
d="M325.5 -7q-11.5 12 -11.5 26t2.5 22t8.5 17q11 18 36 45q40 45 98 136l666 1037q20 31 33.5 59t24.5 49t23.5 35t32.5 14q43 0 43 -37q0 -26 -20 -55l-126 -191l-689 -1082q-45 -69 -62 -78t-32.5 -9t-27 12zM94 1238q-39 0 -39 33q0 14 8.5 24t25.5 16.5t29 10.5
q41 11 59 16l381 95v-781h-338v627l-22 -7q-26 -8 -38.5 -13t-25.5 -10q-27 -11 -40 -11zM1560 77q44 0 44 -36q0 -41 -98 -41h-543q6 66 40 132q56 113 137 232l110 163q64 97 64 130q0 58 -105 58q-80 0 -137 -41q-18 -14 -33.5 -35.5t-33.5 -21.5t-26 10.5t-8 22.5
q0 37 68 76q93 55 192.5 55t159 -16t101.5 -43q87 -56 87 -138q0 -61 -17 -103q-26 -67 -79 -157l-70 -121q-44 -77 -63 -135h106q45 0 62 4q27 5 42 5z" />
    <glyph glyph-name="threequarters" unicode="&#xbe;" horiz-adv-x="1809" 
d="M404 -7q-11 12 -11 26t2.5 22t8.5 17q11 18 35 45q48 54 100 136l666 1037q19 31 33 59l24 48q11 22 23.5 36t32.5 14q44 0 44 -37q0 -28 -20 -56l-30 -41q-9 -13 -22 -32l-764 -1199q-45 -69 -62.5 -78t-33 -9t-26.5 12zM127 1298q-32 0 -32 31q0 43 108 78
q71 26 157 26q245 0 316 -95q30 -40 30 -87q0 -92 -88 -150q-26 -18 -62 -29q76 -23 124 -80q46 -54 46 -115.5t-38.5 -114t-87.5 -78.5q-95 -51 -244 -51t-241 66q-60 42 -60 81t33 39q27 0 45 -34q36 -56 155 -81q36 -8 59 -8h32q9 0 17 2v340q-10 1 -20 1h-15l-64 -6
q-52 0 -52 36q0 35 44 35l73 -6h34v271q-16 2 -51.5 2t-87 -12.5t-73.5 -30.5q-36 -30 -57 -30zM437 1360q-4 2 -6 2zM903.5 166.5q-13.5 10.5 -13.5 21t1.5 18t6.5 17.5t14 25l337 533h329v-561q54 0 68 2q24 5 41 5q41 0 41 -30q0 -39 -92 -41h-52h-6v-156h-342v156h-293
q-26 0 -39.5 10.5zM990 242q-8 -11 -8 -16.5t13 -5.5h241v411z" />
    <glyph glyph-name="questiondown" unicode="&#xbf;" horiz-adv-x="926" 
d="M468 887q-95 0 -151.5 48t-56.5 133q0 75 54 123t148 48q93 0 151 -51q55 -47 55 -119q0 -124 -112 -167q-38 -15 -88 -15zM603.5 512q81.5 -102 141.5 -219.5t60 -200t-25.5 -135.5t-72.5 -91q-100 -79 -260 -79q-100 0 -162 20.5t-97.5 49.5t-35.5 51q0 42 35 42
q26 0 59 -31q63 -59 151 -59q28 0 43 12.5t15 29.5t-6.5 37.5t-22.5 48.5q-33 58 -89.5 127.5t-85.5 113t-47 82.5q-34 74 -34 148t30.5 130.5t80.5 94.5q102 77 244 73q83 -2 133 -29q88 -48 88 -81t-31 -33q-25 0 -57 24q-51 39 -93.5 39t-42.5 -31.5t81.5 -133.5z" />
    <glyph glyph-name="Agrave" unicode="&#xc0;" horiz-adv-x="1355" 
d="M427 178q-183 0 -250 3l-29 -69q-13 -29 -24 -61q-23 -62 -64 -62q-19 0 -31 12t-12 25q0 22 19 49q30 42 59 110q-86 8 -86 50t49 42q30 0 70 -10l499 1212l684 -1479h-521l-83 178h-280zM209 259q96 -8 172 -8h293l-250 539zM277 1700h281l117 -284h-154z" />
    <glyph glyph-name="Aacute" unicode="&#xc1;" horiz-adv-x="1355" 
d="M427 178q-183 0 -250 3l-29 -69q-13 -29 -24 -61q-23 -62 -64 -62q-19 0 -31 12t-12 25q0 22 19 49q30 42 59 110q-86 8 -86 50t49 42q30 0 70 -10l499 1212l684 -1479h-521l-83 178h-280zM209 259q96 -8 172 -8h293l-250 539zM767 1812h280l-243 -284h-155z" />
    <glyph glyph-name="Acircumflex" unicode="&#xc2;" horiz-adv-x="1355" 
d="M427 178q-183 0 -250 3l-29 -69q-13 -29 -24 -61q-23 -62 -64 -62q-19 0 -31 12t-12 25q0 22 19 49q30 42 59 110q-86 8 -86 50t49 42q30 0 70 -10l499 1212l684 -1479h-521l-83 178h-280zM209 259q96 -8 172 -8h293l-250 539zM419 1574l-30 -30q-22 -22 -39 -22
t-27.5 10.5t-10.5 24.5q0 26 41 61q13 13 33 30.5t58 55.5l110 110h255l263 -284h-308l-180 214q-125 -126 -141 -144t-24 -26z" />
    <glyph glyph-name="Atilde" unicode="&#xc3;" horiz-adv-x="1355" 
d="M427 178q-183 0 -250 3l-29 -69q-13 -29 -24 -61q-23 -62 -64 -62q-19 0 -31 12t-12 25q0 22 19 49q30 42 59 110q-86 8 -86 50t49 42q30 0 70 -10l499 1212l684 -1479h-521l-83 178h-280zM209 259q96 -8 172 -8h293l-250 539zM344.5 1540q-12.5 0 -24 13.5t-11.5 46
t20 76t55 78.5q78 78 179 78q84 0 190 -83l52 -40q57 -43 75 -43t34.5 25t23 65t13.5 53.5t24 13.5t28.5 -15t11.5 -46.5t-20 -75t-55 -78.5q-78 -78 -179 -78q-79 0 -187 78l-72 54q-32 25 -47 25t-25.5 -6.5t-20.5 -18.5q-22 -25 -27 -52l-6 -38q-4 -24 -11.5 -28t-20 -4z
" />
    <glyph glyph-name="Adieresis" unicode="&#xc4;" horiz-adv-x="1355" 
d="M427 178q-183 0 -250 3l-29 -69q-13 -29 -24 -61q-23 -62 -64 -62q-19 0 -31 12t-12 25q0 22 19 49q30 42 59 110q-86 8 -86 50t49 42q30 0 70 -10l499 1212l684 -1479h-521l-83 178h-280zM209 259q96 -8 172 -8h293l-250 539zM1029.5 1564.5q-47.5 -34.5 -108.5 -34.5
t-93 10t-55 27q-48 35 -48 90q0 87 98 116q34 10 78 10t76.5 -10.5t54.5 -28.5q45 -37 45 -91t-47.5 -88.5zM527 1564.5q-47 -34.5 -108 -34.5t-93 10t-55 27q-49 35 -49 90q0 87 99 116q33 10 77.5 10t76.5 -10.5t54 -28.5q45 -37 45 -91t-47 -88.5z" />
    <glyph glyph-name="Aring" unicode="&#xc5;" horiz-adv-x="1355" 
d="M427 178q-183 0 -250 3l-29 -69q-13 -29 -24 -61q-23 -62 -64 -62q-19 0 -31 12t-12 25q0 22 19 49q30 42 59 110q-86 8 -86 50t49 42q30 0 70 -10l499 1212l684 -1479h-521l-83 178h-280zM209 259q96 -8 172 -8h293l-250 539zM653 1530q-66 0 -111 42q-45 41 -45 110
q0 100 95 139q29 12 62.5 12t62 -11t49.5 -31q43 -42 43 -109t-45 -110q-44 -42 -111 -42zM622.5 1608q14.5 -6 39.5 -6t48.5 21.5t23.5 56.5t-22.5 57t-58 22t-58 -22t-22.5 -47t6.5 -39.5t17.5 -25.5t25.5 -17z" />
    <glyph glyph-name="AE" unicode="&#xc6;" horiz-adv-x="1647" 
d="M419 178q-183 0 -251 3l-30 -69q-12 -29 -24 -61q-22 -62 -63 -62q-19 0 -31 12t-12 25q0 22 20 49q33 48 58 110q-85 8 -85 50t49 42q30 0 70 -10l490 1148l1 -1v1h789l81 3q75 0 75 -44q0 -17 -12.5 -31.5t-29.5 -14.5q-26 0 -54 6q-43 9 -118 9h-221v-305h182l123 5
q22 0 37.5 -10.5t15.5 -29.5q0 -42 -56 -42l-43 1q-33 3 -55 3h-204v-892h221q74 0 105 6q37 7 58 7q51 0 51 -40q0 -18 -22 -32t-76 -14h-847v178h-192zM201 259q96 -8 172 -8h238v966h-1z" />
    <glyph glyph-name="Ccedilla" unicode="&#xc7;" horiz-adv-x="1436" 
d="M907 -69q216 -4 216 -125q0 -95 -131 -132q-42 -12 -87 -12q-151 0 -220 55q-29 23 -29 43q0 43 40 43q20 0 42 -18.5t39 -26t37 -12.5q40 -11 100.5 -11t96.5 21.5t36 44t-37.5 39.5t-95 18t-71.5 12t-14 43v69q-335 8 -539 214q-202 204 -202 524q0 157 59 288.5
t163 225.5q220 199 553 199q187 0 329 -64q151 -67 151 -114q0 -19 -12.5 -33t-28.5 -14q-32 0 -58 28.5t-70.5 51.5t-97.5 40q-108 33 -196.5 33t-146.5 -12v-1282q70 -12 124 -12t110 7t110 23q121 36 182 106q22 26 35 36t30 10q41 0 41 -46q0 -38 -58 -76
q-108 -71 -176 -91q-120 -35 -224 -41v-52z" />
    <glyph glyph-name="Egrave" unicode="&#xc8;" horiz-adv-x="1196" 
d="M1054 86q51 0 51 -40q0 -18 -22 -32t-76 -14h-847v1415h788l82 3q75 0 75 -44q0 -17 -12.5 -31.5t-28.5 -14.5q-26 0 -55 6q-43 9 -118 9h-221v-305h182l123 5q22 0 37.5 -10.5t15.5 -29.5q0 -42 -56 -42l-43 1q-33 3 -55 3h-204v-892h221q74 0 105 6q37 7 58 7z
M285 1700h281l117 -284h-154z" />
    <glyph glyph-name="Eacute" unicode="&#xc9;" horiz-adv-x="1196" 
d="M1054 86q51 0 51 -40q0 -18 -22 -32t-76 -14h-847v1415h788l82 3q75 0 75 -44q0 -17 -12.5 -31.5t-28.5 -14.5q-26 0 -55 6q-43 9 -118 9h-221v-305h182l123 5q22 0 37.5 -10.5t15.5 -29.5q0 -42 -56 -42l-43 1q-33 3 -55 3h-204v-892h221q74 0 105 6q37 7 58 7z
M775 1812h280l-243 -284h-155z" />
    <glyph glyph-name="Ecircumflex" unicode="&#xca;" horiz-adv-x="1196" 
d="M1054 86q51 0 51 -40q0 -18 -22 -32t-76 -14h-847v1415h788l82 3q75 0 75 -44q0 -17 -12.5 -31.5t-28.5 -14.5q-26 0 -55 6q-43 9 -118 9h-221v-305h182l123 5q22 0 37.5 -10.5t15.5 -29.5q0 -42 -56 -42l-43 1q-33 3 -55 3h-204v-892h221q74 0 105 6q37 7 58 7z
M427 1574l-30 -30q-22 -22 -39 -22t-27.5 10.5t-10.5 24.5q0 26 41 61q13 13 33 30.5t58 55.5l110 110h255l263 -284h-308l-180 214q-125 -126 -141 -144t-24 -26z" />
    <glyph glyph-name="Edieresis" unicode="&#xcb;" horiz-adv-x="1196" 
d="M1054 86q51 0 51 -40q0 -18 -22 -32t-76 -14h-847v1415h788l82 3q75 0 75 -44q0 -17 -12.5 -31.5t-28.5 -14.5q-26 0 -55 6q-43 9 -118 9h-221v-305h182l123 5q22 0 37.5 -10.5t15.5 -29.5q0 -42 -56 -42l-43 1q-33 3 -55 3h-204v-892h221q74 0 105 6q37 7 58 7z
M1037.5 1564.5q-47.5 -34.5 -108.5 -34.5t-93 10t-55 27q-48 35 -48 90q0 87 98 116q34 10 78 10t76.5 -10.5t54.5 -28.5q45 -37 45 -91t-47.5 -88.5zM535 1564.5q-47 -34.5 -108 -34.5t-93 10t-55 27q-49 35 -49 90q0 87 99 116q33 10 77.5 10t76.5 -10.5t54 -28.5
q45 -37 45 -91t-47 -88.5z" />
    <glyph glyph-name="Igrave" unicode="&#xcc;" horiz-adv-x="829" 
d="M160 1415h510v-1415h-510v1415zM46 1700h281l117 -284h-154z" />
    <glyph glyph-name="Iacute" unicode="&#xcd;" horiz-adv-x="829" 
d="M160 1415h510v-1415h-510v1415zM536 1812h280l-243 -284h-155z" />
    <glyph glyph-name="Icircumflex" unicode="&#xce;" horiz-adv-x="829" 
d="M160 1415h510v-1415h-510v1415zM189 1574l-30 -30q-22 -22 -39 -22t-27.5 10.5t-10.5 24.5q0 26 41 61q13 13 33 30.5t58 55.5l110 110h255l263 -284h-308l-180 214q-125 -126 -141 -144t-24 -26z" />
    <glyph glyph-name="Idieresis" unicode="&#xcf;" horiz-adv-x="829" 
d="M160 1415h510v-1415h-510v1415zM799.5 1564.5q-47.5 -34.5 -108.5 -34.5t-93 10t-55 27q-48 35 -48 90q0 87 98 116q34 10 78 10t76.5 -10.5t54.5 -28.5q45 -37 45 -91t-47.5 -88.5zM297 1564.5q-47 -34.5 -108 -34.5t-93 10t-55 27q-49 35 -49 90q0 87 99 116
q33 10 77.5 10t76.5 -10.5t54 -28.5q45 -37 45 -91t-47 -88.5z" />
    <glyph glyph-name="Eth" unicode="&#xd0;" horiz-adv-x="1578" 
d="M44 774l133 -8v649h416q291 0 427 -41q155 -48 239.5 -123t132.5 -155q98 -163 98 -370q0 -326 -234 -528q-166 -145 -391 -179q-125 -19 -350 -19h-338v692q-30 -2 -60 -2l-62 -4q-24 -2 -40.5 12.5t-16.5 33.5t14.5 30.5t31.5 11.5zM687 83q16 -1 29 -1h23
q271 0 463 169q203 178 203 473q0 186 -89 335q-129 217 -408 263q-91 15 -221 17v-573h100q70 0 92 3q38 5 59.5 5t36 -11.5t14.5 -31.5t-14.5 -33t-42.5 -11l-62 3q-44 2 -89 2h-94v-609z" />
    <glyph glyph-name="Ntilde" unicode="&#xd1;" horiz-adv-x="1535" 
d="M267 143l3 -100q0 -26 -14 -40t-33.5 -14t-32.5 13t-13 28.5t2.5 29t4.5 30.5q5 29 5 145v1244l1087 -862v596q0 68 -4 97q-5 47 -5 66q0 50 43 50q17 0 32.5 -12t15.5 -35v-35l-4 -145v-1254l-1087 853v-655zM502.5 1540q-12.5 0 -24 13.5t-11.5 46t20 76t55 78.5
q78 78 179 78q84 0 190 -83l52 -40q57 -43 75 -43t34.5 25t23 65t13.5 53.5t24 13.5t28.5 -15t11.5 -46.5t-20 -75t-55 -78.5q-78 -78 -179 -78q-79 0 -187 78l-72 54q-32 25 -47 25t-25.5 -6.5t-20.5 -18.5q-22 -25 -27 -52l-6 -38q-4 -24 -11.5 -28t-20 -4z" />
    <glyph glyph-name="Ograve" unicode="&#xd2;" horiz-adv-x="1673" 
d="M167.5 414.5q-58.5 137.5 -58.5 300t55.5 292t153.5 224.5q210 202 527 202q315 0 516 -199q204 -202 204 -524q0 -321 -209 -528q-131 -128 -322 -177q-95 -24 -220.5 -24t-257.5 51.5t-231 148t-157.5 234zM844 1360q-55 0 -103 -8v-1290q46 -8 103 -8q267 0 450 178
q191 185 191 478q0 279 -179 464q-181 186 -462 186zM464 1700h281l117 -284h-154z" />
    <glyph glyph-name="Oacute" unicode="&#xd3;" horiz-adv-x="1673" 
d="M167.5 414.5q-58.5 137.5 -58.5 300t55.5 292t153.5 224.5q210 202 527 202q315 0 516 -199q204 -202 204 -524q0 -321 -209 -528q-131 -128 -322 -177q-95 -24 -220.5 -24t-257.5 51.5t-231 148t-157.5 234zM844 1360q-55 0 -103 -8v-1290q46 -8 103 -8q267 0 450 178
q191 185 191 478q0 279 -179 464q-181 186 -462 186zM954 1812h280l-243 -284h-155z" />
    <glyph glyph-name="Ocircumflex" unicode="&#xd4;" horiz-adv-x="1673" 
d="M167.5 414.5q-58.5 137.5 -58.5 300t55.5 292t153.5 224.5q210 202 527 202q315 0 516 -199q204 -202 204 -524q0 -321 -209 -528q-131 -128 -322 -177q-95 -24 -220.5 -24t-257.5 51.5t-231 148t-157.5 234zM844 1360q-55 0 -103 -8v-1290q46 -8 103 -8q267 0 450 178
q191 185 191 478q0 279 -179 464q-181 186 -462 186zM606 1574l-30 -30q-22 -22 -39 -22t-27.5 10.5t-10.5 24.5q0 26 41 61q13 13 33 30.5t58 55.5l110 110h255l263 -284h-308l-180 214q-125 -126 -141 -144t-24 -26z" />
    <glyph glyph-name="Otilde" unicode="&#xd5;" horiz-adv-x="1673" 
d="M167.5 414.5q-58.5 137.5 -58.5 300t55.5 292t153.5 224.5q210 202 527 202q315 0 516 -199q204 -202 204 -524q0 -321 -209 -528q-131 -128 -322 -177q-95 -24 -220.5 -24t-257.5 51.5t-231 148t-157.5 234zM844 1360q-55 0 -103 -8v-1290q46 -8 103 -8q267 0 450 178
q191 185 191 478q0 279 -179 464q-181 186 -462 186zM531.5 1540q-12.5 0 -24 13.5t-11.5 46t20 76t55 78.5q78 78 179 78q84 0 190 -83l52 -40q57 -43 75 -43t34.5 25t23 65t13.5 53.5t24 13.5t28.5 -15t11.5 -46.5t-20 -75t-55 -78.5q-78 -78 -179 -78q-79 0 -187 78
l-72 54q-32 25 -47 25t-25.5 -6.5t-20.5 -18.5q-22 -25 -27 -52l-6 -38q-4 -24 -11.5 -28t-20 -4z" />
    <glyph glyph-name="Odieresis" unicode="&#xd6;" horiz-adv-x="1673" 
d="M167.5 414.5q-58.5 137.5 -58.5 300t55.5 292t153.5 224.5q210 202 527 202q315 0 516 -199q204 -202 204 -524q0 -321 -209 -528q-131 -128 -322 -177q-95 -24 -220.5 -24t-257.5 51.5t-231 148t-157.5 234zM844 1360q-55 0 -103 -8v-1290q46 -8 103 -8q267 0 450 178
q191 185 191 478q0 279 -179 464q-181 186 -462 186zM1216.5 1564.5q-47.5 -34.5 -108.5 -34.5t-93 10t-55 27q-48 35 -48 90q0 87 98 116q34 10 78 10t76.5 -10.5t54.5 -28.5q45 -37 45 -91t-47.5 -88.5zM714 1564.5q-47 -34.5 -108 -34.5t-93 10t-55 27q-49 35 -49 90
q0 87 99 116q33 10 77.5 10t76.5 -10.5t54 -28.5q45 -37 45 -91t-47 -88.5z" />
    <glyph glyph-name="multiply" unicode="&#xd7;" horiz-adv-x="884" 
d="M116 853q0 37 41 37q29 0 67 -51q3 -4 12 -14l42 -47q12 -12 23 -22l138 -140l130.5 130.5t53.5 54t14 16.5t25 31q34 42 59 42q44 0 44 -38q0 -30 -43 -63l-38 -33q-21 -18 -50 -49l-144 -143l151 -151q22 -24 34 -34l40 -32q47 -39 51 -53.5t4 -27t-11 -22.5t-27 -10
q-26 0 -49 28t-45 50l-200 201l-198 -199q-25 -26 -47.5 -53t-51.5 -27q-35 0 -35 40q0 32 53 70q10 9 18.5 15.5t16.5 13.5t17 16l176 175l-193 193q-25 24 -40 35q-38 33 -38 61z" />
    <glyph glyph-name="Oslash" unicode="&#xd8;" horiz-adv-x="1673" 
d="M1250 1297q35 55 60 101l44 80q40 73 54 76t29.5 -3.5t19.5 -22.5q6 -26 -18.5 -60t-36.5 -55t-26 -47l-59 -114zM407 -216q-45 27 11 98q8 9 22 32l105 188l56 -65l-97 -178q-43 -74 -63 -79t-34 4zM167.5 414.5q-58.5 137.5 -58.5 300t55.5 292t153.5 224.5
q210 202 527 202q315 0 516 -199q204 -202 204 -524q0 -321 -209 -528q-131 -128 -322 -177q-95 -24 -220.5 -24t-257.5 51.5t-231 148t-157.5 234zM844 1360q-55 0 -103 -8v-1290q46 -8 103 -8q267 0 450 178q191 185 191 478q0 279 -179 464q-181 186 -462 186z" />
    <glyph glyph-name="Ugrave" unicode="&#xd9;" horiz-adv-x="1570" 
d="M1424 1373l-6 -124v-598q0 -296 -170 -481q-174 -189 -462 -189q-308 0 -480 193q-160 177 -160 454v787h511v-1349q77 -11 169.5 -11t188 37t167.5 116q156 170 158 497v542q0 30 -4.5 71t-4.5 56q0 52 49 52q44 0 44 -53zM473 1700h281l117 -284h-154z" />
    <glyph glyph-name="Uacute" unicode="&#xda;" horiz-adv-x="1570" 
d="M1424 1373l-6 -124v-598q0 -296 -170 -481q-174 -189 -462 -189q-308 0 -480 193q-160 177 -160 454v787h511v-1349q77 -11 169.5 -11t188 37t167.5 116q156 170 158 497v542q0 30 -4.5 71t-4.5 56q0 52 49 52q44 0 44 -53zM963 1812h280l-243 -284h-155z" />
    <glyph glyph-name="Ucircumflex" unicode="&#xdb;" horiz-adv-x="1570" 
d="M1424 1373l-6 -124v-598q0 -296 -170 -481q-174 -189 -462 -189q-308 0 -480 193q-160 177 -160 454v787h511v-1349q77 -11 169.5 -11t188 37t167.5 116q156 170 158 497v542q0 30 -4.5 71t-4.5 56q0 52 49 52q44 0 44 -53zM615 1574l-30 -30q-22 -22 -39 -22t-27.5 10.5
t-10.5 24.5q0 26 41 61q13 13 33 30.5t58 55.5l110 110h255l263 -284h-308l-180 214q-125 -126 -141 -144t-24 -26z" />
    <glyph glyph-name="Udieresis" unicode="&#xdc;" horiz-adv-x="1570" 
d="M1424 1373l-6 -124v-598q0 -296 -170 -481q-174 -189 -462 -189q-308 0 -480 193q-160 177 -160 454v787h511v-1349q77 -11 169.5 -11t188 37t167.5 116q156 170 158 497v542q0 30 -4.5 71t-4.5 56q0 52 49 52q44 0 44 -53zM1225.5 1564.5q-47.5 -34.5 -108.5 -34.5
t-93 10t-55 27q-48 35 -48 90q0 87 98 116q34 10 78 10t76.5 -10.5t54.5 -28.5q45 -37 45 -91t-47.5 -88.5zM723 1564.5q-47 -34.5 -108 -34.5t-93 10t-55 27q-49 35 -49 90q0 87 99 116q33 10 77.5 10t76.5 -10.5t54 -28.5q45 -37 45 -91t-47 -88.5z" />
    <glyph glyph-name="Yacute" unicode="&#xdd;" horiz-adv-x="1320" 
d="M482 -11q-43 0 -43 44q0 27 26 59q52 62 99 143l51 91l-594 1089h583l286 -603l256 455q28 52 48 105.5t53 53.5q41 0 41 -41q0 -24 -18 -55l-684 -1220q-11 -20 -18 -33l-17 -36q-26 -52 -69 -52zM921 1812h280l-243 -284h-155z" />
    <glyph glyph-name="Thorn" unicode="&#xde;" horiz-adv-x="1524" 
d="M846 286l89 -4q194 0 323 116q133 118 133 303q0 231 -157 332q-153 98 -456 98h-108v-1131h-510v1415h510v-209q246 -3 303 -11.5t125 -22t144.5 -56.5t126.5 -102q99 -117 99 -289q0 -206 -129 -345q-150 -160 -417 -181q-25 -2 -46 -2q-89 0 -89 49q0 18 16 29t43 11z
" />
    <glyph glyph-name="germandbls" unicode="&#xdf;" horiz-adv-x="1469" 
d="M812 1357q-56 15 -112 15t-112 -17v-1355h-428v936q0 232 150 365q148 132 400 132q148 0 250 -66q102 -67 102 -163q0 -90 -52 -152l-12 -16q-12 -15 -12 -29.5t8.5 -33t28.5 -46t53 -65.5l81 -91q183 -197 213 -336q9 -45 9 -103.5t-27 -125t-80 -117.5
q-117 -113 -315 -113q-103 0 -160 49q-8 7 -17 13.5t-16 13.5q-16 18 -16 36q0 44 41 44q14 0 25 -10l25 -25q59 -52 126 -52q43 0 68 20q46 36 46 67.5t-8.5 57.5t-28.5 58q-38 64 -120 158t-124 147.5t-64 92.5q-34 61 -34 124q0 137 139 230q124 83 138 158q4 22 4 47.5
t-19 56.5t-56.5 55.5t-93.5 39.5z" />
    <glyph glyph-name="agrave" unicode="&#xe0;" horiz-adv-x="1410" 
d="M842 66q-128 -85 -284 -85q-207 0 -332 104q-130 107 -130 297q0 168 129 276q132 109 347 109q144 0 270 -55v275q-91 26 -160.5 26t-117.5 -6t-91 -18q-93 -26 -141 -70q-28 -26 -51 -26t-35 11.5t-12 25.5t5 25.5t19 23.5q30 26 100 52q145 55 291 55q444 0 567 -212
q54 -94 54 -247v-627h-428v66zM842 634q-126 61 -251 61q-20 0 -38 -3v-636q5 -1 11 -1h12q137 0 266 97v482zM506 1479h281l117 -284h-154z" />
    <glyph glyph-name="aacute" unicode="&#xe1;" horiz-adv-x="1410" 
d="M842 66q-128 -85 -284 -85q-207 0 -332 104q-130 107 -130 297q0 168 129 276q132 109 347 109q144 0 270 -55v275q-91 26 -160.5 26t-117.5 -6t-91 -18q-93 -26 -141 -70q-28 -26 -51 -26t-35 11.5t-12 25.5t5 25.5t19 23.5q30 26 100 52q145 55 291 55q444 0 567 -212
q54 -94 54 -247v-627h-428v66zM842 634q-126 61 -251 61q-20 0 -38 -3v-636q5 -1 11 -1h12q137 0 266 97v482zM765 1583h281l-243 -284h-156z" />
    <glyph glyph-name="acircumflex" unicode="&#xe2;" horiz-adv-x="1410" 
d="M842 66q-128 -85 -284 -85q-207 0 -332 104q-130 107 -130 297q0 168 129 276q132 109 347 109q144 0 270 -55v275q-91 26 -160.5 26t-117.5 -6t-91 -18q-93 -26 -141 -70q-28 -26 -51 -26t-35 11.5t-12 25.5t5 25.5t19 23.5q30 26 100 52q145 55 291 55q444 0 567 -212
q54 -94 54 -247v-627h-428v66zM842 634q-126 61 -251 61q-20 0 -38 -3v-636q5 -1 11 -1h12q137 0 266 97v482zM475 1345l-30 -30q-22 -23 -39 -23t-27.5 10.5t-10.5 24.5q0 26 41 61q13 13 33 30.5t58 55.5l110 110h255l263 -284h-308l-180 214q-125 -126 -141 -144t-24 -25
z" />
    <glyph glyph-name="atilde" unicode="&#xe3;" horiz-adv-x="1410" 
d="M842 66q-128 -85 -284 -85q-207 0 -332 104q-130 107 -130 297q0 168 129 276q132 109 347 109q144 0 270 -55v275q-91 26 -160.5 26t-117.5 -6t-91 -18q-93 -26 -141 -70q-28 -26 -51 -26t-35 11.5t-12 25.5t5 25.5t19 23.5q30 26 100 52q145 55 291 55q444 0 567 -212
q54 -94 54 -247v-627h-428v66zM842 634q-126 61 -251 61q-20 0 -38 -3v-636q5 -1 11 -1h12q137 0 266 97v482zM387.5 1192q-12.5 0 -24 13.5t-11.5 46t20 76t55 78.5q78 78 179 78q84 0 190 -83l52 -40q57 -43 75 -43t34.5 25t23 65t13.5 53.5t24 13.5t28.5 -15t11.5 -46.5
t-20 -75t-55 -78.5q-78 -78 -179 -78q-79 0 -187 78l-72 54q-32 25 -47 25t-25.5 -6.5t-20.5 -18.5q-22 -25 -27 -52l-6 -38q-4 -24 -11.5 -28t-20 -4z" />
    <glyph glyph-name="adieresis" unicode="&#xe4;" horiz-adv-x="1410" 
d="M842 66q-128 -85 -284 -85q-207 0 -332 104q-130 107 -130 297q0 168 129 276q132 109 347 109q144 0 270 -55v275q-91 26 -160.5 26t-117.5 -6t-91 -18q-93 -26 -141 -70q-28 -26 -51 -26t-35 11.5t-12 25.5t5 25.5t19 23.5q30 26 100 52q145 55 291 55q444 0 567 -212
q54 -94 54 -247v-627h-428v66zM842 634q-126 61 -251 61q-20 0 -38 -3v-636q5 -1 11 -1h12q137 0 266 97v482zM1100.5 1337.5q-47.5 -34.5 -108.5 -34.5t-93 10t-55 27q-48 35 -48 90q0 87 98 116q34 10 78 10t76.5 -10.5t54.5 -28.5q45 -37 45 -91t-47.5 -88.5zM598 1337.5
q-47 -34.5 -108 -34.5t-93 10t-55 27q-49 35 -49 90q0 87 99 116q33 10 77.5 10t76.5 -10.5t54 -28.5q45 -37 45 -91t-47 -88.5z" />
    <glyph glyph-name="aring" unicode="&#xe5;" horiz-adv-x="1410" 
d="M842 66q-128 -85 -284 -85q-207 0 -332 104q-130 107 -130 297q0 168 129 276q132 109 347 109q144 0 270 -55v275q-91 26 -160.5 26t-117.5 -6t-91 -18q-93 -26 -141 -70q-28 -26 -51 -26t-35 11.5t-12 25.5t5 25.5t19 23.5q30 26 100 52q145 55 291 55q444 0 567 -212
q54 -94 54 -247v-627h-428v66zM842 634q-126 61 -251 61q-20 0 -38 -3v-636q5 -1 11 -1h12q137 0 266 97v482zM720 1284q-66 0 -111 41q-45 42 -45 111q0 100 95 139q29 12 62.5 12t62 -11t49.5 -31q43 -42 43 -109t-45 -110q-44 -42 -111 -42zM689.5 1362q14.5 -6 39.5 -6
t48.5 21.5t23.5 56.5t-22.5 57t-58 22t-58 -22t-22.5 -47t6.5 -39.5t17.5 -25.5t25.5 -17z" />
    <glyph glyph-name="ae" unicode="&#xe6;" horiz-adv-x="2012" 
d="M952 148q-177 -167 -394 -167q-207 0 -332 104q-130 107 -130 297q0 168 129 276q132 109 347 109q127 0 250 -47l1 267q-78 26 -144.5 26t-114.5 -6t-91 -18q-93 -26 -141 -70q-28 -26 -51 -26t-35 11.5t-12 25.5t5 25.5t19 23.5q30 26 100 52q145 55 331 55t375 -75
q133 75 333 75q222 0 373 -135q164 -146 164 -381q0 -34 -4 -72h-661v-429q70 -14 155 -14q175 0 307 119l19 20q9 9 19 22q21 27 44 27q39 0 39 -36q0 -27 -35 -64q-155 -162 -423.5 -162t-441.5 167zM1547 991q-62 22 -148 22t-130 -11v-431h278v420zM822 643
q-117 52 -231 52q-20 0 -38 -3v-636q5 -1 11 -1h12q170 0 326 149q-80 112 -80 350v89z" />
    <glyph glyph-name="ccedilla" unicode="&#xe7;" horiz-adv-x="1128" 
d="M712 -69q216 -4 216 -125q0 -95 -130 -132q-43 -12 -88 -12q-151 0 -220 55q-29 23 -29 43q0 43 40 43q21 0 42.5 -18.5t38.5 -26t38 -12.5q39 -11 99.5 -11t96.5 21.5t36 44t-37.5 39.5t-95 18t-71.5 12t-14 43v69q-250 10 -402 166q-151 155 -151 396q0 236 169 390
q168 152 422 152q145 0 279 -60q102 -44 102 -91q0 -20 -11.5 -30.5t-25.5 -10.5q-21 0 -54 23q-65 62 -193 87q-46 9 -101 9t-95 -8v-941q47 -9 94.5 -9t92 7.5t84.5 21.5q85 30 137 76q37 32 54 32q38 0 38 -34t-62 -81q-129 -86 -299 -94v-52z" />
    <glyph glyph-name="egrave" unicode="&#xe8;" horiz-adv-x="1300" 
d="M1101 243q39 0 39 -36q0 -27 -35 -64q-158 -162 -433 -162q-247 0 -416 149q-175 155 -175 392q0 242 158 398q167 166 444 166q222 0 373 -135q163 -145 163 -381q0 -34 -2 -72h-660v-429q68 -14 153 -14q180 0 307 119q26 26 37 41q23 28 47 28zM834 994
q-65 19 -147 19t-130 -11v-431h277v423zM451 1479h281l117 -284h-154z" />
    <glyph glyph-name="eacute" unicode="&#xe9;" horiz-adv-x="1300" 
d="M1101 243q39 0 39 -36q0 -27 -35 -64q-158 -162 -433 -162q-247 0 -416 149q-175 155 -175 392q0 242 158 398q167 166 444 166q222 0 373 -135q163 -145 163 -381q0 -34 -2 -72h-660v-429q68 -14 153 -14q180 0 307 119q26 26 37 41q23 28 47 28zM834 994
q-65 19 -147 19t-130 -11v-431h277v423zM721 1583h281l-243 -284h-156z" />
    <glyph glyph-name="ecircumflex" unicode="&#xea;" horiz-adv-x="1300" 
d="M1101 243q39 0 39 -36q0 -27 -35 -64q-158 -162 -433 -162q-247 0 -416 149q-175 155 -175 392q0 242 158 398q167 166 444 166q222 0 373 -135q163 -145 163 -381q0 -34 -2 -72h-660v-429q68 -14 153 -14q180 0 307 119q26 26 37 41q23 28 47 28zM834 994
q-65 19 -147 19t-130 -11v-431h277v423zM431 1345l-30 -30q-22 -23 -39 -23t-27.5 10.5t-10.5 24.5q0 26 41 61q13 13 33 30.5t58 55.5l110 110h255l263 -284h-308l-180 214q-125 -126 -141 -144t-24 -25z" />
    <glyph glyph-name="edieresis" unicode="&#xeb;" horiz-adv-x="1300" 
d="M1101 243q39 0 39 -36q0 -27 -35 -64q-158 -162 -433 -162q-247 0 -416 149q-175 155 -175 392q0 242 158 398q167 166 444 166q222 0 373 -135q163 -145 163 -381q0 -34 -2 -72h-660v-429q68 -14 153 -14q180 0 307 119q26 26 37 41q23 28 47 28zM834 994
q-65 19 -147 19t-130 -11v-431h277v423zM1056.5 1337.5q-47.5 -34.5 -108.5 -34.5t-93 10t-55 27q-48 35 -48 90q0 87 98 116q34 10 78 10t76.5 -10.5t54.5 -28.5q45 -37 45 -91t-47.5 -88.5zM554 1337.5q-47 -34.5 -108 -34.5t-93 10t-55 27q-49 35 -49 90q0 87 99 116
q33 10 77.5 10t76.5 -10.5t54 -28.5q45 -37 45 -91t-47 -88.5z" />
    <glyph glyph-name="igrave" unicode="&#xec;" horiz-adv-x="757" 
d="M173 1068h430v-1068h-430v1068zM179 1479h281l117 -284h-154z" />
    <glyph glyph-name="iacute" unicode="&#xed;" horiz-adv-x="757" 
d="M173 1068h430v-1068h-430v1068zM438 1583h281l-243 -284h-156z" />
    <glyph glyph-name="icircumflex" unicode="&#xee;" horiz-adv-x="757" 
d="M173 1068h430v-1068h-430v1068zM149 1345l-30 -30q-22 -23 -39 -23t-27.5 10.5t-10.5 24.5q0 26 41 61q13 13 33 30.5t58 55.5l110 110h255l263 -284h-308l-180 214q-125 -126 -141 -144t-24 -25z" />
    <glyph glyph-name="idieresis" unicode="&#xef;" horiz-adv-x="757" 
d="M173 1068h430v-1068h-430v1068zM774.5 1337.5q-47.5 -34.5 -108.5 -34.5t-93 10t-55 27q-48 35 -48 90q0 87 98 116q34 10 78 10t76.5 -10.5t54.5 -28.5q45 -37 45 -91t-47.5 -88.5zM272 1337.5q-47 -34.5 -108 -34.5t-93 10t-55 27q-49 35 -49 90q0 87 99 116
q33 10 77.5 10t76.5 -10.5t54 -28.5q45 -37 45 -91t-47 -88.5z" />
    <glyph glyph-name="eth" unicode="&#xf0;" horiz-adv-x="1298" 
d="M875 1642q37 0 39 -33q0 -23 -40 -60l-73 -72q192 -134 305 -363q116 -237 118 -510q0 -215 -90 -366q-154 -257 -479 -257q-256 0 -415 157q-156 155 -156 403q0 230 154 383q164 162 428 162q268 0 420 -195q26 -34 47 -77q-49 283 -247 500q-61 68 -131 117l-56 -57
q-22 -22 -35 -40q-26 -35 -45 -35t-31 11.5t-12 27.5q0 32 78 93q21 16 42 37q-113 62 -196 62q-10 0 -23 -1q-89 0 -89 49q0 46 76 36q148 -21 277 -98l55 59q22 24 33 39q22 28 46 28zM841.5 977q-87.5 36 -155 36t-99.5 -4v-948q36 -6 110.5 -6t162.5 35.5t150 101.5
q131 136 135 366q-4 185 -149 321q-67 62 -154.5 98z" />
    <glyph glyph-name="ntilde" unicode="&#xf1;" horiz-adv-x="1497" 
d="M913 959q-25 16 -54 16t-60 -13.5t-65 -37.5q-71 -51 -131 -136v-788h-430v1068h430v-171q171 189 387 189q353 0 353 -342v-744h-430v959zM430.5 1192q-12.5 0 -24 13.5t-11.5 46t20 76t55 78.5q78 78 179 78q84 0 190 -83l52 -40q57 -43 75 -43t34.5 25t23 65
t13.5 53.5t24 13.5t28.5 -15t11.5 -46.5t-20 -75t-55 -78.5q-78 -78 -179 -78q-79 0 -187 78l-72 54q-32 25 -47 25t-25.5 -6.5t-20.5 -18.5q-22 -25 -27 -52l-6 -38q-4 -24 -11.5 -28t-20 -4z" />
    <glyph glyph-name="ograve" unicode="&#xf2;" horiz-adv-x="1303" 
d="M81 540q0 120 43.5 218.5t119.5 171.5q164 156 412 156q253 0 412 -162q152 -153 152 -387q0 -235 -156 -393q-161 -163 -412 -163q-245 0 -406 155q-165 160 -165 404zM624 56q8 -1 16 -1h14q202 0 339 125q146 135 146 354q0 214 -137 347q-135 132 -349 132h-15
q-7 0 -14 -1v-956zM452 1479h281l117 -284h-154z" />
    <glyph glyph-name="oacute" unicode="&#xf3;" horiz-adv-x="1303" 
d="M81 540q0 120 43.5 218.5t119.5 171.5q164 156 412 156q253 0 412 -162q152 -153 152 -387q0 -235 -156 -393q-161 -163 -412 -163q-245 0 -406 155q-165 160 -165 404zM624 56q8 -1 16 -1h14q202 0 339 125q146 135 146 354q0 214 -137 347q-135 132 -349 132h-15
q-7 0 -14 -1v-956zM688 1583h281l-243 -284h-156z" />
    <glyph glyph-name="ocircumflex" unicode="&#xf4;" horiz-adv-x="1303" 
d="M81 540q0 120 43.5 218.5t119.5 171.5q164 156 412 156q253 0 412 -162q152 -153 152 -387q0 -235 -156 -393q-161 -163 -412 -163q-245 0 -406 155q-165 160 -165 404zM624 56q8 -1 16 -1h14q202 0 339 125q146 135 146 354q0 214 -137 347q-135 132 -349 132h-15
q-7 0 -14 -1v-956zM398 1345l-30 -30q-22 -23 -39 -23t-27.5 10.5t-10.5 24.5q0 26 41 61q13 13 33 30.5t58 55.5l110 110h255l263 -284h-308l-180 214q-125 -126 -141 -144t-24 -25z" />
    <glyph glyph-name="otilde" unicode="&#xf5;" horiz-adv-x="1303" 
d="M81 540q0 120 43.5 218.5t119.5 171.5q164 156 412 156q253 0 412 -162q152 -153 152 -387q0 -235 -156 -393q-161 -163 -412 -163q-245 0 -406 155q-165 160 -165 404zM624 56q8 -1 16 -1h14q202 0 339 125q146 135 146 354q0 214 -137 347q-135 132 -349 132h-15
q-7 0 -14 -1v-956zM333.5 1192q-12.5 0 -24 13.5t-11.5 46t20 76t55 78.5q78 78 179 78q84 0 190 -83l52 -40q57 -43 75 -43t34.5 25t23 65t13.5 53.5t24 13.5t28.5 -15t11.5 -46.5t-20 -75t-55 -78.5q-78 -78 -179 -78q-79 0 -187 78l-72 54q-32 25 -47 25t-25.5 -6.5
t-20.5 -18.5q-22 -25 -27 -52l-6 -38q-4 -24 -11.5 -28t-20 -4z" />
    <glyph glyph-name="odieresis" unicode="&#xf6;" horiz-adv-x="1303" 
d="M81 540q0 120 43.5 218.5t119.5 171.5q164 156 412 156q253 0 412 -162q152 -153 152 -387q0 -235 -156 -393q-161 -163 -412 -163q-245 0 -406 155q-165 160 -165 404zM624 56q8 -1 16 -1h14q202 0 339 125q146 135 146 354q0 214 -137 347q-135 132 -349 132h-15
q-7 0 -14 -1v-956zM1023.5 1337.5q-47.5 -34.5 -108.5 -34.5t-93 10t-55 27q-48 35 -48 90q0 87 98 116q34 10 78 10t76.5 -10.5t54.5 -28.5q45 -37 45 -91t-47.5 -88.5zM521 1337.5q-47 -34.5 -108 -34.5t-93 10t-55 27q-49 35 -49 90q0 87 99 116q33 10 77.5 10
t76.5 -10.5t54 -28.5q45 -37 45 -91t-47 -88.5z" />
    <glyph glyph-name="divide" unicode="&#xf7;" horiz-adv-x="1025" 
d="M498 728q-53 0 -95.5 15.5t-71.5 44.5q-59 57 -59 155q0 80 66 140q69 62 169 62q106 0 171 -69q60 -63 60 -148t-68 -142q-69 -58 -172 -58zM306 528l-147 -7q-28 0 -45 12.5t-17 32.5q0 43 59 43q12 0 46 -4t96 -4h403l129 8h17q24 0 40.5 -12t16.5 -31.5t-17.5 -31.5
t-43.5 -12l-148 6h-389zM287 118q-15 40 -15 83.5t17.5 80t48.5 64.5q69 62 169 62q106 0 171 -69q60 -63 60 -148t-68 -142q-69 -58 -169 -58q-166 0 -214 127z" />
    <glyph glyph-name="oslash" unicode="&#xf8;" horiz-adv-x="1303" 
d="M426.5 1044.5q105.5 41.5 233.5 41.5t241 -48q33 53 57 98l42 76q37 69 51.5 72t30 -3.5t19.5 -22.5q6 -26 -22.5 -65.5t-52.5 -88.5l-54 -103q180 -110 232 -323q16 -68 16 -162t-40.5 -195t-115.5 -177q-161 -163 -412 -163q-133 0 -245 49l-95 -173q-41 -72 -61 -78
q-42 -8 -50.5 24.5t27.5 78.5q8 9 22 32l82 148l3 5q-182 113 -236 327q-18 71 -18 168.5t43.5 196t120 171.5t182 114.5zM624 56q8 -1 16 -1h14q202 0 339 125q146 135 146 354q0 214 -137 347q-135 132 -349 132h-15q-7 0 -14 -1v-956z" />
    <glyph glyph-name="ugrave" unicode="&#xf9;" horiz-adv-x="1494" 
d="M523 -19q-351 0 -351 343v744h428v-979q10 -5 25 -5h33q80 0 190 108q33 33 62 72v804h430v-1068h-430v154q-163 -173 -387 -173zM548 1479h281l117 -284h-154z" />
    <glyph glyph-name="uacute" unicode="&#xfa;" horiz-adv-x="1494" 
d="M523 -19q-351 0 -351 343v744h428v-979q10 -5 25 -5h33q80 0 190 108q33 33 62 72v804h430v-1068h-430v154q-163 -173 -387 -173zM795 1583h281l-243 -284h-156z" />
    <glyph glyph-name="ucircumflex" unicode="&#xfb;" horiz-adv-x="1494" 
d="M523 -19q-351 0 -351 343v744h428v-979q10 -5 25 -5h33q80 0 190 108q33 33 62 72v804h430v-1068h-430v154q-163 -173 -387 -173zM505 1345l-30 -30q-22 -23 -39 -23t-27.5 10.5t-10.5 24.5q0 26 41 61q13 13 33 30.5t58 55.5l110 110h255l263 -284h-308l-180 214
q-125 -126 -141 -144t-24 -25z" />
    <glyph glyph-name="udieresis" unicode="&#xfc;" horiz-adv-x="1494" 
d="M523 -19q-351 0 -351 343v744h428v-979q10 -5 25 -5h33q80 0 190 108q33 33 62 72v804h430v-1068h-430v154q-163 -173 -387 -173zM1130.5 1337.5q-47.5 -34.5 -108.5 -34.5t-93 10t-55 27q-48 35 -48 90q0 87 98 116q34 10 78 10t76.5 -10.5t54.5 -28.5q45 -37 45 -91
t-47.5 -88.5zM628 1337.5q-47 -34.5 -108 -34.5t-93 10t-55 27q-49 35 -49 90q0 87 99 116q33 10 77.5 10t76.5 -10.5t54 -28.5q45 -37 45 -91t-47 -88.5z" />
    <glyph glyph-name="yacute" unicode="&#xfd;" horiz-adv-x="1069" 
d="M359 -236q61 19 85 49q34 40 82 144l23 53l-545 1058h455l284 -604l164 383q45 105 59 160t27.5 67t33 12t30.5 -12t11 -24t-2.5 -25.5t-10 -36t-21.5 -56.5l-415 -962q-74 -174 -142 -245q-58 -63 -117.5 -63t-59.5 41.5t59 60.5zM620 1583h281l-243 -284h-156z" />
    <glyph glyph-name="thorn" unicode="&#xfe;" horiz-adv-x="1511" 
d="M853 -19q-140 0 -270 63v-364h-410v1735h410v-402q131 73 267.5 73t242 -41t179.5 -113q156 -152 156 -389q0 -240 -152 -397q-158 -165 -423 -165zM848 1013q-145 0 -265 -81v-804q132 -73 293 -73q28 0 50 2v950q-38 6 -78 6z" />
    <glyph glyph-name="ydieresis" unicode="&#xff;" horiz-adv-x="1069" 
d="M359 -236q61 19 85 49q34 40 82 144l23 53l-545 1058h455l284 -604l164 383q45 105 59 160t27.5 67t33 12t30.5 -12t11 -24t-2.5 -25.5t-10 -36t-21.5 -56.5l-415 -962q-74 -174 -142 -245q-58 -63 -117.5 -63t-59.5 41.5t59 60.5zM955.5 1337.5
q-47.5 -34.5 -108.5 -34.5t-93 10t-55 27q-48 35 -48 90q0 87 98 116q34 10 78 10t76.5 -10.5t54.5 -28.5q45 -37 45 -91t-47.5 -88.5zM453 1337.5q-47 -34.5 -108 -34.5t-93 10t-55 27q-49 35 -49 90q0 87 99 116q33 10 77.5 10t76.5 -10.5t54 -28.5q45 -37 45 -91
t-47 -88.5z" />
    <glyph glyph-name="Amacron" unicode="&#x100;" horiz-adv-x="1355" 
d="M427 178q-183 0 -250 3l-29 -69q-13 -29 -24 -61q-23 -62 -64 -62q-19 0 -31 12t-12 25q0 22 19 49q30 42 59 110q-86 8 -86 50t49 42q30 0 70 -10l499 1212l684 -1479h-521l-83 178h-280zM209 259q96 -8 172 -8h293l-250 539zM502 1721l-150 -9q-24 0 -40.5 13.5
t-16.5 32.5t15.5 31t41.5 12l142 -8h307l159 8q56 0 56 -44q0 -18 -15.5 -31t-44.5 -13l-143 8h-311z" />
    <glyph glyph-name="amacron" unicode="&#x101;" horiz-adv-x="1410" 
d="M842 66q-128 -85 -284 -85q-207 0 -332 104q-130 107 -130 297q0 168 129 276q132 109 347 109q144 0 270 -55v275q-91 26 -160.5 26t-117.5 -6t-91 -18q-93 -26 -141 -70q-28 -26 -51 -26t-35 11.5t-12 25.5t5 25.5t19 23.5q30 26 100 52q145 55 291 55q444 0 567 -212
q54 -94 54 -247v-627h-428v66zM842 634q-126 61 -251 61q-20 0 -38 -3v-636q5 -1 11 -1h12q137 0 266 97v482zM571 1258l-150 -9q-24 0 -40.5 13.5t-16.5 32.5t15.5 31t41.5 12l142 -8h307l159 8q56 0 56 -44q0 -18 -15.5 -31t-44.5 -13l-143 8h-311z" />
    <glyph glyph-name="Abreve" unicode="&#x102;" horiz-adv-x="1355" 
d="M427 178q-183 0 -250 3l-29 -69q-13 -29 -24 -61q-23 -62 -64 -62q-19 0 -31 12t-12 25q0 22 19 49q30 42 59 110q-86 8 -86 50t49 42q30 0 70 -10l499 1212l684 -1479h-521l-83 178h-280zM209 259q96 -8 172 -8h293l-250 539zM877 1823q41 0 41 -50t-19 -94t-53 -77
q-76 -72 -192 -72q-117 0 -192 70q-75 69 -75 172q0 23 12 37t31 14q40 0 48 -68q8 -66 58.5 -109t103 -43t84 11.5t54.5 32.5q49 42 53.5 109t45.5 67z" />
    <glyph glyph-name="abreve" unicode="&#x103;" horiz-adv-x="1410" 
d="M842 66q-128 -85 -284 -85q-207 0 -332 104q-130 107 -130 297q0 168 129 276q132 109 347 109q144 0 270 -55v275q-91 26 -160.5 26t-117.5 -6t-91 -18q-93 -26 -141 -70q-28 -26 -51 -26t-35 11.5t-12 25.5t5 25.5t19 23.5q30 26 100 52q145 55 291 55q444 0 567 -212
q54 -94 54 -247v-627h-428v66zM842 634q-126 61 -251 61q-20 0 -38 -3v-636q5 -1 11 -1h12q137 0 266 97v482zM946 1525q41 0 41 -50t-19 -94t-53 -77q-76 -72 -192 -72q-117 0 -192 70q-75 69 -75 172q0 23 12 37t31 14q40 0 48 -68q8 -66 58.5 -109t103 -43t84 11.5
t54.5 31.5q49 43 53.5 110t45.5 67z" />
    <glyph glyph-name="Aogonek" unicode="&#x104;" horiz-adv-x="1355" 
d="M427 178q-183 0 -250 3l-29 -69q-13 -29 -24 -61q-23 -62 -64 -62q-19 0 -31 12t-12 25q0 22 19 49q30 42 59 110q-86 8 -86 50t49 42q30 0 70 -10l499 1212l684 -1479h-203q-65 -32 -82 -130q-5 -25 -5 -44.5t7.5 -40t21.5 -36.5q33 -36 76 -36q73 0 108 40
q20 23 29.5 29t23.5 6t23 -11t9 -26.5t-13.5 -35.5t-37.5 -37q-57 -39 -118.5 -39t-96.5 13.5t-59 37.5q-51 48 -51 121q0 81 43 153q14 24 32 36h-228l-83 178h-280zM209 259q96 -8 172 -8h293l-250 539z" />
    <glyph glyph-name="aogonek" unicode="&#x105;" horiz-adv-x="1410" 
d="M842 66q-128 -85 -284 -85q-207 0 -332 104q-130 107 -130 297q0 168 129 276q132 109 347 109q144 0 270 -55v275q-91 26 -160.5 26t-117.5 -6t-91 -18q-93 -26 -141 -70q-28 -26 -51 -26t-35 11.5t-12 25.5t5 25.5t19 23.5q30 26 100 52q145 55 291 55q444 0 567 -212
q54 -94 54 -247v-627h-183q-44 -32 -74 -80.5t-30 -86t6 -56.5t19 -33q27 -31 70 -31q73 0 108 40q20 23 29.5 29t23.5 6t23 -11t9 -26.5t-13.5 -35.5t-37.5 -37q-57 -39 -118.5 -39t-96.5 13.5t-59 37.5q-51 48 -51 121q0 117 96 189h-149v66zM842 634q-126 61 -251 61
q-20 0 -38 -3v-636q5 -1 11 -1h12q137 0 266 97v482z" />
    <glyph glyph-name="Cacute" unicode="&#x106;" horiz-adv-x="1436" 
d="M1324 237q41 0 41 -46q0 -38 -58 -76q-108 -71 -182 -93q-139 -41 -292 -41t-294.5 54.5t-241.5 152.5q-209 206 -209 532q0 157 59 288.5t163 225.5q220 199 553 199q187 0 329 -64q151 -67 151 -114q0 -19 -12.5 -33t-28.5 -14q-32 0 -58 28.5t-70.5 51.5t-97.5 40
q-108 33 -196.5 33t-146.5 -12v-1282q70 -12 124 -12t110 7t110 23q121 36 182 106q22 26 35 36t30 10zM977 1812h280l-243 -284h-155z" />
    <glyph glyph-name="cacute" unicode="&#x107;" horiz-adv-x="1128" 
d="M573 64q47 -9 94.5 -9t92 7.5t84.5 21.5q85 30 137 76q37 32 54 32q38 0 38 -34t-62 -81q-144 -96 -346 -96q-263 0 -425 158q-159 156 -159 405q0 236 169 390q168 152 422 152q145 0 279 -60q102 -44 102 -91q0 -20 -11.5 -30.5t-25.5 -10.5q-21 0 -54 23
q-65 62 -193 87q-46 9 -101 9t-95 -8v-941zM703 1482h281l-243 -284h-156z" />
    <glyph glyph-name="Ccircumflex" unicode="&#x108;" horiz-adv-x="1436" 
d="M1324 237q41 0 41 -46q0 -38 -58 -76q-108 -71 -182 -93q-139 -41 -292 -41t-294.5 54.5t-241.5 152.5q-209 206 -209 532q0 157 59 288.5t163 225.5q220 199 553 199q187 0 329 -64q151 -67 151 -114q0 -19 -12.5 -33t-28.5 -14q-32 0 -58 28.5t-70.5 51.5t-97.5 40
q-108 33 -196.5 33t-146.5 -12v-1282q70 -12 124 -12t110 7t110 23q121 36 182 106q22 26 35 36t30 10zM629 1574l-30 -30q-22 -22 -39 -22t-27.5 10.5t-10.5 24.5q0 26 41 61q13 13 33 30.5t58 55.5l110 110h255l263 -284h-308l-180 214q-125 -126 -141 -144t-24 -26z" />
    <glyph glyph-name="ccircumflex" unicode="&#x109;" horiz-adv-x="1128" 
d="M573 64q47 -9 94.5 -9t92 7.5t84.5 21.5q85 30 137 76q37 32 54 32q38 0 38 -34t-62 -81q-144 -96 -346 -96q-263 0 -425 158q-159 156 -159 405q0 236 169 390q168 152 422 152q145 0 279 -60q102 -44 102 -91q0 -20 -11.5 -30.5t-25.5 -10.5q-21 0 -54 23
q-65 62 -193 87q-46 9 -101 9t-95 -8v-941zM413 1244l-30 -30q-22 -23 -39 -23t-27.5 10.5t-10.5 24.5q0 26 41 61q13 13 33 30.5t58 55.5l110 110h255l263 -284h-308l-180 214q-125 -126 -141 -144t-24 -25z" />
    <glyph glyph-name="Cdotaccent" unicode="&#x10a;" horiz-adv-x="1436" 
d="M1324 237q41 0 41 -46q0 -38 -58 -76q-108 -71 -182 -93q-139 -41 -292 -41t-294.5 54.5t-241.5 152.5q-209 206 -209 532q0 157 59 288.5t163 225.5q220 199 553 199q187 0 329 -64q151 -67 151 -114q0 -19 -12.5 -33t-28.5 -14q-32 0 -58 28.5t-70.5 51.5t-97.5 40
q-108 33 -196.5 33t-146.5 -12v-1282q70 -12 124 -12t110 7t110 23q121 36 182 106q22 26 35 36t30 10zM691.5 1558.5q-59.5 49.5 -59.5 128.5q0 67 66 117q68 50 171 50q104 0 171 -58q59 -51 59 -121t-68 -117q-69 -49 -174.5 -49t-165 49.5z" />
    <glyph glyph-name="cdotaccent" unicode="&#x10b;" horiz-adv-x="1128" 
d="M573 64q47 -9 94.5 -9t92 7.5t84.5 21.5q85 30 137 76q37 32 54 32q38 0 38 -34t-62 -81q-144 -96 -346 -96q-263 0 -425 158q-159 156 -159 405q0 236 169 390q168 152 422 152q145 0 279 -60q102 -44 102 -91q0 -20 -11.5 -30.5t-25.5 -10.5q-21 0 -54 23
q-65 62 -193 87q-46 9 -101 9t-95 -8v-941zM495 1289q-58 46 -58 121q0 63 64 108q68 48 144 48t117.5 -15t70.5 -39q58 -49 58 -114t-66 -110t-169 -45t-161 46z" />
    <glyph glyph-name="Ccaron" unicode="&#x10c;" horiz-adv-x="1436" 
d="M1324 237q41 0 41 -46q0 -38 -58 -76q-108 -71 -182 -93q-139 -41 -292 -41t-294.5 54.5t-241.5 152.5q-209 206 -209 532q0 157 59 288.5t163 225.5q220 199 553 199q187 0 329 -64q151 -67 151 -114q0 -19 -12.5 -33t-28.5 -14q-32 0 -58 28.5t-70.5 51.5t-97.5 40
q-108 33 -196.5 33t-146.5 -12v-1282q70 -12 124 -12t110 7t110 23q121 36 182 106q22 26 35 36t30 10zM1211 1823q39 0 39 -37q0 -27 -40 -59l-92 -85l-110 -111h-256l-262 284h309l180 -214l179 184q32 38 53 38z" />
    <glyph glyph-name="ccaron" unicode="&#x10d;" horiz-adv-x="1128" 
d="M573 64q47 -9 94.5 -9t92 7.5t84.5 21.5q85 30 137 76q37 32 54 32q38 0 38 -34t-62 -81q-144 -96 -346 -96q-263 0 -425 158q-159 156 -159 405q0 236 169 390q168 152 422 152q145 0 279 -60q102 -44 102 -91q0 -20 -11.5 -30.5t-25.5 -10.5q-21 0 -54 23
q-65 62 -193 87q-46 9 -101 9t-95 -8v-941zM958 1494q39 0 39 -37q0 -27 -40 -59l-92 -85l-110 -111h-256l-262 284h309l180 -214l179 184q32 38 53 38z" />
    <glyph glyph-name="Dcaron" unicode="&#x10e;" horiz-adv-x="1578" 
d="M177 1415h416q291 0 427 -41q155 -48 239.5 -123t132.5 -155q98 -163 98 -370q0 -326 -234 -528q-166 -145 -391 -179q-125 -19 -350 -19h-338v1415zM687 83q16 -1 29 -1h23q271 0 463 169q203 178 203 473q0 186 -89 335q-129 217 -408 263q-91 15 -221 17v-1256z
M1098 1823q39 0 39 -37q0 -27 -40 -59l-92 -85l-110 -111h-256l-262 284h309l180 -214l179 184q32 38 53 38z" />
    <glyph glyph-name="dcaron" unicode="&#x10f;" horiz-adv-x="1872" 
d="M930 55q-125 -74 -264.5 -74t-245 41.5t-180.5 115.5q-156 155 -156 403q0 230 154 383q164 162 428 162q140 0 264 -61v390h412v-1415h-412v55zM646 1013q-31 0 -59 -4v-948q36 -6 78 -6q139 0 265 88v793q-135 77 -284 77zM1633 1434q195 0 195 -241q0 -248 -128 -349
q-35 -27 -69 -27q-47 0 -47 44q0 16 11 21l37 16q27 12 43 38l34 52q9 13 10.5 34t3.5 46l-22 -14q-30 -20 -79 -20t-83 17.5t-55 46.5q-40 54 -40 115t11.5 97.5t34.5 63.5q50 60 143 60z" />
    <glyph glyph-name="Dcroat" unicode="&#x110;" horiz-adv-x="1578" 
d="M44 774l133 -8v649h416q291 0 427 -41q155 -48 239.5 -123t132.5 -155q98 -163 98 -370q0 -326 -234 -528q-166 -145 -391 -179q-125 -19 -350 -19h-338v692q-30 -2 -60 -2l-62 -4q-24 -2 -40.5 12.5t-16.5 33.5t14.5 30.5t31.5 11.5zM687 83q16 -1 29 -1h23
q271 0 463 169q203 178 203 473q0 186 -89 335q-129 217 -408 263q-91 15 -221 17v-573h100q70 0 92 3q38 5 59.5 5t36 -11.5t14.5 -31.5t-14.5 -33t-42.5 -11l-62 3q-44 2 -89 2h-94v-609z" />
    <glyph glyph-name="dcroat" unicode="&#x111;" horiz-adv-x="1496" 
d="M930 55q-125 -74 -264.5 -74t-245 41.5t-180.5 115.5q-156 155 -156 403q0 230 154 383q164 162 428 162q140 0 264 -61v210h-46l-110 -6q-24 0 -39.5 12t-15.5 31q0 44 55 44l143 -9h13v108h412v-103q28 4 56 4q57 0 57 -43.5t-61 -43.5q-4 0 -52 3v-1232h-412v55z
M646 1013q-31 0 -59 -4v-948q36 -6 78 -6q139 0 265 88v793q-135 77 -284 77z" />
    <glyph glyph-name="Emacron" unicode="&#x112;" horiz-adv-x="1196" 
d="M1054 86q51 0 51 -40q0 -18 -22 -32t-76 -14h-847v1415h788l82 3q75 0 75 -44q0 -17 -12.5 -31.5t-28.5 -14.5q-26 0 -55 6q-43 9 -118 9h-221v-305h182l123 5q22 0 37.5 -10.5t15.5 -29.5q0 -42 -56 -42l-43 1q-33 3 -55 3h-204v-892h221q74 0 105 6q37 7 58 7z
M510 1721l-150 -9q-24 0 -40.5 13.5t-16.5 32.5t15.5 31t41.5 12l142 -8h307l159 8q56 0 56 -44q0 -18 -15.5 -31t-44.5 -13l-143 8h-311z" />
    <glyph glyph-name="emacron" unicode="&#x113;" horiz-adv-x="1300" 
d="M1101 243q39 0 39 -36q0 -27 -35 -64q-158 -162 -433 -162q-247 0 -416 149q-175 155 -175 392q0 242 158 398q167 166 444 166q222 0 373 -135q163 -145 163 -381q0 -34 -2 -72h-660v-429q68 -14 153 -14q180 0 307 119q26 26 37 41q23 28 47 28zM834 994
q-65 19 -147 19t-130 -11v-431h277v423zM527 1258l-150 -9q-24 0 -40.5 13.5t-16.5 32.5t15.5 31t41.5 12l142 -8h307l159 8q56 0 56 -44q0 -18 -15.5 -31t-44.5 -13l-143 8h-311z" />
    <glyph glyph-name="Ebreve" unicode="&#x114;" horiz-adv-x="1196" 
d="M1054 86q51 0 51 -40q0 -18 -22 -32t-76 -14h-847v1415h788l82 3q75 0 75 -44q0 -17 -12.5 -31.5t-28.5 -14.5q-26 0 -55 6q-43 9 -118 9h-221v-305h182l123 5q22 0 37.5 -10.5t15.5 -29.5q0 -42 -56 -42l-43 1q-33 3 -55 3h-204v-892h221q74 0 105 6q37 7 58 7z
M885 1823q41 0 41 -50t-19 -94t-53 -77q-76 -72 -192 -72q-117 0 -192 70q-75 69 -75 172q0 23 12 37t31 14q40 0 48 -68q8 -66 58.5 -109t103 -43t84 11.5t54.5 32.5q49 42 53.5 109t45.5 67z" />
    <glyph glyph-name="ebreve" unicode="&#x115;" horiz-adv-x="1300" 
d="M1101 243q39 0 39 -36q0 -27 -35 -64q-158 -162 -433 -162q-247 0 -416 149q-175 155 -175 392q0 242 158 398q167 166 444 166q222 0 373 -135q163 -145 163 -381q0 -34 -2 -72h-660v-429q68 -14 153 -14q180 0 307 119q26 26 37 41q23 28 47 28zM834 994
q-65 19 -147 19t-130 -11v-431h277v423zM902 1525q41 0 41 -50t-19 -94t-53 -77q-76 -72 -192 -72q-117 0 -192 70q-75 69 -75 172q0 23 12 37t31 14q40 0 48 -68q8 -66 58.5 -109t103 -43t84 11.5t54.5 31.5q49 43 53.5 110t45.5 67z" />
    <glyph glyph-name="Edotaccent" unicode="&#x116;" horiz-adv-x="1196" 
d="M1054 86q51 0 51 -40q0 -18 -22 -32t-76 -14h-847v1415h788l82 3q75 0 75 -44q0 -17 -12.5 -31.5t-28.5 -14.5q-26 0 -55 6q-43 9 -118 9h-221v-305h182l123 5q22 0 37.5 -10.5t15.5 -29.5q0 -42 -56 -42l-43 1q-33 3 -55 3h-204v-892h221q74 0 105 6q37 7 58 7z
M489.5 1558.5q-59.5 49.5 -59.5 128.5q0 67 66 117q68 50 171 50q104 0 171 -58q59 -51 59 -121t-68 -117q-69 -49 -174.5 -49t-165 49.5z" />
    <glyph glyph-name="edotaccent" unicode="&#x117;" horiz-adv-x="1300" 
d="M1101 243q39 0 39 -36q0 -27 -35 -64q-158 -162 -433 -162q-247 0 -416 149q-175 155 -175 392q0 242 158 398q167 166 444 166q222 0 373 -135q163 -145 163 -381q0 -34 -2 -72h-660v-429q68 -14 153 -14q180 0 307 119q26 26 37 41q23 28 47 28zM834 994
q-65 19 -147 19t-130 -11v-431h277v423zM513 1289q-58 46 -58 121q0 63 64 108q68 48 144 48t117.5 -15t70.5 -39q58 -49 58 -114t-66 -110t-169 -45t-161 46z" />
    <glyph glyph-name="Eogonek" unicode="&#x118;" horiz-adv-x="1196" 
d="M739 -189q0 150 58 189h-637v1415h788l82 3q75 0 75 -44q0 -17 -12.5 -31.5t-28.5 -14.5q-26 0 -55 6q-43 9 -118 9h-221v-305h182l123 5q22 0 37.5 -10.5t15.5 -29.5q0 -42 -56 -42l-43 1q-33 3 -55 3h-204v-892h221q74 0 105 6q37 7 58 7q51 0 51 -40q0 -18 -22 -32
t-76 -14h-120q-70 -35 -70 -174q0 -73 65 -103q22 -10 52 -10q61 0 88.5 31.5t37 37.5t23.5 6t23 -11t9 -26.5t-13.5 -35.5t-37.5 -37q-57 -39 -118.5 -39t-96.5 13.5t-59 37.5q-51 48 -51 121z" />
    <glyph glyph-name="eogonek" unicode="&#x119;" horiz-adv-x="1300" 
d="M931 28q-114 -47 -246.5 -47t-240 39t-188.5 110q-175 155 -175 392q0 242 158 398q167 166 444 166q222 0 373 -135q163 -145 163 -381q0 -34 -2 -72h-660v-429q68 -14 153 -14q180 0 307 119q26 26 37 41q23 28 47 28q39 0 39 -36q0 -24 -17 -44l4 3q-59 -61 -108 -138
q-95 -147 -95 -212q0 -70 57 -94q20 -9 51 -9q60 0 87.5 31.5t37 37.5t23.5 6t23 -11t9 -26.5t-13.5 -35.5t-38.5 -37q-56 -39 -117.5 -39t-96.5 13.5t-60 37.5q-50 48 -50 116q0 122 95 222zM834 994q-65 19 -147 19t-130 -11v-431h277v423z" />
    <glyph glyph-name="Ecaron" unicode="&#x11a;" horiz-adv-x="1196" 
d="M1054 86q51 0 51 -40q0 -18 -22 -32t-76 -14h-847v1415h788l82 3q75 0 75 -44q0 -17 -12.5 -31.5t-28.5 -14.5q-26 0 -55 6q-43 9 -118 9h-221v-305h182l123 5q22 0 37.5 -10.5t15.5 -29.5q0 -42 -56 -42l-43 1q-33 3 -55 3h-204v-892h221q74 0 105 6q37 7 58 7z
M1009 1823q39 0 39 -37q0 -27 -40 -59l-92 -85l-110 -111h-256l-262 284h309l180 -214l179 184q32 38 53 38z" />
    <glyph glyph-name="ecaron" unicode="&#x11b;" horiz-adv-x="1300" 
d="M1101 243q39 0 39 -36q0 -27 -35 -64q-158 -162 -433 -162q-247 0 -416 149q-175 155 -175 392q0 242 158 398q167 166 444 166q222 0 373 -135q163 -145 163 -381q0 -34 -2 -72h-660v-429q68 -14 153 -14q180 0 307 119q26 26 37 41q23 28 47 28zM834 994
q-65 19 -147 19t-130 -11v-431h277v423zM976 1494q39 0 39 -37q0 -27 -40 -59l-92 -85l-110 -111h-256l-262 284h309l180 -214l179 184q32 38 53 38z" />
    <glyph glyph-name="Gcircumflex" unicode="&#x11c;" horiz-adv-x="1619" 
d="M1364 73l2 69v158q-141 -235 -416 -299q-87 -20 -202.5 -20t-239 48t-216.5 139q-204 198 -204 521q0 309 216 523q225 221 565 221q172 0 311 -64q85 -38 120 -70.5t35 -52t-12 -33.5t-33.5 -14t-47.5 23q-77 68 -135.5 89t-93.5 30t-63 13q-43 6 -102 6t-109 -10v-1294
q11 -1 22 -1h20q297 0 481 225q63 77 104 182v96l-5 90q0 53 42 53q22 0 34 -14.5t12 -35.5l-6 -83v-372l6 -155q0 -24 -13.5 -38t-31.5 -14q-44 0 -44 46q0 12 4 38zM615 1574l-30 -30q-22 -22 -39 -22t-27.5 10.5t-10.5 24.5q0 26 41 61q13 13 33 30.5t58 55.5l110 110
h255l263 -284h-308l-180 214q-125 -126 -141 -144t-24 -26z" />
    <glyph glyph-name="gcircumflex" unicode="&#x11d;" horiz-adv-x="1194" 
d="M391 326q-89 -27 -89 -59q0 -31 52 -43q101 -24 278 -28.5t266.5 -27t142.5 -56.5q96 -63 96 -167q0 -130 -129 -211q-143 -89 -403 -89q-269 0 -444 80q-63 31 -63 70q0 17 12.5 27t26.5 10q17 0 39 -13q51 -29 94.5 -48.5t136.5 -37.5t179.5 -18t141 7.5t90.5 17.5
q71 21 71 47q0 24 -14 35t-36.5 19.5t-62.5 15.5q-82 14 -223 21t-223 27.5t-134 52.5q-101 61 -101 165q0 150 203 243q-93 51 -148 134.5t-55 181t36.5 169t102.5 123.5q139 112 359 112q98 0 197 -30q142 137 263 137q51 0 75.5 -17t24.5 -43t-17 -37.5t-32 -11.5
q-27 0 -46 6q-28 10 -57 10q-54 0 -136 -75q163 -80 213 -230q16 -50 16 -122.5t-42 -144.5t-112 -124q-146 -108 -343 -108q-104 -2 -206 30zM601 369q162 2 279 79q135 88 135 238t-133 242q-122 84 -281 87v-646zM308 1244l-30 -30q-22 -23 -39 -23t-27.5 10.5
t-10.5 24.5q0 26 41 61q13 13 33 30.5t58 55.5l110 110h255l263 -284h-308l-180 214q-125 -126 -141 -144t-24 -25z" />
    <glyph glyph-name="Gbreve" unicode="&#x11e;" horiz-adv-x="1619" 
d="M1364 73l2 69v158q-141 -235 -416 -299q-87 -20 -202.5 -20t-239 48t-216.5 139q-204 198 -204 521q0 309 216 523q225 221 565 221q172 0 311 -64q85 -38 120 -70.5t35 -52t-12 -33.5t-33.5 -14t-47.5 23q-77 68 -135.5 89t-93.5 30t-63 13q-43 6 -102 6t-109 -10v-1294
q11 -1 22 -1h20q297 0 481 225q63 77 104 182v96l-5 90q0 53 42 53q22 0 34 -14.5t12 -35.5l-6 -83v-372l6 -155q0 -24 -13.5 -38t-31.5 -14q-44 0 -44 46q0 12 4 38zM1073 1823q41 0 41 -50t-19 -94t-53 -77q-76 -72 -192 -72q-117 0 -192 70q-75 69 -75 172q0 23 12 37
t31 14q40 0 48 -68q8 -66 58.5 -109t103 -43t84 11.5t54.5 32.5q49 42 53.5 109t45.5 67z" />
    <glyph glyph-name="gbreve" unicode="&#x11f;" horiz-adv-x="1194" 
d="M391 326q-89 -27 -89 -59q0 -31 52 -43q101 -24 278 -28.5t266.5 -27t142.5 -56.5q96 -63 96 -167q0 -130 -129 -211q-143 -89 -403 -89q-269 0 -444 80q-63 31 -63 70q0 17 12.5 27t26.5 10q17 0 39 -13q51 -29 94.5 -48.5t136.5 -37.5t179.5 -18t141 7.5t90.5 17.5
q71 21 71 47q0 24 -14 35t-36.5 19.5t-62.5 15.5q-82 14 -223 21t-223 27.5t-134 52.5q-101 61 -101 165q0 150 203 243q-93 51 -148 134.5t-55 181t36.5 169t102.5 123.5q139 112 359 112q98 0 197 -30q142 137 263 137q51 0 75.5 -17t24.5 -43t-17 -37.5t-32 -11.5
q-27 0 -46 6q-28 10 -57 10q-54 0 -136 -75q163 -80 213 -230q16 -50 16 -122.5t-42 -144.5t-112 -124q-146 -108 -343 -108q-104 -2 -206 30zM601 369q162 2 279 79q135 88 135 238t-133 242q-122 84 -281 87v-646zM779 1525q41 0 41 -50t-19 -94t-53 -77q-76 -72 -192 -72
q-117 0 -192 70q-75 69 -75 172q0 23 12 37t31 14q40 0 48 -68q8 -66 58.5 -109t103 -43t84 11.5t54.5 31.5q49 43 53.5 110t45.5 67z" />
    <glyph glyph-name="Gdotaccent" unicode="&#x120;" horiz-adv-x="1619" 
d="M1364 73l2 69v158q-141 -235 -416 -299q-87 -20 -202.5 -20t-239 48t-216.5 139q-204 198 -204 521q0 309 216 523q225 221 565 221q172 0 311 -64q85 -38 120 -70.5t35 -52t-12 -33.5t-33.5 -14t-47.5 23q-77 68 -135.5 89t-93.5 30t-63 13q-43 6 -102 6t-109 -10v-1294
q11 -1 22 -1h20q297 0 481 225q63 77 104 182v96l-5 90q0 53 42 53q22 0 34 -14.5t12 -35.5l-6 -83v-372l6 -155q0 -24 -13.5 -38t-31.5 -14q-44 0 -44 46q0 12 4 38zM677.5 1558.5q-59.5 49.5 -59.5 128.5q0 67 66 117q68 50 171 50q104 0 171 -58q59 -51 59 -121t-68 -117
q-69 -49 -174.5 -49t-165 49.5z" />
    <glyph glyph-name="gdotaccent" unicode="&#x121;" horiz-adv-x="1194" 
d="M391 326q-89 -27 -89 -59q0 -31 52 -43q101 -24 278 -28.5t266.5 -27t142.5 -56.5q96 -63 96 -167q0 -130 -129 -211q-143 -89 -403 -89q-269 0 -444 80q-63 31 -63 70q0 17 12.5 27t26.5 10q17 0 39 -13q51 -29 94.5 -48.5t136.5 -37.5t179.5 -18t141 7.5t90.5 17.5
q71 21 71 47q0 24 -14 35t-36.5 19.5t-62.5 15.5q-82 14 -223 21t-223 27.5t-134 52.5q-101 61 -101 165q0 150 203 243q-93 51 -148 134.5t-55 181t36.5 169t102.5 123.5q139 112 359 112q98 0 197 -30q142 137 263 137q51 0 75.5 -17t24.5 -43t-17 -37.5t-32 -11.5
q-27 0 -46 6q-28 10 -57 10q-54 0 -136 -75q163 -80 213 -230q16 -50 16 -122.5t-42 -144.5t-112 -124q-146 -108 -343 -108q-104 -2 -206 30zM601 369q162 2 279 79q135 88 135 238t-133 242q-122 84 -281 87v-646zM390 1289q-58 46 -58 121q0 63 64 108q68 48 144 48
t117.5 -15t70.5 -39q58 -49 58 -114t-66 -110t-169 -45t-161 46z" />
    <glyph glyph-name="Gcommaaccent" unicode="&#x122;" horiz-adv-x="1619" 
d="M1364 73l2 69v158q-141 -235 -416 -299q-87 -20 -202.5 -20t-239 48t-216.5 139q-204 198 -204 521q0 309 216 523q225 221 565 221q172 0 311 -64q85 -38 120 -70.5t35 -52t-12 -33.5t-33.5 -14t-47.5 23q-77 68 -135.5 89t-93.5 30t-63 13q-43 6 -102 6t-109 -10v-1294
q11 -1 22 -1h20q297 0 481 225q63 77 104 182v96l-5 90q0 53 42 53q22 0 34 -14.5t12 -35.5l-6 -83v-372l6 -155q0 -24 -13.5 -38t-31.5 -14q-44 0 -44 46q0 12 4 38zM947 -409q-82 -36 -142 -36t-101 12t-69 32q-58 41 -58 104q0 67 64 108.5t170.5 41.5t168.5 -46t62 -132
q0 -119 -92 -208q-64 -62 -85 -73.5t-41 -15.5q-47 -8 -49 34q-1 16 16 28l39 28q92 64 117 123z" />
    <glyph glyph-name="gcommaaccent" unicode="&#x123;" horiz-adv-x="1194" 
d="M391 326q-89 -27 -89 -59q0 -31 52 -43q101 -24 278 -28.5t266.5 -27t142.5 -56.5q96 -63 96 -167q0 -130 -129 -211q-143 -89 -403 -89q-269 0 -444 80q-63 31 -63 70q0 17 12.5 27t26.5 10q17 0 39 -13q51 -29 94.5 -48.5t136.5 -37.5t179.5 -18t141 7.5t90.5 17.5
q71 21 71 47q0 24 -14 35t-36.5 19.5t-62.5 15.5q-82 14 -223 21t-223 27.5t-134 52.5q-101 61 -101 165q0 150 203 243q-93 51 -148 134.5t-55 181t36.5 169t102.5 123.5q139 112 359 112q98 0 197 -30q142 137 263 137q51 0 75.5 -17t24.5 -43t-17 -37.5t-32 -11.5
q-27 0 -46 6q-28 10 -57 10q-54 0 -136 -75q163 -80 213 -230q16 -50 16 -122.5t-42 -144.5t-112 -124q-146 -108 -343 -108q-104 -2 -206 30zM601 369q162 2 279 79q135 88 135 238t-133 242q-122 84 -281 87v-646zM456 1495q82 36 142 36t101 -12t69 -32q58 -41 58 -104
q0 -67 -64 -108.5t-170.5 -41.5t-168.5 46t-62 132q0 119 92 208q64 62 85 73.5t41 15.5q47 8 49 -34q1 -16 -16 -28l-39 -28q-92 -64 -117 -123z" />
    <glyph glyph-name="Hcircumflex" unicode="&#x124;" horiz-adv-x="1461" 
d="M1268 145l3 -102q0 -26 -15 -40t-34.5 -14t-31 13t-11.5 33t5 45q7 31 7 155v730h-503v-965h-511v1415h511v-377h344.5t158.5 1v174q0 87 -3 113l-4 30q-1 14 -1 24q0 46 42 46q15 0 31 -12t16 -40l-4 -128v-203l63 9q18 0 30 -10.5t12 -27.5q0 -39 -62 -44
q-11 -2 -21.5 -2.5t-21.5 -1.5v-821zM532 1574l-30 -30q-22 -22 -39 -22t-27.5 10.5t-10.5 24.5q0 26 41 61q13 13 33 30.5t58 55.5l110 110h255l263 -284h-308l-180 214q-125 -126 -141 -144t-24 -26z" />
    <glyph glyph-name="hcircumflex" unicode="&#x125;" horiz-adv-x="1496" 
d="M990 1086q352 0 352 -342v-744h-430v973q-18 12 -47.5 12t-61.5 -14t-67 -39q-75 -55 -133 -138v-794h-430v1415h430v-516q171 187 387 187zM523 1574l-30 -30q-22 -22 -39 -22t-27.5 10.5t-10.5 24.5q0 26 41 61q13 13 33 30.5t58 55.5l110 110h255l263 -284h-308
l-180 214q-125 -126 -141 -144t-24 -26z" />
    <glyph glyph-name="Hbar" unicode="&#x126;" horiz-adv-x="1461" 
d="M1268 145l3 -102q0 -26 -15 -40t-34.5 -14t-31 13t-11.5 33t5 45q7 31 7 155v447h-503v-682h-511v1068l-124 -9q-24 0 -40.5 13.5t-16.5 32.5t15.5 31t41.5 12l124 -8v275h511v-275h503v73q0 87 -3 113l-4 30q-1 14 -1 24q0 46 42 46q15 0 31 -12t16 -40l-4 -128v-106
l122 8q56 0 56 -44q0 -18 -15.5 -31t-44.5 -13l-118 8v-923zM688 755h344.5t158.5 1v312h-503v-313z" />
    <glyph glyph-name="hbar" unicode="&#x127;" horiz-adv-x="1496" 
d="M50 1199q0 44 62 44q31 0 61 -5v177h430v-180l112 8q56 0 56 -44q0 -18 -15.5 -31t-44.5 -13l-108 7v-263q171 187 387 187q352 0 352 -342v-744h-430v973q-18 12 -47.5 12t-61.5 -14t-67 -39q-75 -55 -133 -138v-794h-430v1158q-32 -4 -61 -4t-45.5 13.5t-16.5 31.5z
" />
    <glyph glyph-name="Itilde" unicode="&#x128;" horiz-adv-x="829" 
d="M160 1415h510v-1415h-510v1415zM114.5 1540q-12.5 0 -24 13.5t-11.5 46t20 76t55 78.5q78 78 179 78q84 0 190 -83l52 -40q57 -43 75 -43t34.5 25t23 65t13.5 53.5t24 13.5t28.5 -15t11.5 -46.5t-20 -75t-55 -78.5q-78 -78 -179 -78q-79 0 -187 78l-72 54q-32 25 -47 25
t-25.5 -6.5t-20.5 -18.5q-22 -25 -27 -52l-6 -38q-4 -24 -11.5 -28t-20 -4z" />
    <glyph glyph-name="itilde" unicode="&#x129;" horiz-adv-x="757" 
d="M173 1068h430v-1068h-430v1068zM62.5 1192q-12.5 0 -24 13.5t-11.5 46t20 76t55 78.5q78 78 179 78q84 0 190 -83l52 -40q57 -43 75 -43t34.5 25t23 65t13.5 53.5t24 13.5t28.5 -15t11.5 -46.5t-20 -75t-55 -78.5q-78 -78 -179 -78q-79 0 -187 78l-72 54q-32 25 -47 25
t-25.5 -6.5t-20.5 -18.5q-22 -25 -27 -52l-6 -38q-4 -24 -11.5 -28t-20 -4z" />
    <glyph glyph-name="Imacron" unicode="&#x12a;" horiz-adv-x="829" 
d="M160 1415h510v-1415h-510v1415zM272 1721l-150 -9q-24 0 -40.5 13.5t-16.5 32.5t15.5 31t41.5 12l142 -8h307l159 8q56 0 56 -44q0 -18 -15.5 -31t-44.5 -13l-143 8h-311z" />
    <glyph glyph-name="imacron" unicode="&#x12b;" horiz-adv-x="757" 
d="M173 1068h430v-1068h-430v1068zM245 1258l-150 -9q-24 0 -40.5 13.5t-16.5 32.5t15.5 31t41.5 12l142 -8h307l159 8q56 0 56 -44q0 -18 -15.5 -31t-44.5 -13l-143 8h-311z" />
    <glyph glyph-name="Ibreve" unicode="&#x12c;" horiz-adv-x="829" 
d="M160 1415h510v-1415h-510v1415zM646 1823q41 0 41 -50t-19 -94t-53 -77q-76 -72 -192 -72q-117 0 -192 70q-75 69 -75 172q0 23 12 37t31 14q40 0 48 -68q8 -66 58.5 -109t103 -43t84 11.5t54.5 32.5q49 42 53.5 109t45.5 67z" />
    <glyph glyph-name="ibreve" unicode="&#x12d;" horiz-adv-x="757" 
d="M173 1068h430v-1068h-430v1068zM619 1525q41 0 41 -50t-19 -94t-53 -77q-76 -72 -192 -72q-117 0 -192 70q-75 69 -75 172q0 23 12 37t31 14q40 0 48 -68q8 -66 58.5 -109t103 -43t84 11.5t54.5 31.5q49 43 53.5 110t45.5 67z" />
    <glyph glyph-name="Iogonek" unicode="&#x12e;" horiz-adv-x="829" 
d="M295 -189q0 117 96 189h-231v1415h510v-1415h-183q-44 -32 -74 -80.5t-30 -86t6 -56.5t19 -33q27 -31 70 -31q73 0 108 40q20 23 29.5 29t23.5 6t23 -11t9 -26.5t-13.5 -35.5t-37.5 -37q-57 -39 -118.5 -39t-96.5 13.5t-59 37.5q-51 48 -51 121z" />
    <glyph glyph-name="iogonek" unicode="&#x12f;" horiz-adv-x="757" 
d="M223 -189q0 117 96 189h-146v1068h430v-1068h-188q-44 -32 -74 -80.5t-30 -86t6 -56.5t19 -33q27 -31 70 -31q73 0 108 40q20 23 29.5 29t23.5 6t23 -11t9 -26.5t-13.5 -35.5t-37.5 -37q-57 -39 -118.5 -39t-96.5 13.5t-59 37.5q-51 48 -51 121zM222 1289q-58 46 -58 121
q0 63 64 108q68 48 144 48t117.5 -15t70.5 -39q58 -49 58 -114t-66 -110t-169 -45t-161 46z" />
    <glyph glyph-name="Idotaccent" unicode="&#x130;" horiz-adv-x="829" 
d="M160 1415h510v-1415h-510v1415zM250.5 1558.5q-59.5 49.5 -59.5 128.5q0 67 66 117q68 50 171 50q104 0 171 -58q59 -51 59 -121t-68 -117q-69 -49 -174.5 -49t-165 49.5z" />
    <glyph glyph-name="dotlessi" unicode="&#x131;" horiz-adv-x="757" 
d="M173 1068h430v-1068h-430v1068z" />
    <glyph glyph-name="IJ" unicode="&#x132;" horiz-adv-x="1969" 
d="M160 1415h510v-1415h-510v1415zM1118 54.5q42 -6.5 83.5 -6.5t79.5 9v1358h511v-881q0 -263 -133 -400q-149 -153 -465 -153q-208 0 -316 95l-17 17q-36 38 -33 66q7 47 42 43q34 -6 53.5 -39t49 -54t66.5 -34.5t79 -20z" />
    <glyph glyph-name="ij" unicode="&#x133;" horiz-adv-x="1558" 
d="M222 1289q-58 46 -58 121q0 63 64 108q68 48 144 48t117.5 -15t70.5 -39q58 -49 58 -114t-66 -110t-169 -45t-161 46zM173 1068h430v-1068h-430v1068zM1023 1289q-58 46 -58 121q0 63 64 108q68 48 144 48t117.5 -15t70.5 -39q58 -49 58 -114t-66 -110t-169 -45t-161 46z
M706 -203q23 0 50.5 -24t44.5 -33q39 -20 90 -20t86 5v1343h428l-1 -962q0 -233 -143 -352q-130 -107 -354 -107q-115 0 -164 24q-81 39 -81 82.5t44 43.5z" />
    <glyph glyph-name="Jcircumflex" unicode="&#x134;" horiz-adv-x="1140" 
d="M293 54.5q42 -6.5 83.5 -6.5t79.5 9v1358h511v-881q0 -263 -133 -400q-149 -153 -465 -153q-208 0 -316 95l-17 17q-36 38 -33 66q7 47 42 43q34 -6 53.5 -39t49 -54t66.5 -34.5t79 -20zM481 1574l-30 -30q-22 -22 -39 -22t-27.5 10.5t-10.5 24.5q0 26 41 61
q13 13 33 30.5t58 55.5l110 110h255l263 -284h-308l-180 214q-125 -126 -141 -144t-24 -26z" />
    <glyph glyph-name="jcircumflex" unicode="&#x135;" horiz-adv-x="801" 
d="M-51 -203q23 0 50.5 -24t44.5 -33q39 -20 90 -20t86 5v1343h428l-1 -962q0 -233 -143 -352q-130 -107 -354 -107q-115 0 -164 24q-81 39 -81 82.5t44 43.5zM183 1244l-30 -30q-22 -23 -39 -23t-27.5 10.5t-10.5 24.5q0 26 41 61q13 13 33 30.5t58 55.5l110 110h255
l263 -284h-308l-180 214q-125 -126 -141 -144t-24 -25z" />
    <glyph glyph-name="Kcommaaccent" unicode="&#x136;" horiz-adv-x="1453" 
d="M177 1415h510v-414l356 269q75 57 109 93t42.5 43.5t15.5 11.5q12 8 30.5 8t29.5 -10.5t11 -23t-3 -21t-12 -19.5q-20 -24 -76 -67l-224 -170l375 -917q11 -26 21 -46l16 -36l18 -34q7 -14 12 -27t4 -25t-7 -22q-14 -22 -34 -22q-28 0 -42 16q-18 22 -27 49l-18 56
q-9 28 -24 67l-363 889l-210 -159v-904h-510v1415zM894 -409q-82 -36 -142 -36t-101 12t-69 32q-58 41 -58 104q0 67 64 108.5t170.5 41.5t168.5 -46t62 -132q0 -119 -92 -208q-64 -62 -85 -73.5t-41 -15.5q-47 -8 -49 34q-1 16 16 28l39 28q92 64 117 123z" />
    <glyph glyph-name="kcommaaccent" unicode="&#x137;" horiz-adv-x="1314" 
d="M173 1415h430v-763l421 305q60 45 96 87t61 42q45 0 45 -37q0 -28 -34 -56l-255 -197l368 -796h-447l-255 564v-564h-430v1415zM837 -415q-82 -36 -142 -36t-101 12t-69 32q-58 41 -58 104q0 67 64 108.5t170.5 41.5t168.5 -46t62 -132q0 -119 -92 -208
q-64 -62 -85 -73.5t-41 -15.5q-47 -8 -49 34q-1 16 16 28l39 28q92 64 117 123z" />
    <glyph glyph-name="kgreenlandic" unicode="&#x138;" horiz-adv-x="1314" 
d="M173 1068h430v-416l421 305q60 45 96 87t61 42q45 0 45 -37q0 -28 -34 -56l-255 -197l368 -796h-447l-255 564v-564h-430v1068z" />
    <glyph glyph-name="Lacute" unicode="&#x139;" horiz-adv-x="1101" 
d="M1034 91q53 0 53 -45q0 -18 -21.5 -32t-76.5 -14h-812v1415h510v-1349h187q63 0 108.5 12.5t51.5 12.5zM543 1812h280l-243 -284h-155z" />
    <glyph glyph-name="lacute" unicode="&#x13a;" horiz-adv-x="757" 
d="M173 1415h430v-1415h-430v1415zM347 1812h280l-243 -284h-155z" />
    <glyph glyph-name="Lcommaaccent" unicode="&#x13b;" horiz-adv-x="1101" 
d="M1034 91q53 0 53 -45q0 -18 -21.5 -32t-76.5 -14h-812v1415h510v-1349h187q63 0 108.5 12.5t51.5 12.5zM688 -409q-82 -36 -142 -36t-101 12t-69 32q-58 41 -58 104q0 67 64 108.5t170.5 41.5t168.5 -46t62 -132q0 -119 -92 -208q-64 -62 -85 -73.5t-41 -15.5
q-47 -8 -49 34q-1 16 16 28l39 28q92 64 117 123z" />
    <glyph glyph-name="lcommaaccent" unicode="&#x13c;" horiz-adv-x="757" 
d="M173 1415h430v-1415h-430v1415zM516 -409q-82 -36 -142 -36t-101 12t-69 32q-58 41 -58 104q0 67 64 108.5t170.5 41.5t168.5 -46t62 -132q0 -119 -92 -208q-64 -62 -85 -73.5t-41 -15.5q-47 -8 -49 34q-1 16 16 28l39 28q92 64 117 123z" />
    <glyph glyph-name="Lcaron" unicode="&#x13d;" horiz-adv-x="1101" 
d="M1034 91q53 0 53 -45q0 -18 -21.5 -32t-76.5 -14h-812v1415h510v-1349h187q63 0 108.5 12.5t51.5 12.5zM969 1434q195 0 195 -241q0 -248 -128 -349q-35 -27 -69 -27q-47 0 -47 44q0 16 11 21l37 16q27 12 43 38l34 52q9 13 10.5 34t3.5 46l-22 -14q-30 -20 -79 -20
t-83 17.5t-55 46.5q-40 54 -40 115t11.5 97.5t34.5 63.5q50 60 143 60z" />
    <glyph glyph-name="lcaron" unicode="&#x13e;" horiz-adv-x="1026" 
d="M173 1415h430v-1415h-430v1415zM870 1434q195 0 195 -241q0 -248 -128 -349q-35 -27 -69 -27q-47 0 -47 44q0 16 11 21l37 16q27 12 43 38l34 52q9 13 10.5 34t3.5 46l-22 -14q-30 -20 -79 -20t-83 17.5t-55 46.5q-40 54 -40 115t11.5 97.5t34.5 63.5q50 60 143 60z" />
    <glyph glyph-name="Ldot" unicode="&#x13f;" horiz-adv-x="1101" 
d="M950 576q-91 0 -141 51t-50 126.5t57.5 127.5t146 52t142 -57t53.5 -129t-58.5 -121.5t-149.5 -49.5zM1034 91q53 0 53 -45q0 -18 -21.5 -32t-76.5 -14h-812v1415h510v-1349h187q63 0 108.5 12.5t51.5 12.5z" />
    <glyph glyph-name="ldot" unicode="&#x140;" horiz-adv-x="1193" 
d="M173 1415h430v-1415h-430v1415zM955 576q-91 0 -141 51t-50 126.5t57.5 127.5t146 52t142 -57t53.5 -129t-58.5 -121.5t-149.5 -49.5z" />
    <glyph glyph-name="Lslash" unicode="&#x141;" horiz-adv-x="1101" 
d="M1034 91q53 0 53 -45q0 -18 -21.5 -32t-76.5 -14h-812v545l-48 -23q-54 -26 -78.5 -26t-37 12.5t-12.5 30.5q0 36 64 56q61 17 112 41v779h510v-515l76 40q104 54 145 54q48 0 48 -42q0 -34 -68 -53q-45 -13 -102 -41l-99 -51v-741h187q63 0 108.5 12.5t51.5 12.5z" />
    <glyph glyph-name="lslash" unicode="&#x142;" horiz-adv-x="757" 
d="M603 877q102 56 147.5 56t45.5 -45q0 -32 -57 -48t-112 -43l-24 -13v-784h-430v563l-57 -29q-60 -29 -86 -29q-52 0 -52 42q0 35 65 56q67 19 130 50v762h430v-538z" />
    <glyph glyph-name="Nacute" unicode="&#x143;" horiz-adv-x="1535" 
d="M267 143l3 -100q0 -26 -14 -40t-33.5 -14t-32.5 13t-13 28.5t2.5 29t4.5 30.5q5 29 5 145v1244l1087 -862v596q0 68 -4 97q-5 47 -5 66q0 50 43 50q17 0 32.5 -12t15.5 -35v-35l-4 -145v-1254l-1087 853v-655zM925 1812h280l-243 -284h-155z" />
    <glyph glyph-name="nacute" unicode="&#x144;" horiz-adv-x="1497" 
d="M913 959q-25 16 -54 16t-60 -13.5t-65 -37.5q-71 -51 -131 -136v-788h-430v1068h430v-171q171 189 387 189q353 0 353 -342v-744h-430v959zM850 1583h281l-243 -284h-156z" />
    <glyph glyph-name="Ncommaaccent" unicode="&#x145;" horiz-adv-x="1535" 
d="M267 143l3 -100q0 -26 -14 -40t-33.5 -14t-32.5 13t-13 28.5t2.5 29t4.5 30.5q5 29 5 145v1244l1087 -862v596q0 68 -4 97q-5 47 -5 66q0 50 43 50q17 0 32.5 -12t15.5 -35v-35l-4 -145v-1254l-1087 853v-655zM959 -409q-82 -36 -142 -36t-101 12t-69 32q-58 41 -58 104
q0 67 64 108.5t170.5 41.5t168.5 -46t62 -132q0 -119 -92 -208q-64 -62 -85 -73.5t-41 -15.5q-47 -8 -49 34q-1 16 16 28l39 28q92 64 117 123z" />
    <glyph glyph-name="ncommaaccent" unicode="&#x146;" horiz-adv-x="1497" 
d="M913 959q-25 16 -54 16t-60 -13.5t-65 -37.5q-71 -51 -131 -136v-788h-430v1068h430v-171q171 189 387 189q353 0 353 -342v-744h-430v959zM886 -409q-82 -36 -142 -36t-101 12t-69 32q-58 41 -58 104q0 67 64 108.5t170.5 41.5t168.5 -46t62 -132q0 -119 -92 -208
q-64 -62 -85 -73.5t-41 -15.5q-47 -8 -49 34q-1 16 16 28l39 28q92 64 117 123z" />
    <glyph glyph-name="Ncaron" unicode="&#x147;" horiz-adv-x="1535" 
d="M267 143l3 -100q0 -26 -14 -40t-33.5 -14t-32.5 13t-13 28.5t2.5 29t4.5 30.5q5 29 5 145v1244l1087 -862v596q0 68 -4 97q-5 47 -5 66q0 50 43 50q17 0 32.5 -12t15.5 -35v-35l-4 -145v-1254l-1087 853v-655zM1159 1823q39 0 39 -37q0 -27 -40 -59l-92 -85l-110 -111
h-256l-262 284h309l180 -214l179 184q32 38 53 38z" />
    <glyph glyph-name="ncaron" unicode="&#x148;" horiz-adv-x="1497" 
d="M913 959q-25 16 -54 16t-60 -13.5t-65 -37.5q-71 -51 -131 -136v-788h-430v1068h430v-171q171 189 387 189q353 0 353 -342v-744h-430v959zM1105 1494q39 0 39 -37q0 -27 -40 -59l-92 -85l-110 -111h-256l-262 284h309l180 -214l179 184q32 38 53 38z" />
    <glyph glyph-name="Eng" unicode="&#x14a;" horiz-adv-x="1535" 
d="M267 143l3 -100q0 -26 -14 -40t-33.5 -14t-32.5 13t-13 28.5t2.5 29t4.5 30.5q5 29 5 145v1244l1087 -862v596q0 68 -4 97q-5 47 -5 66q0 50 43 50q17 0 32.5 -12t15.5 -35v-35l-4 -145v-1254q-2 -270 -86 -402q-105 -163 -352 -163q-196 0 -329 154l-17 17
q-36 38 -33 66q7 47 42 43q34 -6 57 -43q46 -111 180 -155q48 -15 125.5 -15t144.5 31.5t110 95.5q80 120 80 383v49l-1009 792v-655z" />
    <glyph glyph-name="eng" unicode="&#x14b;" horiz-adv-x="1497" 
d="M643 -363q18 0 36 -17l30 -28q42 -41 148 -41q15 0 29 6t28 8l-1 1394q-25 16 -54 16t-60 -13.5t-65 -37.5q-71 -51 -131 -136v-788h-430v1068h430v-171q171 189 387 189q353 0 353 -342v-798q0 -232 -144 -352q-130 -107 -355 -107q-115 0 -164 24q-81 39 -81 82.5
t44 43.5z" />
    <glyph glyph-name="Omacron" unicode="&#x14c;" horiz-adv-x="1673" 
d="M167.5 414.5q-58.5 137.5 -58.5 300t55.5 292t153.5 224.5q210 202 527 202q315 0 516 -199q204 -202 204 -524q0 -321 -209 -528q-131 -128 -322 -177q-95 -24 -220.5 -24t-257.5 51.5t-231 148t-157.5 234zM844 1360q-55 0 -103 -8v-1290q46 -8 103 -8q267 0 450 178
q191 185 191 478q0 279 -179 464q-181 186 -462 186zM689 1721l-150 -9q-24 0 -40.5 13.5t-16.5 32.5t15.5 31t41.5 12l142 -8h307l159 8q56 0 56 -44q0 -18 -15.5 -31t-44.5 -13l-143 8h-311z" />
    <glyph glyph-name="omacron" unicode="&#x14d;" horiz-adv-x="1303" 
d="M81 540q0 120 43.5 218.5t119.5 171.5q164 156 412 156q253 0 412 -162q152 -153 152 -387q0 -235 -156 -393q-161 -163 -412 -163q-245 0 -406 155q-165 160 -165 404zM624 56q8 -1 16 -1h14q202 0 339 125q146 135 146 354q0 214 -137 347q-135 132 -349 132h-15
q-7 0 -14 -1v-956zM494 1258l-150 -9q-24 0 -40.5 13.5t-16.5 32.5t15.5 31t41.5 12l142 -8h307l159 8q56 0 56 -44q0 -18 -15.5 -31t-44.5 -13l-143 8h-311z" />
    <glyph glyph-name="Obreve" unicode="&#x14e;" horiz-adv-x="1673" 
d="M167.5 414.5q-58.5 137.5 -58.5 300t55.5 292t153.5 224.5q210 202 527 202q315 0 516 -199q204 -202 204 -524q0 -321 -209 -528q-131 -128 -322 -177q-95 -24 -220.5 -24t-257.5 51.5t-231 148t-157.5 234zM844 1360q-55 0 -103 -8v-1290q46 -8 103 -8q267 0 450 178
q191 185 191 478q0 279 -179 464q-181 186 -462 186zM1064 1823q41 0 41 -50t-19 -94t-53 -77q-76 -72 -192 -72q-117 0 -192 70q-75 69 -75 172q0 23 12 37t31 14q40 0 48 -68q8 -66 58.5 -109t103 -43t84 11.5t54.5 32.5q49 42 53.5 109t45.5 67z" />
    <glyph glyph-name="obreve" unicode="&#x14f;" horiz-adv-x="1303" 
d="M81 540q0 120 43.5 218.5t119.5 171.5q164 156 412 156q253 0 412 -162q152 -153 152 -387q0 -235 -156 -393q-161 -163 -412 -163q-245 0 -406 155q-165 160 -165 404zM624 56q8 -1 16 -1h14q202 0 339 125q146 135 146 354q0 214 -137 347q-135 132 -349 132h-15
q-7 0 -14 -1v-956zM869 1525q41 0 41 -50t-19 -94t-53 -77q-76 -72 -192 -72q-117 0 -192 70q-75 69 -75 172q0 23 12 37t31 14q40 0 48 -68q8 -66 58.5 -109t103 -43t84 11.5t54.5 31.5q49 43 53.5 110t45.5 67z" />
    <glyph glyph-name="Ohungarumlaut" unicode="&#x150;" horiz-adv-x="1673" 
d="M167.5 414.5q-58.5 137.5 -58.5 300t55.5 292t153.5 224.5q210 202 527 202q315 0 516 -199q204 -202 204 -524q0 -321 -209 -528q-131 -128 -322 -177q-95 -24 -220.5 -24t-257.5 51.5t-231 148t-157.5 234zM844 1360q-55 0 -103 -8v-1290q46 -8 103 -8q267 0 450 178
q191 185 191 478q0 279 -179 464q-181 186 -462 186zM1032 1814h231l-193 -284h-156zM658 1814h231l-193 -284h-156z" />
    <glyph glyph-name="ohungarumlaut" unicode="&#x151;" horiz-adv-x="1303" 
d="M81 540q0 120 43.5 218.5t119.5 171.5q164 156 412 156q253 0 412 -162q152 -153 152 -387q0 -235 -156 -393q-161 -163 -412 -163q-245 0 -406 155q-165 160 -165 404zM624 56q8 -1 16 -1h14q202 0 339 125q146 135 146 354q0 214 -137 347q-135 132 -349 132h-15
q-7 0 -14 -1v-956zM782 1516h231l-193 -284h-156zM408 1516h231l-193 -284h-156z" />
    <glyph glyph-name="OE" unicode="&#x152;" horiz-adv-x="2347" 
d="M1323 153q-201 -172 -488 -172q-147 0 -279 51.5t-231 147.5q-216 211 -216 544q0 305 209.5 507t509 202t495.5 -165v147h789l81 3q75 0 75 -44q0 -17 -12.5 -31.5t-29.5 -14.5q-26 0 -54 6q-43 9 -118 9h-221v-305h182l123 5q22 0 37.5 -10.5t15.5 -29.5q0 -42 -56 -42
l-43 1q-33 3 -55 3h-204v-892h221q74 0 105 6q37 7 58 7q51 0 51 -40q0 -18 -22 -32t-76 -14h-847v153zM844 1360q-55 0 -103 -8v-1290q46 -8 103 -8q141 0 265 54t214 154v893q-184 205 -479 205z" />
    <glyph glyph-name="oe" unicode="&#x153;" horiz-adv-x="2134" 
d="M1070 150q-162 -169 -418 -169q-245 0 -406 155q-165 160 -165 409q0 229 163.5 385t417 156t411.5 -167q167 167 445 167q222 0 372 -135q163 -146 163 -381q0 -34 -2 -72h-660v-429q68 -14 153 -14q180 0 307 119q26 26 37 41q23 28 48 28q38 0 38 -36q0 -27 -34 -64
q-158 -162 -429.5 -162t-440.5 169zM1668 994q-65 19 -147 19t-130 -11v-431h277v423zM1022 860q-136 153 -369 153h-15q-7 0 -14 -1v-956q8 -1 16 -1h14q227 0 365 152q-103 137 -103 322.5t106 330.5z" />
    <glyph glyph-name="Racute" unicode="&#x154;" horiz-adv-x="1501" 
d="M851 485l82 -6q176 0 299 123t123 306q0 240 -211 356q-116 64 -248 74q-56 5 -104 5h-68q-21 0 -37 -1v-1342h-510v1415h379t189 -1t78.5 -2.5t64.5 -3.5q44 -4 124.5 -19t159.5 -57t136 -104q123 -132 123 -314q0 -180 -114 -318q-117 -141 -312 -182q93 -288 237 -344
q44 -17 88 -17l79 19q37 0 37 -38q0 -53 -124 -53q-90 0 -165 50q-117 70 -199 272l-29 71q-7 17 -12.5 21t-19 4t-23.5 -2l-24 -1q-40 0 -54.5 15t-14.5 31q0 43 70 43zM866 1812h280l-243 -284h-155z" />
    <glyph glyph-name="racute" unicode="&#x155;" horiz-adv-x="965" 
d="M173 1068h430v-314q69 171 148.5 251.5t159.5 80.5q45 0 71.5 -23.5t26.5 -52.5t-8 -46t-21 -29q-27 -25 -51 -25q-38 0 -56 8q-31 14 -55 14t-61 -38.5t-71 -106.5q-83 -166 -83 -360v-427h-430v1068zM504 1482h281l-243 -284h-156z" />
    <glyph glyph-name="Rcommaaccent" unicode="&#x156;" horiz-adv-x="1501" 
d="M851 485l82 -6q176 0 299 123t123 306q0 240 -211 356q-116 64 -248 74q-56 5 -104 5h-68q-21 0 -37 -1v-1342h-510v1415h379t189 -1t78.5 -2.5t64.5 -3.5q44 -4 124.5 -19t159.5 -57t136 -104q123 -132 123 -314q0 -180 -114 -318q-117 -141 -312 -182q93 -288 237 -344
q44 -17 88 -17l79 19q37 0 37 -38q0 -53 -124 -53q-90 0 -165 50q-117 70 -199 272l-29 71q-7 17 -12.5 21t-19 4t-23.5 -2l-24 -1q-40 0 -54.5 15t-14.5 31q0 43 70 43zM907 -415q-82 -36 -142 -36t-101 12t-69 32q-58 41 -58 104q0 67 64 108.5t170.5 41.5t168.5 -46
t62 -132q0 -119 -92 -208q-64 -62 -85 -73.5t-41 -15.5q-47 -8 -49 34q-1 16 16 28l39 28q92 64 117 123z" />
    <glyph glyph-name="rcommaaccent" unicode="&#x157;" horiz-adv-x="965" 
d="M173 1068h430v-314q69 171 148.5 251.5t159.5 80.5q45 0 71.5 -23.5t26.5 -52.5t-8 -46t-21 -29q-27 -25 -51 -25q-38 0 -56 8q-31 14 -55 14t-61 -38.5t-71 -106.5q-83 -166 -83 -360v-427h-430v1068zM575 -409q-82 -36 -142 -36t-101 12t-69 32q-58 41 -58 104
q0 67 64 108.5t170.5 41.5t168.5 -46t62 -132q0 -119 -92 -208q-64 -62 -85 -73.5t-41 -15.5q-47 -8 -49 34q-1 16 16 28l39 28q92 64 117 123z" />
    <glyph glyph-name="Rcaron" unicode="&#x158;" horiz-adv-x="1501" 
d="M851 485l82 -6q176 0 299 123t123 306q0 240 -211 356q-116 64 -248 74q-56 5 -104 5h-68q-21 0 -37 -1v-1342h-510v1415h379t189 -1t78.5 -2.5t64.5 -3.5q44 -4 124.5 -19t159.5 -57t136 -104q123 -132 123 -314q0 -180 -114 -318q-117 -141 -312 -182q93 -288 237 -344
q44 -17 88 -17l79 19q37 0 37 -38q0 -53 -124 -53q-90 0 -165 50q-117 70 -199 272l-29 71q-7 17 -12.5 21t-19 4t-23.5 -2l-24 -1q-40 0 -54.5 15t-14.5 31q0 43 70 43zM1100 1823q39 0 39 -37q0 -27 -40 -59l-92 -85l-110 -111h-256l-262 284h309l180 -214l179 184
q32 38 53 38z" />
    <glyph glyph-name="rcaron" unicode="&#x159;" horiz-adv-x="965" 
d="M173 1068h430v-314q69 171 148.5 251.5t159.5 80.5q45 0 71.5 -23.5t26.5 -52.5t-8 -46t-21 -29q-27 -25 -51 -25q-38 0 -56 8q-31 14 -55 14t-61 -38.5t-71 -106.5q-83 -166 -83 -360v-427h-430v1068zM760 1595q39 0 39 -37q0 -27 -40 -59l-92 -85l-110 -111h-256
l-262 284h309l180 -214l179 184q32 38 53 38z" />
    <glyph glyph-name="Sacute" unicode="&#x15a;" horiz-adv-x="1190" 
d="M177 72q-35 20 -60.5 42t-25.5 47q0 48 41 48q27 0 60 -30t74 -52.5t89 -38.5q99 -33 183 -33t129.5 11t76.5 30q66 41 66 105q0 59 -57 119q-48 51 -136 122l-171 134q-257 198 -303 362q-16 57 -16 127t31.5 138t93.5 119q133 111 362 111q117 0 210 -34.5t127 -61.5
t34 -49q0 -46 -38 -46q-22 0 -47 22t-55.5 38.5t-69.5 29.5q-84 28 -165 28q-149 0 -149 -98q0 -41 27 -76q48 -61 187.5 -174.5t224 -198.5t128.5 -153q70 -107 70 -222.5t-40.5 -196t-113.5 -138.5q-154 -122 -382 -122t-385 91zM714 1812h280l-243 -284h-155z" />
    <glyph glyph-name="sacute" unicode="&#x15b;" horiz-adv-x="1023" 
d="M95 134q0 15 10.5 27.5t27.5 12.5t28 -10l25 -23q104 -91 291 -91q126 0 162 52q10 14 10 28.5t-5.5 28t-23.5 33t-51 46.5l-88 71q-218 170 -299 276q-74 97 -74 198q0 127 117 213q121 90 313 90q135 0 213 -31t110 -56.5t32 -46.5q0 -43 -34 -43q-16 0 -29.5 11.5
t-53.5 39t-106 43.5t-123 16t-80.5 -18t-23.5 -35.5t7 -33t26 -36.5q44 -52 141 -123t164 -130t105 -109q69 -90 69 -182t-34 -157.5t-97 -112.5q-133 -101 -355 -101q-178 0 -297 68q-77 43 -77 85zM587 1482h281l-243 -284h-156z" />
    <glyph glyph-name="Scircumflex" unicode="&#x15c;" horiz-adv-x="1190" 
d="M177 72q-35 20 -60.5 42t-25.5 47q0 48 41 48q27 0 60 -30t74 -52.5t89 -38.5q99 -33 183 -33t129.5 11t76.5 30q66 41 66 105q0 59 -57 119q-48 51 -136 122l-171 134q-257 198 -303 362q-16 57 -16 127t31.5 138t93.5 119q133 111 362 111q117 0 210 -34.5t127 -61.5
t34 -49q0 -46 -38 -46q-22 0 -47 22t-55.5 38.5t-69.5 29.5q-84 28 -165 28q-149 0 -149 -98q0 -41 27 -76q48 -61 187.5 -174.5t224 -198.5t128.5 -153q70 -107 70 -222.5t-40.5 -196t-113.5 -138.5q-154 -122 -382 -122t-385 91zM366 1574l-30 -30q-22 -22 -39 -22
t-27.5 10.5t-10.5 24.5q0 26 41 61q13 13 33 30.5t58 55.5l110 110h255l263 -284h-308l-180 214q-125 -126 -141 -144t-24 -26z" />
    <glyph glyph-name="scircumflex" unicode="&#x15d;" horiz-adv-x="1023" 
d="M95 134q0 15 10.5 27.5t27.5 12.5t28 -10l25 -23q104 -91 291 -91q126 0 162 52q10 14 10 28.5t-5.5 28t-23.5 33t-51 46.5l-88 71q-218 170 -299 276q-74 97 -74 198q0 127 117 213q121 90 313 90q135 0 213 -31t110 -56.5t32 -46.5q0 -43 -34 -43q-16 0 -29.5 11.5
t-53.5 39t-106 43.5t-123 16t-80.5 -18t-23.5 -35.5t7 -33t26 -36.5q44 -52 141 -123t164 -130t105 -109q69 -90 69 -182t-34 -157.5t-97 -112.5q-133 -101 -355 -101q-178 0 -297 68q-77 43 -77 85zM297 1244l-30 -30q-22 -23 -39 -23t-27.5 10.5t-10.5 24.5q0 26 41 61
q13 13 33 30.5t58 55.5l110 110h255l263 -284h-308l-180 214q-125 -126 -141 -144t-24 -25z" />
    <glyph glyph-name="Scedilla" unicode="&#x15e;" horiz-adv-x="1190" 
d="M564 -18l-12 -1q-218 0 -375 91q-35 20 -60.5 42t-25.5 47q0 48 41 48q27 0 60 -30t74 -52.5t89 -38.5q99 -33 183 -33t129.5 11t76.5 30q66 41 66 105q0 59 -57 119q-48 51 -136 122l-171 134q-257 198 -303 362q-16 57 -16 127t31.5 138t93.5 119q133 111 362 111
q117 0 210 -34.5t127 -61.5t34 -49q0 -46 -38 -46q-22 0 -47 22t-55.5 38.5t-69.5 29.5q-84 28 -165 28q-149 0 -149 -98q0 -41 27 -76q48 -61 187.5 -174.5t224 -198.5t128.5 -153q70 -107 70 -217.5t-33.5 -185t-93.5 -131.5q-126 -118 -329 -140v-55q216 -4 216 -125
q0 -95 -130 -132q-43 -12 -88 -12q-151 0 -220 55q-29 23 -29 43q0 43 40 43q21 0 42.5 -18.5t38.5 -26t38 -12.5q39 -11 99.5 -11t96.5 21.5t36 44t-37.5 39.5t-95 18t-71.5 12t-14 43v69z" />
    <glyph glyph-name="scedilla" unicode="&#x15f;" horiz-adv-x="1023" 
d="M508 -18l-39 -1q-178 0 -297 68q-77 43 -77 85q0 15 10.5 27.5t27.5 12.5t28 -10l25 -23q104 -91 291 -91q126 0 162 52q10 14 10 28.5t-5.5 28t-23.5 33t-51 46.5l-88 71q-218 170 -299 276q-74 97 -74 198q0 127 117 213q121 90 313 90q135 0 213 -31t110 -56.5
t32 -46.5q0 -43 -34 -43q-16 0 -29.5 11.5t-53.5 39t-106 43.5t-123 16t-80.5 -18t-23.5 -35.5t7 -33t26 -36.5q44 -52 141 -123t164 -130t105 -109q69 -90 69 -196q0 -134 -99 -228q-99 -96 -270 -120v-59q216 -4 216 -125q0 -95 -130 -132q-43 -12 -88 -12q-151 0 -220 55
q-29 23 -29 43q0 43 40 43q21 0 42.5 -18.5t38.5 -26t38 -12.5q39 -11 99.5 -11t96.5 21.5t36 44t-37.5 39.5t-95 18t-71.5 12t-14 43v69z" />
    <glyph glyph-name="Scaron" unicode="&#x160;" horiz-adv-x="1190" 
d="M177 72q-35 20 -60.5 42t-25.5 47q0 48 41 48q27 0 60 -30t74 -52.5t89 -38.5q99 -33 183 -33t129.5 11t76.5 30q66 41 66 105q0 59 -57 119q-48 51 -136 122l-171 134q-257 198 -303 362q-16 57 -16 127t31.5 138t93.5 119q133 111 362 111q117 0 210 -34.5t127 -61.5
t34 -49q0 -46 -38 -46q-22 0 -47 22t-55.5 38.5t-69.5 29.5q-84 28 -165 28q-149 0 -149 -98q0 -41 27 -76q48 -61 187.5 -174.5t224 -198.5t128.5 -153q70 -107 70 -222.5t-40.5 -196t-113.5 -138.5q-154 -122 -382 -122t-385 91zM948 1823q39 0 39 -37q0 -27 -40 -59
l-92 -85l-110 -111h-256l-262 284h309l180 -214l179 184q32 38 53 38z" />
    <glyph glyph-name="scaron" unicode="&#x161;" horiz-adv-x="1023" 
d="M95 134q0 15 10.5 27.5t27.5 12.5t28 -10l25 -23q104 -91 291 -91q126 0 162 52q10 14 10 28.5t-5.5 28t-23.5 33t-51 46.5l-88 71q-218 170 -299 276q-74 97 -74 198q0 127 117 213q121 90 313 90q135 0 213 -31t110 -56.5t32 -46.5q0 -43 -34 -43q-16 0 -29.5 11.5
t-53.5 39t-106 43.5t-123 16t-80.5 -18t-23.5 -35.5t7 -33t26 -36.5q44 -52 141 -123t164 -130t105 -109q69 -90 69 -182t-34 -157.5t-97 -112.5q-133 -101 -355 -101q-178 0 -297 68q-77 43 -77 85zM842 1494q39 0 39 -37q0 -27 -40 -59l-92 -85l-110 -111h-256l-262 284
h309l180 -214l179 184q32 38 53 38z" />
    <glyph glyph-name="Tcommaaccent" unicode="&#x162;" horiz-adv-x="1239" 
d="M1204 1389q0 -46 -97 -46h-232v-1343h-512v1343h-150q-77 0 -106 -7q-38 -8 -55 -8q-51 0 -51 40q0 47 99 47h892q69 0 102 6q40 7 60 7q50 0 50 -39zM757 -409q-82 -36 -142 -36t-101 12t-69 32q-58 41 -58 104q0 67 64 108.5t170.5 41.5t168.5 -46t62 -132
q0 -119 -92 -208q-64 -62 -85 -73.5t-41 -15.5q-47 -8 -49 34q-1 16 16 28l39 28q92 64 117 123z" />
    <glyph glyph-name="tcommaaccent" unicode="&#x163;" horiz-adv-x="963" 
d="M584 -19q-392 0 -392 358l-1 656l-115 -5q-54 0 -54 41t58 41l96 -4h15v155l429 192v-347h134l95 4q59 0 59 -42q0 -19 -16.5 -29.5t-37.5 -10.5l-124 5h-110v-940q117 2 195 67q37 28 52.5 72t28 56.5t29.5 12.5t29 -13.5t12 -32t-10 -41t-30 -47.5q-45 -56 -104 -89
q-107 -59 -238 -59zM619 -409q-82 -36 -142 -36t-101 12t-69 32q-58 41 -58 104q0 67 64 108.5t170.5 41.5t168.5 -46t62 -132q0 -119 -92 -208q-64 -62 -85 -73.5t-41 -15.5q-47 -8 -49 34q-1 16 16 28l39 28q92 64 117 123z" />
    <glyph glyph-name="Tcaron" unicode="&#x164;" horiz-adv-x="1239" 
d="M1204 1389q0 -46 -97 -46h-232v-1343h-512v1343h-150q-77 0 -106 -7q-38 -8 -55 -8q-51 0 -51 40q0 47 99 47h892q69 0 102 6q40 7 60 7q50 0 50 -39zM966 1823q39 0 39 -37q0 -27 -40 -59l-92 -85l-110 -111h-256l-262 284h309l180 -214l179 184q32 38 53 38z" />
    <glyph glyph-name="tcaron" unicode="&#x165;" horiz-adv-x="1359" 
d="M584 -19q-392 0 -392 358l-1 656l-115 -5q-54 0 -54 41t58 41l96 -4h15v155l429 192v-347h134l95 4q59 0 59 -42q0 -19 -16.5 -29.5t-37.5 -10.5l-124 5h-110v-940q117 2 195 67q37 28 52.5 72t28 56.5t29.5 12.5t29 -13.5t12 -32t-10 -41t-30 -47.5q-45 -56 -104 -89
q-107 -59 -238 -59zM1117 1434q195 0 195 -241q0 -248 -128 -349q-35 -27 -69 -27q-47 0 -47 44q0 16 11 21l37 16q27 12 43 38l34 52q9 13 10.5 34t3.5 46l-22 -14q-30 -20 -79 -20t-83 17.5t-55 46.5q-40 54 -40 115t11.5 97.5t34.5 63.5q50 60 143 60z" />
    <glyph glyph-name="Tbar" unicode="&#x166;" horiz-adv-x="1239" 
d="M1001 846l-126 8v-854h-512v854l-136 -9q-24 0 -40.5 13.5t-16.5 32.5t15.5 31t41.5 12l136 -8v417h-150q-77 0 -106 -7q-38 -8 -55 -8q-51 0 -51 40q0 47 99 47h892q69 0 102 6q40 7 60 7q50 0 50 -39q0 -46 -97 -46h-232v-417l130 8q56 0 56 -44q0 -18 -15.5 -31
t-44.5 -13z" />
    <glyph glyph-name="tbar" unicode="&#x167;" horiz-adv-x="963" 
d="M584 -19q-392 0 -392 358l-1 185q-45 -5 -71 -5t-42.5 13.5t-16.5 32.5t15.5 31t41.5 12l66 -5h7v392l-115 -5q-54 0 -54 41t58 41l96 -4h15v155l429 192v-347h134l95 4q59 0 59 -42q0 -19 -16.5 -29.5t-37.5 -10.5l-124 5h-110v-394l48 3q28 4 58 4q56 0 56 -44
q0 -18 -15.5 -31t-44.5 -13l-102 7v-472q117 2 195 67q37 28 52.5 72t28 56.5t29.5 12.5t29 -13.5t12 -32t-10 -41t-30 -47.5q-45 -56 -104 -89q-107 -59 -238 -59z" />
    <glyph glyph-name="Utilde" unicode="&#x168;" horiz-adv-x="1570" 
d="M1424 1373l-6 -124v-598q0 -296 -170 -481q-174 -189 -462 -189q-308 0 -480 193q-160 177 -160 454v787h511v-1349q77 -11 169.5 -11t188 37t167.5 116q156 170 158 497v542q0 30 -4.5 71t-4.5 56q0 52 49 52q44 0 44 -53zM540.5 1540q-12.5 0 -24 13.5t-11.5 46t20 76
t55 78.5q78 78 179 78q84 0 190 -83l52 -40q57 -43 75 -43t34.5 25t23 65t13.5 53.5t24 13.5t28.5 -15t11.5 -46.5t-20 -75t-55 -78.5q-78 -78 -179 -78q-79 0 -187 78l-72 54q-32 25 -47 25t-25.5 -6.5t-20.5 -18.5q-22 -25 -27 -52l-6 -38q-4 -24 -11.5 -28t-20 -4z" />
    <glyph glyph-name="utilde" unicode="&#x169;" horiz-adv-x="1494" 
d="M523 -19q-351 0 -351 343v744h428v-979q10 -5 25 -5h33q80 0 190 108q33 33 62 72v804h430v-1068h-430v154q-163 -173 -387 -173zM429.5 1192q-12.5 0 -24 13.5t-11.5 46t20 76t55 78.5q78 78 179 78q84 0 190 -83l52 -40q57 -43 75 -43t34.5 25t23 65t13.5 53.5t24 13.5
t28.5 -15t11.5 -46.5t-20 -75t-55 -78.5q-78 -78 -179 -78q-79 0 -187 78l-72 54q-32 25 -47 25t-25.5 -6.5t-20.5 -18.5q-22 -25 -27 -52l-6 -38q-4 -24 -11.5 -28t-20 -4z" />
    <glyph glyph-name="Umacron" unicode="&#x16a;" horiz-adv-x="1570" 
d="M1424 1373l-6 -124v-598q0 -296 -170 -481q-174 -189 -462 -189q-308 0 -480 193q-160 177 -160 454v787h511v-1349q77 -11 169.5 -11t188 37t167.5 116q156 170 158 497v542q0 30 -4.5 71t-4.5 56q0 52 49 52q44 0 44 -53zM698 1721l-150 -9q-24 0 -40.5 13.5
t-16.5 32.5t15.5 31t41.5 12l142 -8h307l159 8q56 0 56 -44q0 -18 -15.5 -31t-44.5 -13l-143 8h-311z" />
    <glyph glyph-name="umacron" unicode="&#x16b;" horiz-adv-x="1494" 
d="M523 -19q-351 0 -351 343v744h428v-979q10 -5 25 -5h33q80 0 190 108q33 33 62 72v804h430v-1068h-430v154q-163 -173 -387 -173zM601 1258l-150 -9q-24 0 -40.5 13.5t-16.5 32.5t15.5 31t41.5 12l142 -8h307l159 8q56 0 56 -44q0 -18 -15.5 -31t-44.5 -13l-143 8h-311z
" />
    <glyph glyph-name="Ubreve" unicode="&#x16c;" horiz-adv-x="1570" 
d="M1424 1373l-6 -124v-598q0 -296 -170 -481q-174 -189 -462 -189q-308 0 -480 193q-160 177 -160 454v787h511v-1349q77 -11 169.5 -11t188 37t167.5 116q156 170 158 497v542q0 30 -4.5 71t-4.5 56q0 52 49 52q44 0 44 -53zM1073 1823q41 0 41 -50t-19 -94t-53 -77
q-76 -72 -192 -72q-117 0 -192 70q-75 69 -75 172q0 23 12 37t31 14q40 0 48 -68q8 -66 58.5 -109t103 -43t84 11.5t54.5 32.5q49 42 53.5 109t45.5 67z" />
    <glyph glyph-name="ubreve" unicode="&#x16d;" horiz-adv-x="1494" 
d="M523 -19q-351 0 -351 343v744h428v-979q10 -5 25 -5h33q80 0 190 108q33 33 62 72v804h430v-1068h-430v154q-163 -173 -387 -173zM976 1525q41 0 41 -50t-19 -94t-53 -77q-76 -72 -192 -72q-117 0 -192 70q-75 69 -75 172q0 23 12 37t31 14q40 0 48 -68q8 -66 58.5 -109
t103 -43t84 11.5t54.5 31.5q49 43 53.5 110t45.5 67z" />
    <glyph glyph-name="Uring" unicode="&#x16e;" horiz-adv-x="1570" 
d="M1424 1373l-6 -124v-598q0 -296 -170 -481q-174 -189 -462 -189q-308 0 -480 193q-160 177 -160 454v787h511v-1349q77 -11 169.5 -11t188 37t167.5 116q156 170 158 497v542q0 30 -4.5 71t-4.5 56q0 52 49 52q44 0 44 -53zM849 1530q-66 0 -111 42q-45 41 -45 110
q0 100 95 139q29 12 62.5 12t62 -11t49.5 -31q43 -42 43 -109t-45 -110q-44 -42 -111 -42zM818.5 1608q14.5 -6 39.5 -6t48.5 21.5t23.5 56.5t-22.5 57t-58 22t-58 -22t-22.5 -47t6.5 -39.5t17.5 -25.5t25.5 -17z" />
    <glyph glyph-name="uring" unicode="&#x16f;" horiz-adv-x="1494" 
d="M523 -19q-351 0 -351 343v744h428v-979q10 -5 25 -5h33q80 0 190 108q33 33 62 72v804h430v-1068h-430v154q-163 -173 -387 -173zM750 1183q-66 0 -111 41q-45 42 -45 111q0 100 95 139q29 12 62.5 12t62 -11t49.5 -31q43 -42 43 -109t-45 -110q-44 -42 -111 -42z
M719.5 1261q14.5 -6 39.5 -6t48.5 21.5t23.5 56.5t-22.5 57t-58 22t-58 -22t-22.5 -47t6.5 -39.5t17.5 -25.5t25.5 -17z" />
    <glyph glyph-name="Uhungarumlaut" unicode="&#x170;" horiz-adv-x="1570" 
d="M1424 1373l-6 -124v-598q0 -296 -170 -481q-174 -189 -462 -189q-308 0 -480 193q-160 177 -160 454v787h511v-1349q77 -11 169.5 -11t188 37t167.5 116q156 170 158 497v542q0 30 -4.5 71t-4.5 56q0 52 49 52q44 0 44 -53zM1041 1814h231l-193 -284h-156zM667 1814h231
l-193 -284h-156z" />
    <glyph glyph-name="uhungarumlaut" unicode="&#x171;" horiz-adv-x="1494" 
d="M523 -19q-351 0 -351 343v744h428v-979q10 -5 25 -5h33q80 0 190 108q33 33 62 72v804h430v-1068h-430v154q-163 -173 -387 -173zM877 1516h231l-193 -284h-156zM503 1516h231l-193 -284h-156z" />
    <glyph glyph-name="Uogonek" unicode="&#x172;" horiz-adv-x="1570" 
d="M889 -12q-58 -7 -103 -7q-308 0 -480 193q-160 177 -160 454v787h511v-1349q77 -11 169.5 -11t188 37t167.5 116q156 170 158 497v542q0 30 -4.5 71t-4.5 56q0 52 49 52q44 0 44 -53l-6 -124v-598q0 -216 -96 -381q-97 -164 -267 -237h2q-106 -44 -147 -147
q-14 -34 -14 -62t6 -47t18 -33q28 -31 71 -31q73 0 108 40q20 23 29.5 29t23.5 6t23 -11t9 -26.5t-13.5 -35.5t-38.5 -37q-56 -39 -117.5 -39t-96.5 13.5t-60 37.5q-50 48 -50 114q0 115 81 184z" />
    <glyph glyph-name="uogonek" unicode="&#x173;" horiz-adv-x="1494" 
d="M523 -19q-351 0 -351 343v744h428v-979q10 -5 25 -5h33q80 0 190 108q33 33 62 72v804h430v-1068h-184q-44 -32 -74 -80.5t-30 -86t6 -56.5t18 -33q28 -31 71 -31q73 0 108 40q20 23 29.5 29t23.5 6t23 -11t9 -26.5t-13.5 -35.5t-38.5 -37q-56 -39 -117.5 -39t-96.5 13.5
t-60 37.5q-50 48 -50 121q0 117 96 189h-150v154q-163 -173 -387 -173z" />
    <glyph glyph-name="Wcircumflex" unicode="&#x174;" horiz-adv-x="1963" 
d="M1931 1382q0 -15 -7 -37q-24 -65 -43 -113l-530 -1287l-377 842l-391 -842l-592 1470h548l281 -749l381 813l355 -811l250 587q13 33 22 65l17 61q11 45 48.5 45t37.5 -44zM763 1574l-30 -30q-22 -22 -39 -22t-27.5 10.5t-10.5 24.5q0 26 41 61q13 13 33 30.5t58 55.5
l110 110h255l263 -284h-308l-180 214q-125 -126 -141 -144t-24 -26z" />
    <glyph glyph-name="wcircumflex" unicode="&#x175;" horiz-adv-x="1636" 
d="M4 1068h453l256 -538l302 584l315 -591l143 324q52 119 62.5 165.5t24.5 60t33 13.5t30.5 -14t11.5 -24.5t-1.5 -20t-8.5 -30t-23 -55.5l-431 -987l-334 639l-323 -639zM602 1244l-30 -30q-22 -23 -39 -23t-27.5 10.5t-10.5 24.5q0 26 41 61q13 13 33 30.5t58 55.5
l110 110h255l263 -284h-308l-180 214q-125 -126 -141 -144t-24 -25z" />
    <glyph glyph-name="Ycircumflex" unicode="&#x176;" horiz-adv-x="1320" 
d="M482 -11q-43 0 -43 44q0 27 26 59q52 62 99 143l51 91l-594 1089h583l286 -603l256 455q28 52 48 105.5t53 53.5q41 0 41 -41q0 -24 -18 -55l-684 -1220q-11 -20 -18 -33l-17 -36q-26 -52 -69 -52zM573 1574l-30 -30q-22 -22 -39 -22t-27.5 10.5t-10.5 24.5q0 26 41 61
q13 13 33 30.5t58 55.5l110 110h255l263 -284h-308l-180 214q-125 -126 -141 -144t-24 -26z" />
    <glyph glyph-name="ycircumflex" unicode="&#x177;" horiz-adv-x="1069" 
d="M359 -236q61 19 85 49q34 40 82 144l23 53l-545 1058h455l284 -604l164 383q45 105 59 160t27.5 67t33 12t30.5 -12t11 -24t-2.5 -25.5t-10 -36t-21.5 -56.5l-415 -962q-74 -174 -142 -245q-58 -63 -117.5 -63t-59.5 41.5t59 60.5zM330 1244l-30 -30q-22 -23 -39 -23
t-27.5 10.5t-10.5 24.5q0 26 41 61q13 13 33 30.5t58 55.5l110 110h255l263 -284h-308l-180 214q-125 -126 -141 -144t-24 -25z" />
    <glyph glyph-name="Ydieresis" unicode="&#x178;" horiz-adv-x="1320" 
d="M482 -11q-43 0 -43 44q0 27 26 59q52 62 99 143l51 91l-594 1089h583l286 -603l256 455q28 52 48 105.5t53 53.5q41 0 41 -41q0 -24 -18 -55l-684 -1220q-11 -20 -18 -33l-17 -36q-26 -52 -69 -52zM1183.5 1564.5q-47.5 -34.5 -108.5 -34.5t-93 10t-55 27q-48 35 -48 90
q0 87 98 116q34 10 78 10t76.5 -10.5t54.5 -28.5q45 -37 45 -91t-47.5 -88.5zM681 1564.5q-47 -34.5 -108 -34.5t-93 10t-55 27q-49 35 -49 90q0 87 99 116q33 10 77.5 10t76.5 -10.5t54 -28.5q45 -37 45 -91t-47 -88.5z" />
    <glyph glyph-name="Zacute" unicode="&#x179;" horiz-adv-x="1182" 
d="M1080 86q52 0 52 -40q0 -18 -22 -32t-78 -14h-981l522 1343h-255q-76 0 -107 -7q-39 -8 -55 -8q-52 0 -52 40q0 47 98 47h893l-509 -1342h333q75 0 105 6q35 7 56 7zM807 1812h280l-243 -284h-155z" />
    <glyph glyph-name="zacute" unicode="&#x17a;" horiz-adv-x="1123" 
d="M1019 86q54 0 54 -40q0 -18 -23 -32t-78 -14h-931l592 995h-301q-66 0 -101 -6q-47 -8 -67 -8t-33.5 11.5t-13.5 28.5q0 47 99 47h866l-554 -995h329q73 0 104 6q37 7 58 7zM629 1482h281l-243 -284h-156z" />
    <glyph glyph-name="Zdotaccent" unicode="&#x17b;" horiz-adv-x="1182" 
d="M1080 86q52 0 52 -40q0 -18 -22 -32t-78 -14h-981l522 1343h-255q-76 0 -107 -7q-39 -8 -55 -8q-52 0 -52 40q0 47 98 47h893l-509 -1342h333q75 0 105 6q35 7 56 7zM521.5 1558.5q-59.5 49.5 -59.5 128.5q0 67 66 117q68 50 171 50q104 0 171 -58q59 -51 59 -121
t-68 -117q-69 -49 -174.5 -49t-165 49.5z" />
    <glyph glyph-name="zdotaccent" unicode="&#x17c;" horiz-adv-x="1123" 
d="M1019 86q54 0 54 -40q0 -18 -23 -32t-78 -14h-931l592 995h-301q-66 0 -101 -6q-47 -8 -67 -8t-33.5 11.5t-13.5 28.5q0 47 99 47h866l-554 -995h329q73 0 104 6q37 7 58 7zM421 1289q-58 46 -58 121q0 63 64 108q68 48 144 48t117.5 -15t70.5 -39q58 -49 58 -114
t-66 -110t-169 -45t-161 46z" />
    <glyph glyph-name="Zcaron" unicode="&#x17d;" horiz-adv-x="1182" 
d="M1080 86q52 0 52 -40q0 -18 -22 -32t-78 -14h-981l522 1343h-255q-76 0 -107 -7q-39 -8 -55 -8q-52 0 -52 40q0 47 98 47h893l-509 -1342h333q75 0 105 6q35 7 56 7zM1041 1823q39 0 39 -37q0 -27 -40 -59l-92 -85l-110 -111h-256l-262 284h309l180 -214l179 184
q32 38 53 38z" />
    <glyph glyph-name="zcaron" unicode="&#x17e;" horiz-adv-x="1123" 
d="M1019 86q54 0 54 -40q0 -18 -23 -32t-78 -14h-931l592 995h-301q-66 0 -101 -6q-47 -8 -67 -8t-33.5 11.5t-13.5 28.5q0 47 99 47h866l-554 -995h329q73 0 104 6q37 7 58 7zM884 1494q39 0 39 -37q0 -27 -40 -59l-92 -85l-110 -111h-256l-262 284h309l180 -214l179 184
q32 38 53 38z" />
    <glyph glyph-name="florin" unicode="&#x192;" horiz-adv-x="833" 
d="M-81 -182q23 0 70 -27q83 -56 172 -56q8 0 12 1v1259h-17l-96 -4q-57 0 -57 42q0 19 16 29t37 10l120 -4q21 182 161 277q129 88 335 88q130 0 232 -41q97 -37 97 -79.5t-46 -42.5q-25 0 -58.5 25t-58.5 39q-49 26 -171 26q-17 0 -33 -2l-33 -4v-286h29l123 4
q55 0 55 -40.5t-59 -40.5l-96 4h-52v-772q0 -440 -253 -531q-83 -30 -168 -30t-136.5 10t-88.5 26q-79 36 -79 78t43 42z" />
    <glyph glyph-name="AEacute" unicode="&#x1fc;" horiz-adv-x="1647" 
d="M419 178q-183 0 -251 3l-30 -69q-12 -29 -24 -61q-22 -62 -63 -62q-19 0 -31 12t-12 25q0 22 20 49q33 48 58 110q-85 8 -85 50t49 42q30 0 70 -10l490 1148l1 -1v1h789l81 3q75 0 75 -44q0 -17 -12.5 -31.5t-29.5 -14.5q-26 0 -54 6q-43 9 -118 9h-221v-305h182l123 5
q22 0 37.5 -10.5t15.5 -29.5q0 -42 -56 -42l-43 1q-33 3 -55 3h-204v-892h221q74 0 105 6q37 7 58 7q51 0 51 -40q0 -18 -22 -32t-76 -14h-847v178h-192zM201 259q96 -8 172 -8h238v966h-1zM1107 1812h280l-243 -284h-155z" />
    <glyph glyph-name="aeacute" unicode="&#x1fd;" horiz-adv-x="2012" 
d="M952 148q-177 -167 -394 -167q-207 0 -332 104q-130 107 -130 297q0 168 129 276q132 109 347 109q127 0 250 -47l1 267q-78 26 -144.5 26t-114.5 -6t-91 -18q-93 -26 -141 -70q-28 -26 -51 -26t-35 11.5t-12 25.5t5 25.5t19 23.5q30 26 100 52q145 55 331 55t375 -75
q133 75 333 75q222 0 373 -135q164 -146 164 -381q0 -34 -4 -72h-661v-429q70 -14 155 -14q175 0 307 119l19 20q9 9 19 22q21 27 44 27q39 0 39 -36q0 -27 -35 -64q-155 -162 -423.5 -162t-441.5 167zM1547 991q-62 22 -148 22t-130 -11v-431h278v420zM822 643
q-117 52 -231 52q-20 0 -38 -3v-636q5 -1 11 -1h12q170 0 326 149q-80 112 -80 350v89zM1101 1482h281l-243 -284h-156z" />
    <glyph glyph-name="Scommaaccent" unicode="&#x218;" horiz-adv-x="1190" 
d="M177 72q-35 20 -60.5 42t-25.5 47q0 48 41 48q27 0 60 -30t74 -52.5t89 -38.5q99 -33 183 -33t129.5 11t76.5 30q66 41 66 105q0 59 -57 119q-48 51 -136 122l-171 134q-257 198 -303 362q-16 57 -16 127t31.5 138t93.5 119q133 111 362 111q117 0 210 -34.5t127 -61.5
t34 -49q0 -46 -38 -46q-22 0 -47 22t-55.5 38.5t-69.5 29.5q-84 28 -165 28q-149 0 -149 -98q0 -41 27 -76q48 -61 187.5 -174.5t224 -198.5t128.5 -153q70 -107 70 -222.5t-40.5 -196t-113.5 -138.5q-154 -122 -382 -122t-385 91zM746 -409q-82 -36 -142 -36t-101 12
t-69 32q-58 41 -58 104q0 67 64 108.5t170.5 41.5t168.5 -46t62 -132q0 -119 -92 -208q-64 -62 -85 -73.5t-41 -15.5q-47 -8 -49 34q-1 16 16 28l39 28q92 64 117 123z" />
    <glyph glyph-name="scommaaccent" unicode="&#x219;" horiz-adv-x="1023" 
d="M95 134q0 15 10.5 27.5t27.5 12.5t28 -10l25 -23q104 -91 291 -91q126 0 162 52q10 14 10 28.5t-5.5 28t-23.5 33t-51 46.5l-88 71q-218 170 -299 276q-74 97 -74 198q0 127 117 213q121 90 313 90q135 0 213 -31t110 -56.5t32 -46.5q0 -43 -34 -43q-16 0 -29.5 11.5
t-53.5 39t-106 43.5t-123 16t-80.5 -18t-23.5 -35.5t7 -33t26 -36.5q44 -52 141 -123t164 -130t105 -109q69 -90 69 -182t-34 -157.5t-97 -112.5q-133 -101 -355 -101q-178 0 -297 68q-77 43 -77 85zM690 -409q-82 -36 -142 -36t-101 12t-69 32q-58 41 -58 104
q0 67 64 108.5t170.5 41.5t168.5 -46t62 -132q0 -119 -92 -208q-64 -62 -85 -73.5t-41 -15.5q-47 -8 -49 34q-1 16 16 28l39 28q92 64 117 123z" />
    <glyph glyph-name="dotlessj" unicode="&#x237;" horiz-adv-x="801" 
d="M-51 -203q23 0 50.5 -24t44.5 -33q39 -20 90 -20t86 5v1343h428l-1 -962q0 -233 -143 -352q-130 -107 -354 -107q-115 0 -164 24q-81 39 -81 82.5t44 43.5z" />
    <glyph glyph-name="circumflex" unicode="&#x2c6;" horiz-adv-x="943" 
d="M198 1244l-30 -30q-22 -23 -39 -23t-27.5 10.5t-10.5 24.5q0 26 41 61q13 13 33 30.5t58 55.5l110 110h255l263 -284h-308l-180 214q-125 -126 -141 -144t-24 -25z" />
    <glyph glyph-name="caron" unicode="&#x2c7;" horiz-adv-x="943" 
d="M812 1494q39 0 39 -37q0 -27 -40 -59l-92 -85l-110 -111h-256l-262 284h309l180 -214l179 184q32 38 53 38z" />
    <glyph glyph-name="breve" unicode="&#x2d8;" horiz-adv-x="714" 
d="M581 1525q41 0 41 -50t-19 -94t-53 -77q-76 -72 -192 -72q-117 0 -192 70q-75 69 -75 172q0 23 12 37t31 14q40 0 48 -68q8 -66 58.5 -109t103 -43t84 11.5t54.5 31.5q49 43 53.5 110t45.5 67z" />
    <glyph glyph-name="dotaccent" unicode="&#x2d9;" horiz-adv-x="535" 
d="M98 1289q-58 46 -58 121q0 63 64 108q68 48 144 48t117.5 -15t70.5 -39q58 -49 58 -114t-66 -110t-169 -45t-161 46z" />
    <glyph glyph-name="ring" unicode="&#x2da;" horiz-adv-x="494" 
d="M247 1183q-66 0 -111 41q-45 42 -45 111q0 100 95 139q29 12 62.5 12t62 -11t49.5 -31q43 -42 43 -109t-45 -110q-44 -42 -111 -42zM216.5 1261q14.5 -6 39.5 -6t48.5 21.5t23.5 56.5t-22.5 57t-58 22t-58 -22t-22.5 -47t6.5 -39.5t17.5 -25.5t25.5 -17z" />
    <glyph glyph-name="ogonek" unicode="&#x2db;" horiz-adv-x="560" 
d="M104 -255.5q-13 31.5 -13 75t19 84t48 70.5q52 54 131 76l51 -17q-106 -44 -148 -147q-13 -34 -13 -62t6 -47t19 -33q27 -31 70 -31q73 0 108 40q20 23 29.5 29t23.5 6t23 -11t9 -26.5t-13.5 -35.5t-37.5 -37q-57 -39 -118.5 -39t-96.5 13.5t-59.5 37t-37.5 55z" />
    <glyph glyph-name="tilde" unicode="&#x2dc;" horiz-adv-x="887" 
d="M126.5 1192q-12.5 0 -24 13.5t-11.5 46t20 76t55 78.5q78 78 179 78q84 0 190 -83l52 -40q57 -43 75 -43t34.5 25t23 65t13.5 53.5t24 13.5t28.5 -15t11.5 -46.5t-20 -75t-55 -78.5q-78 -78 -179 -78q-79 0 -187 78l-72 54q-32 25 -47 25t-25.5 -6.5t-20.5 -18.5
q-22 -25 -27 -52l-6 -38q-4 -24 -11.5 -28t-20 -4z" />
    <glyph glyph-name="hungarumlaut" unicode="&#x2dd;" horiz-adv-x="956" 
d="M693 1516h231l-193 -284h-156zM319 1516h231l-193 -284h-156z" />
    <glyph glyph-name="Delta" unicode="&#x394;" horiz-adv-x="1385" 
d="M1263 49q0 -49 -65 -49h-1041q-34 0 -47 17.5t-13 36.5t13 54l510 1427q19 58 59 58t60 -58l484 -1360q20 -59 30 -86t10 -40zM1161 80l-484 1373l-481 -1373h965z" />
    <glyph glyph-name="Delta" unicode="&#x2206;" horiz-adv-x="1385" 
d="M1263 49q0 -49 -65 -49h-1041q-34 0 -47 17.5t-13 36.5t13 54l510 1427q19 58 59 58t60 -58l484 -1360q20 -59 30 -86t10 -40zM1161 80l-484 1373l-481 -1373h965z" />
    <glyph glyph-name="Omega" unicode="&#x3a9;" horiz-adv-x="1671" 
d="M731 53q0 -53 -93 -53h-438q-60 0 -84.5 15.5t-24.5 36.5q0 44 57 44q18 0 44 -5q57 -11 135 -11h270q-238 140 -373.5 349t-135.5 435q0 306 210 516q213 213 536 213q214 0 388 -99q167 -95 264 -262t97 -368q0 -229 -143 -444q-137 -204 -368 -340h272q79 0 115 7
q46 9 64 9q57 0 57 -44q0 -52 -109 -52h-439q-92 0 -92 50q0 36 99 97.5t187 143.5t148 173q124 187 124 397q0 190 -96 345q-89 142 -244 226q-149 80 -323 80q-265 0 -458 -177q-127 -117 -177 -289q-26 -86 -26 -185.5t33.5 -199t94.5 -192.5q124 -187 342 -329
q38 -24 62.5 -41.5t24.5 -45.5z" />
    <glyph glyph-name="Omega" unicode="&#x2126;" horiz-adv-x="1671" 
d="M731 53q0 -53 -93 -53h-438q-60 0 -84.5 15.5t-24.5 36.5q0 44 57 44q18 0 44 -5q57 -11 135 -11h270q-238 140 -373.5 349t-135.5 435q0 306 210 516q213 213 536 213q214 0 388 -99q167 -95 264 -262t97 -368q0 -229 -143 -444q-137 -204 -368 -340h272q79 0 115 7
q46 9 64 9q57 0 57 -44q0 -52 -109 -52h-439q-92 0 -92 50q0 36 99 97.5t187 143.5t148 173q124 187 124 397q0 190 -96 345q-89 142 -244 226q-149 80 -323 80q-265 0 -458 -177q-127 -117 -177 -289q-26 -86 -26 -185.5t33.5 -199t94.5 -192.5q124 -187 342 -329
q38 -24 62.5 -41.5t24.5 -45.5z" />
    <glyph glyph-name="pi" unicode="&#x3c0;" horiz-adv-x="1475" 
d="M415 -12q-47 0 -47 51q0 14 2 28l6 32q5 32 5 163v844q-68 -4 -107.5 -19.5t-59.5 -39.5t-33.5 -33.5t-33.5 -9.5t-35 13t-15 44q0 69 159 108q72 18 234 18h471q250 0 279 6l40 8q9 2 25.5 2t30.5 -12t14 -31q0 -43 -69 -49q-52 -4 -118 -4h-119v-878q0 -118 70 -153
q20 -10 43 -10q53 0 86 26q78 60 103 26q8 -12 8 -26.5t-14 -33t-40 -34.5q-57 -36 -147 -36t-142.5 62.5t-52.5 192.5v864h-491v-945l4 -114q0 -29 -17.5 -44.5t-38.5 -15.5z" />
    <glyph glyph-name="uni1E02" unicode="&#x1e02;" horiz-adv-x="1503" 
d="M177 1415h429.5t193.5 -1q148 -7 209 -34.5t97 -61.5q77 -76 77 -184q0 -107 -75 -188q-23 -25 -53 -43q163 -30 267 -137q113 -116 113 -283q0 -170 -105 -293q-147 -170 -454 -186q-78 -4 -154 -4h-545v1415zM833 923l51 -6h16q79 0 137 58q62 62 62 152q0 110 -95 169
q-48 30 -95.5 35.5t-74.5 7.5q-56 4 -147 4v-1269h111q170 0 277 42q128 44 203 142q71 93 71 195t-30 172t-87 119q-116 101 -323 101l-69 -6q-32 0 -47 13t-15 30q0 41 55 41zM534.5 1558.5q-59.5 49.5 -59.5 128.5q0 67 66 117q68 50 171 50q104 0 171 -58
q59 -51 59 -121t-68 -117q-69 -49 -174.5 -49t-165 49.5z" />
    <glyph glyph-name="uni1E03" unicode="&#x1e03;" horiz-adv-x="1513" 
d="M853 -19q-139 0 -269 63v-44h-411v1415h411v-398q127 69 266 69t244 -41t180 -113q155 -152 155 -389q0 -239 -153 -397q-158 -165 -423 -165zM850 1013q-148 0 -266 -82v-802q131 -74 294 -74h26q12 0 23 2v950q-38 6 -77 6zM795 1289q-58 46 -58 121q0 63 64 108
q68 48 144 48t117.5 -15t70.5 -39q58 -49 58 -114t-66 -110t-169 -45t-161 46z" />
    <glyph glyph-name="uni1E0A" unicode="&#x1e0a;" horiz-adv-x="1578" 
d="M177 1415h416q291 0 427 -41q155 -48 239.5 -123t132.5 -155q98 -163 98 -370q0 -326 -234 -528q-166 -145 -391 -179q-125 -19 -350 -19h-338v1415zM687 83q16 -1 29 -1h23q271 0 463 169q203 178 203 473q0 186 -89 335q-129 217 -408 263q-91 15 -221 17v-1256z
M578.5 1558.5q-59.5 49.5 -59.5 128.5q0 67 66 117q68 50 171 50q104 0 171 -58q59 -51 59 -121t-68 -117q-69 -49 -174.5 -49t-165 49.5z" />
    <glyph glyph-name="uni1E0B" unicode="&#x1e0b;" horiz-adv-x="1496" 
d="M930 55q-125 -74 -264.5 -74t-245 41.5t-180.5 115.5q-156 155 -156 403q0 230 154 383q164 162 428 162q140 0 264 -61v390h412v-1415h-412v55zM646 1013q-31 0 -59 -4v-948q36 -6 78 -6q139 0 265 88v793q-135 77 -284 77zM344 1289q-58 46 -58 121q0 63 64 108
q68 48 144 48t117.5 -15t70.5 -39q58 -49 58 -114t-66 -110t-169 -45t-161 46z" />
    <glyph glyph-name="uni1E1E" unicode="&#x1e1e;" horiz-adv-x="1158" 
d="M1008 908l-41 1q-22 2 -56 2h-224v-911h-510v1415h794l99 3h18q75 0 75 -44q0 -17 -13.5 -31.5t-29.5 -14.5q-26 0 -50 5q-46 10 -120 10h-263v-360h201l124 5q54 0 54 -40t-58 -40zM534.5 1558.5q-59.5 49.5 -59.5 128.5q0 67 66 117q68 50 171 50q104 0 171 -58
q59 -51 59 -121t-68 -117q-69 -49 -174.5 -49t-165 49.5z" />
    <glyph glyph-name="uni1E1F" unicode="&#x1e1f;" horiz-adv-x="835" 
d="M821 991l-107 4h-111v-995h-430l1 995h-16l-95 -4q-59 0 -59 40.5t54 40.5l119 -4q21 181 161 277q128 88 335 88q194 0 267 -77q20 -21 20 -40q0 -44 -45 -44q-22 0 -43 15l-36 25q-58 43 -125 47q-18 1 -37.5 1t-36.5 -2l-34 -4v-286h87l134 4q54 0 54 -40.5t-57 -40.5
zM241 1587q-58 46 -58 121q0 63 64 108q68 48 144 48t117.5 -15t70.5 -39q58 -49 58 -114t-66 -110t-169 -45t-161 46z" />
    <glyph glyph-name="uni1E40" unicode="&#x1e40;" horiz-adv-x="1923" 
d="M22 2q-10 15 -8 33q5 31 19 57t20.5 39t13.5 29l38 88l411 1231l442 -854l429 854l513 -1479h-537l-248 764l-384 -800l-404 720l-140 -437q-33 -73 -47 -124t-23 -79q-20 -63 -66 -59q-19 2 -29 17zM772.5 1558.5q-59.5 49.5 -59.5 128.5q0 67 66 117q68 50 171 50
q104 0 171 -58q59 -51 59 -121t-68 -117q-69 -49 -174.5 -49t-165 49.5z" />
    <glyph glyph-name="uni1E41" unicode="&#x1e41;" horiz-adv-x="2217" 
d="M1331 792q2 -24 2 -48v-744h-429v970q-11 5 -26 5h-32q-78 0 -182 -107q-32 -33 -61 -73v-795h-430v1068h430v-161q169 179 378 179q270 0 333 -200q86 99 189.5 149.5t208.5 50.5q179 0 265 -85t86 -257v-744h-429v971q-9 4 -45 4t-66.5 -13.5t-62.5 -37.5
q-70 -51 -129 -132zM939 1289q-58 46 -58 121q0 63 64 108q68 48 144 48t117.5 -15t70.5 -39q58 -49 58 -114t-66 -110t-169 -45t-161 46z" />
    <glyph glyph-name="uni1E56" unicode="&#x1e56;" horiz-adv-x="1517" 
d="M839 415l89 -4q194 0 320 128q128 129 134 334q11 316 -304 427q-118 42 -307 42h-84v-1342h-510v1415h383q310 0 374 -9t133.5 -23t150 -61t136.5 -112q113 -132 109 -310q-6 -227 -133 -378q-129 -152 -356 -188q-66 -9 -104 -9q-90 0 -90 49q0 18 16 29.5t43 11.5z
M543.5 1558.5q-59.5 49.5 -59.5 128.5q0 67 66 117q68 50 171 50q104 0 171 -58q59 -51 59 -121t-68 -117q-69 -49 -174.5 -49t-165 49.5z" />
    <glyph glyph-name="uni1E57" unicode="&#x1e57;" horiz-adv-x="1512" 
d="M853 -19q-139 0 -269 63v-364h-411v1388h411v-55q131 73 268 73t242 -41t180 -113q155 -152 155 -389q0 -239 -153 -397q-158 -165 -423 -165zM850 1013q-148 0 -266 -82v-798q135 -78 294 -78h26q12 0 23 2v950q-38 6 -77 6zM703 1289q-58 46 -58 121q0 63 64 108
q68 48 144 48t117.5 -15t70.5 -39q58 -49 58 -114t-66 -110t-169 -45t-161 46z" />
    <glyph glyph-name="uni1E60" unicode="&#x1e60;" horiz-adv-x="1190" 
d="M177 72q-35 20 -60.5 42t-25.5 47q0 48 41 48q27 0 60 -30t74 -52.5t89 -38.5q99 -33 183 -33t129.5 11t76.5 30q66 41 66 105q0 59 -57 119q-48 51 -136 122l-171 134q-257 198 -303 362q-16 57 -16 127t31.5 138t93.5 119q133 111 362 111q117 0 210 -34.5t127 -61.5
t34 -49q0 -46 -38 -46q-22 0 -47 22t-55.5 38.5t-69.5 29.5q-84 28 -165 28q-149 0 -149 -98q0 -41 27 -76q48 -61 187.5 -174.5t224 -198.5t128.5 -153q70 -107 70 -222.5t-40.5 -196t-113.5 -138.5q-154 -122 -382 -122t-385 91zM428.5 1558.5q-59.5 49.5 -59.5 128.5
q0 67 66 117q68 50 171 50q104 0 171 -58q59 -51 59 -121t-68 -117q-69 -49 -174.5 -49t-165 49.5z" />
    <glyph glyph-name="uni1E61" unicode="&#x1e61;" horiz-adv-x="1023" 
d="M95 134q0 15 10.5 27.5t27.5 12.5t28 -10l25 -23q104 -91 291 -91q126 0 162 52q10 14 10 28.5t-5.5 28t-23.5 33t-51 46.5l-88 71q-218 170 -299 276q-74 97 -74 198q0 127 117 213q121 90 313 90q135 0 213 -31t110 -56.5t32 -46.5q0 -43 -34 -43q-16 0 -29.5 11.5
t-53.5 39t-106 43.5t-123 16t-80.5 -18t-23.5 -35.5t7 -33t26 -36.5q44 -52 141 -123t164 -130t105 -109q69 -90 69 -182t-34 -157.5t-97 -112.5q-133 -101 -355 -101q-178 0 -297 68q-77 43 -77 85zM379 1289q-58 46 -58 121q0 63 64 108q68 48 144 48t117.5 -15t70.5 -39
q58 -49 58 -114t-66 -110t-169 -45t-161 46z" />
    <glyph glyph-name="uni1E6A" unicode="&#x1e6a;" horiz-adv-x="1239" 
d="M1204 1389q0 -46 -97 -46h-232v-1343h-512v1343h-150q-77 0 -106 -7q-38 -8 -55 -8q-51 0 -51 40q0 47 99 47h892q69 0 102 6q40 7 60 7q50 0 50 -39zM446.5 1558.5q-59.5 49.5 -59.5 128.5q0 67 66 117q68 50 171 50q104 0 171 -58q59 -51 59 -121t-68 -117
q-69 -49 -174.5 -49t-165 49.5z" />
    <glyph glyph-name="uni1E6B" unicode="&#x1e6b;" horiz-adv-x="963" 
d="M584 -19q-392 0 -392 358l-1 656l-115 -5q-54 0 -54 41t58 41l96 -4h15v155l429 192v-347h134l95 4q59 0 59 -42q0 -19 -16.5 -29.5t-37.5 -10.5l-124 5h-110v-940q117 2 195 67q37 28 52.5 72t28 56.5t29.5 12.5t29 -13.5t12 -32t-10 -41t-30 -47.5q-45 -56 -104 -89
q-107 -59 -238 -59zM250 1545q-58 46 -58 121q0 63 64 108q68 48 144 48t117.5 -15t70.5 -39q58 -49 58 -114t-66 -110t-169 -45t-161 46z" />
    <glyph glyph-name="Wgrave" unicode="&#x1e80;" horiz-adv-x="1963" 
d="M1931 1382q0 -15 -7 -37q-24 -65 -43 -113l-530 -1287l-377 842l-391 -842l-592 1470h548l281 -749l381 813l355 -811l250 587q13 33 22 65l17 61q11 45 48.5 45t37.5 -44zM621 1700h281l117 -284h-154z" />
    <glyph glyph-name="wgrave" unicode="&#x1e81;" horiz-adv-x="1636" 
d="M4 1068h453l256 -538l302 584l315 -591l143 324q52 119 62.5 165.5t24.5 60t33 13.5t30.5 -14t11.5 -24.5t-1.5 -20t-8.5 -30t-23 -55.5l-431 -987l-334 639l-323 -639zM619 1479h281l117 -284h-154z" />
    <glyph glyph-name="Wacute" unicode="&#x1e82;" horiz-adv-x="1963" 
d="M1931 1382q0 -15 -7 -37q-24 -65 -43 -113l-530 -1287l-377 842l-391 -842l-592 1470h548l281 -749l381 813l355 -811l250 587q13 33 22 65l17 61q11 45 48.5 45t37.5 -44zM1111 1812h280l-243 -284h-155z" />
    <glyph glyph-name="wacute" unicode="&#x1e83;" horiz-adv-x="1636" 
d="M4 1068h453l256 -538l302 584l315 -591l143 324q52 119 62.5 165.5t24.5 60t33 13.5t30.5 -14t11.5 -24.5t-1.5 -20t-8.5 -30t-23 -55.5l-431 -987l-334 639l-323 -639zM892 1482h281l-243 -284h-156z" />
    <glyph glyph-name="Wdieresis" unicode="&#x1e84;" horiz-adv-x="1963" 
d="M1931 1382q0 -15 -7 -37q-24 -65 -43 -113l-530 -1287l-377 842l-391 -842l-592 1470h548l281 -749l381 813l355 -811l250 587q13 33 22 65l17 61q11 45 48.5 45t37.5 -44zM1373.5 1564.5q-47.5 -34.5 -108.5 -34.5t-93 10t-55 27q-48 35 -48 90q0 87 98 116q34 10 78 10
t76.5 -10.5t54.5 -28.5q45 -37 45 -91t-47.5 -88.5zM871 1564.5q-47 -34.5 -108 -34.5t-93 10t-55 27q-49 35 -49 90q0 87 99 116q33 10 77.5 10t76.5 -10.5t54 -28.5q45 -37 45 -91t-47 -88.5z" />
    <glyph glyph-name="wdieresis" unicode="&#x1e85;" horiz-adv-x="1636" 
d="M4 1068h453l256 -538l302 584l315 -591l143 324q52 119 62.5 165.5t24.5 60t33 13.5t30.5 -14t11.5 -24.5t-1.5 -20t-8.5 -30t-23 -55.5l-431 -987l-334 639l-323 -639zM1227.5 1236.5q-47.5 -34.5 -108.5 -34.5t-93 10t-55 27q-48 35 -48 90q0 87 98 116q34 10 78 10
t76.5 -10.5t54.5 -28.5q45 -37 45 -91t-47.5 -88.5zM725 1236.5q-47 -34.5 -108 -34.5t-93 10t-55 27q-49 35 -49 90q0 87 99 116q33 10 77.5 10t76.5 -10.5t54 -28.5q45 -37 45 -91t-47 -88.5z" />
    <glyph glyph-name="Ygrave" unicode="&#x1ef2;" horiz-adv-x="1320" 
d="M482 -11q-43 0 -43 44q0 27 26 59q52 62 99 143l51 91l-594 1089h583l286 -603l256 455q28 52 48 105.5t53 53.5q41 0 41 -41q0 -24 -18 -55l-684 -1220q-11 -20 -18 -33l-17 -36q-26 -52 -69 -52zM431 1700h281l117 -284h-154z" />
    <glyph glyph-name="ygrave" unicode="&#x1ef3;" horiz-adv-x="1069" 
d="M359 -236q61 19 85 49q34 40 82 144l23 53l-545 1058h455l284 -604l164 383q45 105 59 160t27.5 67t33 12t30.5 -12t11 -24t-2.5 -25.5t-10 -36t-21.5 -56.5l-415 -962q-74 -174 -142 -245q-58 -63 -117.5 -63t-59.5 41.5t59 60.5zM335 1479h281l117 -284h-154z" />
    <glyph glyph-name="endash" unicode="&#x2013;" horiz-adv-x="1058" 
d="M304 611l-150 -7q-24 0 -40.5 12.5t-16.5 32t15.5 31.5t41.5 12l142 -9h424l160 9q26 0 41.5 -12t15.5 -32q0 -43 -61 -43l-143 6h-429z" />
    <glyph glyph-name="emdash" unicode="&#x2014;" horiz-adv-x="1360" 
d="M304 611l-150 -7q-24 0 -40.5 12.5t-16.5 32t15.5 31.5t41.5 12l142 -9h726l160 9q26 0 41.5 -12t15.5 -32q0 -43 -61 -43l-143 6h-731z" />
    <glyph glyph-name="quoteleft" unicode="&#x2018;" horiz-adv-x="628" 
d="M167 1181q49 35 115.5 35t107 -17.5t68.5 -46.5q58 -59 58 -136q0 -83 -61 -140q-63 -60 -158 -60q-114 0 -181 68q-64 67 -64 173q0 161 104 287q55 65 85.5 77t47.5 12q47 0 47 -44q0 -16 -12 -21l-36 -16q-51 -23 -97 -90q-20 -31 -24 -81z" />
    <glyph glyph-name="quoteright" unicode="&#x2019;" horiz-adv-x="628" 
d="M309 817q-47 0 -47 44q0 16 12 21l36 16q51 23 97 90q20 29 24 80q-51 -34 -116.5 -34t-106 17.5t-68.5 46.5q-58 59 -58 136q0 83 61 140q63 60 158 60q113 0 181 -69q64 -66 64 -172q0 -161 -104 -287q-55 -65 -85.5 -77t-47.5 -12z" />
    <glyph glyph-name="quotesinglbase" unicode="&#x201a;" horiz-adv-x="628" 
d="M431 15q-53 -34 -117.5 -34t-105 17.5t-68.5 45.5q-58 60 -58 137q0 83 61 141q63 59 158 59q113 0 181 -69q64 -66 64 -172q0 -161 -104 -286q-55 -66 -85.5 -78t-47.5 -12q-47 0 -47 44q0 16 12 21l36 16q51 23 97 90q20 31 24 80z" />
    <glyph glyph-name="quotedblleft" unicode="&#x201c;" horiz-adv-x="1157" 
d="M696 1182q49 35 115.5 35t107 -17.5t68.5 -45.5q58 -60 58 -137q0 -83 -61 -141q-63 -59 -158 -59q-114 0 -180 69q-65 66 -65 172q0 161 105 286q54 66 84.5 78t47.5 12q47 0 47 -44q0 -16 -11 -21l-37 -16q-51 -23 -97 -90q-20 -31 -24 -81zM167 1182q49 35 115.5 35
t107 -17.5t68.5 -45.5q58 -60 58 -137q0 -83 -61 -141q-63 -59 -158 -59q-114 0 -181 69q-64 66 -64 172q0 161 104 286q55 66 85.5 78t47.5 12q47 0 47 -44q0 -16 -12 -21l-36 -16q-51 -23 -97 -90q-20 -31 -24 -81z" />
    <glyph glyph-name="quotedblright" unicode="&#x201d;" horiz-adv-x="1157" 
d="M838 817q-47 0 -47 44q0 16 11 21l37 16q51 23 97 90q20 29 24 80q-51 -34 -116.5 -34t-106 17.5t-68.5 46.5q-58 59 -58 136q0 83 61 140q63 60 158 60q113 0 180 -69q65 -66 65 -172q0 -161 -105 -287q-54 -65 -84.5 -77t-47.5 -12zM309 817q-47 0 -47 44q0 16 12 21
l36 16q51 23 97 90q20 29 24 80q-51 -34 -116.5 -34t-106 17.5t-68.5 46.5q-58 59 -58 136q0 83 61 140q63 60 158 60q113 0 181 -69q64 -66 64 -172q0 -161 -104 -287q-55 -65 -85.5 -77t-47.5 -12z" />
    <glyph glyph-name="quotedblbase" unicode="&#x201e;" horiz-adv-x="1171" 
d="M974 15q-53 -34 -117.5 -34t-105 17.5t-68.5 45.5q-58 60 -58 137q0 83 61 141q63 59 158 59q113 0 180 -69q65 -66 65 -172q0 -161 -105 -286q-54 -66 -84.5 -78t-47.5 -12q-47 0 -47 44q0 16 11 21l37 16q51 23 97 90q20 31 24 80zM431 15q-53 -34 -117.5 -34
t-105 17.5t-68.5 45.5q-58 60 -58 137q0 83 61 141q63 59 158 59q113 0 181 -69q64 -66 64 -172q0 -161 -104 -286q-55 -66 -85.5 -78t-47.5 -12q-47 0 -47 44q0 16 12 21l36 16q51 23 97 90q20 31 24 80z" />
    <glyph glyph-name="dagger" unicode="&#x2020;" horiz-adv-x="684" 
d="M385 138l3 -102q0 -26 -14.5 -40.5t-34.5 -14.5t-31.5 13.5t-11.5 33.5t5 46q7 35 7 153v759h-59l-110 -7q-23 0 -40 12t-17 31.5t15.5 31.5t41.5 12l141 -9h28v156q0 65 -3 97l-4 42q-1 10 -1 24q0 50 41 50q17 0 32.5 -12t15.5 -41l-4 -127v-189h1l160 9q26 0 41.5 -12
t15.5 -32q0 -43 -61 -43l-143 7h-14v-848z" />
    <glyph glyph-name="daggerdbl" unicode="&#x2021;" horiz-adv-x="684" 
d="M385 138l3 -102q0 -26 -14.5 -40.5t-34.5 -14.5t-31.5 13.5t-11.5 33.5t5 46q7 35 7 153v314h-59l-110 -7q-23 0 -40 12t-17 31.5t15.5 31.5t41.5 12l141 -9h28v374h-59l-110 -7q-23 0 -40 12t-17 31.5t15.5 31.5t41.5 12l141 -9h28v156q0 65 -3 97l-4 42q-1 10 -1 24
q0 50 41 50q17 0 32.5 -12t15.5 -41l-4 -127v-189h1l160 9q26 0 41.5 -12t15.5 -32q0 -43 -61 -43l-143 7h-14v-374h1l160 9q26 0 41.5 -12t15.5 -31q0 -44 -61 -44l-143 7h-14v-403z" />
    <glyph glyph-name="bullet" unicode="&#x2022;" horiz-adv-x="685" 
d="M325 536q-53 0 -96 15.5t-72 44.5q-60 58 -60 156q0 82 67 141q68 61 170 61q105 0 170 -69q60 -63 60 -148t-68 -142q-70 -59 -171 -59z" />
    <glyph glyph-name="ellipsis" unicode="&#x2026;" horiz-adv-x="2073" 
d="M1500 109q-15 40 -15 84t17.5 80.5t49.5 64.5q68 61 170 61q105 0 170 -69q60 -63 60 -148t-68 -142q-70 -59 -168 -59q-166 0 -216 128zM806 109q-15 40 -15 84t17.5 80.5t49.5 64.5q68 61 170 61q105 0 170 -69q60 -63 60 -148t-68 -142q-70 -59 -168 -59
q-166 0 -216 128zM112 109q-15 40 -15 84t17.5 80.5t49.5 64.5q68 61 170 61q105 0 170 -69q60 -63 60 -148t-68 -142q-70 -59 -168 -59q-166 0 -216 128z" />
    <glyph glyph-name="perthousand" unicode="&#x2030;" horiz-adv-x="2303" 
d="M344 -19q-39 0 -39 43q0 23 18.5 46t35.5 42q33 35 91 127l660 1032q35 56 52 92.5t27 49.5t31 13t35 -11t14 -24.5t-4.5 -24t-12.5 -22.5l-21 -30q-12 -17 -28 -42l-755 -1190q-45 -71 -66 -86t-38 -15zM458 788q-69 0 -130.5 22.5t-106.5 64.5q-96 90 -96 228
q0 131 98 217q97 86 239 86q136 0 228 -84q96 -87 96 -224q0 -133 -96 -222q-93 -86 -232 -88zM457 856q108 0 179 61q77 66 77 179q0 106 -76 175q-73 67 -180 67h-7q-4 0 -9 -1v-481h16zM1537 314q0 68 25.5 123.5t70.5 96.5q96 86 238 86q136 0 229 -84q95 -87 95 -225
q0 -133 -97 -222q-95 -88 -229 -88q-144 -2 -238 86.5t-94 226.5zM826 314q0 68 25.5 123.5t70.5 96.5q96 86 239 86q135 0 227 -84q96 -87 96 -225q0 -133 -96 -222q-94 -88 -229 -88q-144 -2 -239 87q-94 88 -94 226zM1866 69q107 0 180 61q77 65 77 179q0 106 -77 176
q-73 67 -180 67h-8t-9 -1v-482h17zM1156 70q106 0 178 61q78 65 78 178q0 107 -76 175q-74 67 -180 67h-8t-8 -1v-480h16z" />
    <glyph glyph-name="guilsinglleft" unicode="&#x2039;" horiz-adv-x="596" 
d="M100 699q137 114 211 191.5t88 91t23 20.5q15 12 31.5 12t29.5 -10.5t13 -28t-12.5 -32t-44 -38.5t-70.5 -58l-77 -67l-49 -47q-23 -22 -43 -39l267 -200v-441l-367 327v319z" />
    <glyph glyph-name="guilsinglright" unicode="&#x203a;" horiz-adv-x="596" 
d="M113 63.5q-13 10.5 -13 28t12.5 32t44 38.5t70.5 58l77 67l49 47q23 22 43 39l-267 200v441l367 -327v-319q-95 -80 -130 -113l-133 -132q-57 -63 -70 -66.5t-25 -3.5t-25 10.5z" />
    <glyph glyph-name="fraction" unicode="&#x2044;" horiz-adv-x="1090" 
d="M66.5 -7q-11.5 12 -11.5 26t2.5 22t8.5 17q11 18 36 45q40 45 98 136l666 1037q20 31 33.5 59t24.5 49t23.5 35t32.5 14q43 0 43 -37q0 -26 -20 -55l-126 -191l-689 -1082q-45 -69 -62 -78t-32.5 -9t-27 12z" />
    <glyph glyph-name="Euro" unicode="&#x20ac;" horiz-adv-x="1436" 
d="M93 627l-52 -5q-18 -1 -40.5 -1t-39 13t-16.5 32t15.5 31.5t34.5 12.5t35 -1l32 -2l26 -3v16q0 83 19 170q-68 -4 -82.5 -4t-31 13.5t-16.5 31.5q0 43 57 43q12 0 28 -1l32 -2l36 -3q79 214 274 338q199 127 459 127q187 0 329 -64q151 -67 151 -114q0 -19 -12.5 -33
t-28.5 -14q-32 0 -58 28.5t-70.5 51.5t-97.5 40q-108 33 -196.5 33t-146.5 -12v-383h210q62 0 89 3q45 5 71 5q57 0 57 -43q0 -18 -15.5 -31.5t-36.5 -13.5t-75 3l-300 3v-191h178q54 0 85 3q49 6 75.5 6t41.5 -12.5t15 -31.5t-15.5 -32t-46.5 -13l-142 7h-191v-561
q70 -12 124 -12t110 7t110 23q121 36 182 106q22 26 35 36t30 10q41 0 41 -46q0 -38 -58 -76q-108 -71 -182 -93q-139 -41 -285.5 -41t-280 47t-231.5 132q-205 178 -235 467z" />
    <glyph glyph-name="trademark" unicode="&#x2122;" horiz-adv-x="1651" 
d="M742 902q-19 0 -31 13t-12 27t5 30l10 37l14 43q8 23 14 49l126 502l249 -395l242 395l171 -692h-227l-82 285l-176 -304l-194 309l-57 -238q-12 -61 -52 -61zM582 1572l88 9q17 0 33.5 -12t16.5 -31t-14 -33t-45 -14h-130v-580h-240v580h-52l-88 -8q-17 0 -33 11.5
t-16 31t14.5 33t45.5 13.5h420z" />
    <glyph glyph-name="partialdiff" unicode="&#x2202;" horiz-adv-x="1187" 
d="M272 1409q-38 0 -38 43q0 45 89 90q99 51 226 51q196 0 339 -158q109 -120 154 -349q24 -117 24 -294.5t-34.5 -333.5t-99.5 -262q-132 -217 -375 -217q-195 0 -326 137q-134 140 -134 355q0 224 143 370q139 143 350 143q194 0 319 -156q39 -48 67 -106q2 40 2 134.5
t-21 204.5t-56.5 188.5t-81.5 129.5t-96 81q-89 52 -208 52t-181 -65q-13 -16 -25 -27t-37 -11zM214 656q-30 -76 -30 -172.5t33.5 -176t87.5 -133.5q111 -113 259 -113q250 0 355 309q35 102 49 239q-95 205 -271 271q-60 23 -133.5 23t-144 -30.5t-123 -85.5t-82.5 -131z
" />
    <glyph glyph-name="product" unicode="&#x220f;" horiz-adv-x="1417" 
d="M383 162l3 -114q0 -29 -16 -44.5t-38 -15.5t-34.5 14.5t-12.5 32.5t3 32l5 32q5 32 5 163v1229h-15q-75 0 -118 5q-68 6 -68 51q0 17 13 29t30 12q24 0 41.5 -4t39 -6.5t56.5 -3.5q70 -2 207 -2h425q249 0 278 6q44 10 63 10t32.5 -12t13.5 -29q0 -45 -69 -51
q-43 -5 -116 -5h-17v-1329l3 -114q0 -29 -16 -44.5t-39 -15.5t-35.5 14.5t-12.5 32.5t3 32t6 33q5 30 5 162v1229h-625v-1329z" />
    <glyph glyph-name="summation" unicode="&#x2211;" horiz-adv-x="1196" 
d="M113 15.5q-16 15.5 -16 32t3 28t14 28.5q19 30 81 98l556 615l-569 578q-85 87 -85 117t16.5 45t41.5 15h533q248 0 277 6q44 10 63.5 10t33 -12t13.5 -29q0 -45 -68 -51q-43 -5 -118 -5h-680l574 -580q57 -61 57 -92q0 -26 -50 -81l-589 -658h487q260 0 284 6
q34 10 55 10t34.5 -12t13.5 -29q0 -44 -68 -50q-43 -5 -118 -5h-734q-26 0 -42 15.5z" />
    <glyph glyph-name="minus" unicode="&#x2212;" horiz-adv-x="1025" 
d="M306 528l-147 -7q-28 0 -45 12.5t-17 32.5q0 43 59 43q12 0 46 -4t96 -4h403l129 8h17q24 0 40.5 -12t16.5 -31.5t-17.5 -31.5t-43.5 -12l-148 6h-389z" />
    <glyph glyph-name="radical" unicode="&#x221a;" horiz-adv-x="1222" 
d="M1055 1593q46 0 46 -44q0 -18 -9 -41l-17 -47q-22 -54 -37 -106l-373 -1287q-26 -89 -84 -89q-62 0 -92 89l-185 519l-139 -9q-39 0 -53.5 14.5t-14.5 31.5q0 43 67 43h151q58 0 75 -44l188 -542l396 1389q17 62 34.5 92.5t46.5 30.5z" />
    <glyph glyph-name="infinity" unicode="&#x221e;" horiz-adv-x="1482" 
d="M471 344q-46 -16 -101.5 -16t-106.5 19t-88 53q-78 72 -78 178q0 104 76 176q79 76 199 76q75 0 130 -30q87 -49 226 -180q122 117 181 153q96 57 169 57t123 -20t85 -54q75 -73 75 -178q0 -106 -81 -178t-199 -72q-83 0 -138 28q-98 50 -217 162q-94 -89 -151.5 -123.5
t-103.5 -50.5zM780 570q145 -136 237 -161q30 -8 67 -8t75 12t66 35q60 48 60 131q0 80 -62 131q-57 47 -137 47q-66 0 -117.5 -32t-92.5 -68zM376 401q36 0 66 8t64 27q56 33 167 133q-113 109 -165 140q-79 48 -129.5 48t-86 -13t-61.5 -36q-56 -50 -56 -129
q0 -75 61 -127q61 -51 140 -51z" />
    <glyph glyph-name="integral" unicode="&#x222b;" horiz-adv-x="802" 
d="M545 1515q-113 0 -113 -172v-1466q0 -125 -61 -193q-55 -61 -141 -61q-74 0 -108 25q-55 40 -55 81q0 11 8 24.5t21.5 13.5t19 -1.5t11.5 -5t13 -10.5l19 -18q33 -31 74 -31q113 0 113 172v1465q0 188 126 240q36 15 75.5 15t70 -10t51.5 -25q42 -32 42 -72
q0 -12 -8 -24.5t-23 -12.5q-27 0 -51 24q-42 42 -84 42z" />
    <glyph glyph-name="approxequal" unicode="&#x2248;" horiz-adv-x="1021" 
d="M128 605q-31 0 -31 38q0 41 64 81q68 42 146 42q82 0 161 -35l44 -20q110 -55 168 -55q99 0 128 46q20 29 31.5 36.5t26 7.5t24.5 -10.5t10 -29.5t-17.5 -41t-46.5 -40q-69 -42 -147 -42q-77 0 -159 39l-45 21q-101 49 -161.5 49t-88.5 -10.5t-46.5 -33.5t-29 -33
t-31.5 -10zM159.5 396q-10.5 -11 -27.5 -11q-35 0 -35 39q0 41 64 81q68 42 146 42q79 0 161 -36l44 -20q112 -54 169 -54q97 0 127 45q20 29 31.5 37t26.5 8q34 0 34 -41t-64 -80q-68 -41 -147 -41t-159 37l-45 22q-101 49 -161.5 49t-88.5 -10t-46.5 -33t-29 -34z" />
    <glyph glyph-name="notequal" unicode="&#x2260;" horiz-adv-x="1014" 
d="M831 326l-100 6h-302l-41 -86q-64 -132 -93 -132q-14 0 -25 11.5t-11 25.5q0 23 18.5 47.5t26 40t15.5 33.5l16 36q8 17 12 24h-85l-110 -6q-24 0 -39.5 12.5t-15.5 30.5q0 45 55 45l143 -9h91l150 319h-233l-151 -6q-24 0 -39.5 12.5t-15.5 31.5q0 43 55 43q13 0 28 -1
l31 -2q50 -5 84 -5h276l45 99q24 52 31 73q12 41 42 41q17 0 27 -12t10 -22t-6.5 -27t-17.5 -41l-50 -111h23q61 0 89 3q47 5 71 5q58 0 58 -43q0 -19 -16.5 -31.5t-45.5 -12.5l-143 6h-71l-153 -319h211l160 9q58 0 58 -45q0 -18 -16.5 -30.5t-45.5 -12.5z" />
    <glyph glyph-name="lessequal" unicode="&#x2264;" horiz-adv-x="1025" 
d="M808 452q0 -38 -41 -38q-27 0 -54 18l-42 29q-16 11 -41 26l-408 252q-32 20 -46.5 34.5t-14.5 32.5q0 34 48 65l400 252q22 13 36 23l25 16q10 7 18.5 13.5t21.5 16.5q35 25 60 25q38 0 38 -37q0 -27 -37 -46q-18 -10 -29 -17l-489 -308l431 -263q17 -10 30 -16l21 -10
q9 -4 29 -12q44 -19 44 -56zM306 255l-147 -7q-28 0 -45 12.5t-17 32.5q0 43 59 43q12 0 46 -4t96 -4h403l129 8h17q24 0 40.5 -12t16.5 -31.5t-17.5 -31.5t-43.5 -12l-148 6h-389z" />
    <glyph glyph-name="greaterequal" unicode="&#x2265;" horiz-adv-x="1025" 
d="M189 1180q0 37 38 37q27 0 50 -17l31 -24q9 -7 20 -14l24 -16q14 -10 36 -23l401 -252q47 -31 47 -57t-14.5 -40.5t-46.5 -34.5l-409 -252q-24 -15 -39.5 -26t-34.5 -23q-34 -24 -57 -24q-46 0 -46 38q0 37 55 60q46 20 66 32l434 265l-448 282q-13 8 -21 13.5t-15 9.5
q-23 14 -39 22q-32 18 -32 44zM306 255l-147 -7q-28 0 -45 12.5t-17 32.5q0 43 59 43q12 0 46 -4t96 -4h403l129 8h17q24 0 40.5 -12t16.5 -31.5t-17.5 -31.5t-43.5 -12l-148 6h-389z" />
    <glyph glyph-name="lozenge" unicode="&#x25ca;" horiz-adv-x="1071" 
d="M115 724q-18 37 -18 52t1 21t4 17q6 20 36 77l325 644q19 34 30.5 46t29.5 12t30.5 -10.5t31.5 -47.5l332 -656q33 -64 33 -84q0 -37 -33 -103l-332 -655q-18 -35 -30.5 -46.5t-28.5 -11.5q-31 0 -63 58zM867 785l-347 688l-341 -687l348 -688z" />
    <glyph glyph-name="ff" unicode="&#xfb00;" horiz-adv-x="1670" 
d="M821 991l-107 4h-111v-995h-430l1 995h-16l-95 -4q-59 0 -59 40.5t54 40.5l119 -4q21 181 161 277q128 88 335 88q194 0 267 -77q20 -21 20 -40q0 -44 -45 -44q-22 0 -43 15l-36 25q-58 43 -125 47q-18 1 -37.5 1t-36.5 -2l-34 -4v-286h87l134 4q54 0 54 -40.5t-57 -40.5
zM1656 991l-107 4h-111v-995h-430l1 995h-16l-95 -4q-59 0 -59 40.5t54 40.5l119 -4q21 181 161 277q128 88 335 88q194 0 267 -77q20 -21 20 -40q0 -44 -45 -44q-22 0 -43 15l-36 25q-58 43 -125 47q-18 1 -37.5 1t-36.5 -2l-34 -4v-286h87l134 4q54 0 54 -40.5t-57 -40.5z
" />
    <glyph glyph-name="fi" unicode="&#xfb01;" horiz-adv-x="1592" 
d="M821 991l-107 4h-111v-995h-430l1 995h-16l-95 -4q-59 0 -59 40.5t54 40.5l119 -4q21 181 161 277q128 88 335 88q194 0 267 -77q20 -21 20 -40q0 -44 -45 -44q-22 0 -43 15l-36 25q-58 43 -125 47q-18 1 -37.5 1t-36.5 -2l-34 -4v-286h87l134 4q54 0 54 -40.5t-57 -40.5
zM1057 1289q-58 46 -58 121q0 63 64 108q68 48 144 48t117.5 -15t70.5 -39q58 -49 58 -114t-66 -110t-169 -45t-161 46zM1008 1068h430v-1068h-430v1068z" />
    <glyph glyph-name="fl" unicode="&#xfb02;" horiz-adv-x="1592" 
d="M821 991l-107 4h-111v-995h-430l1 995h-16l-95 -4q-59 0 -59 40.5t54 40.5l119 -4q21 181 161 277q128 88 335 88q194 0 267 -77q20 -21 20 -40q0 -44 -45 -44q-22 0 -43 15l-36 25q-58 43 -125 47q-18 1 -37.5 1t-36.5 -2l-34 -4v-286h87l134 4q54 0 54 -40.5t-57 -40.5
zM1008 1415h430v-1415h-430v1415z" />
    <glyph glyph-name="ffi" unicode="&#xfb03;" horiz-adv-x="2427" 
d="M821 991l-107 4h-111v-995h-430l1 995h-16l-95 -4q-59 0 -59 40.5t54 40.5l119 -4q21 181 161 277q128 88 335 88q194 0 267 -77q20 -21 20 -40q0 -44 -45 -44q-22 0 -43 15l-36 25q-58 43 -125 47q-18 1 -37.5 1t-36.5 -2l-34 -4v-286h87l134 4q54 0 54 -40.5t-57 -40.5
zM1656 991l-107 4h-111v-995h-430l1 995h-16l-95 -4q-59 0 -59 40.5t54 40.5l119 -4q21 181 161 277q128 88 335 88q194 0 267 -77q20 -21 20 -40q0 -44 -45 -44q-22 0 -43 15l-36 25q-58 43 -125 47q-18 1 -37.5 1t-36.5 -2l-34 -4v-286h87l134 4q54 0 54 -40.5t-57 -40.5z
M1892 1289q-58 46 -58 121q0 63 64 108q68 48 144 48t117.5 -15t70.5 -39q58 -49 58 -114t-66 -110t-169 -45t-161 46zM1843 1068h430v-1068h-430v1068z" />
    <glyph glyph-name="ffl" unicode="&#xfb04;" horiz-adv-x="2427" 
d="M821 991l-107 4h-111v-995h-430l1 995h-16l-95 -4q-59 0 -59 40.5t54 40.5l119 -4q21 181 161 277q128 88 335 88q194 0 267 -77q20 -21 20 -40q0 -44 -45 -44q-22 0 -43 15l-36 25q-58 43 -125 47q-18 1 -37.5 1t-36.5 -2l-34 -4v-286h87l134 4q54 0 54 -40.5t-57 -40.5
zM1656 991l-107 4h-111v-995h-430l1 995h-16l-95 -4q-59 0 -59 40.5t54 40.5l119 -4q21 181 161 277q128 88 335 88q194 0 267 -77q20 -21 20 -40q0 -44 -45 -44q-22 0 -43 15l-36 25q-58 43 -125 47q-18 1 -37.5 1t-36.5 -2l-34 -4v-286h87l134 4q54 0 54 -40.5t-57 -40.5z
M1843 1415h430v-1415h-430v1415z" />
    <glyph glyph-name="acute.cap" horiz-adv-x="581" 
d="M259 1812h280l-243 -284h-155z" />
    <glyph glyph-name="grave.cap" horiz-adv-x="581" 
d="M41 1700h281l117 -284h-154z" />
    <glyph glyph-name="dieresis.cap" horiz-adv-x="1037" 
d="M898.5 1564.5q-47.5 -34.5 -108.5 -34.5t-93 10t-55 27q-48 35 -48 90q0 87 98 116q34 10 78 10t76.5 -10.5t54.5 -28.5q45 -37 45 -91t-47.5 -88.5zM396 1564.5q-47 -34.5 -108 -34.5t-93 10t-55 27q-49 35 -49 90q0 87 99 116q33 10 77.5 10t76.5 -10.5t54 -28.5
q45 -37 45 -91t-47 -88.5z" />
    <glyph glyph-name="circumflex.cap" horiz-adv-x="943" 
d="M238 1574l-30 -30q-22 -22 -39 -22t-27.5 10.5t-10.5 24.5q0 26 41 61q13 13 33 30.5t58 55.5l110 110h255l263 -284h-308l-180 214q-125 -126 -141 -144t-24 -26z" />
    <glyph glyph-name="caron.cap" horiz-adv-x="943" 
d="M812 1823q39 0 39 -37q0 -27 -40 -59l-92 -85l-110 -111h-256l-262 284h309l180 -214l179 184q32 38 53 38z" />
    <glyph glyph-name="hungarumlaut.cap" horiz-adv-x="956" 
d="M693 1814h231l-193 -284h-156zM319 1814h231l-193 -284h-156z" />
    <glyph glyph-name="tilde.cap" horiz-adv-x="887" 
d="M126.5 1540q-12.5 0 -24 13.5t-11.5 46t20 76t55 78.5q78 78 179 78q84 0 190 -83l52 -40q57 -43 75 -43t34.5 25t23 65t13.5 53.5t24 13.5t28.5 -15t11.5 -46.5t-20 -75t-55 -78.5q-78 -78 -179 -78q-79 0 -187 78l-72 54q-32 25 -47 25t-25.5 -6.5t-20.5 -18.5
q-22 -25 -27 -52l-6 -38q-4 -24 -11.5 -28t-20 -4z" />
    <glyph glyph-name="ring.cap" horiz-adv-x="494" 
d="M247 1530q-66 0 -111 42q-45 41 -45 110q0 100 95 139q29 12 62.5 12t62 -11t49.5 -31q43 -42 43 -109t-45 -110q-44 -42 -111 -42zM216.5 1608q14.5 -6 39.5 -6t48.5 21.5t23.5 56.5t-22.5 57t-58 22t-58 -22t-22.5 -47t6.5 -39.5t17.5 -25.5t25.5 -17z" />
    <glyph glyph-name="dotaccent.cap" horiz-adv-x="535" 
d="M93.5 1558.5q-59.5 49.5 -59.5 128.5q0 67 66 117q68 50 171 50q104 0 171 -58q59 -51 59 -121t-68 -117q-69 -49 -174.5 -49t-165 49.5z" />
    <glyph glyph-name="foundryicon" horiz-adv-x="2651" 
d="M536 709q0 223 112 413q108 185 293 294q190 111 413 111t413 -111q185 -109 293 -294q112 -190 112 -413t-112 -413q-108 -185 -293 -294q-190 -111 -413 -111t-413 111q-185 109 -293 294q-112 190 -112 413zM1655 1081l1 38q0 96 -24 136q-46 75 -148 71
q-181 -9 -334 -92q-94 -51 -132 -112q-19 -31 -19 -61.5t24 -60.5q-10 -2 -20 -5.5t-24 -8t-34 -16.5t-39 -26q-79 -60 -79 -148q0 -49 18.5 -83t47.5 -60t63.5 -48.5t71 -43t68.5 -41.5q99 -63 99 -127q0 -22 -8 -38q-32 -21 -67.5 -21t-63.5 8t-52 20q-50 26 -58.5 49.5
t-10.5 37.5t-6 34q-10 5 -35 5q-55 0 -69 -9q-23 -92 -23 -134q14 -53 131 -77q108 -21 213 11q96 29 155 119q13 20 18 36q9 27 9 55q0 89 -98 159q-30 22 -64 42l-68 40q-125 72 -140 120q-13 37 7 72q32 21 63 21t53 -7t40 -17q39 -22 46 -44t11.5 -41t9.5 -25
q12 -5 34 -5q40 0 52 6q10 23 16.5 81.5t5.5 70.5q-11 6 -14 6.5t-16.5 6t-39.5 17.5t-49 28q-54 39 -57 80t28 74t78 58q100 52 177.5 55.5t95 -20.5t17.5 -67t-6 -96t-9 -119q-18 -11 -36 -21l-57 -29q-22 -12 -22 -33.5t13 -21.5l100 -1l-13 -433q0 -181 183 -181
q112 0 241 76q2 3 2 11t-2 16q-7 19 -18 16l-30 -6q-148 -34 -184 18q-24 35 -24 107v216l1 159h208q13 3 20.5 43t7.5 56t-13 16l-223 -9v62l-1 1v16t1 18z" />
    <glyph glyph-name="commaaccent" horiz-adv-x="456" 
d="M386 -409q-82 -36 -142 -36t-101 12t-69 32q-58 41 -58 104q0 67 64 108.5t170.5 41.5t168.5 -46t62 -132q0 -119 -92 -208q-64 -62 -85 -73.5t-41 -15.5q-47 -8 -49 34q-1 16 16 28l39 28q92 64 117 123z" />
    <glyph glyph-name="breve.cap" horiz-adv-x="714" 
d="M581 1824q41 0 41 -50t-19 -94t-53 -77q-76 -72 -192 -72q-117 0 -192 70q-75 69 -75 172q0 23 12 37t31 14q40 0 48 -68q8 -66 58.5 -109t103 -43t84 11.5t54.5 32.5q49 42 53.5 109t45.5 67z" />
    <glyph glyph-name="macron.cap" horiz-adv-x="904" 
d="M298 1721l-150 -9q-24 0 -40.5 13.5t-16.5 32.5t15.5 31t41.5 12l142 -8h307l159 8q56 0 56 -44q0 -18 -15.5 -31t-44.5 -13l-143 8h-311z" />
    <glyph glyph-name="caronvertical" horiz-adv-x="679" 
d="M338 1434q195 0 195 -241q0 -248 -128 -349q-35 -27 -69 -27q-47 0 -47 44q0 16 11 21l37 16q27 12 43 38l34 52q9 13 10.5 34t3.5 46l-22 -14q-30 -20 -79 -20t-83 17.5t-55 46.5q-40 54 -40 115t11.5 97.5t34.5 63.5q50 60 143 60z" />
  </font>
</defs>
</svg>
