<?xml version="1.0" standalone="no"?>
<!DOCTYPE svg PUBLIC "-//W3C//DTD SVG 1.1//EN" "http://www.w3.org/Graphics/SVG/1.1/DTD/svg11.dtd" >
<svg xmlns="http://www.w3.org/2000/svg" xmlns:xlink="http://www.w3.org/1999/xlink" version="1.1">
<metadata>
Created by FontForge 20161013 at Thu Dec 23 15:03:44 2010
 By ,,,
Copyright (c) 2010 by Brian J. Bonislawsky DBA Astigmatic (AOETI). All rights reserved. Available under the Apache 2.0 licence.http://www.apache.org/licenses/LICENSE-2.0.html
</metadata>
<defs>
<font id="LuckiestGuy-Regular" horiz-adv-x="1282" >
  <font-face 
    font-family="Luckiest Guy"
    font-weight="400"
    font-stretch="normal"
    units-per-em="2048"
    panose-1="2 0 5 6 0 0 0 2 0 4"
    ascent="1440"
    descent="-608"
    x-height="1388"
    cap-height="1408"
    bbox="-229 -716 2124 2045"
    underline-thickness="40"
    underline-position="-306"
    unicode-range="U+0020-FB02"
  />
<missing-glyph horiz-adv-x="400" 
 />
    <glyph glyph-name="fi" unicode="fi" horiz-adv-x="1559" 
d="M997 1422q-6 -94 -11 -186t-13 -186l-424 -22v-126h368l-20 -310l-350 -10l2 -552l-506 -10l32 1402h922zM1529 1408l-70 -1362l-422 -22l-40 1356z" />
    <glyph glyph-name="fl" unicode="fl" horiz-adv-x="1877" 
d="M997 1422q-6 -94 -11 -186t-13 -186l-424 -22v-126h368l-20 -310l-350 -10l2 -552l-506 -10l32 1402h922zM1881 530l-42 -444l-842 -66l32 1428h520l-74 -918h406z" />
    <glyph glyph-name=".notdef" horiz-adv-x="400" 
 />
    <glyph glyph-name=".null" horiz-adv-x="0" 
 />
    <glyph glyph-name="nonmarkingreturn" horiz-adv-x="400" 
 />
    <glyph glyph-name="space" unicode=" " horiz-adv-x="400" 
 />
    <glyph glyph-name="exclam" unicode="!" horiz-adv-x="572" 
d="M541 1486l-82 -1052h-370l-38 1052h490zM475 126q0 -44 -17 -82t-45.5 -66.5t-66.5 -45t-81 -16.5q-44 0 -82 16.5t-66.5 45t-45 66.5t-16.5 82q0 43 16.5 82t45 67.5t66.5 45.5t82 17q43 0 81 -17t66.5 -45.5t45.5 -67.5t17 -82z" />
    <glyph glyph-name="quotedbl" unicode="&#x22;" horiz-adv-x="982" 
d="M490 1616l-112 -608l-308 -10l-62 608zM990 1556l-112 -608l-308 -10l-62 608z" />
    <glyph glyph-name="numbersign" unicode="#" horiz-adv-x="1242" 
d="M1146 764l-180 4l-22 -160l174 2l-38 -270h-176l-24 -174l-328 4l28 170h-98l-24 -130l-292 6l20 124l-144 -2l46 268h144l34 178l-150 2l48 260l148 -4l24 154l284 -18l-24 -140h104l44 242l294 -10l-34 -240l178 -2zM554 778l-30 -172l102 2l30 168z" />
    <glyph glyph-name="dollar" unicode="$" horiz-adv-x="894" 
d="M293 -138l10 394q-32 6 -65 14.5t-64.5 18t-60.5 19.5t-52 20l34 246q63 -32 141 -48t155 -16q14 0 34.5 1t39.5 5.5t32.5 14.5t13.5 27q0 18 -19.5 27.5t-46 14t-53.5 5.5t-41 1q-65 0 -118 17t-91.5 48.5t-59.5 75.5t-21 99q0 51 17.5 95t49 80t75 63.5t94.5 45.5
l-16 422l108 -10v-388q14 3 27 4.5t27 3.5l-2 390l108 -2l-14 -388q66 -2 133 -12.5t123 -33.5l-26 -254q-53 14 -109 24t-107 10q-16 0 -42.5 -1t-52 -6t-44 -15t-17.5 -28q1 -15 13 -22.5t30.5 -11t41.5 -3.5t44.5 1t40.5 2t30 0q60 -3 108 -21t82 -48.5t52 -72.5t18 -92
q0 -70 -23.5 -124t-65.5 -93.5t-100.5 -65t-128.5 -37.5l16 -394l-98 -10l-4 394q-14 -2 -28 -2h-28h-4l2 -390z" />
    <glyph glyph-name="percent" unicode="%" horiz-adv-x="1484" 
d="M1443 426q0 -53 -22 -104.5t-64 -92t-101.5 -66t-134.5 -25.5q-74 0 -133.5 25.5t-101 66t-63.5 92t-22 104.5q0 52 22 104t63.5 92.5t101 66t133.5 25.5q75 0 134.5 -25.5t101.5 -66t64 -92.5t22 -104zM1217 428q0 16 -5.5 34.5t-17.5 35t-30.5 27.5t-44.5 11t-45 -11
t-31 -27.5t-18 -35t-6 -34.5t6 -34.5t18 -35t31 -27.5t45 -11t44.5 11t30.5 27.5t17.5 35t5.5 34.5zM683 922q0 -53 -22 -104.5t-64 -92t-101.5 -66t-134.5 -25.5q-74 0 -133.5 25.5t-101 66t-63.5 92t-22 104.5q0 52 22 104t63.5 92.5t101 66t133.5 25.5q75 0 134.5 -25.5
t101.5 -66t64 -92.5t22 -104zM457 924q0 16 -5.5 34.5t-17.5 35t-30.5 27.5t-44.5 11t-45 -11t-31 -27.5t-18 -35t-6 -34.5t6 -34.5t18 -35t31 -27.5t45 -11t44.5 11t30.5 27.5t17.5 35t5.5 34.5zM1083 1244q-128 -279 -237.5 -567.5t-204.5 -582.5l-208 76
q59 145 117.5 289.5t120 287.5t127.5 283.5t141 277.5z" />
    <glyph glyph-name="ampersand" unicode="&#x26;" horiz-adv-x="1290" 
d="M1086 98q-35 27 -70 52t-70 52q-49 -39 -110.5 -75t-131.5 -62t-145 -39t-151 -6q-87 6 -162.5 34.5t-129.5 73.5t-81.5 103t-18.5 123q8 55 36.5 106.5t69.5 98.5t92 89.5t104 79.5q-38 37 -71.5 78.5t-57.5 86t-35.5 91t-3.5 94.5q10 64 53 121t109 98t148.5 62.5
t171.5 14.5q82 -6 152.5 -39t120.5 -82t75 -108.5t16 -118.5q-7 -48 -31 -90t-58.5 -79.5t-77 -72t-85.5 -68.5q42 -32 80.5 -61.5t79.5 -58.5q18 26 35 54t31 58l298 -72q-20 -56 -52.5 -112.5t-71.5 -109.5q44 -32 86 -61t86 -61zM622 1046q3 35 -12.5 57t-47.5 25
q-33 5 -57 -13.5t-27 -54.5q-2 -23 3 -46.5t14.5 -46t21.5 -43t23 -36.5q13 15 26.5 34t25 40t20 42.5t10.5 41.5zM654 390q-30 36 -62 74t-62 74q-13 -14 -29 -34t-30.5 -42.5t-25.5 -46t-13 -45.5q-2 -29 16.5 -53t47.5 -27q21 -3 43.5 6.5t43.5 25.5t39.5 34.5t31.5 33.5
z" />
    <glyph glyph-name="quotesingle" unicode="'" horiz-adv-x="476" 
d="M494 1616l-112 -608l-308 -10l-62 608z" />
    <glyph glyph-name="parenleft" unicode="(" horiz-adv-x="797" 
d="M843 1404q-98 -57 -171 -138t-121 -174t-72 -190.5t-24 -187.5t19 -190t58 -197.5t98.5 -187t140.5 -159.5l-358 -146q-73 47 -130 112t-100 140.5t-72.5 158.5t-48 165.5t-27 162t-8.5 149.5q0 109 30 226.5t88.5 230t145.5 211.5t202 170z" />
    <glyph glyph-name="parenright" unicode=")" horiz-adv-x="782" 
d="M756 672q0 -73 -13.5 -150t-39.5 -154.5t-65.5 -153t-91.5 -144.5t-116.5 -129t-141.5 -107l-348 156q97 58 169 139t118.5 173.5t69.5 190t23 187.5q0 91 -18.5 191t-56.5 197.5t-96.5 187t-138.5 160.5l356 144q73 -48 130.5 -113.5t100.5 -141t73.5 -158t49.5 -165
t27.5 -162t8.5 -148.5z" />
    <glyph glyph-name="asterisk" unicode="*" horiz-adv-x="1110" 
d="M811 920l190 -236l-260 -210l-188 286l-182 -302l-260 200l182 222l-252 98l122 290l212 -106l-6 298l332 12l-12 -322l214 160l148 -296z" />
    <glyph glyph-name="plus" unicode="+" horiz-adv-x="933" 
d="M306 226l-2 262l-250 4l-4 300l250 8v236l310 32l4 -254l262 8l4 -342l-262 4l4 -262z" />
    <glyph glyph-name="comma" unicode="," horiz-adv-x="456" 
d="M436 222q-1 -47 -20.5 -104t-55.5 -112.5t-86.5 -105t-113.5 -82.5q0 1 -1 23.5t-2.5 55t-3.5 69.5t-3 66q-62 23 -98 77t-36 119q0 43 16.5 81t45 66.5t66.5 45.5t82 17q43 0 81.5 -17t67 -45.5t45.5 -66.5t16 -81v-6z" />
    <glyph glyph-name="hyphen" unicode="-" horiz-adv-x="783" 
d="M69 552l-4 300l646 30l4 -342z" />
    <glyph glyph-name="period" unicode="." horiz-adv-x="454" 
d="M438 206q0 -44 -17 -82t-45.5 -66.5t-66.5 -45t-81 -16.5q-44 0 -82 16.5t-66.5 45t-45 66.5t-16.5 82q0 43 16.5 82t45 67.5t66.5 45.5t82 17q43 0 81 -17t66.5 -45.5t45.5 -67.5t17 -82z" />
    <glyph glyph-name="slash" unicode="/" horiz-adv-x="1034" 
d="M993 1360q-161 -349 -297.5 -709.5t-254.5 -728.5l-400 156q73 181 146 361.5t149.5 359t159.5 354.5t177 347z" />
    <glyph glyph-name="zero" unicode="0" horiz-adv-x="1296" 
d="M1267 716q0 -88 -19.5 -175t-56.5 -167t-90.5 -149t-122.5 -120t-151.5 -80t-177.5 -29q-96 0 -179 29t-151.5 80t-122.5 120t-91 149t-56.5 167.5t-19.5 174.5t19.5 175t56.5 168t91 149.5t122.5 120.5t152 80t178.5 29t177.5 -29t151.5 -80t122.5 -120.5t90.5 -149.5
t56.5 -168t19.5 -175zM845 686q0 44 -12 98t-37 101t-64 79t-93 32q-55 0 -94 -32t-64.5 -79t-37.5 -101t-12 -98t12 -98t37.5 -101t64.5 -79t94 -32q54 0 93 32t64 79t37 101t12 98z" />
    <glyph glyph-name="one" unicode="1" horiz-adv-x="795" 
d="M750 1438l-58 -1422l-436 20l24 946l-160 -110l-150 342l326 244z" />
    <glyph glyph-name="two" unicode="2" horiz-adv-x="1043" 
d="M1008 942q0 -80 -29 -152.5t-76.5 -136t-108 -117t-122.5 -96.5h316l-24 -416l-936 32v364q53 18 111.5 43.5t115 58.5t107 74t89 89.5t61 105.5t22.5 123q0 38 -13.5 67t-37.5 48.5t-55.5 29t-67.5 9.5q-30 0 -61 -6.5t-61 -18.5t-56.5 -29.5t-47.5 -39.5l-88 392
q37 37 85 62t101 40.5t108 22.5t108 7q118 0 220 -42.5t177.5 -117t119 -176.5t43.5 -220z" />
    <glyph glyph-name="three" unicode="3" horiz-adv-x="1081" 
d="M1046 504q0 -133 -42.5 -230.5t-118.5 -162t-181.5 -96t-231.5 -31.5q-57 0 -117 11t-119 30t-114.5 45t-103.5 56l38 402q38 -26 85 -49.5t97.5 -42t102 -29.5t99.5 -11q28 0 57.5 4.5t53.5 16.5t39.5 34t15.5 57q0 22 -20 41t-48 32.5t-58 21t-50 7.5q-14 0 -33.5 -1.5
t-39.5 -4.5t-38.5 -8.5t-28.5 -13.5l6 286q17 -2 32 -3t32 -1q35 0 76 6.5t76 23t58.5 45.5t23.5 75q0 33 -18 53.5t-44.5 31.5t-57.5 15t-56 4q-81 0 -159.5 -28t-138.5 -82l-84 364q92 75 209.5 114.5t236.5 39.5q109 0 208.5 -31.5t175.5 -93t121 -151.5t45 -208
q0 -34 -10 -69t-27 -68t-40 -61.5t-49 -49.5q42 -19 69 -51t43 -71t22 -82.5t6 -85.5z" />
    <glyph glyph-name="four" unicode="4" horiz-adv-x="1104" 
d="M1068 480l-88 -2l-18 -432l-452 -40l24 462l-534 -12l148 878h378l-110 -612l132 4l38 758h434l-30 -742l78 4v-266z" />
    <glyph glyph-name="five" unicode="5" horiz-adv-x="1087" 
d="M1066 504q0 -130 -46.5 -226t-126.5 -159t-188 -94t-231 -31q-59 0 -116 8.5t-112.5 23t-110 33.5t-109.5 41l38 398q36 -20 77 -37t84.5 -29t88 -19t86.5 -7q25 0 61 4.5t69 17t56.5 34t23.5 56.5q0 33 -18.5 57t-48 39.5t-66.5 24.5t-74.5 14t-71 6t-55.5 1
q-45 0 -91.5 -4t-90.5 -16l40 808l810 22l22 -418l-502 28l-10 -178q45 11 90 16.5t90 5.5q91 0 169.5 -29.5t137 -84.5t92 -132.5t33.5 -173.5z" />
    <glyph glyph-name="six" unicode="6" horiz-adv-x="1174" 
d="M1158 510q0 -122 -43 -221.5t-118.5 -170t-179.5 -109.5t-225 -39q-99 0 -178.5 27t-142 75t-107.5 114t-74.5 143t-43.5 163t-14 174q0 108 16 210.5t49.5 192.5t86.5 166t126 130t167.5 84.5t212.5 30.5q43 0 88 -3.5t90 -12.5t87.5 -24t80.5 -38l-30 -394
q-71 35 -153.5 53.5t-160.5 18.5q-62 0 -107 -18.5t-76 -52.5t-48.5 -81.5t-22.5 -105.5q66 38 141 60t153 22q88 0 166 -27t135.5 -78t91 -124t33.5 -165zM778 480q0 31 -13.5 55.5t-35 42t-49.5 27t-56 9.5t-55 -9.5t-48.5 -27t-35 -42t-13.5 -55.5q0 -30 13.5 -54.5
t35 -41.5t48.5 -26.5t55 -9.5t56 9.5t49.5 26.5t35 41.5t13.5 54.5z" />
    <glyph glyph-name="seven" unicode="7" horiz-adv-x="1036" 
d="M1010 1100q-101 -283 -183 -513q-35 -98 -69 -193.5t-62.5 -174t-47.5 -132.5t-24 -67l-524 30l462 994l-544 -30v432l992 18v-364z" />
    <glyph glyph-name="eight" unicode="8" horiz-adv-x="1170" 
d="M1141 442q0 -81 -22 -145t-60.5 -113.5t-91 -84.5t-115 -57.5t-131.5 -33t-140 -10.5q-101 0 -199.5 27t-177 82.5t-127 138.5t-48.5 196q0 46 11 92.5t32 88.5t53 76t74 57q-66 59 -99 135.5t-33 164.5q0 103 45.5 180.5t119 130t165.5 79t184 26.5q61 0 122.5 -12
t118.5 -35t106.5 -58t86 -81.5t57.5 -104t21 -125.5q0 -88 -33 -164.5t-99 -135.5q96 -50 138 -129t42 -185zM747 960q0 33 -14.5 59.5t-38.5 45.5t-53.5 29t-59.5 10q-31 0 -61 -10t-54 -29t-38.5 -45.5t-14.5 -59.5t14.5 -59.5t38.5 -44.5t54 -28t61 -10q30 0 59.5 10
t53.5 28t38.5 44.5t14.5 59.5zM745 490q0 33 -14.5 59.5t-37.5 44.5t-52.5 28t-59.5 10t-59.5 -10t-53.5 -28t-38.5 -44.5t-14.5 -59.5q0 -32 14.5 -58t38.5 -44t53.5 -28t59.5 -10t59.5 10t52.5 28t37.5 44t14.5 58z" />
    <glyph glyph-name="nine" unicode="9" horiz-adv-x="1137" 
d="M1104 818q0 -95 -15 -191.5t-46.5 -187t-80.5 -169.5t-117 -137.5t-156.5 -92.5t-198.5 -34q-48 0 -100.5 4.5t-104 15t-100.5 29t-89 47.5l52 378q31 -18 70 -33.5t80 -27.5t82 -18.5t78 -6.5q58 0 100.5 16.5t72 47.5t47.5 74.5t26 97.5q-60 -32 -126 -49t-134 -17
q-84 0 -160 26t-133 74.5t-91 118.5t-34 159q0 114 41.5 209t113.5 163t170.5 106t212.5 38q139 0 240.5 -51.5t168 -139t99 -203.5t32.5 -246zM690 964q0 30 -13.5 54t-34.5 41t-48 26t-54 9t-53 -8.5t-47 -25t-33.5 -40t-12.5 -52.5t13.5 -53t34.5 -41t48 -26.5t54 -9.5
t53 9t47 25.5t33.5 39.5t12.5 52z" />
    <glyph glyph-name="colon" unicode=":" horiz-adv-x="508" 
d="M464 206q0 -44 -17 -82t-45.5 -66.5t-66.5 -45t-81 -16.5q-44 0 -82 16.5t-66.5 45t-45 66.5t-16.5 82q0 43 16.5 82t45 67.5t66.5 45.5t82 17q43 0 81 -17t66.5 -45.5t45.5 -67.5t17 -82zM464 846q0 -44 -17 -82t-45.5 -66.5t-66.5 -45t-81 -16.5q-44 0 -82 16.5
t-66.5 45t-45 66.5t-16.5 82q0 43 16.5 82t45 67.5t66.5 45.5t82 17q43 0 81 -17t66.5 -45.5t45.5 -67.5t17 -82z" />
    <glyph glyph-name="semicolon" unicode=";" horiz-adv-x="506" 
d="M462 222q-1 -47 -20.5 -104t-55.5 -112.5t-86.5 -105t-113.5 -82.5q0 1 -1 23.5t-2.5 55t-3.5 69.5t-3 66q-62 23 -98 77t-36 119q0 43 16.5 81t45 66.5t66.5 45.5t82 17q43 0 81.5 -17t67 -45.5t45.5 -66.5t16 -81v-6zM462 846q0 -44 -17 -82t-45.5 -66.5t-66.5 -45
t-81 -16.5q-44 0 -82 16.5t-66.5 45t-45 66.5t-16.5 82q0 43 16.5 82t45 67.5t66.5 45.5t82 17q43 0 81 -17t66.5 -45.5t45.5 -67.5t17 -82z" />
    <glyph glyph-name="less" unicode="&#x3c;" horiz-adv-x="932" 
d="M721 104l-662 396l-14 368l674 426l142 -340l-490 -256l514 -250z" />
    <glyph glyph-name="equal" unicode="=" horiz-adv-x="800" 
d="M77 292l-4 300h646l4 -342zM77 692l-4 300l646 30l4 -342z" />
    <glyph glyph-name="greater" unicode="&#x3e;" horiz-adv-x="932" 
d="M212 104l-144 344l492 256l-512 250l162 340l662 -392l16 -370z" />
    <glyph glyph-name="question" unicode="?" horiz-adv-x="1135" 
d="M647 390h-338q-7 106 12 177.5t51.5 119t73 77t79 51t68 41.5t40.5 50q7 18 4 41.5t-20.5 44.5t-52 35.5t-89.5 14.5q-36 0 -85.5 -6.5t-103.5 -20t-106.5 -33t-94.5 -44.5l-44 392q37 22 83.5 45.5t102.5 42t122 30.5t142 12q123 0 232.5 -34t191.5 -100t130 -162.5
t48 -221.5q0 -95 -27 -152.5t-69 -94.5t-94 -62t-101.5 -54.5t-91 -72.5t-63.5 -116zM697 126q0 -44 -17 -82t-45.5 -66.5t-66.5 -45t-81 -16.5q-44 0 -82 16.5t-66.5 45t-45 66.5t-16.5 82q0 43 16.5 82t45 67.5t66.5 45.5t82 17q43 0 81 -17t66.5 -45.5t45.5 -67.5t17 -82
z" />
    <glyph glyph-name="at" unicode="@" horiz-adv-x="1361" 
d="M1316 768q0 -192 -79.5 -291t-234.5 -101q-59 -2 -103 7.5t-74 24t-46.5 31.5t-20.5 31q-21 -33 -54.5 -44.5t-65.5 -11.5q-50 0 -94.5 14t-77.5 43.5t-52.5 75t-19.5 107.5q0 57 18.5 99.5t51.5 71t77.5 43t96.5 14.5q39 0 76 -19.5t60 -66.5v102l212 2l-6 -362l26 4
q15 4 27 22q10 15 18.5 47t8.5 89q0 89 -26 152t-75 103t-120 58.5t-161 18.5q-98 -1 -175 -38q-33 -16 -64.5 -41t-56 -62.5t-39.5 -89.5t-15 -121q0 -85 18.5 -145t48.5 -100.5t68.5 -64t79.5 -35.5q94 -27 215 -5v-190q-144 -30 -270 -7t-220 93t-148 183t-54 263
q0 147 39 251t100.5 174t137 110.5t149.5 61.5t137.5 27t100.5 6q135 0 243.5 -42t184.5 -114t117 -169.5t41 -208.5zM614 662q0 -38 15.5 -63t48.5 -25t54.5 25t21.5 63q0 35 -21.5 51.5t-54.5 16.5q-64 0 -64 -68z" />
    <glyph glyph-name="A" unicode="A" 
d="M1312 86l-496 -64l-60 226h-228l-50 -226l-510 50l398 1332l556 28zM720 554l-76 348l-74 -348h150z" />
    <glyph glyph-name="B" unicode="B" horiz-adv-x="1217" 
d="M1215 356q0 -83 -30.5 -143t-81.5 -102t-117.5 -68.5t-138.5 -41.5t-144.5 -20t-135.5 -5q-62 0 -128.5 4.5t-132.5 15.5t-130 29.5t-121 46.5l-2 1288q56 23 119 41.5t128.5 31t130.5 19t126 6.5q71 0 143.5 -9t139.5 -30t125 -54.5t101.5 -82.5t68 -114t24.5 -150
q0 -56 -16 -105t-46 -88t-73 -66.5t-97 -40.5q65 -17 118.5 -50t91 -80t58 -106t20.5 -126zM707 926q0 29 -12 49.5t-29.5 33.5t-38 19t-36.5 6q-20 0 -39 -6t-37 -14l-6 -222q23 0 57 4t65.5 17.5t53.5 40t22 72.5zM565 600q-29 0 -56 -6l-4 -228q15 -3 29.5 -5.5
t28.5 -2.5q21 0 46 4.5t47 18t36.5 36.5t14.5 61t-14.5 62t-35.5 37.5t-46 18t-46 4.5z" />
    <glyph glyph-name="C" unicode="C" horiz-adv-x="1054" 
d="M1042 1406l-56 -422q-29 8 -58 11t-58 3q-74 0 -141 -19.5t-118.5 -59.5t-82 -100t-30.5 -141q0 -52 16.5 -90t46.5 -63t71 -37t90 -12q37 0 77 8t79 21t76 30t68 35l-40 -470q-39 -20 -84.5 -35.5t-93.5 -27t-96 -17.5t-92 -6q-127 0 -237 47t-191 129t-127.5 193.5
t-46.5 240.5q0 171 49 322.5t144 265.5t235.5 180t323.5 66q69 0 141.5 -11t134.5 -41z" />
    <glyph glyph-name="D" unicode="D" horiz-adv-x="1193" 
d="M1184 794q0 -140 -36 -252.5t-100.5 -200t-153.5 -150.5t-195 -103.5t-225.5 -60t-245.5 -19.5q-47 0 -92 2.5t-92 7.5l28 1342q110 35 226.5 49.5t231.5 14.5q143 0 263 -43t207 -124t135.5 -198t48.5 -265zM774 730q1 54 -11.5 104t-41 88.5t-72.5 62t-105 25.5
l-40 -620q60 9 109 39.5t84.5 75t55 99t21.5 112.5v14z" />
    <glyph glyph-name="E" unicode="E" horiz-adv-x="981" 
d="M998 1442q-6 -94 -11 -186t-13 -186l-424 -22l-10 -126h298l-22 -310l-300 -10l-10 -146h248h176q-6 -110 -12.5 -218.5t-11.5 -217.5l-862 -20l32 1442h922z" />
    <glyph glyph-name="F" unicode="F" horiz-adv-x="998" 
d="M998 1442q-6 -94 -11 -186t-13 -186l-424 -22v-126h368l-20 -310l-350 -10l2 -592l-506 -10l32 1442h922z" />
    <glyph glyph-name="G" unicode="G" horiz-adv-x="1283" 
d="M1258 204q-47 -59 -116 -103t-148 -73t-162 -43.5t-158 -14.5q-145 0 -267 52t-210.5 143.5t-138.5 215.5t-50 267q0 109 25 213.5t71.5 197t113.5 170t152 133.5t186 87t216 31q43 0 92 -3.5t97.5 -12t94.5 -23.5t84 -37l-28 -382q-56 21 -115.5 28.5t-116.5 7.5
q-80 0 -149.5 -24.5t-121 -70.5t-81.5 -112t-30 -149q0 -52 14 -100.5t42.5 -86t71 -60.5t98.5 -23q38 0 78.5 10t69.5 34l4 78l-240 4l12 300q149 5 298 8.5t300 9.5z" />
    <glyph glyph-name="H" unicode="H" 
d="M1238 0l-500 -24l-4 462h-230l-14 -438h-448l38 1406l476 -22l-30 -718h222l2 772l456 -12z" />
    <glyph glyph-name="I" unicode="I" horiz-adv-x="609" 
d="M591 1408l-110 -1362l-422 -22v1356z" />
    <glyph glyph-name="J" unicode="J" horiz-adv-x="1044" 
d="M1006 824v-117t-6 -117q-11 -125 -54 -236.5t-116.5 -195.5t-178.5 -133t-241 -49q-53 0 -110.5 9t-114 27t-108 44.5t-91.5 61.5l62 414q59 -57 131 -92.5t157 -35.5q55 0 93 16t63 44t39.5 65.5t21 80t8 87.5t1.5 89q0 159 -16 316.5t-28 315.5l458 30q30 -312 30 -624
z" />
    <glyph glyph-name="K" unicode="K" horiz-adv-x="1258" 
d="M1319 1432l-482 -666l406 -708l-464 -82l-304 432l-16 -452l-416 -16l32 1532l466 -26l-36 -452l310 478z" />
    <glyph glyph-name="L" unicode="L" horiz-adv-x="926" 
d="M930 570l-42 -444l-842 -66q6 349 13.5 694t18.5 694h520q-23 -219 -44 -437.5t-30 -440.5q47 -2 93 -2h93q56 0 110 1t110 1z" />
    <glyph glyph-name="M" unicode="M" horiz-adv-x="1619" 
d="M1597 1458l-92 -1468l-456 -20l4 774l-206 -624h-176l-158 558l-2 -648l-462 -14l20 1382l514 20l204 -662l272 702h538z" />
    <glyph glyph-name="N" unicode="N" horiz-adv-x="1441" 
d="M1411 1434l-72 -1356l-524 -48l-280 726l-44 -740h-450l36 1418l500 24l346 -720l16 680z" />
    <glyph glyph-name="O" unicode="O" horiz-adv-x="1306" 
d="M1287 706q0 -91 -21 -175.5t-60.5 -158.5t-96 -135.5t-127 -105.5t-153.5 -68.5t-176 -24.5q-90 0 -171.5 23t-152.5 64.5t-128.5 100t-98 130t-63 153.5t-22.5 171q0 87 21 170.5t60.5 157.5t95.5 136t125.5 107t150.5 70t171 25q145 0 264.5 -45t204 -128.5t131 -202
t46.5 -264.5zM843 680q0 43 -12.5 83.5t-36.5 72t-59.5 51t-81.5 19.5q-47 0 -84 -17t-63.5 -46.5t-40.5 -69t-14 -83.5q0 -42 12 -84t36 -76t59.5 -55t82.5 -21t84.5 18.5t63.5 50t40 72.5t14 85z" />
    <glyph glyph-name="P" unicode="P" horiz-adv-x="1220" 
d="M1216 962q0 -97 -29 -172t-79.5 -131t-118.5 -95t-145.5 -63.5t-160.5 -36t-163 -12.5v-466h-466q0 229 1 456t3 458q2 122 1 244t5 246q128 38 256 57t264 19q77 0 154 -12.5t147.5 -39.5t131 -67.5t104.5 -96.5t69.5 -127.5t25.5 -160.5zM772 928q0 65 -39.5 101.5
t-102.5 36.5q-21 0 -43.5 -3.5t-42.5 -8.5l-12 -292q14 -2 27 -2h27q36 0 69.5 12t59.5 34.5t41.5 53t15.5 68.5z" />
    <glyph glyph-name="Q" unicode="Q" horiz-adv-x="1415" 
d="M1395 744q0 -152 -56.5 -290t-169.5 -242l138 -164l-366 -236l-86 236q-38 -8 -76.5 -12t-77.5 -4q-96 0 -184 24t-165 67.5t-140 105.5t-108.5 138t-70 164.5t-24.5 184.5q0 95 23.5 184.5t67 168.5t105 144.5t137.5 113t164 73.5t185 26q155 0 284.5 -47t222.5 -135
t145 -214.5t52 -285.5zM909 716q0 46 -13.5 89.5t-39.5 77t-65 53.5t-90 20q-50 0 -90 -17.5t-68.5 -48.5t-44 -73t-15.5 -91q0 -46 13.5 -90.5t39.5 -80t65 -57.5t90 -22q49 0 89.5 19.5t69 52.5t44 76.5t15.5 91.5z" />
    <glyph glyph-name="R" unicode="R" horiz-adv-x="1241" 
d="M1223 964q0 -78 -13.5 -141.5t-42.5 -116.5t-75 -98t-111 -86l238 -424l-450 -88l-154 426l-124 -4l-18 -416h-430q5 228 9.5 454t10.5 454q2 115 4 228t8 228q70 26 138 43t136.5 26.5t139 13t144.5 3.5q114 0 220.5 -31.5t188.5 -94.5t131.5 -157t49.5 -219zM775 932
q0 42 -11.5 77t-34 60.5t-56 40t-78.5 14.5q-20 0 -39 -2.5t-37 -7.5l-16 -372h24q43 0 87.5 11t80 34t58 59t22.5 86z" />
    <glyph glyph-name="S" unicode="S" horiz-adv-x="1087" 
d="M1075 532q0 -137 -47.5 -239.5t-130 -170.5t-193 -102t-237.5 -34q-49 0 -107.5 13t-118.5 32.5t-115.5 42t-98.5 42.5l44 412q85 -51 188.5 -77.5t203.5 -26.5q19 0 46 1.5t51.5 9t41.5 22.5t17 43q0 19 -12 32.5t-31 22t-43 13t-47 6.5t-43 2h-32q-86 0 -156.5 30
t-121 83.5t-78.5 127t-28 159.5q0 118 47.5 211.5t127 159t182.5 100.5t213 35q49 0 101 -3.5t103.5 -12.5t100.5 -23t93 -35l-38 -406q-68 23 -142.5 38.5t-145.5 15.5q-13 0 -33.5 -0.5t-43 -3t-45.5 -7.5t-41 -13.5t-29 -22.5t-10 -33q1 -22 16.5 -35.5t40 -21t54 -10.5
t58.5 -3.5t54 0t41 -1.5q80 -5 144 -34t108.5 -77t68 -114.5t23.5 -146.5z" />
    <glyph glyph-name="T" unicode="T" horiz-adv-x="1112" 
d="M1108 1430l-10 -424l-298 -12l-76 -948l-422 -22l2 948l-298 -16l12 472z" />
    <glyph glyph-name="U" unicode="U" horiz-adv-x="1276" 
d="M1247 1112q0 -74 -7 -163t-23 -184t-41.5 -192.5t-63.5 -187.5t-88.5 -168.5t-116 -137t-146.5 -92t-180 -33.5q-116 0 -201.5 37.5t-146.5 101t-100 148t-61 179t-30.5 193t-8.5 189.5q0 140 14 279.5t40 278.5l468 -18q-27 -157 -46.5 -315.5t-19.5 -318.5
q0 -17 1.5 -50.5t5.5 -75t11.5 -85t20.5 -79.5t31.5 -59t43.5 -23q29 0 52 27.5t40.5 73.5t30.5 106t22 125t14.5 130t9 121t4.5 99t1 64q0 78 -2.5 155.5t-7.5 154.5h468q12 -138 12 -280z" />
    <glyph glyph-name="V" unicode="V" horiz-adv-x="1255" 
d="M1274 1402l-366 -1392l-496 -28l-450 1406l474 44l192 -820l186 820z" />
    <glyph glyph-name="W" unicode="W" horiz-adv-x="1859" 
d="M1855 1388l-234 -1386l-568 -12l-122 718l-122 -666l-568 -20l-236 1366l496 44l100 -830l134 830h390l156 -840l80 840z" />
    <glyph glyph-name="X" unicode="X" horiz-adv-x="1205" 
d="M1255 1402l-390 -678l332 -590l-418 -130l-180 408l-212 -410l-432 156l368 580l-336 610l458 110l164 -402l174 402z" />
    <glyph glyph-name="Y" unicode="Y" horiz-adv-x="1243" 
d="M1336 1354l-550 -768l-26 -626h-474l12 622l-286 742l510 64l80 -432l254 432z" />
    <glyph glyph-name="Z" unicode="Z" horiz-adv-x="997" 
d="M966 1098l-458 -618h442l-6 -424l-892 -36l-40 392l522 680l-478 -36l-4 402h896z" />
    <glyph glyph-name="bracketleft" unicode="[" horiz-adv-x="749" 
d="M737 1288l-266 6l-30 -1154l280 -2l-2 -284q-83 5 -167 6.5t-169 1.5q-78 0 -157 -2t-157 -8q-6 246 -6 492q0 306 9.5 608.5t24.5 605.5q78 5 154.5 6.5t153.5 1.5q91 0 177.5 -2.5t174.5 -11.5z" />
    <glyph glyph-name="backslash" unicode="\" horiz-adv-x="1035" 
d="M675 -78q-94 170 -177 346t-159.5 354.5t-149.5 359.5l-146 362l400 156q118 -368 254.5 -728.5t297.5 -709.5z" />
    <glyph glyph-name="bracketright" unicode="]" horiz-adv-x="748" 
d="M686 1078q0 -306 -9.5 -609t-26.5 -609q-77 -5 -153.5 -6.5t-154.5 -1.5q-89 0 -175.5 3t-174.5 11l18 268l266 -8l32 1156l-284 2l4 280q83 -3 167 -5.5t169 -2.5q80 0 159 2.5t157 7.5q3 -124 4.5 -244t1.5 -244z" />
    <glyph glyph-name="asciicircum" unicode="^" horiz-adv-x="994" 
d="M624 644q-1 -1 -9.5 29t-21.5 74.5t-28 97t-27.5 98t-21 76t-8.5 31.5q-36 -92 -69 -185.5t-63 -188.5l-376 88q23 55 55.5 126.5t68.5 146.5t71 146.5t63 127.5t45.5 90.5t18.5 34.5l376 8q-1 -1 15 -38t41.5 -97.5t58 -137.5t65.5 -157.5t63.5 -157.5t52.5 -138z" />
    <glyph glyph-name="underscore" unicode="_" horiz-adv-x="618" 
d="M-12 -424l-4 300l646 30l4 -342z" />
    <glyph glyph-name="grave" unicode="`" horiz-adv-x="580" 
d="M446 1366q-110 83 -220 154t-226 140l198 234q80 -75 153 -146q31 -31 63.5 -64t63 -65.5t57 -63t45.5 -55.5z" />
    <glyph glyph-name="a" unicode="a" 
d="M1312 86l-496 -64l-60 226h-228l-50 -226l-510 50l398 1332l556 28zM720 554l-76 348l-74 -348h150z" />
    <glyph glyph-name="b" unicode="b" horiz-adv-x="1217" 
d="M1215 356q0 -83 -30.5 -143t-81.5 -102t-117.5 -68.5t-138.5 -41.5t-144.5 -20t-135.5 -5q-62 0 -128.5 4.5t-132.5 15.5t-130 29.5t-121 46.5l-2 1288q56 23 119 41.5t128.5 31t130.5 19t126 6.5q71 0 143.5 -9t139.5 -30t125 -54.5t101.5 -82.5t68 -114t24.5 -150
q0 -56 -16 -105t-46 -88t-73 -66.5t-97 -40.5q65 -17 118.5 -50t91 -80t58 -106t20.5 -126zM707 926q0 29 -12 49.5t-29.5 33.5t-38 19t-36.5 6q-20 0 -39 -6t-37 -14l-6 -222q23 0 57 4t65.5 17.5t53.5 40t22 72.5zM565 600q-29 0 -56 -6l-4 -228q15 -3 29.5 -5.5
t28.5 -2.5q21 0 46 4.5t47 18t36.5 36.5t14.5 61t-14.5 62t-35.5 37.5t-46 18t-46 4.5z" />
    <glyph glyph-name="c" unicode="c" horiz-adv-x="1050" 
d="M1005 1366l-36 -422q-29 8 -57 11t-57 3q-71 0 -135.5 -18t-114 -55t-79 -93.5t-29.5 -133.5q0 -56 16.5 -97.5t47 -69t74 -41.5t96.5 -14q37 0 76 7.5t78 20.5t75 30t67 36l-16 -470q-39 -20 -84 -35.5t-92.5 -27t-95 -17.5t-90.5 -6q-142 0 -258.5 53t-200 144.5
t-129.5 212.5t-46 258q0 164 46.5 306t137 246.5t224 164t306.5 59.5q69 0 140 -11t136 -41z" />
    <glyph glyph-name="d" unicode="d" horiz-adv-x="1195" 
d="M1184 794q0 -140 -36 -251t-100.5 -196.5t-153.5 -145.5t-195 -98.5t-225.5 -56.5t-245.5 -18q-47 0 -92 2.5t-92 7.5l28 1302q110 35 226.5 49.5t231.5 14.5q143 0 263 -40t207 -117.5t135.5 -191t48.5 -261.5zM504 410q60 9 109.5 36.5t85.5 68t55.5 92t19.5 109.5
q0 57 -12 106.5t-39 86t-71 58t-108 23.5z" />
    <glyph glyph-name="e" unicode="e" horiz-adv-x="1181" 
d="M1167 808q0 -87 -12 -174q-171 -11 -340 -35.5t-338 -48.5q26 -72 81.5 -115t132.5 -43q40 0 87.5 15t94.5 37.5t90 48.5t74 47l-48 -454q-39 -30 -84.5 -51t-94.5 -34t-99 -19t-98 -6q-99 0 -181 27t-148.5 75.5t-116.5 114.5t-83 144t-50 165t-17 176q0 93 17 186
t51.5 179t87 159.5t122.5 128.5t158.5 86t195.5 31q89 0 162.5 -24.5t131 -68t100 -103.5t70 -131.5t41 -151t13.5 -161.5zM767 860q0 28 -6 57.5t-19.5 53.5t-35.5 39.5t-55 15.5q-40 0 -70.5 -21.5t-52.5 -54t-36 -70.5t-21 -70l296 28v22z" />
    <glyph glyph-name="f" unicode="f" horiz-adv-x="999" 
d="M997 1422q-6 -94 -11 -186t-13 -186l-424 -22v-126h368l-20 -310l-350 -10l2 -552l-506 -10l32 1402h922z" />
    <glyph glyph-name="g" unicode="g" horiz-adv-x="1285" 
d="M1260 224q-47 -59 -116 -103t-148 -73t-162 -43.5t-158 -14.5q-145 0 -267 49t-210.5 136.5t-138.5 208.5t-50 264q0 109 25 212t71.5 193t113.5 165t152 129t186.5 83.5t215.5 29.5q43 0 92 -3.5t97.5 -12t94.5 -23.5t84 -37l-28 -382q-56 21 -115.5 28.5t-116.5 7.5
q-80 0 -149.5 -21.5t-121 -63.5t-81.5 -105t-30 -146q0 -52 14 -100.5t42.5 -86t71 -60.5t98.5 -23q38 0 78.5 10t69.5 34l4 78l-240 4l12 300q149 5 298 8.5t300 9.5z" />
    <glyph glyph-name="h" unicode="h" 
d="M1238 40l-500 -24l-4 422h-230l-14 -438h-448l38 1406l476 -22l-30 -718h222l2 752l456 -12z" />
    <glyph glyph-name="i" unicode="i" horiz-adv-x="603" 
d="M573 1408l-70 -1362l-422 -22l-40 1356z" />
    <glyph glyph-name="j" unicode="j" horiz-adv-x="1044" 
d="M1006 824v-117t-6 -117q-11 -125 -54 -236.5t-116.5 -195.5t-178.5 -133t-241 -49q-53 0 -110.5 9t-114 27t-108 44.5t-91.5 61.5l62 414q59 -57 131 -92.5t157 -35.5q55 0 93 16t63 44t39.5 65.5t21 80t8 87.5t1.5 89q0 159 -16 316.5t-28 315.5l458 30q30 -312 30 -624
z" />
    <glyph glyph-name="k" unicode="k" horiz-adv-x="1234" 
d="M1280 1292l-442 -526l406 -688l-464 -82l-304 412l-16 -392l-416 -16l32 1432l466 -26l-36 -412l290 418z" />
    <glyph glyph-name="l" unicode="l" horiz-adv-x="924" 
d="M928 530l-42 -444l-842 -66l32 1428h520l-74 -918h406z" />
    <glyph glyph-name="m" unicode="m" horiz-adv-x="1839" 
d="M1799 678q0 -143 -9 -285t-21 -285l-514 -24q23 174 41.5 348.5t18.5 349.5q0 11 -1 38.5t-3.5 62.5t-7 72.5t-12 69t-18.5 51.5t-26 20q-35 0 -55 -26.5t-29.5 -63.5t-11.5 -75.5t-2 -62.5q0 -42 2 -84t2 -86q0 -155 -7.5 -309t-18.5 -309l-474 -18q23 174 40.5 347.5
t17.5 348.5q0 11 -1 40t-3.5 65t-7.5 75t-12.5 71.5t-18.5 53.5t-27 21q-25 0 -42 -19.5t-27.5 -50.5t-16 -68.5t-8 -73.5t-3 -66.5t-1.5 -45.5l-22 -730h-504q16 169 32.5 339t29 339.5t20.5 339.5t8 340l476 20l-2 -116q22 28 50 56.5t59.5 51t67 36.5t73.5 14
q49 0 88 -7.5t70.5 -25.5t55.5 -49.5t42 -79.5q32 35 64.5 65t68.5 51.5t78 33.5t93 12q97 0 165 -37.5t113.5 -99.5t71 -142t38.5 -166t16.5 -171t3.5 -156z" />
    <glyph glyph-name="n" unicode="n" horiz-adv-x="1335" 
d="M1292 506q0 -113 -2.5 -223.5t-7.5 -222.5l-576 10q30 177 52 353.5t22 356.5q0 13 -1 42t-4 65.5t-8.5 75t-15 70.5t-23 52.5t-32.5 20.5q-34 0 -57.5 -20t-39 -51.5t-24.5 -70.5t-13.5 -78t-6 -73.5t-1.5 -56.5q-5 -177 -8 -351.5t-8 -352.5l-510 -22q20 353 38.5 702
t29.5 702l472 24l-4 -160q28 34 60.5 64t69.5 51.5t78.5 34t87.5 12.5q85 0 149 -28t110 -76t77 -113.5t50 -139.5t29 -154.5t13.5 -158.5t3.5 -151v-133z" />
    <glyph glyph-name="o" unicode="o" horiz-adv-x="1306" 
d="M1287 766q0 -91 -21 -175.5t-60.5 -158.5t-96 -135.5t-127 -105.5t-153.5 -68.5t-176 -24.5q-90 0 -171.5 23t-152.5 64.5t-128.5 100t-98 130t-63 153.5t-22.5 171q0 87 21 170.5t60.5 157.5t95.5 136t125.5 107t150.5 70t171 25q145 0 264.5 -45t204 -128.5t131 -202
t46.5 -264.5zM843 740q0 43 -12.5 83.5t-36.5 72t-59.5 51t-81.5 19.5q-47 0 -84 -17t-63.5 -46.5t-40.5 -69t-14 -83.5q0 -42 12 -84t36 -76t59.5 -55t82.5 -21t84.5 18.5t63.5 50t40 72.5t14 85z" />
    <glyph glyph-name="p" unicode="p" horiz-adv-x="1222" 
d="M1216 922q0 -97 -29 -172t-79.5 -131.5t-118.5 -95t-145.5 -63t-160.5 -36t-163 -12.5v-426h-466q0 114 0.5 222t1 214.5t1 214.5t1.5 223q2 122 1 244t5 246q128 38 256 57t264 19q77 0 154 -12.5t147.5 -39.5t131 -67.5t104.5 -96.5t69.5 -128t25.5 -160zM772 888
q0 65 -39.5 101.5t-102.5 36.5q-21 0 -43.5 -3.5t-42.5 -8.5l-12 -292q14 -2 27 -2h27q36 0 69.5 12t59.5 34.5t41.5 53t15.5 68.5z" />
    <glyph glyph-name="q" unicode="q" horiz-adv-x="1415" 
d="M1395 744q0 -152 -56.5 -290t-169.5 -242l138 -164l-366 -236l-86 236q-38 -8 -76.5 -12t-77.5 -4q-96 0 -184 24t-165 67.5t-140 105.5t-108.5 138t-70 164.5t-24.5 184.5q0 95 23.5 184.5t67 168.5t105 144.5t137.5 113t164 73.5t185 26q155 0 284.5 -47t222.5 -135
t145 -214.5t52 -285.5zM909 716q0 46 -13.5 89.5t-39.5 77t-65 53.5t-90 20q-50 0 -90 -17.5t-68.5 -48.5t-44 -73t-15.5 -91q0 -46 13.5 -90.5t39.5 -80t65 -57.5t90 -22q49 0 89.5 19.5t69 52.5t44 76.5t15.5 91.5z" />
    <glyph glyph-name="r" unicode="r" horiz-adv-x="1241" 
d="M1223 964q0 -78 -13.5 -141.5t-42.5 -116.5t-75 -98t-111 -86l238 -424l-450 -88l-154 426l-124 -4l-18 -416h-430q5 228 9.5 454t10.5 454q2 115 4 228t8 228q70 26 138 43t136.5 26.5t139 13t144.5 3.5q114 0 220.5 -31.5t188.5 -94.5t131.5 -157t49.5 -219zM775 932
q0 42 -11.5 77t-34 60.5t-56 40t-78.5 14.5q-20 0 -39 -2.5t-37 -7.5l-16 -372h24q43 0 87.5 11t80 34t58 59t22.5 86z" />
    <glyph glyph-name="s" unicode="s" horiz-adv-x="1089" 
d="M1076 512q0 -137 -47.5 -236.5t-130 -164t-193 -95t-237.5 -30.5q-49 0 -107.5 13t-118.5 32.5t-115.5 42t-98.5 42.5l44 392q85 -51 188.5 -77.5t203.5 -26.5q19 0 46 1.5t51.5 9t41.5 22.5t17 43q0 19 -12 32.5t-31 22t-43 13t-47 6.5t-43 2h-32q-86 0 -156.5 27
t-121 76.5t-78.5 120t-28 156.5q0 118 47.5 211.5t127 159t182.5 100.5t213 35q49 0 101 -3.5t103.5 -12.5t100.5 -23t93 -35l-38 -406q-68 23 -142.5 38.5t-145.5 15.5q-13 0 -33.5 -0.5t-43 -3t-45.5 -7.5t-41 -13.5t-29 -22.5t-10 -33q1 -22 16.5 -34t40 -17.5t54 -5.5
t58.5 1.5t54 3t41 0.5q80 -5 144 -34t108.5 -77t68 -114.5t23.5 -146.5z" />
    <glyph glyph-name="t" unicode="t" horiz-adv-x="1116" 
d="M1110 1410l-10 -424l-298 -12l-36 -928l-422 -22l-38 928l-298 -16l12 472z" />
    <glyph glyph-name="u" unicode="u" horiz-adv-x="1252" 
d="M1243 1408q-45 -352 -77 -700.5t-61 -701.5l-410 -30l18 154q-20 -23 -46.5 -40t-56.5 -27.5t-62 -15t-61 -3.5q-68 1 -128 26.5t-110 68t-90 99t-67.5 119t-42 127.5t-14.5 126q0 90 3.5 186.5t12.5 193.5t23.5 192t36.5 182q122 -6 245 -11t245 -3
q-23 -87 -45.5 -174.5t-40.5 -176t-29 -177.5t-11 -180q0 -21 2 -60t10.5 -77t26 -66.5t49.5 -28.5q38 0 68 32.5t53 87.5t39.5 127t28 150.5t18.5 158.5t10.5 150.5t5 126.5t1.5 87q0 20 -1 39t-3 39q65 -2 129 -3t129 -1q50 0 100.5 0.5t101.5 3.5z" />
    <glyph glyph-name="v" unicode="v" horiz-adv-x="1258" 
d="M1278 1402l-366 -1352l-496 -28l-450 1306l474 44l192 -760l186 820z" />
    <glyph glyph-name="w" unicode="w" horiz-adv-x="1863" 
d="M1857 1388l-234 -1346l-568 -12l-122 678l-122 -626l-568 -20l-236 1286l496 44l100 -790l134 730h390l156 -740l80 840z" />
    <glyph glyph-name="x" unicode="x" horiz-adv-x="1218" 
d="M1261 1362l-390 -638l352 -570l-418 -130l-200 388l-212 -410l-432 156l368 580l-336 570l458 110l164 -362l174 362z" />
    <glyph glyph-name="y" unicode="y" horiz-adv-x="1240" 
d="M1284 1354l-470 -768l14 -566h-514l12 562l-366 742l510 64l160 -432l174 432z" />
    <glyph glyph-name="z" unicode="z" horiz-adv-x="1015" 
d="M989 1058l-458 -578h422l14 -424l-892 -36l-40 392l522 640l-518 -36l-4 402h936z" />
    <glyph glyph-name="braceleft" unicode="{" horiz-adv-x="840" 
d="M784 1244q-53 22 -112 22q-62 0 -92 -23t-30 -67q0 -34 9.5 -66t20.5 -63.5t20.5 -63.5t9.5 -65q0 -83 -58.5 -123.5t-165.5 -40.5q53 -11 97.5 -36t76 -58.5t49 -73.5t17.5 -80q0 -34 -11.5 -66.5t-25.5 -64.5t-25.5 -64.5t-11.5 -66.5q0 -32 21 -57.5t53.5 -43.5
t72 -28.5t77.5 -14.5l-148 -278q-84 -2 -163.5 25.5t-141 73.5t-98.5 105.5t-37 121.5q0 35 12 69t27 67.5t27 67.5t12 70q0 37 -25 67.5t-64.5 50.5t-88 29t-94.5 5l10 276q11 -2 19 -2h19q40 0 76 9.5t63 27t43 42.5t16 57q0 37 -12 73.5t-26 72.5t-26 72t-12 74
q0 64 37 120t98 96.5t140 64t163 23.5q78 0 151.5 -20t138.5 -50z" />
    <glyph glyph-name="bar" unicode="|" horiz-adv-x="588" 
d="M73 -144l-4 1696l448 -10v-1686h-444z" />
    <glyph glyph-name="braceright" unicode="}" horiz-adv-x="824" 
d="M820 550q-8 0 -18.5 1t-19.5 1q-41 0 -76 -9.5t-61.5 -27t-41.5 -42t-15 -55.5q0 -38 11 -74.5t24 -72.5t24 -73t11 -76q0 -65 -37 -119.5t-97.5 -95t-139 -63t-160.5 -22.5q-78 0 -152.5 19t-139.5 49l108 268q27 -11 56 -17.5t58 -6.5q60 0 92 23.5t32 68.5
q0 33 -10.5 65t-22.5 63.5t-22.5 63.5t-10.5 66q0 80 59 122t169 40q-55 10 -100 35t-77 58t-49.5 72.5t-17.5 80.5q0 35 12 68t26 65t26 65t12 68q0 32 -21 56.5t-53.5 42t-72.5 28t-77 15.5l146 280q85 1 164 -26.5t140.5 -73.5t98.5 -105.5t37 -120.5q0 -35 -12 -69
t-26 -68t-26 -68.5t-12 -70.5q0 -38 25.5 -67.5t65.5 -49.5t88.5 -29.5t94.5 -5.5z" />
    <glyph glyph-name="asciitilde" unicode="~" horiz-adv-x="1180" 
d="M1084 1114q32 -69 52 -142.5t20 -147.5q0 -80 -29 -154t-80.5 -131t-122.5 -91t-154 -34q-57 0 -98 21.5t-71 54t-52.5 70.5t-41.5 70.5t-38 54t-43 21.5q-16 0 -26.5 -8t-16.5 -20t-8.5 -26t-2.5 -26q0 -42 14.5 -84.5t29.5 -81.5l-344 -44q-18 66 -30 132t-12 132
q0 88 24.5 162t71.5 126.5t115.5 82t156.5 29.5q67 0 113 -19.5t77.5 -48.5t51 -63t35 -63t30 -48.5t35.5 -19.5q15 0 26.5 6.5t19.5 17t12 23.5t4 25q0 41 -21.5 80.5t-42.5 71.5z" />
    <glyph glyph-name="nonbreakingspace" unicode="&#xa0;" horiz-adv-x="400" 
 />
    <glyph glyph-name="exclamdown" unicode="&#xa1;" horiz-adv-x="570" 
d="M30 -432l82 1052h370l38 -1052h-490zM96 928q0 43 17 81.5t45.5 67t66.5 45t81 16.5t81.5 -16.5t67 -45t45 -67t16.5 -81.5q0 -44 -16.5 -82.5t-45 -67t-67 -45.5t-81.5 -17t-81 17t-66.5 45.5t-45.5 67t-17 82.5z" />
    <glyph glyph-name="cent" unicode="&#xa2;" horiz-adv-x="864" 
d="M389 -146l10 396q-82 17 -148 56t-112.5 93t-72 120.5t-25.5 140.5q0 83 23 157.5t68 134.5t111 104.5t152 67.5l-18 428l128 -10l-14 -400q42 6 90 6q51 0 104.5 -6t103.5 -26l-28 -266q-21 5 -42 6.5t-44 1.5q-53 0 -101 -11.5t-85.5 -35t-59.5 -59t-22 -84.5
q0 -69 46.5 -103.5t129.5 -34.5q56 0 116.5 17.5t107.5 40.5l-12 -296q-29 -12 -63.5 -22t-70.5 -17t-72.5 -11t-69.5 -4h-28l16 -382z" />
    <glyph glyph-name="sterling" unicode="&#xa3;" horiz-adv-x="866" 
d="M683 746l4 -88l-174 2l-10 -82h294l-28 -266l-612 -40l12 396l-128 2l2 80l128 -2q7 70 30 139t69 124.5t117 90t174 34.5q51 0 104.5 -6t103.5 -26l-28 -266q-21 5 -42 7.5t-44 0.5q-20 -1 -42 -8.5t-41.5 -21t-34 -32t-18.5 -40.5z" />
    <glyph glyph-name="currency" unicode="&#xa4;" horiz-adv-x="876" 
d="M515 709q0 22 -6.5 42.5t-17.5 36t-26.5 24.5t-33.5 9t-34 -9t-28 -24.5t-19 -36t-7 -42.5q0 -24 7 -45t19 -36t28 -24t34 -9q36 0 60 33t24 81zM25 532l101 102q-11 41 -11 81q0 23 3.5 44.5t9.5 41.5l-93 97l210 216l118 -112q13 2 25.5 3.5t26.5 1.5q18 0 35.5 -2
t34.5 -6l110 109l242 -196l-125 -128q9 -33 9 -69q0 -20 -3 -41l133 -124l-240 -244l-118 121q-37 -8 -72 -8q-15 0 -30 1.5t-29 3.5l-115 -118z" />
    <glyph glyph-name="yen" unicode="&#xa5;" horiz-adv-x="1047" 
d="M668 462l6 -190h-372l4 196l-138 4l2 80l138 -2l2 58l-142 4l-4 60l106 4l-226 378l370 38l116 -258l126 258l350 -20l-278 -374l82 4l4 -102l-150 2l2 -54h144l4 -88z" />
    <glyph glyph-name="brokenbar" unicode="&#xa6;" horiz-adv-x="590" 
d="M72 830l-4 722l448 -10v-712h-444zM80 -146l-6 678h442l2 -676z" />
    <glyph glyph-name="section" unicode="&#xa7;" horiz-adv-x="1170" 
d="M1112 352q0 -137 -47.5 -236.5t-130 -164t-193 -95t-237.5 -30.5q-49 0 -107.5 13t-118.5 32.5t-115.5 42t-98.5 42.5l44 392q85 -51 188.5 -77.5t203.5 -26.5q19 0 46 1.5t51.5 9t41.5 22.5t17 43q0 19 -12 32.5t-31 22t-43 13t-47 6.5t-43 2h-32q-86 0 -156.5 27
t-121 76.5t-78.5 120t-28 156.5q0 38 4.5 73.5t15.5 68.5q-11 32 -15.5 66t-4.5 72q0 118 47.5 211.5t127 159t182.5 100.5t213 35q49 0 101 -3.5t103.5 -12.5t100.5 -23t93 -35l-38 -406q-68 23 -142.5 38.5t-145.5 15.5q-13 0 -33.5 -0.5t-43 -3t-45.5 -7.5t-41 -13.5
t-29 -22.5t-10 -33q1 -22 16.5 -34t40 -17.5t54 -5.5t58.5 1.5t54.5 3t40.5 0.5q80 -5 144 -34t108.5 -77t68 -114.5t23.5 -146.5q0 -42 -5 -79.5t-13 -72.5q18 -57 18 -128zM488 704q-3 -26 24.5 -47t71.5 -27q21 -3 40.5 -1t35 8t25 16t11.5 23q2 12 -4.5 24t-19.5 22
t-31.5 17.5t-40.5 10.5q-44 6 -75.5 -7t-36.5 -39z" />
    <glyph glyph-name="dieresis" unicode="&#xa8;" horiz-adv-x="706" 
d="M706 1574q0 -31 -11.5 -57.5t-31.5 -46t-47 -31t-58 -11.5q-29 0 -55.5 11.5t-46 31t-31 46t-11.5 57.5q0 30 11.5 56.5t31 46.5t46 31.5t55.5 11.5q31 0 58 -11.5t47 -31.5t31.5 -46.5t11.5 -56.5zM316 1552q0 -33 -12.5 -62t-34 -51t-50.5 -34.5t-61 -12.5
q-33 0 -62 12.5t-50 34.5t-33.5 51t-12.5 62q0 31 12.5 59t33.5 49.5t50 34.5t62 13q32 0 61 -13t50.5 -34.5t34 -49.5t12.5 -59z" />
    <glyph glyph-name="copyright" unicode="&#xa9;" horiz-adv-x="1176" 
d="M1115 704q0 -113 -39 -214t-109 -177t-167 -120.5t-213 -44.5q-112 0 -208.5 42t-167.5 114t-111.5 169.5t-40.5 208.5q0 72 17.5 141.5t50.5 131t79.5 113t104 89t125 58.5t141.5 21q121 0 220.5 -37.5t170 -107t109 -168t38.5 -219.5zM999 702q0 94 -30 171t-85 131.5
t-132.5 84t-172.5 29.5q-87 0 -161 -35.5t-128 -95.5t-84.5 -138t-30.5 -163q0 -87 31.5 -163t87 -132t131 -88.5t162.5 -32.5q91 0 166.5 34.5t130 93.5t85 137.5t30.5 166.5zM761 812q-27 6 -56 6q-35 0 -67.5 -9t-57.5 -27t-40 -46.5t-15 -67.5q0 -56 32 -83t86 -27
q36 0 76 14t72 32l-8 -234q-39 -20 -88.5 -32t-93.5 -12q-71 0 -129 26.5t-99.5 72t-64.5 106.5t-23 129q0 82 23.5 153t68.5 123.5t111.5 82t152.5 29.5q35 0 70.5 -5.5t67.5 -20.5z" />
    <glyph glyph-name="ordfeminine" unicode="&#xaa;" horiz-adv-x="914" 
d="M918 552l-342 -38l-38 146h-160l-34 -146l-352 30l274 798l384 18zM512 832l-54 210l-50 -210h104z" />
    <glyph glyph-name="guillemotleft" unicode="&#xab;" horiz-adv-x="1359" 
d="M496 232l-458 308l-14 368l434 316l160 -302l-268 -184l306 -178zM1176 232l-458 308l-14 368l434 316l160 -302l-268 -184l306 -178z" />
    <glyph glyph-name="logicalnot" unicode="&#xac;" horiz-adv-x="1096" 
d="M629 298l-8 306l-552 -12l-12 378l948 16l14 -664z" />
    <glyph glyph-name="uni00AD" unicode="&#xad;" horiz-adv-x="783" 
d="M69 552l-4 300l646 30l4 -342z" />
    <glyph glyph-name="registered" unicode="&#xae;" horiz-adv-x="1167" 
d="M1106 738q0 -112 -38.5 -212t-107.5 -175t-165 -119t-211 -44q-111 0 -207 41.5t-166.5 113t-110.5 167.5t-40 206q0 108 38.5 207.5t107 175.5t162.5 121.5t206 45.5q119 0 217 -37t168 -106t108.5 -166.5t38.5 -218.5zM990 736q0 94 -29.5 170t-84 130t-131.5 83
t-171 29q-86 0 -159.5 -35.5t-127 -94.5t-83.5 -136.5t-30 -161.5q0 -98 39 -180t107 -138q2 100 4.5 199.5t5.5 200.5q0 114 6 228q69 26 136.5 34t141.5 8q57 0 110.5 -15.5t94.5 -47t66 -78.5t25 -109q0 -78 -28 -129t-94 -93l90 -162q53 59 82.5 135.5t29.5 162.5z
M404 348q83 -40 180 -40q59 0 111 14.5t97 41.5l-110 -20l-76 214l-62 -2l-10 -208h-130zM686 806q0 42 -22.5 69t-67.5 27q-20 0 -38 -6l-8 -186h12q22 0 44 5.5t40 17t29 29.5t11 44z" />
    <glyph glyph-name="macron" unicode="&#xaf;" horiz-adv-x="654" 
d="M650 1492l-632 8l-18 238l654 12z" />
    <glyph glyph-name="degree" unicode="&#xb0;" horiz-adv-x="634" 
d="M620 1134q0 -62 -24 -116t-64.5 -94t-95.5 -63t-116 -23q-64 0 -119.5 23t-97 63t-65.5 94t-24 116q0 61 24 114t64.5 92.5t95 62.5t116.5 23q64 0 119.5 -23t97 -62.5t65.5 -92.5t24 -114zM414 1128q0 22 -6.5 42.5t-17.5 36t-26.5 24.5t-33.5 9t-34 -9t-28 -24.5
t-19 -36t-7 -42.5q0 -24 7 -45t19 -36t28 -24t34 -9q36 0 60 33t24 81z" />
    <glyph glyph-name="plusminus" unicode="&#xb1;" horiz-adv-x="962" 
d="M317 226l-2 262l-250 4l-4 300l250 8v236l310 32l4 -254l262 8l4 -342l-262 4l4 -262zM65 -202l-4 300l826 30l4 -342z" />
    <glyph glyph-name="twosuperior" unicode="&#xb2;" horiz-adv-x="586" 
d="M550 1000q0 -32 -15 -61t-39.5 -54.5t-56 -47t-63.5 -37.5h164l-12 -166l-486 12v146q42 10 88 27.5t85 42t64 56t25 70.5q0 32 -26 48t-64 16q-32 0 -63.5 -11t-54.5 -29l-44 158q19 15 43.5 25t52 16t56.5 8.5t56 2.5q61 0 114 -17t92 -47t61.5 -70.5t22.5 -87.5z" />
    <glyph glyph-name="threesuperior" unicode="&#xb3;" horiz-adv-x="598" 
d="M570 818q0 -53 -22 -92.5t-61.5 -65t-94.5 -38t-120 -12.5q-60 0 -123.5 16t-114.5 40l20 162q19 -10 43.5 -19t51 -16.5t53.5 -12t52 -4.5q15 0 30.5 1.5t27.5 6t20 13.5t8 23q0 9 -10.5 16.5t-25 12.5t-29.5 8t-25 3q-8 0 -18.5 -0.5t-21 -1.5t-20 -3t-14.5 -5l2 114
q9 -2 17.5 -2h16.5q19 0 40.5 2.5t39.5 9.5t30 18.5t12 29.5q0 13 -9.5 21.5t-23 13t-30 6t-29.5 1.5q-42 0 -82 -10.5t-72 -33.5l-44 146q47 30 108.5 45t123.5 15q56 0 108 -12.5t91.5 -36.5t63 -60t23.5 -83q0 -27 -19 -55t-45 -45q42 -15 57 -48t15 -68z" />
    <glyph glyph-name="acute" unicode="&#xb4;" horiz-adv-x="586" 
d="M586 1642q-119 -65 -232 -131.5t-226 -144.5l-128 140q20 24 48 53.5t59.5 60.5t65.5 62.5t66 60.5q76 69 159 139z" />
    <glyph glyph-name="mu" unicode="&#xb5;" horiz-adv-x="1532" 
d="M44 -348l102 976q8 89 22 185t33.5 192t45.5 189.5t59 179.5q121 -9 243.5 -16.5t244.5 -9.5q-32 -86 -64 -172.5t-60.5 -173.5t-50.5 -175.5t-33 -178.5q-2 -19 -5 -57t1.5 -77t19 -68t46.5 -30q38 -1 72 30.5t63 85t54 124.5t45.5 148.5t37 156.5t28 148.5t19.5 125.5
t11 87q6 36 6 76q58 -2 122 -4.5t129 -4.5t128.5 -2.5t122.5 1.5q-87 -345 -160 -693t-142 -693l-456 -18l40 150q-23 -23 -52.5 -38.5t-61 -25t-63.5 -13.5t-61 -3h-4l-46 -412z" />
    <glyph glyph-name="mu" unicode="&#x3bc;" horiz-adv-x="1532" 
d="M44 -348l102 976q8 89 22 185t33.5 192t45.5 189.5t59 179.5q121 -9 243.5 -16.5t244.5 -9.5q-32 -86 -64 -172.5t-60.5 -173.5t-50.5 -175.5t-33 -178.5q-2 -19 -5 -57t1.5 -77t19 -68t46.5 -30q38 -1 72 30.5t63 85t54 124.5t45.5 148.5t37 156.5t28 148.5t19.5 125.5
t11 87q6 36 6 76q58 -2 122 -4.5t129 -4.5t128.5 -2.5t122.5 1.5q-87 -345 -160 -693t-142 -693l-456 -18l40 150q-23 -23 -52.5 -38.5t-61 -25t-63.5 -13.5t-61 -3h-4l-46 -412z" />
    <glyph glyph-name="paragraph" unicode="&#xb6;" horiz-adv-x="1715" 
d="M1588 20l-434 -2v910l-74 4q3 -234 2.5 -463t1.5 -463l-466 -8v404q-81 -7 -154.5 -4.5t-137.5 18.5t-116.5 48t-89.5 82.5t-57.5 122.5t-20.5 169q0 133 44.5 239t124 180t187.5 113.5t236 39.5q241 0 427 -8.5t316 -18.5q150 -12 263 -27z" />
    <glyph glyph-name="periodcentered" unicode="&#xb7;" horiz-adv-x="462" 
d="M442 696q0 -44 -17 -82t-45.5 -66.5t-66.5 -45t-81 -16.5q-44 0 -82 16.5t-66.5 45t-45 66.5t-16.5 82q0 43 16.5 82t45 67.5t66.5 45.5t82 17q43 0 81 -17t66.5 -45.5t45.5 -67.5t17 -82z" />
    <glyph glyph-name="cedilla" unicode="&#xb8;" horiz-adv-x="424" 
d="M424 -292q0 -58 -18.5 -98t-51.5 -65.5t-78 -37t-98 -11.5q-19 0 -43 2.5t-48.5 8t-47.5 14t-39 21.5l88 158q12 -6 28 -10t30 -4q18 0 36 10.5t18 31.5q0 15 -9 24.5t-22.5 15.5t-28.5 8t-26 2q-20 0 -40 -2.5t-40 -7.5l14 288l172 -2l-2 -148q44 -2 82 -16t65.5 -39.5
t43 -61.5t15.5 -81z" />
    <glyph glyph-name="onesuperior" unicode="&#xb9;" horiz-adv-x="448" 
d="M400 1184l-30 -568l-226 8l12 378l-84 -44l-78 136l170 98z" />
    <glyph glyph-name="ordmasculine" unicode="&#xba;" horiz-adv-x="902" 
d="M888 960q0 -82 -32.5 -155t-90.5 -128t-138 -87t-175 -32q-94 0 -174.5 30t-139.5 82.5t-92.5 123t-33.5 150.5q0 79 32.5 151t89.5 127.5t136 88.5t172 33q101 0 183.5 -27t141 -77t90 -121t31.5 -159zM582 944q0 25 -8.5 49.5t-25 44t-41 31t-55.5 11.5
q-32 0 -58.5 -10.5t-45 -28.5t-28.5 -41.5t-10 -49.5t8.5 -51t25 -45.5t41.5 -33t57 -12.5q33 0 59 11.5t44 30.5t27.5 43.5t9.5 50.5z" />
    <glyph glyph-name="guillemotright" unicode="&#xbb;" horiz-adv-x="1365" 
d="M222 232l-164 308l274 182l-308 176l158 326l462 -306l12 -368zM906 232l-164 308l274 182l-308 176l158 326l462 -306l12 -368z" />
    <glyph glyph-name="onequarter" unicode="&#xbc;" horiz-adv-x="1235" 
d="M442 1184l-28 -568l-228 8l14 376l-84 -42l-78 136l170 98zM914 1244q-130 -279 -239 -567.5t-203 -582.5l-208 76q58 145 116.5 289.5t120 287.5t128 283.5t141.5 277.5zM1176 332l-46 -2l-8 -172l-236 -16l12 186l-278 -6l78 350h196l-58 -244l70 2l18 304h226
l-14 -298l40 2v-106z" />
    <glyph glyph-name="onehalf" unicode="&#xbd;" horiz-adv-x="1256" 
d="M442 1184l-28 -568l-228 8l12 376l-82 -42l-78 136l168 98zM912 1244q-128 -279 -237.5 -567.5t-204.5 -582.5l-208 76q59 145 117.5 289.5t120 287.5t127.5 283.5t141 277.5zM1198 486q0 -32 -15 -61t-39.5 -54.5t-56 -47t-63.5 -37.5h166l-14 -166l-486 12v146
q42 10 88 27.5t85 42t64 56t25 70.5q0 32 -26 47t-64 15q-30 0 -62.5 -10t-55.5 -28l-44 158q19 15 43.5 25t52 16t56.5 8.5t56 2.5q61 0 114 -17t92 -47t61.5 -70.5t22.5 -87.5z" />
    <glyph glyph-name="threequarters" unicode="&#xbe;" horiz-adv-x="1324" 
d="M1017 1244q-130 -279 -239 -567.5t-203 -582.5l-208 76q58 145 116.5 289.5t120 287.5t128 283.5t141.5 277.5zM1279 332l-46 -2l-8 -172l-236 -16l12 186l-278 -6l78 350h196l-58 -244l70 2l18 304h226l-14 -298l40 2v-106zM579 818q0 -53 -22 -92.5t-61 -65t-94 -38
t-121 -12.5q-60 0 -122.5 16t-113.5 40l20 162q19 -11 43.5 -20t51 -16.5t53.5 -11.5t52 -4q15 0 30.5 1.5t27.5 6t20 13.5t8 23q0 9 -10.5 16.5t-25 12.5t-30.5 8t-26 3q-7 0 -17 -0.5t-20.5 -2t-20.5 -3.5t-16 -6l4 116q9 -2 17 -2h17q19 0 40.5 2.5t39.5 9.5t30 18.5
t12 29.5q0 13 -9.5 21t-23 12.5t-30 6.5t-29.5 2q-42 0 -83 -11.5t-73 -32.5l-42 146q47 30 108 45t124 15q56 0 108 -12.5t91.5 -36.5t63 -60.5t23.5 -84.5q0 -26 -19.5 -53.5t-46.5 -44.5q22 -8 36 -20.5t22 -28t11 -33t3 -34.5z" />
    <glyph glyph-name="questiondown" unicode="&#xbf;" horiz-adv-x="1152" 
d="M506 654h338q6 -107 -12.5 -178t-51 -118.5t-73 -77t-79 -51t-68.5 -42t-40 -49.5q-7 -18 -4 -41.5t20.5 -44.5t51.5 -35.5t90 -14.5q36 0 85.5 6.5t103.5 20t106.5 32.5t94.5 45l44 -392q-37 -23 -83.5 -46t-102.5 -41.5t-122 -30.5t-142 -12q-123 0 -232.5 34
t-191.5 100t-130 162.5t-48 221.5q0 95 27 152.5t69 94.5t94 62t101.5 54.5t91 72.5t63.5 116zM456 918q0 43 17 81.5t45.5 67t66.5 45t81 16.5t81.5 -16.5t67 -45t45 -67t16.5 -81.5q0 -44 -16.5 -82.5t-45 -67t-67 -45.5t-81.5 -17t-81 17t-66.5 45.5t-45.5 67t-17 82.5z
" />
    <glyph glyph-name="Agrave" unicode="&#xc0;" 
d="M1312 86l-496 -64l-60 226h-228l-50 -226l-510 50l398 1332l556 28zM720 554l-76 348l-74 -348h150zM578 1450q-110 83 -220 154t-226 140l198 234q80 -75 153 -146q31 -31 63.5 -64t63 -65.5t57 -63t45.5 -55.5z" />
    <glyph glyph-name="Aacute" unicode="&#xc1;" 
d="M1312 86l-496 -64l-60 226h-228l-50 -226l-510 50l398 1332l556 28zM720 554l-76 348l-74 -348h150zM1178 1744q-119 -65 -232 -131.5t-226 -144.5l-128 140q20 24 48 53.5t59.5 60.5t65.5 62.5t66 60.5q76 69 159 139z" />
    <glyph glyph-name="Acircumflex" unicode="&#xc2;" 
d="M1312 86l-496 -64l-60 226h-228l-50 -226l-510 50l398 1332l556 28zM720 554l-76 348l-74 -348h150zM782 1460l-156 204l-122 -194l-220 94q19 31 47 72.5t59 86t63 89t61 82.5l206 2l274 -306z" />
    <glyph glyph-name="Atilde" unicode="&#xc3;" 
d="M1312 86l-496 -64l-60 226h-228l-50 -226l-510 50l398 1332l556 28zM720 554l-76 348l-74 -348h150zM1040 1752q0 -58 -21 -108t-57.5 -87t-86 -58t-105.5 -21q-44 0 -75 16t-52.5 40t-37 52t-28.5 52t-26.5 40t-30.5 16q-11 0 -19 -6.5t-12.5 -15.5t-6.5 -20t-2 -20
q0 -30 7.5 -58.5t18.5 -55.5l-244 -20q-12 42 -17 84.5t-5 83.5q0 61 16 114t47.5 92t78 61.5t108.5 22.5q55 0 91 -17t60 -42t37.5 -55t24.5 -55t21 -42t26 -17q20 0 31 18t11 36q0 30 -12 58.5t-26 51.5l248 40q17 -44 27.5 -88.5t10.5 -91.5z" />
    <glyph glyph-name="Adieresis" unicode="&#xc4;" 
d="M1312 86l-496 -64l-60 226h-228l-50 -226l-510 50l398 1332l556 28zM720 554l-76 348l-74 -348h150zM992 1636q0 -31 -11.5 -57.5t-31.5 -46t-47 -31t-58 -11.5q-29 0 -55.5 11.5t-46 31t-31 46t-11.5 57.5q0 30 11.5 56.5t31 46.5t46 31.5t55.5 11.5q31 0 58 -11.5
t47 -31.5t31.5 -46.5t11.5 -56.5zM602 1614q0 -33 -12.5 -62t-34 -51t-50.5 -34.5t-61 -12.5q-33 0 -62 12.5t-50 34.5t-33.5 51t-12.5 62q0 31 12.5 59t33.5 49.5t50 34.5t62 13q32 0 61 -13t50.5 -34.5t34 -49.5t12.5 -59z" />
    <glyph glyph-name="Aring" unicode="&#xc5;" horiz-adv-x="1270" 
d="M935 1592q0 -45 -12.5 -86t-35.5 -76l28 2l390 -1346l-496 -64l-60 226h-228l-50 -226l-510 50l398 1332l36 2q-32 38 -49 85t-17 101q0 61 24 114t64.5 92.5t95 62.5t116.5 23q64 0 119.5 -23t97 -62.5t65.5 -92.5t24 -114zM729 1586q0 22 -6.5 42.5t-17.5 36
t-26.5 24.5t-33.5 9t-34 -9t-28 -24.5t-19 -36t-7 -42.5q0 -24 7 -45t19 -36t28 -24t34 -9q36 0 60 33t24 81zM713 554l-76 348l-74 -348h150z" />
    <glyph glyph-name="AE" unicode="&#xc6;" horiz-adv-x="1719" 
d="M820 554l10 348l-160 -348h150zM1736 1442q-6 -94 -11 -186t-13 -186l-424 -22l-10 -126h298l-22 -310l-300 -10l-10 -146h424q-6 -110 -12.5 -218.5t-11.5 -217.5l-862 -20l8 248h-244l-100 -226l-496 50l728 1332z" />
    <glyph glyph-name="Ccedilla" unicode="&#xc7;" horiz-adv-x="1056" 
d="M830 -234q0 -58 -18.5 -98t-51.5 -65.5t-78 -37t-98 -11.5q-19 0 -43 2.5t-48.5 8t-47.5 14t-39 21.5l88 158q12 -6 28 -10t30 -4q18 0 36 10.5t18 31.5q0 15 -9 24.5t-22.5 15.5t-28.5 8t-26 2q-20 0 -40 -2.5t-40 -7.5l10 210q-96 26 -176 81t-138 132t-90 172.5
t-32 202.5q0 171 49 322.5t144 265.5t235.5 180t323.5 66q69 0 141.5 -11t134.5 -41l-56 -422q-29 8 -58 11t-58 3q-74 0 -141 -19.5t-118.5 -59.5t-82 -100t-30.5 -141q0 -52 16.5 -90t46.5 -63t71 -37t90 -12q37 0 77 8t79 21t76 30t68 35l-40 -470q-38 -20 -82.5 -35.5
t-91 -26.5t-94 -17t-90.5 -7v-50q44 -2 82 -16t65.5 -39.5t43 -61.5t15.5 -81z" />
    <glyph glyph-name="Egrave" unicode="&#xc8;" horiz-adv-x="981" 
d="M998 1442q-6 -94 -11 -186t-13 -186l-424 -22l-10 -126h298l-22 -310l-300 -10l-10 -146h248h176q-6 -110 -12.5 -218.5t-11.5 -217.5l-862 -20l32 1442h922zM554 1478q-110 83 -220 154t-226 140l198 234q80 -75 153 -146q31 -31 63.5 -64t63 -65.5t57 -63t45.5 -55.5z
" />
    <glyph glyph-name="Eacute" unicode="&#xc9;" horiz-adv-x="981" 
d="M998 1442q-6 -94 -11 -186t-13 -186l-424 -22l-10 -126h298l-22 -310l-300 -10l-10 -146h248h176q-6 -110 -12.5 -218.5t-11.5 -217.5l-862 -20l32 1442h922zM1014 1746q-119 -65 -232 -131.5t-226 -144.5l-128 140q20 24 48 53.5t59.5 60.5t65.5 62.5t66 60.5
q76 69 159 139z" />
    <glyph glyph-name="Ecircumflex" unicode="&#xca;" horiz-adv-x="981" 
d="M998 1442q-6 -94 -11 -186t-13 -186l-424 -22l-10 -126h298l-22 -310l-300 -10l-10 -146h248h176q-6 -110 -12.5 -218.5t-11.5 -217.5l-862 -20l32 1442h922zM664 1478l-156 204l-122 -194l-220 94q19 31 47 72.5t59 86t63 89t61 82.5l206 2l274 -306z" />
    <glyph glyph-name="Edieresis" unicode="&#xcb;" horiz-adv-x="981" 
d="M998 1442q-6 -94 -11 -186t-13 -186l-424 -22l-10 -126h298l-22 -310l-300 -10l-10 -146h248h176q-6 -110 -12.5 -218.5t-11.5 -217.5l-862 -20l32 1442h922zM874 1666q0 -31 -11.5 -57.5t-31.5 -46t-47 -31t-58 -11.5q-29 0 -55.5 11.5t-46 31t-31 46t-11.5 57.5
q0 30 11.5 56.5t31 46.5t46 31.5t55.5 11.5q31 0 58 -11.5t47 -31.5t31.5 -46.5t11.5 -56.5zM484 1644q0 -33 -12.5 -62t-34 -51t-50.5 -34.5t-61 -12.5q-33 0 -62 12.5t-50 34.5t-33.5 51t-12.5 62q0 31 12.5 59t33.5 49.5t50 34.5t62 13q32 0 61 -13t50.5 -34.5t34 -49.5
t12.5 -59z" />
    <glyph glyph-name="Igrave" unicode="&#xcc;" horiz-adv-x="609" 
d="M591 1408l-110 -1362l-422 -22v1356zM268 1450q-110 83 -220 154t-226 140l198 234q80 -75 153 -146q31 -31 63.5 -64t63 -65.5t57 -63t45.5 -55.5z" />
    <glyph glyph-name="Iacute" unicode="&#xcd;" horiz-adv-x="609" 
d="M591 1408l-110 -1362l-422 -22v1356zM843 1736q-119 -65 -232 -131.5t-226 -144.5l-128 140q20 24 48 53.5t59.5 60.5t65.5 62.5t66 60.5q76 69 159 139z" />
    <glyph glyph-name="Icircumflex" unicode="&#xce;" horiz-adv-x="609" 
d="M591 1408l-110 -1362l-422 -22v1356zM470 1450l-156 204l-122 -194l-220 94q19 31 47 72.5t59 86t63 89t61 82.5l206 2l274 -306z" />
    <glyph glyph-name="Idieresis" unicode="&#xcf;" horiz-adv-x="609" 
d="M591 1408l-110 -1362l-422 -22v1356zM680 1616q0 -31 -11.5 -57.5t-31.5 -46t-47 -31t-58 -11.5q-29 0 -55.5 11.5t-46 31t-31 46t-11.5 57.5q0 30 11.5 56.5t31 46.5t46 31.5t55.5 11.5q31 0 58 -11.5t47 -31.5t31.5 -46.5t11.5 -56.5zM290 1594q0 -33 -12.5 -62
t-34 -51t-50.5 -34.5t-61 -12.5q-33 0 -62 12.5t-50 34.5t-33.5 51t-12.5 62q0 31 12.5 59t33.5 49.5t50 34.5t62 13q32 0 61 -13t50.5 -34.5t34 -49.5t12.5 -59z" />
    <glyph glyph-name="Eth" unicode="&#xd0;" horiz-adv-x="1262" 
d="M127 776l14 584q110 35 226.5 49.5t231.5 14.5q143 0 263 -43t207 -124t135.5 -198t48.5 -265q0 -140 -36 -252.5t-100.5 -200t-153.5 -150.5t-195 -103.5t-226 -60t-245 -19.5q-47 0 -92 2.5t-92 7.5l12 586l-150 -6l-4 182zM843 730q1 54 -11.5 104t-41 88.5t-72.5 62
t-105 25.5l-16 -240l100 -2l4 -140l-110 -6l-18 -232q60 9 109 39.5t84.5 75t55 99t21.5 112.5v14z" />
    <glyph glyph-name="Ntilde" unicode="&#xd1;" horiz-adv-x="1441" 
d="M1411 1434l-72 -1356l-524 -48l-280 726l-44 -740h-450l36 1418l500 24l346 -720l16 680zM1125 1752q0 -58 -21 -108t-57.5 -87t-86 -58t-105.5 -21q-44 0 -75 16t-52.5 40t-37 52t-28.5 52t-26.5 40t-30.5 16q-11 0 -19 -6.5t-12.5 -15.5t-6.5 -20t-2 -20
q0 -30 7.5 -58.5t18.5 -55.5l-244 -20q-12 42 -17 84.5t-5 83.5q0 61 16 114t47.5 92t78 61.5t108.5 22.5q55 0 91 -17t60 -42t37.5 -55t24.5 -55t21 -42t26 -17q20 0 31 18t11 36q0 30 -12 58.5t-26 51.5l248 40q17 -44 27.5 -88.5t10.5 -91.5z" />
    <glyph glyph-name="Ograve" unicode="&#xd2;" horiz-adv-x="1306" 
d="M1287 706q0 -91 -21 -175.5t-60.5 -158.5t-96 -135.5t-127 -105.5t-153.5 -68.5t-176 -24.5q-90 0 -171.5 23t-152.5 64.5t-128.5 100t-98 130t-63 153.5t-22.5 171q0 87 21 170.5t60.5 157.5t95.5 136t125.5 107t150.5 70t171 25q145 0 264.5 -45t204 -128.5t131 -202
t46.5 -264.5zM843 680q0 43 -12.5 83.5t-36.5 72t-59.5 51t-81.5 19.5q-47 0 -84 -17t-63.5 -46.5t-40.5 -69t-14 -83.5q0 -42 12 -84t36 -76t59.5 -55t82.5 -21t84.5 18.5t63.5 50t40 72.5t14 85zM551 1404q-110 83 -220 154t-226 140l198 234q80 -75 153 -146
q31 -31 63.5 -64t63 -65.5t57 -63t45.5 -55.5z" />
    <glyph glyph-name="Oacute" unicode="&#xd3;" horiz-adv-x="1306" 
d="M1287 706q0 -91 -21 -175.5t-60.5 -158.5t-96 -135.5t-127 -105.5t-153.5 -68.5t-176 -24.5q-90 0 -171.5 23t-152.5 64.5t-128.5 100t-98 130t-63 153.5t-22.5 171q0 87 21 170.5t60.5 157.5t95.5 136t125.5 107t150.5 70t171 25q145 0 264.5 -45t204 -128.5t131 -202
t46.5 -264.5zM843 680q0 43 -12.5 83.5t-36.5 72t-59.5 51t-81.5 19.5q-47 0 -84 -17t-63.5 -46.5t-40.5 -69t-14 -83.5q0 -42 12 -84t36 -76t59.5 -55t82.5 -21t84.5 18.5t63.5 50t40 72.5t14 85zM1173 1660q-119 -65 -232 -131.5t-226 -144.5l-128 140q20 24 48 53.5
t59.5 60.5t65.5 62.5t66 60.5q76 69 159 139z" />
    <glyph glyph-name="Ocircumflex" unicode="&#xd4;" horiz-adv-x="1306" 
d="M1287 706q0 -91 -21 -175.5t-60.5 -158.5t-96 -135.5t-127 -105.5t-153.5 -68.5t-176 -24.5q-90 0 -171.5 23t-152.5 64.5t-128.5 100t-98 130t-63 153.5t-22.5 171q0 87 21 170.5t60.5 157.5t95.5 136t125.5 107t150.5 70t171 25q145 0 264.5 -45t204 -128.5t131 -202
t46.5 -264.5zM843 680q0 43 -12.5 83.5t-36.5 72t-59.5 51t-81.5 19.5q-47 0 -84 -17t-63.5 -46.5t-40.5 -69t-14 -83.5q0 -42 12 -84t36 -76t59.5 -55t82.5 -21t84.5 18.5t63.5 50t40 72.5t14 85zM795 1384l-156 204l-122 -194l-220 94q19 31 47 72.5t59 86t63 89t61 82.5
l206 2l274 -306z" />
    <glyph glyph-name="Otilde" unicode="&#xd5;" horiz-adv-x="1306" 
d="M1287 706q0 -91 -21 -175.5t-60.5 -158.5t-96 -135.5t-127 -105.5t-153.5 -68.5t-176 -24.5q-90 0 -171.5 23t-152.5 64.5t-128.5 100t-98 130t-63 153.5t-22.5 171q0 87 21 170.5t60.5 157.5t95.5 136t125.5 107t150.5 70t171 25q145 0 264.5 -45t204 -128.5t131 -202
t46.5 -264.5zM843 680q0 43 -12.5 83.5t-36.5 72t-59.5 51t-81.5 19.5q-47 0 -84 -17t-63.5 -46.5t-40.5 -69t-14 -83.5q0 -42 12 -84t36 -76t59.5 -55t82.5 -21t84.5 18.5t63.5 50t40 72.5t14 85zM1051 1668q0 -58 -21 -108t-57.5 -87t-86 -58t-105.5 -21q-44 0 -75 16
t-52.5 40t-37 52t-28.5 52t-26.5 40t-30.5 16q-11 0 -19 -6.5t-12.5 -15.5t-6.5 -20t-2 -20q0 -30 7.5 -58.5t18.5 -55.5l-244 -20q-12 42 -17 84.5t-5 83.5q0 61 16 114t47.5 92t78 61.5t108.5 22.5q55 0 91 -17t60 -42t37.5 -55t24.5 -55t21 -42t26 -17q20 0 31 18t11 36
q0 30 -12 58.5t-26 51.5l248 40q17 -44 27.5 -88.5t10.5 -91.5z" />
    <glyph glyph-name="Odieresis" unicode="&#xd6;" horiz-adv-x="1306" 
d="M1287 706q0 -91 -21 -175.5t-60.5 -158.5t-96 -135.5t-127 -105.5t-153.5 -68.5t-176 -24.5q-90 0 -171.5 23t-152.5 64.5t-128.5 100t-98 130t-63 153.5t-22.5 171q0 87 21 170.5t60.5 157.5t95.5 136t125.5 107t150.5 70t171 25q145 0 264.5 -45t204 -128.5t131 -202
t46.5 -264.5zM843 680q0 43 -12.5 83.5t-36.5 72t-59.5 51t-81.5 19.5q-47 0 -84 -17t-63.5 -46.5t-40.5 -69t-14 -83.5q0 -42 12 -84t36 -76t59.5 -55t82.5 -21t84.5 18.5t63.5 50t40 72.5t14 85zM1005 1563q0 -31 -11.5 -57.5t-31.5 -46t-47 -31t-58 -11.5
q-29 0 -55.5 11.5t-46 31t-31 46t-11.5 57.5q0 30 11.5 56.5t31 46.5t46 31.5t55.5 11.5q31 0 58 -11.5t47 -31.5t31.5 -46.5t11.5 -56.5zM615 1541q0 -33 -12.5 -62t-34 -51t-50.5 -34.5t-61 -12.5q-33 0 -62 12.5t-50 34.5t-33.5 51t-12.5 62q0 31 12.5 59t33.5 49.5
t50 34.5t62 13q32 0 61 -13t50.5 -34.5t34 -49.5t12.5 -59z" />
    <glyph glyph-name="multiply" unicode="&#xd7;" horiz-adv-x="913" 
d="M44 462l184 186l-174 180l210 216l182 -172l168 166l242 -196l-178 -182l192 -180l-240 -244l-182 188l-182 -188z" />
    <glyph glyph-name="Oslash" unicode="&#xd8;" horiz-adv-x="1303" 
d="M1148 1320l-60 -130q95 -85 146.5 -207t51.5 -277q0 -91 -21 -175.5t-60.5 -158.5t-96 -135.5t-127 -105.5t-153.5 -68.5t-176 -24.5l-56 -156l-400 156l56 140q-55 43 -98.5 98.5t-74 119.5t-47 135.5t-16.5 148.5q0 87 21 170.5t60.5 157.5t95.5 136t125.5 107
t150.5 70t171 25q33 0 64.5 -2.5t61.5 -7.5l62 124zM450 690q0 -32 6 -63.5t20 -60.5l148 338q-41 -5 -73 -24t-54.5 -47.5t-34.5 -65.5t-12 -77zM842 680q0 24 -4.5 48.5t-13.5 47.5l-146 -318q38 7 68.5 28t51.5 51t32.5 66.5t11.5 76.5z" />
    <glyph glyph-name="Ugrave" unicode="&#xd9;" horiz-adv-x="1276" 
d="M1247 1112q0 -74 -7 -163t-23 -184t-41.5 -192.5t-63.5 -187.5t-88.5 -168.5t-116 -137t-146.5 -92t-180 -33.5q-116 0 -201.5 37.5t-146.5 101t-100 148t-61 179t-30.5 193t-8.5 189.5q0 140 14 279.5t40 278.5l468 -18q-27 -157 -46.5 -315.5t-19.5 -318.5
q0 -17 1.5 -50.5t5.5 -75t11.5 -85t20.5 -79.5t31.5 -59t43.5 -23q29 0 52 27.5t40.5 73.5t30.5 106t22 125t14.5 130t9 121t4.5 99t1 64q0 78 -2.5 155.5t-7.5 154.5h468q12 -138 12 -280zM603 1396q-110 83 -220 154t-226 140l198 234q80 -75 153 -146q31 -31 63.5 -64
t63 -65.5t57 -63t45.5 -55.5z" />
    <glyph glyph-name="Uacute" unicode="&#xda;" horiz-adv-x="1276" 
d="M1247 1112q0 -74 -7 -163t-23 -184t-41.5 -192.5t-63.5 -187.5t-88.5 -168.5t-116 -137t-146.5 -92t-180 -33.5q-116 0 -201.5 37.5t-146.5 101t-100 148t-61 179t-30.5 193t-8.5 189.5q0 140 14 279.5t40 278.5l468 -18q-27 -157 -46.5 -315.5t-19.5 -318.5
q0 -17 1.5 -50.5t5.5 -75t11.5 -85t20.5 -79.5t31.5 -59t43.5 -23q29 0 52 27.5t40.5 73.5t30.5 106t22 125t14.5 130t9 121t4.5 99t1 64q0 78 -2.5 155.5t-7.5 154.5h468q12 -138 12 -280zM1171 1666q-119 -65 -232 -131.5t-226 -144.5l-128 140q20 24 48 53.5t59.5 60.5
t65.5 62.5t66 60.5q76 69 159 139z" />
    <glyph glyph-name="Ucircumflex" unicode="&#xdb;" horiz-adv-x="1276" 
d="M1247 1112q0 -74 -7 -163t-23 -184t-41.5 -192.5t-63.5 -187.5t-88.5 -168.5t-116 -137t-146.5 -92t-180 -33.5q-116 0 -201.5 37.5t-146.5 101t-100 148t-61 179t-30.5 193t-8.5 189.5q0 140 14 279.5t40 278.5l468 -18q-27 -157 -46.5 -315.5t-19.5 -318.5
q0 -17 1.5 -50.5t5.5 -75t11.5 -85t20.5 -79.5t31.5 -59t43.5 -23q29 0 52 27.5t40.5 73.5t30.5 106t22 125t14.5 130t9 121t4.5 99t1 64q0 78 -2.5 155.5t-7.5 154.5h468q12 -138 12 -280zM783 1418l-156 204l-122 -194l-220 94q19 31 47 72.5t59 86t63 89t61 82.5l206 2
l274 -306z" />
    <glyph glyph-name="Udieresis" unicode="&#xdc;" horiz-adv-x="1276" 
d="M1247 1112q0 -74 -7 -163t-23 -184t-41.5 -192.5t-63.5 -187.5t-88.5 -168.5t-116 -137t-146.5 -92t-180 -33.5q-116 0 -201.5 37.5t-146.5 101t-100 148t-61 179t-30.5 193t-8.5 189.5q0 140 14 279.5t40 278.5l468 -18q-27 -157 -46.5 -315.5t-19.5 -318.5
q0 -17 1.5 -50.5t5.5 -75t11.5 -85t20.5 -79.5t31.5 -59t43.5 -23q29 0 52 27.5t40.5 73.5t30.5 106t22 125t14.5 130t9 121t4.5 99t1 64q0 78 -2.5 155.5t-7.5 154.5h468q12 -138 12 -280zM993 1598q0 -31 -11.5 -57.5t-31.5 -46t-47 -31t-58 -11.5q-29 0 -55.5 11.5
t-46 31t-31 46t-11.5 57.5q0 30 11.5 56.5t31 46.5t46 31.5t55.5 11.5q31 0 58 -11.5t47 -31.5t31.5 -46.5t11.5 -56.5zM603 1576q0 -33 -12.5 -62t-34 -51t-50.5 -34.5t-61 -12.5q-33 0 -62 12.5t-50 34.5t-33.5 51t-12.5 62q0 31 12.5 59t33.5 49.5t50 34.5t62 13
q32 0 61 -13t50.5 -34.5t34 -49.5t12.5 -59z" />
    <glyph glyph-name="Yacute" unicode="&#xdd;" horiz-adv-x="1243" 
d="M1336 1354l-550 -768l-26 -626h-474l12 622l-286 742l510 64l80 -432l254 432zM1212 1666q-119 -65 -232 -131.5t-226 -144.5l-128 140q20 24 48 53.5t59.5 60.5t65.5 62.5t66 60.5q76 69 159 139z" />
    <glyph glyph-name="Thorn" unicode="&#xde;" horiz-adv-x="1226" 
d="M58 1430l524 34l-12 -258h18q77 0 154 -12.5t147.5 -39.5t131 -67.5t104.5 -96.5t69.5 -128t25.5 -160q0 -97 -29 -172t-79.5 -131.5t-118.5 -95t-145.5 -63t-160.5 -35.5t-163 -13v-206h-466v1444zM776 668q0 65 -39.5 101.5t-102.5 36.5q-21 0 -43.5 -3.5t-42.5 -8.5
l-12 -292q14 -2 27 -2h27q36 0 69.5 12t59.5 34.5t41.5 53t15.5 68.5z" />
    <glyph glyph-name="germandbls" unicode="&#xdf;" horiz-adv-x="2137" 
d="M1076 512q0 -137 -47.5 -236.5t-130 -164t-193 -95t-237.5 -30.5q-49 0 -107.5 13t-118.5 32.5t-115.5 42t-98.5 42.5l44 392q85 -51 188.5 -77.5t203.5 -26.5q19 0 46 1.5t51.5 9t41.5 22.5t17 43q0 19 -12 32.5t-31 22t-43 13t-47 6.5t-43 2h-32q-86 0 -156.5 27
t-121 76.5t-78.5 120t-28 156.5q0 118 47.5 211.5t127 159t182.5 100.5t213 35q49 0 101 -3.5t103.5 -12.5t100.5 -23t93 -35l-38 -406q-68 23 -142.5 38.5t-145.5 15.5q-13 0 -33.5 -0.5t-43 -3t-45.5 -7.5t-41 -13.5t-29 -22.5t-10 -33q1 -22 16.5 -34t40 -17.5t54 -5.5
t58.5 1.5t54 3t41 0.5q80 -5 144 -34t108.5 -77t68 -114.5t23.5 -146.5zM2124 512q0 -137 -47.5 -236.5t-130 -164t-193 -95t-237.5 -30.5q-49 0 -107.5 13t-118.5 32.5t-115.5 42t-98.5 42.5l44 392q85 -51 188.5 -77.5t203.5 -26.5q19 0 46 1.5t51.5 9t41.5 22.5t17 43
q0 19 -12 32.5t-31 22t-43 13t-47 6.5t-43 2h-32q-86 0 -156.5 27t-121 76.5t-78.5 120t-28 156.5q0 118 47.5 211.5t127 159t182.5 100.5t213 35q49 0 101 -3.5t103.5 -12.5t100.5 -23t93 -35l-38 -406q-68 23 -142.5 38.5t-145.5 15.5q-13 0 -33.5 -0.5t-43 -3t-45.5 -7.5
t-41 -13.5t-29 -22.5t-10 -33q1 -22 16.5 -34t40 -17.5t54 -5.5t58.5 1.5t54 3t41 0.5q80 -5 144 -34t108.5 -77t68 -114.5t23.5 -146.5z" />
    <glyph glyph-name="agrave" unicode="&#xe0;" 
d="M1312 86l-496 -64l-60 226h-228l-50 -226l-510 50l398 1332l556 28zM720 554l-76 348l-74 -348h150zM558 1442q-110 83 -220 154t-226 140l198 234q80 -75 153 -146q31 -31 63.5 -64t63 -65.5t57 -63t45.5 -55.5z" />
    <glyph glyph-name="aacute" unicode="&#xe1;" 
d="M1312 86l-496 -64l-60 226h-228l-50 -226l-510 50l398 1332l556 28zM720 554l-76 348l-74 -348h150zM1188 1740q-119 -65 -232 -131.5t-226 -144.5l-128 140q20 24 48 53.5t59.5 60.5t65.5 62.5t66 60.5q76 69 159 139z" />
    <glyph glyph-name="acircumflex" unicode="&#xe2;" 
d="M1312 86l-496 -64l-60 226h-228l-50 -226l-510 50l398 1332l556 28zM720 554l-76 348l-74 -348h150zM782 1454l-156 204l-122 -194l-220 94q19 31 47 72.5t59 86t63 89t61 82.5l206 2l274 -306z" />
    <glyph glyph-name="atilde" unicode="&#xe3;" 
d="M1312 86l-496 -64l-60 226h-228l-50 -226l-510 50l398 1332l556 28zM720 554l-76 348l-74 -348h150zM1040 1732q0 -58 -21 -108t-57.5 -87t-86 -58t-105.5 -21q-44 0 -75 16t-52.5 40t-37 52t-28.5 52t-26.5 40t-30.5 16q-11 0 -19 -6.5t-12.5 -15.5t-6.5 -20t-2 -20
q0 -30 7.5 -58.5t18.5 -55.5l-244 -20q-12 42 -17 84.5t-5 83.5q0 61 16 114t47.5 92t78 61.5t108.5 22.5q55 0 91 -17t60 -42t37.5 -55t24.5 -55t21 -42t26 -17q20 0 31 18t11 36q0 30 -12 58.5t-26 51.5l248 40q17 -44 27.5 -88.5t10.5 -91.5z" />
    <glyph glyph-name="adieresis" unicode="&#xe4;" 
d="M1312 86l-496 -64l-60 226h-228l-50 -226l-510 50l398 1332l556 28zM720 554l-76 348l-74 -348h150zM992 1636q0 -31 -11.5 -57.5t-31.5 -46t-47 -31t-58 -11.5q-29 0 -55.5 11.5t-46 31t-31 46t-11.5 57.5q0 30 11.5 56.5t31 46.5t46 31.5t55.5 11.5q31 0 58 -11.5
t47 -31.5t31.5 -46.5t11.5 -56.5zM602 1614q0 -33 -12.5 -62t-34 -51t-50.5 -34.5t-61 -12.5q-33 0 -62 12.5t-50 34.5t-33.5 51t-12.5 62q0 31 12.5 59t33.5 49.5t50 34.5t62 13q32 0 61 -13t50.5 -34.5t34 -49.5t12.5 -59z" />
    <glyph glyph-name="aring" unicode="&#xe5;" horiz-adv-x="1270" 
d="M935 1568q0 -73 -34 -138l14 2l390 -1346l-496 -64l-60 226h-228l-50 -226l-510 50l398 1332h20q-24 35 -37 76t-13 88q0 61 24 114t64.5 92.5t95 62.5t116.5 23q64 0 119.5 -23t97 -62.5t65.5 -92.5t24 -114zM729 1562q0 22 -6.5 42.5t-17.5 36t-26.5 24.5t-33.5 9
t-34 -9t-28 -24.5t-19 -36t-7 -42.5q0 -24 7 -45t19 -36t28 -24t34 -9q36 0 60 33t24 81zM713 554l-76 348l-74 -348h150z" />
    <glyph glyph-name="ae" unicode="&#xe6;" horiz-adv-x="1880" 
d="M1866 808q0 -87 -12 -174q-171 -11 -339.5 -35.5t-336.5 -48.5l6 -22q27 -63 81 -99.5t125 -36.5q40 0 87.5 15t94.5 37.5t90 48.5t74 47l-48 -454q-39 -30 -84.5 -51t-94.5 -34t-99 -19t-98 -6q-104 0 -196 24t-164 62.5t-120 87t-62 98.5h-238l-54 -226l-510 50
l398 1332l556 28l38 -130q74 68 170 107t218 39q89 0 162.5 -24.5t131 -68t100 -103.5t70 -131.5t41 -151t13.5 -161.5zM1466 860q0 28 -6 57.5t-19.5 53.5t-35.5 39.5t-55 15.5q-40 0 -70.5 -21.5t-52.5 -54t-36 -70.5t-21 -70l296 28v22zM720 554l-76 348l-74 -348h150z
" />
    <glyph glyph-name="ccedilla" unicode="&#xe7;" horiz-adv-x="1051" 
d="M846 -292q0 -58 -18.5 -98t-51.5 -65.5t-78 -37t-98 -11.5q-19 0 -43 2.5t-48.5 8t-47.5 14t-39 21.5l88 158q12 -6 28 -10t30 -4q18 0 36 10.5t18 31.5q0 15 -9 24.5t-22.5 15.5t-28.5 8t-26 2q-20 0 -40 -2.5t-40 -7.5l10 232q-103 30 -186 91.5t-141.5 146t-90.5 188
t-32 216.5q0 164 46.5 306t137 246.5t224 164t306.5 59.5q69 0 140 -11t136 -41l-36 -422q-29 8 -57 11t-57 3q-71 0 -135.5 -18t-114 -55t-79 -93.5t-29.5 -133.5q0 -56 16.5 -97.5t47 -69t74 -41.5t96.5 -14q37 0 76 7.5t78 20.5t75 30t67 36l-16 -470q-39 -20 -84 -35.5
t-92.5 -27t-95 -17.5t-90.5 -6h-10v-68q44 -2 82 -16t65.5 -39.5t43 -61.5t15.5 -81z" />
    <glyph glyph-name="egrave" unicode="&#xe8;" horiz-adv-x="1181" 
d="M1167 808q0 -87 -12 -174q-171 -11 -340 -35.5t-338 -48.5q26 -72 81.5 -115t132.5 -43q40 0 87.5 15t94.5 37.5t90 48.5t74 47l-48 -454q-39 -30 -84.5 -51t-94.5 -34t-99 -19t-98 -6q-99 0 -181 27t-148.5 75.5t-116.5 114.5t-83 144t-50 165t-17 176q0 93 17 186
t51.5 179t87 159.5t122.5 128.5t158.5 86t195.5 31q89 0 162.5 -24.5t131 -68t100 -103.5t70 -131.5t41 -151t13.5 -161.5zM767 860q0 28 -6 57.5t-19.5 53.5t-35.5 39.5t-55 15.5q-40 0 -70.5 -21.5t-52.5 -54t-36 -70.5t-21 -70l296 28v22zM473 1460q-110 83 -220 154
t-226 140l198 234q80 -75 153 -146q31 -31 63.5 -64t63 -65.5t57 -63t45.5 -55.5z" />
    <glyph glyph-name="eacute" unicode="&#xe9;" horiz-adv-x="1181" 
d="M1167 808q0 -87 -12 -174q-171 -11 -340 -35.5t-338 -48.5q26 -72 81.5 -115t132.5 -43q40 0 87.5 15t94.5 37.5t90 48.5t74 47l-48 -454q-39 -30 -84.5 -51t-94.5 -34t-99 -19t-98 -6q-99 0 -181 27t-148.5 75.5t-116.5 114.5t-83 144t-50 165t-17 176q0 93 17 186
t51.5 179t87 159.5t122.5 128.5t158.5 86t195.5 31q89 0 162.5 -24.5t131 -68t100 -103.5t70 -131.5t41 -151t13.5 -161.5zM767 860q0 28 -6 57.5t-19.5 53.5t-35.5 39.5t-55 15.5q-40 0 -70.5 -21.5t-52.5 -54t-36 -70.5t-21 -70l296 28v22zM1127 1762
q-119 -65 -232 -131.5t-226 -144.5l-128 140q20 24 48 53.5t59.5 60.5t65.5 62.5t66 60.5q76 69 159 139z" />
    <glyph glyph-name="ecircumflex" unicode="&#xea;" horiz-adv-x="1181" 
d="M1167 808q0 -87 -12 -174q-171 -11 -340 -35.5t-338 -48.5q26 -72 81.5 -115t132.5 -43q40 0 87.5 15t94.5 37.5t90 48.5t74 47l-48 -454q-39 -30 -84.5 -51t-94.5 -34t-99 -19t-98 -6q-99 0 -181 27t-148.5 75.5t-116.5 114.5t-83 144t-50 165t-17 176q0 93 17 186
t51.5 179t87 159.5t122.5 128.5t158.5 86t195.5 31q89 0 162.5 -24.5t131 -68t100 -103.5t70 -131.5t41 -151t13.5 -161.5zM767 860q0 28 -6 57.5t-19.5 53.5t-35.5 39.5t-55 15.5q-40 0 -70.5 -21.5t-52.5 -54t-36 -70.5t-21 -70l296 28v22zM735 1472l-156 204l-122 -194
l-220 94q19 31 47 72.5t59 86t63 89t61 82.5l206 2l274 -306z" />
    <glyph glyph-name="edieresis" unicode="&#xeb;" horiz-adv-x="1181" 
d="M1167 808q0 -87 -12 -174q-171 -11 -340 -35.5t-338 -48.5q26 -72 81.5 -115t132.5 -43q40 0 87.5 15t94.5 37.5t90 48.5t74 47l-48 -454q-39 -30 -84.5 -51t-94.5 -34t-99 -19t-98 -6q-99 0 -181 27t-148.5 75.5t-116.5 114.5t-83 144t-50 165t-17 176q0 93 17 186
t51.5 179t87 159.5t122.5 128.5t158.5 86t195.5 31q89 0 162.5 -24.5t131 -68t100 -103.5t70 -131.5t41 -151t13.5 -161.5zM767 860q0 28 -6 57.5t-19.5 53.5t-35.5 39.5t-55 15.5q-40 0 -70.5 -21.5t-52.5 -54t-36 -70.5t-21 -70l296 28v22zM945 1640q0 -31 -11.5 -57.5
t-31.5 -46t-47 -31t-58 -11.5q-29 0 -55.5 11.5t-46 31t-31 46t-11.5 57.5q0 30 11.5 56.5t31 46.5t46 31.5t55.5 11.5q31 0 58 -11.5t47 -31.5t31.5 -46.5t11.5 -56.5zM555 1618q0 -33 -12.5 -62t-34 -51t-50.5 -34.5t-61 -12.5q-33 0 -62 12.5t-50 34.5t-33.5 51t-12.5 62
q0 31 12.5 59t33.5 49.5t50 34.5t62 13q32 0 61 -13t50.5 -34.5t34 -49.5t12.5 -59z" />
    <glyph glyph-name="igrave" unicode="&#xec;" horiz-adv-x="602" 
d="M573 1408l-70 -1362l-422 -22l-40 1356zM217 1426q-110 83 -220 154t-226 140l198 234q80 -75 153 -146q31 -31 63.5 -64t63 -65.5t57 -63t45.5 -55.5z" />
    <glyph glyph-name="iacute" unicode="&#xed;" horiz-adv-x="602" 
d="M573 1408l-70 -1362l-422 -22l-40 1356zM805 1712q-119 -65 -232 -131.5t-226 -144.5l-128 140q20 24 48 53.5t59.5 60.5t65.5 62.5t66 60.5q76 69 159 139z" />
    <glyph glyph-name="icircumflex" unicode="&#xee;" horiz-adv-x="601" 
d="M573 1408l-70 -1362l-422 -22l-40 1356zM451 1442l-156 204l-122 -194l-220 94q19 31 47 72.5t59 86t63 89t61 82.5l206 2l274 -306z" />
    <glyph glyph-name="idieresis" unicode="&#xef;" horiz-adv-x="602" 
d="M573 1408l-70 -1362l-422 -22l-40 1356zM661 1630q0 -31 -11.5 -57.5t-31.5 -46t-47 -31t-58 -11.5q-29 0 -55.5 11.5t-46 31t-31 46t-11.5 57.5q0 30 11.5 56.5t31 46.5t46 31.5t55.5 11.5q31 0 58 -11.5t47 -31.5t31.5 -46.5t11.5 -56.5zM271 1608q0 -33 -12.5 -62
t-34 -51t-50.5 -34.5t-61 -12.5q-33 0 -62 12.5t-50 34.5t-33.5 51t-12.5 62q0 31 12.5 59t33.5 49.5t50 34.5t62 13q32 0 61 -13t50.5 -34.5t34 -49.5t12.5 -59z" />
    <glyph glyph-name="eth" unicode="&#xf0;" horiz-adv-x="1262" 
d="M127 776l14 584q110 35 226.5 49.5t231.5 14.5q143 0 263 -43t207 -124t135.5 -198t48.5 -265q0 -140 -36 -252.5t-100.5 -200t-153.5 -150.5t-195 -103.5t-226 -60t-245 -19.5q-47 0 -92 2.5t-92 7.5l12 586l-150 -6l-4 182zM843 730q1 54 -11.5 104t-41 88.5t-72.5 62
t-105 25.5l-16 -240l100 -2l4 -140l-110 -6l-18 -232q60 9 109 39.5t84.5 75t55 99t21.5 112.5v14z" />
    <glyph glyph-name="ntilde" unicode="&#xf1;" horiz-adv-x="1335" 
d="M1292 506q0 -113 -2.5 -223.5t-7.5 -222.5l-576 10q30 177 52 353.5t22 356.5q0 13 -1 42t-4 65.5t-8.5 75t-15 70.5t-23 52.5t-32.5 20.5q-34 0 -57.5 -20t-39 -51.5t-24.5 -70.5t-13.5 -78t-6 -73.5t-1.5 -56.5q-5 -177 -8 -351.5t-8 -352.5l-510 -22q20 353 38.5 702
t29.5 702l472 24l-4 -160q28 34 60.5 64t69.5 51.5t78.5 34t87.5 12.5q85 0 149 -28t110 -76t77 -113.5t50 -139.5t29 -154.5t13.5 -158.5t3.5 -151v-133zM1060 1766q0 -58 -21 -108t-57.5 -87t-86 -58t-105.5 -21q-44 0 -75 16t-52.5 40t-37 52t-28.5 52t-26.5 40t-30.5 16
q-11 0 -19 -6.5t-12.5 -15.5t-6.5 -20t-2 -20q0 -30 7.5 -58.5t18.5 -55.5l-244 -20q-12 42 -17 84.5t-5 83.5q0 61 16 114t47.5 92t78 61.5t108.5 22.5q55 0 91 -17t60 -42t37.5 -55t24.5 -55t21 -42t26 -17q20 0 31 18t11 36q0 30 -12 58.5t-26 51.5l248 40
q17 -44 27.5 -88.5t10.5 -91.5z" />
    <glyph glyph-name="ograve" unicode="&#xf2;" horiz-adv-x="1306" 
d="M1287 766q0 -91 -21 -175.5t-60.5 -158.5t-96 -135.5t-127 -105.5t-153.5 -68.5t-176 -24.5q-90 0 -171.5 23t-152.5 64.5t-128.5 100t-98 130t-63 153.5t-22.5 171q0 87 21 170.5t60.5 157.5t95.5 136t125.5 107t150.5 70t171 25q145 0 264.5 -45t204 -128.5t131 -202
t46.5 -264.5zM843 740q0 43 -12.5 83.5t-36.5 72t-59.5 51t-81.5 19.5q-47 0 -84 -17t-63.5 -46.5t-40.5 -69t-14 -83.5q0 -42 12 -84t36 -76t59.5 -55t82.5 -21t84.5 18.5t63.5 50t40 72.5t14 85zM505 1430q-110 83 -220 154t-226 140l198 234q80 -75 153 -146
q31 -31 63.5 -64t63 -65.5t57 -63t45.5 -55.5z" />
    <glyph glyph-name="oacute" unicode="&#xf3;" horiz-adv-x="1306" 
d="M1287 766q0 -91 -21 -175.5t-60.5 -158.5t-96 -135.5t-127 -105.5t-153.5 -68.5t-176 -24.5q-90 0 -171.5 23t-152.5 64.5t-128.5 100t-98 130t-63 153.5t-22.5 171q0 87 21 170.5t60.5 157.5t95.5 136t125.5 107t150.5 70t171 25q145 0 264.5 -45t204 -128.5t131 -202
t46.5 -264.5zM843 740q0 43 -12.5 83.5t-36.5 72t-59.5 51t-81.5 19.5q-47 0 -84 -17t-63.5 -46.5t-40.5 -69t-14 -83.5q0 -42 12 -84t36 -76t59.5 -55t82.5 -21t84.5 18.5t63.5 50t40 72.5t14 85zM1205 1726q-119 -65 -232 -131.5t-226 -144.5l-128 140q20 24 48 53.5
t59.5 60.5t65.5 62.5t66 60.5q76 69 159 139z" />
    <glyph glyph-name="ocircumflex" unicode="&#xf4;" horiz-adv-x="1306" 
d="M1287 766q0 -91 -21 -175.5t-60.5 -158.5t-96 -135.5t-127 -105.5t-153.5 -68.5t-176 -24.5q-90 0 -171.5 23t-152.5 64.5t-128.5 100t-98 130t-63 153.5t-22.5 171q0 87 21 170.5t60.5 157.5t95.5 136t125.5 107t150.5 70t171 25q145 0 264.5 -45t204 -128.5t131 -202
t46.5 -264.5zM843 740q0 43 -12.5 83.5t-36.5 72t-59.5 51t-81.5 19.5q-47 0 -84 -17t-63.5 -46.5t-40.5 -69t-14 -83.5q0 -42 12 -84t36 -76t59.5 -55t82.5 -21t84.5 18.5t63.5 50t40 72.5t14 85zM795 1436l-156 204l-122 -194l-220 94q19 31 47 72.5t59 86t63 89t61 82.5
l206 2l274 -306z" />
    <glyph glyph-name="otilde" unicode="&#xf5;" horiz-adv-x="1306" 
d="M1287 766q0 -91 -21 -175.5t-60.5 -158.5t-96 -135.5t-127 -105.5t-153.5 -68.5t-176 -24.5q-90 0 -171.5 23t-152.5 64.5t-128.5 100t-98 130t-63 153.5t-22.5 171q0 87 21 170.5t60.5 157.5t95.5 136t125.5 107t150.5 70t171 25q145 0 264.5 -45t204 -128.5t131 -202
t46.5 -264.5zM843 740q0 43 -12.5 83.5t-36.5 72t-59.5 51t-81.5 19.5q-47 0 -84 -17t-63.5 -46.5t-40.5 -69t-14 -83.5q0 -42 12 -84t36 -76t59.5 -55t82.5 -21t84.5 18.5t63.5 50t40 72.5t14 85zM1051 1714q0 -58 -21 -108t-57.5 -87t-86 -58t-105.5 -21q-44 0 -75 16
t-52.5 40t-37 52t-28.5 52t-26.5 40t-30.5 16q-11 0 -19 -6.5t-12.5 -15.5t-6.5 -20t-2 -20q0 -30 7.5 -58.5t18.5 -55.5l-244 -20q-12 42 -17 84.5t-5 83.5q0 61 16 114t47.5 92t78 61.5t108.5 22.5q55 0 91 -17t60 -42t37.5 -55t24.5 -55t21 -42t26 -17q20 0 31 18t11 36
q0 30 -12 58.5t-26 51.5l248 40q17 -44 27.5 -88.5t10.5 -91.5z" />
    <glyph glyph-name="odieresis" unicode="&#xf6;" horiz-adv-x="1306" 
d="M1287 766q0 -91 -21 -175.5t-60.5 -158.5t-96 -135.5t-127 -105.5t-153.5 -68.5t-176 -24.5q-90 0 -171.5 23t-152.5 64.5t-128.5 100t-98 130t-63 153.5t-22.5 171q0 87 21 170.5t60.5 157.5t95.5 136t125.5 107t150.5 70t171 25q145 0 264.5 -45t204 -128.5t131 -202
t46.5 -264.5zM843 740q0 43 -12.5 83.5t-36.5 72t-59.5 51t-81.5 19.5q-47 0 -84 -17t-63.5 -46.5t-40.5 -69t-14 -83.5q0 -42 12 -84t36 -76t59.5 -55t82.5 -21t84.5 18.5t63.5 50t40 72.5t14 85zM973 1616q0 -31 -11.5 -57.5t-31.5 -46t-47 -31t-58 -11.5
q-29 0 -55.5 11.5t-46 31t-31 46t-11.5 57.5q0 30 11.5 56.5t31 46.5t46 31.5t55.5 11.5q31 0 58 -11.5t47 -31.5t31.5 -46.5t11.5 -56.5zM583 1594q0 -33 -12.5 -62t-34 -51t-50.5 -34.5t-61 -12.5q-33 0 -62 12.5t-50 34.5t-33.5 51t-12.5 62q0 31 12.5 59t33.5 49.5
t50 34.5t62 13q32 0 61 -13t50.5 -34.5t34 -49.5t12.5 -59z" />
    <glyph glyph-name="divide" unicode="&#xf7;" horiz-adv-x="925" 
d="M50 492l-4 300l826 30l4 -342zM634 246q0 -38 -14.5 -71.5t-40 -58.5t-59 -39.5t-70.5 -14.5q-38 0 -71.5 14.5t-58.5 39.5t-39.5 58.5t-14.5 71.5t14.5 72t39.5 59.5t58.5 40t71.5 14.5q37 0 70.5 -14.5t59 -40t40 -59.5t14.5 -72zM638 1044q0 -38 -14.5 -71.5
t-40 -58.5t-59 -39.5t-70.5 -14.5q-38 0 -71.5 14.5t-58.5 39.5t-39.5 58.5t-14.5 71.5t14.5 72t39.5 59.5t58.5 40t71.5 14.5q37 0 70.5 -14.5t59 -40t40 -59.5t14.5 -72z" />
    <glyph glyph-name="oslash" unicode="&#xf8;" horiz-adv-x="1302" 
d="M1138 1376l-28 -60t-28 -62q97 -85 150.5 -208t53.5 -280q0 -91 -21 -175.5t-60.5 -158.5t-96 -135.5t-127 -105.5t-153.5 -68.5t-176 -24.5h-8l-58 -160l-400 156l58 148q-53 44 -95 99t-71.5 118.5t-45.5 134t-16 146.5q0 87 21 170.5t60.5 157.5t95.5 136t125.5 107
t150.5 70t171 25q30 0 59.5 -2.5t58.5 -5.5l60 118zM842 740q0 56 -22 106l-150 -330q40 6 72 26.5t54.5 51t34 68t11.5 78.5zM450 750q0 -29 5.5 -58t16.5 -56l142 326q-38 -6 -68.5 -25t-51.5 -47.5t-32.5 -64t-11.5 -75.5z" />
    <glyph glyph-name="ugrave" unicode="&#xf9;" horiz-adv-x="1252" 
d="M1243 1408q-45 -352 -77 -700.5t-61 -701.5l-410 -30l18 154q-20 -23 -46.5 -40t-56.5 -27.5t-62 -15t-61 -3.5q-68 1 -128 26.5t-110 68t-90 99t-67.5 119t-42 127.5t-14.5 126q0 90 3.5 186.5t12.5 193.5t23.5 192t36.5 182q122 -6 245 -11t245 -3
q-23 -87 -45.5 -174.5t-40.5 -176t-29 -177.5t-11 -180q0 -21 2 -60t10.5 -77t26 -66.5t49.5 -28.5q38 0 68 32.5t53 87.5t39.5 127t28 150.5t18.5 158.5t10.5 150.5t5 126.5t1.5 87q0 20 -1 39t-3 39q65 -2 129 -3t129 -1q50 0 100.5 0.5t101.5 3.5zM655 1370
q-110 83 -220 154t-226 140l198 234q80 -75 153 -146q31 -31 63.5 -64t63 -65.5t57 -63t45.5 -55.5z" />
    <glyph glyph-name="uacute" unicode="&#xfa;" horiz-adv-x="1252" 
d="M1243 1408q-45 -352 -77 -700.5t-61 -701.5l-410 -30l18 154q-20 -23 -46.5 -40t-56.5 -27.5t-62 -15t-61 -3.5q-68 1 -128 26.5t-110 68t-90 99t-67.5 119t-42 127.5t-14.5 126q0 90 3.5 186.5t12.5 193.5t23.5 192t36.5 182q122 -6 245 -11t245 -3
q-23 -87 -45.5 -174.5t-40.5 -176t-29 -177.5t-11 -180q0 -21 2 -60t10.5 -77t26 -66.5t49.5 -28.5q38 0 68 32.5t53 87.5t39.5 127t28 150.5t18.5 158.5t10.5 150.5t5 126.5t1.5 87q0 20 -1 39t-3 39q65 -2 129 -3t129 -1q50 0 100.5 0.5t101.5 3.5zM1165 1684
q-119 -65 -232 -131.5t-226 -144.5l-128 140q20 24 48 53.5t59.5 60.5t65.5 62.5t66 60.5q76 69 159 139z" />
    <glyph glyph-name="ucircumflex" unicode="&#xfb;" horiz-adv-x="1252" 
d="M1243 1408q-45 -352 -77 -700.5t-61 -701.5l-410 -30l18 154q-20 -23 -46.5 -40t-56.5 -27.5t-62 -15t-61 -3.5q-68 1 -128 26.5t-110 68t-90 99t-67.5 119t-42 127.5t-14.5 126q0 90 3.5 186.5t12.5 193.5t23.5 192t36.5 182q122 -6 245 -11t245 -3
q-23 -87 -45.5 -174.5t-40.5 -176t-29 -177.5t-11 -180q0 -21 2 -60t10.5 -77t26 -66.5t49.5 -28.5q38 0 68 32.5t53 87.5t39.5 127t28 150.5t18.5 158.5t10.5 150.5t5 126.5t1.5 87q0 20 -1 39t-3 39q65 -2 129 -3t129 -1q50 0 100.5 0.5t101.5 3.5zM781 1440l-156 204
l-122 -194l-220 94q19 31 47 72.5t59 86t63 89t61 82.5l206 2l274 -306z" />
    <glyph glyph-name="udieresis" unicode="&#xfc;" horiz-adv-x="1252" 
d="M1243 1408q-45 -352 -77 -700.5t-61 -701.5l-410 -30l18 154q-20 -23 -46.5 -40t-56.5 -27.5t-62 -15t-61 -3.5q-68 1 -128 26.5t-110 68t-90 99t-67.5 119t-42 127.5t-14.5 126q0 90 3.5 186.5t12.5 193.5t23.5 192t36.5 182q122 -6 245 -11t245 -3
q-23 -87 -45.5 -174.5t-40.5 -176t-29 -177.5t-11 -180q0 -21 2 -60t10.5 -77t26 -66.5t49.5 -28.5q38 0 68 32.5t53 87.5t39.5 127t28 150.5t18.5 158.5t10.5 150.5t5 126.5t1.5 87q0 20 -1 39t-3 39q65 -2 129 -3t129 -1q50 0 100.5 0.5t101.5 3.5zM991 1610
q0 -31 -11.5 -57.5t-31.5 -46t-47 -31t-58 -11.5q-29 0 -55.5 11.5t-46 31t-31 46t-11.5 57.5q0 30 11.5 56.5t31 46.5t46 31.5t55.5 11.5q31 0 58 -11.5t47 -31.5t31.5 -46.5t11.5 -56.5zM601 1588q0 -33 -12.5 -62t-34 -51t-50.5 -34.5t-61 -12.5q-33 0 -62 12.5t-50 34.5
t-33.5 51t-12.5 62q0 31 12.5 59t33.5 49.5t50 34.5t62 13q32 0 61 -13t50.5 -34.5t34 -49.5t12.5 -59z" />
    <glyph glyph-name="yacute" unicode="&#xfd;" horiz-adv-x="1240" 
d="M1284 1354l-470 -768l14 -566h-514l12 562l-366 742l510 64l160 -432l174 432zM1168 1642q-119 -65 -232 -131.5t-226 -144.5l-128 140q20 24 48 53.5t59.5 60.5t65.5 62.5t66 60.5q76 69 159 139z" />
    <glyph glyph-name="thorn" unicode="&#xfe;" horiz-adv-x="1226" 
d="M58 1430l524 34l-12 -258h18q77 0 154 -12.5t147.5 -39.5t131 -67.5t104.5 -96.5t69.5 -128t25.5 -160q0 -97 -29 -172t-79.5 -131.5t-118.5 -95t-145.5 -63t-160.5 -35.5t-163 -13v-206h-466v1444zM776 668q0 65 -39.5 101.5t-102.5 36.5q-21 0 -43.5 -3.5t-42.5 -8.5
l-12 -292q14 -2 27 -2h27q36 0 69.5 12t59.5 34.5t41.5 53t15.5 68.5z" />
    <glyph glyph-name="ydieresis" unicode="&#xff;" horiz-adv-x="1240" 
d="M1284 1354l-470 -768l14 -566h-514l12 562l-366 742l510 64l160 -432l174 432zM974 1622q0 -31 -11.5 -57.5t-31.5 -46t-47 -31t-58 -11.5q-29 0 -55.5 11.5t-46 31t-31 46t-11.5 57.5q0 30 11.5 56.5t31 46.5t46 31.5t55.5 11.5q31 0 58 -11.5t47 -31.5t31.5 -46.5
t11.5 -56.5zM584 1600q0 -33 -12.5 -62t-34 -51t-50.5 -34.5t-61 -12.5q-33 0 -62 12.5t-50 34.5t-33.5 51t-12.5 62q0 31 12.5 59t33.5 49.5t50 34.5t62 13q32 0 61 -13t50.5 -34.5t34 -49.5t12.5 -59z" />
    <glyph glyph-name="Amacron" unicode="&#x100;" 
d="M1312 86l-496 -64l-60 226h-228l-50 -226l-510 50l398 1332l556 28zM720 554l-76 348l-74 -348h150zM964 1496l-632 8l-18 238l654 12z" />
    <glyph glyph-name="amacron" unicode="&#x101;" 
d="M1312 86l-496 -64l-60 226h-228l-50 -226l-510 50l398 1332l556 28zM720 554l-76 348l-74 -348h150zM964 1492l-632 8l-18 238l654 12z" />
    <glyph glyph-name="Abreve" unicode="&#x102;" 
d="M1312 86l-496 -64l-60 226h-228l-50 -226l-510 50l398 1332l556 28zM720 554l-76 348l-74 -348h150zM938 1766q0 -64 -23.5 -118.5t-64 -94.5t-95.5 -62.5t-117 -22.5q-72 0 -127 22t-92 62.5t-56 98.5t-19 131v23t2 23l232 -30q-1 -16 1 -36.5t9.5 -39t21 -31.5
t36.5 -13q14 0 23.5 7.5t15.5 19.5t8.5 25.5t2.5 25.5q0 29 -6.5 55t-15.5 53l242 44q9 -33 15.5 -69.5t6.5 -72.5z" />
    <glyph glyph-name="abreve" unicode="&#x103;" 
d="M1312 86l-496 -64l-60 226h-228l-50 -226l-510 50l398 1332l556 28zM720 554l-76 348l-74 -348h150zM938 1762q0 -64 -23.5 -118.5t-64 -94.5t-95.5 -62.5t-117 -22.5q-72 0 -127 22t-92 62.5t-56 98.5t-19 131v23t2 23l232 -30q-1 -16 1 -36.5t9.5 -39t21 -31.5
t36.5 -13q14 0 23.5 7.5t15.5 19.5t8.5 25.5t2.5 25.5q0 29 -6.5 55t-15.5 53l242 44q9 -33 15.5 -69.5t6.5 -72.5z" />
    <glyph glyph-name="Aogonek" unicode="&#x104;" 
d="M1289 -235q-44 -42 -99 -73t-117 -31q-46 0 -86.5 15.5t-71 43t-48.5 66t-18 85.5q0 46 17 86.5t44 76.5l-94 -12l-60 226h-228l-50 -226l-510 50l398 1332l556 28l390 -1346l-151 -20q-16 -20 -33 -43t-30.5 -45t-22 -42t-8.5 -35q0 -18 13 -30t31 -12q20 0 44 15.5
t36 32.5zM720 554l-76 348l-74 -348h150z" />
    <glyph glyph-name="aogonek" unicode="&#x105;" 
d="M1284 -241q-44 -42 -99 -73t-117 -31q-46 0 -86.5 15.5t-71 43t-48.5 66t-18 85.5q0 48 18 90t47 79l-93 -12l-60 226h-228l-50 -226l-510 50l398 1332l556 28l390 -1346l-151 -20q-16 -21 -33.5 -44.5t-32 -46.5t-24 -44t-9.5 -36q0 -18 13 -30t31 -12q20 0 44 15.5
t36 32.5zM720 554l-76 348l-74 -348h150z" />
    <glyph glyph-name="Cacute" unicode="&#x106;" horiz-adv-x="1054" 
d="M1042 1406l-56 -422q-29 8 -58 11t-58 3q-74 0 -141 -19.5t-118.5 -59.5t-82 -100t-30.5 -141q0 -52 16.5 -90t46.5 -63t71 -37t90 -12q37 0 77 8t79 21t76 30t68 35l-40 -470q-39 -20 -84.5 -35.5t-93.5 -27t-96 -17.5t-92 -6q-127 0 -237 47t-191 129t-127.5 193.5
t-46.5 240.5q0 171 49 322.5t144 265.5t235.5 180t323.5 66q69 0 141.5 -11t134.5 -41zM988 1754q-119 -65 -232 -131.5t-226 -144.5l-128 140q20 24 48 53.5t59.5 60.5t65.5 62.5t66 60.5q76 69 159 139z" />
    <glyph glyph-name="cacute" unicode="&#x107;" horiz-adv-x="1050" 
d="M1005 1366l-36 -422q-29 8 -57 11t-57 3q-71 0 -135.5 -18t-114 -55t-79 -93.5t-29.5 -133.5q0 -56 16.5 -97.5t47 -69t74 -41.5t96.5 -14q37 0 76 7.5t78 20.5t75 30t67 36l-16 -470q-39 -20 -84 -35.5t-92.5 -27t-95 -17.5t-90.5 -6q-142 0 -258.5 53t-200 144.5
t-129.5 212.5t-46 258q0 164 46.5 306t137 246.5t224 164t306.5 59.5q69 0 140 -11t136 -41zM988 1724q-119 -65 -232 -131.5t-226 -144.5l-128 140q20 24 48 53.5t59.5 60.5t65.5 62.5t66 60.5q76 69 159 139z" />
    <glyph glyph-name="Ccircumflex" unicode="&#x108;" horiz-adv-x="1054" 
d="M1042 1406l-56 -422q-29 8 -58 11t-58 3q-74 0 -141 -19.5t-118.5 -59.5t-82 -100t-30.5 -141q0 -52 16.5 -90t46.5 -63t71 -37t90 -12q37 0 77 8t79 21t76 30t68 35l-40 -470q-39 -20 -84.5 -35.5t-93.5 -27t-96 -17.5t-92 -6q-127 0 -237 47t-191 129t-127.5 193.5
t-46.5 240.5q0 171 49 322.5t144 265.5t235.5 180t323.5 66q69 0 141.5 -11t134.5 -41zM674 1483l-156 204l-122 -194l-220 94q19 31 47 72.5t59 86t63 89t61 82.5l206 2l274 -306z" />
    <glyph glyph-name="ccircumflex" unicode="&#x109;" horiz-adv-x="1050" 
d="M1005 1366l-36 -422q-29 8 -57 11t-57 3q-71 0 -135.5 -18t-114 -55t-79 -93.5t-29.5 -133.5q0 -56 16.5 -97.5t47 -69t74 -41.5t96.5 -14q37 0 76 7.5t78 20.5t75 30t67 36l-16 -470q-39 -20 -84 -35.5t-92.5 -27t-95 -17.5t-90.5 -6q-142 0 -258.5 53t-200 144.5
t-129.5 212.5t-46 258q0 164 46.5 306t137 246.5t224 164t306.5 59.5q69 0 140 -11t136 -41zM674 1453l-156 204l-122 -194l-220 94q19 31 47 72.5t59 86t63 89t61 82.5l206 2l274 -306z" />
    <glyph glyph-name="Cdotaccent" unicode="&#x10a;" horiz-adv-x="1054" 
d="M1042 1406l-56 -422q-29 8 -58 11t-58 3q-74 0 -141 -19.5t-118.5 -59.5t-82 -100t-30.5 -141q0 -52 16.5 -90t46.5 -63t71 -37t90 -12q37 0 77 8t79 21t76 30t68 35l-40 -470q-39 -20 -84.5 -35.5t-93.5 -27t-96 -17.5t-92 -6q-127 0 -237 47t-191 129t-127.5 193.5
t-46.5 240.5q0 171 49 322.5t144 265.5t235.5 180t323.5 66q69 0 141.5 -11t134.5 -41zM727 1677q0 -41 -15.5 -76t-42.5 -61.5t-63 -41.5t-77 -15q-44 0 -81 15t-64 41.5t-42 61.5t-15 76q0 40 15 76t41.5 62.5t62.5 42t77 15.5q43 0 80.5 -15.5t65 -42t43 -62.5t15.5 -76z
" />
    <glyph glyph-name="cdotaccent" unicode="&#x10b;" horiz-adv-x="1050" 
d="M1005 1366l-36 -422q-29 8 -57 11t-57 3q-71 0 -135.5 -18t-114 -55t-79 -93.5t-29.5 -133.5q0 -56 16.5 -97.5t47 -69t74 -41.5t96.5 -14q37 0 76 7.5t78 20.5t75 30t67 36l-16 -470q-39 -20 -84 -35.5t-92.5 -27t-95 -17.5t-90.5 -6q-142 0 -258.5 53t-200 144.5
t-129.5 212.5t-46 258q0 164 46.5 306t137 246.5t224 164t306.5 59.5q69 0 140 -11t136 -41zM727 1637q0 -41 -15.5 -76t-42.5 -61.5t-63 -41.5t-77 -15q-44 0 -81 15t-64 41.5t-42 61.5t-15 76q0 40 15 76t41.5 62.5t62.5 42t77 15.5q43 0 80.5 -15.5t65 -42t43 -62.5
t15.5 -76z" />
    <glyph glyph-name="Ccaron" unicode="&#x10c;" horiz-adv-x="1054" 
d="M1042 1406l-56 -422q-29 8 -58 11t-58 3q-74 0 -141 -19.5t-118.5 -59.5t-82 -100t-30.5 -141q0 -52 16.5 -90t46.5 -63t71 -37t90 -12q37 0 77 8t79 21t76 30t68 35l-40 -470q-39 -20 -84.5 -35.5t-93.5 -27t-96 -17.5t-92 -6q-127 0 -237 47t-191 129t-127.5 193.5
t-46.5 240.5q0 171 49 322.5t144 265.5t235.5 180t323.5 66q69 0 141.5 -11t134.5 -41zM882 1826q-19 -31 -46 -70.5t-57 -82.5t-61.5 -86.5t-59.5 -80.5l-196 -28l-290 318l212 134l156 -204l122 196z" />
    <glyph glyph-name="ccaron" unicode="&#x10d;" horiz-adv-x="1050" 
d="M1005 1366l-36 -422q-29 8 -57 11t-57 3q-71 0 -135.5 -18t-114 -55t-79 -93.5t-29.5 -133.5q0 -56 16.5 -97.5t47 -69t74 -41.5t96.5 -14q37 0 76 7.5t78 20.5t75 30t67 36l-16 -470q-39 -20 -84 -35.5t-92.5 -27t-95 -17.5t-90.5 -6q-142 0 -258.5 53t-200 144.5
t-129.5 212.5t-46 258q0 164 46.5 306t137 246.5t224 164t306.5 59.5q69 0 140 -11t136 -41zM880 1793q-19 -31 -46 -70.5t-57 -82.5t-61.5 -86.5t-59.5 -80.5l-196 -28l-290 318l212 134l156 -204l122 196z" />
    <glyph glyph-name="Dcaron" unicode="&#x10e;" horiz-adv-x="1193" 
d="M1184 794q0 -140 -36 -252.5t-100.5 -200t-153.5 -150.5t-195 -103.5t-225.5 -60t-245.5 -19.5q-47 0 -92 2.5t-92 7.5l28 1342q110 35 226.5 49.5t231.5 14.5q143 0 263 -43t207 -124t135.5 -198t48.5 -265zM774 730q1 54 -11.5 104t-41 88.5t-72.5 62t-105 25.5
l-40 -620q60 9 109 39.5t84.5 75t55 99t21.5 112.5v14zM928 1826q-19 -31 -46 -70.5t-57 -82.5t-61.5 -86.5t-59.5 -80.5l-196 -28l-290 318l212 134l156 -204l122 196z" />
    <glyph glyph-name="dcaron" unicode="&#x10f;" horiz-adv-x="1193" 
d="M1184 794q0 -140 -36 -251t-100.5 -196.5t-153.5 -145.5t-195 -98.5t-225.5 -56.5t-245.5 -18q-47 0 -92 2.5t-92 7.5l28 1302q110 35 226.5 49.5t231.5 14.5q143 0 263 -40t207 -117.5t135.5 -191t48.5 -261.5zM504 410q60 9 109.5 36.5t85.5 68t55.5 92t19.5 109.5
q0 57 -12 106.5t-39 86t-71 58t-108 23.5zM928 1796q-19 -31 -46 -70.5t-57 -82.5t-61.5 -86.5t-59.5 -80.5l-196 -28l-290 318l212 134l156 -204l122 196z" />
    <glyph glyph-name="Dcroat" unicode="&#x110;" horiz-adv-x="1262" 
d="M127 776l14 584q110 35 226.5 49.5t231.5 14.5q143 0 263 -43t207 -124t135.5 -198t48.5 -265q0 -140 -36 -252.5t-100.5 -200t-153.5 -150.5t-195 -103.5t-226 -60t-245 -19.5q-47 0 -92 2.5t-92 7.5l12 586l-150 -6l-4 182zM843 730q1 54 -11.5 104t-41 88.5t-72.5 62
t-105 25.5l-16 -240l100 -2l4 -140l-110 -6l-18 -232q60 9 109 39.5t84.5 75t55 99t21.5 112.5v14z" />
    <glyph glyph-name="dcroat" unicode="&#x111;" horiz-adv-x="1262" 
d="M127 776l14 584q110 35 226.5 49.5t231.5 14.5q143 0 263 -43t207 -124t135.5 -198t48.5 -265q0 -140 -36 -252.5t-100.5 -200t-153.5 -150.5t-195 -103.5t-226 -60t-245 -19.5q-47 0 -92 2.5t-92 7.5l12 586l-150 -6l-4 182zM843 730q1 54 -11.5 104t-41 88.5t-72.5 62
t-105 25.5l-16 -240l100 -2l4 -140l-110 -6l-18 -232q60 9 109 39.5t84.5 75t55 99t21.5 112.5v14z" />
    <glyph glyph-name="Emacron" unicode="&#x112;" horiz-adv-x="981" 
d="M998 1442q-6 -94 -11 -186t-13 -186l-424 -22l-10 -126h298l-22 -310l-300 -10l-10 -146h248h176q-6 -110 -12.5 -218.5t-11.5 -217.5l-862 -20l32 1442h922zM813 1516l-632 8l-18 238l654 12z" />
    <glyph glyph-name="emacron" unicode="&#x113;" horiz-adv-x="1181" 
d="M1167 808q0 -87 -12 -174q-171 -11 -340 -35.5t-338 -48.5q26 -72 81.5 -115t132.5 -43q40 0 87.5 15t94.5 37.5t90 48.5t74 47l-48 -454q-39 -30 -84.5 -51t-94.5 -34t-99 -19t-98 -6q-99 0 -181 27t-148.5 75.5t-116.5 114.5t-83 144t-50 165t-17 176q0 93 17 186
t51.5 179t87 159.5t122.5 128.5t158.5 86t195.5 31q89 0 162.5 -24.5t131 -68t100 -103.5t70 -131.5t41 -151t13.5 -161.5zM767 860q0 28 -6 57.5t-19.5 53.5t-35.5 39.5t-55 15.5q-40 0 -70.5 -21.5t-52.5 -54t-36 -70.5t-21 -70l296 28v22zM959 1496l-632 8l-18 238
l654 12z" />
    <glyph glyph-name="Ebreve" unicode="&#x114;" horiz-adv-x="981" 
d="M998 1442q-6 -94 -11 -186t-13 -186l-424 -22l-10 -126h298l-22 -310l-300 -10l-10 -146h248h176q-6 -110 -12.5 -218.5t-11.5 -217.5l-862 -20l32 1442h922zM787 1776q0 -64 -23.5 -118.5t-64 -94.5t-95.5 -62.5t-117 -22.5q-72 0 -127 22t-92 62.5t-56 98.5t-19 131v23
t2 23l232 -30q-1 -16 1 -36.5t9.5 -39t21 -31.5t36.5 -13q14 0 23.5 7.5t15.5 19.5t8.5 25.5t2.5 25.5q0 29 -6.5 55t-15.5 53l242 44q9 -33 15.5 -69.5t6.5 -72.5z" />
    <glyph glyph-name="ebreve" unicode="&#x115;" horiz-adv-x="1181" 
d="M1167 808q0 -87 -12 -174q-171 -11 -340 -35.5t-338 -48.5q26 -72 81.5 -115t132.5 -43q40 0 87.5 15t94.5 37.5t90 48.5t74 47l-48 -454q-39 -30 -84.5 -51t-94.5 -34t-99 -19t-98 -6q-99 0 -181 27t-148.5 75.5t-116.5 114.5t-83 144t-50 165t-17 176q0 93 17 186
t51.5 179t87 159.5t122.5 128.5t158.5 86t195.5 31q89 0 162.5 -24.5t131 -68t100 -103.5t70 -131.5t41 -151t13.5 -161.5zM767 860q0 28 -6 57.5t-19.5 53.5t-35.5 39.5t-55 15.5q-40 0 -70.5 -21.5t-52.5 -54t-36 -70.5t-21 -70l296 28v22zM891 1794q0 -64 -23.5 -118.5
t-64 -94.5t-95.5 -62.5t-117 -22.5q-72 0 -127 22t-92 62.5t-56 98.5t-19 131v23t2 23l232 -30q-1 -16 1 -36.5t9.5 -39t21 -31.5t36.5 -13q14 0 23.5 7.5t15.5 19.5t8.5 25.5t2.5 25.5q0 29 -6.5 55t-15.5 53l242 44q9 -33 15.5 -69.5t6.5 -72.5z" />
    <glyph glyph-name="Edotaccent" unicode="&#x116;" horiz-adv-x="981" 
d="M998 1442q-6 -94 -11 -186t-13 -186l-424 -22l-10 -126h298l-22 -310l-300 -10l-10 -146h248h176q-6 -110 -12.5 -218.5t-11.5 -217.5l-862 -20l32 1442h922zM709 1680q0 -41 -15.5 -76t-42.5 -61.5t-63 -41.5t-77 -15q-44 0 -81 15t-64 41.5t-42 61.5t-15 76q0 40 15 76
t41.5 62.5t62.5 42t77 15.5q43 0 80.5 -15.5t65 -42t43 -62.5t15.5 -76z" />
    <glyph glyph-name="edotaccent" unicode="&#x117;" horiz-adv-x="1181" 
d="M1167 808q0 -87 -12 -174q-171 -11 -340 -35.5t-338 -48.5q26 -72 81.5 -115t132.5 -43q40 0 87.5 15t94.5 37.5t90 48.5t74 47l-48 -454q-39 -30 -84.5 -51t-94.5 -34t-99 -19t-98 -6q-99 0 -181 27t-148.5 75.5t-116.5 114.5t-83 144t-50 165t-17 176q0 93 17 186
t51.5 179t87 159.5t122.5 128.5t158.5 86t195.5 31q89 0 162.5 -24.5t131 -68t100 -103.5t70 -131.5t41 -151t13.5 -161.5zM767 860q0 28 -6 57.5t-19.5 53.5t-35.5 39.5t-55 15.5q-40 0 -70.5 -21.5t-52.5 -54t-36 -70.5t-21 -70l296 28v22zM818 1698q0 -41 -15.5 -76
t-42.5 -61.5t-63 -41.5t-77 -15q-44 0 -81 15t-64 41.5t-42 61.5t-15 76q0 40 15 76t41.5 62.5t62.5 42t77 15.5q43 0 80.5 -15.5t65 -42t43 -62.5t15.5 -76z" />
    <glyph glyph-name="Eogonek" unicode="&#x118;" horiz-adv-x="981" 
d="M896 -283q-44 -42 -99 -73t-117 -31q-46 0 -86.5 15.5t-71 43t-48.5 66t-18 85.5q0 54 23 101t58 87l-493 -11l32 1442h922q-6 -94 -11 -186t-13 -186l-424 -22l-10 -126h298l-22 -310l-300 -10l-10 -146h424q-6 -110 -12.5 -218.5t-11.5 -217.5l-139 -3
q-16 -20 -32.5 -43t-30 -45t-22 -42t-8.5 -34q0 -18 13 -30t31 -12q20 0 44 15.5t36 32.5z" />
    <glyph glyph-name="eogonek" unicode="&#x119;" horiz-adv-x="1181" 
d="M968 -286q-44 -42 -99 -73t-117 -31q-46 0 -86.5 15.5t-71 43t-48.5 66t-18 85.5q0 44 15.5 83t40.5 74q-141 6 -247 67t-177 158.5t-107 221t-36 254.5q0 93 17 186t51.5 179t87 159.5t122.5 128.5t158.5 86t195.5 31q89 0 162.5 -24.5t131 -68t100 -103.5t70 -131.5
t41 -151t13.5 -161.5q0 -87 -12 -174q-171 -11 -340 -35.5t-338 -48.5q26 -72 81.5 -115t132.5 -43q40 0 87.5 15t94.5 37.5t90 48.5t74 47l-48 -454q-68 -52 -154 -78q-16 -20 -32 -42t-28.5 -43t-20.5 -40t-8 -33q0 -18 13 -30t31 -12q20 0 44 15.5t36 32.5zM767 860
q0 28 -6 57.5t-19.5 53.5t-35.5 39.5t-55 15.5q-40 0 -70.5 -21.5t-52.5 -54t-36 -70.5t-21 -70l296 28v22z" />
    <glyph glyph-name="Ecaron" unicode="&#x11a;" horiz-adv-x="981" 
d="M998 1442q-6 -94 -11 -186t-13 -186l-424 -22l-10 -126h298l-22 -310l-300 -10l-10 -146h248h176q-6 -110 -12.5 -218.5t-11.5 -217.5l-862 -20l32 1442h922zM831 1826q-19 -31 -46 -70.5t-57 -82.5t-61.5 -86.5t-59.5 -80.5l-196 -28l-290 318l212 134l156 -204l122 196
z" />
    <glyph glyph-name="ecaron" unicode="&#x11b;" horiz-adv-x="1181" 
d="M1167 808q0 -87 -12 -174q-171 -11 -340 -35.5t-338 -48.5q26 -72 81.5 -115t132.5 -43q40 0 87.5 15t94.5 37.5t90 48.5t74 47l-48 -454q-39 -30 -84.5 -51t-94.5 -34t-99 -19t-98 -6q-99 0 -181 27t-148.5 75.5t-116.5 114.5t-83 144t-50 165t-17 176q0 93 17 186
t51.5 179t87 159.5t122.5 128.5t158.5 86t195.5 31q89 0 162.5 -24.5t131 -68t100 -103.5t70 -131.5t41 -151t13.5 -161.5zM767 860q0 28 -6 57.5t-19.5 53.5t-35.5 39.5t-55 15.5q-40 0 -70.5 -21.5t-52.5 -54t-36 -70.5t-21 -70l296 28v22zM940 1825q-19 -31 -46 -70.5
t-57 -82.5t-61.5 -86.5t-59.5 -80.5l-196 -28l-290 318l212 134l156 -204l122 196z" />
    <glyph glyph-name="Gcircumflex" unicode="&#x11c;" horiz-adv-x="1283" 
d="M1258 204q-47 -59 -116 -103t-148 -73t-162 -43.5t-158 -14.5q-145 0 -267 52t-210.5 143.5t-138.5 215.5t-50 267q0 109 25 213.5t71.5 197t113.5 170t152 133.5t186 87t216 31q43 0 92 -3.5t97.5 -12t94.5 -23.5t84 -37l-28 -382q-56 21 -115.5 28.5t-116.5 7.5
q-80 0 -149.5 -24.5t-121 -70.5t-81.5 -112t-30 -149q0 -52 14 -100.5t42.5 -86t71 -60.5t98.5 -23q38 0 78.5 10t69.5 34l4 78l-240 4l12 300q149 5 298 8.5t300 9.5zM779 1510l-156 204l-122 -194l-220 94q19 31 47 72.5t59 86t63 89t61 82.5l206 2l274 -306z" />
    <glyph glyph-name="gcircumflex" unicode="&#x11d;" horiz-adv-x="1285" 
d="M1260 224q-47 -59 -116 -103t-148 -73t-162 -43.5t-158 -14.5q-145 0 -267 49t-210.5 136.5t-138.5 208.5t-50 264q0 109 25 212t71.5 193t113.5 165t152 129t186.5 83.5t215.5 29.5q43 0 92 -3.5t97.5 -12t94.5 -23.5t84 -37l-28 -382q-56 21 -115.5 28.5t-116.5 7.5
q-80 0 -149.5 -21.5t-121 -63.5t-81.5 -105t-30 -146q0 -52 14 -100.5t42.5 -86t71 -60.5t98.5 -23q38 0 78.5 10t69.5 34l4 78l-240 4l12 300q149 5 298 8.5t300 9.5zM813 1491l-156 204l-122 -194l-220 94q19 31 47 72.5t59 86t63 89t61 82.5l206 2l274 -306z" />
    <glyph glyph-name="Gbreve" unicode="&#x11e;" horiz-adv-x="1283" 
d="M1258 204q-47 -59 -116 -103t-148 -73t-162 -43.5t-158 -14.5q-145 0 -267 52t-210.5 143.5t-138.5 215.5t-50 267q0 109 25 213.5t71.5 197t113.5 170t152 133.5t186 87t216 31q43 0 92 -3.5t97.5 -12t94.5 -23.5t84 -37l-28 -382q-56 21 -115.5 28.5t-116.5 7.5
q-80 0 -149.5 -24.5t-121 -70.5t-81.5 -112t-30 -149q0 -52 14 -100.5t42.5 -86t71 -60.5t98.5 -23q38 0 78.5 10t69.5 34l4 78l-240 4l12 300q149 5 298 8.5t300 9.5zM933 1814q0 -64 -23.5 -118.5t-64 -94.5t-95.5 -62.5t-117 -22.5q-72 0 -127 22t-92 62.5t-56 98.5
t-19 131v23t2 23l232 -30q-1 -16 1 -36.5t9.5 -39t21 -31.5t36.5 -13q14 0 23.5 7.5t15.5 19.5t8.5 25.5t2.5 25.5q0 29 -6.5 55t-15.5 53l242 44q9 -33 15.5 -69.5t6.5 -72.5z" />
    <glyph glyph-name="gbreve" unicode="&#x11f;" horiz-adv-x="1285" 
d="M1260 224q-47 -59 -116 -103t-148 -73t-162 -43.5t-158 -14.5q-145 0 -267 49t-210.5 136.5t-138.5 208.5t-50 264q0 109 25 212t71.5 193t113.5 165t152 129t186.5 83.5t215.5 29.5q43 0 92 -3.5t97.5 -12t94.5 -23.5t84 -37l-28 -382q-56 21 -115.5 28.5t-116.5 7.5
q-80 0 -149.5 -21.5t-121 -63.5t-81.5 -105t-30 -146q0 -52 14 -100.5t42.5 -86t71 -60.5t98.5 -23q38 0 78.5 10t69.5 34l4 78l-240 4l12 300q149 5 298 8.5t300 9.5zM925 1794q0 -64 -23.5 -118.5t-64 -94.5t-95.5 -62.5t-117 -22.5q-72 0 -127 22t-92 62.5t-56 98.5
t-19 131v23t2 23l232 -30q-1 -16 1 -36.5t9.5 -39t21 -31.5t36.5 -13q14 0 23.5 7.5t15.5 19.5t8.5 25.5t2.5 25.5q0 29 -6.5 55t-15.5 53l242 44q9 -33 15.5 -69.5t6.5 -72.5z" />
    <glyph glyph-name="Gdotaccent" unicode="&#x120;" horiz-adv-x="1283" 
d="M1258 204q-47 -59 -116 -103t-148 -73t-162 -43.5t-158 -14.5q-145 0 -267 52t-210.5 143.5t-138.5 215.5t-50 267q0 109 25 213.5t71.5 197t113.5 170t152 133.5t186 87t216 31q43 0 92 -3.5t97.5 -12t94.5 -23.5t84 -37l-28 -382q-56 21 -115.5 28.5t-116.5 7.5
q-80 0 -149.5 -24.5t-121 -70.5t-81.5 -112t-30 -149q0 -52 14 -100.5t42.5 -86t71 -60.5t98.5 -23q38 0 78.5 10t69.5 34l4 78l-240 4l12 300q149 5 298 8.5t300 9.5zM818 1713q0 -41 -15.5 -76t-42.5 -61.5t-63 -41.5t-77 -15q-44 0 -81 15t-64 41.5t-42 61.5t-15 76
q0 40 15 76t41.5 62.5t62.5 42t77 15.5q43 0 80.5 -15.5t65 -42t43 -62.5t15.5 -76z" />
    <glyph glyph-name="gdotaccent" unicode="&#x121;" horiz-adv-x="1285" 
d="M1260 224q-47 -59 -116 -103t-148 -73t-162 -43.5t-158 -14.5q-145 0 -267 49t-210.5 136.5t-138.5 208.5t-50 264q0 109 25 212t71.5 193t113.5 165t152 129t186.5 83.5t215.5 29.5q43 0 92 -3.5t97.5 -12t94.5 -23.5t84 -37l-28 -382q-56 21 -115.5 28.5t-116.5 7.5
q-80 0 -149.5 -21.5t-121 -63.5t-81.5 -105t-30 -146q0 -52 14 -100.5t42.5 -86t71 -60.5t98.5 -23q38 0 78.5 10t69.5 34l4 78l-240 4l12 300q149 5 298 8.5t300 9.5zM823 1689q0 -41 -15.5 -76t-42.5 -61.5t-63 -41.5t-77 -15q-44 0 -81 15t-64 41.5t-42 61.5t-15 76
q0 40 15 76t41.5 62.5t62.5 42t77 15.5q43 0 80.5 -15.5t65 -42t43 -62.5t15.5 -76z" />
    <glyph glyph-name="Gcommaaccent" unicode="&#x122;" horiz-adv-x="1283" 
d="M1258 204q-47 -59 -116 -103t-148 -73t-162 -43.5t-158 -14.5q-145 0 -267 52t-210.5 143.5t-138.5 215.5t-50 267q0 109 25 213.5t71.5 197t113.5 170t152 133.5t186 87t216 31q43 0 92 -3.5t97.5 -12t94.5 -23.5t84 -37l-28 -382q-56 21 -115.5 28.5t-116.5 7.5
q-80 0 -149.5 -24.5t-121 -70.5t-81.5 -112t-30 -149q0 -52 14 -100.5t42.5 -86t71 -60.5t98.5 -23q38 0 78.5 10t69.5 34l4 78l-240 4l12 300q149 5 298 8.5t300 9.5zM833 -241q0 -33 -14 -72.5t-39 -78.5t-60.5 -73.5t-79.5 -57.5l-0.5 16t-1.5 38.5t-2.5 48.5t-2.5 46
q-44 16 -69 54t-25 84q0 30 11.5 56.5t31.5 46.5t47 32t57 12t57 -12t47 -32t31.5 -46.5t11.5 -56.5v-5z" />
    <glyph glyph-name="gcommaaccent" unicode="&#x123;" horiz-adv-x="1285" 
d="M1260 224q-47 -59 -116 -103t-148 -73t-162 -43.5t-158 -14.5q-145 0 -267 49t-210.5 136.5t-138.5 208.5t-50 264q0 109 25 212t71.5 193t113.5 165t152 129t186.5 83.5t215.5 29.5q43 0 92 -3.5t97.5 -12t94.5 -23.5t84 -37l-28 -382q-56 21 -115.5 28.5t-116.5 7.5
q-80 0 -149.5 -21.5t-121 -63.5t-81.5 -105t-30 -146q0 -52 14 -100.5t42.5 -86t71 -60.5t98.5 -23q38 0 78.5 10t69.5 34l4 78l-240 4l12 300q149 5 298 8.5t300 9.5zM823 -241q0 -33 -14 -72.5t-39 -78.5t-60.5 -73.5t-79.5 -57.5l-0.5 16t-1.5 38.5t-2.5 48.5t-2.5 46
q-44 16 -69 54t-25 84q0 30 11.5 56.5t31.5 46.5t47 32t57 12t57 -12t47 -32t31.5 -46.5t11.5 -56.5v-5z" />
    <glyph glyph-name="Hcircumflex" unicode="&#x124;" 
d="M1238 0l-500 -24l-4 462h-230l-14 -438h-448l38 1406l476 -22l-30 -718h222l2 772l456 -12zM784 1459l-156 204l-122 -194l-220 94q19 31 47 72.5t59 86t63 89t61 82.5l206 2l274 -306z" />
    <glyph glyph-name="hcircumflex" unicode="&#x125;" 
d="M1238 40l-500 -24l-4 422h-230l-14 -438h-448l38 1406l476 -22l-30 -718h222l2 752l456 -12zM784 1440l-156 204l-122 -194l-220 94q19 31 47 72.5t59 86t63 89t61 82.5l206 2l274 -306z" />
    <glyph glyph-name="Hbar" unicode="&#x126;" 
d="M1238 0l-500 -24l-4 462h-230l-14 -438h-448l38 1406l476 -22l-15 -357l208 4l1 407l456 -12zM748 666v113l-217 3l-5 -116h222z" />
    <glyph glyph-name="hbar" unicode="&#x127;" 
d="M1238 40l-500 -24l-4 422h-230l-14 -438h-448l38 1406l476 -22l-14 -334l207 4l1 364l456 -12zM748 666v136l-216 3l-6 -139h222z" />
    <glyph glyph-name="Itilde" unicode="&#x128;" horiz-adv-x="609" 
d="M591 1408l-110 -1362l-422 -22v1356zM706 1714q0 -58 -21 -108t-57.5 -87t-86 -58t-105.5 -21q-44 0 -75 16t-52.5 40t-37 52t-28.5 52t-26.5 40t-30.5 16q-11 0 -19 -6.5t-12.5 -15.5t-6.5 -20t-2 -20q0 -30 7.5 -58.5t18.5 -55.5l-244 -20q-12 42 -17 84.5t-5 83.5
q0 61 16 114t47.5 92t78 61.5t108.5 22.5q55 0 91 -17t60 -42t37.5 -55t24.5 -55t21 -42t26 -17q20 0 31 18t11 36q0 30 -12 58.5t-26 51.5l248 40q17 -44 27.5 -88.5t10.5 -91.5z" />
    <glyph glyph-name="itilde" unicode="&#x129;" horiz-adv-x="603" 
d="M573 1408l-70 -1362l-422 -22l-40 1356zM694 1714q0 -58 -21 -108t-57.5 -87t-86 -58t-105.5 -21q-44 0 -75 16t-52.5 40t-37 52t-28.5 52t-26.5 40t-30.5 16q-11 0 -19 -6.5t-12.5 -15.5t-6.5 -20t-2 -20q0 -30 7.5 -58.5t18.5 -55.5l-244 -20q-12 42 -17 84.5t-5 83.5
q0 61 16 114t47.5 92t78 61.5t108.5 22.5q55 0 91 -17t60 -42t37.5 -55t24.5 -55t21 -42t26 -17q20 0 31 18t11 36q0 30 -12 58.5t-26 51.5l248 40q17 -44 27.5 -88.5t10.5 -91.5z" />
    <glyph glyph-name="Imacron" unicode="&#x12a;" horiz-adv-x="609" 
d="M591 1408l-110 -1362l-422 -22v1356zM638 1466l-632 8l-18 238l654 12z" />
    <glyph glyph-name="imacron" unicode="&#x12b;" horiz-adv-x="603" 
d="M573 1408l-70 -1362l-422 -22l-40 1356zM626 1456l-632 8l-18 238l654 12z" />
    <glyph glyph-name="Ibreve" unicode="&#x12c;" horiz-adv-x="609" 
d="M591 1408l-110 -1362l-422 -22v1356zM601 1753q0 -64 -23.5 -118.5t-64 -94.5t-95.5 -62.5t-117 -22.5q-72 0 -127 22t-92 62.5t-56 98.5t-19 131v23t2 23l232 -30q-1 -16 1 -36.5t9.5 -39t21 -31.5t36.5 -13q14 0 23.5 7.5t15.5 19.5t8.5 25.5t2.5 25.5q0 29 -6.5 55
t-15.5 53l242 44q9 -33 15.5 -69.5t6.5 -72.5z" />
    <glyph glyph-name="ibreve" unicode="&#x12d;" horiz-adv-x="603" 
d="M573 1408l-70 -1362l-422 -22l-40 1356zM603 1738q0 -64 -23.5 -118.5t-64 -94.5t-95.5 -62.5t-117 -22.5q-72 0 -127 22t-92 62.5t-56 98.5t-19 131v23t2 23l232 -30q-1 -16 1 -36.5t9.5 -39t21 -31.5t36.5 -13q14 0 23.5 7.5t15.5 19.5t8.5 25.5t2.5 25.5q0 29 -6.5 55
t-15.5 53l242 44q9 -33 15.5 -69.5t6.5 -72.5z" />
    <glyph glyph-name="Iogonek" unicode="&#x12e;" horiz-adv-x="609" 
d="M489 -273q-44 -42 -99 -73t-117 -31q-46 0 -86.5 15.5t-71 43t-48.5 66t-18 85.5q0 57 25 105.5t62 89.5l-77 -4v1356l532 28l-110 -1362l-110 -6q-17 -21 -35.5 -45t-33.5 -48t-25 -46t-10 -38q0 -18 13 -30t31 -12q20 0 44 15.5t36 32.5z" />
    <glyph glyph-name="iogonek" unicode="&#x12f;" horiz-adv-x="603" 
d="M502 -278q-44 -42 -99 -73t-117 -31q-46 0 -86.5 15.5t-71 43t-48.5 66t-18 85.5q0 58 26.5 108t64.5 92l-72 -4l-40 1356l532 28l-70 -1362l-115 -6q-17 -21 -36 -46t-35 -49.5t-26.5 -47.5t-10.5 -39q0 -18 13 -30t31 -12q20 0 44 15.5t36 32.5z" />
    <glyph glyph-name="Idotaccent" unicode="&#x130;" horiz-adv-x="609" 
d="M591 1408l-110 -1362l-422 -22v1356zM527 1647q0 -41 -15.5 -76t-42.5 -61.5t-63 -41.5t-77 -15q-44 0 -81 15t-64 41.5t-42 61.5t-15 76q0 40 15 76t41.5 62.5t62.5 42t77 15.5q43 0 80.5 -15.5t65 -42t43 -62.5t15.5 -76z" />
    <glyph glyph-name="dotlessi" unicode="&#x131;" horiz-adv-x="603" 
d="M573 1408l-70 -1362l-422 -22l-40 1356z" />
    <glyph glyph-name="IJ" unicode="&#x132;" horiz-adv-x="1631" 
d="M591 1408l-110 -1362l-422 -22v1356zM1593 824v-117t-6 -117q-11 -125 -54 -236.5t-116.5 -195.5t-178.5 -133t-241 -49q-53 0 -110.5 9t-114 27t-108 44.5t-91.5 61.5l62 414q59 -57 131 -92.5t157 -35.5q55 0 93 16t63 44t39.5 65.5t21 80t8 87.5t1.5 89
q0 159 -16 316.5t-28 315.5l458 30q30 -312 30 -624z" />
    <glyph glyph-name="ij" unicode="&#x133;" horiz-adv-x="1636" 
d="M573 1408l-70 -1362l-422 -22l-40 1356zM1598 824v-117t-6 -117q-11 -125 -54 -236.5t-116.5 -195.5t-178.5 -133t-241 -49q-53 0 -110.5 9t-114 27t-108 44.5t-91.5 61.5l62 414q59 -57 131 -92.5t157 -35.5q55 0 93 16t63 44t39.5 65.5t21 80t8 87.5t1.5 89
q0 159 -16 316.5t-28 315.5l458 30q30 -312 30 -624z" />
    <glyph glyph-name="Jcircumflex" unicode="&#x134;" horiz-adv-x="1044" 
d="M1006 824v-117t-6 -117q-11 -125 -54 -236.5t-116.5 -195.5t-178.5 -133t-241 -49q-53 0 -110.5 9t-114 27t-108 44.5t-91.5 61.5l62 414q59 -57 131 -92.5t157 -35.5q55 0 93 16t63 44t39.5 65.5t21 80t8 87.5t1.5 89q0 159 -16 316.5t-28 315.5l458 30q30 -312 30 -624
zM855 1473l-156 204l-122 -194l-220 94q19 31 47 72.5t59 86t63 89t61 82.5l206 2l274 -306z" />
    <glyph glyph-name="jcircumflex" unicode="&#x135;" horiz-adv-x="1044" 
d="M1006 824v-117t-6 -117q-11 -125 -54 -236.5t-116.5 -195.5t-178.5 -133t-241 -49q-53 0 -110.5 9t-114 27t-108 44.5t-91.5 61.5l62 414q59 -57 131 -92.5t157 -35.5q55 0 93 16t63 44t39.5 65.5t21 80t8 87.5t1.5 89q0 159 -16 316.5t-28 315.5l458 30q30 -312 30 -624
zM870 1478l-156 204l-122 -194l-220 94q19 31 47 72.5t59 86t63 89t61 82.5l206 2l274 -306z" />
    <glyph glyph-name="Kcommaaccent" unicode="&#x136;" horiz-adv-x="1258" 
d="M1319 1432l-482 -666l406 -708l-464 -82l-304 432l-16 -452l-416 -16l32 1532l466 -26l-36 -452l310 478zM763 -241q0 -33 -14 -72.5t-39 -78.5t-60.5 -73.5t-79.5 -57.5l-0.5 16t-1.5 38.5t-2.5 48.5t-2.5 46q-44 16 -69 54t-25 84q0 30 11.5 56.5t31.5 46.5t47 32
t57 12t57 -12t47 -32t31.5 -46.5t11.5 -56.5v-5z" />
    <glyph glyph-name="kcommaaccent" unicode="&#x137;" horiz-adv-x="1234" 
d="M1280 1292l-442 -526l406 -688l-464 -82l-304 412l-16 -392l-416 -16l32 1432l466 -26l-36 -412l290 418zM763 -241q0 -33 -14 -72.5t-39 -78.5t-60.5 -73.5t-79.5 -57.5l-0.5 16t-1.5 38.5t-2.5 48.5t-2.5 46q-44 16 -69 54t-25 84q0 30 11.5 56.5t31.5 46.5t47 32
t57 12t57 -12t47 -32t31.5 -46.5t11.5 -56.5v-5z" />
    <glyph glyph-name="kgreenlandic" unicode="&#x138;" horiz-adv-x="1234" 
d="M1280 1292l-442 -526l406 -688l-464 -82l-304 412l-16 -392l-416 -16l32 1432l466 -26l-36 -412l290 418z" />
    <glyph glyph-name="Lacute" unicode="&#x139;" horiz-adv-x="926" 
d="M930 570l-42 -444l-842 -66q6 349 13.5 694t18.5 694h520q-23 -219 -44 -437.5t-30 -440.5q47 -2 93 -2h93q56 0 110 1t110 1zM919 1777q-119 -65 -232 -131.5t-226 -144.5l-128 140q20 24 48 53.5t59.5 60.5t65.5 62.5t66 60.5q76 69 159 139z" />
    <glyph glyph-name="lacute" unicode="&#x13a;" horiz-adv-x="924" 
d="M928 530l-42 -444l-842 -66l32 1428h520l-74 -918h406zM919 1777q-119 -65 -232 -131.5t-226 -144.5l-128 140q20 24 48 53.5t59.5 60.5t65.5 62.5t66 60.5q76 69 159 139z" />
    <glyph glyph-name="Lcommaaccent" unicode="&#x13b;" horiz-adv-x="926" 
d="M930 570l-42 -444l-842 -66q6 349 13.5 694t18.5 694h520q-23 -219 -44 -437.5t-30 -440.5q47 -2 93 -2h93q56 0 110 1t110 1zM623 -131q0 -33 -14 -72.5t-39 -78.5t-60.5 -73.5t-79.5 -57.5l-0.5 16t-1.5 38.5t-2.5 48.5t-2.5 46q-44 16 -69 54t-25 84q0 30 11.5 56.5
t31.5 46.5t47 32t57 12t57 -12t47 -32t31.5 -46.5t11.5 -56.5v-5z" />
    <glyph glyph-name="lcommaaccent" unicode="&#x13c;" horiz-adv-x="924" 
d="M928 530l-42 -444l-842 -66l32 1428h520l-74 -918h406zM623 -181q0 -33 -14 -72.5t-39 -78.5t-60.5 -73.5t-79.5 -57.5l-0.5 16t-1.5 38.5t-2.5 48.5t-2.5 46q-44 16 -69 54t-25 84q0 30 11.5 56.5t31.5 46.5t47 32t57 12t57 -12t47 -32t31.5 -46.5t11.5 -56.5v-5z" />
    <glyph glyph-name="Lcaron" unicode="&#x13d;" horiz-adv-x="1013" 
d="M930 570l-42 -444l-842 -66q6 349 13.5 694t18.5 694h520q-23 -219 -44 -437.5t-30 -440.5q47 -2 93 -2h93q56 0 110 1t110 1zM1011.42 1363.66q-0.801758 -37.6768 -16.4199 -83.3701q-15.6191 -45.6934 -44.4541 -90.1836q-28.834 -44.4912 -69.2832 -84.1719
q-40.4482 -39.6807 -90.9092 -66.1348q0 0.801758 -0.800781 18.8379q-0.801758 18.0371 -2.00293 44.0898q-1.20117 26.0537 -2.80273 55.7139q-1.60254 29.6611 -2.40332 52.9082q-49.6602 18.4375 -78.4941 61.7256q-28.835 43.2891 -28.835 95.3955
q0 34.4697 13.2158 64.9316q13.2158 30.4629 36.043 53.3096q22.8281 22.8467 53.2646 36.4736q30.4365 13.6279 65.6787 13.6279q34.4414 0 65.2793 -13.6279q30.8369 -13.627 53.6641 -36.4736t36.4443 -53.3096q13.6162 -30.4619 12.8154 -64.9316v-4.81055z" />
    <glyph glyph-name="lcaron" unicode="&#x13e;" horiz-adv-x="1013" 
d="M928 530l-42 -444l-842 -66l32 1428h520l-74 -918h406zM1011.42 1363.66q-0.801758 -37.6768 -16.4199 -83.3701q-15.6191 -45.6934 -44.4541 -90.1836q-28.834 -44.4912 -69.2832 -84.1719q-40.4482 -39.6807 -90.9092 -66.1348q0 0.801758 -0.800781 18.8379
q-0.801758 18.0371 -2.00293 44.0898q-1.20117 26.0537 -2.80273 55.7139q-1.60254 29.6611 -2.40332 52.9082q-49.6602 18.4375 -78.4941 61.7256q-28.835 43.2891 -28.835 95.3955q0 34.4697 13.2158 64.9316q13.2158 30.4629 36.043 53.3096
q22.8281 22.8467 53.2646 36.4736q30.4365 13.6279 65.6787 13.6279q34.4414 0 65.2793 -13.6279q30.8369 -13.627 53.6641 -36.4736t36.4443 -53.3096q13.6162 -30.4619 12.8154 -64.9316v-4.81055z" />
    <glyph glyph-name="Ldot" unicode="&#x13f;" horiz-adv-x="1064" 
d="M930 570l-42 -444l-842 -66q6 349 13.5 694t18.5 694h520q-23 -219 -44 -437.5t-30 -440.5q47 -2 93 -2h93q56 0 110 1t110 1zM1064 892q0 -44 -17 -82t-45.5 -66.5t-66.5 -45t-81 -16.5q-44 0 -82 16.5t-66.5 45t-45 66.5t-16.5 82q0 43 16.5 82t45 67.5t66.5 45.5
t82 17q43 0 81 -17t66.5 -45.5t45.5 -67.5t17 -82z" />
    <glyph glyph-name="ldotaccent" unicode="&#x140;" horiz-adv-x="1064" 
d="M928 530l-42 -444l-842 -66l32 1428h520l-74 -918h406zM1064 892q0 -44 -17 -82t-45.5 -66.5t-66.5 -45t-81 -16.5q-44 0 -82 16.5t-66.5 45t-45 66.5t-16.5 82q0 43 16.5 82t45 67.5t66.5 45.5t82 17q43 0 81 -17t66.5 -45.5t45.5 -67.5t17 -82z" />
    <glyph glyph-name="Lslash" unicode="&#x141;" horiz-adv-x="932" 
d="M540 762q-3 -48 -5.5 -96t-4.5 -96q47 -2 93 -2h93q56 0 110 1t110 1l-42 -444l-842 -66q2 140 4.5 279t5.5 279l-84 -26l-4 138l92 32q3 172 7.5 343t10.5 343h520q-14 -127 -26.5 -253.5t-23.5 -254.5l126 46l4 -180z" />
    <glyph glyph-name="lslash" unicode="&#x142;" horiz-adv-x="932" 
d="M934 530l-42 -444l-842 -66l12 598l-86 -26l-4 138l94 34l16 684h520l-42 -504l118 42l4 -180l-136 -42l-18 -234h406z" />
    <glyph glyph-name="Nacute" unicode="&#x143;" horiz-adv-x="1441" 
d="M1411 1434l-72 -1356l-524 -48l-280 726l-44 -740h-450l36 1418l500 24l346 -720l16 680zM1237 1685q-119 -65 -232 -131.5t-226 -144.5l-128 140q20 24 48 53.5t59.5 60.5t65.5 62.5t66 60.5q76 69 159 139z" />
    <glyph glyph-name="nacute" unicode="&#x144;" horiz-adv-x="1335" 
d="M1292 506q0 -113 -2.5 -223.5t-7.5 -222.5l-576 10q30 177 52 353.5t22 356.5q0 13 -1 42t-4 65.5t-8.5 75t-15 70.5t-23 52.5t-32.5 20.5q-34 0 -57.5 -20t-39 -51.5t-24.5 -70.5t-13.5 -78t-6 -73.5t-1.5 -56.5q-5 -177 -8 -351.5t-8 -352.5l-510 -22q20 353 38.5 702
t29.5 702l472 24l-4 -160q28 34 60.5 64t69.5 51.5t78.5 34t87.5 12.5q85 0 149 -28t110 -76t77 -113.5t50 -139.5t29 -154.5t13.5 -158.5t3.5 -151v-133zM1127 1754q-119 -65 -232 -131.5t-226 -144.5l-128 140q20 24 48 53.5t59.5 60.5t65.5 62.5t66 60.5q76 69 159 139z
" />
    <glyph glyph-name="Ncommaaccent" unicode="&#x145;" horiz-adv-x="1441" 
d="M1411 1434l-72 -1356l-524 -48l-280 726l-44 -740h-450l36 1418l500 24l346 -720l16 680zM853 -191q0 -33 -14 -72.5t-39 -78.5t-60.5 -73.5t-79.5 -57.5l-0.5 16t-1.5 38.5t-2.5 48.5t-2.5 46q-44 16 -69 54t-25 84q0 30 11.5 56.5t31.5 46.5t47 32t57 12t57 -12t47 -32
t31.5 -46.5t11.5 -56.5v-5z" />
    <glyph glyph-name="ncommaaccent" unicode="&#x146;" horiz-adv-x="1335" 
d="M1292 506q0 -113 -2.5 -223.5t-7.5 -222.5l-576 10q30 177 52 353.5t22 356.5q0 13 -1 42t-4 65.5t-8.5 75t-15 70.5t-23 52.5t-32.5 20.5q-34 0 -57.5 -20t-39 -51.5t-24.5 -70.5t-13.5 -78t-6 -73.5t-1.5 -56.5q-5 -177 -8 -351.5t-8 -352.5l-510 -22q20 353 38.5 702
t29.5 702l472 24l-4 -160q28 34 60.5 64t69.5 51.5t78.5 34t87.5 12.5q85 0 149 -28t110 -76t77 -113.5t50 -139.5t29 -154.5t13.5 -158.5t3.5 -151v-133zM763 -161q0 -33 -14 -72.5t-39 -78.5t-60.5 -73.5t-79.5 -57.5l-0.5 16t-1.5 38.5t-2.5 48.5t-2.5 46q-44 16 -69 54
t-25 84q0 30 11.5 56.5t31.5 46.5t47 32t57 12t57 -12t47 -32t31.5 -46.5t11.5 -56.5v-5z" />
    <glyph glyph-name="Ncaron" unicode="&#x147;" horiz-adv-x="1441" 
d="M1411 1434l-72 -1356l-524 -48l-280 726l-44 -740h-450l36 1418l500 24l346 -720l16 680zM1117 1812q-19 -31 -46 -70.5t-57 -82.5t-61.5 -86.5t-59.5 -80.5l-196 -28l-290 318l212 134l156 -204l122 196z" />
    <glyph glyph-name="ncaron" unicode="&#x148;" horiz-adv-x="1335" 
d="M1292 506q0 -113 -2.5 -223.5t-7.5 -222.5l-576 10q30 177 52 353.5t22 356.5q0 13 -1 42t-4 65.5t-8.5 75t-15 70.5t-23 52.5t-32.5 20.5q-34 0 -57.5 -20t-39 -51.5t-24.5 -70.5t-13.5 -78t-6 -73.5t-1.5 -56.5q-5 -177 -8 -351.5t-8 -352.5l-510 -22q20 353 38.5 702
t29.5 702l472 24l-4 -160q28 34 60.5 64t69.5 51.5t78.5 34t87.5 12.5q85 0 149 -28t110 -76t77 -113.5t50 -139.5t29 -154.5t13.5 -158.5t3.5 -151v-133zM1046 1829q-19 -31 -46 -70.5t-57 -82.5t-61.5 -86.5t-59.5 -80.5l-196 -28l-290 318l212 134l156 -204l122 196z" />
    <glyph glyph-name="napostrophe" unicode="&#x149;" horiz-adv-x="1656" 
d="M1613 506q0 -113 -2.5 -223.5t-7.5 -222.5l-576 10q30 177 52 353.5t22 356.5q0 13 -1 42t-4 65.5t-8.5 75t-15 70.5t-23 52.5t-32.5 20.5q-34 0 -57.5 -20t-39 -51.5t-24.5 -70.5t-13.5 -78t-6 -73.5t-1.5 -56.5q-5 -177 -8 -351.5t-8 -352.5l-510 -22q20 353 38.5 702
t29.5 702l472 24l-4 -160q28 34 60.5 64t69.5 51.5t78.5 34t87.5 12.5q85 0 149 -28t110 -76t77 -113.5t50 -139.5t29 -154.5t13.5 -158.5t3.5 -151v-133zM338.415 1363.66q-0.801758 -37.6768 -16.4199 -83.3701q-15.6191 -45.6934 -44.4541 -90.1836
q-28.834 -44.4912 -69.2832 -84.1719q-40.4482 -39.6807 -90.9092 -66.1348q0 0.801758 -0.800781 18.8379q-0.801758 18.0371 -2.00293 44.0898q-1.20117 26.0537 -2.80273 55.7139q-1.60254 29.6611 -2.40332 52.9082q-49.6602 18.4375 -78.4941 61.7256
q-28.835 43.2891 -28.835 95.3955q0 34.4697 13.2158 64.9316q13.2158 30.4629 36.043 53.3096q22.8281 22.8467 53.2646 36.4736q30.4365 13.6279 65.6787 13.6279q34.4414 0 65.2793 -13.6279q30.8369 -13.627 53.6641 -36.4736t36.4443 -53.3096
q13.6162 -30.4619 12.8154 -64.9316v-4.81055z" />
    <glyph glyph-name="Eng" unicode="&#x14a;" horiz-adv-x="1441" 
d="M1411 1434q-14 -266 -25 -470.5t-19 -359t-13.5 -263.5t-9.5 -184t-6.5 -120.5t-4 -72.5t-2.5 -41t-2 -25q-11 -125 -54 -236.5t-116.5 -195.5t-178.5 -133t-241 -49q-53 0 -110.5 9t-114 27t-108 44.5t-91.5 61.5l62 414q59 -57 131 -92.5t157 -35.5q73 0 117 28.5
t67.5 74.5t31.5 104t9 118l-355 719l-44 -740h-450l36 1418l500 24l346 -720l16 680z" />
    <glyph glyph-name="eng" unicode="&#x14b;" horiz-adv-x="1335" 
d="M1292 506q-5 -121 -8 -207t-5 -145t-3.5 -95t-2.5 -58t-2 -33.5t-2 -20.5q-11 -125 -54 -236.5t-116.5 -195.5t-178.5 -133t-241 -49q-53 0 -110.5 9t-114 27t-108 44.5t-91.5 61.5l62 414q59 -57 131 -92.5t157 -35.5q71 0 106.5 26.5t50 69.5t15.5 98.5t3 112.5v712
q0 13 -1 42t-4 65.5t-8.5 75t-15 70.5t-23 52.5t-32.5 20.5q-34 0 -57.5 -20t-39 -51.5t-24.5 -70.5t-13.5 -78t-6 -73.5t-1.5 -56.5q-5 -177 -8 -351.5t-8 -352.5l-510 -22q20 353 38.5 702t29.5 702l472 24l-4 -160q28 34 60.5 64t69.5 51.5t78.5 34t87.5 12.5
q85 0 149 -28t110 -76t77 -113.5t50 -139.5t29 -154.5t13.5 -158.5t3.5 -151v-133z" />
    <glyph glyph-name="Omacron" unicode="&#x14c;" horiz-adv-x="1306" 
d="M1287 706q0 -91 -21 -175.5t-60.5 -158.5t-96 -135.5t-127 -105.5t-153.5 -68.5t-176 -24.5q-90 0 -171.5 23t-152.5 64.5t-128.5 100t-98 130t-63 153.5t-22.5 171q0 87 21 170.5t60.5 157.5t95.5 136t125.5 107t150.5 70t171 25q145 0 264.5 -45t204 -128.5t131 -202
t46.5 -264.5zM843 680q0 43 -12.5 83.5t-36.5 72t-59.5 51t-81.5 19.5q-47 0 -84 -17t-63.5 -46.5t-40.5 -69t-14 -83.5q0 -42 12 -84t36 -76t59.5 -55t82.5 -21t84.5 18.5t63.5 50t40 72.5t14 85zM967 1396l-632 8l-18 238l654 12z" />
    <glyph glyph-name="omacron" unicode="&#x14d;" horiz-adv-x="1306" 
d="M1287 766q0 -91 -21 -175.5t-60.5 -158.5t-96 -135.5t-127 -105.5t-153.5 -68.5t-176 -24.5q-90 0 -171.5 23t-152.5 64.5t-128.5 100t-98 130t-63 153.5t-22.5 171q0 87 21 170.5t60.5 157.5t95.5 136t125.5 107t150.5 70t171 25q145 0 264.5 -45t204 -128.5t131 -202
t46.5 -264.5zM843 740q0 43 -12.5 83.5t-36.5 72t-59.5 51t-81.5 19.5q-47 0 -84 -17t-63.5 -46.5t-40.5 -69t-14 -83.5q0 -42 12 -84t36 -76t59.5 -55t82.5 -21t84.5 18.5t63.5 50t40 72.5t14 85zM976 1451l-632 8l-18 238l654 12z" />
    <glyph glyph-name="Obreve" unicode="&#x14e;" horiz-adv-x="1306" 
d="M1287 706q0 -91 -21 -175.5t-60.5 -158.5t-96 -135.5t-127 -105.5t-153.5 -68.5t-176 -24.5q-90 0 -171.5 23t-152.5 64.5t-128.5 100t-98 130t-63 153.5t-22.5 171q0 87 21 170.5t60.5 157.5t95.5 136t125.5 107t150.5 70t171 25q145 0 264.5 -45t204 -128.5t131 -202
t46.5 -264.5zM843 680q0 43 -12.5 83.5t-36.5 72t-59.5 51t-81.5 19.5q-47 0 -84 -17t-63.5 -46.5t-40.5 -69t-14 -83.5q0 -42 12 -84t36 -76t59.5 -55t82.5 -21t84.5 18.5t63.5 50t40 72.5t14 85zM931 1693q0 -64 -23.5 -118.5t-64 -94.5t-95.5 -62.5t-117 -22.5
q-72 0 -127 22t-92 62.5t-56 98.5t-19 131v23t2 23l232 -30q-1 -16 1 -36.5t9.5 -39t21 -31.5t36.5 -13q14 0 23.5 7.5t15.5 19.5t8.5 25.5t2.5 25.5q0 29 -6.5 55t-15.5 53l242 44q9 -33 15.5 -69.5t6.5 -72.5z" />
    <glyph glyph-name="obreve" unicode="&#x14f;" horiz-adv-x="1306" 
d="M1287 766q0 -91 -21 -175.5t-60.5 -158.5t-96 -135.5t-127 -105.5t-153.5 -68.5t-176 -24.5q-90 0 -171.5 23t-152.5 64.5t-128.5 100t-98 130t-63 153.5t-22.5 171q0 87 21 170.5t60.5 157.5t95.5 136t125.5 107t150.5 70t171 25q145 0 264.5 -45t204 -128.5t131 -202
t46.5 -264.5zM843 740q0 43 -12.5 83.5t-36.5 72t-59.5 51t-81.5 19.5q-47 0 -84 -17t-63.5 -46.5t-40.5 -69t-14 -83.5q0 -42 12 -84t36 -76t59.5 -55t82.5 -21t84.5 18.5t63.5 50t40 72.5t14 85zM936 1757q0 -64 -23.5 -118.5t-64 -94.5t-95.5 -62.5t-117 -22.5
q-72 0 -127 22t-92 62.5t-56 98.5t-19 131v23t2 23l232 -30q-1 -16 1 -36.5t9.5 -39t21 -31.5t36.5 -13q14 0 23.5 7.5t15.5 19.5t8.5 25.5t2.5 25.5q0 29 -6.5 55t-15.5 53l242 44q9 -33 15.5 -69.5t6.5 -72.5z" />
    <glyph glyph-name="Ohungarumlaut" unicode="&#x150;" horiz-adv-x="1306" 
d="M1287 706q0 -91 -21 -175.5t-60.5 -158.5t-96 -135.5t-127 -105.5t-153.5 -68.5t-176 -24.5q-90 0 -171.5 23t-152.5 64.5t-128.5 100t-98 130t-63 153.5t-22.5 171q0 87 21 170.5t60.5 157.5t95.5 136t125.5 107t150.5 70t171 25q145 0 264.5 -45t204 -128.5t131 -202
t46.5 -264.5zM843 680q0 43 -12.5 83.5t-36.5 72t-59.5 51t-81.5 19.5q-47 0 -84 -17t-63.5 -46.5t-40.5 -69t-14 -83.5q0 -42 12 -84t36 -76t59.5 -55t82.5 -21t84.5 18.5t63.5 50t40 72.5t14 85zM1311 1656q-109 -78 -213.5 -158t-208.5 -168l-140 122q17 27 41 59t52 67
t57.5 70.5t58.5 68.5q67 77 141 159zM931 1724q-109 -78 -214 -158.5t-206 -169.5l-144 124q17 27 41.5 59.5t52 67.5t57.5 70.5t59 68.5q67 77 142 158z" />
    <glyph glyph-name="ohungarumlaut" unicode="&#x151;" horiz-adv-x="1306" 
d="M1287 766q0 -91 -21 -175.5t-60.5 -158.5t-96 -135.5t-127 -105.5t-153.5 -68.5t-176 -24.5q-90 0 -171.5 23t-152.5 64.5t-128.5 100t-98 130t-63 153.5t-22.5 171q0 87 21 170.5t60.5 157.5t95.5 136t125.5 107t150.5 70t171 25q145 0 264.5 -45t204 -128.5t131 -202
t46.5 -264.5zM843 740q0 43 -12.5 83.5t-36.5 72t-59.5 51t-81.5 19.5q-47 0 -84 -17t-63.5 -46.5t-40.5 -69t-14 -83.5q0 -42 12 -84t36 -76t59.5 -55t82.5 -21t84.5 18.5t63.5 50t40 72.5t14 85zM1320 1711q-109 -78 -213.5 -158t-208.5 -168l-140 122q17 27 41 59t52 67
t57.5 70.5t58.5 68.5q67 77 141 159zM940 1779q-109 -78 -214 -158.5t-206 -169.5l-144 124q17 27 41.5 59.5t52 67.5t57.5 70.5t59 68.5q67 77 142 158z" />
    <glyph glyph-name="OE" unicode="&#x152;" horiz-adv-x="1769" 
d="M1786 1442q-6 -94 -11 -186t-13 -186l-424 -22l-10 -126h298l-22 -310l-300 -10l-10 -146h424q-6 -110 -12.5 -218.5t-11.5 -217.5l-862 -20v64q-42 -12 -88 -19t-94 -7q-90 0 -171.5 23t-152.5 64.5t-128.5 100t-98.5 130t-63 153.5t-22 171q0 87 21 170.5t60.5 157.5
t95.5 136t125.5 107t150.5 70t171 25q60 0 115.5 -8.5t106.5 -23.5l4 128h922zM840 680q0 43 -12.5 83.5t-36.5 72t-59.5 51t-81.5 19.5q-47 0 -84 -17t-63.5 -46.5t-40.5 -69t-14 -83.5q0 -42 12 -84t36 -76t59.5 -55t82.5 -21t84.5 18.5t63.5 50t40 72.5t14 85z" />
    <glyph glyph-name="oe" unicode="&#x153;" horiz-adv-x="2009" 
d="M1995 808q0 -87 -12 -174q-171 -11 -340 -35.5t-338 -48.5q26 -72 81.5 -115t132.5 -43q40 0 87.5 15t94.5 37.5t90 48.5t74 47l-48 -454q-39 -30 -84.5 -51t-94.5 -34t-99 -19t-98 -6q-75 0 -140.5 16t-122 45t-103.5 70t-84 91q-72 -48 -157.5 -74t-182.5 -26
q-90 0 -171.5 23t-152.5 64.5t-128.5 100t-98.5 130t-63 153.5t-22 171q0 87 21 170.5t60.5 157.5t95.5 136t125.5 107t150.5 70t171 25q127 0 233 -34.5t187 -97.5q77 80 180.5 127t237.5 47q89 0 162.5 -24.5t131 -68t100 -103.5t70 -131.5t41 -151t13.5 -161.5zM841 740
q0 43 -12.5 83.5t-36.5 72t-59.5 51t-81.5 19.5q-47 0 -84 -17t-63.5 -46.5t-40.5 -69t-14 -83.5q0 -42 12 -84t36 -76t59.5 -55t82.5 -21t84.5 18.5t63.5 50t40 72.5t14 85zM1595 860q0 28 -6 57.5t-19.5 53.5t-35.5 39.5t-55 15.5q-40 0 -70.5 -21.5t-52.5 -54t-36 -70.5
t-21 -70l296 28v22z" />
    <glyph glyph-name="Racute" unicode="&#x154;" horiz-adv-x="1241" 
d="M1223 964q0 -78 -13.5 -141.5t-42.5 -116.5t-75 -98t-111 -86l238 -424l-450 -88l-154 426l-124 -4l-18 -416h-430q5 228 9.5 454t10.5 454q2 115 4 228t8 228q70 26 138 43t136.5 26.5t139 13t144.5 3.5q114 0 220.5 -31.5t188.5 -94.5t131.5 -157t49.5 -219zM775 932
q0 42 -11.5 77t-34 60.5t-56 40t-78.5 14.5q-20 0 -39 -2.5t-37 -7.5l-16 -372h24q43 0 87.5 11t80 34t58 59t22.5 86zM1150 1764q-119 -65 -232 -131.5t-226 -144.5l-128 140q20 24 48 53.5t59.5 60.5t65.5 62.5t66 60.5q76 69 159 139z" />
    <glyph glyph-name="racute" unicode="&#x155;" horiz-adv-x="1241" 
d="M1223 964q0 -78 -13.5 -141.5t-42.5 -116.5t-75 -98t-111 -86l238 -424l-450 -88l-154 426l-124 -4l-18 -416h-430q5 228 9.5 454t10.5 454q2 115 4 228t8 228q70 26 138 43t136.5 26.5t139 13t144.5 3.5q114 0 220.5 -31.5t188.5 -94.5t131.5 -157t49.5 -219zM775 932
q0 42 -11.5 77t-34 60.5t-56 40t-78.5 14.5q-20 0 -39 -2.5t-37 -7.5l-16 -372h24q43 0 87.5 11t80 34t58 59t22.5 86zM1234 1754q-119 -65 -232 -131.5t-226 -144.5l-128 140q20 24 48 53.5t59.5 60.5t65.5 62.5t66 60.5q76 69 159 139z" />
    <glyph glyph-name="Rcommaaccent" unicode="&#x156;" horiz-adv-x="1241" 
d="M1223 964q0 -78 -13.5 -141.5t-42.5 -116.5t-75 -98t-111 -86l238 -424l-450 -88l-154 426l-124 -4l-18 -416h-430q5 228 9.5 454t10.5 454q2 115 4 228t8 228q70 26 138 43t136.5 26.5t139 13t144.5 3.5q114 0 220.5 -31.5t188.5 -94.5t131.5 -157t49.5 -219zM775 932
q0 42 -11.5 77t-34 60.5t-56 40t-78.5 14.5q-20 0 -39 -2.5t-37 -7.5l-16 -372h24q43 0 87.5 11t80 34t58 59t22.5 86zM763 -211q0 -33 -14 -72.5t-39 -78.5t-60.5 -73.5t-79.5 -57.5l-0.5 16t-1.5 38.5t-2.5 48.5t-2.5 46q-44 16 -69 54t-25 84q0 30 11.5 56.5t31.5 46.5
t47 32t57 12t57 -12t47 -32t31.5 -46.5t11.5 -56.5v-5z" />
    <glyph glyph-name="rcommaaccent" unicode="&#x157;" horiz-adv-x="1241" 
d="M1223 964q0 -78 -13.5 -141.5t-42.5 -116.5t-75 -98t-111 -86l238 -424l-450 -88l-154 426l-124 -4l-18 -416h-430q5 228 9.5 454t10.5 454q2 115 4 228t8 228q70 26 138 43t136.5 26.5t139 13t144.5 3.5q114 0 220.5 -31.5t188.5 -94.5t131.5 -157t49.5 -219zM775 932
q0 42 -11.5 77t-34 60.5t-56 40t-78.5 14.5q-20 0 -39 -2.5t-37 -7.5l-16 -372h24q43 0 87.5 11t80 34t58 59t22.5 86zM763 -211q0 -33 -14 -72.5t-39 -78.5t-60.5 -73.5t-79.5 -57.5l-0.5 16t-1.5 38.5t-2.5 48.5t-2.5 46q-44 16 -69 54t-25 84q0 30 11.5 56.5t31.5 46.5
t47 32t57 12t57 -12t47 -32t31.5 -46.5t11.5 -56.5v-5z" />
    <glyph glyph-name="Rcaron" unicode="&#x158;" horiz-adv-x="1241" 
d="M1223 964q0 -78 -13.5 -141.5t-42.5 -116.5t-75 -98t-111 -86l238 -424l-450 -88l-154 426l-124 -4l-18 -416h-430q5 228 9.5 454t10.5 454q2 115 4 228t8 228q70 26 138 43t136.5 26.5t139 13t144.5 3.5q114 0 220.5 -31.5t188.5 -94.5t131.5 -157t49.5 -219zM775 932
q0 42 -11.5 77t-34 60.5t-56 40t-78.5 14.5q-20 0 -39 -2.5t-37 -7.5l-16 -372h24q43 0 87.5 11t80 34t58 59t22.5 86zM975 1850q-19 -31 -46 -70.5t-57 -82.5t-61.5 -86.5t-59.5 -80.5l-196 -28l-290 318l212 134l156 -204l122 196z" />
    <glyph glyph-name="rcaron" unicode="&#x159;" horiz-adv-x="1241" 
d="M1223 964q0 -78 -13.5 -141.5t-42.5 -116.5t-75 -98t-111 -86l238 -424l-450 -88l-154 426l-124 -4l-18 -416h-430q5 228 9.5 454t10.5 454q2 115 4 228t8 228q70 26 138 43t136.5 26.5t139 13t144.5 3.5q114 0 220.5 -31.5t188.5 -94.5t131.5 -157t49.5 -219zM775 932
q0 42 -11.5 77t-34 60.5t-56 40t-78.5 14.5q-20 0 -39 -2.5t-37 -7.5l-16 -372h24q43 0 87.5 11t80 34t58 59t22.5 86zM975 1848q-19 -31 -46 -70.5t-57 -82.5t-61.5 -86.5t-59.5 -80.5l-196 -28l-290 318l212 134l156 -204l122 196z" />
    <glyph glyph-name="Sacute" unicode="&#x15a;" horiz-adv-x="1087" 
d="M1075 532q0 -137 -47.5 -239.5t-130 -170.5t-193 -102t-237.5 -34q-49 0 -107.5 13t-118.5 32.5t-115.5 42t-98.5 42.5l44 412q85 -51 188.5 -77.5t203.5 -26.5q19 0 46 1.5t51.5 9t41.5 22.5t17 43q0 19 -12 32.5t-31 22t-43 13t-47 6.5t-43 2h-32q-86 0 -156.5 30
t-121 83.5t-78.5 127t-28 159.5q0 118 47.5 211.5t127 159t182.5 100.5t213 35q49 0 101 -3.5t103.5 -12.5t100.5 -23t93 -35l-38 -406q-68 23 -142.5 38.5t-145.5 15.5q-13 0 -33.5 -0.5t-43 -3t-45.5 -7.5t-41 -13.5t-29 -22.5t-10 -33q1 -22 16.5 -35.5t40 -21t54 -10.5
t58.5 -3.5t54 0t41 -1.5q80 -5 144 -34t108.5 -77t68 -114.5t23.5 -146.5zM952 1791q-119 -65 -232 -131.5t-226 -144.5l-128 140q20 24 48 53.5t59.5 60.5t65.5 62.5t66 60.5q76 69 159 139z" />
    <glyph glyph-name="sacute" unicode="&#x15b;" horiz-adv-x="1089" 
d="M1076 512q0 -137 -47.5 -236.5t-130 -164t-193 -95t-237.5 -30.5q-49 0 -107.5 13t-118.5 32.5t-115.5 42t-98.5 42.5l44 392q85 -51 188.5 -77.5t203.5 -26.5q19 0 46 1.5t51.5 9t41.5 22.5t17 43q0 19 -12 32.5t-31 22t-43 13t-47 6.5t-43 2h-32q-86 0 -156.5 27
t-121 76.5t-78.5 120t-28 156.5q0 118 47.5 211.5t127 159t182.5 100.5t213 35q49 0 101 -3.5t103.5 -12.5t100.5 -23t93 -35l-38 -406q-68 23 -142.5 38.5t-145.5 15.5q-13 0 -33.5 -0.5t-43 -3t-45.5 -7.5t-41 -13.5t-29 -22.5t-10 -33q1 -22 16.5 -34t40 -17.5t54 -5.5
t58.5 1.5t54 3t41 0.5q80 -5 144 -34t108.5 -77t68 -114.5t23.5 -146.5zM911 1749q-119 -65 -232 -131.5t-226 -144.5l-128 140q20 24 48 53.5t59.5 60.5t65.5 62.5t66 60.5q76 69 159 139z" />
    <glyph glyph-name="Scircumflex" unicode="&#x15c;" horiz-adv-x="1087" 
d="M1075 532q0 -137 -47.5 -239.5t-130 -170.5t-193 -102t-237.5 -34q-49 0 -107.5 13t-118.5 32.5t-115.5 42t-98.5 42.5l44 412q85 -51 188.5 -77.5t203.5 -26.5q19 0 46 1.5t51.5 9t41.5 22.5t17 43q0 19 -12 32.5t-31 22t-43 13t-47 6.5t-43 2h-32q-86 0 -156.5 30
t-121 83.5t-78.5 127t-28 159.5q0 118 47.5 211.5t127 159t182.5 100.5t213 35q49 0 101 -3.5t103.5 -12.5t100.5 -23t93 -35l-38 -406q-68 23 -142.5 38.5t-145.5 15.5q-13 0 -33.5 -0.5t-43 -3t-45.5 -7.5t-41 -13.5t-29 -22.5t-10 -33q1 -22 16.5 -35.5t40 -21t54 -10.5
t58.5 -3.5t54 0t41 -1.5q80 -5 144 -34t108.5 -77t68 -114.5t23.5 -146.5zM696 1502l-156 204l-122 -194l-220 94q19 31 47 72.5t59 86t63 89t61 82.5l206 2l274 -306z" />
    <glyph glyph-name="scircumflex" unicode="&#x15d;" horiz-adv-x="1089" 
d="M1076 512q0 -137 -47.5 -236.5t-130 -164t-193 -95t-237.5 -30.5q-49 0 -107.5 13t-118.5 32.5t-115.5 42t-98.5 42.5l44 392q85 -51 188.5 -77.5t203.5 -26.5q19 0 46 1.5t51.5 9t41.5 22.5t17 43q0 19 -12 32.5t-31 22t-43 13t-47 6.5t-43 2h-32q-86 0 -156.5 27
t-121 76.5t-78.5 120t-28 156.5q0 118 47.5 211.5t127 159t182.5 100.5t213 35q49 0 101 -3.5t103.5 -12.5t100.5 -23t93 -35l-38 -406q-68 23 -142.5 38.5t-145.5 15.5q-13 0 -33.5 -0.5t-43 -3t-45.5 -7.5t-41 -13.5t-29 -22.5t-10 -33q1 -22 16.5 -34t40 -17.5t54 -5.5
t58.5 1.5t54 3t41 0.5q80 -5 144 -34t108.5 -77t68 -114.5t23.5 -146.5zM687 1473l-156 204l-122 -194l-220 94q19 31 47 72.5t59 86t63 89t61 82.5l206 2l274 -306z" />
    <glyph glyph-name="Scedilla" unicode="&#x15e;" horiz-adv-x="1087" 
d="M773 -245q0 -58 -18.5 -98t-51.5 -65.5t-78 -37t-98 -11.5q-19 0 -43 2.5t-48.5 8t-47.5 14t-39 21.5l88 158q12 -6 28 -10t30 -4q18 0 36 10.5t18 31.5q0 15 -9 24.5t-22.5 15.5t-28.5 8t-26 2q-20 0 -40 -2.5t-40 -7.5l8 178q-46 7 -95.5 21.5t-97.5 31.5t-92 35.5
t-79 34.5l44 412q85 -51 188.5 -77.5t203.5 -26.5q19 0 46 1.5t51.5 9t41.5 22.5t17 43q0 19 -12 32.5t-31 22t-43 13t-47 6.5t-43 2h-32q-86 0 -156.5 30t-121 83.5t-78.5 127t-28 159.5q0 118 47.5 211.5t127 159t182.5 100.5t213 35q49 0 101 -3.5t103.5 -12.5t100.5 -23
t93 -35l-38 -406q-68 23 -142.5 38.5t-145.5 15.5q-13 0 -33.5 -0.5t-43 -3t-45.5 -7.5t-41 -13.5t-29 -22.5t-10 -33q1 -22 16.5 -35.5t40 -21t54 -10.5t58.5 -3.5t54 0t41 -1.5q80 -5 144 -34t108.5 -77t68 -114.5t23.5 -146.5q0 -123 -38.5 -218.5t-106.5 -163t-161 -107
t-202 -51.5v-39q44 -2 82 -16t65.5 -39.5t43 -61.5t15.5 -81z" />
    <glyph glyph-name="scedilla" unicode="&#x15f;" horiz-adv-x="1089" 
d="M756 -250q0 -58 -18.5 -98t-51.5 -65.5t-78 -37t-98 -11.5q-19 0 -43 2.5t-48.5 8t-47.5 14t-39 21.5l88 158q12 -6 28 -10t30 -4q18 0 36 10.5t18 31.5q0 15 -9 24.5t-22.5 15.5t-28.5 8t-26 2q-20 0 -40 -2.5t-40 -7.5l9 186q-45 8 -92 22t-92.5 30.5t-87.5 34.5
t-75 33l44 392q85 -51 188.5 -77.5t203.5 -26.5q19 0 46 1.5t51.5 9t41.5 22.5t17 43q0 19 -12 32.5t-31 22t-43 13t-47 6.5t-43 2h-32q-86 0 -156.5 27t-121 76.5t-78.5 120t-28 156.5q0 118 47.5 211.5t127 159t182.5 100.5t213 35q49 0 101 -3.5t103.5 -12.5t100.5 -23
t93 -35l-38 -406q-68 23 -142.5 38.5t-145.5 15.5q-13 0 -33.5 -0.5t-43 -3t-45.5 -7.5t-41 -13.5t-29 -22.5t-10 -33q1 -22 16.5 -34t40 -17.5t54 -5.5t58.5 1.5t54 3t41 0.5q80 -5 144 -34t108.5 -77t68 -114.5t23.5 -146.5q0 -126 -40 -220t-110.5 -158t-167 -99.5
t-208.5 -44.5v-42q44 -2 82 -16t65.5 -39.5t43 -61.5t15.5 -81z" />
    <glyph glyph-name="Scaron" unicode="&#x160;" horiz-adv-x="1087" 
d="M1075 532q0 -137 -47.5 -239.5t-130 -170.5t-193 -102t-237.5 -34q-49 0 -107.5 13t-118.5 32.5t-115.5 42t-98.5 42.5l44 412q85 -51 188.5 -77.5t203.5 -26.5q19 0 46 1.5t51.5 9t41.5 22.5t17 43q0 19 -12 32.5t-31 22t-43 13t-47 6.5t-43 2h-32q-86 0 -156.5 30
t-121 83.5t-78.5 127t-28 159.5q0 118 47.5 211.5t127 159t182.5 100.5t213 35q49 0 101 -3.5t103.5 -12.5t100.5 -23t93 -35l-38 -406q-68 23 -142.5 38.5t-145.5 15.5q-13 0 -33.5 -0.5t-43 -3t-45.5 -7.5t-41 -13.5t-29 -22.5t-10 -33q1 -22 16.5 -35.5t40 -21t54 -10.5
t58.5 -3.5t54 0t41 -1.5q80 -5 144 -34t108.5 -77t68 -114.5t23.5 -146.5zM905 1878q-19 -31 -46 -70.5t-57 -82.5t-61.5 -86.5t-59.5 -80.5l-196 -28l-290 318l212 134l156 -204l122 196z" />
    <glyph glyph-name="scaron" unicode="&#x161;" horiz-adv-x="1089" 
d="M1076 512q0 -137 -47.5 -236.5t-130 -164t-193 -95t-237.5 -30.5q-49 0 -107.5 13t-118.5 32.5t-115.5 42t-98.5 42.5l44 392q85 -51 188.5 -77.5t203.5 -26.5q19 0 46 1.5t51.5 9t41.5 22.5t17 43q0 19 -12 32.5t-31 22t-43 13t-47 6.5t-43 2h-32q-86 0 -156.5 27
t-121 76.5t-78.5 120t-28 156.5q0 118 47.5 211.5t127 159t182.5 100.5t213 35q49 0 101 -3.5t103.5 -12.5t100.5 -23t93 -35l-38 -406q-68 23 -142.5 38.5t-145.5 15.5q-13 0 -33.5 -0.5t-43 -3t-45.5 -7.5t-41 -13.5t-29 -22.5t-10 -33q1 -22 16.5 -34t40 -17.5t54 -5.5
t58.5 1.5t54 3t41 0.5q80 -5 144 -34t108.5 -77t68 -114.5t23.5 -146.5zM906 1834q-19 -31 -46 -70.5t-57 -82.5t-61.5 -86.5t-59.5 -80.5l-196 -28l-290 318l212 134l156 -204l122 196z" />
    <glyph glyph-name="Tcommaaccent" unicode="&#x162;" horiz-adv-x="1112" 
d="M1108 1430l-10 -424l-298 -12l-76 -948l-422 -22l2 948l-298 -16l12 472zM653 -211q0 -33 -14 -72.5t-39 -78.5t-60.5 -73.5t-79.5 -57.5l-0.5 16t-1.5 38.5t-2.5 48.5t-2.5 46q-44 16 -69 54t-25 84q0 30 11.5 56.5t31.5 46.5t47 32t57 12t57 -12t47 -32t31.5 -46.5
t11.5 -56.5v-5z" />
    <glyph glyph-name="tcommaaccent" unicode="&#x163;" horiz-adv-x="1116" 
d="M1110 1410l-10 -424l-298 -12l-36 -928l-422 -22l-38 928l-298 -16l12 472zM693 -191q0 -33 -14 -72.5t-39 -78.5t-60.5 -73.5t-79.5 -57.5l-0.5 16t-1.5 38.5t-2.5 48.5t-2.5 46q-44 16 -69 54t-25 84q0 30 11.5 56.5t31.5 46.5t47 32t57 12t57 -12t47 -32t31.5 -46.5
t11.5 -56.5v-5z" />
    <glyph glyph-name="Tcaron" unicode="&#x164;" horiz-adv-x="1112" 
d="M1108 1430l-10 -424l-298 -12l-76 -948l-422 -22l2 948l-298 -16l12 472zM878 1821q-19 -31 -46 -70.5t-57 -82.5t-61.5 -86.5t-59.5 -80.5l-196 -28l-290 318l212 134l156 -204l122 196z" />
    <glyph glyph-name="tcaron" unicode="&#x165;" horiz-adv-x="1114" 
d="M1110 1410l-10 -424l-298 -12l-36 -928l-422 -22l-38 928l-298 -16l12 472zM878 1821q-19 -31 -46 -70.5t-57 -82.5t-61.5 -86.5t-59.5 -80.5l-196 -28l-290 318l212 134l156 -204l122 196z" />
    <glyph glyph-name="Tbar" unicode="&#x166;" horiz-adv-x="1112" 
d="M860 466l-102 1l-34 -421l-422 -22l1 449l-75 1l-18 238l93 1l1 259l-298 -16l12 472l1090 2l-10 -424l-298 -12l-22 -272l86 2z" />
    <glyph glyph-name="tbar" unicode="&#x167;" horiz-adv-x="1116" 
d="M886 427l-105 1l-15 -382l-422 -22l-17 410l-73 1l-18 238l81 1l-11 278l-298 -16l12 472l1090 2l-10 -424l-298 -12l-11 -291l99 2z" />
    <glyph glyph-name="Utilde" unicode="&#x168;" horiz-adv-x="1276" 
d="M1247 1112q0 -74 -7 -163t-23 -184t-41.5 -192.5t-63.5 -187.5t-88.5 -168.5t-116 -137t-146.5 -92t-180 -33.5q-116 0 -201.5 37.5t-146.5 101t-100 148t-61 179t-30.5 193t-8.5 189.5q0 140 14 279.5t40 278.5l468 -18q-27 -157 -46.5 -315.5t-19.5 -318.5
q0 -17 1.5 -50.5t5.5 -75t11.5 -85t20.5 -79.5t31.5 -59t43.5 -23q29 0 52 27.5t40.5 73.5t30.5 106t22 125t14.5 130t9 121t4.5 99t1 64q0 78 -2.5 155.5t-7.5 154.5h468q12 -138 12 -280zM1038 1700q0 -58 -21 -108t-57.5 -87t-86 -58t-105.5 -21q-44 0 -75 16t-52.5 40
t-37 52t-28.5 52t-26.5 40t-30.5 16q-11 0 -19 -6.5t-12.5 -15.5t-6.5 -20t-2 -20q0 -30 7.5 -58.5t18.5 -55.5l-244 -20q-12 42 -17 84.5t-5 83.5q0 61 16 114t47.5 92t78 61.5t108.5 22.5q55 0 91 -17t60 -42t37.5 -55t24.5 -55t21 -42t26 -17q20 0 31 18t11 36
q0 30 -12 58.5t-26 51.5l248 40q17 -44 27.5 -88.5t10.5 -91.5z" />
    <glyph glyph-name="utilde" unicode="&#x169;" horiz-adv-x="1252" 
d="M1243 1408q-45 -352 -77 -700.5t-61 -701.5l-410 -30l18 154q-20 -23 -46.5 -40t-56.5 -27.5t-62 -15t-61 -3.5q-68 1 -128 26.5t-110 68t-90 99t-67.5 119t-42 127.5t-14.5 126q0 90 3.5 186.5t12.5 193.5t23.5 192t36.5 182q122 -6 245 -11t245 -3
q-23 -87 -45.5 -174.5t-40.5 -176t-29 -177.5t-11 -180q0 -21 2 -60t10.5 -77t26 -66.5t49.5 -28.5q38 0 68 32.5t53 87.5t39.5 127t28 150.5t18.5 158.5t10.5 150.5t5 126.5t1.5 87q0 20 -1 39t-3 39q65 -2 129 -3t129 -1q50 0 100.5 0.5t101.5 3.5zM1045 1719
q0 -58 -21 -108t-57.5 -87t-86 -58t-105.5 -21q-44 0 -75 16t-52.5 40t-37 52t-28.5 52t-26.5 40t-30.5 16q-11 0 -19 -6.5t-12.5 -15.5t-6.5 -20t-2 -20q0 -30 7.5 -58.5t18.5 -55.5l-244 -20q-12 42 -17 84.5t-5 83.5q0 61 16 114t47.5 92t78 61.5t108.5 22.5q55 0 91 -17
t60 -42t37.5 -55t24.5 -55t21 -42t26 -17q20 0 31 18t11 36q0 30 -12 58.5t-26 51.5l248 40q17 -44 27.5 -88.5t10.5 -91.5z" />
    <glyph glyph-name="Umacron" unicode="&#x16a;" horiz-adv-x="1276" 
d="M1247 1112q0 -74 -7 -163t-23 -184t-41.5 -192.5t-63.5 -187.5t-88.5 -168.5t-116 -137t-146.5 -92t-180 -33.5q-116 0 -201.5 37.5t-146.5 101t-100 148t-61 179t-30.5 193t-8.5 189.5q0 140 14 279.5t40 278.5l468 -18q-27 -157 -46.5 -315.5t-19.5 -318.5
q0 -17 1.5 -50.5t5.5 -75t11.5 -85t20.5 -79.5t31.5 -59t43.5 -23q29 0 52 27.5t40.5 73.5t30.5 106t22 125t14.5 130t9 121t4.5 99t1 64q0 78 -2.5 155.5t-7.5 154.5h468q12 -138 12 -280zM961 1447l-632 8l-18 238l654 12z" />
    <glyph glyph-name="umacron" unicode="&#x16b;" horiz-adv-x="1252" 
d="M1243 1408q-45 -352 -77 -700.5t-61 -701.5l-410 -30l18 154q-20 -23 -46.5 -40t-56.5 -27.5t-62 -15t-61 -3.5q-68 1 -128 26.5t-110 68t-90 99t-67.5 119t-42 127.5t-14.5 126q0 90 3.5 186.5t12.5 193.5t23.5 192t36.5 182q122 -6 245 -11t245 -3
q-23 -87 -45.5 -174.5t-40.5 -176t-29 -177.5t-11 -180q0 -21 2 -60t10.5 -77t26 -66.5t49.5 -28.5q38 0 68 32.5t53 87.5t39.5 127t28 150.5t18.5 158.5t10.5 150.5t5 126.5t1.5 87q0 20 -1 39t-3 39q65 -2 129 -3t129 -1q50 0 100.5 0.5t101.5 3.5zM949 1460l-632 8
l-18 238l654 12z" />
    <glyph glyph-name="Ubreve" unicode="&#x16c;" horiz-adv-x="1276" 
d="M1247 1112q0 -74 -7 -163t-23 -184t-41.5 -192.5t-63.5 -187.5t-88.5 -168.5t-116 -137t-146.5 -92t-180 -33.5q-116 0 -201.5 37.5t-146.5 101t-100 148t-61 179t-30.5 193t-8.5 189.5q0 140 14 279.5t40 278.5l468 -18q-27 -157 -46.5 -315.5t-19.5 -318.5
q0 -17 1.5 -50.5t5.5 -75t11.5 -85t20.5 -79.5t31.5 -59t43.5 -23q29 0 52 27.5t40.5 73.5t30.5 106t22 125t14.5 130t9 121t4.5 99t1 64q0 78 -2.5 155.5t-7.5 154.5h468q12 -138 12 -280zM935 1716q0 -64 -23.5 -118.5t-64 -94.5t-95.5 -62.5t-117 -22.5q-72 0 -127 22
t-92 62.5t-56 98.5t-19 131v23t2 23l232 -30q-1 -16 1 -36.5t9.5 -39t21 -31.5t36.5 -13q14 0 23.5 7.5t15.5 19.5t8.5 25.5t2.5 25.5q0 29 -6.5 55t-15.5 53l242 44q9 -33 15.5 -69.5t6.5 -72.5z" />
    <glyph glyph-name="ubreve" unicode="&#x16d;" horiz-adv-x="1252" 
d="M1243 1408q-45 -352 -77 -700.5t-61 -701.5l-410 -30l18 154q-20 -23 -46.5 -40t-56.5 -27.5t-62 -15t-61 -3.5q-68 1 -128 26.5t-110 68t-90 99t-67.5 119t-42 127.5t-14.5 126q0 90 3.5 186.5t12.5 193.5t23.5 192t36.5 182q122 -6 245 -11t245 -3
q-23 -87 -45.5 -174.5t-40.5 -176t-29 -177.5t-11 -180q0 -21 2 -60t10.5 -77t26 -66.5t49.5 -28.5q38 0 68 32.5t53 87.5t39.5 127t28 150.5t18.5 158.5t10.5 150.5t5 126.5t1.5 87q0 20 -1 39t-3 39q65 -2 129 -3t129 -1q50 0 100.5 0.5t101.5 3.5zM923 1720
q0 -64 -23.5 -118.5t-64 -94.5t-95.5 -62.5t-117 -22.5q-72 0 -127 22t-92 62.5t-56 98.5t-19 131v23t2 23l232 -30q-1 -16 1 -36.5t9.5 -39t21 -31.5t36.5 -13q14 0 23.5 7.5t15.5 19.5t8.5 25.5t2.5 25.5q0 29 -6.5 55t-15.5 53l242 44q9 -33 15.5 -69.5t6.5 -72.5z" />
    <glyph glyph-name="Uring" unicode="&#x16e;" horiz-adv-x="1276" 
d="M1247 1112q0 -74 -7 -163t-23 -184t-41.5 -192.5t-63.5 -187.5t-88.5 -168.5t-116 -137t-146.5 -92t-180 -33.5q-116 0 -201.5 37.5t-146.5 101t-100 148t-61 179t-30.5 193t-8.5 189.5q0 140 14 279.5t40 278.5l468 -18q-27 -157 -46.5 -315.5t-19.5 -318.5
q0 -17 1.5 -50.5t5.5 -75t11.5 -85t20.5 -79.5t31.5 -59t43.5 -23q29 0 52 27.5t40.5 73.5t30.5 106t22 125t14.5 130t9 121t4.5 99t1 64q0 78 -2.5 155.5t-7.5 154.5h468q12 -138 12 -280zM937 1722q0 -62 -24 -116t-64.5 -94t-95.5 -63t-116 -23q-64 0 -119.5 23t-97 63
t-65.5 94t-24 116q0 61 24 114t64.5 92.5t95 62.5t116.5 23q64 0 119.5 -23t97 -62.5t65.5 -92.5t24 -114zM731 1716q0 22 -6.5 42.5t-17.5 36t-26.5 24.5t-33.5 9t-34 -9t-28 -24.5t-19 -36t-7 -42.5q0 -24 7 -45t19 -36t28 -24t34 -9q36 0 60 33t24 81z" />
    <glyph glyph-name="uring" unicode="&#x16f;" horiz-adv-x="1252" 
d="M1243 1408q-45 -352 -77 -700.5t-61 -701.5l-410 -30l18 154q-20 -23 -46.5 -40t-56.5 -27.5t-62 -15t-61 -3.5q-68 1 -128 26.5t-110 68t-90 99t-67.5 119t-42 127.5t-14.5 126q0 90 3.5 186.5t12.5 193.5t23.5 192t36.5 182q122 -6 245 -11t245 -3
q-23 -87 -45.5 -174.5t-40.5 -176t-29 -177.5t-11 -180q0 -21 2 -60t10.5 -77t26 -66.5t49.5 -28.5q38 0 68 32.5t53 87.5t39.5 127t28 150.5t18.5 158.5t10.5 150.5t5 126.5t1.5 87q0 20 -1 39t-3 39q65 -2 129 -3t129 -1q50 0 100.5 0.5t101.5 3.5zM929 1707
q0 -62 -24 -116t-64.5 -94t-95.5 -63t-116 -23q-64 0 -119.5 23t-97 63t-65.5 94t-24 116q0 61 24 114t64.5 92.5t95 62.5t116.5 23q64 0 119.5 -23t97 -62.5t65.5 -92.5t24 -114zM723 1701q0 22 -6.5 42.5t-17.5 36t-26.5 24.5t-33.5 9t-34 -9t-28 -24.5t-19 -36t-7 -42.5
q0 -24 7 -45t19 -36t28 -24t34 -9q36 0 60 33t24 81z" />
    <glyph glyph-name="Uhungarumlaut" unicode="&#x170;" horiz-adv-x="1276" 
d="M1247 1112q0 -74 -7 -163t-23 -184t-41.5 -192.5t-63.5 -187.5t-88.5 -168.5t-116 -137t-146.5 -92t-180 -33.5q-116 0 -201.5 37.5t-146.5 101t-100 148t-61 179t-30.5 193t-8.5 189.5q0 140 14 279.5t40 278.5l468 -18q-27 -157 -46.5 -315.5t-19.5 -318.5
q0 -17 1.5 -50.5t5.5 -75t11.5 -85t20.5 -79.5t31.5 -59t43.5 -23q29 0 52 27.5t40.5 73.5t30.5 106t22 125t14.5 130t9 121t4.5 99t1 64q0 78 -2.5 155.5t-7.5 154.5h468q12 -138 12 -280zM1301 1753q-109 -78 -213.5 -158t-208.5 -168l-140 122q17 27 41 59t52 67
t57.5 70.5t58.5 68.5q67 77 141 159zM921 1821q-109 -78 -214 -158.5t-206 -169.5l-144 124q17 27 41.5 59.5t52 67.5t57.5 70.5t59 68.5q67 77 142 158z" />
    <glyph glyph-name="uhungarumlaut" unicode="&#x171;" horiz-adv-x="1252" 
d="M1243 1408q-45 -352 -77 -700.5t-61 -701.5l-410 -30l18 154q-20 -23 -46.5 -40t-56.5 -27.5t-62 -15t-61 -3.5q-68 1 -128 26.5t-110 68t-90 99t-67.5 119t-42 127.5t-14.5 126q0 90 3.5 186.5t12.5 193.5t23.5 192t36.5 182q122 -6 245 -11t245 -3
q-23 -87 -45.5 -174.5t-40.5 -176t-29 -177.5t-11 -180q0 -21 2 -60t10.5 -77t26 -66.5t49.5 -28.5q38 0 68 32.5t53 87.5t39.5 127t28 150.5t18.5 158.5t10.5 150.5t5 126.5t1.5 87q0 20 -1 39t-3 39q65 -2 129 -3t129 -1q50 0 100.5 0.5t101.5 3.5zM1340 1757
q-109 -78 -213.5 -158t-208.5 -168l-140 122q17 27 41 59t52 67t57.5 70.5t58.5 68.5q67 77 141 159zM960 1825q-109 -78 -214 -158.5t-206 -169.5l-144 124q17 27 41.5 59.5t52 67.5t57.5 70.5t59 68.5q67 77 142 158z" />
    <glyph glyph-name="Uogonek" unicode="&#x172;" horiz-adv-x="1276" 
d="M838 -309q-44 -42 -99 -73t-117 -31q-46 0 -86.5 15.5t-71 43t-48.5 66t-18 85.5q0 48 18 90t47 79q-90 19 -157 65t-115 111t-78.5 145t-48 167t-24.5 176t-7 172q0 140 14 279.5t40 278.5l468 -18q-27 -157 -46.5 -315.5t-19.5 -318.5q0 -17 1.5 -50.5t5.5 -75
t11.5 -85t20.5 -79.5t31.5 -59t43.5 -23q29 0 52 27.5t40.5 73.5t30.5 106t22 125t14.5 130t9 121t4.5 99t1 64q0 78 -2.5 155.5t-7.5 154.5h468q12 -138 12 -280q0 -69 -6 -150.5t-19.5 -169.5t-35.5 -178t-53.5 -176t-74 -163.5t-97 -140t-122 -106.5t-149.5 -62
q-14 -18 -27.5 -37.5t-24 -38t-16.5 -35t-6 -28.5q0 -18 13 -30t31 -12q20 0 44 15.5t36 32.5z" />
    <glyph glyph-name="uogonek" unicode="&#x173;" horiz-adv-x="1252" 
d="M1145 -282q-44 -42 -99 -73t-117 -31q-46 0 -86.5 15.5t-71 43t-48.5 66t-18 85.5q0 44 15.5 83t40.5 74l-66 -5l18 154q-20 -23 -46.5 -40t-56.5 -27.5t-62 -15t-61 -3.5q-68 1 -128 26.5t-110 68t-90 99t-67.5 119t-42 127.5t-14.5 126q0 90 3.5 186.5t12.5 193.5
t23.5 192t36.5 182q122 -6 245 -11t245 -3q-23 -87 -45.5 -174.5t-40.5 -176t-29 -177.5t-11 -180q0 -21 2 -60t10.5 -77t26 -66.5t49.5 -28.5q38 0 68 32.5t53 87.5t39.5 127t28 150.5t18.5 158.5t10.5 150.5t5 126.5t1.5 87q0 20 -1 39t-3 39q65 -2 129 -3t129 -1
q50 0 100.5 0.5t101.5 3.5q-45 -352 -77 -700.5t-61 -701.5l-104 -7q-14 -19 -28 -39.5t-25 -39.5t-18 -36t-7 -30q0 -18 13 -30t31 -12q20 0 44 15.5t36 32.5z" />
    <glyph glyph-name="Wcircumflex" unicode="&#x174;" horiz-adv-x="1859" 
d="M1855 1388l-234 -1386l-568 -12l-122 718l-122 -666l-568 -20l-236 1366l496 44l100 -830l134 830h390l156 -840l80 840zM1068 1469l-156 204l-122 -194l-220 94q19 31 47 72.5t59 86t63 89t61 82.5l206 2l274 -306z" />
    <glyph glyph-name="wcircumflex" unicode="&#x175;" horiz-adv-x="1863" 
d="M1857 1388l-234 -1346l-568 -12l-122 678l-122 -626l-568 -20l-236 1286l496 44l100 -790l134 730h390l156 -740l80 840zM1074 1375l-156 204l-122 -194l-220 94q19 31 47 72.5t59 86t63 89t61 82.5l206 2l274 -306z" />
    <glyph glyph-name="Ycircumflex" unicode="&#x176;" horiz-adv-x="1243" 
d="M1336 1354l-550 -768l-26 -626h-474l12 622l-286 742l510 64l80 -432l254 432zM806 1418l-156 204l-122 -194l-220 94q19 31 47 72.5t59 86t63 89t61 82.5l206 2l274 -306z" />
    <glyph glyph-name="ycircumflex" unicode="&#x177;" horiz-adv-x="1240" 
d="M1284 1354l-470 -768l14 -566h-514l12 562l-366 742l510 64l160 -432l174 432zM763 1403l-156 204l-122 -194l-220 94q19 31 47 72.5t59 86t63 89t61 82.5l206 2l274 -306z" />
    <glyph glyph-name="Ydieresis" unicode="&#x178;" horiz-adv-x="1243" 
d="M1336 1354l-550 -768l-26 -626h-474l12 622l-286 742l510 64l80 -432l254 432zM1026 1626q0 -31 -11.5 -57.5t-31.5 -46t-47 -31t-58 -11.5q-29 0 -55.5 11.5t-46 31t-31 46t-11.5 57.5q0 30 11.5 56.5t31 46.5t46 31.5t55.5 11.5q31 0 58 -11.5t47 -31.5t31.5 -46.5
t11.5 -56.5zM636 1604q0 -33 -12.5 -62t-34 -51t-50.5 -34.5t-61 -12.5q-33 0 -62 12.5t-50 34.5t-33.5 51t-12.5 62q0 31 12.5 59t33.5 49.5t50 34.5t62 13q32 0 61 -13t50.5 -34.5t34 -49.5t12.5 -59z" />
    <glyph glyph-name="Zacute" unicode="&#x179;" horiz-adv-x="997" 
d="M966 1098l-458 -618h442l-6 -424l-892 -36l-40 392l522 680l-478 -36l-4 402h896zM986 1777q-119 -65 -232 -131.5t-226 -144.5l-128 140q20 24 48 53.5t59.5 60.5t65.5 62.5t66 60.5q76 69 159 139z" />
    <glyph glyph-name="zacute" unicode="&#x17a;" horiz-adv-x="1015" 
d="M989 1058l-458 -578h422l14 -424l-892 -36l-40 392l522 640l-518 -36l-4 402h936zM981 1730q-119 -65 -232 -131.5t-226 -144.5l-128 140q20 24 48 53.5t59.5 60.5t65.5 62.5t66 60.5q76 69 159 139z" />
    <glyph glyph-name="Zdotaccent" unicode="&#x17b;" horiz-adv-x="997" 
d="M966 1098l-458 -618h442l-6 -424l-892 -36l-40 392l522 680l-478 -36l-4 402h896zM712 1694q0 -41 -15.5 -76t-42.5 -61.5t-63 -41.5t-77 -15q-44 0 -81 15t-64 41.5t-42 61.5t-15 76q0 40 15 76t41.5 62.5t62.5 42t77 15.5q43 0 80.5 -15.5t65 -42t43 -62.5t15.5 -76z
" />
    <glyph glyph-name="zdotaccent" unicode="&#x17c;" horiz-adv-x="1015" 
d="M989 1058l-458 -578h422l14 -424l-892 -36l-40 392l522 640l-518 -36l-4 402h936zM693 1661q0 -41 -15.5 -76t-42.5 -61.5t-63 -41.5t-77 -15q-44 0 -81 15t-64 41.5t-42 61.5t-15 76q0 40 15 76t41.5 62.5t62.5 42t77 15.5q43 0 80.5 -15.5t65 -42t43 -62.5t15.5 -76z
" />
    <glyph glyph-name="Zcaron" unicode="&#x17d;" horiz-adv-x="997" 
d="M966 1098l-458 -618h442l-6 -424l-892 -36l-40 392l522 680l-478 -36l-4 402h896zM844 1850q-19 -31 -46 -70.5t-57 -82.5t-61.5 -86.5t-59.5 -80.5l-196 -28l-290 318l212 134l156 -204l122 196z" />
    <glyph glyph-name="zcaron" unicode="&#x17e;" horiz-adv-x="1015" 
d="M989 1058l-458 -578h422l14 -424l-892 -36l-40 392l522 640l-518 -36l-4 402h936zM867 1824q-19 -31 -46 -70.5t-57 -82.5t-61.5 -86.5t-59.5 -80.5l-196 -28l-290 318l212 134l156 -204l122 196z" />
    <glyph glyph-name="AEacute" unicode="&#x1fc;" horiz-adv-x="1719" 
d="M820 554l10 348l-160 -348h150zM1736 1442q-6 -94 -11 -186t-13 -186l-424 -22l-10 -126h298l-22 -310l-300 -10l-10 -146h424q-6 -110 -12.5 -218.5t-11.5 -217.5l-862 -20l8 248h-244l-100 -226l-496 50l728 1332zM1524 1736q-119 -65 -232 -131.5t-226 -144.5
l-128 140q20 24 48 53.5t59.5 60.5t65.5 62.5t66 60.5q76 69 159 139z" />
    <glyph glyph-name="aeacute" unicode="&#x1fd;" horiz-adv-x="1880" 
d="M1866 808q0 -87 -12 -174q-171 -11 -339.5 -35.5t-336.5 -48.5l6 -22q27 -63 81 -99.5t125 -36.5q40 0 87.5 15t94.5 37.5t90 48.5t74 47l-48 -454q-39 -30 -84.5 -51t-94.5 -34t-99 -19t-98 -6q-104 0 -196 24t-164 62.5t-120 87t-62 98.5h-238l-54 -226l-510 50
l398 1332l556 28l38 -130q74 68 170 107t218 39q89 0 162.5 -24.5t131 -68t100 -103.5t70 -131.5t41 -151t13.5 -161.5zM1466 860q0 28 -6 57.5t-19.5 53.5t-35.5 39.5t-55 15.5q-40 0 -70.5 -21.5t-52.5 -54t-36 -70.5t-21 -70l296 28v22zM720 554l-76 348l-74 -348h150z
M1470 1716q-119 -65 -232 -131.5t-226 -144.5l-128 140q20 24 48 53.5t59.5 60.5t65.5 62.5t66 60.5q76 69 159 139z" />
    <glyph glyph-name="Oslashacute" unicode="&#x1fe;" horiz-adv-x="1306" 
d="M1148 1320l-60 -130q95 -85 146.5 -207t51.5 -277q0 -91 -21 -175.5t-60.5 -158.5t-96 -135.5t-127 -105.5t-153.5 -68.5t-176 -24.5l-56 -156l-400 156l56 140q-55 43 -98.5 98.5t-74 119.5t-47 135.5t-16.5 148.5q0 87 21 170.5t60.5 157.5t95.5 136t125.5 107
t150.5 70t171 25q33 0 64.5 -2.5t61.5 -7.5l62 124zM450 690q0 -32 6 -63.5t20 -60.5l148 338q-41 -5 -73 -24t-54.5 -47.5t-34.5 -65.5t-12 -77zM842 680q0 24 -4.5 48.5t-13.5 47.5l-146 -318q38 7 68.5 28t51.5 51t32.5 66.5t11.5 76.5zM1127 1666q-119 -65 -232 -131.5
t-226 -144.5l-128 140q20 24 48 53.5t59.5 60.5t65.5 62.5t66 60.5q76 69 159 139z" />
    <glyph glyph-name="oslashacute" unicode="&#x1ff;" horiz-adv-x="1306" 
d="M1138 1376l-28 -60t-28 -62q97 -85 150.5 -208t53.5 -280q0 -91 -21 -175.5t-60.5 -158.5t-96 -135.5t-127 -105.5t-153.5 -68.5t-176 -24.5h-8l-58 -160l-400 156l58 148q-53 44 -95 99t-71.5 118.5t-45.5 134t-16 146.5q0 87 21 170.5t60.5 157.5t95.5 136t125.5 107
t150.5 70t171 25q30 0 59.5 -2.5t58.5 -5.5l60 118zM842 740q0 56 -22 106l-150 -330q40 6 72 26.5t54.5 51t34 68t11.5 78.5zM450 750q0 -29 5.5 -58t16.5 -56l142 326q-38 -6 -68.5 -25t-51.5 -47.5t-32.5 -64t-11.5 -75.5zM1155 1735q-119 -65 -232 -131.5t-226 -144.5
l-128 140q20 24 48 53.5t59.5 60.5t65.5 62.5t66 60.5q76 69 159 139z" />
    <glyph glyph-name="dotlessj" unicode="&#x237;" horiz-adv-x="1044" 
d="M1006 824v-117t-6 -117q-11 -125 -54 -236.5t-116.5 -195.5t-178.5 -133t-241 -49q-53 0 -110.5 9t-114 27t-108 44.5t-91.5 61.5l62 414q59 -57 131 -92.5t157 -35.5q55 0 93 16t63 44t39.5 65.5t21 80t8 87.5t1.5 89q0 159 -16 316.5t-28 315.5l458 30q30 -312 30 -624
z" />
    <glyph glyph-name="circumflex" unicode="&#x2c6;" horiz-adv-x="710" 
d="M498 1324l-156 204l-122 -194l-220 94q19 31 47 72.5t59 86t63 89t61 82.5l206 2l274 -306z" />
    <glyph glyph-name="caron" unicode="&#x2c7;" horiz-adv-x="710" 
d="M710 1774q-19 -31 -46 -70.5t-57 -82.5t-61.5 -86.5t-59.5 -80.5l-196 -28l-290 318l212 134l156 -204l122 196z" />
    <glyph glyph-name="breve" unicode="&#x2d8;" horiz-adv-x="594" 
d="M593 1692q0 -64 -23.5 -118.5t-64 -94.5t-95.5 -62.5t-117 -22.5q-72 0 -127 22t-92 62.5t-56 98.5t-19 131v23t2 23l232 -30q-1 -16 1 -36.5t9.5 -39t21 -31.5t36.5 -13q14 0 23.5 7.5t15.5 19.5t8.5 25.5t2.5 25.5q0 29 -6.5 55t-15.5 53l242 44q9 -33 15.5 -69.5
t6.5 -72.5z" />
    <glyph glyph-name="dotaccent" unicode="&#x2d9;" horiz-adv-x="400" 
d="M400 1512q0 -41 -15.5 -76t-42.5 -61.5t-63 -41.5t-77 -15q-44 0 -81 15t-64 41.5t-42 61.5t-15 76q0 40 15 76t41.5 62.5t62.5 42t77 15.5q43 0 80.5 -15.5t65 -42t43 -62.5t15.5 -76z" />
    <glyph glyph-name="ring" unicode="&#x2da;" horiz-adv-x="606" 
d="M606 1568q0 -62 -24 -116t-64.5 -94t-95.5 -63t-116 -23q-64 0 -119.5 23t-97 63t-65.5 94t-24 116q0 61 24 114t64.5 92.5t95 62.5t116.5 23q64 0 119.5 -23t97 -62.5t65.5 -92.5t24 -114zM400 1562q0 22 -6.5 42.5t-17.5 36t-26.5 24.5t-33.5 9t-34 -9t-28 -24.5
t-19 -36t-7 -42.5q0 -24 7 -45t19 -36t28 -24t34 -9q36 0 60 33t24 81z" />
    <glyph glyph-name="ogonek" unicode="&#x2db;" horiz-adv-x="440" 
d="M440 -296q-44 -42 -99 -73t-117 -31q-46 0 -86.5 15.5t-71 43t-48.5 66t-18 85.5q0 40 13.5 77t36 70t51 62t57.5 53l202 -8q-12 -15 -35.5 -44t-47.5 -62t-41.5 -65t-17.5 -53q0 -18 13 -30t31 -12q20 0 44 15.5t36 32.5z" />
    <glyph glyph-name="tilde" unicode="&#x2dc;" horiz-adv-x="800" 
d="M800 1588q0 -58 -21 -108t-57.5 -87t-86 -58t-105.5 -21q-44 0 -75 16t-52.5 40t-37 52t-28.5 52t-26.5 40t-30.5 16q-11 0 -19 -6.5t-12.5 -15.5t-6.5 -20t-2 -20q0 -30 7.5 -58.5t18.5 -55.5l-244 -20q-12 42 -17 84.5t-5 83.5q0 61 16 114t47.5 92t78 61.5t108.5 22.5
q55 0 91 -17t60 -42t37.5 -55t24.5 -55t21 -42t26 -17q20 0 31 18t11 36q0 30 -12 58.5t-26 51.5l248 40q17 -44 27.5 -88.5t10.5 -91.5z" />
    <glyph glyph-name="hungarumlaut" unicode="&#x2dd;" horiz-adv-x="944" 
d="M944 1664q-109 -78 -213.5 -158t-208.5 -168l-140 122q17 27 41 59t52 67t57.5 70.5t58.5 68.5q67 77 141 159zM564 1732q-109 -78 -214 -158.5t-206 -169.5l-144 124q17 27 41.5 59.5t52 67.5t57.5 70.5t59 68.5q67 77 142 158z" />
    <glyph glyph-name="uni0312" unicode="&#x312;" horiz-adv-x="311" 
d="M10 1145q0 33 14 72.5t39 78.5t60.5 73.5t79.5 57.5q1 -28 2 -54q1 -23 2 -49t3 -46q43 -16 68.5 -54t25.5 -84q0 -30 -11.5 -56.5t-31.5 -46.5t-47 -32t-57 -12t-57 12t-47.5 32t-32 46.5t-10.5 56.5v5z" />
    <glyph glyph-name="uni0315" unicode="&#x315;" horiz-adv-x="308" 
d="M301 1283q0 -33 -14 -72.5t-39 -78.5t-60.5 -73.5t-79.5 -57.5l-0.5 16t-1.5 38.5t-2.5 48.5t-2.5 46q-44 16 -69 54t-25 84q0 30 11.5 56.5t31.5 46.5t47 32t57 12t57 -12t47 -32t31.5 -46.5t11.5 -56.5v-5z" />
    <glyph glyph-name="uni0326" unicode="&#x326;" horiz-adv-x="323" 
d="M308 -241q0 -33 -14 -72.5t-39 -78.5t-60.5 -73.5t-79.5 -57.5l-0.5 16t-1.5 38.5t-2.5 48.5t-2.5 46q-44 16 -69 54t-25 84q0 30 11.5 56.5t31.5 46.5t47 32t57 12t57 -12t47 -32t31.5 -46.5t11.5 -56.5v-5z" />
    <glyph glyph-name="Wgrave" unicode="&#x1e80;" horiz-adv-x="1859" 
d="M1855 1388l-234 -1386l-568 -12l-122 718l-122 -666l-568 -20l-236 1366l496 44l100 -830l134 830h390l156 -840l80 840zM839 1469q-110 83 -220 154t-226 140l198 234q80 -75 153 -146q31 -31 63.5 -64t63 -65.5t57 -63t45.5 -55.5z" />
    <glyph glyph-name="wgrave" unicode="&#x1e81;" horiz-adv-x="1863" 
d="M1857 1388l-234 -1346l-568 -12l-122 678l-122 -626l-568 -20l-236 1286l496 44l100 -790l134 730h390l156 -740l80 840zM836 1366q-110 83 -220 154t-226 140l198 234q80 -75 153 -146q31 -31 63.5 -64t63 -65.5t57 -63t45.5 -55.5z" />
    <glyph glyph-name="Wacute" unicode="&#x1e82;" horiz-adv-x="1859" 
d="M1855 1388l-234 -1386l-568 -12l-122 718l-122 -666l-568 -20l-236 1366l496 44l100 -830l134 830h390l156 -840l80 840zM1478 1740q-119 -65 -232 -131.5t-226 -144.5l-128 140q20 24 48 53.5t59.5 60.5t65.5 62.5t66 60.5q76 69 159 139z" />
    <glyph glyph-name="wacute" unicode="&#x1e83;" horiz-adv-x="1863" 
d="M1857 1388l-234 -1346l-568 -12l-122 678l-122 -626l-568 -20l-236 1286l496 44l100 -790l134 730h390l156 -740l80 840zM1484 1638q-119 -65 -232 -131.5t-226 -144.5l-128 140q20 24 48 53.5t59.5 60.5t65.5 62.5t66 60.5q76 69 159 139z" />
    <glyph glyph-name="Wdieresis" unicode="&#x1e84;" horiz-adv-x="1859" 
d="M1855 1388l-234 -1386l-568 -12l-122 718l-122 -666l-568 -20l-236 1366l496 44l100 -830l134 830h390l156 -840l80 840zM1282 1654q0 -31 -11.5 -57.5t-31.5 -46t-47 -31t-58 -11.5q-29 0 -55.5 11.5t-46 31t-31 46t-11.5 57.5q0 30 11.5 56.5t31 46.5t46 31.5
t55.5 11.5q31 0 58 -11.5t47 -31.5t31.5 -46.5t11.5 -56.5zM892 1632q0 -33 -12.5 -62t-34 -51t-50.5 -34.5t-61 -12.5q-33 0 -62 12.5t-50 34.5t-33.5 51t-12.5 62q0 31 12.5 59t33.5 49.5t50 34.5t62 13q32 0 61 -13t50.5 -34.5t34 -49.5t12.5 -59z" />
    <glyph glyph-name="wdieresis" unicode="&#x1e85;" horiz-adv-x="1863" 
d="M1857 1388l-234 -1346l-568 -12l-122 678l-122 -626l-568 -20l-236 1286l496 44l100 -790l134 730h390l156 -740l80 840zM1279 1552q0 -31 -11.5 -57.5t-31.5 -46t-47 -31t-58 -11.5q-29 0 -55.5 11.5t-46 31t-31 46t-11.5 57.5q0 30 11.5 56.5t31 46.5t46 31.5
t55.5 11.5q31 0 58 -11.5t47 -31.5t31.5 -46.5t11.5 -56.5zM889 1530q0 -33 -12.5 -62t-34 -51t-50.5 -34.5t-61 -12.5q-33 0 -62 12.5t-50 34.5t-33.5 51t-12.5 62q0 31 12.5 59t33.5 49.5t50 34.5t62 13q32 0 61 -13t50.5 -34.5t34 -49.5t12.5 -59z" />
    <glyph glyph-name="Ygrave" unicode="&#x1ef2;" horiz-adv-x="1243" 
d="M1336 1354l-550 -768l-26 -626h-474l12 622l-286 742l510 64l80 -432l254 432zM610 1380q-110 83 -220 154t-226 140l198 234q80 -75 153 -146q31 -31 63.5 -64t63 -65.5t57 -63t45.5 -55.5z" />
    <glyph glyph-name="ygrave" unicode="&#x1ef3;" horiz-adv-x="1240" 
d="M1284 1354l-470 -768l14 -566h-514l12 562l-366 742l510 64l160 -432l174 432zM576 1370q-110 83 -220 154t-226 140l198 234q80 -75 153 -146q31 -31 63.5 -64t63 -65.5t57 -63t45.5 -55.5z" />
    <glyph glyph-name="endash" unicode="&#x2013;" horiz-adv-x="959" 
d="M71 512l-4 320l816 30l4 -362z" />
    <glyph glyph-name="emdash" unicode="&#x2014;" horiz-adv-x="1777" 
d="M71 512l-4 320l1634 40l4 -362z" />
    <glyph glyph-name="quoteleft" unicode="&#x2018;" horiz-adv-x="444" 
d="M14 1078q1 47 20.5 104t55.5 112.5t86.5 105t113.5 82.5q1 -39 3 -78q2 -33 3.5 -70t3.5 -66q62 -23 98 -77t36 -119q0 -43 -16.5 -81t-45 -66.5t-67 -45.5t-81.5 -17t-81.5 17t-67 45.5t-45.5 66.5t-16 81v6z" />
    <glyph glyph-name="quoteright" unicode="&#x2019;" horiz-adv-x="440" 
d="M430 1262q-1 -47 -20.5 -104t-55.5 -112.5t-86.5 -105t-113.5 -82.5q0 1 -1 23.5t-2.5 55t-3.5 69.5t-3 66q-62 23 -98 77t-36 119q0 43 16.5 81t45 66.5t66.5 45.5t82 17q43 0 81.5 -17t67 -45.5t45.5 -66.5t16 -81v-6z" />
    <glyph glyph-name="quotesinglbase" unicode="&#x201a;" horiz-adv-x="462" 
d="M440 142q-1 -47 -20.5 -104t-55.5 -112.5t-86.5 -105t-113.5 -82.5q0 1 -1 23.5t-2.5 55t-3.5 69.5t-3 66q-62 23 -98 77t-36 119q0 43 16.5 81t45 66.5t66.5 45.5t82 17q43 0 81.5 -17t67 -45.5t45.5 -66.5t16 -81v-6z" />
    <glyph glyph-name="quotedblleft" unicode="&#x201c;" horiz-adv-x="914" 
d="M484 1076q1 47 20.5 104t55.5 112.5t86.5 105t113.5 82.5q0 1 1 -21.5t2.5 -55.5t3 -70.5t3.5 -66.5q62 -23 98 -77t36 -119q0 -43 -16.5 -81t-45 -66.5t-67 -45.5t-81.5 -17t-81.5 17t-67 45.5t-45.5 66.5t-16 81v6zM14 1076q1 47 20.5 104t55.5 112.5t86.5 105
t113.5 82.5q0 1 1 -21.5t2.5 -55.5t3 -70.5t3.5 -66.5q62 -23 98 -77t36 -119q0 -43 -16.5 -81t-45 -66.5t-67 -45.5t-81.5 -17t-81.5 17t-67 45.5t-45.5 66.5t-16 81v6z" />
    <glyph glyph-name="quotedblright" unicode="&#x201d;" horiz-adv-x="910" 
d="M430 1262q-1 -47 -20.5 -104t-55.5 -112.5t-86.5 -105t-113.5 -82.5q0 1 -1 23.5t-2.5 55t-3.5 69.5t-3 66q-62 23 -98 77t-36 119q0 43 16.5 81t45 66.5t66.5 45.5t82 17q43 0 81.5 -17t67 -45.5t45.5 -66.5t16 -81v-6zM900 1262q-1 -47 -20.5 -104t-55.5 -112.5
t-86.5 -105t-113.5 -82.5q0 1 -1 23.5t-2.5 55t-3.5 69.5t-3 66q-62 23 -98 77t-36 119q0 43 16.5 81t45 66.5t66.5 45.5t82 17q43 0 81.5 -17t67 -45.5t45.5 -66.5t16 -81v-6z" />
    <glyph glyph-name="quotedblbase" unicode="&#x201e;" horiz-adv-x="932" 
d="M440 142q-1 -47 -20.5 -104t-55.5 -112.5t-86.5 -105t-113.5 -82.5q0 1 -1 23.5t-2.5 55t-3.5 69.5t-3 66q-62 23 -98 77t-36 119q0 43 16.5 81t45 66.5t66.5 45.5t82 17q43 0 81.5 -17t67 -45.5t45.5 -66.5t16 -81v-6zM910 142q-1 -47 -20.5 -104t-55.5 -112.5
t-86.5 -105t-113.5 -82.5q0 1 -1 23.5t-2.5 55t-3.5 69.5t-3 66q-62 23 -98 77t-36 119q0 43 16.5 81t45 66.5t66.5 45.5t82 17q43 0 81.5 -17t67 -45.5t45.5 -66.5t16 -81v-6z" />
    <glyph glyph-name="dagger" unicode="&#x2020;" horiz-adv-x="1013" 
d="M272 -186l-8 1084h-216l-2 346h216l-2 268l468 -10v-258h244l-8 -348h-236l2 -1080z" />
    <glyph glyph-name="daggerdbl" unicode="&#x2021;" horiz-adv-x="1050" 
d="M963 108h-246v-292l-398 -2l-2 290h-240l2 348l236 2l-4 444h-246l-2 346h246l-2 268l408 -10v-258h274l-8 -348h-266l2 -440l260 2z" />
    <glyph glyph-name="bullet" unicode="&#x2022;" horiz-adv-x="510" 
d="M490 782q0 -49 -18.5 -92t-50.5 -75t-75 -50.5t-92 -18.5q-48 0 -90.5 18.5t-74.5 50.5t-50.5 75t-18.5 92t18.5 92t50.5 75t74.5 50.5t90.5 18.5q49 0 92 -18.5t75 -50.5t50.5 -75t18.5 -92z" />
    <glyph glyph-name="ellipsis" unicode="&#x2026;" horiz-adv-x="1574" 
d="M438 206q0 -44 -17 -82t-45.5 -66.5t-66.5 -45t-81 -16.5q-44 0 -82 16.5t-66.5 45t-45 66.5t-16.5 82q0 43 16.5 82t45 67.5t66.5 45.5t82 17q43 0 81 -17t66.5 -45.5t45.5 -67.5t17 -82zM998 206q0 -44 -17 -82t-45.5 -66.5t-66.5 -45t-81 -16.5q-44 0 -82 16.5
t-66.5 45t-45 66.5t-16.5 82q0 43 16.5 82t45 67.5t66.5 45.5t82 17q43 0 81 -17t66.5 -45.5t45.5 -67.5t17 -82zM1558 206q0 -44 -17 -82t-45.5 -66.5t-66.5 -45t-81 -16.5q-44 0 -82 16.5t-66.5 45t-45 66.5t-16.5 82q0 43 16.5 82t45 67.5t66.5 45.5t82 17q43 0 81 -17
t66.5 -45.5t45.5 -67.5t17 -82z" />
    <glyph glyph-name="perthousand" unicode="&#x2030;" horiz-adv-x="2164" 
d="M1443 426q0 -53 -22 -104.5t-64 -92t-101.5 -66t-134.5 -25.5q-74 0 -133.5 25.5t-101 66t-63.5 92t-22 104.5q0 52 22 104t63.5 92.5t101 66t133.5 25.5q75 0 134.5 -25.5t101.5 -66t64 -92.5t22 -104zM1217 428q0 16 -5.5 34.5t-17.5 35t-30.5 27.5t-44.5 11t-45 -11
t-31 -27.5t-18 -35t-6 -34.5t6 -34.5t18 -35t31 -27.5t45 -11t44.5 11t30.5 27.5t17.5 35t5.5 34.5zM683 922q0 -53 -22 -104.5t-64 -92t-101.5 -66t-134.5 -25.5q-74 0 -133.5 25.5t-101 66t-63.5 92t-22 104.5q0 52 22 104t63.5 92.5t101 66t133.5 25.5q75 0 134.5 -25.5
t101.5 -66t64 -92.5t22 -104zM457 924q0 16 -5.5 34.5t-17.5 35t-30.5 27.5t-44.5 11t-45 -11t-31 -27.5t-18 -35t-6 -34.5t6 -34.5t18 -35t31 -27.5t45 -11t44.5 11t30.5 27.5t17.5 35t5.5 34.5zM1083 1244q-128 -279 -237.5 -567.5t-204.5 -582.5l-208 76
q59 145 117.5 289.5t120 287.5t127.5 283.5t141 277.5zM2123 426q0 -53 -22 -104.5t-64 -92t-101.5 -66t-134.5 -25.5q-74 0 -133.5 25.5t-101 66t-63.5 92t-22 104.5q0 52 22 104t63.5 92.5t101 66t133.5 25.5q75 0 134.5 -25.5t101.5 -66t64 -92.5t22 -104zM1897 428
q0 16 -5.5 34.5t-17.5 35t-30.5 27.5t-44.5 11t-45 -11t-31 -27.5t-18 -35t-6 -34.5t6 -34.5t18 -35t31 -27.5t45 -11t44.5 11t30.5 27.5t17.5 35t5.5 34.5z" />
    <glyph glyph-name="guilsinglleft" unicode="&#x2039;" horiz-adv-x="679" 
d="M496 232l-458 308l-14 368l434 316l160 -302l-268 -184l306 -178z" />
    <glyph glyph-name="guilsinglright" unicode="&#x203a;" horiz-adv-x="681" 
d="M222 232l-164 308l274 182l-308 176l158 326l462 -306l12 -368z" />
    <glyph glyph-name="fraction" unicode="&#x2044;" horiz-adv-x="594" 
d="M622 1244q-128 -279 -237 -567.5t-203 -582.5l-208 76q58 145 116 289.5t119.5 287.5t127.5 283.5t141 277.5z" />
    <glyph glyph-name="Euro" unicode="&#x20ac;" horiz-adv-x="1048" 
d="M691 578l-86 -6q45 -42 140 -42q56 0 116.5 17.5t107.5 40.5l-12 -296q-29 -12 -63.5 -22t-70.5 -17t-72.5 -11t-69.5 -4q-89 0 -164.5 23.5t-135.5 65t-101.5 98t-60.5 123.5l-178 -12l38 134l124 -2v20t2 20h-116l32 128l108 -8q24 71 69 130t109.5 101t148.5 65.5
t187 23.5q51 0 104.5 -6t103.5 -26l-28 -266q-21 5 -42 6.5t-44 1.5q-59 0 -112.5 -14.5t-91.5 -43.5l58 -4v-84l-118 -2q-2 -9 -3 -20t-1 -22v-6h122v-84z" />
    <glyph glyph-name="trademark" unicode="&#x2122;" horiz-adv-x="1353" 
d="M562 1371l-5 -208l-146 -6l-37 -465l-207 -10l1 464l-146 -8l6 232zM1339 1385l-45 -720l-223 -10l2 380l-101 -306h-86l-77 273l-2 -317l-226 -7l10 677l252 10l99 -325l134 345h263z" />
    <glyph glyph-name="partialdiff" unicode="&#x2202;" horiz-adv-x="1236" 
d="M41 510q0 92 33.5 165t91 124t135 78t166.5 27q78 0 153 -22t141 -60q-1 55 -12.5 105t-30 94.5t-42 83.5t-47.5 72q-57 76 -128 137l366 188q26 -38 58.5 -81.5t65.5 -97t65 -118.5t56.5 -145.5t39.5 -178t15 -215.5q0 -88 -14 -174t-43.5 -163t-74.5 -143t-107.5 -114
t-142.5 -75t-178 -27q-122 0 -225.5 39t-179 109.5t-118.5 170t-43 221.5zM421 480q0 -30 13.5 -54.5t35 -41.5t49 -26.5t56.5 -9.5q28 0 55 9.5t48.5 26.5t35 41.5t13.5 54.5q0 31 -13.5 55.5t-35 42t-48.5 27t-55 9.5q-29 0 -56.5 -9.5t-49 -27t-35 -42t-13.5 -55.5z" />
    <glyph glyph-name="minus" unicode="&#x2212;" horiz-adv-x="783" 
d="M69 552l-4 300l646 30l4 -342z" />
    <glyph glyph-name="approxequal" unicode="&#x2248;" horiz-adv-x="1231" 
d="M1171 464q-22 -62 -57 -118.5t-83.5 -99t-110 -67.5t-135.5 -25q-46 0 -82.5 11.5t-66.5 28t-55.5 36.5t-48.5 36.5t-45 28t-46 11.5q-16 0 -35 -3t-39 -15.5t-40.5 -37.5t-39.5 -68l-228 282q26 38 57.5 76.5t73.5 69.5t96.5 50.5t126.5 19.5q71 0 122 -19t89.5 -42
t69 -42t61.5 -19q15 0 37.5 3.5t46 14.5t43.5 31t31 53zM1171 982q-22 -62 -57 -118.5t-83.5 -99t-110 -67.5t-135.5 -25q-46 0 -82.5 11.5t-66.5 28t-55.5 36.5t-48.5 36.5t-45 28t-46 11.5q-16 0 -35 -3t-39 -15.5t-40.5 -37.5t-39.5 -68l-228 282q26 38 57.5 76.5
t73.5 69.5t96.5 50.5t126.5 19.5q71 0 122 -19t89.5 -42t69 -42t61.5 -19q15 0 37.5 3.5t46 14.5t43.5 31t31 53z" />
    <glyph glyph-name="notequal" unicode="&#x2260;" horiz-adv-x="785" 
d="M501 684l-28 -92h240l4 -342l-344 22l-44 -148l-200 56l40 106l-98 6l-4 300h226l38 94l-260 6l-4 300l394 18l82 194l100 -66q-5 -12 -14 -44.5t-24 -77.5l108 6l4 -342z" />
    </font>
</defs>
</svg>
