<?xml version="1.0" standalone="no"?>
<!DOCTYPE svg PUBLIC "-//W3C//DTD SVG 1.1//EN" "http://www.w3.org/Graphics/SVG/1.1/DTD/svg11.dtd" >
<svg xmlns="http://www.w3.org/2000/svg" xmlns:xlink="http://www.w3.org/1999/xlink" version="1.1">
<metadata>
Created by FontForge 20161013 at Sat Dec 18 03:42:25 2010
 By ,,,
Copyright (c) 2010 by Brian J. Bonislawsky DBA Astigmatic (AOETI). All rights reserved. Available under the Apache 2.0 licence.http://www.apache.org/licenses/LICENSE-2.0.html
</metadata>
<defs>
<font id="MaidenOrange-Regular" horiz-adv-x="1004" >
  <font-face 
    font-family="Maiden Orange"
    font-weight="400"
    font-stretch="normal"
    units-per-em="2048"
    panose-1="2 6 5 6 0 0 0 2 0 4"
    ascent="1440"
    descent="-608"
    x-height="1032"
    cap-height="1406"
    bbox="-183 -635 2159 1848"
    underline-thickness="40"
    underline-position="-306"
    unicode-range="U+0020-FB02"
  />
<missing-glyph horiz-adv-x="1024" 
 />
    <glyph glyph-name="fi" unicode="fi" horiz-adv-x="1061" 
d="M1037 140l-6 -166l-366 16v174l84 6v674l-384 -8v-670l116 4l-6 -166h-422v176l132 4v664h-146l4 176h140q1 108 20.5 194t66 146t125 92t198.5 32q21 0 41 -1t41 -3l-4 -176q-85 2 -142.5 -8t-93.5 -41t-52.5 -87.5t-19.5 -147.5l590 -6l-24 -868zM953 1258
q0 -26 -10 -49t-27 -40t-40 -27t-49 -10t-49 10t-40 27t-27 40t-10 49t10 49t27 40t40 27t49 10t49 -10t40 -27t27 -40t10 -49z" />
    <glyph glyph-name="fl" unicode="fl" horiz-adv-x="1051" 
d="M1029 158l-6 -166l-366 16v174l84 6v1116l-70 6q-85 1 -142.5 -9t-93.5 -41.5t-52.5 -88t-19.5 -147.5h214l-10 -190l-202 8v-676l116 4l-6 -166h-422v176l132 4v664h-146l4 176h140q1 108 20.5 194t66 146t125 92t198.5 32l352 -24l-24 -1296z" />
    <glyph glyph-name=".notdef" horiz-adv-x="1024" 
 />
    <glyph glyph-name=".null" horiz-adv-x="0" 
 />
    <glyph glyph-name="nonmarkingreturn" horiz-adv-x="360" 
 />
    <glyph glyph-name="space" unicode=" " horiz-adv-x="360" 
 />
    <glyph glyph-name="exclam" unicode="!" horiz-adv-x="412" 
d="M329 1454l-50 -1146l-130 -10l-72 1146zM335 114q0 -26 -10 -49t-27 -40t-40 -27t-49 -10t-49.5 10t-41 27t-27.5 40t-10 49t10 49.5t27.5 41t41 27.5t49.5 10t49 -10t40 -27.5t27 -41t10 -49.5z" />
    <glyph glyph-name="quotedbl" unicode="&#x22;" horiz-adv-x="546" 
d="M74 1014l-20 426h178l-20 -426h-138zM334 1014l-20 426h178l-20 -426h-138z" />
    <glyph glyph-name="numbersign" unicode="#" horiz-adv-x="1335" 
d="M1288 1044l-38 -148l-296 -10l-58 -234l306 12l-38 -146l-304 -10l-104 -420l-138 18l96 396l-246 -8l-102 -406l-138 18l94 384l-272 -10l28 136l278 12l58 240l-278 -10l28 138l284 12l82 338l150 -6l-82 -326l242 10l78 322l150 -6l-78 -310zM804 882l-242 -8
l-58 -240l244 12z" />
    <glyph glyph-name="dollar" unicode="$" horiz-adv-x="774" 
d="M448 194l14 -262h-162l18 284q-35 15 -62.5 43.5t-53.5 70.5l-2 -124l-140 18l26 368l118 -6q7 -43 21.5 -89t40 -84t63 -62.5t89.5 -24.5q84 0 117 34.5t33 111.5q0 43 -14.5 72.5t-39 49.5t-58 34t-70.5 28q-66 23 -124.5 44.5t-102 54t-68.5 82t-25 129.5
q0 124 66 191.5t184 78.5l-16 270h162l-18 -282q41 -14 68 -44t56 -78l2 132l140 -2l-18 -408l-126 4q-7 45 -19 93t-35 87t-60 64.5t-92 25.5q-72 0 -107 -36t-35 -102q0 -47 15.5 -74.5t41.5 -45.5t61 -30t74 -26q60 -21 114.5 -45.5t95.5 -59t65.5 -84t24.5 -119.5
q0 -128 -64 -202.5t-198 -79.5z" />
    <glyph glyph-name="percent" unicode="%" horiz-adv-x="1509" 
d="M678 1016q0 -42 -6 -90.5t-20 -97t-37.5 -94t-58.5 -80t-83 -55.5t-111 -21q-65 0 -113 21t-82.5 56t-57 80t-35 93.5t-17.5 97t-5 90.5q0 44 5.5 94.5t19 100t37.5 94.5t60.5 79.5t87 55t118.5 20.5q59 0 104.5 -22.5t78.5 -59.5t55 -84t35.5 -96.5t19 -97t5.5 -84.5z
M552 1016q0 24 -3 58t-10.5 70.5t-20.5 72t-33 64t-48.5 46t-66.5 17.5q-42 0 -72 -17t-51 -45t-34 -63t-20.5 -71.5t-10 -71t-2.5 -60.5t2.5 -59t9.5 -68.5t20 -69.5t33.5 -61t50 -43.5t70.5 -16.5q36 0 64 17t48.5 44.5t34.5 62t22.5 70t12.5 68t4 56.5zM1156 1440
l-686 -1460l-112 20l676 1460zM1458 416q0 -42 -6 -90.5t-20 -97t-37.5 -94t-58.5 -80t-83 -55.5t-111 -21q-65 0 -113 21t-82.5 55.5t-57 80t-35 94t-17.5 97.5t-5 90q0 44 5.5 94.5t19 100t37.5 94.5t60.5 79.5t87 55t118.5 20.5q59 0 104.5 -22.5t78.5 -59.5t55 -84
t35.5 -96.5t19 -97t5.5 -84.5zM1332 416q0 24 -3 58t-10.5 70.5t-20.5 72t-33 64t-48.5 46t-66.5 17.5q-42 0 -72 -17t-51 -45t-34 -63t-20.5 -71.5t-10 -71t-2.5 -60.5t2.5 -59t9.5 -68.5t20 -69.5t33.5 -61t50 -43.5t70.5 -16.5q36 0 64 17t48.5 44.5t34.5 62t22.5 70
t12.5 68t4 56.5z" />
    <glyph glyph-name="ampersand" unicode="&#x26;" horiz-adv-x="1090" 
d="M1076 708q-9 -40 -25 -97.5t-35.5 -117.5t-41 -114t-42.5 -87l114 -178l-160 -124l-86 134q-25 -34 -62.5 -58t-80.5 -39t-88 -22t-85 -7q-41 0 -82.5 8t-79.5 22q-146 53 -218 163.5t-72 262.5q0 73 22.5 139.5t61.5 123t92.5 102.5t115.5 79q-36 57 -57 119.5
t-21 128.5q0 59 22 112q33 92 99.5 146t166.5 54q68 0 121.5 -23t90 -63.5t55.5 -96.5t19 -121q0 -57 -18 -105.5t-49.5 -88.5t-73.5 -72t-91 -56l214 -390q36 77 57 159t33 167zM656 1160q0 57 -29 93.5t-89 36.5q-29 0 -51.5 -11.5t-38 -31t-24 -44.5t-8.5 -51
q0 -48 20 -99t50 -87q31 10 61.5 28t54.5 43.5t39 56.5t15 66zM690 286l-278 482q-86 -47 -132 -126.5t-46 -177.5q0 -134 66.5 -207t199.5 -73q56 0 108.5 27.5t81.5 74.5z" />
    <glyph glyph-name="quotesingle" unicode="'" horiz-adv-x="286" 
d="M74 1014l-20 426h178l-20 -426h-138z" />
    <glyph glyph-name="parenleft" unicode="(" horiz-adv-x="556" 
d="M558 -58l-40 -156q-84 38 -152.5 98.5t-123 136t-95 162t-67 178.5t-39.5 185t-13 180q0 88 13.5 180.5t40.5 183.5t68.5 176.5t97 159t125.5 131.5t155 95l30 -146q-86 -62 -150 -153.5t-106.5 -196.5t-64 -217t-21.5 -215q0 -104 21.5 -215.5t64 -216.5t106.5 -196.5
t150 -153.5z" />
    <glyph glyph-name="parenright" unicode=")" horiz-adv-x="556" 
d="M528 726q0 -88 -13 -180.5t-39.5 -184.5t-67 -178.5t-95 -162t-123.5 -136t-152 -98.5l-40 156q85 62 149.5 153.5t108 196.5t65 216.5t21.5 215.5q0 103 -21.5 215t-65 217t-108 196.5t-149.5 153.5l30 146q85 -37 155.5 -95t126 -131.5t96.5 -159t68 -176.5
t40.5 -183.5t13.5 -180.5z" />
    <glyph glyph-name="asterisk" unicode="*" horiz-adv-x="865" 
d="M439 844l-198 -262l-144 106l200 218l-242 108l60 166l244 -138l-12 318h176l-12 -314l234 134l60 -166l-228 -104l204 -222l-146 -106z" />
    <glyph glyph-name="plus" unicode="+" horiz-adv-x="743" 
d="M686 838l-10 -180l-198 -4l4 -228l-186 -6v232l-232 -4l-6 186h236l-2 214l180 -10l4 -202z" />
    <glyph glyph-name="comma" unicode="," horiz-adv-x="356" 
d="M304 114q0 -75 -35.5 -138t-98.5 -102l-52 42q12 12 28.5 33t19.5 39q-25 2 -46 13t-36.5 27.5t-24.5 38.5t-9 47q0 26 10 49.5t27 41t40 27.5t49 10t49.5 -10t41 -27.5t27.5 -41t10 -49.5z" />
    <glyph glyph-name="hyphen" unicode="-" horiz-adv-x="767" 
d="M699 838l-10 -180l-612 -10l-6 186z" />
    <glyph glyph-name="period" unicode="." horiz-adv-x="354" 
d="M304 114q0 -26 -10 -49t-27.5 -40t-41 -27t-49.5 -10t-49 10t-40 27t-27 40t-10 49t10 49.5t27 41t40 27.5t49 10t49.5 -10t41 -27.5t27.5 -41t10 -49.5z" />
    <glyph glyph-name="slash" unicode="/" horiz-adv-x="867" 
d="M837 1440l-648 -1460l-152 20l616 1460z" />
    <glyph glyph-name="zero" unicode="0" 
d="M943 704q0 -69 -8.5 -149t-28.5 -160t-53 -154.5t-82.5 -131.5t-116.5 -91t-155 -34q-91 0 -158 34t-115.5 91t-80 131t-50 154t-25.5 160t-7 150q0 75 7.5 158.5t27 164.5t53 155.5t85 130.5t123 89.5t166.5 33.5q83 0 146 -36.5t109.5 -97t78 -138t50 -159t26.5 -160
t8 -141.5zM779 704q0 40 -4.5 96.5t-15.5 118t-30.5 122.5t-49.5 109t-72 78t-98 30q-61 0 -105 -29t-75 -76.5t-49.5 -107.5t-29 -121.5t-14 -119.5t-3.5 -100q0 -41 3.5 -97t13.5 -115.5t28.5 -118t48.5 -104.5t73.5 -74.5t102.5 -28.5q54 0 95.5 29t72 76t51.5 106
t33.5 119t18 114.5t5.5 93.5z" />
    <glyph glyph-name="one" unicode="1" horiz-adv-x="541" 
d="M530 198l-10 -180l-462 -10l-6 186h148l-2 1022l-154 -4l10 194l322 -10l-6 -1202z" />
    <glyph glyph-name="two" unicode="2" horiz-adv-x="931" 
d="M862 1018q0 -90 -23.5 -158.5t-62 -122t-88 -95t-102.5 -78.5t-104.5 -72.5t-94.5 -76.5t-72.5 -90.5t-38.5 -114.5l396 -10l10 196l158 -10l-10 -378l-746 10q0 134 25.5 231.5t67 169t94.5 122.5t108 91.5t108 75.5t94.5 75.5t67 91t25.5 121.5q0 46 -7 90.5t-26.5 80
t-54.5 57.5t-90 22q-67 0 -114 -27.5t-77.5 -72t-46 -101.5t-18.5 -115l-158 -6l-22 510l176 4l2 -166q25 43 54 73t63.5 49.5t75 28.5t89.5 9q89 0 153.5 -34.5t106.5 -92t62 -132.5t20 -155z" />
    <glyph glyph-name="three" unicode="3" horiz-adv-x="942" 
d="M868 380q0 -200 -100 -295t-296 -95q-90 0 -162 33.5t-122 90.5t-77 134t-27 164q0 18 1 36t3 36l168 -6q0 -60 12.5 -118.5t41.5 -104.5t76 -74.5t116 -28.5q50 0 86 15t58.5 43t33 67t10.5 87q0 47 -20 95.5t-54 87.5t-79 64t-95 25l-90 -2v162h88q53 0 97 21.5
t75.5 57.5t48.5 82.5t17 96.5q0 41 -10.5 79.5t-32.5 68t-55.5 47t-79.5 17.5t-80.5 -14.5t-61 -39.5t-45.5 -58.5t-32.5 -70.5t-22 -76.5t-14.5 -76.5l-158 -6l-22 510l176 4l2 -166q26 43 51 75t55 53t67.5 31.5t90.5 10.5q85 0 152 -28t113.5 -78.5t71.5 -120.5t25 -153
q0 -121 -59 -211t-177 -131q52 -21 95 -55.5t74.5 -78.5t49 -96.5t17.5 -109.5z" />
    <glyph glyph-name="four" unicode="4" horiz-adv-x="872" 
d="M830 600l-10 -180l-166 -2l-2 -224l140 4l-10 -180l-412 -10l-6 186h118v222l-470 -6l-6 184l422 814h234l-6 -810zM482 598l-2 584l-304 -588z" />
    <glyph glyph-name="five" unicode="5" horiz-adv-x="875" 
d="M816 452q0 -91 -20 -174.5t-64 -147.5t-115 -102t-173 -38q-95 0 -166.5 40t-119.5 105.5t-72 149t-22 171.5v28l188 -6q0 -47 7 -103.5t27.5 -106t58 -83t99.5 -33.5q58 0 95 26.5t58.5 67.5t30 91t8.5 97q0 62 -16 113.5t-47.5 88t-80 56.5t-112.5 20q-36 0 -71.5 -7
t-68.5 -19l-166 90l58 634l626 6l10 -384h-176v202l-302 2l-28 -378q32 8 63 11t63 3q91 0 169.5 -31t136 -86.5t90 -133t32.5 -169.5z" />
    <glyph glyph-name="six" unicode="6" horiz-adv-x="903" 
d="M851 472q0 -92 -23 -178.5t-71 -154t-122 -108.5t-176 -41q-98 0 -164.5 37.5t-109.5 99t-66 141.5t-34 165t-12.5 169t-1.5 154q0 65 5.5 141.5t21 153t42.5 147.5t71 125.5t107 87.5t149 33q76 0 138 -30t108.5 -80t75 -115.5t36.5 -136.5l-176 -20q-3 37 -15.5 73.5
t-35 65.5t-54.5 47t-73 18q-48 0 -83.5 -20.5t-60 -54t-40.5 -77t-24.5 -89t-12 -90t-3.5 -79.5v-33t2 -33q48 48 108 77t128 29q84 0 151.5 -37.5t115.5 -97.5t73.5 -136t25.5 -153zM673 454q0 52 -12.5 100t-39 85.5t-67.5 60t-99 22.5q-47 0 -83.5 -25.5t-62 -64.5
t-39 -84.5t-13.5 -85.5q0 -46 11 -100t35 -100.5t63.5 -78t96.5 -31.5t97 29.5t65 74.5t36.5 98t11.5 100z" />
    <glyph glyph-name="seven" unicode="7" horiz-adv-x="791" 
d="M774 1216l-342 -1022l142 4l-12 -180l-412 -10l-6 186h118l330 1022l-408 -2l-6 -182h-152l18 374h2v0l714 -10z" />
    <glyph glyph-name="eight" unicode="8" horiz-adv-x="964" 
d="M908 382q0 -89 -35 -161.5t-93.5 -123.5t-135.5 -79t-162 -28q-89 0 -167 26t-135.5 75.5t-90.5 122.5t-33 168q0 55 15.5 110t45 103t71 86t94.5 59q-44 16 -78 48.5t-57.5 74t-36 88.5t-12.5 91q0 85 27.5 158t77.5 125.5t121 82.5t158 30q85 0 156 -30.5t121.5 -84
t78.5 -126t28 -155.5q0 -43 -12.5 -90t-36.5 -89t-58 -75t-77 -48q52 -21 94 -59t71.5 -86t45 -103t15.5 -110zM678 1042q0 43 -13.5 83t-39 71.5t-61.5 50.5t-82 19q-47 0 -83 -18.5t-61.5 -50t-38.5 -72t-13 -83.5q0 -45 12.5 -86t37 -72t61 -49.5t85.5 -18.5t85.5 18.5
t61 49.5t37 72t12.5 86zM730 382q0 119 -64.5 186.5t-183.5 67.5q-56 0 -102 -18.5t-78.5 -52t-50 -80.5t-17.5 -103q0 -52 20 -94.5t54.5 -72.5t79 -46.5t94.5 -16.5q52 0 97 15.5t78.5 45.5t53 72.5t19.5 96.5z" />
    <glyph glyph-name="nine" unicode="9" horiz-adv-x="902" 
d="M831 678q0 -66 -5.5 -142t-20.5 -152.5t-42.5 -147.5t-71.5 -125.5t-107 -87.5t-149 -33q-76 0 -138 29.5t-108.5 79.5t-75 115.5t-36.5 137.5l176 20q3 -38 16 -74.5t35.5 -65t55 -46.5t73.5 -18q48 0 83 20.5t60 54t40 77t24 89t12 90t3 79.5v33t-2 31
q-47 -48 -107 -76t-129 -28q-84 0 -151.5 37.5t-115.5 97.5t-73.5 136t-25.5 153q0 91 23 178t71 154.5t122.5 108.5t177.5 41q97 0 163.5 -37.5t109 -99t66 -141.5t34 -165t12 -169t1.5 -154zM645 972q0 45 -11 98.5t-35 100t-63 78t-95 31.5q-57 0 -97.5 -29t-66 -73.5
t-37 -97.5t-11.5 -100q0 -52 12.5 -100t39 -85.5t67.5 -60t99 -22.5q46 0 83 25.5t62.5 64t39 84t13.5 86.5z" />
    <glyph glyph-name="colon" unicode=":" horiz-adv-x="438" 
d="M346 778q0 -26 -10 -49.5t-27.5 -41t-41 -27.5t-49.5 -10t-49 10t-40 27.5t-27 41t-10 49.5t10 49t27 40t40 27t49 10t49.5 -10t41 -27t27.5 -40t10 -49zM346 114q0 -26 -10 -49t-27.5 -40t-41 -27t-49.5 -10t-49 10t-40 27t-27 40t-10 49t10 49.5t27 41t40 27.5t49 10
t49.5 -10t41 -27.5t27.5 -41t10 -49.5z" />
    <glyph glyph-name="semicolon" unicode=";" horiz-adv-x="440" 
d="M346 778q0 -26 -10 -49.5t-27.5 -41t-41 -27.5t-49.5 -10t-49 10t-40 27.5t-27 41t-10 49.5t10 49t27 40t40 27t49 10t49.5 -10t41 -27t27.5 -40t10 -49zM346 114q0 -75 -35.5 -138t-98.5 -102l-52 42q12 12 28.5 33t19.5 39q-25 2 -46 13t-36.5 27.5t-24.5 38.5t-9 47
q0 26 10 49.5t27 41t40 27.5t49 10t49.5 -10t41 -27.5t27.5 -41t10 -49.5z" />
    <glyph glyph-name="less" unicode="&#x3c;" horiz-adv-x="1045" 
d="M965 364l-92 -174l-810 442l-18 172l828 470l92 -174l-706 -374z" />
    <glyph glyph-name="equal" unicode="=" horiz-adv-x="813" 
d="M723 638l-10 -180l-612 -10l-6 186zM723 1038l-10 -180l-612 -10l-6 186z" />
    <glyph glyph-name="greater" unicode="&#x3e;" horiz-adv-x="1045" 
d="M1000 804l-18 -172l-810 -442l-92 174l706 362l-706 374l92 174z" />
    <glyph glyph-name="question" unicode="?" horiz-adv-x="909" 
d="M857 1016q0 -87 -20.5 -172t-64 -156t-110 -122.5t-157.5 -71.5l-30 -200h-116l-30 350h98q58 0 102.5 35t74.5 87t45.5 111.5t15.5 108.5q0 41 -8.5 90t-29 91t-55.5 70.5t-87 28.5q-68 0 -112.5 -32t-73 -81.5t-44 -108.5t-24.5 -114l-158 -6l-22 510l176 4l2 -166
q26 44 51 76t55 53t68.5 31t91.5 10q95 0 163.5 -34t112.5 -92t65 -135.5t21 -164.5zM539 114q0 -26 -10 -49t-27.5 -40t-41 -27t-49.5 -10t-49 10t-40 27t-27 40t-10 49t10 49.5t27.5 41t40 27.5t48.5 10t49.5 -10t41 -27.5t27.5 -41t10 -49.5z" />
    <glyph glyph-name="at" unicode="@" horiz-adv-x="1153" 
d="M1098 782q0 -80 -27 -151.5t-76.5 -125.5t-118 -85.5t-150.5 -31.5l-8 68q-32 -29 -77 -48.5t-89 -19.5q-39 0 -68 12.5t-48 35t-28.5 53t-9.5 67.5q0 45 18.5 78.5t48.5 55.5t69 33t80 11q18 0 37 -2.5t37 -7.5v36q0 10 -1.5 32t-7 44.5t-16 40t-27.5 17.5
q-19 0 -36 -15.5t-31.5 -36.5t-25 -43t-15.5 -35l-118 6l-4 216l116 2v-84q7 17 19.5 33.5t28.5 29t35 20t39 7.5q48 0 79.5 -11t50.5 -33.5t26.5 -57t7.5 -82.5q0 -78 -2 -158t-10 -158q20 0 38.5 6.5t35.5 17.5q34 21 57.5 50.5t38.5 64t21.5 73t6.5 76.5q0 205 -96 307.5
t-304 102.5q-108 0 -185.5 -40t-127.5 -107.5t-73.5 -156.5t-23.5 -186q0 -101 32 -192t92 -159.5t145 -108.5t191 -40q66 0 129.5 16.5t120.5 49.5l46 -90q-68 -39 -152 -64.5t-164 -25.5q-126 0 -228 51t-174 136.5t-111 196.5t-39 230q0 118 34 225t100 188.5t163.5 130
t224.5 48.5q124 0 218 -34t157.5 -99.5t96 -161t32.5 -217.5zM692 534v86q-11 11 -30.5 14.5t-33.5 3.5q-22 0 -42.5 -4.5t-36.5 -15t-25.5 -27t-9.5 -41.5q0 -32 20 -48t50 -16q10 0 28 2.5t36 8t31 14.5t13 23z" />
    <glyph glyph-name="A" unicode="A" horiz-adv-x="960" 
d="M973 162l-14 -190l-406 10l-10 194l124 -4l-52 292l-264 -12l-42 -260l116 -10l-16 -180h-406l-10 194l124 -4l218 1068l-102 -4l-10 170l510 10l-10 -160l-100 -4l226 -1100zM587 620l-108 614l-100 -614h208z" />
    <glyph glyph-name="B" unicode="B" horiz-adv-x="1010" 
d="M974 404q0 -94 -34 -171t-93.5 -132.5t-139.5 -86t-171 -30.5q-118 0 -235 4t-233 10l12 194l114 -4l-2 1058l-114 -6l-14 194q101 11 203 14.5t205 3.5q94 0 173 -29t135.5 -83.5t88 -132.5t31.5 -175q0 -92 -41 -160.5t-119 -115.5q113 -50 173.5 -138.5t60.5 -213.5z
M716 1038q0 107 -59.5 166.5t-166.5 59.5h-26t-37 -0.5t-34.5 -1.5t-18.5 -2l-4 -432q17 -2 33 -2h33h70q98 2 154 57t56 155zM788 408q0 61 -15.5 102.5t-42.5 68t-64 40.5t-79.5 20.5t-88.5 7t-92 -0.5h-34l4 -472q42 0 85 -1t85 -1q50 0 94 17.5t77 49t52 75t19 94.5z
" />
    <glyph glyph-name="C" unicode="C" horiz-adv-x="1033" 
d="M983 1444l-22 -510l-158 6q-6 35 -15.5 73t-24 74t-34.5 68.5t-47 57t-61 39t-76 14.5q-63 0 -109.5 -27t-79.5 -72t-54.5 -102.5t-33.5 -117.5t-16.5 -118.5t-4.5 -104.5q0 -43 4 -100.5t15.5 -118.5t31.5 -120.5t51.5 -106t75.5 -75.5t104 -29q73 0 122.5 32t80.5 82.5
t45.5 113t19.5 124.5h158q0 -103 -25.5 -200t-78.5 -172t-134.5 -120.5t-193.5 -45.5q-86 0 -154 35t-119.5 93.5t-87.5 134t-59 156.5t-33.5 161.5t-10.5 147.5q0 76 9.5 160t31 165.5t57 155.5t88.5 130t125 89.5t165 33.5q94 0 158 -44t112 -122l2 164z" />
    <glyph glyph-name="D" unicode="D" horiz-adv-x="1029" 
d="M966 704q0 -87 -11.5 -181.5t-41 -183t-80 -164.5t-129.5 -127q-48 -32 -103.5 -49t-112.5 -17h-6l-402 6l-6 184h118l-2 1054l-114 -4l-10 194q88 6 174.5 8t175.5 2h114q91 0 159 -34t116.5 -91t79.5 -131t49 -154.5t25 -161t7 -150.5zM782 728v18q0 34 -4.5 83.5
t-14.5 104.5t-28 109t-44 97.5t-62.5 70.5t-84.5 27h-64h-54t-54 -2l-10 -1074q20 -2 39 -3t39 -1q53 0 104 6q56 9 95.5 42.5t66 82t41.5 107.5t23 118.5t10 115.5t2 98z" />
    <glyph glyph-name="E" unicode="E" horiz-adv-x="953" 
d="M903 1038l-148 -10l-20 206l-364 -8l-4 -446h304v-144l-306 -18l-4 -446l374 14v220h148l10 -398l-814 -20l-6 184h118l-2 1054l-124 -4l10 194l818 10z" />
    <glyph glyph-name="F" unicode="F" horiz-adv-x="910" 
d="M894 998l-168 -10l-10 226l-354 -8l4 -456h298v-144l-296 -18l4 -404l142 -8v-178l-434 -10l-6 196h118l-2 1022l-124 -4l10 194l808 10z" />
    <glyph glyph-name="G" unicode="G" horiz-adv-x="1028" 
d="M960 530q0 -98 -27.5 -194.5t-82.5 -174t-136.5 -125.5t-189.5 -48q-86 0 -154 35t-119.5 93.5t-87.5 134t-59 156.5t-33.5 161.5t-10.5 147.5q0 73 8 156t27.5 164.5t53 156t84 132t120.5 91.5t163 34q48 0 84 -11.5t65 -33t53 -52.5t48 -69l2 164l176 -4l-22 -510
l-158 6q-8 49 -23.5 106.5t-42.5 106t-69.5 81t-104.5 32.5t-106.5 -27.5t-75 -73t-49.5 -103t-29 -118t-13 -118t-3 -102.5q0 -43 4 -100.5t15.5 -118.5t31.5 -120.5t51.5 -106t75.5 -75.5t104 -29q48 0 86 19t66.5 50.5t48 72.5t31.5 85t17.5 88.5t4.5 82.5v20l-282 8v138
l446 10q5 -54 8.5 -109t3.5 -109z" />
    <glyph glyph-name="H" unicode="H" horiz-adv-x="1194" 
d="M1118 1232l-104 4l-20 -1064h116l6 -184l-444 10v180l142 -6l6 378h-456v-356h118l4 -186l-434 10v180l142 -4l-10 1012l-136 10l4 180h418v-194l-106 4v-500l454 16l4 514l-134 10l4 180h426v-194z" />
    <glyph glyph-name="I" unicode="I" horiz-adv-x="555" 
d="M501 198l-10 -180l-412 -10l-6 186h118l-2 1022l-124 -4l10 194h396l16 -180l-116 -10l-10 -1022z" />
    <glyph glyph-name="J" unicode="J" horiz-adv-x="807" 
d="M778 1242h-148v-900q0 -83 -19 -150t-59.5 -114.5t-103 -73.5t-150.5 -26q-69 0 -120.5 26.5t-85.5 71.5t-51 103t-17 121q0 60 1 121t7 121h186q-5 -59 -8.5 -117t-3.5 -117q0 -24 5.5 -51.5t18 -51.5t33 -39.5t49.5 -15.5q43 0 69.5 17.5t41.5 46t20 64.5t5 72v892
l-180 -12l-10 192l520 12v-192z" />
    <glyph glyph-name="K" unicode="K" horiz-adv-x="1032" 
d="M1039 1426l-16 -190h-104l-398 -500l380 -564l110 6l10 -180l-412 -20l-16 184h118l-346 526l-4 -494l140 4l-10 -180l-412 -10l-6 186h118l-2 1022l-124 -4l10 194h396l16 -180l-116 -10l-4 -430l360 460l-126 16l12 174z" />
    <glyph glyph-name="L" unicode="L" horiz-adv-x="895" 
d="M873 406l-10 -408l-788 10l-10 194l124 -4l2 1024h-118l6 184h434v-178l-142 -6l-10 -1024l334 -8l10 226z" />
    <glyph glyph-name="M" unicode="M" horiz-adv-x="1403" 
d="M1367 1422l-6 -192l-130 6l-20 -1058h102l4 -190h-408l4 190h122l4 950l-252 -1032l-196 -6l-196 1036l-14 -932h118l4 -186l-464 10v180l162 -4l10 1012l-176 10l4 180h488l166 -994l240 1014z" />
    <glyph glyph-name="N" unicode="N" horiz-adv-x="1167" 
d="M1133 1246l-116 -10l-30 -1244l-174 -4l-450 1088l10 -882l136 4v-180l-428 -10l-6 186h118l-12 1022l-124 -4l10 194h336l424 -1062v892l-126 -4l10 194h408z" />
    <glyph glyph-name="O" unicode="O" 
d="M938 778q0 -81 -5 -173t-21.5 -182t-48 -173.5t-84 -146.5t-129.5 -101t-184 -38q-84 0 -146 30.5t-106.5 81.5t-73.5 118t-46 139.5t-23.5 146.5t-6.5 138q0 81 6 175t24 187t50.5 179t86 152t130.5 105.5t183 39.5q84 0 146.5 -32.5t106 -87t71 -124.5t43.5 -145.5
t21.5 -150t5.5 -138.5zM742 766q0 34 -2 84.5t-9 106t-21 111.5t-38.5 100.5t-61 72t-88.5 27.5q-66 0 -111.5 -35.5t-75.5 -93.5t-47 -130.5t-25 -146.5t-9.5 -142.5t-1.5 -117.5q0 -37 2 -84.5t9.5 -97t22.5 -97t39.5 -84.5t61.5 -60t89 -23q65 0 110 33t74.5 86.5
t46 120.5t24.5 134.5t9.5 129.5t1.5 106z" />
    <glyph glyph-name="P" unicode="P" horiz-adv-x="966" 
d="M946 1020q0 -124 -40 -208t-110.5 -135t-166 -73.5t-207.5 -23.5h-56l-4 -386l140 4l-10 -180l-412 -10l-6 186h118l-2 1048l-114 -4l-10 194q112 5 222 6.5t222 1.5q91 0 171 -30.5t138.5 -86t92.5 -132.5t34 -171zM762 1012q0 51 -18.5 95t-50.5 76t-76 50.5t-95 18.5
h-64h-86l-4 -502h48q69 0 131.5 8.5t110.5 35.5t76 79t28 139z" />
    <glyph glyph-name="Q" unicode="Q" 
d="M937 746q0 -54 -2.5 -116.5t-10.5 -128.5t-22 -131.5t-37 -125.5t-56 -111.5t-78 -88.5q32 -41 73.5 -79.5t86.5 -62.5l-136 -150q-56 45 -98.5 102.5t-77.5 119.5q-27 -6 -53 -8t-53 -2q-86 0 -149.5 32.5t-109 86.5t-74.5 124t-45.5 146t-23 152.5t-6.5 142.5
q0 80 6 171t23 180.5t49.5 172.5t84.5 146t128 100.5t181 37.5q87 0 150.5 -34.5t108 -92t72 -131.5t43 -153t21 -157t5.5 -142zM741 726q0 36 -2 90t-9 114.5t-21.5 120.5t-40 108.5t-64 78.5t-93.5 30q-65 0 -109 -34t-72 -89.5t-43.5 -125t-22.5 -140t-8 -136t-1 -111.5
v-49t2 -51q68 -9 125.5 -36t104 -67.5t82 -94t60.5 -114.5q38 42 60.5 106t34 135t14.5 141t3 124zM485 156q-30 65 -83.5 113.5t-116.5 78.5q10 -38 26.5 -72.5t40.5 -61.5t56.5 -43t76.5 -15z" />
    <glyph glyph-name="R" unicode="R" horiz-adv-x="999" 
d="M956 208l-10 -190l-362 -30l-24 184h76l-136 468h-136l-4 -468l120 6l-10 -190h-382l-16 184h118l-2 1070l-114 -4l-10 194q112 5 223.5 6.5t224.5 1.5q89 0 168 -24.5t137.5 -73.5t92.5 -122t34 -170q0 -64 -18 -127t-53 -116.5t-86 -92.5t-117 -54l146 -456zM760 1042
q0 51 -17.5 90t-48.5 66t-73 40.5t-91 13.5h-74h-86l-4 -442h48q66 0 128.5 5.5t110.5 28.5t77.5 69.5t29.5 128.5z" />
    <glyph glyph-name="S" unicode="S" horiz-adv-x="952" 
d="M876 380q0 -81 -20.5 -152.5t-62.5 -124.5t-106.5 -84t-152.5 -31q-53 0 -95 9.5t-76.5 30t-64 52.5t-56.5 76l-2 -154l-176 24l32 458l148 -6q9 -53 28 -110.5t50.5 -105.5t78 -79t111.5 -31q52 0 87.5 17t57.5 47t31.5 71t9.5 89q0 54 -17.5 96.5t-48.5 75t-72.5 56
t-89.5 40.5q-55 19 -105.5 40t-94.5 46.5t-80.5 57t-62.5 72.5t-40.5 93t-14.5 119q0 83 25 153t72 120.5t114 78.5t151 28q53 0 91.5 -10t68.5 -31t55 -52.5t51 -74.5l2 164l174 -4l-22 -510l-156 6q-7 37 -15.5 76.5t-22.5 76.5t-33 70.5t-45.5 58.5t-61.5 39.5t-80 14.5
q-46 0 -79.5 -17.5t-55.5 -47t-32.5 -68t-10.5 -79.5q0 -58 19 -99t51.5 -70.5t75.5 -50.5t92 -38q75 -27 143 -64t120 -88t82.5 -118.5t30.5 -155.5z" />
    <glyph glyph-name="T" unicode="T" horiz-adv-x="920" 
d="M886 1002l-154 -20l-10 270l-166 -6l-10 -1052l140 4l-10 -180l-412 -10l-6 186h118l-2 1042l-180 -12l10 -252h-166l10 434l818 30z" />
    <glyph glyph-name="U" unicode="U" horiz-adv-x="1104" 
d="M1069 1266l-114 -10v-534q-1 -75 -5.5 -160.5t-19.5 -169.5t-43 -161.5t-75.5 -136.5t-117 -94.5t-167.5 -35.5q-84 0 -145 32t-103.5 85.5t-68.5 123t-40.5 144t-19.5 148.5t-5 137q0 148 6.5 295.5t11.5 296.5l-124 -4l10 194h396l16 -180l-116 -10q-5 -154 -12.5 -307
t-7.5 -307q0 -37 1 -84.5t7 -98.5t19 -100t36.5 -87.5t59.5 -62t89 -23.5q60 0 101 30t67 79t40 111t20 125t7 122.5t1 102.5v530l-124 -4l10 194h396z" />
    <glyph glyph-name="V" unicode="V" horiz-adv-x="956" 
d="M970 1256l-124 -10l-258 -1264l-226 12l-248 1232l-124 -4l10 194h406l16 -180l-116 -10l170 -1022l188 1042l-124 -4l10 194l406 10z" />
    <glyph glyph-name="W" unicode="W" horiz-adv-x="1289" 
d="M1283 1252l-124 4l-148 -1262l-256 -12l-114 976l-126 -946l-274 -8l-108 1222l-124 -4l10 194h366l16 -180l-76 -10l60 -1012l156 998l-62 10l10 174l306 10l12 -164l-68 -20l148 -978l80 1012l-76 10l16 180h366z" />
    <glyph glyph-name="X" unicode="X" horiz-adv-x="1010" 
d="M997 1236l-124 -10l-276 -520l258 -544l142 6l-12 -180l-422 -10l-6 184h118l-178 388l-168 -378l132 6l-10 -180l-424 -10l-6 184h118l264 528l-262 526l-124 -4l10 194h406l16 -180l-116 -10l170 -378l188 378l-124 -4l10 194l406 10z" />
    <glyph glyph-name="Y" unicode="Y" horiz-adv-x="958" 
d="M970 1236l-124 -10l-288 -702l-4 -330l140 4l-10 -180l-412 -10l-6 186h118l-2 334l-268 698l-124 -4l10 194h406l16 -180l-116 -10l170 -540l188 540l-124 -4l10 194l406 10z" />
    <glyph glyph-name="Z" unicode="Z" horiz-adv-x="858" 
d="M805 18l-738 -10l-6 186l542 1042l-382 -2l10 -252h-176l10 434l728 4l2 -194l-544 -1032l388 2v258l156 10z" />
    <glyph glyph-name="bracketleft" unicode="[" horiz-adv-x="606" 
d="M592 -226l-492 10v1864l492 20v-200l-308 10v-1526l308 20v-198z" />
    <glyph glyph-name="backslash" unicode="\" horiz-adv-x="867" 
d="M830 0l-154 -20l-646 1460l182 20z" />
    <glyph glyph-name="bracketright" unicode="]" horiz-adv-x="606" 
d="M506 -216l-492 -10v198l306 -20v1526l-306 -10v200l492 -20v-1864z" />
    <glyph glyph-name="asciicircum" unicode="^" horiz-adv-x="750" 
d="M750 826l-184 -30l-192 500l-198 -510l-176 30l260 590l208 20z" />
    <glyph glyph-name="underscore" unicode="_" horiz-adv-x="608" 
d="M618 -82l-10 -180l-612 -10l-6 186z" />
    <glyph glyph-name="grave" unicode="`" horiz-adv-x="316" 
d="M316 1142l-92 -30l-224 232l186 50z" />
    <glyph glyph-name="a" unicode="a" horiz-adv-x="766" 
d="M740 170l-4 -160l-206 -20l-10 116q-21 -23 -48.5 -43.5t-59 -37t-65 -26t-65.5 -9.5q-62 0 -104.5 24.5t-68 65t-36.5 92.5t-11 106q0 68 22.5 124t63 95.5t97.5 61t125 21.5q27 0 53.5 -3.5t52.5 -12.5q2 17 2 32v32q0 9 -1 29.5t-3.5 46t-7.5 53t-13.5 50t-20 37
t-28.5 14.5q-19 0 -37 -13t-34 -33.5t-29.5 -46t-24.5 -50.5t-19 -46.5t-12 -34.5l-170 8l-6 372l166 4v-146q10 26 27 54t39.5 50.5t50 37t59.5 14.5q76 0 122.5 -23t71 -64.5t32.5 -100t8 -128.5q0 -136 -2 -271t-14 -271h108zM482 238v146q-14 20 -41.5 26t-50.5 6
q-72 0 -117 -35.5t-45 -112.5q0 -47 25 -79.5t75 -32.5q16 0 42.5 4.5t51 14.5t42.5 25.5t18 37.5z" />
    <glyph glyph-name="b" unicode="b" horiz-adv-x="833" 
d="M779 548q0 -45 -4 -104t-15.5 -121t-31 -121.5t-51 -106.5t-75.5 -76t-105 -29q-30 0 -59.5 9t-56.5 25t-49.5 37t-38.5 45l-16 -116l-268 10l2 166l132 -6l4 1092l-136 -4l-2 184h328l-10 -496q16 19 38 37.5t46.5 33t51 23t52.5 8.5q58 0 100.5 -24.5t72 -65t47.5 -92
t27.5 -106t13 -107.5t3.5 -95zM603 550q0 38 -3.5 89t-18.5 96.5t-45 77t-83 31.5q-27 0 -50 -15.5t-39.5 -39t-25.5 -51t-9 -50.5q-3 -94 -2.5 -187.5t0.5 -188.5q0 -29 8 -54.5t24 -45t39 -31t53 -11.5q38 0 64 21t43 55t26 76.5t13.5 84.5t5 80t0.5 63z" />
    <glyph glyph-name="c" unicode="c" horiz-adv-x="738" 
d="M687 1022l-10 -410l-162 4q-1 28 -7.5 70.5t-21.5 83t-41 69.5t-66 29q-32 0 -54.5 -21t-37.5 -54t-24 -74t-13.5 -81t-5.5 -74.5t-1 -55.5q0 -23 0.5 -57.5t4 -73t11 -77t23 -69.5t39 -50t58.5 -19q41 0 68 28t43.5 67.5t23 82.5t7.5 74h160q-1 -68 -18 -142
t-53.5 -136.5t-93.5 -103t-137 -40.5q-70 0 -121.5 23t-88 62.5t-59.5 92t-36 110t-18 117.5t-5 115q0 48 6 105.5t20.5 115.5t38.5 113t59.5 97t83 67.5t110.5 25.5q50 0 95 -26t77 -64l20 86z" />
    <glyph glyph-name="d" unicode="d" horiz-adv-x="831" 
d="M821 -2l-268 -8l-14 116q-33 -54 -88 -85t-118 -31q-62 0 -106.5 26t-76 69t-51 98t-30 113t-14.5 114t-4 102t6 103.5t20.5 116.5t38 115t58 100t81.5 70.5t108 26.5q47 0 89.5 -24.5t66.5 -63.5v326h-180v172l366 -6l-16 -1288l132 4v-166zM513 736q-6 18 -17 40
t-26.5 41.5t-35 33t-41.5 13.5q-33 0 -57.5 -19t-41.5 -49t-28.5 -67.5t-17.5 -75t-8.5 -71t-2.5 -56.5v-55t3 -73.5t10.5 -80t21.5 -73.5t36 -53.5t55 -20.5q25 0 48 14.5t42 36t33.5 45.5t22.5 44z" />
    <glyph glyph-name="e" unicode="e" horiz-adv-x="718" 
d="M667 606q0 -82 -6 -160l-430 -8q0 -21 2 -50.5t6.5 -62t13 -64t22.5 -57t34.5 -41t49.5 -15.5q31 0 53.5 16.5t37 41t22.5 53.5t11 55h174q-9 -57 -30 -115t-56 -105t-85 -76.5t-117 -29.5q-70 0 -120.5 26.5t-85.5 70.5t-57 101.5t-33.5 119t-15.5 123.5t-4 115
q0 48 5.5 104t18.5 111t35.5 106t56.5 89.5t81 62t109 23.5q106 0 167 -33.5t92.5 -92t40 -138t8.5 -170.5zM493 664q0 30 -3.5 68t-16 72t-36.5 57t-64 23q-35 0 -59 -15.5t-40 -40.5t-25 -57.5t-13 -66t-5.5 -65.5t-1.5 -57h258q6 42 6 82z" />
    <glyph glyph-name="f" unicode="f" horiz-adv-x="528" 
d="M675 1484l-4 -176q-85 2 -142.5 -8t-93.5 -41t-52.5 -87.5t-19.5 -147.5h134l-10 -190l-122 8v-676l116 4l-6 -166h-422v176l132 4v664h-146l4 176h140q1 108 20.5 194t66 146t125 92t198.5 32q21 0 41 -1t41 -3z" />
    <glyph glyph-name="g" unicode="g" horiz-adv-x="721" 
d="M760 1058l-156 -138q20 -53 27 -116.5t7 -119.5q0 -74 -17.5 -136.5t-54 -110t-93 -77.5t-133.5 -38q-8 -5 -17.5 -12t-17.5 -15.5t-13.5 -18.5t-5.5 -20q0 -9 6 -21.5t14 -24.5t16.5 -23t13.5 -17q67 0 132.5 -13t117 -44.5t83 -83.5t31.5 -131q0 -67 -31.5 -122.5
t-82 -96t-113.5 -63t-125 -22.5q-65 0 -120.5 19.5t-96 56t-63 89t-22.5 119.5q0 74 30.5 138.5t93.5 105.5q-18 29 -32 61t-14 65q0 35 18 68t48 50q-34 25 -58.5 64t-41 83.5t-24.5 91t-8 87.5q0 80 18 146.5t56 114.5t97.5 74.5t142.5 26.5q22 0 39.5 -2t33.5 -6.5
t32 -11t35 -16.5l126 160zM472 696q0 28 -6.5 61.5t-21.5 62t-39 47.5t-59 19q-41 0 -65 -16.5t-36.5 -43t-16.5 -59.5t-4 -65q0 -27 5.5 -64t19 -71t37 -57.5t60.5 -23.5q35 0 59 22.5t39 55t21.5 68.5t6.5 64zM540 -98q0 35 -19 59t-47.5 39t-62 21.5t-61.5 6.5
q-66 0 -99 -41.5t-33 -104.5q0 -32 16 -54t40 -35.5t53.5 -20t56.5 -6.5q28 0 56 9.5t50.5 27.5t36 43t13.5 56z" />
    <glyph glyph-name="h" unicode="h" horiz-adv-x="836" 
d="M812 136l-20 -162l-336 16l-4 160l88 10q3 139 5.5 276t2.5 276q0 25 -4.5 51t-15.5 47.5t-30.5 35.5t-49.5 14t-53.5 -14.5t-41 -37.5t-30 -53t-20.5 -61t-12 -60.5t-5 -51.5q-5 -106 -6.5 -211t-3.5 -211h88l10 -162l-346 -4v186l98 4l-6 1104l-146 10l4 170l310 10
l6 -568q17 29 42 54t55 43t64 28.5t69 10.5q45 0 77 -15.5t54 -41t34.5 -60t19.5 -72t9 -76t2 -73.5q0 -142 -3.5 -282t-6.5 -282z" />
    <glyph glyph-name="i" unicode="i" horiz-adv-x="457" 
d="M349 1258q0 -26 -10 -49t-27 -40t-40 -27t-49 -10t-49 10t-40 27t-27 40t-10 49t10 49t27 40t40 27t49 10t49 -10t40 -27t27 -40t10 -49zM433 140l-6 -166l-366 16v174l84 6v674h-122l4 174h322l-24 -868z" />
    <glyph glyph-name="j" unicode="j" horiz-adv-x="401" 
d="M329 1258q0 -26 -10 -49t-27.5 -40t-41 -27t-49.5 -10t-49 10t-40 27t-27 40t-10 49t10 49.5t27 41t40 27.5t49 10t49.5 -10t41 -27.5t27.5 -41t10 -49.5zM315 1022l-6 -970q-1 -107 -20.5 -193t-67 -146t-126.5 -92.5t-198 -32.5q-20 0 -40 1t-40 3l4 176
q85 -2 143.5 7.5t94.5 40t52 87.5t16 149v808l-116 -6l6 166z" />
    <glyph glyph-name="k" unicode="k" horiz-adv-x="831" 
d="M815 164l-4 -164h-338v160h70l-198 262l-52 -70l-4 -184l118 -10l-6 -166l-366 16v174l84 6v1086h-122l4 176h302l-6 -864l216 286h-82l-14 150l384 16l6 -166l-118 -4l-248 -326l290 -372z" />
    <glyph glyph-name="l" unicode="l" horiz-adv-x="429" 
d="M407 158l-6 -166l-366 16v174l84 6v1076h-122l4 176h322l-24 -1272z" />
    <glyph glyph-name="m" unicode="m" horiz-adv-x="1241" 
d="M1205 162l-10 -160l-316 -16l-4 172l78 10q3 133 5.5 264t2.5 264q0 22 -4 47t-14 46t-27.5 35t-44.5 14q-29 0 -53 -15t-41.5 -37.5t-27.5 -50.5t-10 -53q-2 -133 -4.5 -265t-5.5 -265l82 -10l-20 -160l-306 14l6 162l68 10q3 137 5.5 274t2.5 274q0 22 -4 47t-14 46
t-27.5 35t-44.5 14q-44 0 -71.5 -25t-42.5 -62t-21 -78.5t-7 -74.5q-5 -113 -6.5 -225t-3.5 -225h78v-162l-326 -4v184l98 6l-6 650l-146 10l4 170l288 10l6 -142q16 31 40.5 59t54.5 48.5t64 32.5t71 12q39 0 67.5 -11t49 -32t34 -50t21.5 -65q19 29 42.5 54.5t51.5 44
t60 29t68 10.5q67 0 104.5 -33t56 -82.5t23 -108t4.5 -108.5q0 -133 -3.5 -264t-6.5 -264h82z" />
    <glyph glyph-name="n" unicode="n" horiz-adv-x="886" 
d="M861 142l-20 -160l-336 14l-4 162l88 10q3 136 5.5 271t2.5 271q0 24 -4.5 50t-15.5 48t-30.5 36t-49.5 14q-44 0 -74.5 -24.5t-49.5 -60.5t-28 -78t-10 -77q-5 -113 -6.5 -225t-3.5 -225h88l10 -162l-346 -4v184l98 6l-6 650l-146 10l4 170l288 10l6 -142
q20 30 47.5 57.5t60.5 48.5t69.5 33.5t74.5 12.5q45 0 77 -15t54 -41t34.5 -59.5t19.5 -71t9 -76t2 -73.5q0 -139 -3.5 -277t-6.5 -277z" />
    <glyph glyph-name="o" unicode="o" horiz-adv-x="737" 
d="M688 544q0 -50 -6 -111t-21 -123.5t-39.5 -122t-61.5 -105.5t-86.5 -74t-115.5 -28q-62 0 -109 23.5t-81 62t-57 89.5t-36.5 106t-19 111t-5.5 104q0 50 6 112t20.5 125.5t39 123.5t61 106.5t86.5 74.5t117 28q61 0 107.5 -24t81 -64t57 -92t36.5 -107.5t20 -111.5
t6 -103zM530 550q0 21 -2 54t-7.5 70t-15.5 74t-26 67t-39.5 48.5t-55.5 18.5q-39 0 -66.5 -23.5t-47 -60.5t-31.5 -82.5t-18.5 -91t-8.5 -85.5t-2 -65q0 -21 2 -53.5t8 -69.5t16.5 -73.5t26.5 -66.5t39 -48.5t54 -18.5q38 0 65.5 23t47 59.5t31.5 81.5t18.5 90.5t9 85.5
t2.5 66z" />
    <glyph glyph-name="p" unicode="p" horiz-adv-x="823" 
d="M771 510q0 -49 -4.5 -107t-16 -116t-33 -112.5t-55 -96.5t-81 -67t-112.5 -25q-50 0 -91.5 29t-64.5 71v-338l90 -2v-158h-382l6 170l104 -4l12 1108l-132 -4v164l268 10l14 -116q16 24 39 45t50 37t57 25t60 9q56 0 98 -27.5t72 -72t50 -101t31.5 -114.5t16 -112.5
t4.5 -94.5zM595 496q0 22 -1 57.5t-5.5 75t-13.5 79.5t-25 72t-40.5 52t-58.5 20q-31 0 -54.5 -11t-39.5 -30.5t-24.5 -45.5t-9.5 -55q-2 -94 -4 -187.5t-2 -188.5q0 -23 8.5 -53.5t24.5 -57.5t38.5 -46t50.5 -19q37 0 63.5 18t43.5 47t27 65.5t15 74.5t6 73t1 60z" />
    <glyph glyph-name="q" unicode="q" horiz-adv-x="833" 
d="M823 1022l-4 -164l-132 4l-6 -1108l102 4l4 -170h-382l2 158l90 2l6 338q-11 -21 -28 -39.5t-37.5 -32t-43.5 -21t-47 -7.5q-63 0 -109.5 23.5t-79.5 62.5t-53.5 90t-32 106t-16 110.5t-3.5 103.5v28q0 41 5.5 95.5t18 112.5t33.5 114.5t52 100.5t74 71.5t99 27.5
q30 0 59.5 -9t56 -24.5t48.5 -36.5t38 -46l18 116zM505 710q0 28 -8.5 54t-24.5 45.5t-39.5 31t-53.5 11.5q-36 0 -61 -22t-41.5 -56.5t-26.5 -77t-15 -85t-6.5 -79.5t-1.5 -60q0 -25 1.5 -57.5t6.5 -67.5t15 -69t26.5 -60.5t41.5 -43t61 -16.5q28 0 50.5 19t39 46
t25.5 57.5t9 53.5q2 95 2 188.5v187.5z" />
    <glyph glyph-name="r" unicode="r" horiz-adv-x="599" 
d="M569 800q-38 -8 -74 -27t-64 -46.5t-45 -63t-17 -77.5q0 -100 -1 -198t-3 -198l146 -6v-180l-488 -10l14 190l132 6l14 644l-106 -4l-6 184l268 26v-138q21 17 49 37t59 38t62.5 32.5t59.5 20.5v-230z" />
    <glyph glyph-name="s" unicode="s" horiz-adv-x="694" 
d="M637 232q0 -56 -21.5 -102.5t-58.5 -81t-85.5 -53.5t-102.5 -19q-50 0 -91 27t-71 63l-22 -86l-126 10l10 332l192 -2q-2 -12 -3 -25t-1 -25q0 -24 6 -46.5t18 -40.5t31.5 -28.5t46.5 -10.5q19 0 35.5 9.5t28 24.5t18 33t6.5 35q0 43 -19.5 76.5t-49.5 60.5t-66 48.5
t-69 38.5q-54 28 -89.5 59t-56.5 68.5t-29.5 83.5t-8.5 105q0 55 21.5 102t58.5 81.5t85.5 53.5t102.5 19q50 0 91 -27t71 -63l22 86l126 -10l-10 -332l-192 2q2 12 3 25t1 25q0 24 -6 46.5t-18 40.5t-31.5 28.5t-46.5 10.5q-19 0 -35 -9.5t-28 -24.5t-18.5 -33t-6.5 -35
q0 -44 18.5 -78t47 -61t64 -48.5t70.5 -38.5q52 -27 87.5 -58t58 -69t32.5 -84t10 -103z" />
    <glyph glyph-name="t" unicode="t" horiz-adv-x="610" 
d="M566 1018l-4 -180h-176q-3 -134 -5.5 -268t-2.5 -270q0 -32 12.5 -56t33.5 -40.5t48 -25t56 -8.5h17t17 2v-178q-48 -12 -98 -12q-65 0 -117 23.5t-88 64t-55.5 94.5t-19.5 116q0 140 2.5 279t5.5 279h-152v180h156l12 348h190l-8 -348h176z" />
    <glyph glyph-name="u" unicode="u" horiz-adv-x="863" 
d="M862 160l-4 -170l-288 -10l-6 162q-20 -30 -47.5 -57.5t-60 -48.5t-69 -33.5t-73.5 -12.5q-46 0 -78 15t-54 41t-35 59.5t-20 71t-9 76t-2 73.5q0 136 3.5 271.5t6.5 272.5l-102 10l20 160l258 -14q-5 -180 -9.5 -356t-4.5 -356q0 -23 5 -48t16.5 -45.5t30.5 -33.5
t48 -13q44 0 74.5 24.5t49.5 60.5t27.5 78t10.5 77q6 110 7 220t3 220h-88l-10 162l270 4l-16 -850z" />
    <glyph glyph-name="v" unicode="v" horiz-adv-x="794" 
d="M791 848l-96 -6l-190 -844l-226 -6l-190 880h-92l10 170l336 -4l4 -162l-88 -8l138 -676l146 666l-88 10l-10 160l346 4v-184z" />
    <glyph glyph-name="w" unicode="w" horiz-adv-x="1052" 
d="M1045 868l-76 -6l-130 -874l-226 -6l-80 696l-82 -680l-226 -6l-130 870h-92l10 170l316 -4l4 -162l-68 -8l78 -666l94 676h-40l10 160h256l12 -160h-42l98 -676l86 676h-78l10 160l286 4z" />
    <glyph glyph-name="x" unicode="x" horiz-adv-x="835" 
d="M811 130l-4 -156l-356 4v166l82 6l-116 200l-112 -190l82 -6v-164l-356 -6l-4 156l96 10l204 354l-204 354l-96 10l4 164l356 -4v-164l-82 -6l114 -198l114 198l-82 6v164l356 4l4 -164l-94 -10l-210 -354l210 -364z" />
    <glyph glyph-name="y" unicode="y" horiz-adv-x="790" 
d="M787 848l-96 -6l-238 -1080l82 -4v-166l-344 -4l-6 156l96 10l56 240l-252 878h-92l10 170l336 -4l4 -162l-88 -8l158 -604l116 594l-78 10l-10 160l346 4v-184z" />
    <glyph glyph-name="z" unicode="z" horiz-adv-x="706" 
d="M649 288l-4 -284l-584 -4v164l392 694l-238 -4v-120h-158l-6 298l594 -4v-164l-392 -704l238 4l2 132z" />
    <glyph glyph-name="braceleft" unicode="{" horiz-adv-x="564" 
d="M580 1488q-68 -12 -110.5 -42.5t-66.5 -74t-32.5 -96.5t-8.5 -111q0 -35 -2.5 -78t-9.5 -87.5t-20 -89t-33.5 -82.5t-49.5 -67.5t-69 -43.5q54 -26 89.5 -66t57 -89.5t32 -105t15 -113t4.5 -114.5t2 -108q1 -37 14 -68t36 -54t54 -37t68 -15l-40 -180q-64 11 -120 41.5
t-98 75.5t-67 103t-27 124q-2 52 -0.5 106.5t-0.5 107.5t-11.5 102.5t-32.5 90.5t-63 72.5t-104 48.5v158q48 1 81.5 20t56 49.5t35.5 70t19.5 81.5t8 83.5t1.5 75.5q0 88 23.5 167.5t69.5 144.5t113.5 111.5t155.5 68.5z" />
    <glyph glyph-name="bar" unicode="|" horiz-adv-x="375" 
d="M99 -206v1822h182l-10 -1822h-172z" />
    <glyph glyph-name="braceright" unicode="}" horiz-adv-x="564" 
d="M578 638q-64 -17 -104 -48.5t-63 -72.5t-32.5 -90.5t-11.5 -102.5t-1 -107.5t0 -106.5q-2 -66 -27.5 -124t-67.5 -103t-97.5 -75.5t-119.5 -41.5l-40 180q54 2 87.5 22.5t53 52.5t27 73t9.5 85t1 87.5t2 79.5q4 58 13 113t29.5 103t56 87t93.5 67q-60 22 -96.5 75
t-56 118.5t-25.5 133.5t-6 121q0 58 -9 111t-33 96.5t-66.5 74t-109.5 42.5l30 180q103 -26 172.5 -79t111.5 -125t60 -159.5t18 -184.5q0 -32 3.5 -68t12.5 -72t24 -68.5t37.5 -58t53 -41t71.5 -16.5v-158z" />
    <glyph glyph-name="asciitilde" unicode="~" horiz-adv-x="940" 
d="M906 762q-22 -24 -52.5 -50.5t-65.5 -48.5t-72.5 -36.5t-71.5 -14.5q-47 0 -90.5 19.5t-84 42.5t-80 42.5t-79.5 19.5q-21 0 -49.5 -16t-57 -37.5t-52.5 -43.5t-37 -35l-70 168q22 23 54.5 49.5t68.5 49t74 37t73 14.5q46 0 85 -19.5t77 -42.5t78 -42.5t90 -19.5
q25 0 52 8t52.5 21t48 29.5t39.5 33.5z" />
    <glyph glyph-name="nonbreakingspace" unicode="&#xa0;" horiz-adv-x="360" 
 />
    <glyph glyph-name="exclamdown" unicode="&#xa1;" horiz-adv-x="413" 
d="M84 -172l50 1146l130 10l72 -1146zM78 1166q0 26 10 49.5t27 41t40 27.5t49 10t49.5 -10t41 -27.5t27.5 -41t10 -49.5t-10 -49t-27.5 -40t-41 -27t-49.5 -10t-49 10t-40 27t-27 40t-10 49z" />
    <glyph glyph-name="cent" unicode="&#xa2;" horiz-adv-x="854" 
d="M484 214l14 -262h-162l18 266q-82 17 -138.5 69t-92 122t-51.5 150.5t-16 154.5q0 81 14 162.5t48 150.5t91 118.5t143 66.5l-16 274h162l-16 -270q57 -9 98 -42.5t74 -87.5v132l140 -2l-18 -408l-124 4q-8 42 -22 88t-38.5 85t-60.5 64t-87 25t-88 -16t-63 -43
t-42.5 -62.5t-26 -75t-13 -80t-3.5 -77.5q0 -35 3.5 -75t12 -80t24.5 -77t40.5 -65.5t60 -45.5t83.5 -17q59 0 99 22.5t64.5 60t36.5 84.5t16 97h124q0 -75 -17 -144t-52 -124.5t-89.5 -93t-129.5 -48.5z" />
    <glyph glyph-name="sterling" unicode="&#xa3;" horiz-adv-x="804" 
d="M467 698l-10 -120l-134 -4q-2 -35 -13.5 -75t-24.5 -74q-15 -40 -34 -79l332 -6l8 182l134 -8l-8 -328l-630 8l-8 156l36 -4q16 38 29 77q11 33 22 72.5t15 74.5l-96 -2l-6 126h82q-11 25 -25.5 48.5t-27 48t-21 52t-8.5 61.5q0 70 16.5 132t51.5 108.5t89.5 74
t130.5 27.5q43 0 74 -8.5t55 -25t44 -42.5t41 -60l2 132l140 -4l-18 -406l-126 4q-7 43 -19 91t-34.5 87.5t-58.5 65.5t-90 26q-42 0 -70 -22.5t-45 -56.5t-24 -73.5t-7 -73.5q0 -30 7.5 -53.5t18 -44.5t22.5 -41.5t22 -44.5z" />
    <glyph glyph-name="currency" unicode="&#xa4;" horiz-adv-x="587" 
d="M292 816q-28 0 -50 -11t-37 -29.5t-23 -43t-8 -50.5q0 -54 35.5 -85t88.5 -31q29 0 51.5 10.5t37.5 28.5t23 42t8 51q0 56 -36 87t-90 31zM587 527l-134 -120l-59 63q-42 -18 -92 -18q-52 0 -95 18l-69 -72l-134 128l71 72q-17 42 -17 88q0 49 17 92l-75 74l128 134
l76 -76q21 8 43.5 13t46.5 5q23 0 45.5 -4t43.5 -12l73 74l122 -134l-63 -65q19 -46 19 -97q0 -24 -4 -46t-12 -43z" />
    <glyph glyph-name="yen" unicode="&#xa5;" horiz-adv-x="890" 
d="M699 778l-8 -128l-156 -2l-28 -64l192 2l-8 -128l-186 -2l-2 -98l114 4l-8 -144l-330 -8l-6 148h94v94l-166 -2l-4 132l170 2l-24 60l-142 -2l-4 132l86 2l-130 282l-100 -4l8 156h326l12 -144l-94 -8l136 -336l150 336l-98 -4l8 156l324 8l12 -152l-100 -8l-138 -282z
" />
    <glyph glyph-name="brokenbar" unicode="&#xa6;" horiz-adv-x="386" 
d="M103 834v782h182l-4 -782h-178zM103 -206v802h176l-4 -802h-172z" />
    <glyph glyph-name="section" unicode="&#xa7;" horiz-adv-x="939" 
d="M872 210q0 -82 -20.5 -153.5t-62.5 -125t-106.5 -84.5t-152.5 -31q-53 0 -95 10t-76.5 31t-64 53t-56.5 76l-2 -154l-176 22l32 460l148 -6q9 -54 28 -111.5t50.5 -105.5t78 -78.5t111.5 -30.5q52 0 87.5 17t57.5 47t31.5 70.5t9.5 87.5q0 55 -17.5 97.5t-48.5 75.5
t-72.5 56.5t-89.5 40.5q-30 11 -59.5 20.5t-58.5 21.5q-52 22 -89 50.5t-61.5 66t-38.5 83.5t-19 102v26q0 35 5.5 70t16.5 68q-53 57 -73.5 121t-20.5 141q0 82 25 151.5t72 120t114 78.5t151 28q53 0 91.5 -10t68.5 -31t55 -52.5t51 -74.5l2 164l174 -4l-22 -508l-156 6
q-7 37 -16 76.5t-22 76.5t-32.5 70.5t-45.5 58.5t-61.5 39.5t-80.5 14.5q-46 0 -79.5 -18t-55.5 -48t-32.5 -68.5t-10.5 -79.5q0 -58 19 -99t51.5 -70.5t75.5 -50.5t92 -38q76 -27 136.5 -61t102.5 -81.5t64.5 -111.5t22.5 -150q0 -33 -6.5 -66.5t-17.5 -65.5
q38 -50 56 -108.5t18 -121.5zM644 578q0 55 -11.5 93t-32.5 64t-50.5 43t-64.5 30.5t-74 26.5t-79 31q-2 -11 -2 -21v-21q0 -39 13.5 -69t36 -52.5t52.5 -39t64 -29.5q39 -14 76 -29t72 -35v8z" />
    <glyph glyph-name="dieresis" unicode="&#xa8;" horiz-adv-x="482" 
d="M482 1242q0 -39 -26.5 -65.5t-65.5 -26.5t-64.5 27t-25.5 65q0 39 26.5 66.5t65.5 27.5t64.5 -27.5t25.5 -66.5zM202 1242q0 -44 -29 -74t-73 -30q-21 0 -39.5 8.5t-32 23t-21 33.5t-7.5 39q0 44 30 74t74 30q22 0 40 -8.5t31 -22.5t20 -33t7 -40z" />
    <glyph glyph-name="copyright" unicode="&#xa9;" horiz-adv-x="1181" 
d="M1118 704q0 -56 -10 -120t-34 -128.5t-63.5 -124t-98.5 -105t-139 -73t-185 -27.5q-109 0 -190 27.5t-139.5 73t-96 104.5t-59.5 123.5t-30.5 129t-8.5 120.5q0 59 9 126t32.5 132t63.5 124.5t101.5 104.5t147.5 72t200 27q99 0 175 -29.5t131.5 -78t92.5 -110.5
t59.5 -127t32 -128t9.5 -113zM1020 700q0 35 -6.5 84.5t-24 103.5t-47.5 107.5t-76.5 95.5t-112 68.5t-153.5 26.5q-95 0 -164 -25.5t-117 -67t-77.5 -94t-46 -106.5t-22 -105t-5.5 -88q0 -36 5.5 -85t21.5 -101.5t45 -103.5t76 -91.5t114.5 -65.5t159.5 -25
q84 0 148.5 25.5t112.5 66.5t80 93t52 104.5t28.5 100.5t8.5 82zM826 1046l-12 -246l-88 4q-5 25 -14.5 52.5t-27 50.5t-43 38t-61.5 15q-53 0 -85 -28.5t-49.5 -69t-23.5 -85t-6 -77.5q0 -32 5.5 -77t22 -86.5t47.5 -71t81 -29.5q41 0 69 15.5t45 39.5t25.5 54t10.5 59h88
q0 -49 -14 -95.5t-43.5 -82.5t-75 -58t-107.5 -22q-73 0 -122.5 36.5t-80 90t-44 114t-13.5 109.5q0 55 12 116.5t42 114t81.5 87t130.5 34.5q53 0 89 -21t63 -59v78h98z" />
    <glyph glyph-name="ordfeminine" unicode="&#xaa;" horiz-adv-x="612" 
d="M530 810l-148 -14l-6 58q-29 -23 -66.5 -39.5t-75.5 -16.5q-42 0 -70.5 15.5t-45.5 41t-24.5 56.5t-7.5 63q0 42 15 76.5t42 58.5t64.5 37.5t82.5 13.5q28 0 58 -6v24q0 7 -0.5 27t-3.5 41.5t-10.5 38.5t-21.5 17q-17 0 -31.5 -15.5t-26.5 -36.5t-20 -43t-12 -35l-126 6
l-4 234l126 2v-54q17 24 42 42t58 18q52 0 83 -15t47.5 -40.5t22 -61t5.5 -75.5q0 -77 -1 -154t-9 -152h68zM350 1034q-6 6 -20 9t-26 3q-44 0 -68 -18.5t-24 -59.5q0 -24 13 -40t39 -16q9 0 23.5 2t28.5 6.5t24 12.5t10 19v82zM534 678l-10 -140l-432 -10l-6 146z" />
    <glyph glyph-name="guillemotleft" unicode="&#xab;" horiz-adv-x="1244" 
d="M650 262l-68 -160l-558 318l-12 128l570 336l68 -160l-454 -236zM1190 262l-68 -160l-558 318l-12 128l570 336l68 -160l-454 -236z" />
    <glyph glyph-name="logicalnot" unicode="&#xac;" horiz-adv-x="789" 
d="M532 656l-460 -8l-6 186l628 4v-418h-170z" />
    <glyph glyph-name="sfthyphen" unicode="&#xad;" horiz-adv-x="767" 
d="M699 838l-10 -180l-612 -10l-6 186z" />
    <glyph glyph-name="registered" unicode="&#xae;" horiz-adv-x="1181" 
d="M1118 704q0 -56 -10 -120t-34 -128.5t-63.5 -124t-98.5 -105t-139 -73t-185 -27.5q-109 0 -190 27.5t-139.5 73t-96 104.5t-59.5 123.5t-30.5 129t-8.5 120.5q0 59 9 126t32.5 132t63.5 124.5t101.5 104.5t147.5 72t200 27q99 0 175 -29.5t131.5 -78t92.5 -110.5
t59.5 -127t32 -128t9.5 -113zM1020 700q0 35 -6.5 84.5t-24 103.5t-47.5 107.5t-76.5 95.5t-112 68.5t-153.5 26.5q-95 0 -164 -25.5t-117 -67t-77.5 -94t-46 -106.5t-22 -105t-5.5 -88q0 -36 5.5 -85t21.5 -101.5t45 -103.5t76 -91.5t114.5 -65.5t159.5 -25
q84 0 148.5 25.5t112.5 66.5t80 93t52 104.5t28.5 100.5t8.5 82zM848 456l-4 -92l-204 -14l-14 88h44l-76 226h-76l-4 -224l68 2l-6 -92h-214l-8 90h66l-2 512l-64 -2l-4 94q62 2 124.5 3t125.5 1q50 0 94 -12t77 -35.5t52 -59t19 -81.5q0 -31 -10 -61.5t-29.5 -56
t-48.5 -43.5t-66 -25l82 -220zM738 856q0 50 -37 76t-91 26h-40h-25t-25 -2l-2 -210q8 -2 14 -2h14q37 0 71.5 3t61.5 14t43 33.5t16 61.5z" />
    <glyph glyph-name="macron" unicode="&#xaf;" horiz-adv-x="412" 
d="M412 1256l-412 10l10 124h392z" />
    <glyph glyph-name="degree" unicode="&#xb0;" horiz-adv-x="536" 
d="M274 942q-50 0 -94 17.5t-77.5 49t-53 74.5t-19.5 93t18 94t49.5 77t75 52t93.5 19q51 0 95 -18t76 -49.5t50.5 -75t18.5 -95.5q0 -50 -17.5 -93t-49 -75.5t-74 -51t-91.5 -18.5zM264 1306q-28 0 -50 -11t-37 -29.5t-23 -43t-8 -50.5q0 -54 35.5 -85t88.5 -31
q29 0 51.5 10.5t37.5 28.5t23 42t8 51q0 56 -36 87t-90 31z" />
    <glyph glyph-name="plusminus" unicode="&#xb1;" horiz-adv-x="778" 
d="M708 838l-10 -180l-198 -4l4 -228l-186 -6v232l-232 -4l-6 186h236l-2 214l180 -10l4 -202zM700 298l-10 -180l-612 -10l-6 186z" />
    <glyph glyph-name="twosuperior" unicode="&#xb2;" horiz-adv-x="690" 
d="M628 1208q0 -56 -16.5 -97.5t-43.5 -74.5t-62 -58.5t-72 -47.5q-36 -21 -72 -41.5t-68 -46.5q-29 -24 -48.5 -51.5t-27.5 -62.5l268 -6l6 118l122 -6l-8 -238l-532 6q0 83 18 143.5t47 104t66.5 74.5t76.5 56q35 21 72.5 42.5t69.5 47.5q29 24 45.5 53t16.5 71
q0 27 -4.5 53t-18 47t-37 33.5t-60.5 12.5q-45 0 -77 -16t-53 -43t-31.5 -61t-12.5 -70l-120 -4l-16 316l134 2v-88q36 45 82 64.5t112 19.5q64 0 110 -21t76 -56t44 -80.5t14 -94.5z" />
    <glyph glyph-name="threesuperior" unicode="&#xb3;" horiz-adv-x="678" 
d="M622 818q0 -122 -71.5 -180t-210.5 -58q-64 0 -115 20t-87 55t-55 82t-19 101v22t2 26l126 -4q0 -38 9 -73t28.5 -62.5t51.5 -44t79 -16.5q69 0 97.5 33t28.5 89q0 28 -13.5 56t-36 50.5t-53.5 37t-65 14.5h-68v106h68q36 0 66 12.5t51 33.5t33 48t12 56q0 24 -7 46.5
t-22 39.5t-37.5 27.5t-53.5 10.5q-47 0 -77.5 -18.5t-50 -48t-30.5 -65.5t-18 -70l-120 -4l-16 316l134 2v-88q17 22 34 39t38 28.5t47.5 17t62.5 5.5q60 0 108 -17t81 -48t51 -73.5t18 -93.5q0 -72 -38.5 -126t-115.5 -80q34 -14 62 -34.5t48.5 -47t32 -57.5t11.5 -65z" />
    <glyph glyph-name="acute" unicode="&#xb4;" horiz-adv-x="316" 
d="M316 1344l-222 -232l-94 30l130 252z" />
    <glyph glyph-name="mu" unicode="&#xb5;" horiz-adv-x="957" 
d="M288 -18l-64 -480l-170 -8q45 344 89.5 683t94.5 683l-102 6l40 162l258 -6q-27 -180 -55 -357t-49 -357q-2 -8 -2 -15v-15q0 -21 4 -40.5t14 -34.5t26 -24t40 -9q43 0 76.5 25.5t57.5 63t38.5 81t21.5 78.5q20 110 34.5 221t29.5 221l-88 -2l10 160l270 16l-122 -854
l146 -6l-26 -170l-290 -22l16 162q-26 -32 -59.5 -63t-72.5 -54t-81 -36t-85 -9z" />
    <glyph glyph-name="paragraph" unicode="&#xb6;" horiz-adv-x="1218" 
d="M1139 188l-12 -180h-362l-4 186h76v1042q-93 6 -182 6l-2 -1048h68l-6 -186h-362v180l130 6l-4 390q-101 9 -180.5 39t-135 83t-85 131t-29.5 183q0 95 35 172.5t95.5 132.5t141 85t172.5 30q107 0 212 -4t212 -4q50 0 100 2t100 2l16 -190l-116 -10l-10 -1042zM477 752
l-4 500q-50 0 -93.5 -18.5t-75.5 -50.5t-50.5 -76t-18.5 -95q0 -56 16 -103t47 -81.5t76 -54.5t103 -21z" />
    <glyph glyph-name="periodcentered" unicode="&#xb7;" horiz-adv-x="370" 
d="M312 714q0 -26 -10 -49t-27.5 -40t-41 -27t-49.5 -10t-49 10t-40 27t-27 40t-10 49t10 49.5t27 41t40 27.5t49 10t49.5 -10t41 -27.5t27.5 -41t10 -49.5z" />
    <glyph glyph-name="cedilla" unicode="&#xb8;" horiz-adv-x="298" 
d="M298 -208q0 -35 -13.5 -62.5t-36 -46.5t-52 -29t-62.5 -10q-15 0 -33.5 2t-37 6.5t-35.5 11.5t-28 18l48 88q12 -9 33.5 -18.5t38.5 -9.5q29 0 46.5 11t17.5 41q0 19 -9 32.5t-23 22t-30.5 12.5t-31.5 3h-8l36 182l110 -20l-50 -98q28 0 50 -11.5t37.5 -30.5t24 -43.5
t8.5 -50.5z" />
    <glyph glyph-name="onesuperior" unicode="&#xb9;" horiz-adv-x="444" 
d="M404 714l-8 -118l-334 -6l-4 122h104v604l-110 -2l8 126l236 -6l-4 -722z" />
    <glyph glyph-name="ordmasculine" unicode="&#xba;" horiz-adv-x="582" 
d="M286 792q-63 0 -103 31.5t-62.5 77.5t-30.5 98t-8 93q0 28 4 64.5t13 74.5t25 74t40.5 64t57.5 45.5t78 17.5q41 0 72 -15t53.5 -39.5t38 -56t24.5 -65t12.5 -66.5t3.5 -60q0 -28 -4 -64t-13.5 -73.5t-25.5 -73.5t-40 -64t-57.5 -45.5t-77.5 -17.5zM302 1318
q-23 0 -39 -13t-27 -33.5t-17.5 -46.5t-9.5 -51t-4 -47.5t-1 -36.5q0 -17 2.5 -47.5t10.5 -60.5t24 -52t43 -22q34 0 54 27t29.5 64t12 75t2.5 60q0 18 -2 49t-9.5 61t-24 52t-44.5 22zM504 678l-10 -140l-406 -10l-6 146z" />
    <glyph glyph-name="guillemotright" unicode="&#xbb;" horiz-adv-x="1224" 
d="M692 548l-12 -128l-558 -318l-68 160l454 226l-454 236l68 160zM1212 548l-12 -128l-558 -318l-68 160l454 226l-454 236l68 160z" />
    <glyph glyph-name="onequarter" unicode="&#xbc;" horiz-adv-x="1261" 
d="M1008 1440l-686 -1460l-112 20l676 1460zM416 714l-8 -118l-334 -6l-4 122h104l-2 604l-108 -2l8 126l234 -6l-4 -722zM1212 364l-8 -118h-116l-2 -124l100 2l-8 -118l-298 -6l-4 120h82v124l-330 -4l-4 118l298 492h172l-4 -486h122zM956 364v328l-198 -330z" />
    <glyph glyph-name="onehalf" unicode="&#xbd;" horiz-adv-x="1423" 
d="M1001 1440l-686 -1460l-112 20l676 1460zM409 714l-8 -118l-334 -6l-4 122h104l-2 604l-108 -2l8 126l234 -6l-4 -722zM1369 608q0 -56 -16.5 -97.5t-44 -74.5t-63 -58.5t-72.5 -47.5q-35 -21 -70.5 -41.5t-67.5 -46.5q-29 -24 -48.5 -51.5t-27.5 -62.5l266 -6l8 118
l120 -6l-6 -238l-534 6q0 83 18 143.5t48 104t67.5 74.5t76.5 56q35 21 72.5 42.5t69.5 47.5q29 24 45.5 53t16.5 71q0 27 -4.5 53t-18 47t-37 33.5t-60.5 12.5q-45 0 -77 -16t-53 -43t-31.5 -61t-12.5 -70l-120 -4l-16 316l134 2v-88q36 45 82 64.5t112 19.5q64 0 110 -21
t76 -56t44 -80.5t14 -94.5z" />
    <glyph glyph-name="threequarters" unicode="&#xbe;" horiz-adv-x="1440" 
d="M1188 1440l-686 -1460l-114 20l678 1460zM1390 364l-8 -118h-114l-2 -124l98 2l-8 -118l-298 -6l-4 120h82v124l-328 -4l-4 118l296 492h174l-6 -486h122zM1136 364v328l-200 -330zM632 818q0 -122 -72 -180t-212 -58q-64 0 -115 20t-87 55t-55 82t-19 101q0 11 1 22
t3 26l126 -4q0 -38 9 -73t28.5 -62.5t51.5 -44t79 -16.5q69 0 97.5 33t28.5 89q0 28 -13.5 56t-36.5 50.5t-53.5 37t-64.5 14.5h-68v106h66q37 0 67 12.5t51 33.5t32.5 48t11.5 56q0 24 -7 46.5t-22 39.5t-37 27.5t-52 10.5q-47 0 -77.5 -18.5t-50 -48t-30.5 -65.5t-18 -70
l-120 -4l-16 316l134 2v-88q17 22 34 39t38 28.5t47 17t61 5.5q60 0 108 -17t82 -48t52 -73.5t18 -93.5q0 -72 -39.5 -126t-116.5 -80q34 -14 63 -34.5t49.5 -47t32 -57.5t11.5 -65z" />
    <glyph glyph-name="questiondown" unicode="&#xbf;" horiz-adv-x="909" 
d="M54 254q0 87 20.5 171.5t64 155.5t109.5 122.5t158 72.5l30 200h116l30 -352h-98q-59 0 -104 -35t-75 -86.5t-45.5 -110.5t-15.5 -108q0 -41 8.5 -90.5t29.5 -92t56 -71t88 -28.5q67 0 112 32t73.5 81.5t44 109t24.5 113.5l158 6l22 -508l-176 -4l-2 164
q-27 -44 -52 -75.5t-55 -52t-68.5 -30.5t-92.5 -10q-95 0 -163 33.5t-111.5 91.5t-64.5 135.5t-21 165.5zM372 1154q0 26 10 49.5t27 41t40 27.5t49 10t49.5 -10t41 -27.5t27.5 -41t10 -49.5t-10 -49t-27.5 -40t-41 -27t-49.5 -10t-49 10t-40 27t-27 40t-10 49z" />
    <glyph glyph-name="Agrave" unicode="&#xc0;" horiz-adv-x="960" 
d="M973 162l-14 -190l-406 10l-10 194l124 -4l-52 292l-264 -12l-42 -260l116 -10l-16 -180h-406l-10 194l124 -4l218 1068l-102 -4l-10 170l510 10l-10 -160l-100 -4l226 -1100zM587 620l-108 614l-100 -614h208zM541 1512l-92 -30l-224 232l186 50z" />
    <glyph glyph-name="Aacute" unicode="&#xc1;" horiz-adv-x="960" 
d="M973 162l-14 -190l-406 10l-10 194l124 -4l-52 292l-264 -12l-42 -260l116 -10l-16 -180h-406l-10 194l124 -4l218 1068l-102 -4l-10 170l510 10l-10 -160l-100 -4l226 -1100zM587 620l-108 614l-100 -614h208zM761 1714l-222 -232l-94 30l130 252z" />
    <glyph glyph-name="Acircumflex" unicode="&#xc2;" horiz-adv-x="960" 
d="M973 162l-14 -190l-406 10l-10 194l124 -4l-52 292l-264 -12l-42 -260l116 -10l-16 -180h-406l-10 194l124 -4l218 1068l-102 -4l-10 170l510 10l-10 -160l-100 -4l226 -1100zM587 620l-108 614l-100 -614h208zM713 1532l-142 -30l-92 174l-88 -174l-140 30l162 242
l136 10z" />
    <glyph glyph-name="Atilde" unicode="&#xc3;" horiz-adv-x="960" 
d="M973 162l-14 -190l-406 10l-10 194l124 -4l-52 292l-264 -12l-42 -260l116 -10l-16 -180h-406l-10 194l124 -4l218 1068l-102 -4l-10 170l510 10l-10 -160l-100 -4l226 -1100zM587 620l-108 614l-100 -614h208zM725 1564q-14 -12 -31.5 -24t-37 -22t-40 -16t-39.5 -6
q-26 0 -50.5 13t-47.5 28t-45.5 28t-44.5 13q-12 0 -28 -10.5t-32 -25t-29.5 -29.5t-20.5 -23l-40 120q12 14 29.5 31t38 31.5t42.5 24t42 9.5q26 0 48 -12.5t43.5 -27.5t44 -27.5t50.5 -12.5q30 0 60 19.5t48 40.5z" />
    <glyph glyph-name="Adieresis" unicode="&#xc4;" horiz-adv-x="960" 
d="M973 162l-14 -190l-406 10l-10 194l124 -4l-52 292l-264 -12l-42 -260l116 -10l-16 -180h-406l-10 194l124 -4l218 1068l-102 -4l-10 170l510 10l-10 -160l-100 -4l226 -1100zM587 620l-108 614l-100 -614h208zM723 1592q0 -39 -26.5 -65.5t-65.5 -26.5t-64.5 27
t-25.5 65q0 39 26.5 66.5t65.5 27.5t64.5 -27.5t25.5 -66.5zM443 1592q0 -44 -29 -74t-73 -30q-21 0 -39.5 8.5t-32 23t-21 33.5t-7.5 39q0 44 30 74t74 30q22 0 40 -8.5t31 -22.5t20 -33t7 -40z" />
    <glyph glyph-name="Aring" unicode="&#xc5;" horiz-adv-x="960" 
d="M973 162l-14 -190l-406 10l-10 194l124 -4l-52 292l-264 -12l-42 -260l116 -10l-16 -180h-406l-10 194l124 -4l218 1068l-102 -4l-10 170l510 10l-10 -160l-100 -4l226 -1100zM587 620l-108 614l-100 -614h208zM665 1650q0 -38 -13.5 -71t-37.5 -57.5t-56.5 -39
t-70.5 -14.5t-71.5 14t-59 38t-40.5 57t-15 71t14 71.5t38 58.5t57 39.5t71 14.5q39 0 72.5 -13.5t58.5 -37.5t39 -57.5t14 -73.5zM571 1658q0 39 -25.5 62.5t-64.5 23.5q-21 0 -37 -8.5t-27 -22t-16.5 -31t-5.5 -36.5q0 -39 25.5 -62.5t64.5 -23.5q42 0 64 28.5t22 69.5z
" />
    <glyph glyph-name="AE" unicode="&#xc6;" horiz-adv-x="1416" 
d="M654 464l-266 -12l-86 -260l112 -10l-6 -180h-446l4 194l144 -4l402 1068l-100 -4v170h944l10 -388l-148 -10l-20 206l-364 -8l-4 -446h304v-144l-306 -18l-4 -446l374 14v220h148l10 -398l-814 -20l-6 184h118v292zM652 1226h-2l-204 -606h208v210v131v79t-0.5 53t-1 53
t-0.5 80z" />
    <glyph glyph-name="Ccedilla" unicode="&#xc7;" horiz-adv-x="1033" 
d="M669 -208q0 -35 -13.5 -62.5t-36 -46.5t-52 -29t-62.5 -10q-15 0 -33.5 2t-37 6.5t-35.5 11.5t-28 18l48 88q12 -9 33.5 -18.5t38.5 -9.5q29 0 46.5 11t17.5 41q0 19 -9 32.5t-23 22t-30.5 12.5t-31.5 3h-8l24 128q-77 9 -138 48t-107.5 98t-79 132.5t-53.5 151
t-30.5 154t-9.5 140.5q0 76 9.5 160t31 165.5t57 155.5t88.5 130t125 89.5t165 33.5q94 0 158 -44t112 -122l2 164l176 -4l-22 -510l-158 6q-6 35 -15.5 73t-24 74t-34.5 68.5t-47 57t-61 39t-76 14.5q-63 0 -109.5 -27t-79.5 -72t-54.5 -102.5t-33.5 -117.5t-16.5 -118.5
t-4.5 -104.5q0 -43 4 -100.5t15.5 -118.5t31.5 -120.5t51.5 -106t75.5 -75.5t104 -29q73 0 122.5 32t80.5 82.5t45.5 113t19.5 124.5h158q0 -96 -22.5 -187t-68.5 -164.5t-116.5 -122.5t-166.5 -60l-32 -64q28 0 50 -11.5t37.5 -30.5t24 -43.5t8.5 -50.5z" />
    <glyph glyph-name="Egrave" unicode="&#xc8;" horiz-adv-x="953" 
d="M903 1038l-148 -10l-20 206l-364 -8l-4 -446h304v-144l-306 -18l-4 -446l374 14v220h148l10 -398l-814 -20l-6 184h118l-2 1054l-124 -4l10 194l818 10zM541 1512l-92 -30l-224 232l186 50z" />
    <glyph glyph-name="Eacute" unicode="&#xc9;" horiz-adv-x="953" 
d="M903 1038l-148 -10l-20 206l-364 -8l-4 -446h304v-144l-306 -18l-4 -446l374 14v220h148l10 -398l-814 -20l-6 184h118l-2 1054l-124 -4l10 194l818 10zM741 1714l-222 -232l-94 30l130 252z" />
    <glyph glyph-name="Ecircumflex" unicode="&#xca;" horiz-adv-x="953" 
d="M903 1038l-148 -10l-20 206l-364 -8l-4 -446h304v-144l-306 -18l-4 -446l374 14v220h148l10 -398l-814 -20l-6 184h118l-2 1054l-124 -4l10 194l818 10zM715 1532l-142 -30l-92 174l-88 -174l-140 30l162 242l136 10z" />
    <glyph glyph-name="Edieresis" unicode="&#xcb;" horiz-adv-x="953" 
d="M903 1038l-148 -10l-20 206l-364 -8l-4 -446h304v-144l-306 -18l-4 -446l374 14v220h148l10 -398l-814 -20l-6 184h118l-2 1054l-124 -4l10 194l818 10zM725 1592q0 -39 -26.5 -65.5t-65.5 -26.5t-64.5 27t-25.5 65q0 39 26.5 66.5t65.5 27.5t64.5 -27.5t25.5 -66.5z
M445 1592q0 -44 -29 -74t-73 -30q-21 0 -39.5 8.5t-32 23t-21 33.5t-7.5 39q0 44 30 74t74 30q22 0 40 -8.5t31 -22.5t20 -33t7 -40z" />
    <glyph glyph-name="Igrave" unicode="&#xcc;" horiz-adv-x="555" 
d="M501 198l-10 -180l-412 -10l-6 186h118l-2 1022l-124 -4l10 194h396l16 -180l-116 -10l-10 -1022zM321 1492l-92 -30l-224 232l186 50z" />
    <glyph glyph-name="Iacute" unicode="&#xcd;" horiz-adv-x="555" 
d="M501 198l-10 -180l-412 -10l-6 186h118l-2 1022l-124 -4l10 194h396l16 -180l-116 -10l-10 -1022zM561 1694l-222 -232l-94 30l130 252z" />
    <glyph glyph-name="Icircumflex" unicode="&#xce;" horiz-adv-x="555" 
d="M501 198l-10 -180l-412 -10l-6 186h118l-2 1022l-124 -4l10 194h396l16 -180l-116 -10l-10 -1022zM515 1492l-142 -30l-92 174l-88 -174l-140 30l162 242l136 10z" />
    <glyph glyph-name="Idieresis" unicode="&#xcf;" horiz-adv-x="555" 
d="M501 198l-10 -180l-412 -10l-6 186h118l-2 1022l-124 -4l10 194h396l16 -180l-116 -10l-10 -1022zM525 1572q0 -39 -26.5 -65.5t-65.5 -26.5t-64.5 27t-25.5 65q0 39 26.5 66.5t65.5 27.5t64.5 -27.5t25.5 -66.5zM245 1572q0 -44 -29 -74t-73 -30q-21 0 -39.5 8.5t-32 23
t-21 33.5t-7.5 39q0 44 30 74t74 30q22 0 40 -8.5t31 -22.5t20 -33t7 -40z" />
    <glyph glyph-name="Eth" unicode="&#xd0;" horiz-adv-x="1029" 
d="M190 570l-110 -2l-6 186h116v472l-114 -4l-10 194q88 6 174.5 8t175.5 2h114q91 0 159 -34t116.5 -91t79.5 -131t49 -154.5t25 -161t7 -150.5q0 -87 -11.5 -181.5t-41 -183t-80 -164.5t-129.5 -127q-48 -32 -103.5 -49t-112.5 -17h-6l-402 6l-6 184h118zM542 758
l-10 -180l-166 -4l-4 -412q20 -2 39 -3t39 -1q53 0 104 6q56 9 95.5 42.5t66 82t41.5 107.5t23 118.5t10 115.5t2 98v18q0 34 -4.5 83.5t-14.5 104.5t-28 109t-44 97.5t-62.5 70.5t-84.5 27h-64h-54t-54 -2l-4 -480z" />
    <glyph glyph-name="Ntilde" unicode="&#xd1;" horiz-adv-x="1167" 
d="M1133 1246l-116 -10l-30 -1244l-174 -4l-450 1088l10 -882l136 4v-180l-428 -10l-6 186h118l-12 1022l-124 -4l10 194h336l424 -1062v892l-126 -4l10 194h408zM837 1564q-14 -12 -31.5 -24t-37 -22t-40 -16t-39.5 -6q-26 0 -50.5 13t-47.5 28t-45.5 28t-44.5 13
q-12 0 -28 -10.5t-32 -25t-29.5 -29.5t-20.5 -23l-40 120q12 14 29.5 31t38 31.5t42.5 24t42 9.5q26 0 48 -12.5t43.5 -27.5t44 -27.5t50.5 -12.5q30 0 60 19.5t48 40.5z" />
    <glyph glyph-name="Ograve" unicode="&#xd2;" 
d="M938 778q0 -81 -5 -173t-21.5 -182t-48 -173.5t-84 -146.5t-129.5 -101t-184 -38q-84 0 -146 30.5t-106.5 81.5t-73.5 118t-46 139.5t-23.5 146.5t-6.5 138q0 81 6 175t24 187t50.5 179t86 152t130.5 105.5t183 39.5q84 0 146.5 -32.5t106 -87t71 -124.5t43.5 -145.5
t21.5 -150t5.5 -138.5zM742 766q0 34 -2 84.5t-9 106t-21 111.5t-38.5 100.5t-61 72t-88.5 27.5q-66 0 -111.5 -35.5t-75.5 -93.5t-47 -130.5t-25 -146.5t-9.5 -142.5t-1.5 -117.5q0 -37 2 -84.5t9.5 -97t22.5 -97t39.5 -84.5t61.5 -60t89 -23q65 0 110 33t74.5 86.5
t46 120.5t24.5 134.5t9.5 129.5t1.5 106zM558 1552l-92 -30l-224 232l186 50z" />
    <glyph glyph-name="Oacute" unicode="&#xd3;" 
d="M938 778q0 -81 -5 -173t-21.5 -182t-48 -173.5t-84 -146.5t-129.5 -101t-184 -38q-84 0 -146 30.5t-106.5 81.5t-73.5 118t-46 139.5t-23.5 146.5t-6.5 138q0 81 6 175t24 187t50.5 179t86 152t130.5 105.5t183 39.5q84 0 146.5 -32.5t106 -87t71 -124.5t43.5 -145.5
t21.5 -150t5.5 -138.5zM742 766q0 34 -2 84.5t-9 106t-21 111.5t-38.5 100.5t-61 72t-88.5 27.5q-66 0 -111.5 -35.5t-75.5 -93.5t-47 -130.5t-25 -146.5t-9.5 -142.5t-1.5 -117.5q0 -37 2 -84.5t9.5 -97t22.5 -97t39.5 -84.5t61.5 -60t89 -23q65 0 110 33t74.5 86.5
t46 120.5t24.5 134.5t9.5 129.5t1.5 106zM818 1754l-222 -232l-94 30l130 252z" />
    <glyph glyph-name="Ocircumflex" unicode="&#xd4;" 
d="M938 778q0 -81 -5 -173t-21.5 -182t-48 -173.5t-84 -146.5t-129.5 -101t-184 -38q-84 0 -146 30.5t-106.5 81.5t-73.5 118t-46 139.5t-23.5 146.5t-6.5 138q0 81 6 175t24 187t50.5 179t86 152t130.5 105.5t183 39.5q84 0 146.5 -32.5t106 -87t71 -124.5t43.5 -145.5
t21.5 -150t5.5 -138.5zM742 766q0 34 -2 84.5t-9 106t-21 111.5t-38.5 100.5t-61 72t-88.5 27.5q-66 0 -111.5 -35.5t-75.5 -93.5t-47 -130.5t-25 -146.5t-9.5 -142.5t-1.5 -117.5q0 -37 2 -84.5t9.5 -97t22.5 -97t39.5 -84.5t61.5 -60t89 -23q65 0 110 33t74.5 86.5
t46 120.5t24.5 134.5t9.5 129.5t1.5 106zM752 1532l-142 -30l-92 174l-88 -174l-140 30l162 242l136 10z" />
    <glyph glyph-name="Otilde" unicode="&#xd5;" 
d="M938 778q0 -81 -5 -173t-21.5 -182t-48 -173.5t-84 -146.5t-129.5 -101t-184 -38q-84 0 -146 30.5t-106.5 81.5t-73.5 118t-46 139.5t-23.5 146.5t-6.5 138q0 81 6 175t24 187t50.5 179t86 152t130.5 105.5t183 39.5q84 0 146.5 -32.5t106 -87t71 -124.5t43.5 -145.5
t21.5 -150t5.5 -138.5zM742 766q0 34 -2 84.5t-9 106t-21 111.5t-38.5 100.5t-61 72t-88.5 27.5q-66 0 -111.5 -35.5t-75.5 -93.5t-47 -130.5t-25 -146.5t-9.5 -142.5t-1.5 -117.5q0 -37 2 -84.5t9.5 -97t22.5 -97t39.5 -84.5t61.5 -60t89 -23q65 0 110 33t74.5 86.5
t46 120.5t24.5 134.5t9.5 129.5t1.5 106zM744 1584q-14 -12 -31.5 -24t-37 -22t-40 -16t-39.5 -6q-26 0 -50.5 13t-47.5 28t-45.5 28t-44.5 13q-12 0 -28 -10.5t-32 -25t-29.5 -29.5t-20.5 -23l-40 120q12 14 29.5 31t38 31.5t42.5 24t42 9.5q26 0 48 -12.5t43.5 -27.5
t44 -27.5t50.5 -12.5q30 0 60 19.5t48 40.5z" />
    <glyph glyph-name="Odieresis" unicode="&#xd6;" 
d="M938 778q0 -81 -5 -173t-21.5 -182t-48 -173.5t-84 -146.5t-129.5 -101t-184 -38q-84 0 -146 30.5t-106.5 81.5t-73.5 118t-46 139.5t-23.5 146.5t-6.5 138q0 81 6 175t24 187t50.5 179t86 152t130.5 105.5t183 39.5q84 0 146.5 -32.5t106 -87t71 -124.5t43.5 -145.5
t21.5 -150t5.5 -138.5zM742 766q0 34 -2 84.5t-9 106t-21 111.5t-38.5 100.5t-61 72t-88.5 27.5q-66 0 -111.5 -35.5t-75.5 -93.5t-47 -130.5t-25 -146.5t-9.5 -142.5t-1.5 -117.5q0 -37 2 -84.5t9.5 -97t22.5 -97t39.5 -84.5t61.5 -60t89 -23q65 0 110 33t74.5 86.5
t46 120.5t24.5 134.5t9.5 129.5t1.5 106zM742 1592q0 -39 -26.5 -65.5t-65.5 -26.5t-64.5 27t-25.5 65q0 39 26.5 66.5t65.5 27.5t64.5 -27.5t25.5 -66.5zM462 1592q0 -44 -29 -74t-73 -30q-21 0 -39.5 8.5t-32 23t-21 33.5t-7.5 39q0 44 30 74t74 30q22 0 40 -8.5t31 -22.5
t20 -33t7 -40z" />
    <glyph glyph-name="multiply" unicode="&#xd7;" horiz-adv-x="693" 
d="M636 606l-134 -120l-142 138l-160 -166l-134 128l162 164l-166 162l128 134l166 -164l150 152l122 -134l-142 -146z" />
    <glyph glyph-name="Oslash" unicode="&#xd8;" 
d="M270 392l354 838q-21 18 -45.5 28t-56.5 10q-66 0 -111.5 -35.5t-75.5 -93.5t-47 -130.5t-25 -146.5t-9.5 -142.5t-1.5 -117.5q0 -42 3.5 -97.5t14.5 -112.5zM720 1026l-364 -822q23 -23 52.5 -35.5t67.5 -12.5q65 0 110 33t74.5 86.5t46 120.5t24.5 134.5t9.5 129.5
t1.5 106q0 22 -0.5 52t-3 64t-7 70.5t-11.5 73.5zM904 1440l-70 -158q31 -55 51.5 -119.5t32 -131t16 -132t4.5 -121.5q0 -81 -5 -173t-21.5 -182t-48 -173.5t-84 -146.5t-129.5 -101t-184 -38q-57 0 -105 15t-87 41l-18 -40l-152 20l60 144q-29 52 -48.5 112t-31 122
t-16 123.5t-4.5 116.5q0 81 6 175t24 187t50.5 179t86 152t130.5 105.5t183 39.5q47 0 86 -10t72 -28l18 42z" />
    <glyph glyph-name="Ugrave" unicode="&#xd9;" horiz-adv-x="1104" 
d="M1069 1266l-114 -10v-534q-1 -75 -5.5 -160.5t-19.5 -169.5t-43 -161.5t-75.5 -136.5t-117 -94.5t-167.5 -35.5q-84 0 -145 32t-103.5 85.5t-68.5 123t-40.5 144t-19.5 148.5t-5 137q0 148 6.5 295.5t11.5 296.5l-124 -4l10 194h396l16 -180l-116 -10q-5 -154 -12.5 -307
t-7.5 -307q0 -37 1 -84.5t7 -98.5t19 -100t36.5 -87.5t59.5 -62t89 -23.5q60 0 101 30t67 79t40 111t20 125t7 122.5t1 102.5v530l-124 -4l10 194h396zM611 1512l-92 -30l-224 232l186 50z" />
    <glyph glyph-name="Uacute" unicode="&#xda;" horiz-adv-x="1104" 
d="M1069 1266l-114 -10v-534q-1 -75 -5.5 -160.5t-19.5 -169.5t-43 -161.5t-75.5 -136.5t-117 -94.5t-167.5 -35.5q-84 0 -145 32t-103.5 85.5t-68.5 123t-40.5 144t-19.5 148.5t-5 137q0 148 6.5 295.5t11.5 296.5l-124 -4l10 194h396l16 -180l-116 -10q-5 -154 -12.5 -307
t-7.5 -307q0 -37 1 -84.5t7 -98.5t19 -100t36.5 -87.5t59.5 -62t89 -23.5q60 0 101 30t67 79t40 111t20 125t7 122.5t1 102.5v530l-124 -4l10 194h396zM811 1694l-222 -232l-94 30l130 252z" />
    <glyph glyph-name="Ucircumflex" unicode="&#xdb;" horiz-adv-x="1104" 
d="M1069 1266l-114 -10v-534q-1 -75 -5.5 -160.5t-19.5 -169.5t-43 -161.5t-75.5 -136.5t-117 -94.5t-167.5 -35.5q-84 0 -145 32t-103.5 85.5t-68.5 123t-40.5 144t-19.5 148.5t-5 137q0 148 6.5 295.5t11.5 296.5l-124 -4l10 194h396l16 -180l-116 -10q-5 -154 -12.5 -307
t-7.5 -307q0 -37 1 -84.5t7 -98.5t19 -100t36.5 -87.5t59.5 -62t89 -23.5q60 0 101 30t67 79t40 111t20 125t7 122.5t1 102.5v530l-124 -4l10 194h396zM785 1532l-142 -30l-92 174l-88 -174l-140 30l162 242l136 10z" />
    <glyph glyph-name="Udieresis" unicode="&#xdc;" horiz-adv-x="1104" 
d="M1069 1266l-114 -10v-534q-1 -75 -5.5 -160.5t-19.5 -169.5t-43 -161.5t-75.5 -136.5t-117 -94.5t-167.5 -35.5q-84 0 -145 32t-103.5 85.5t-68.5 123t-40.5 144t-19.5 148.5t-5 137q0 148 6.5 295.5t11.5 296.5l-124 -4l10 194h396l16 -180l-116 -10q-5 -154 -12.5 -307
t-7.5 -307q0 -37 1 -84.5t7 -98.5t19 -100t36.5 -87.5t59.5 -62t89 -23.5q60 0 101 30t67 79t40 111t20 125t7 122.5t1 102.5v530l-124 -4l10 194h396zM795 1592q0 -39 -26.5 -65.5t-65.5 -26.5t-64.5 27t-25.5 65q0 39 26.5 66.5t65.5 27.5t64.5 -27.5t25.5 -66.5z
M515 1592q0 -44 -29 -74t-73 -30q-21 0 -39.5 8.5t-32 23t-21 33.5t-7.5 39q0 44 30 74t74 30q22 0 40 -8.5t31 -22.5t20 -33t7 -40z" />
    <glyph glyph-name="Yacute" unicode="&#xdd;" horiz-adv-x="958" 
d="M970 1236l-124 -10l-288 -702l-4 -330l140 4l-10 -180l-412 -10l-6 186h118l-2 334l-268 698l-124 -4l10 194h406l16 -180l-116 -10l170 -540l188 540l-124 -4l10 194l406 10zM738 1714l-222 -232l-94 30l130 252z" />
    <glyph glyph-name="Thorn" unicode="&#xde;" horiz-adv-x="973" 
d="M945 720q0 -124 -40 -208t-110.5 -135t-166 -73.5t-207.5 -23.5h-56l-4 -86l140 4l-10 -180l-412 -10l-6 186h118l-2 1048l-114 -4l-10 194l406 8l2 -180l-110 -10l2 -110h144q91 0 171 -30.5t138.5 -86t92.5 -132.5t34 -171zM761 712q0 51 -18.5 95t-50.5 76t-76 50.5
t-95 18.5h-64h-86l-6 -502h50q69 0 131.5 8.5t110.5 35.5t76 79t28 139z" />
    <glyph glyph-name="germandbls" unicode="&#xdf;" horiz-adv-x="1072" 
d="M775 1172q0 25 -14 49.5t-37 44t-52.5 31t-60.5 11.5q-78 0 -125.5 -17t-74 -51.5t-36.5 -88.5t-12 -127q-5 -85 -2.5 -170t0.5 -170v-680h-308v176l132 4v664h-146l4 176h140q1 109 20.5 195.5t66.5 146t125.5 91t197.5 31.5q70 0 134 -20.5t112.5 -60t77 -97.5
t28.5 -134q0 -78 -20.5 -124.5t-51 -75t-66.5 -46t-66.5 -36t-51 -46t-20.5 -76.5q0 -44 18.5 -78t47.5 -61t64.5 -48t69.5 -39q51 -29 86.5 -59.5t58 -67.5t33 -83t10.5 -104q0 -56 -21.5 -102.5t-58.5 -81t-85.5 -53.5t-102.5 -19q-50 0 -91 27t-71 63l-22 -86l-126 10
l10 332l192 -2q-2 -12 -3 -25t-1 -25q0 -24 6 -46.5t18 -40.5t31.5 -28.5t46.5 -10.5q19 0 35.5 9.5t28 24.5t18 33t6.5 35q0 43 -20 77t-50 60.5t-66 47.5t-68 39q-53 29 -88.5 59.5t-56.5 67.5t-30 83t-9 106q0 64 22 104.5t55 68.5t71 47t71 41t55 50.5t22 74.5z" />
    <glyph glyph-name="agrave" unicode="&#xe0;" horiz-adv-x="766" 
d="M740 170l-4 -160l-206 -20l-10 116q-21 -23 -48.5 -43.5t-59 -37t-65 -26t-65.5 -9.5q-62 0 -104.5 24.5t-68 65t-36.5 92.5t-11 106q0 68 22.5 124t63 95.5t97.5 61t125 21.5q27 0 53.5 -3.5t52.5 -12.5q2 17 2 32v32q0 9 -1 29.5t-3.5 46t-7.5 53t-13.5 50t-20 37
t-28.5 14.5q-19 0 -37 -13t-34 -33.5t-29.5 -46t-24.5 -50.5t-19 -46.5t-12 -34.5l-170 8l-6 372l166 4v-146q10 26 27 54t39.5 50.5t50 37t59.5 14.5q76 0 122.5 -23t71 -64.5t32.5 -100t8 -128.5q0 -136 -2 -271t-14 -271h108zM482 238v146q-14 20 -41.5 26t-50.5 6
q-72 0 -117 -35.5t-45 -112.5q0 -47 25 -79.5t75 -32.5q16 0 42.5 4.5t51 14.5t42.5 25.5t18 37.5zM458 1142l-92 -30l-224 232l186 50z" />
    <glyph glyph-name="aacute" unicode="&#xe1;" horiz-adv-x="766" 
d="M740 170l-4 -160l-206 -20l-10 116q-21 -23 -48.5 -43.5t-59 -37t-65 -26t-65.5 -9.5q-62 0 -104.5 24.5t-68 65t-36.5 92.5t-11 106q0 68 22.5 124t63 95.5t97.5 61t125 21.5q27 0 53.5 -3.5t52.5 -12.5q2 17 2 32v32q0 9 -1 29.5t-3.5 46t-7.5 53t-13.5 50t-20 37
t-28.5 14.5q-19 0 -37 -13t-34 -33.5t-29.5 -46t-24.5 -50.5t-19 -46.5t-12 -34.5l-170 8l-6 372l166 4v-146q10 26 27 54t39.5 50.5t50 37t59.5 14.5q76 0 122.5 -23t71 -64.5t32.5 -100t8 -128.5q0 -136 -2 -271t-14 -271h108zM482 238v146q-14 20 -41.5 26t-50.5 6
q-72 0 -117 -35.5t-45 -112.5q0 -47 25 -79.5t75 -32.5q16 0 42.5 4.5t51 14.5t42.5 25.5t18 37.5zM658 1344l-222 -232l-94 30l130 252z" />
    <glyph glyph-name="acircumflex" unicode="&#xe2;" horiz-adv-x="766" 
d="M740 170l-4 -160l-206 -20l-10 116q-21 -23 -48.5 -43.5t-59 -37t-65 -26t-65.5 -9.5q-62 0 -104.5 24.5t-68 65t-36.5 92.5t-11 106q0 68 22.5 124t63 95.5t97.5 61t125 21.5q27 0 53.5 -3.5t52.5 -12.5q2 17 2 32v32q0 9 -1 29.5t-3.5 46t-7.5 53t-13.5 50t-20 37
t-28.5 14.5q-19 0 -37 -13t-34 -33.5t-29.5 -46t-24.5 -50.5t-19 -46.5t-12 -34.5l-170 8l-6 372l166 4v-146q10 26 27 54t39.5 50.5t50 37t59.5 14.5q76 0 122.5 -23t71 -64.5t32.5 -100t8 -128.5q0 -136 -2 -271t-14 -271h108zM482 238v146q-14 20 -41.5 26t-50.5 6
q-72 0 -117 -35.5t-45 -112.5q0 -47 25 -79.5t75 -32.5q16 0 42.5 4.5t51 14.5t42.5 25.5t18 37.5zM632 1123l-142 -30l-92 174l-88 -174l-140 30l162 242l136 10z" />
    <glyph glyph-name="atilde" unicode="&#xe3;" horiz-adv-x="766" 
d="M740 170l-4 -160l-206 -20l-10 116q-21 -23 -48.5 -43.5t-59 -37t-65 -26t-65.5 -9.5q-62 0 -104.5 24.5t-68 65t-36.5 92.5t-11 106q0 68 22.5 124t63 95.5t97.5 61t125 21.5q27 0 53.5 -3.5t52.5 -12.5q2 17 2 32v32q0 9 -1 29.5t-3.5 46t-7.5 53t-13.5 50t-20 37
t-28.5 14.5q-19 0 -37 -13t-34 -33.5t-29.5 -46t-24.5 -50.5t-19 -46.5t-12 -34.5l-170 8l-6 372l166 4v-146q10 26 27 54t39.5 50.5t50 37t59.5 14.5q76 0 122.5 -23t71 -64.5t32.5 -100t8 -128.5q0 -136 -2 -271t-14 -271h108zM482 238v146q-14 20 -41.5 26t-50.5 6
q-72 0 -117 -35.5t-45 -112.5q0 -47 25 -79.5t75 -32.5q16 0 42.5 4.5t51 14.5t42.5 25.5t18 37.5zM644 1175q-14 -12 -31.5 -24t-37 -22t-40 -16t-39.5 -6q-26 0 -50.5 13t-47.5 28t-45.5 28t-44.5 13q-12 0 -28 -10.5t-32 -25t-29.5 -29.5t-20.5 -23l-40 120
q12 14 29.5 31t38 31.5t42.5 24t42 9.5q26 0 48 -12.5t43.5 -27.5t44 -27.5t50.5 -12.5q30 0 60 19.5t48 40.5z" />
    <glyph glyph-name="adieresis" unicode="&#xe4;" horiz-adv-x="766" 
d="M740 170l-4 -160l-206 -20l-10 116q-21 -23 -48.5 -43.5t-59 -37t-65 -26t-65.5 -9.5q-62 0 -104.5 24.5t-68 65t-36.5 92.5t-11 106q0 68 22.5 124t63 95.5t97.5 61t125 21.5q27 0 53.5 -3.5t52.5 -12.5q2 17 2 32v32q0 9 -1 29.5t-3.5 46t-7.5 53t-13.5 50t-20 37
t-28.5 14.5q-19 0 -37 -13t-34 -33.5t-29.5 -46t-24.5 -50.5t-19 -46.5t-12 -34.5l-170 8l-6 372l166 4v-146q10 26 27 54t39.5 50.5t50 37t59.5 14.5q76 0 122.5 -23t71 -64.5t32.5 -100t8 -128.5q0 -136 -2 -271t-14 -271h108zM482 238v146q-14 20 -41.5 26t-50.5 6
q-72 0 -117 -35.5t-45 -112.5q0 -47 25 -79.5t75 -32.5q16 0 42.5 4.5t51 14.5t42.5 25.5t18 37.5zM622 1203q0 -39 -26.5 -65.5t-65.5 -26.5t-64.5 27t-25.5 65q0 39 26.5 66.5t65.5 27.5t64.5 -27.5t25.5 -66.5zM342 1203q0 -44 -29 -74t-73 -30q-21 0 -39.5 8.5t-32 23
t-21 33.5t-7.5 39q0 44 30 74t74 30q22 0 40 -8.5t31 -22.5t20 -33t7 -40z" />
    <glyph glyph-name="aring" unicode="&#xe5;" horiz-adv-x="766" 
d="M740 170l-4 -160l-206 -20l-10 116q-21 -23 -48.5 -43.5t-59 -37t-65 -26t-65.5 -9.5q-62 0 -104.5 24.5t-68 65t-36.5 92.5t-11 106q0 68 22.5 124t63 95.5t97.5 61t125 21.5q27 0 53.5 -3.5t52.5 -12.5q2 17 2 32v32q0 9 -1 29.5t-3.5 46t-7.5 53t-13.5 50t-20 37
t-28.5 14.5q-19 0 -37 -13t-34 -33.5t-29.5 -46t-24.5 -50.5t-19 -46.5t-12 -34.5l-170 8l-6 372l166 4v-146q10 26 27 54t39.5 50.5t50 37t59.5 14.5q76 0 122.5 -23t71 -64.5t32.5 -100t8 -128.5q0 -136 -2 -271t-14 -271h108zM482 238v146q-14 20 -41.5 26t-50.5 6
q-72 0 -117 -35.5t-45 -112.5q0 -47 25 -79.5t75 -32.5q16 0 42.5 4.5t51 14.5t42.5 25.5t18 37.5zM582 1261q0 -38 -13.5 -71t-37.5 -57.5t-56.5 -39t-70.5 -14.5t-71.5 14t-59 38t-40.5 57t-15 71t14 71.5t38 58.5t57 39.5t71 14.5q39 0 72.5 -13.5t58.5 -37.5t39 -57.5
t14 -73.5zM488 1269q0 39 -25.5 62.5t-64.5 23.5q-21 0 -37 -8.5t-27 -22t-16.5 -31t-5.5 -36.5q0 -39 25.5 -62.5t64.5 -23.5q42 0 64 28.5t22 69.5z" />
    <glyph glyph-name="ae" unicode="&#xe6;" horiz-adv-x="1147" 
d="M1096 606q0 -82 -6 -160l-430 -8q0 -21 2 -50.5t6.5 -62t13 -64t22.5 -57t34.5 -41t49.5 -15.5q31 0 53.5 16.5t37 41t22.5 53.5t11 55h174q-9 -57 -30 -115t-56 -105t-85 -76.5t-117 -29.5q-80 0 -134 33t-90 87q-23 -20 -52.5 -40.5t-66.5 -38t-80.5 -28.5t-92.5 -11
q-62 0 -104.5 24.5t-68 65t-36.5 92.5t-11 106q0 68 22.5 124t63 95.5t97.5 61t125 21.5q27 0 53.5 -3.5t52.5 -12.5q2 17 2 32v32q0 9 -1 29.5t-3.5 46t-7.5 53t-13.5 50t-20 37t-28.5 14.5q-19 0 -37 -13t-34 -33.5t-29.5 -46t-24.5 -50.5t-19 -46.5t-12 -34.5l-170 8
l-6 372l166 4v-146q10 26 27 54t39.5 50.5t50 37t59.5 14.5q69 0 113 -18.5t71 -53.5q33 39 80 61.5t110 22.5q106 0 167 -33.5t92.5 -92t40 -138t8.5 -170.5zM922 664q0 30 -3.5 68t-16 72t-36.5 57t-64 23q-35 0 -59 -15.5t-40 -40.5t-25 -57.5t-13 -66t-5.5 -65.5
t-1.5 -57h258q6 42 6 82zM482 238v146q-14 20 -41.5 26t-50.5 6q-72 0 -117 -35.5t-45 -112.5q0 -47 25 -79.5t75 -32.5q16 0 42.5 4.5t51 14.5t42.5 25.5t18 37.5z" />
    <glyph glyph-name="ccedilla" unicode="&#xe7;" horiz-adv-x="738" 
d="M511 -198q0 -35 -13.5 -62.5t-36 -46.5t-52 -29t-62.5 -10q-15 0 -33.5 2t-37 6.5t-35.5 11.5t-28 18l48 88q12 -9 33.5 -18.5t38.5 -9.5q29 0 46.5 11t17.5 41q0 19 -9 32.5t-23 22t-30.5 12.5t-31.5 3h-8l24 124q-57 9 -99 37t-72 68t-48.5 90t-29.5 103.5t-15 109
t-4 106.5q0 48 6 105.5t20.5 115.5t38.5 113t59.5 97t83 67.5t110.5 25.5q50 0 95 -26t77 -64l20 86l126 -10l-10 -410l-162 4q-1 28 -7.5 70.5t-21.5 83t-41 69.5t-66 29q-32 0 -54.5 -21t-37.5 -54t-24 -74t-13.5 -81t-5.5 -74.5t-1 -55.5q0 -23 0.5 -57.5t4 -73t11 -77
t23 -69.5t39 -50t58.5 -19q41 0 68 28t43.5 67.5t23 82.5t7.5 74h160q-1 -42 -7.5 -87.5t-20.5 -89.5t-35 -84.5t-50 -73t-66 -54.5t-83 -29l-28 -58q28 0 50 -11.5t37.5 -30.5t24 -43.5t8.5 -50.5z" />
    <glyph glyph-name="egrave" unicode="&#xe8;" horiz-adv-x="718" 
d="M667 606q0 -82 -6 -160l-430 -8q0 -21 2 -50.5t6.5 -62t13 -64t22.5 -57t34.5 -41t49.5 -15.5q31 0 53.5 16.5t37 41t22.5 53.5t11 55h174q-9 -57 -30 -115t-56 -105t-85 -76.5t-117 -29.5q-70 0 -120.5 26.5t-85.5 70.5t-57 101.5t-33.5 119t-15.5 123.5t-4 115
q0 48 5.5 104t18.5 111t35.5 106t56.5 89.5t81 62t109 23.5q106 0 167 -33.5t92.5 -92t40 -138t8.5 -170.5zM493 664q0 30 -3.5 68t-16 72t-36.5 57t-64 23q-35 0 -59 -15.5t-40 -40.5t-25 -57.5t-13 -66t-5.5 -65.5t-1.5 -57h258q6 42 6 82zM417 1142l-92 -30l-224 232
l186 50z" />
    <glyph glyph-name="eacute" unicode="&#xe9;" horiz-adv-x="718" 
d="M667 606q0 -82 -6 -160l-430 -8q0 -21 2 -50.5t6.5 -62t13 -64t22.5 -57t34.5 -41t49.5 -15.5q31 0 53.5 16.5t37 41t22.5 53.5t11 55h174q-9 -57 -30 -115t-56 -105t-85 -76.5t-117 -29.5q-70 0 -120.5 26.5t-85.5 70.5t-57 101.5t-33.5 119t-15.5 123.5t-4 115
q0 48 5.5 104t18.5 111t35.5 106t56.5 89.5t81 62t109 23.5q106 0 167 -33.5t92.5 -92t40 -138t8.5 -170.5zM493 664q0 30 -3.5 68t-16 72t-36.5 57t-64 23q-35 0 -59 -15.5t-40 -40.5t-25 -57.5t-13 -66t-5.5 -65.5t-1.5 -57h258q6 42 6 82zM657 1344l-222 -232l-94 30
l130 252z" />
    <glyph glyph-name="ecircumflex" unicode="&#xea;" horiz-adv-x="718" 
d="M667 606q0 -82 -6 -160l-430 -8q0 -21 2 -50.5t6.5 -62t13 -64t22.5 -57t34.5 -41t49.5 -15.5q31 0 53.5 16.5t37 41t22.5 53.5t11 55h174q-9 -57 -30 -115t-56 -105t-85 -76.5t-117 -29.5q-70 0 -120.5 26.5t-85.5 70.5t-57 101.5t-33.5 119t-15.5 123.5t-4 115
q0 48 5.5 104t18.5 111t35.5 106t56.5 89.5t81 62t109 23.5q106 0 167 -33.5t92.5 -92t40 -138t8.5 -170.5zM493 664q0 30 -3.5 68t-16 72t-36.5 57t-64 23q-35 0 -59 -15.5t-40 -40.5t-25 -57.5t-13 -66t-5.5 -65.5t-1.5 -57h258q6 42 6 82zM591 1123l-142 -30l-92 174
l-88 -174l-140 30l162 242l136 10z" />
    <glyph glyph-name="edieresis" unicode="&#xeb;" horiz-adv-x="718" 
d="M667 606q0 -82 -6 -160l-430 -8q0 -21 2 -50.5t6.5 -62t13 -64t22.5 -57t34.5 -41t49.5 -15.5q31 0 53.5 16.5t37 41t22.5 53.5t11 55h174q-9 -57 -30 -115t-56 -105t-85 -76.5t-117 -29.5q-70 0 -120.5 26.5t-85.5 70.5t-57 101.5t-33.5 119t-15.5 123.5t-4 115
q0 48 5.5 104t18.5 111t35.5 106t56.5 89.5t81 62t109 23.5q106 0 167 -33.5t92.5 -92t40 -138t8.5 -170.5zM493 664q0 30 -3.5 68t-16 72t-36.5 57t-64 23q-35 0 -59 -15.5t-40 -40.5t-25 -57.5t-13 -66t-5.5 -65.5t-1.5 -57h258q6 42 6 82zM601 1203q0 -39 -26.5 -65.5
t-65.5 -26.5t-64.5 27t-25.5 65q0 39 26.5 66.5t65.5 27.5t64.5 -27.5t25.5 -66.5zM321 1203q0 -44 -29 -74t-73 -30q-21 0 -39.5 8.5t-32 23t-21 33.5t-7.5 39q0 44 30 74t74 30q22 0 40 -8.5t31 -22.5t20 -33t7 -40z" />
    <glyph glyph-name="igrave" unicode="&#xec;" horiz-adv-x="457" 
d="M433 140l-6 -166l-366 16v174l84 6v674h-122l4 174h322l-24 -868zM286 1123l-92 -30l-224 232l186 50z" />
    <glyph glyph-name="iacute" unicode="&#xed;" horiz-adv-x="458" 
d="M433 140l-6 -166l-366 16v174l84 6v674h-122l4 174h322l-24 -868zM505 1325l-222 -232l-94 30l130 252z" />
    <glyph glyph-name="icircumflex" unicode="&#xee;" horiz-adv-x="457" 
d="M433 140l-6 -166l-366 16v174l84 6v674h-122l4 174h322l-24 -868zM460 1123l-142 -30l-92 174l-88 -174l-140 30l162 242l136 10z" />
    <glyph glyph-name="idieresis" unicode="&#xef;" horiz-adv-x="457" 
d="M433 140l-6 -166l-366 16v174l84 6v674h-122l4 174h322l-24 -868zM470 1203q0 -39 -26.5 -65.5t-65.5 -26.5t-64.5 27t-25.5 65q0 39 26.5 66.5t65.5 27.5t64.5 -27.5t25.5 -66.5zM190 1203q0 -44 -29 -74t-73 -30q-21 0 -39.5 8.5t-32 23t-21 33.5t-7.5 39q0 44 30 74
t74 30q22 0 40 -8.5t31 -22.5t20 -33t7 -40z" />
    <glyph glyph-name="eth" unicode="&#xf0;" horiz-adv-x="753" 
d="M530 550q0 21 -2 54t-7.5 70t-15.5 74t-26 67t-39.5 48.5t-55.5 18.5q-39 0 -66.5 -23.5t-47 -60.5t-31.5 -82.5t-18.5 -91t-8.5 -85.5t-2 -65q0 -21 2 -53.5t8 -69.5t16.5 -73.5t26.5 -66.5t39 -48.5t54 -18.5q38 0 65.5 23t47 59.5t31.5 81.5t18.5 90.5t9 85.5t2.5 66z
M658 1346l18 -140l-102 -22q22 -59 43 -128.5t36.5 -149.5t25 -171t9.5 -191q0 -50 -6 -111t-21 -123.5t-39.5 -122t-61.5 -105.5t-86.5 -74t-115.5 -28q-62 0 -109 23.5t-81 62t-57 89.5t-36.5 106t-19 111t-5.5 104q0 50 6 112t20.5 125.5t39 123.5t61 106.5t86.5 74.5
t117 28q30 0 59 -12t55 -32q-15 32 -32.5 70.5t-37.5 77.5l-152 -32l-32 142l112 22q-23 39 -46 71.5t-46 56.5l158 64q12 -17 28 -40q13 -20 30.5 -49.5t37.5 -68.5z" />
    <glyph glyph-name="ntilde" unicode="&#xf1;" horiz-adv-x="886" 
d="M861 142l-20 -160l-336 14l-4 162l88 10q3 136 5.5 271t2.5 271q0 24 -4.5 50t-15.5 48t-30.5 36t-49.5 14q-44 0 -74.5 -24.5t-49.5 -60.5t-28 -78t-10 -77q-5 -113 -6.5 -225t-3.5 -225h88l10 -162l-346 -4v184l98 6l-6 650l-146 10l4 170l288 10l6 -142
q20 30 47.5 57.5t60.5 48.5t69.5 33.5t74.5 12.5q45 0 77 -15t54 -41t34.5 -59.5t19.5 -71t9 -76t2 -73.5q0 -139 -3.5 -277t-6.5 -277zM685 1175q-14 -12 -31.5 -24t-37 -22t-40 -16t-39.5 -6q-26 0 -50.5 13t-47.5 28t-45.5 28t-44.5 13q-12 0 -28 -10.5t-32 -25
t-29.5 -29.5t-20.5 -23l-40 120q12 14 29.5 31t38 31.5t42.5 24t42 9.5q26 0 48 -12.5t43.5 -27.5t44 -27.5t50.5 -12.5q30 0 60 19.5t48 40.5z" />
    <glyph glyph-name="ograve" unicode="&#xf2;" horiz-adv-x="737" 
d="M688 544q0 -50 -6 -111t-21 -123.5t-39.5 -122t-61.5 -105.5t-86.5 -74t-115.5 -28q-62 0 -109 23.5t-81 62t-57 89.5t-36.5 106t-19 111t-5.5 104q0 50 6 112t20.5 125.5t39 123.5t61 106.5t86.5 74.5t117 28q61 0 107.5 -24t81 -64t57 -92t36.5 -107.5t20 -111.5
t6 -103zM530 550q0 21 -2 54t-7.5 70t-15.5 74t-26 67t-39.5 48.5t-55.5 18.5q-39 0 -66.5 -23.5t-47 -60.5t-31.5 -82.5t-18.5 -91t-8.5 -85.5t-2 -65q0 -21 2 -53.5t8 -69.5t16.5 -73.5t26.5 -66.5t39 -48.5t54 -18.5q38 0 65.5 23t47 59.5t31.5 81.5t18.5 90.5t9 85.5
t2.5 66zM426 1142l-92 -30l-224 232l186 50z" />
    <glyph glyph-name="oacute" unicode="&#xf3;" horiz-adv-x="737" 
d="M688 544q0 -50 -6 -111t-21 -123.5t-39.5 -122t-61.5 -105.5t-86.5 -74t-115.5 -28q-62 0 -109 23.5t-81 62t-57 89.5t-36.5 106t-19 111t-5.5 104q0 50 6 112t20.5 125.5t39 123.5t61 106.5t86.5 74.5t117 28q61 0 107.5 -24t81 -64t57 -92t36.5 -107.5t20 -111.5
t6 -103zM530 550q0 21 -2 54t-7.5 70t-15.5 74t-26 67t-39.5 48.5t-55.5 18.5q-39 0 -66.5 -23.5t-47 -60.5t-31.5 -82.5t-18.5 -91t-8.5 -85.5t-2 -65q0 -21 2 -53.5t8 -69.5t16.5 -73.5t26.5 -66.5t39 -48.5t54 -18.5q38 0 65.5 23t47 59.5t31.5 81.5t18.5 90.5t9 85.5
t2.5 66zM646 1344l-222 -232l-94 30l130 252z" />
    <glyph glyph-name="ocircumflex" unicode="&#xf4;" horiz-adv-x="737" 
d="M688 544q0 -50 -6 -111t-21 -123.5t-39.5 -122t-61.5 -105.5t-86.5 -74t-115.5 -28q-62 0 -109 23.5t-81 62t-57 89.5t-36.5 106t-19 111t-5.5 104q0 50 6 112t20.5 125.5t39 123.5t61 106.5t86.5 74.5t117 28q61 0 107.5 -24t81 -64t57 -92t36.5 -107.5t20 -111.5
t6 -103zM530 550q0 21 -2 54t-7.5 70t-15.5 74t-26 67t-39.5 48.5t-55.5 18.5q-39 0 -66.5 -23.5t-47 -60.5t-31.5 -82.5t-18.5 -91t-8.5 -85.5t-2 -65q0 -21 2 -53.5t8 -69.5t16.5 -73.5t26.5 -66.5t39 -48.5t54 -18.5q38 0 65.5 23t47 59.5t31.5 81.5t18.5 90.5t9 85.5
t2.5 66zM620 1123l-142 -30l-92 174l-88 -174l-140 30l162 242l136 10z" />
    <glyph glyph-name="otilde" unicode="&#xf5;" horiz-adv-x="737" 
d="M688 544q0 -50 -6 -111t-21 -123.5t-39.5 -122t-61.5 -105.5t-86.5 -74t-115.5 -28q-62 0 -109 23.5t-81 62t-57 89.5t-36.5 106t-19 111t-5.5 104q0 50 6 112t20.5 125.5t39 123.5t61 106.5t86.5 74.5t117 28q61 0 107.5 -24t81 -64t57 -92t36.5 -107.5t20 -111.5
t6 -103zM530 550q0 21 -2 54t-7.5 70t-15.5 74t-26 67t-39.5 48.5t-55.5 18.5q-39 0 -66.5 -23.5t-47 -60.5t-31.5 -82.5t-18.5 -91t-8.5 -85.5t-2 -65q0 -21 2 -53.5t8 -69.5t16.5 -73.5t26.5 -66.5t39 -48.5t54 -18.5q38 0 65.5 23t47 59.5t31.5 81.5t18.5 90.5t9 85.5
t2.5 66zM612 1175q-14 -12 -31.5 -24t-37 -22t-40 -16t-39.5 -6q-26 0 -50.5 13t-47.5 28t-45.5 28t-44.5 13q-12 0 -28 -10.5t-32 -25t-29.5 -29.5t-20.5 -23l-40 120q12 14 29.5 31t38 31.5t42.5 24t42 9.5q26 0 48 -12.5t43.5 -27.5t44 -27.5t50.5 -12.5q30 0 60 19.5
t48 40.5z" />
    <glyph glyph-name="odieresis" unicode="&#xf6;" horiz-adv-x="737" 
d="M688 544q0 -50 -6 -111t-21 -123.5t-39.5 -122t-61.5 -105.5t-86.5 -74t-115.5 -28q-62 0 -109 23.5t-81 62t-57 89.5t-36.5 106t-19 111t-5.5 104q0 50 6 112t20.5 125.5t39 123.5t61 106.5t86.5 74.5t117 28q61 0 107.5 -24t81 -64t57 -92t36.5 -107.5t20 -111.5
t6 -103zM530 550q0 21 -2 54t-7.5 70t-15.5 74t-26 67t-39.5 48.5t-55.5 18.5q-39 0 -66.5 -23.5t-47 -60.5t-31.5 -82.5t-18.5 -91t-8.5 -85.5t-2 -65q0 -21 2 -53.5t8 -69.5t16.5 -73.5t26.5 -66.5t39 -48.5t54 -18.5q38 0 65.5 23t47 59.5t31.5 81.5t18.5 90.5t9 85.5
t2.5 66zM610 1203q0 -39 -26.5 -65.5t-65.5 -26.5t-64.5 27t-25.5 65q0 39 26.5 66.5t65.5 27.5t64.5 -27.5t25.5 -66.5zM330 1203q0 -44 -29 -74t-73 -30q-21 0 -39.5 8.5t-32 23t-21 33.5t-7.5 39q0 44 30 74t74 30q22 0 40 -8.5t31 -22.5t20 -33t7 -40z" />
    <glyph glyph-name="divide" unicode="&#xf7;" horiz-adv-x="748" 
d="M689 838l-10 -180l-612 -10l-6 186zM489 494q0 -21 -8 -39.5t-22 -32t-32.5 -21t-39.5 -7.5t-39.5 7.5t-32 21t-21 32t-7.5 39.5t7.5 39.5t21 32.5t32 22t39.5 8t39.5 -8t32.5 -22t22 -32.5t8 -39.5zM489 994q0 -21 -8 -39.5t-22 -32t-32.5 -21t-39.5 -7.5t-39.5 7.5
t-32 21t-21 32t-7.5 39.5t7.5 39.5t21 32.5t32 22t39.5 8t39.5 -8t32.5 -22t22 -32.5t8 -39.5z" />
    <glyph glyph-name="oslash" unicode="&#xf8;" horiz-adv-x="746" 
d="M222 366l206 506q-20 10 -40 10q-39 0 -66.5 -23.5t-47 -60.5t-31.5 -82.5t-18.5 -91t-8.5 -85.5t-2 -65q0 -18 1.5 -47t6.5 -61zM526 668l-220 -506q12 -9 24.5 -13.5t29.5 -4.5q38 0 65.5 23t47 59.5t31.5 81.5t18.5 90.5t9 85.5t2.5 66q0 21 -1.5 51.5t-6.5 66.5z
M680 1024l-60 -138q20 -39 34 -83.5t22.5 -89.5t12 -88.5t3.5 -80.5q0 -50 -6 -111t-21 -123.5t-39.5 -122t-61.5 -105.5t-87 -74t-115 -28q-71 0 -122 30l-14 -30l-152 20l54 130q-21 39 -35 83.5t-23 89.5t-12.5 89.5t-3.5 83.5q0 50 6 112t20.5 125.5t39 123.5t61 106.5
t87 74.5t116.5 28q59 0 104 -24l10 22z" />
    <glyph glyph-name="ugrave" unicode="&#xf9;" horiz-adv-x="863" 
d="M862 160l-4 -170l-288 -10l-6 162q-20 -30 -47.5 -57.5t-60 -48.5t-69 -33.5t-73.5 -12.5q-46 0 -78 15t-54 41t-35 59.5t-20 71t-9 76t-2 73.5q0 136 3.5 271.5t6.5 272.5l-102 10l20 160l258 -14q-5 -180 -9.5 -356t-4.5 -356q0 -23 5 -48t16.5 -45.5t30.5 -33.5
t48 -13q44 0 74.5 24.5t49.5 60.5t27.5 78t10.5 77q6 110 7 220t3 220h-88l-10 162l270 4l-16 -850zM500 1123l-92 -30l-224 232l186 50z" />
    <glyph glyph-name="uacute" unicode="&#xfa;" horiz-adv-x="863" 
d="M862 160l-4 -170l-288 -10l-6 162q-20 -30 -47.5 -57.5t-60 -48.5t-69 -33.5t-73.5 -12.5q-46 0 -78 15t-54 41t-35 59.5t-20 71t-9 76t-2 73.5q0 136 3.5 271.5t6.5 272.5l-102 10l20 160l258 -14q-5 -180 -9.5 -356t-4.5 -356q0 -23 5 -48t16.5 -45.5t30.5 -33.5
t48 -13q44 0 74.5 24.5t49.5 60.5t27.5 78t10.5 77q6 110 7 220t3 220h-88l-10 162l270 4l-16 -850zM680 1325l-222 -232l-94 30l130 252z" />
    <glyph glyph-name="ucircumflex" unicode="&#xfb;" horiz-adv-x="863" 
d="M862 160l-4 -170l-288 -10l-6 162q-20 -30 -47.5 -57.5t-60 -48.5t-69 -33.5t-73.5 -12.5q-46 0 -78 15t-54 41t-35 59.5t-20 71t-9 76t-2 73.5q0 136 3.5 271.5t6.5 272.5l-102 10l20 160l258 -14q-5 -180 -9.5 -356t-4.5 -356q0 -23 5 -48t16.5 -45.5t30.5 -33.5
t48 -13q44 0 74.5 24.5t49.5 60.5t27.5 78t10.5 77q6 110 7 220t3 220h-88l-10 162l270 4l-16 -850zM654 1123l-142 -30l-92 174l-88 -174l-140 30l162 242l136 10z" />
    <glyph glyph-name="udieresis" unicode="&#xfc;" horiz-adv-x="863" 
d="M862 160l-4 -170l-288 -10l-6 162q-20 -30 -47.5 -57.5t-60 -48.5t-69 -33.5t-73.5 -12.5q-46 0 -78 15t-54 41t-35 59.5t-20 71t-9 76t-2 73.5q0 136 3.5 271.5t6.5 272.5l-102 10l20 160l258 -14q-5 -180 -9.5 -356t-4.5 -356q0 -23 5 -48t16.5 -45.5t30.5 -33.5
t48 -13q44 0 74.5 24.5t49.5 60.5t27.5 78t10.5 77q6 110 7 220t3 220h-88l-10 162l270 4l-16 -850zM644 1203q0 -39 -26.5 -65.5t-65.5 -26.5t-64.5 27t-25.5 65q0 39 26.5 66.5t65.5 27.5t64.5 -27.5t25.5 -66.5zM364 1203q0 -44 -29 -74t-73 -30q-21 0 -39.5 8.5t-32 23
t-21 33.5t-7.5 39q0 44 30 74t74 30q22 0 40 -8.5t31 -22.5t20 -33t7 -40z" />
    <glyph glyph-name="yacute" unicode="&#xfd;" horiz-adv-x="790" 
d="M787 848l-96 -6l-238 -1080l82 -4v-166l-344 -4l-6 156l96 10l56 240l-252 878h-92l10 170l336 -4l4 -162l-88 -8l158 -604l116 594l-78 10l-10 160l346 4v-184zM667 1344l-222 -232l-94 30l130 252z" />
    <glyph glyph-name="thorn" unicode="&#xfe;" horiz-adv-x="775" 
d="M723 510q0 -49 -4.5 -107t-16 -116t-33 -112.5t-55 -96.5t-81 -67t-112.5 -25q-50 0 -91.5 29t-64.5 71v-338l90 -2v-158h-382l6 170l104 -4l12 1508l-132 -4v164l268 10l14 -516q16 24 39 45t50 37t57 25t60 9q56 0 98 -27.5t72 -72t50 -101t31.5 -114.5t16 -112.5
t4.5 -94.5zM547 496q0 22 -1 57.5t-5.5 75t-13.5 79.5t-25 72t-40.5 52t-58.5 20q-31 0 -54.5 -11t-39.5 -30.5t-24.5 -45.5t-9.5 -55q-2 -94 -4 -187.5t-2 -188.5q0 -23 8.5 -53.5t24.5 -57.5t38.5 -46t50.5 -19q37 0 63.5 18t43.5 47t27 65.5t15 74.5t6 73t1 60z" />
    <glyph glyph-name="ydieresis" unicode="&#xff;" horiz-adv-x="790" 
d="M787 848l-96 -6l-238 -1080l82 -4v-166l-344 -4l-6 156l96 10l56 240l-252 878h-92l10 170l336 -4l4 -162l-88 -8l158 -604l116 594l-78 10l-10 160l346 4v-184zM631 1223q0 -39 -26.5 -65.5t-65.5 -26.5t-64.5 27t-25.5 65q0 39 26.5 66.5t65.5 27.5t64.5 -27.5
t25.5 -66.5zM351 1223q0 -44 -29 -74t-73 -30q-21 0 -39.5 8.5t-32 23t-21 33.5t-7.5 39q0 44 30 74t74 30q22 0 40 -8.5t31 -22.5t20 -33t7 -40z" />
    <glyph glyph-name="Amacron" unicode="&#x100;" horiz-adv-x="960" 
d="M973 162l-14 -190l-406 10l-10 194l124 -4l-52 292l-264 -12l-42 -260l116 -10l-16 -180h-406l-10 194l124 -4l218 1068l-102 -4l-10 170l510 10l-10 -160l-100 -4l226 -1100zM587 620l-108 614l-100 -614h208zM686 1504l-412 10l10 124h392z" />
    <glyph glyph-name="amacron" unicode="&#x101;" horiz-adv-x="766" 
d="M740 170l-4 -160l-206 -20l-10 116q-21 -23 -48.5 -43.5t-59 -37t-65 -26t-65.5 -9.5q-62 0 -104.5 24.5t-68 65t-36.5 92.5t-11 106q0 68 22.5 124t63 95.5t97.5 61t125 21.5q27 0 53.5 -3.5t52.5 -12.5q2 17 2 32v32q0 9 -1 29.5t-3.5 46t-7.5 53t-13.5 50t-20 37
t-28.5 14.5q-19 0 -37 -13t-34 -33.5t-29.5 -46t-24.5 -50.5t-19 -46.5t-12 -34.5l-170 8l-6 372l166 4v-146q10 26 27 54t39.5 50.5t50 37t59.5 14.5q76 0 122.5 -23t71 -64.5t32.5 -100t8 -128.5q0 -136 -2 -271t-14 -271h108zM482 238v146q-14 20 -41.5 26t-50.5 6
q-72 0 -117 -35.5t-45 -112.5q0 -47 25 -79.5t75 -32.5q16 0 42.5 4.5t51 14.5t42.5 25.5t18 37.5zM589 1079l-412 10l10 124h392z" />
    <glyph glyph-name="Abreve" unicode="&#x102;" horiz-adv-x="960" 
d="M973 162l-14 -190l-406 10l-10 194l124 -4l-52 292l-264 -12l-42 -260l116 -10l-16 -180h-406l-10 194l124 -4l218 1068l-102 -4l-10 170l510 10l-10 -160l-100 -4l226 -1100zM587 620l-108 614l-100 -614h208zM707 1740q-7 -44 -25.5 -85t-48 -72.5t-68.5 -51t-86 -19.5
t-87 17t-69.5 46.5t-47.5 69t-22 85.5l106 22q8 -56 42 -82t88 -26q23 0 42 10.5t33.5 27.5t23.5 38t13 42z" />
    <glyph glyph-name="abreve" unicode="&#x103;" horiz-adv-x="766" 
d="M740 170l-4 -160l-206 -20l-10 116q-21 -23 -48.5 -43.5t-59 -37t-65 -26t-65.5 -9.5q-62 0 -104.5 24.5t-68 65t-36.5 92.5t-11 106q0 68 22.5 124t63 95.5t97.5 61t125 21.5q27 0 53.5 -3.5t52.5 -12.5q2 17 2 32v32q0 9 -1 29.5t-3.5 46t-7.5 53t-13.5 50t-20 37
t-28.5 14.5q-19 0 -37 -13t-34 -33.5t-29.5 -46t-24.5 -50.5t-19 -46.5t-12 -34.5l-170 8l-6 372l166 4v-146q10 26 27 54t39.5 50.5t50 37t59.5 14.5q76 0 122.5 -23t71 -64.5t32.5 -100t8 -128.5q0 -136 -2 -271t-14 -271h108zM482 238v146q-14 20 -41.5 26t-50.5 6
q-72 0 -117 -35.5t-45 -112.5q0 -47 25 -79.5t75 -32.5q16 0 42.5 4.5t51 14.5t42.5 25.5t18 37.5zM610 1316q-7 -44 -25.5 -85t-48 -72.5t-68.5 -51t-86 -19.5t-87 17t-69.5 46.5t-47.5 69t-22 85.5l106 22q8 -56 42 -82t88 -26q23 0 42 10.5t33.5 27.5t23.5 38t13 42z" />
    <glyph glyph-name="Aogonek" unicode="&#x104;" horiz-adv-x="960" 
d="M906 -308q-21 -6 -42 -10t-44 -4q-38 0 -70 11.5t-54.5 33.5t-35 53t-12.5 70q0 34 11 67.5t30 65.5l-136 3l-10 194l124 -4l-52 292l-264 -12l-42 -260l116 -10l-16 -180h-406l-10 194l124 -4l218 1068l-102 -4l-10 170l510 10l-10 -160l-100 -4l226 -1100l124 -10
l-14 -190l-159 4q-15 -26 -24.5 -54.5t-9.5 -53.5q0 -35 14.5 -52.5t49.5 -17.5q28 0 52 12zM587 620l-108 614l-100 -614h208z" />
    <glyph glyph-name="aogonek" unicode="&#x105;" horiz-adv-x="766" 
d="M740 -308q-21 -6 -42 -10t-44 -4q-38 0 -70 11.5t-54.5 33.5t-35 53t-12.5 70q0 37 13 74t35 70l-10 116q-21 -23 -48.5 -43.5t-59 -37t-65 -26t-65.5 -9.5q-62 0 -104.5 24.5t-68 65t-36.5 92.5t-11 106q0 68 22.5 124t63 95.5t97.5 61t125 21.5q27 0 53.5 -3.5
t52.5 -12.5q2 17 2 32v32q0 9 -1 29.5t-3.5 46t-7.5 53t-13.5 50t-20 37t-28.5 14.5q-19 0 -37 -13t-34 -33.5t-29.5 -46t-24.5 -50.5t-19 -46.5t-12 -34.5l-170 8l-6 372l166 4v-146q10 26 27 54t39.5 50.5t50 37t59.5 14.5q76 0 122.5 -23t71 -64.5t32.5 -100t8 -128.5
q0 -136 -2 -271t-14 -271h108l-4 -160l-87 -9q-20 -31 -34.5 -66t-14.5 -67q0 -35 14.5 -52.5t49.5 -17.5q28 0 52 12zM482 238v146q-14 20 -41.5 26t-50.5 6q-72 0 -117 -35.5t-45 -112.5q0 -47 25 -79.5t75 -32.5q16 0 42.5 4.5t51 14.5t42.5 25.5t18 37.5z" />
    <glyph glyph-name="Cacute" unicode="&#x106;" horiz-adv-x="1033" 
d="M983 1444l-22 -510l-158 6q-6 35 -15.5 73t-24 74t-34.5 68.5t-47 57t-61 39t-76 14.5q-63 0 -109.5 -27t-79.5 -72t-54.5 -102.5t-33.5 -117.5t-16.5 -118.5t-4.5 -104.5q0 -43 4 -100.5t15.5 -118.5t31.5 -120.5t51.5 -106t75.5 -75.5t104 -29q73 0 122.5 32t80.5 82.5
t45.5 113t19.5 124.5h158q0 -103 -25.5 -200t-78.5 -172t-134.5 -120.5t-193.5 -45.5q-86 0 -154 35t-119.5 93.5t-87.5 134t-59 156.5t-33.5 161.5t-10.5 147.5q0 76 9.5 160t31 165.5t57 155.5t88.5 130t125 89.5t165 33.5q94 0 158 -44t112 -122l2 164zM814 1734
l-222 -232l-94 30l130 252z" />
    <glyph glyph-name="cacute" unicode="&#x107;" horiz-adv-x="738" 
d="M687 1022l-10 -410l-162 4q-1 28 -7.5 70.5t-21.5 83t-41 69.5t-66 29q-32 0 -54.5 -21t-37.5 -54t-24 -74t-13.5 -81t-5.5 -74.5t-1 -55.5q0 -23 0.5 -57.5t4 -73t11 -77t23 -69.5t39 -50t58.5 -19q41 0 68 28t43.5 67.5t23 82.5t7.5 74h160q-1 -68 -18 -142
t-53.5 -136.5t-93.5 -103t-137 -40.5q-70 0 -121.5 23t-88 62.5t-59.5 92t-36 110t-18 117.5t-5 115q0 48 6 105.5t20.5 115.5t38.5 113t59.5 97t83 67.5t110.5 25.5q50 0 95 -26t77 -64l20 86zM653 1344l-222 -232l-94 30l130 252z" />
    <glyph glyph-name="Ccircumflex" unicode="&#x108;" horiz-adv-x="1033" 
d="M983 1444l-22 -510l-158 6q-6 35 -15.5 73t-24 74t-34.5 68.5t-47 57t-61 39t-76 14.5q-63 0 -109.5 -27t-79.5 -72t-54.5 -102.5t-33.5 -117.5t-16.5 -118.5t-4.5 -104.5q0 -43 4 -100.5t15.5 -118.5t31.5 -120.5t51.5 -106t75.5 -75.5t104 -29q73 0 122.5 32t80.5 82.5
t45.5 113t19.5 124.5h158q0 -103 -25.5 -200t-78.5 -172t-134.5 -120.5t-193.5 -45.5q-86 0 -154 35t-119.5 93.5t-87.5 134t-59 156.5t-33.5 161.5t-10.5 147.5q0 76 9.5 160t31 165.5t57 155.5t88.5 130t125 89.5t165 33.5q94 0 158 -44t112 -122l2 164zM747 1538
l-142 -30l-92 174l-88 -174l-140 30l162 242l136 10z" />
    <glyph glyph-name="ccircumflex" unicode="&#x109;" horiz-adv-x="738" 
d="M687 1022l-10 -410l-162 4q-1 28 -7.5 70.5t-21.5 83t-41 69.5t-66 29q-32 0 -54.5 -21t-37.5 -54t-24 -74t-13.5 -81t-5.5 -74.5t-1 -55.5q0 -23 0.5 -57.5t4 -73t11 -77t23 -69.5t39 -50t58.5 -19q41 0 68 28t43.5 67.5t23 82.5t7.5 74h160q-1 -68 -18 -142
t-53.5 -136.5t-93.5 -103t-137 -40.5q-70 0 -121.5 23t-88 62.5t-59.5 92t-36 110t-18 117.5t-5 115q0 48 6 105.5t20.5 115.5t38.5 113t59.5 97t83 67.5t110.5 25.5q50 0 95 -26t77 -64l20 86zM600 1105l-142 -30l-92 174l-88 -174l-140 30l162 242l136 10z" />
    <glyph glyph-name="Cdotaccent" unicode="&#x10a;" horiz-adv-x="1033" 
d="M983 1444l-22 -510l-158 6q-6 35 -15.5 73t-24 74t-34.5 68.5t-47 57t-61 39t-76 14.5q-63 0 -109.5 -27t-79.5 -72t-54.5 -102.5t-33.5 -117.5t-16.5 -118.5t-4.5 -104.5q0 -43 4 -100.5t15.5 -118.5t31.5 -120.5t51.5 -106t75.5 -75.5t104 -29q73 0 122.5 32t80.5 82.5
t45.5 113t19.5 124.5h158q0 -103 -25.5 -200t-78.5 -172t-134.5 -120.5t-193.5 -45.5q-86 0 -154 35t-119.5 93.5t-87.5 134t-59 156.5t-33.5 161.5t-10.5 147.5q0 76 9.5 160t31 165.5t57 155.5t88.5 130t125 89.5t165 33.5q94 0 158 -44t112 -122l2 164zM617 1612
q0 -44 -29 -74t-73 -30q-21 0 -39.5 8.5t-32 23t-21 33.5t-7.5 39q0 44 30 74t74 30q22 0 40 -8.5t31 -22.5t20 -33t7 -40z" />
    <glyph glyph-name="cdotaccent" unicode="&#x10b;" horiz-adv-x="738" 
d="M687 1022l-10 -410l-162 4q-1 28 -7.5 70.5t-21.5 83t-41 69.5t-66 29q-32 0 -54.5 -21t-37.5 -54t-24 -74t-13.5 -81t-5.5 -74.5t-1 -55.5q0 -23 0.5 -57.5t4 -73t11 -77t23 -69.5t39 -50t58.5 -19q41 0 68 28t43.5 67.5t23 82.5t7.5 74h160q-1 -68 -18 -142
t-53.5 -136.5t-93.5 -103t-137 -40.5q-70 0 -121.5 23t-88 62.5t-59.5 92t-36 110t-18 117.5t-5 115q0 48 6 105.5t20.5 115.5t38.5 113t59.5 97t83 67.5t110.5 25.5q50 0 95 -26t77 -64l20 86zM470 1199q0 -44 -29 -74t-73 -30q-21 0 -39.5 8.5t-32 23t-21 33.5t-7.5 39
q0 44 30 74t74 30q22 0 40 -8.5t31 -22.5t20 -33t7 -40z" />
    <glyph glyph-name="Ccaron" unicode="&#x10c;" horiz-adv-x="1033" 
d="M983 1444l-22 -510l-158 6q-6 35 -15.5 73t-24 74t-34.5 68.5t-47 57t-61 39t-76 14.5q-63 0 -109.5 -27t-79.5 -72t-54.5 -102.5t-33.5 -117.5t-16.5 -118.5t-4.5 -104.5q0 -43 4 -100.5t15.5 -118.5t31.5 -120.5t51.5 -106t75.5 -75.5t104 -29q73 0 122.5 32t80.5 82.5
t45.5 113t19.5 124.5h158q0 -103 -25.5 -200t-78.5 -172t-134.5 -120.5t-193.5 -45.5q-86 0 -154 35t-119.5 93.5t-87.5 134t-59 156.5t-33.5 161.5t-10.5 147.5q0 76 9.5 160t31 165.5t57 155.5t88.5 130t125 89.5t165 33.5q94 0 158 -44t112 -122l2 164zM747 1765
l-162 -242l-134 -10l-166 252l142 30l92 -174l88 174z" />
    <glyph glyph-name="ccaron" unicode="&#x10d;" horiz-adv-x="738" 
d="M687 1022l-10 -410l-162 4q-1 28 -7.5 70.5t-21.5 83t-41 69.5t-66 29q-32 0 -54.5 -21t-37.5 -54t-24 -74t-13.5 -81t-5.5 -74.5t-1 -55.5q0 -23 0.5 -57.5t4 -73t11 -77t23 -69.5t39 -50t58.5 -19q41 0 68 28t43.5 67.5t23 82.5t7.5 74h160q-1 -68 -18 -142
t-53.5 -136.5t-93.5 -103t-137 -40.5q-70 0 -121.5 23t-88 62.5t-59.5 92t-36 110t-18 117.5t-5 115q0 48 6 105.5t20.5 115.5t38.5 113t59.5 97t83 67.5t110.5 25.5q50 0 95 -26t77 -64l20 86zM600 1345l-162 -242l-134 -10l-166 252l142 30l92 -174l88 174z" />
    <glyph glyph-name="Dcaron" unicode="&#x10e;" horiz-adv-x="1029" 
d="M966 704q0 -87 -11.5 -181.5t-41 -183t-80 -164.5t-129.5 -127q-48 -32 -103.5 -49t-112.5 -17h-6l-402 6l-6 184h118l-2 1054l-114 -4l-10 194q88 6 174.5 8t175.5 2h114q91 0 159 -34t116.5 -91t79.5 -131t49 -154.5t25 -161t7 -150.5zM782 728v18q0 34 -4.5 83.5
t-14.5 104.5t-28 109t-44 97.5t-62.5 70.5t-84.5 27h-64h-54t-54 -2l-10 -1074q20 -2 39 -3t39 -1q53 0 104 6q56 9 95.5 42.5t66 82t41.5 107.5t23 118.5t10 115.5t2 98zM745 1734l-162 -242l-134 -10l-166 252l142 30l92 -174l88 174z" />
    <glyph glyph-name="dcaron" unicode="&#x10f;" horiz-adv-x="1079" 
d="M821 -2l-268 -8l-14 116q-33 -54 -88 -85t-118 -31q-62 0 -106.5 26t-76 69t-51 98t-30 113t-14.5 114t-4 102t6 103.5t20.5 116.5t38 115t58 100t81.5 70.5t108 26.5q47 0 89.5 -24.5t66.5 -63.5v326h-180v172l366 -6l-16 -1288l132 4v-166zM513 736q-6 18 -17 40
t-26.5 41.5t-35 33t-41.5 13.5q-33 0 -57.5 -19t-41.5 -49t-28.5 -67.5t-17.5 -75t-8.5 -71t-2.5 -56.5v-55t3 -73.5t10.5 -80t21.5 -73.5t36 -53.5t55 -20.5q25 0 48 14.5t42 36t33.5 45.5t22.5 44zM1029 1294q0 -75 -35.5 -138t-98.5 -102l-52 42q12 12 28.5 33t19.5 39
q-25 2 -46 13t-36.5 27.5t-24.5 38.5t-9 47q0 26 10 49.5t27 41t40 27.5t49 10t49.5 -10t41 -27.5t27.5 -41t10 -49.5z" />
    <glyph glyph-name="Dcroat" unicode="&#x110;" horiz-adv-x="1029" 
d="M190 570l-110 -2l-6 186h116v472l-114 -4l-10 194q88 6 174.5 8t175.5 2h114q91 0 159 -34t116.5 -91t79.5 -131t49 -154.5t25 -161t7 -150.5q0 -87 -11.5 -181.5t-41 -183t-80 -164.5t-129.5 -127q-48 -32 -103.5 -49t-112.5 -17h-6l-402 6l-6 184h118zM542 758
l-10 -180l-166 -4l-4 -412q20 -2 39 -3t39 -1q53 0 104 6q56 9 95.5 42.5t66 82t41.5 107.5t23 118.5t10 115.5t2 98v18q0 34 -4.5 83.5t-14.5 104.5t-28 109t-44 97.5t-62.5 70.5t-84.5 27h-64h-54t-54 -2l-4 -480z" />
    <glyph glyph-name="dcroat" unicode="&#x111;" horiz-adv-x="831" 
d="M808 1249l-8 -148l-100 -2l-11 -939l132 4v-166l-268 -8l-14 116q-33 -54 -88 -85t-118 -31q-62 0 -106.5 26t-76 69t-51 98t-30 113t-14.5 114t-4 102t6 103.5t20.5 116.5t38 115t58 100t81.5 70.5t108 26.5q47 0 89.5 -24.5t66.5 -63.5v140l-217 -4l-5 154l222 1v35
h-87v172l273 -6l-3 -200zM513 736q-6 18 -17 40t-26.5 41.5t-35 33t-41.5 13.5q-33 0 -57.5 -19t-41.5 -49t-28.5 -67.5t-17.5 -75t-8.5 -71t-2.5 -56.5v-55t3 -73.5t10.5 -80t21.5 -73.5t36 -53.5t55 -20.5q25 0 48 14.5t42 36t33.5 45.5t22.5 44z" />
    <glyph glyph-name="Emacron" unicode="&#x112;" horiz-adv-x="953" 
d="M903 1038l-148 -10l-20 206l-364 -8l-4 -446h304v-144l-306 -18l-4 -446l374 14v220h148l10 -398l-814 -20l-6 184h118l-2 1054l-124 -4l10 194l818 10zM682 1495l-412 10l10 124h392z" />
    <glyph glyph-name="emacron" unicode="&#x113;" horiz-adv-x="718" 
d="M667 606q0 -82 -6 -160l-430 -8q0 -21 2 -50.5t6.5 -62t13 -64t22.5 -57t34.5 -41t49.5 -15.5q31 0 53.5 16.5t37 41t22.5 53.5t11 55h174q-9 -57 -30 -115t-56 -105t-85 -76.5t-117 -29.5q-70 0 -120.5 26.5t-85.5 70.5t-57 101.5t-33.5 119t-15.5 123.5t-4 115
q0 48 5.5 104t18.5 111t35.5 106t56.5 89.5t81 62t109 23.5q106 0 167 -33.5t92.5 -92t40 -138t8.5 -170.5zM493 664q0 30 -3.5 68t-16 72t-36.5 57t-64 23q-35 0 -59 -15.5t-40 -40.5t-25 -57.5t-13 -66t-5.5 -65.5t-1.5 -57h258q6 42 6 82zM565 1097l-412 10l10 124h392z
" />
    <glyph glyph-name="Ebreve" unicode="&#x114;" horiz-adv-x="953" 
d="M903 1038l-148 -10l-20 206l-364 -8l-4 -446h304v-144l-306 -18l-4 -446l374 14v220h148l10 -398l-814 -20l-6 184h118l-2 1054l-124 -4l10 194l818 10zM703 1709q-7 -44 -25.5 -85t-48 -72.5t-68.5 -51t-86 -19.5t-87 17t-69.5 46.5t-47.5 69t-22 85.5l106 22
q8 -56 42 -82t88 -26q23 0 42 10.5t33.5 27.5t23.5 38t13 42z" />
    <glyph glyph-name="ebreve" unicode="&#x115;" horiz-adv-x="718" 
d="M667 606q0 -82 -6 -160l-430 -8q0 -21 2 -50.5t6.5 -62t13 -64t22.5 -57t34.5 -41t49.5 -15.5q31 0 53.5 16.5t37 41t22.5 53.5t11 55h174q-9 -57 -30 -115t-56 -105t-85 -76.5t-117 -29.5q-70 0 -120.5 26.5t-85.5 70.5t-57 101.5t-33.5 119t-15.5 123.5t-4 115
q0 48 5.5 104t18.5 111t35.5 106t56.5 89.5t81 62t109 23.5q106 0 167 -33.5t92.5 -92t40 -138t8.5 -170.5zM493 664q0 30 -3.5 68t-16 72t-36.5 57t-64 23q-35 0 -59 -15.5t-40 -40.5t-25 -57.5t-13 -66t-5.5 -65.5t-1.5 -57h258q6 42 6 82zM586 1329q-7 -44 -25.5 -85
t-48 -72.5t-68.5 -51t-86 -19.5t-87 17t-69.5 46.5t-47.5 69t-22 85.5l106 22q8 -56 42 -82t88 -26q23 0 42 10.5t33.5 27.5t23.5 38t13 42z" />
    <glyph glyph-name="Edotaccent" unicode="&#x116;" horiz-adv-x="953" 
d="M903 1038l-148 -10l-20 206l-364 -8l-4 -446h304v-144l-306 -18l-4 -446l374 14v220h148l10 -398l-814 -20l-6 184h118l-2 1054l-124 -4l10 194l818 10zM577 1592q0 -44 -29 -74t-73 -30q-21 0 -39.5 8.5t-32 23t-21 33.5t-7.5 39q0 44 30 74t74 30q22 0 40 -8.5
t31 -22.5t20 -33t7 -40z" />
    <glyph glyph-name="edotaccent" unicode="&#x117;" horiz-adv-x="718" 
d="M667 606q0 -82 -6 -160l-430 -8q0 -21 2 -50.5t6.5 -62t13 -64t22.5 -57t34.5 -41t49.5 -15.5q31 0 53.5 16.5t37 41t22.5 53.5t11 55h174q-9 -57 -30 -115t-56 -105t-85 -76.5t-117 -29.5q-70 0 -120.5 26.5t-85.5 70.5t-57 101.5t-33.5 119t-15.5 123.5t-4 115
q0 48 5.5 104t18.5 111t35.5 106t56.5 89.5t81 62t109 23.5q106 0 167 -33.5t92.5 -92t40 -138t8.5 -170.5zM493 664q0 30 -3.5 68t-16 72t-36.5 57t-64 23q-35 0 -59 -15.5t-40 -40.5t-25 -57.5t-13 -66t-5.5 -65.5t-1.5 -57h258q6 42 6 82zM460 1199q0 -44 -29 -74
t-73 -30q-21 0 -39.5 8.5t-32 23t-21 33.5t-7.5 39q0 44 30 74t74 30q22 0 40 -8.5t31 -22.5t20 -33t7 -40z" />
    <glyph glyph-name="Eogonek" unicode="&#x118;" horiz-adv-x="953" 
d="M903 -308q-21 -6 -42 -10t-44 -4q-38 0 -70 11.5t-54.5 33.5t-35 53t-12.5 70q0 41 16 81.5t41 75.5l-623 -15l-6 184h118l-2 1054l-124 -4l10 194l818 10l10 -388l-148 -10l-20 206l-364 -8l-4 -446h304v-144l-306 -18l-4 -446l374 14v220h148l10 -398l-78 -2
q-21 -32 -36.5 -69t-15.5 -69q0 -35 14.5 -52.5t49.5 -17.5q28 0 52 12z" />
    <glyph glyph-name="eogonek" unicode="&#x119;" horiz-adv-x="718" 
d="M489 -308q-21 -6 -42 -10t-44 -4q-38 0 -70 11.5t-54.5 33.5t-35 53t-12.5 70q0 40 15 79.5t40 74.5q-51 15 -88.5 48t-63 78t-41.5 98t-25 108.5t-12 110t-3 101.5q0 48 5.5 104t18.5 111t35.5 106t56.5 89.5t81 62t109 23.5q106 0 167 -33.5t92.5 -92t40 -138
t8.5 -170.5q0 -82 -6 -160l-430 -8q0 -21 2 -50.5t6.5 -62t13 -64t22.5 -57t34.5 -41t49.5 -15.5q31 0 53.5 16.5t37 41t22.5 53.5t11 55h174q-9 -55 -28.5 -110.5t-52 -101.5t-79 -77t-107.5 -36q-17 -29 -29 -61t-12 -60q0 -35 14.5 -52.5t49.5 -17.5q28 0 52 12zM493 664
q0 30 -3.5 68t-16 72t-36.5 57t-64 23q-35 0 -59 -15.5t-40 -40.5t-25 -57.5t-13 -66t-5.5 -65.5t-1.5 -57h258q6 42 6 82z" />
    <glyph glyph-name="Ecaron" unicode="&#x11a;" horiz-adv-x="953" 
d="M903 1038l-148 -10l-20 206l-364 -8l-4 -446h304v-144l-306 -18l-4 -446l374 14v220h148l10 -398l-814 -20l-6 184h118l-2 1054l-124 -4l10 194l818 10zM707 1734l-162 -242l-134 -10l-166 252l142 30l92 -174l88 174z" />
    <glyph glyph-name="ecaron" unicode="&#x11b;" horiz-adv-x="718" 
d="M667 606q0 -82 -6 -160l-430 -8q0 -21 2 -50.5t6.5 -62t13 -64t22.5 -57t34.5 -41t49.5 -15.5q31 0 53.5 16.5t37 41t22.5 53.5t11 55h174q-9 -57 -30 -115t-56 -105t-85 -76.5t-117 -29.5q-70 0 -120.5 26.5t-85.5 70.5t-57 101.5t-33.5 119t-15.5 123.5t-4 115
q0 48 5.5 104t18.5 111t35.5 106t56.5 89.5t81 62t109 23.5q106 0 167 -33.5t92.5 -92t40 -138t8.5 -170.5zM493 664q0 30 -3.5 68t-16 72t-36.5 57t-64 23q-35 0 -59 -15.5t-40 -40.5t-25 -57.5t-13 -66t-5.5 -65.5t-1.5 -57h258q6 42 6 82zM590 1341l-162 -242l-134 -10
l-166 252l142 30l92 -174l88 174z" />
    <glyph glyph-name="Gcircumflex" unicode="&#x11c;" horiz-adv-x="1028" 
d="M960 530q0 -98 -27.5 -194.5t-82.5 -174t-136.5 -125.5t-189.5 -48q-86 0 -154 35t-119.5 93.5t-87.5 134t-59 156.5t-33.5 161.5t-10.5 147.5q0 73 8 156t27.5 164.5t53 156t84 132t120.5 91.5t163 34q48 0 84 -11.5t65 -33t53 -52.5t48 -69l2 164l176 -4l-22 -510
l-158 6q-8 49 -23.5 106.5t-42.5 106t-69.5 81t-104.5 32.5t-106.5 -27.5t-75 -73t-49.5 -103t-29 -118t-13 -118t-3 -102.5q0 -43 4 -100.5t15.5 -118.5t31.5 -120.5t51.5 -106t75.5 -75.5t104 -29q48 0 86 19t66.5 50.5t48 72.5t31.5 85t17.5 88.5t4.5 82.5v20l-282 8v138
l446 10q5 -54 8.5 -109t3.5 -109zM745 1542l-142 -30l-92 174l-88 -174l-140 30l162 242l136 10z" />
    <glyph glyph-name="gcircumflex" unicode="&#x11d;" horiz-adv-x="721" 
d="M760 1058l-156 -138q20 -53 27 -116.5t7 -119.5q0 -74 -17.5 -136.5t-54 -110t-93 -77.5t-133.5 -38q-8 -5 -17.5 -12t-17.5 -15.5t-13.5 -18.5t-5.5 -20q0 -9 6 -21.5t14 -24.5t16.5 -23t13.5 -17q67 0 132.5 -13t117 -44.5t83 -83.5t31.5 -131q0 -67 -31.5 -122.5
t-82 -96t-113.5 -63t-125 -22.5q-65 0 -120.5 19.5t-96 56t-63 89t-22.5 119.5q0 74 30.5 138.5t93.5 105.5q-18 29 -32 61t-14 65q0 35 18 68t48 50q-34 25 -58.5 64t-41 83.5t-24.5 91t-8 87.5q0 80 18 146.5t56 114.5t97.5 74.5t142.5 26.5q22 0 39.5 -2t33.5 -6.5
t32 -11t35 -16.5l126 160zM472 696q0 28 -6.5 61.5t-21.5 62t-39 47.5t-59 19q-41 0 -65 -16.5t-36.5 -43t-16.5 -59.5t-4 -65q0 -27 5.5 -64t19 -71t37 -57.5t60.5 -23.5q35 0 59 22.5t39 55t21.5 68.5t6.5 64zM540 -98q0 35 -19 59t-47.5 39t-62 21.5t-61.5 6.5
q-66 0 -99 -41.5t-33 -104.5q0 -32 16 -54t40 -35.5t53.5 -20t56.5 -6.5q28 0 56 9.5t50.5 27.5t36 43t13.5 56zM573 1132l-142 -30l-92 174l-88 -174l-140 30l162 242l136 10z" />
    <glyph glyph-name="Gbreve" unicode="&#x11e;" horiz-adv-x="1028" 
d="M960 530q0 -98 -27.5 -194.5t-82.5 -174t-136.5 -125.5t-189.5 -48q-86 0 -154 35t-119.5 93.5t-87.5 134t-59 156.5t-33.5 161.5t-10.5 147.5q0 73 8 156t27.5 164.5t53 156t84 132t120.5 91.5t163 34q48 0 84 -11.5t65 -33t53 -52.5t48 -69l2 164l176 -4l-22 -510
l-158 6q-8 49 -23.5 106.5t-42.5 106t-69.5 81t-104.5 32.5t-106.5 -27.5t-75 -73t-49.5 -103t-29 -118t-13 -118t-3 -102.5q0 -43 4 -100.5t15.5 -118.5t31.5 -120.5t51.5 -106t75.5 -75.5t104 -29q48 0 86 19t66.5 50.5t48 72.5t31.5 85t17.5 88.5t4.5 82.5v20l-282 8v138
l446 10q5 -54 8.5 -109t3.5 -109zM741 1740q-7 -44 -25.5 -85t-48 -72.5t-68.5 -51t-86 -19.5t-87 17t-69.5 46.5t-47.5 69t-22 85.5l106 22q8 -56 42 -82t88 -26q23 0 42 10.5t33.5 27.5t23.5 38t13 42z" />
    <glyph glyph-name="gbreve" unicode="&#x11f;" horiz-adv-x="721" 
d="M760 1058l-156 -138q20 -53 27 -116.5t7 -119.5q0 -74 -17.5 -136.5t-54 -110t-93 -77.5t-133.5 -38q-8 -5 -17.5 -12t-17.5 -15.5t-13.5 -18.5t-5.5 -20q0 -9 6 -21.5t14 -24.5t16.5 -23t13.5 -17q67 0 132.5 -13t117 -44.5t83 -83.5t31.5 -131q0 -67 -31.5 -122.5
t-82 -96t-113.5 -63t-125 -22.5q-65 0 -120.5 19.5t-96 56t-63 89t-22.5 119.5q0 74 30.5 138.5t93.5 105.5q-18 29 -32 61t-14 65q0 35 18 68t48 50q-34 25 -58.5 64t-41 83.5t-24.5 91t-8 87.5q0 80 18 146.5t56 114.5t97.5 74.5t142.5 26.5q22 0 39.5 -2t33.5 -6.5
t32 -11t35 -16.5l126 160zM472 696q0 28 -6.5 61.5t-21.5 62t-39 47.5t-59 19q-41 0 -65 -16.5t-36.5 -43t-16.5 -59.5t-4 -65q0 -27 5.5 -64t19 -71t37 -57.5t60.5 -23.5q35 0 59 22.5t39 55t21.5 68.5t6.5 64zM540 -98q0 35 -19 59t-47.5 39t-62 21.5t-61.5 6.5
q-66 0 -99 -41.5t-33 -104.5q0 -32 16 -54t40 -35.5t53.5 -20t56.5 -6.5q28 0 56 9.5t50.5 27.5t36 43t13.5 56zM560 1338q-7 -44 -25.5 -85t-48 -72.5t-68.5 -51t-86 -19.5t-87 17t-69.5 46.5t-47.5 69t-22 85.5l106 22q8 -56 42 -82t88 -26q23 0 42 10.5t33.5 27.5
t23.5 38t13 42z" />
    <glyph glyph-name="Gdotaccent" unicode="&#x120;" horiz-adv-x="1028" 
d="M960 530q0 -98 -27.5 -194.5t-82.5 -174t-136.5 -125.5t-189.5 -48q-86 0 -154 35t-119.5 93.5t-87.5 134t-59 156.5t-33.5 161.5t-10.5 147.5q0 73 8 156t27.5 164.5t53 156t84 132t120.5 91.5t163 34q48 0 84 -11.5t65 -33t53 -52.5t48 -69l2 164l176 -4l-22 -510
l-158 6q-8 49 -23.5 106.5t-42.5 106t-69.5 81t-104.5 32.5t-106.5 -27.5t-75 -73t-49.5 -103t-29 -118t-13 -118t-3 -102.5q0 -43 4 -100.5t15.5 -118.5t31.5 -120.5t51.5 -106t75.5 -75.5t104 -29q48 0 86 19t66.5 50.5t48 72.5t31.5 85t17.5 88.5t4.5 82.5v20l-282 8v138
l446 10q5 -54 8.5 -109t3.5 -109zM615 1622q0 -44 -29 -74t-73 -30q-21 0 -39.5 8.5t-32 23t-21 33.5t-7.5 39q0 44 30 74t74 30q22 0 40 -8.5t31 -22.5t20 -33t7 -40z" />
    <glyph glyph-name="gdotaccent" unicode="&#x121;" horiz-adv-x="721" 
d="M760 1058l-156 -138q20 -53 27 -116.5t7 -119.5q0 -74 -17.5 -136.5t-54 -110t-93 -77.5t-133.5 -38q-8 -5 -17.5 -12t-17.5 -15.5t-13.5 -18.5t-5.5 -20q0 -9 6 -21.5t14 -24.5t16.5 -23t13.5 -17q67 0 132.5 -13t117 -44.5t83 -83.5t31.5 -131q0 -67 -31.5 -122.5
t-82 -96t-113.5 -63t-125 -22.5q-65 0 -120.5 19.5t-96 56t-63 89t-22.5 119.5q0 74 30.5 138.5t93.5 105.5q-18 29 -32 61t-14 65q0 35 18 68t48 50q-34 25 -58.5 64t-41 83.5t-24.5 91t-8 87.5q0 80 18 146.5t56 114.5t97.5 74.5t142.5 26.5q22 0 39.5 -2t33.5 -6.5
t32 -11t35 -16.5l126 160zM472 696q0 28 -6.5 61.5t-21.5 62t-39 47.5t-59 19q-41 0 -65 -16.5t-36.5 -43t-16.5 -59.5t-4 -65q0 -27 5.5 -64t19 -71t37 -57.5t60.5 -23.5q35 0 59 22.5t39 55t21.5 68.5t6.5 64zM540 -98q0 35 -19 59t-47.5 39t-62 21.5t-61.5 6.5
q-66 0 -99 -41.5t-33 -104.5q0 -32 16 -54t40 -35.5t53.5 -20t56.5 -6.5q28 0 56 9.5t50.5 27.5t36 43t13.5 56zM461 1213q0 -44 -29 -74t-73 -30q-21 0 -39.5 8.5t-32 23t-21 33.5t-7.5 39q0 44 30 74t74 30q22 0 40 -8.5t31 -22.5t20 -33t7 -40z" />
    <glyph glyph-name="Gcommaaccent" unicode="&#x122;" horiz-adv-x="1028" 
d="M960 530q0 -98 -27.5 -194.5t-82.5 -174t-136.5 -125.5t-189.5 -48q-86 0 -154 35t-119.5 93.5t-87.5 134t-59 156.5t-33.5 161.5t-10.5 147.5q0 73 8 156t27.5 164.5t53 156t84 132t120.5 91.5t163 34q48 0 84 -11.5t65 -33t53 -52.5t48 -69l2 164l176 -4l-22 -510
l-158 6q-8 49 -23.5 106.5t-42.5 106t-69.5 81t-104.5 32.5t-106.5 -27.5t-75 -73t-49.5 -103t-29 -118t-13 -118t-3 -102.5q0 -43 4 -100.5t15.5 -118.5t31.5 -120.5t51.5 -106t75.5 -75.5t104 -29q48 0 86 19t66.5 50.5t48 72.5t31.5 85t17.5 88.5t4.5 82.5v20l-282 8v138
l446 10q5 -54 8.5 -109t3.5 -109zM612 -163q0 -60 -28 -110t-79 -82l-42 34q5 5 11 12t12 14.5t10.5 15.5t5.5 15q-40 4 -66.5 32.5t-26.5 68.5q0 21 8 39.5t21.5 33t32 22.5t39.5 8t39.5 -8t32.5 -22.5t22 -33t8 -39.5z" />
    <glyph glyph-name="gcommaaccent" unicode="&#x123;" horiz-adv-x="721" 
d="M760 1058l-156 -138q20 -53 27 -116.5t7 -119.5q0 -74 -17.5 -136.5t-54 -110t-93 -77.5t-133.5 -38q-8 -5 -17.5 -12t-17.5 -15.5t-13.5 -18.5t-5.5 -20q0 -9 6 -21.5t14 -24.5t16.5 -23t13.5 -17q67 0 132.5 -13t117 -44.5t83 -83.5t31.5 -131q0 -67 -31.5 -122.5
t-82 -96t-113.5 -63t-125 -22.5q-65 0 -120.5 19.5t-96 56t-63 89t-22.5 119.5q0 74 30.5 138.5t93.5 105.5q-18 29 -32 61t-14 65q0 35 18 68t48 50q-34 25 -58.5 64t-41 83.5t-24.5 91t-8 87.5q0 80 18 146.5t56 114.5t97.5 74.5t142.5 26.5q22 0 39.5 -2t33.5 -6.5
t32 -11t35 -16.5l126 160zM472 696q0 28 -6.5 61.5t-21.5 62t-39 47.5t-59 19q-41 0 -65 -16.5t-36.5 -43t-16.5 -59.5t-4 -65q0 -27 5.5 -64t19 -71t37 -57.5t60.5 -23.5q35 0 59 22.5t39 55t21.5 68.5t6.5 64zM540 -98q0 35 -19 59t-47.5 39t-62 21.5t-61.5 6.5
q-66 0 -99 -41.5t-33 -104.5q0 -32 16 -54t40 -35.5t53.5 -20t56.5 -6.5q28 0 56 9.5t50.5 27.5t36 43t13.5 56zM442 1213q0 -21 -8 -39.5t-22 -32t-32.5 -21.5t-39.5 -8t-39.5 8t-32 21.5t-21.5 32t-8 39.5q0 60 27.5 110.5t78.5 83.5l43 -34q-5 -5 -11.5 -12t-12 -15
t-9.5 -16.5t-5 -15.5q38 -4 65 -32.5t27 -68.5z" />
    <glyph glyph-name="Hcircumflex" unicode="&#x124;" horiz-adv-x="1194" 
d="M1118 1232l-104 4l-20 -1064h116l6 -184l-444 10v180l142 -6l6 378h-456v-356h118l4 -186l-434 10v180l142 -4l-10 1012l-136 10l4 180h418v-194l-106 4v-500l454 16l4 514l-134 10l4 180h426v-194zM828 1512l-142 -30l-92 174l-88 -174l-140 30l162 242l136 10z" />
    <glyph glyph-name="hcircumflex" unicode="&#x125;" horiz-adv-x="836" 
d="M745 1122l-142 -30l-56 174l-88 -174l-125 30l147 242l129 10zM812 136l-20 -162l-336 16l-4 160l88 10q3 139 5.5 276t2.5 276q0 25 -4.5 51t-15.5 47.5t-30.5 35.5t-49.5 14t-53.5 -14.5t-41 -37.5t-30 -53t-20.5 -61t-12 -60.5t-5 -51.5q-5 -106 -6.5 -211t-3.5 -211
h88l10 -162l-346 -4v186l98 4l-6 1104l-146 10l4 170l310 10l6 -568q17 29 42 54t55 43t64 28.5t69 10.5q45 0 77 -15.5t54 -41t34.5 -60t19.5 -72t9 -76t2 -73.5q0 -142 -3.5 -282t-6.5 -282z" />
    <glyph glyph-name="Hbar" unicode="&#x126;" horiz-adv-x="1194" 
d="M1142 805l-136 1l-12 -634h116l6 -184l-444 10v180l142 -6l6 378h-456v-356h118l4 -186l-434 10v180l142 -4l-6 621l-117 1l26 137h89l-2 253l-136 10l4 180h418v-194l-106 4v-253h455l3 283l-134 10l4 180h426v-194l-104 4l-6 -283h108zM818 722v86l-454 5v-107z" />
    <glyph glyph-name="hbar" unicode="&#x127;" horiz-adv-x="836" 
d="M401 1069l-109 2l2 -161q17 29 42 54t55 43t64 28.5t69 10.5q45 0 77 -15.5t54 -41t34.5 -60t19.5 -72t9 -76t2 -73.5q0 -142 -3.5 -282t-6.5 -282l102 -8l-20 -162l-336 16l-4 160l88 10q3 139 5.5 276t2.5 276q0 25 -4.5 51t-15.5 47.5t-30.5 35.5t-49.5 14
t-53.5 -14.5t-41 -37.5t-30 -53t-20.5 -61t-12 -60.5t-5 -51.5q-5 -106 -6.5 -211t-3.5 -211h88l10 -162l-346 -4v186l98 4l-5 892l-132 3l10 124h121v85l-146 10l4 170l310 10l3 -275h100z" />
    <glyph glyph-name="Itilde" unicode="&#x128;" horiz-adv-x="555" 
d="M501 198l-10 -180l-412 -10l-6 186h118l-2 1022l-124 -4l10 194h396l16 -180l-116 -10l-10 -1022zM520 1528q-14 -12 -31.5 -24t-37 -22t-40 -16t-39.5 -6q-26 0 -50.5 13t-47.5 28t-45.5 28t-44.5 13q-12 0 -28 -10.5t-32 -25t-29.5 -29.5t-20.5 -23l-40 120
q12 14 29.5 31t38 31.5t42.5 24t42 9.5q26 0 48 -12.5t43.5 -27.5t44 -27.5t50.5 -12.5q30 0 60 19.5t48 40.5z" />
    <glyph glyph-name="itilde" unicode="&#x129;" horiz-adv-x="457" 
d="M433 140l-6 -166l-366 16v174l84 6v674h-122l4 174h322l-24 -868zM473 1155q-14 -12 -31.5 -24t-37 -22t-40 -16t-39.5 -6q-26 0 -50.5 13t-47.5 28t-45.5 28t-44.5 13q-12 0 -28 -10.5t-32 -25t-29.5 -29.5t-20.5 -23l-40 120q12 14 29.5 31t38 31.5t42.5 24t42 9.5
q26 0 48 -12.5t43.5 -27.5t44 -27.5t50.5 -12.5q30 0 60 19.5t48 40.5z" />
    <glyph glyph-name="Imacron" unicode="&#x12a;" horiz-adv-x="555" 
d="M501 198l-10 -180l-412 -10l-6 186h118l-2 1022l-124 -4l10 194h396l16 -180l-116 -10l-10 -1022zM483 1477l-412 10l10 124h392z" />
    <glyph glyph-name="imacron" unicode="&#x12b;" horiz-adv-x="457" 
d="M433 140l-6 -166l-366 16v174l84 6v674h-122l4 174h322l-24 -868zM434 1090l-412 10l10 124h392z" />
    <glyph glyph-name="Ibreve" unicode="&#x12c;" horiz-adv-x="555" 
d="M501 198l-10 -180l-412 -10l-6 186h118l-2 1022l-124 -4l10 194h396l16 -180l-116 -10l-10 -1022zM504 1683q-7 -44 -25.5 -85t-48 -72.5t-68.5 -51t-86 -19.5t-87 17t-69.5 46.5t-47.5 69t-22 85.5l106 22q8 -56 42 -82t88 -26q23 0 42 10.5t33.5 27.5t23.5 38t13 42z
" />
    <glyph glyph-name="ibreve" unicode="&#x12d;" horiz-adv-x="457" 
d="M433 140l-6 -166l-366 16v174l84 6v674h-122l4 174h322l-24 -868zM455 1315q-7 -44 -25.5 -85t-48 -72.5t-68.5 -51t-86 -19.5t-87 17t-69.5 46.5t-47.5 69t-22 85.5l106 22q8 -56 42 -82t88 -26q23 0 42 10.5t33.5 27.5t23.5 38t13 42z" />
    <glyph glyph-name="Iogonek" unicode="&#x12e;" horiz-adv-x="555" 
d="M410 -308q-21 -6 -42 -10t-44 -4q-38 0 -70 11.5t-54.5 33.5t-35 53t-12.5 70q0 43 18 86.5t45 78.5l-136 -3l-6 186h118l-2 1022l-124 -4l10 194h396l16 -180l-116 -10l-10 -1022l140 4l-10 -180l-164 -4q-23 -32 -40 -71.5t-17 -74.5t14.5 -52.5t49.5 -17.5q28 0 52 12
z" />
    <glyph glyph-name="iogonek" unicode="&#x12f;" horiz-adv-x="457" 
d="M357 -308q-21 -6 -42 -10t-44 -4q-38 0 -70 11.5t-54.5 33.5t-35 53t-12.5 70q0 36 12.5 72.5t33.5 68.5l-84 3v174l84 6v674h-122l4 174h322l-24 -868l108 -10l-6 -166l-173 8q-16 -28 -26.5 -58t-10.5 -56q0 -35 14.5 -52.5t49.5 -17.5q28 0 52 12zM349 1258
q0 -26 -10 -49t-27 -40t-40 -27t-49 -10t-49 10t-40 27t-27 40t-10 49t10 49t27 40t40 27t49 10t49 -10t40 -27t27 -40t10 -49z" />
    <glyph glyph-name="Idotaccent" unicode="&#x130;" horiz-adv-x="555" 
d="M501 198l-10 -180l-412 -10l-6 186h118l-2 1022l-124 -4l10 194h396l16 -180l-116 -10l-10 -1022zM378 1592q0 -44 -29 -74t-73 -30q-21 0 -39.5 8.5t-32 23t-21 33.5t-7.5 39q0 44 30 74t74 30q22 0 40 -8.5t31 -22.5t20 -33t7 -40z" />
    <glyph glyph-name="dotlessi" unicode="&#x131;" horiz-adv-x="457" 
d="M433 140l-6 -166l-366 16v174l84 6v674h-122l4 174h322l-24 -868z" />
    <glyph glyph-name="IJ" unicode="&#x132;" horiz-adv-x="1362" 
d="M501 198l-10 -180l-412 -10l-6 186h118l-2 1022l-124 -4l10 194h396l16 -180l-116 -10l-10 -1022zM1333 1242h-148v-900q0 -83 -19 -150t-59.5 -114.5t-103 -73.5t-150.5 -26q-69 0 -120.5 26.5t-85.5 71.5t-51 103t-17 121q0 60 1 121t7 121h186q-5 -59 -8.5 -117
t-3.5 -117q0 -24 5.5 -51.5t18 -51.5t33 -39.5t49.5 -15.5q43 0 69.5 17.5t41.5 46t20 64.5t5 72v892l-180 -12l-10 192l520 12v-192z" />
    <glyph glyph-name="ij" unicode="&#x133;" horiz-adv-x="858" 
d="M349 1258q0 -26 -10 -49t-27 -40t-40 -27t-49 -10t-49 10t-40 27t-27 40t-10 49t10 49t27 40t40 27t49 10t49 -10t40 -27t27 -40t10 -49zM433 140l-6 -166l-366 16v174l84 6v674h-122l4 174h322l-24 -868zM786 1258q0 -26 -10 -49t-27.5 -40t-41 -27t-49.5 -10t-49 10
t-40 27t-27 40t-10 49t10 49.5t27 41t40 27.5t49 10t49.5 -10t41 -27.5t27.5 -41t10 -49.5zM772 1022l-6 -970q-1 -107 -20.5 -193t-67 -146t-126.5 -92.5t-198 -32.5q-20 0 -40 1t-40 3l4 176q85 -2 143.5 7.5t94.5 40t52 87.5t16 149v808l-116 -6l6 166z" />
    <glyph glyph-name="Jcircumflex" unicode="&#x134;" horiz-adv-x="807" 
d="M778 1242h-148v-900q0 -83 -19 -150t-59.5 -114.5t-103 -73.5t-150.5 -26q-69 0 -120.5 26.5t-85.5 71.5t-51 103t-17 121q0 60 1 121t7 121h186q-5 -59 -8.5 -117t-3.5 -117q0 -24 5.5 -51.5t18 -51.5t33 -39.5t49.5 -15.5q43 0 69.5 17.5t41.5 46t20 64.5t5 72v892
l-180 -12l-10 192l520 12v-192zM767 1512l-142 -30l-92 174l-88 -174l-140 30l162 242l136 10z" />
    <glyph glyph-name="jcircumflex" unicode="&#x135;" horiz-adv-x="401" 
d="M315 1022l-6 -970q-1 -107 -20.5 -193t-67 -146t-126.5 -92.5t-198 -32.5q-20 0 -40 1t-40 3l4 176q85 -2 143.5 7.5t94.5 40t52 87.5t16 149v808l-116 -6l6 166zM433 1132l-142 -30l-92 174l-88 -174l-140 30l162 242l136 10z" />
    <glyph glyph-name="Kcommaaccent" unicode="&#x136;" horiz-adv-x="1032" 
d="M1039 1426l-16 -190h-104l-398 -500l380 -564l110 6l10 -180l-412 -20l-16 184h118l-346 526l-4 -494l140 4l-10 -180l-412 -10l-6 186h118l-2 1022l-124 -4l10 194h396l16 -180l-116 -10l-4 -430l360 460l-126 16l12 174zM612 -163q0 -60 -28 -110t-79 -82l-42 34
q5 5 11 12t12 14.5t10.5 15.5t5.5 15q-40 4 -66.5 32.5t-26.5 68.5q0 21 8 39.5t21.5 33t32 22.5t39.5 8t39.5 -8t32.5 -22.5t22 -33t8 -39.5z" />
    <glyph glyph-name="kcommaaccent" unicode="&#x137;" horiz-adv-x="831" 
d="M815 164l-4 -164h-338v160h70l-198 262l-52 -70l-4 -184l118 -10l-6 -166l-366 16v174l84 6v1086h-122l4 176h302l-6 -864l216 286h-82l-14 150l384 16l6 -166l-118 -4l-248 -326l290 -372zM517 -157q0 -60 -28 -110t-79 -82l-42 34q5 5 11 12t12 14.5t10.5 15.5t5.5 15
q-40 4 -66.5 32.5t-26.5 68.5q0 21 8 39.5t21.5 33t32 22.5t39.5 8t39.5 -8t32.5 -22.5t22 -33t8 -39.5z" />
    <glyph glyph-name="kgreenlandic" unicode="&#x138;" horiz-adv-x="831" 
d="M815 164l-4 -164h-338v160h70l-198 262l-52 -70l-4 -184l118 -10l-6 -166l-366 16v174l84 6v666h-122l4 176h368l7 -171l-75 -2l-4 -271l216 286h-82l-14 150l384 16l6 -166l-118 -4l-248 -326l290 -372z" />
    <glyph glyph-name="Lacute" unicode="&#x139;" horiz-adv-x="895" 
d="M873 406l-10 -408l-788 10l-10 194l124 -4l2 1024h-118l6 184h434v-178l-142 -6l-10 -1024l334 -8l10 226zM605 1694l-222 -232l-94 30l130 252z" />
    <glyph glyph-name="lacute" unicode="&#x13a;" horiz-adv-x="429" 
d="M407 158l-6 -166l-366 16v174l84 6v1076h-122l4 176h322l-24 -1272zM488 1726l-222 -232l-94 30l130 252z" />
    <glyph glyph-name="Lcommaaccent" unicode="&#x13b;" horiz-adv-x="895" 
d="M873 406l-10 -408l-788 10l-10 194l124 -4l2 1024h-118l6 184h434v-178l-142 -6l-10 -1024l334 -8l10 226zM562 -163q0 -60 -28 -110t-79 -82l-42 34q5 5 11 12t12 14.5t10.5 15.5t5.5 15q-40 4 -66.5 32.5t-26.5 68.5q0 21 8 39.5t21.5 33t32 22.5t39.5 8t39.5 -8
t32.5 -22.5t22 -33t8 -39.5z" />
    <glyph glyph-name="lcommaaccent" unicode="&#x13c;" horiz-adv-x="429" 
d="M407 158l-6 -166l-366 16v174l84 6v1076h-122l4 176h322l-24 -1272zM322 -163q0 -60 -28 -110t-79 -82l-42 34q5 5 11 12t12 14.5t10.5 15.5t5.5 15q-40 4 -66.5 32.5t-26.5 68.5q0 21 8 39.5t21.5 33t32 22.5t39.5 8t39.5 -8t32.5 -22.5t22 -33t8 -39.5z" />
    <glyph glyph-name="Lcaron" unicode="&#x13d;" horiz-adv-x="895" 
d="M873 406l-10 -408l-788 10l-10 194l124 -4l2 1024h-118l6 184h434v-178l-142 -6l-10 -1024l334 -8l10 226zM828 1277q0 -75 -35.5 -138t-98.5 -102l-52 42q12 12 28.5 33t19.5 39q-25 2 -46 13t-36.5 27.5t-24.5 38.5t-9 47q0 26 10 49.5t27 41t40 27.5t49 10t49.5 -10
t41 -27.5t27.5 -41t10 -49.5z" />
    <glyph glyph-name="lcaron" unicode="&#x13e;" horiz-adv-x="700" 
d="M407 158l-6 -166l-366 16v174l84 6v1076h-122l4 176h322l-24 -1272zM650 1277q0 -75 -35.5 -138t-98.5 -102l-52 42q12 12 28.5 33t19.5 39q-25 2 -46 13t-36.5 27.5t-24.5 38.5t-9 47q0 26 10 49.5t27 41t40 27.5t49 10t49.5 -10t41 -27.5t27.5 -41t10 -49.5z" />
    <glyph glyph-name="Ldot" unicode="&#x13f;" horiz-adv-x="895" 
d="M873 406l-10 -408l-788 10l-10 194l124 -4l2 1024h-118l6 184h434v-178l-142 -6l-10 -1024l334 -8l10 226zM743 714q0 -26 -10 -49t-27.5 -40t-41 -27t-49.5 -10t-49 10t-40 27t-27 40t-10 49t10 49.5t27 41t40 27.5t49 10t49.5 -10t41 -27.5t27.5 -41t10 -49.5z" />
    <glyph glyph-name="ldotaccent" unicode="&#x140;" horiz-adv-x="703" 
d="M407 158l-6 -166l-366 16v174l84 6v1076h-122l4 176h322l-24 -1272zM653 714q0 -26 -10 -49t-27.5 -40t-41 -27t-49.5 -10t-49 10t-40 27t-27 40t-10 49t10 49.5t27 41t40 27.5t49 10t49.5 -10t41 -27.5t27.5 -41t10 -49.5z" />
    <glyph glyph-name="Lslash" unicode="&#x141;" horiz-adv-x="896" 
d="M502 850l50 -164l-186 -74l-4 -414l334 -8l10 226l168 -10l-10 -408l-788 10l-10 194l124 -4v346l-90 -38l-26 184l116 44l2 488h-118l6 184h434v-178l-142 -6l-4 -422z" />
    <glyph glyph-name="lslash" unicode="&#x142;" horiz-adv-x="469" 
d="M437 850l50 -164l-176 -70l-8 -448l108 -10l-6 -166l-366 16v174l84 6v354l-88 -36l-26 184l114 42v532h-122l4 176h322l-12 -636z" />
    <glyph glyph-name="Nacute" unicode="&#x143;" horiz-adv-x="1167" 
d="M1133 1246l-116 -10l-30 -1244l-174 -4l-450 1088l10 -882l136 4v-180l-428 -10l-6 186h118l-12 1022l-124 -4l10 194h336l424 -1062v892l-126 -4l10 194h408zM876 1694l-222 -232l-94 30l130 252z" />
    <glyph glyph-name="nacute" unicode="&#x144;" horiz-adv-x="886" 
d="M861 142l-20 -160l-336 14l-4 162l88 10q3 136 5.5 271t2.5 271q0 24 -4.5 50t-15.5 48t-30.5 36t-49.5 14q-44 0 -74.5 -24.5t-49.5 -60.5t-28 -78t-10 -77q-5 -113 -6.5 -225t-3.5 -225h88l10 -162l-346 -4v184l98 6l-6 650l-146 10l4 170l288 10l6 -142
q20 30 47.5 57.5t60.5 48.5t69.5 33.5t74.5 12.5q45 0 77 -15t54 -41t34.5 -59.5t19.5 -71t9 -76t2 -73.5q0 -139 -3.5 -277t-6.5 -277zM739 1322l-222 -232l-94 30l130 252z" />
    <glyph glyph-name="Ncommaaccent" unicode="&#x145;" horiz-adv-x="1167" 
d="M1133 1246l-116 -10l-30 -1244l-174 -4l-450 1088l10 -882l136 4v-180l-428 -10l-6 186h118l-12 1022l-124 -4l10 194h336l424 -1062v892l-126 -4l10 194h408zM662 -163q0 -60 -28 -110t-79 -82l-42 34q5 5 11 12t12 14.5t10.5 15.5t5.5 15q-40 4 -66.5 32.5t-26.5 68.5
q0 21 8 39.5t21.5 33t32 22.5t39.5 8t39.5 -8t32.5 -22.5t22 -33t8 -39.5z" />
    <glyph glyph-name="ncommaaccent" unicode="&#x146;" horiz-adv-x="886" 
d="M861 142l-20 -160l-336 14l-4 162l88 10q3 136 5.5 271t2.5 271q0 24 -4.5 50t-15.5 48t-30.5 36t-49.5 14q-44 0 -74.5 -24.5t-49.5 -60.5t-28 -78t-10 -77q-5 -113 -6.5 -225t-3.5 -225h88l10 -162l-346 -4v184l98 6l-6 650l-146 10l4 170l288 10l6 -142
q20 30 47.5 57.5t60.5 48.5t69.5 33.5t74.5 12.5q45 0 77 -15t54 -41t34.5 -59.5t19.5 -71t9 -76t2 -73.5q0 -139 -3.5 -277t-6.5 -277zM562 -163q0 -60 -28 -110t-79 -82l-42 34q5 5 11 12t12 14.5t10.5 15.5t5.5 15q-40 4 -66.5 32.5t-26.5 68.5q0 21 8 39.5t21.5 33
t32 22.5t39.5 8t39.5 -8t32.5 -22.5t22 -33t8 -39.5z" />
    <glyph glyph-name="Ncaron" unicode="&#x147;" horiz-adv-x="1167" 
d="M1133 1246l-116 -10l-30 -1244l-174 -4l-450 1088l10 -882l136 4v-180l-428 -10l-6 186h118l-12 1022l-124 -4l10 194h336l424 -1062v892l-126 -4l10 194h408zM814 1734l-162 -242l-134 -10l-166 252l142 30l92 -174l88 174z" />
    <glyph glyph-name="ncaron" unicode="&#x148;" horiz-adv-x="886" 
d="M861 142l-20 -160l-336 14l-4 162l88 10q3 136 5.5 271t2.5 271q0 24 -4.5 50t-15.5 48t-30.5 36t-49.5 14q-44 0 -74.5 -24.5t-49.5 -60.5t-28 -78t-10 -77q-5 -113 -6.5 -225t-3.5 -225h88l10 -162l-346 -4v184l98 6l-6 650l-146 10l4 170l288 10l6 -142
q20 30 47.5 57.5t60.5 48.5t69.5 33.5t74.5 12.5q45 0 77 -15t54 -41t34.5 -59.5t19.5 -71t9 -76t2 -73.5q0 -139 -3.5 -277t-6.5 -277zM674 1345l-162 -242l-134 -10l-166 252l142 30l92 -174l88 174z" />
    <glyph glyph-name="napostrophe" unicode="&#x149;" horiz-adv-x="1149" 
d="M1124 142l-20 -160l-336 14l-4 162l88 10q3 136 5.5 271t2.5 271q0 24 -4.5 50t-15.5 48t-30.5 36t-49.5 14q-44 0 -74.5 -24.5t-49.5 -60.5t-28 -78t-10 -77q-5 -113 -6.5 -225t-3.5 -225h88l10 -162l-346 -4v184l98 6l-6 650l-146 10l4 170l288 10l6 -142
q20 30 47.5 57.5t60.5 48.5t69.5 33.5t74.5 12.5q45 0 77 -15t54 -41t34.5 -59.5t19.5 -71t9 -76t2 -73.5q0 -139 -3.5 -277t-6.5 -277zM304 1277q0 -75 -35.5 -138t-98.5 -102l-52 42q12 12 28.5 33t19.5 39q-25 2 -46 13t-36.5 27.5t-24.5 38.5t-9 47q0 26 10 49.5t27 41
t40 27.5t49 10t49.5 -10t41 -27.5t27.5 -41t10 -49.5z" />
    <glyph glyph-name="Eng" unicode="&#x14a;" horiz-adv-x="1167" 
d="M1133 1246l-116 -10l-30 -1244h-2v-263q0 -83 -19 -150t-59.5 -114.5t-103 -73.5t-150.5 -26q-69 0 -120.5 26.5t-85.5 71.5t-51 103t-17 121q0 11 1 34.5t3 47.5q2 28 4 60h186q-3 -34 -6 -61q-2 -24 -4 -45.5t-2 -27.5q0 -24 5.5 -51.5t18 -51.5t33 -39.5t49.5 -15.5
q43 0 69.5 17.5t41.5 46t20 64.5t5 72v275l-440 1064l10 -882l136 4v-180l-428 -10l-6 186h118l-12 1022l-124 -4l10 194h336l424 -1062v892l-126 -4l10 194h408z" />
    <glyph glyph-name="eng" unicode="&#x14b;" horiz-adv-x="855" 
d="M767 52q-1 -107 -21 -193t-67.5 -146t-126.5 -92.5t-198 -32.5q-20 0 -40 1t-40 3l4 176q85 -2 144 7.5t96.5 40t55.5 87.5t20 149q1 111 1.5 202.5t1 170t0.5 148v137.5q0 24 -4.5 50t-15.5 48t-30.5 36t-49.5 14q-44 0 -74.5 -24.5t-49.5 -60.5t-28 -78t-10 -77
q-5 -113 -6.5 -225t-3.5 -225h88l10 -162l-346 -4v184l98 6l-6 650l-146 10l4 170l288 10l6 -142q20 30 47.5 57.5t60.5 48.5t69.5 33.5t74.5 12.5q45 0 77 -15t54 -41t34.5 -59.5t19.5 -71t9 -76t2 -73.5z" />
    <glyph glyph-name="Omacron" unicode="&#x14c;" 
d="M938 778q0 -81 -5 -173t-21.5 -182t-48 -173.5t-84 -146.5t-129.5 -101t-184 -38q-84 0 -146 30.5t-106.5 81.5t-73.5 118t-46 139.5t-23.5 146.5t-6.5 138q0 81 6 175t24 187t50.5 179t86 152t130.5 105.5t183 39.5q84 0 146.5 -32.5t106 -87t71 -124.5t43.5 -145.5
t21.5 -150t5.5 -138.5zM742 766q0 34 -2 84.5t-9 106t-21 111.5t-38.5 100.5t-61 72t-88.5 27.5q-66 0 -111.5 -35.5t-75.5 -93.5t-47 -130.5t-25 -146.5t-9.5 -142.5t-1.5 -117.5q0 -37 2 -84.5t9.5 -97t22.5 -97t39.5 -84.5t61.5 -60t89 -23q65 0 110 33t74.5 86.5
t46 120.5t24.5 134.5t9.5 129.5t1.5 106zM708 1519l-412 10l10 124h392z" />
    <glyph glyph-name="omacron" unicode="&#x14d;" horiz-adv-x="737" 
d="M688 544q0 -50 -6 -111t-21 -123.5t-39.5 -122t-61.5 -105.5t-86.5 -74t-115.5 -28q-62 0 -109 23.5t-81 62t-57 89.5t-36.5 106t-19 111t-5.5 104q0 50 6 112t20.5 125.5t39 123.5t61 106.5t86.5 74.5t117 28q61 0 107.5 -24t81 -64t57 -92t36.5 -107.5t20 -111.5
t6 -103zM530 550q0 21 -2 54t-7.5 70t-15.5 74t-26 67t-39.5 48.5t-55.5 18.5q-39 0 -66.5 -23.5t-47 -60.5t-31.5 -82.5t-18.5 -91t-8.5 -85.5t-2 -65q0 -21 2 -53.5t8 -69.5t16.5 -73.5t26.5 -66.5t39 -48.5t54 -18.5q38 0 65.5 23t47 59.5t31.5 81.5t18.5 90.5t9 85.5
t2.5 66zM574 1097l-412 10l10 124h392z" />
    <glyph glyph-name="Obreve" unicode="&#x14e;" 
d="M938 778q0 -81 -5 -173t-21.5 -182t-48 -173.5t-84 -146.5t-129.5 -101t-184 -38q-84 0 -146 30.5t-106.5 81.5t-73.5 118t-46 139.5t-23.5 146.5t-6.5 138q0 81 6 175t24 187t50.5 179t86 152t130.5 105.5t183 39.5q84 0 146.5 -32.5t106 -87t71 -124.5t43.5 -145.5
t21.5 -150t5.5 -138.5zM742 766q0 34 -2 84.5t-9 106t-21 111.5t-38.5 100.5t-61 72t-88.5 27.5q-66 0 -111.5 -35.5t-75.5 -93.5t-47 -130.5t-25 -146.5t-9.5 -142.5t-1.5 -117.5q0 -37 2 -84.5t9.5 -97t22.5 -97t39.5 -84.5t61.5 -60t89 -23q65 0 110 33t74.5 86.5
t46 120.5t24.5 134.5t9.5 129.5t1.5 106zM729 1740q-7 -44 -25.5 -85t-48 -72.5t-68.5 -51t-86 -19.5t-87 17t-69.5 46.5t-47.5 69t-22 85.5l106 22q8 -56 42 -82t88 -26q23 0 42 10.5t33.5 27.5t23.5 38t13 42z" />
    <glyph glyph-name="obreve" unicode="&#x14f;" horiz-adv-x="737" 
d="M688 544q0 -50 -6 -111t-21 -123.5t-39.5 -122t-61.5 -105.5t-86.5 -74t-115.5 -28q-62 0 -109 23.5t-81 62t-57 89.5t-36.5 106t-19 111t-5.5 104q0 50 6 112t20.5 125.5t39 123.5t61 106.5t86.5 74.5t117 28q61 0 107.5 -24t81 -64t57 -92t36.5 -107.5t20 -111.5
t6 -103zM530 550q0 21 -2 54t-7.5 70t-15.5 74t-26 67t-39.5 48.5t-55.5 18.5q-39 0 -66.5 -23.5t-47 -60.5t-31.5 -82.5t-18.5 -91t-8.5 -85.5t-2 -65q0 -21 2 -53.5t8 -69.5t16.5 -73.5t26.5 -66.5t39 -48.5t54 -18.5q38 0 65.5 23t47 59.5t31.5 81.5t18.5 90.5t9 85.5
t2.5 66zM595 1329q-7 -44 -25.5 -85t-48 -72.5t-68.5 -51t-86 -19.5t-87 17t-69.5 46.5t-47.5 69t-22 85.5l106 22q8 -56 42 -82t88 -26q23 0 42 10.5t33.5 27.5t23.5 38t13 42z" />
    <glyph glyph-name="Ohungarumlaut" unicode="&#x150;" 
d="M938 778q0 -81 -5 -173t-21.5 -182t-48 -173.5t-84 -146.5t-129.5 -101t-184 -38q-84 0 -146 30.5t-106.5 81.5t-73.5 118t-46 139.5t-23.5 146.5t-6.5 138q0 81 6 175t24 187t50.5 179t86 152t130.5 105.5t183 39.5q84 0 146.5 -32.5t106 -87t71 -124.5t43.5 -145.5
t21.5 -150t5.5 -138.5zM742 766q0 34 -2 84.5t-9 106t-21 111.5t-38.5 100.5t-61 72t-88.5 27.5q-66 0 -111.5 -35.5t-75.5 -93.5t-47 -130.5t-25 -146.5t-9.5 -142.5t-1.5 -117.5q0 -37 2 -84.5t9.5 -97t22.5 -97t39.5 -84.5t61.5 -60t89 -23q65 0 110 33t74.5 86.5
t46 120.5t24.5 134.5t9.5 129.5t1.5 106zM688 1799l-212 -302l-94 30l130 312zM898 1729l-222 -232l-94 30l130 252z" />
    <glyph glyph-name="ohungarumlaut" unicode="&#x151;" horiz-adv-x="737" 
d="M688 544q0 -50 -6 -111t-21 -123.5t-39.5 -122t-61.5 -105.5t-86.5 -74t-115.5 -28q-62 0 -109 23.5t-81 62t-57 89.5t-36.5 106t-19 111t-5.5 104q0 50 6 112t20.5 125.5t39 123.5t61 106.5t86.5 74.5t117 28q61 0 107.5 -24t81 -64t57 -92t36.5 -107.5t20 -111.5
t6 -103zM530 550q0 21 -2 54t-7.5 70t-15.5 74t-26 67t-39.5 48.5t-55.5 18.5q-39 0 -66.5 -23.5t-47 -60.5t-31.5 -82.5t-18.5 -91t-8.5 -85.5t-2 -65q0 -21 2 -53.5t8 -69.5t16.5 -73.5t26.5 -66.5t39 -48.5t54 -18.5q38 0 65.5 23t47 59.5t31.5 81.5t18.5 90.5t9 85.5
t2.5 66zM549 1406l-212 -302l-94 30l130 312zM759 1336l-222 -232l-94 30l130 252z" />
    <glyph glyph-name="OE" unicode="&#x152;" horiz-adv-x="1512" 
d="M1462 1038l-148 -10l-20 206l-364 -8l-4 -446h304v-144l-306 -18l-4 -446l374 14v220h148l10 -398l-794 -2q-41 -20 -88.5 -31t-103.5 -11q-84 0 -146 30.5t-106.5 81.5t-73.5 118t-46 139.5t-23.5 146.5t-6.5 138q0 81 6 175t24 187t50.5 179t86 152t130.5 105.5
t183 39.5q47 0 86 -10t72 -28l750 8zM742 766q0 34 -2 84.5t-9 106t-21 111.5t-38.5 100.5t-61 72t-88.5 27.5q-66 0 -111.5 -35.5t-75.5 -93.5t-47 -130.5t-25 -146.5t-9.5 -142.5t-1.5 -117.5q0 -37 2 -84.5t9.5 -97t22.5 -97t39.5 -84.5t61.5 -60t89 -23q65 0 110 33
t74.5 86.5t46 120.5t24.5 134.5t9.5 129.5t1.5 106z" />
    <glyph glyph-name="oe" unicode="&#x153;" horiz-adv-x="1195" 
d="M530 550q0 21 -2 54t-7.5 70t-15.5 74t-26 67t-39.5 48.5t-55.5 18.5q-39 0 -66.5 -23.5t-47 -60.5t-31.5 -82.5t-18.5 -91t-8.5 -85.5t-2 -65q0 -21 2 -53.5t8 -69.5t16.5 -73.5t26.5 -66.5t39 -48.5t54 -18.5q38 0 65.5 23t47 59.5t31.5 81.5t18.5 90.5t9 85.5t2.5 66z
M1144 606q0 -82 -6 -160l-432 -8q1 -21 3 -50.5t6.5 -62t13.5 -64t23 -57t34.5 -41t49.5 -15.5q31 0 53 16.5t36.5 41t22 53.5t10.5 55h176q-9 -57 -30 -115t-56 -105t-85 -76.5t-117 -29.5q-46 0 -83.5 11.5t-67.5 32t-53.5 49t-41.5 63.5q-19 -35 -43 -65t-54 -52
t-66 -34.5t-79 -12.5q-62 0 -109 23.5t-81 62t-57 89.5t-36.5 106t-19 111t-5.5 104q0 50 6 112t20.5 125.5t39 123.5t61 106.5t86.5 74.5t117 28q80 0 136 -40.5t92 -103.5q35 62 90 100t138 38q105 0 166 -33.5t92.5 -92t40.5 -138t9 -170.5zM968 664q0 30 -3.5 68
t-15.5 72t-35.5 57t-63.5 23q-36 0 -60 -15.5t-40 -40.5t-25 -57.5t-13 -66t-5 -65.5t-1 -57h258q3 21 3.5 41t0.5 41z" />
    <glyph glyph-name="Racute" unicode="&#x154;" horiz-adv-x="999" 
d="M956 208l-10 -190l-362 -30l-24 184h76l-136 468h-136l-4 -468l120 6l-10 -190h-382l-16 184h118l-2 1070l-114 -4l-10 194q112 5 223.5 6.5t224.5 1.5q89 0 168 -24.5t137.5 -73.5t92.5 -122t34 -170q0 -64 -18 -127t-53 -116.5t-86 -92.5t-117 -54l146 -456zM760 1042
q0 51 -17.5 90t-48.5 66t-73 40.5t-91 13.5h-74h-86l-4 -442h48q66 0 128.5 5.5t110.5 28.5t77.5 69.5t29.5 128.5zM807 1724l-222 -232l-94 30l130 252z" />
    <glyph glyph-name="racute" unicode="&#x155;" horiz-adv-x="599" 
d="M569 800q-38 -8 -74 -27t-64 -46.5t-45 -63t-17 -77.5q0 -100 -1 -198t-3 -198l146 -6v-180l-488 -10l14 190l132 6l14 644l-106 -4l-6 184l268 26v-138q21 17 49 37t59 38t62.5 32.5t59.5 20.5v-230zM614 1344l-222 -232l-94 30l130 252z" />
    <glyph glyph-name="Rcommaaccent" unicode="&#x156;" horiz-adv-x="999" 
d="M956 208l-10 -190l-362 -30l-24 184h76l-136 468h-136l-4 -468l120 6l-10 -190h-382l-16 184h118l-2 1070l-114 -4l-10 194q112 5 223.5 6.5t224.5 1.5q89 0 168 -24.5t137.5 -73.5t92.5 -122t34 -170q0 -64 -18 -127t-53 -116.5t-86 -92.5t-117 -54l146 -456zM760 1042
q0 51 -17.5 90t-48.5 66t-73 40.5t-91 13.5h-74h-86l-4 -442h48q66 0 128.5 5.5t110.5 28.5t77.5 69.5t29.5 128.5zM612 -163q0 -60 -28 -110t-79 -82l-42 34q5 5 11 12t12 14.5t10.5 15.5t5.5 15q-40 4 -66.5 32.5t-26.5 68.5q0 21 8 39.5t21.5 33t32 22.5t39.5 8t39.5 -8
t32.5 -22.5t22 -33t8 -39.5z" />
    <glyph glyph-name="rcommaaccent" unicode="&#x157;" horiz-adv-x="599" 
d="M569 800q-38 -8 -74 -27t-64 -46.5t-45 -63t-17 -77.5q0 -100 -1 -198t-3 -198l146 -6v-180l-488 -10l14 190l132 6l14 644l-106 -4l-6 184l268 26v-138q21 17 49 37t59 38t62.5 32.5t59.5 20.5v-230zM382 -163q0 -60 -28 -110t-79 -82l-42 34q5 5 11 12t12 14.5
t10.5 15.5t5.5 15q-40 4 -66.5 32.5t-26.5 68.5q0 21 8 39.5t21.5 33t32 22.5t39.5 8t39.5 -8t32.5 -22.5t22 -33t8 -39.5z" />
    <glyph glyph-name="Rcaron" unicode="&#x158;" horiz-adv-x="999" 
d="M956 208l-10 -190l-362 -30l-24 184h76l-136 468h-136l-4 -468l120 6l-10 -190h-382l-16 184h118l-2 1070l-114 -4l-10 194q112 5 223.5 6.5t224.5 1.5q89 0 168 -24.5t137.5 -73.5t92.5 -122t34 -170q0 -64 -18 -127t-53 -116.5t-86 -92.5t-117 -54l146 -456zM760 1042
q0 51 -17.5 90t-48.5 66t-73 40.5t-91 13.5h-74h-86l-4 -442h48q66 0 128.5 5.5t110.5 28.5t77.5 69.5t29.5 128.5zM730 1756l-162 -242l-134 -10l-166 252l142 30l92 -174l88 174z" />
    <glyph glyph-name="rcaron" unicode="&#x159;" horiz-adv-x="599" 
d="M569 800q-38 -8 -74 -27t-64 -46.5t-45 -63t-17 -77.5q0 -100 -1 -198t-3 -198l146 -6v-180l-488 -10l14 190l132 6l14 644l-106 -4l-6 184l268 26v-138q21 17 49 37t59 38t62.5 32.5t59.5 20.5v-230zM530 1340l-162 -242l-134 -10l-166 252l142 30l92 -174l88 174z" />
    <glyph glyph-name="Sacute" unicode="&#x15a;" horiz-adv-x="952" 
d="M876 380q0 -81 -20.5 -152.5t-62.5 -124.5t-106.5 -84t-152.5 -31q-53 0 -95 9.5t-76.5 30t-64 52.5t-56.5 76l-2 -154l-176 24l32 458l148 -6q9 -53 28 -110.5t50.5 -105.5t78 -79t111.5 -31q52 0 87.5 17t57.5 47t31.5 71t9.5 89q0 54 -17.5 96.5t-48.5 75t-72.5 56
t-89.5 40.5q-55 19 -105.5 40t-94.5 46.5t-80.5 57t-62.5 72.5t-40.5 93t-14.5 119q0 83 25 153t72 120.5t114 78.5t151 28q53 0 91.5 -10t68.5 -31t55 -52.5t51 -74.5l2 164l174 -4l-22 -510l-156 6q-7 37 -15.5 76.5t-22.5 76.5t-33 70.5t-45.5 58.5t-61.5 39.5t-80 14.5
q-46 0 -79.5 -17.5t-55.5 -47t-32.5 -68t-10.5 -79.5q0 -58 19 -99t51.5 -70.5t75.5 -50.5t92 -38q75 -27 143 -64t120 -88t82.5 -118.5t30.5 -155.5zM763 1738l-222 -232l-94 30l130 252z" />
    <glyph glyph-name="sacute" unicode="&#x15b;" horiz-adv-x="694" 
d="M637 232q0 -56 -21.5 -102.5t-58.5 -81t-85.5 -53.5t-102.5 -19q-50 0 -91 27t-71 63l-22 -86l-126 10l10 332l192 -2q-2 -12 -3 -25t-1 -25q0 -24 6 -46.5t18 -40.5t31.5 -28.5t46.5 -10.5q19 0 35.5 9.5t28 24.5t18 33t6.5 35q0 43 -19.5 76.5t-49.5 60.5t-66 48.5
t-69 38.5q-54 28 -89.5 59t-56.5 68.5t-29.5 83.5t-8.5 105q0 55 21.5 102t58.5 81.5t85.5 53.5t102.5 19q50 0 91 -27t71 -63l22 86l126 -10l-10 -332l-192 2q2 12 3 25t1 25q0 24 -6 46.5t-18 40.5t-31.5 28.5t-46.5 10.5q-19 0 -35 -9.5t-28 -24.5t-18.5 -33t-6.5 -35
q0 -44 18.5 -78t47 -61t64 -48.5t70.5 -38.5q52 -27 87.5 -58t58 -69t32.5 -84t10 -103zM610 1325l-222 -232l-94 30l130 252z" />
    <glyph glyph-name="Scircumflex" unicode="&#x15c;" horiz-adv-x="952" 
d="M876 380q0 -81 -20.5 -152.5t-62.5 -124.5t-106.5 -84t-152.5 -31q-53 0 -95 9.5t-76.5 30t-64 52.5t-56.5 76l-2 -154l-176 24l32 458l148 -6q9 -53 28 -110.5t50.5 -105.5t78 -79t111.5 -31q52 0 87.5 17t57.5 47t31.5 71t9.5 89q0 54 -17.5 96.5t-48.5 75t-72.5 56
t-89.5 40.5q-55 19 -105.5 40t-94.5 46.5t-80.5 57t-62.5 72.5t-40.5 93t-14.5 119q0 83 25 153t72 120.5t114 78.5t151 28q53 0 91.5 -10t68.5 -31t55 -52.5t51 -74.5l2 164l174 -4l-22 -510l-156 6q-7 37 -15.5 76.5t-22.5 76.5t-33 70.5t-45.5 58.5t-61.5 39.5t-80 14.5
q-46 0 -79.5 -17.5t-55.5 -47t-32.5 -68t-10.5 -79.5q0 -58 19 -99t51.5 -70.5t75.5 -50.5t92 -38q75 -27 143 -64t120 -88t82.5 -118.5t30.5 -155.5zM707 1532l-142 -30l-92 174l-88 -174l-140 30l162 242l136 10z" />
    <glyph glyph-name="scircumflex" unicode="&#x15d;" horiz-adv-x="694" 
d="M637 232q0 -56 -21.5 -102.5t-58.5 -81t-85.5 -53.5t-102.5 -19q-50 0 -91 27t-71 63l-22 -86l-126 10l10 332l192 -2q-2 -12 -3 -25t-1 -25q0 -24 6 -46.5t18 -40.5t31.5 -28.5t46.5 -10.5q19 0 35.5 9.5t28 24.5t18 33t6.5 35q0 43 -19.5 76.5t-49.5 60.5t-66 48.5
t-69 38.5q-54 28 -89.5 59t-56.5 68.5t-29.5 83.5t-8.5 105q0 55 21.5 102t58.5 81.5t85.5 53.5t102.5 19q50 0 91 -27t71 -63l22 86l126 -10l-10 -332l-192 2q2 12 3 25t1 25q0 24 -6 46.5t-18 40.5t-31.5 28.5t-46.5 10.5q-19 0 -35 -9.5t-28 -24.5t-18.5 -33t-6.5 -35
q0 -44 18.5 -78t47 -61t64 -48.5t70.5 -38.5q52 -27 87.5 -58t58 -69t32.5 -84t10 -103zM578 1123l-142 -30l-92 174l-88 -174l-140 30l162 242l136 10z" />
    <glyph glyph-name="Scedilla" unicode="&#x15e;" horiz-adv-x="952" 
d="M625 -208q0 -35 -13.5 -62.5t-36 -46.5t-52 -29t-62.5 -10q-15 0 -33.5 2t-37 6.5t-35.5 11.5t-28 18l48 88q12 -9 33.5 -18.5t38.5 -9.5q29 0 46.5 11t17.5 41q0 19 -9 32.5t-23 22t-30.5 12.5t-31.5 3h-8l26 135q-63 14 -108 52.5t-85 104.5l-2 -154l-176 24l32 458
l148 -6q9 -53 28 -110.5t50.5 -105.5t78 -79t111.5 -31q52 0 87.5 17t57.5 47t31.5 71t9.5 89q0 54 -17.5 96.5t-48.5 75t-72.5 56t-89.5 40.5q-55 19 -105.5 40t-94.5 46.5t-80.5 57t-62.5 72.5t-40.5 93t-14.5 119q0 83 25 153t72 120.5t114 78.5t151 28q53 0 91.5 -10
t68.5 -31t55 -52.5t51 -74.5l2 164l174 -4l-22 -510l-156 6q-7 37 -15.5 76.5t-22.5 76.5t-33 70.5t-45.5 58.5t-61.5 39.5t-80 14.5q-46 0 -79.5 -17.5t-55.5 -47t-32.5 -68t-10.5 -79.5q0 -58 19 -99t51.5 -70.5t75.5 -50.5t92 -38q75 -27 143 -64t120 -88t82.5 -118.5
t30.5 -155.5q0 -81 -20.5 -152t-62.5 -124.5t-106.5 -84.5t-151.5 -31l-30 -60q28 0 50 -11.5t37.5 -30.5t24 -43.5t8.5 -50.5z" />
    <glyph glyph-name="scedilla" unicode="&#x15f;" horiz-adv-x="694" 
d="M496 -208q0 -35 -13.5 -62.5t-36 -46.5t-52 -29t-62.5 -10q-15 0 -33.5 2t-37 6.5t-35.5 11.5t-28 18l48 88q12 -9 33.5 -18.5t38.5 -9.5q29 0 46.5 11t17.5 41q0 19 -9 32.5t-23 22t-30.5 12.5t-31.5 3h-8l25 126q-29 11 -53.5 31.5t-44.5 44.5l-22 -86l-126 10l10 332
l192 -2q-2 -12 -3 -25t-1 -25q0 -24 6 -46.5t18 -40.5t31.5 -28.5t46.5 -10.5q19 0 35.5 9.5t28 24.5t18 33t6.5 35q0 43 -19.5 76.5t-49.5 60.5t-66 48.5t-69 38.5q-54 28 -89.5 59t-56.5 68.5t-29.5 83.5t-8.5 105q0 55 21.5 102t58.5 81.5t85.5 53.5t102.5 19
q50 0 91 -27t71 -63l22 86l126 -10l-10 -332l-192 2q2 12 3 25t1 25q0 24 -6 46.5t-18 40.5t-31.5 28.5t-46.5 10.5q-19 0 -35 -9.5t-28 -24.5t-18.5 -33t-6.5 -35q0 -44 18.5 -78t47 -61t64 -48.5t70.5 -38.5q52 -27 87.5 -58t58 -69t32.5 -84t10 -103q0 -51 -18.5 -95
t-50.5 -77.5t-75 -54.5t-92 -27l-25 -50q28 0 50 -11.5t37.5 -30.5t24 -43.5t8.5 -50.5z" />
    <glyph glyph-name="Scaron" unicode="&#x160;" horiz-adv-x="952" 
d="M876 380q0 -81 -20.5 -152.5t-62.5 -124.5t-106.5 -84t-152.5 -31q-53 0 -95 9.5t-76.5 30t-64 52.5t-56.5 76l-2 -154l-176 24l32 458l148 -6q9 -53 28 -110.5t50.5 -105.5t78 -79t111.5 -31q52 0 87.5 17t57.5 47t31.5 71t9.5 89q0 54 -17.5 96.5t-48.5 75t-72.5 56
t-89.5 40.5q-55 19 -105.5 40t-94.5 46.5t-80.5 57t-62.5 72.5t-40.5 93t-14.5 119q0 83 25 153t72 120.5t114 78.5t151 28q53 0 91.5 -10t68.5 -31t55 -52.5t51 -74.5l2 164l174 -4l-22 -510l-156 6q-7 37 -15.5 76.5t-22.5 76.5t-33 70.5t-45.5 58.5t-61.5 39.5t-80 14.5
q-46 0 -79.5 -17.5t-55.5 -47t-32.5 -68t-10.5 -79.5q0 -58 19 -99t51.5 -70.5t75.5 -50.5t92 -38q75 -27 143 -64t120 -88t82.5 -118.5t30.5 -155.5zM700 1766l-162 -242l-134 -10l-166 252l142 30l92 -174l88 174z" />
    <glyph glyph-name="scaron" unicode="&#x161;" horiz-adv-x="694" 
d="M637 232q0 -56 -21.5 -102.5t-58.5 -81t-85.5 -53.5t-102.5 -19q-50 0 -91 27t-71 63l-22 -86l-126 10l10 332l192 -2q-2 -12 -3 -25t-1 -25q0 -24 6 -46.5t18 -40.5t31.5 -28.5t46.5 -10.5q19 0 35.5 9.5t28 24.5t18 33t6.5 35q0 43 -19.5 76.5t-49.5 60.5t-66 48.5
t-69 38.5q-54 28 -89.5 59t-56.5 68.5t-29.5 83.5t-8.5 105q0 55 21.5 102t58.5 81.5t85.5 53.5t102.5 19q50 0 91 -27t71 -63l22 86l126 -10l-10 -332l-192 2q2 12 3 25t1 25q0 24 -6 46.5t-18 40.5t-31.5 28.5t-46.5 10.5q-19 0 -35 -9.5t-28 -24.5t-18.5 -33t-6.5 -35
q0 -44 18.5 -78t47 -61t64 -48.5t70.5 -38.5q52 -27 87.5 -58t58 -69t32.5 -84t10 -103zM579 1363l-162 -242l-134 -10l-166 252l142 30l92 -174l88 174z" />
    <glyph glyph-name="Tcommaaccent" unicode="&#x162;" horiz-adv-x="920" 
d="M886 1002l-154 -20l-10 270l-166 -6l-10 -1052l140 4l-10 -180l-412 -10l-6 186h118l-2 1042l-180 -12l10 -252h-166l10 434l818 30zM572 -163q0 -60 -28 -110t-79 -82l-42 34q5 5 11 12t12 14.5t10.5 15.5t5.5 15q-40 4 -66.5 32.5t-26.5 68.5q0 21 8 39.5t21.5 33
t32 22.5t39.5 8t39.5 -8t32.5 -22.5t22 -33t8 -39.5z" />
    <glyph glyph-name="tcommaaccent" unicode="&#x163;" horiz-adv-x="610" 
d="M566 1018l-4 -180h-176q-3 -134 -5.5 -268t-2.5 -270q0 -32 12.5 -56t33.5 -40.5t48 -25t56 -8.5h17t17 2v-178q-48 -12 -98 -12q-65 0 -117 23.5t-88 64t-55.5 94.5t-19.5 116q0 140 2.5 279t5.5 279h-152v180h156l12 348h190l-8 -348h176zM402 -163q0 -60 -28 -110
t-79 -82l-42 34q5 5 11 12t12 14.5t10.5 15.5t5.5 15q-40 4 -66.5 32.5t-26.5 68.5q0 21 8 39.5t21.5 33t32 22.5t39.5 8t39.5 -8t32.5 -22.5t22 -33t8 -39.5z" />
    <glyph glyph-name="Tcaron" unicode="&#x164;" horiz-adv-x="920" 
d="M886 1002l-154 -20l-10 270l-166 -6l-10 -1052l140 4l-10 -180l-412 -10l-6 186h118l-2 1042l-180 -12l10 -252h-166l10 434l818 30zM691 1734l-162 -242l-134 -10l-166 252l142 30l92 -174l88 174z" />
    <glyph glyph-name="tcaron" unicode="&#x165;" horiz-adv-x="837" 
d="M566 1018l-4 -180h-176q-3 -134 -5.5 -268t-2.5 -270q0 -32 12.5 -56t33.5 -40.5t48 -25t56 -8.5h17t17 2v-178q-48 -12 -98 -12q-65 0 -117 23.5t-88 64t-55.5 94.5t-19.5 116q0 140 2.5 279t5.5 279h-152v180h156l12 348h190l-8 -348h176zM807 1294q0 -75 -35.5 -138
t-98.5 -102l-52 42q12 12 28.5 33t19.5 39q-25 2 -46 13t-36.5 27.5t-24.5 38.5t-9 47q0 26 10 49.5t27 41t40 27.5t49 10t49.5 -10t41 -27.5t27.5 -41t10 -49.5z" />
    <glyph glyph-name="Tbar" unicode="&#x166;" horiz-adv-x="920" 
d="M666 602l-116 3l-4 -411l140 4l-10 -180l-412 -10l-6 186h118l-1 415l-121 3l10 124h111l-1 500l-180 -12l10 -252h-166l10 434l818 30l20 -434l-154 -20l-10 270l-166 -6l-5 -510h105z" />
    <glyph glyph-name="tbar" unicode="&#x167;" horiz-adv-x="610" 
d="M511 569l-131 3q-1 -69 -1.5 -136t-0.5 -136q0 -32 12.5 -56t33.5 -40.5t48 -25t56 -8.5h17t17 2v-178q-48 -12 -98 -12q-65 0 -117 23.5t-88 64t-55.5 94.5t-19.5 116q0 75 0.5 148.5t1.5 148.5l-87 2l10 124h80l3 135h-152v180h156l12 348h190l-8 -348h176l-4 -180
h-176l-3 -135h118z" />
    <glyph glyph-name="Utilde" unicode="&#x168;" horiz-adv-x="1104" 
d="M1069 1266l-114 -10v-534q-1 -75 -5.5 -160.5t-19.5 -169.5t-43 -161.5t-75.5 -136.5t-117 -94.5t-167.5 -35.5q-84 0 -145 32t-103.5 85.5t-68.5 123t-40.5 144t-19.5 148.5t-5 137q0 148 6.5 295.5t11.5 296.5l-124 -4l10 194h396l16 -180l-116 -10q-5 -154 -12.5 -307
t-7.5 -307q0 -37 1 -84.5t7 -98.5t19 -100t36.5 -87.5t59.5 -62t89 -23.5q60 0 101 30t67 79t40 111t20 125t7 122.5t1 102.5v530l-124 -4l10 194h396zM795 1577q-14 -12 -31.5 -24t-37 -22t-40 -16t-39.5 -6q-26 0 -50.5 13t-47.5 28t-45.5 28t-44.5 13q-12 0 -28 -10.5
t-32 -25t-29.5 -29.5t-20.5 -23l-40 120q12 14 29.5 31t38 31.5t42.5 24t42 9.5q26 0 48 -12.5t43.5 -27.5t44 -27.5t50.5 -12.5q30 0 60 19.5t48 40.5z" />
    <glyph glyph-name="utilde" unicode="&#x169;" horiz-adv-x="863" 
d="M862 160l-4 -170l-288 -10l-6 162q-20 -30 -47.5 -57.5t-60 -48.5t-69 -33.5t-73.5 -12.5q-46 0 -78 15t-54 41t-35 59.5t-20 71t-9 76t-2 73.5q0 136 3.5 271.5t6.5 272.5l-102 10l20 160l258 -14q-5 -180 -9.5 -356t-4.5 -356q0 -23 5 -48t16.5 -45.5t30.5 -33.5
t48 -13q44 0 74.5 24.5t49.5 60.5t27.5 78t10.5 77q6 110 7 220t3 220h-88l-10 162l270 4l-16 -850zM674 1162q-14 -12 -31.5 -24t-37 -22t-40 -16t-39.5 -6q-26 0 -50.5 13t-47.5 28t-45.5 28t-44.5 13q-12 0 -28 -10.5t-32 -25t-29.5 -29.5t-20.5 -23l-40 120
q12 14 29.5 31t38 31.5t42.5 24t42 9.5q26 0 48 -12.5t43.5 -27.5t44 -27.5t50.5 -12.5q30 0 60 19.5t48 40.5z" />
    <glyph glyph-name="Umacron" unicode="&#x16a;" horiz-adv-x="1104" 
d="M1069 1266l-114 -10v-534q-1 -75 -5.5 -160.5t-19.5 -169.5t-43 -161.5t-75.5 -136.5t-117 -94.5t-167.5 -35.5q-84 0 -145 32t-103.5 85.5t-68.5 123t-40.5 144t-19.5 148.5t-5 137q0 148 6.5 295.5t11.5 296.5l-124 -4l10 194h396l16 -180l-116 -10q-5 -154 -12.5 -307
t-7.5 -307q0 -37 1 -84.5t7 -98.5t19 -100t36.5 -87.5t59.5 -62t89 -23.5q60 0 101 30t67 79t40 111t20 125t7 122.5t1 102.5v530l-124 -4l10 194h396zM758 1503l-412 10l10 124h392z" />
    <glyph glyph-name="umacron" unicode="&#x16b;" horiz-adv-x="863" 
d="M862 160l-4 -170l-288 -10l-6 162q-20 -30 -47.5 -57.5t-60 -48.5t-69 -33.5t-73.5 -12.5q-46 0 -78 15t-54 41t-35 59.5t-20 71t-9 76t-2 73.5q0 136 3.5 271.5t6.5 272.5l-102 10l20 160l258 -14q-5 -180 -9.5 -356t-4.5 -356q0 -23 5 -48t16.5 -45.5t30.5 -33.5
t48 -13q44 0 74.5 24.5t49.5 60.5t27.5 78t10.5 77q6 110 7 220t3 220h-88l-10 162l270 4l-16 -850zM637 1087l-412 10l10 124h392z" />
    <glyph glyph-name="Ubreve" unicode="&#x16c;" horiz-adv-x="1104" 
d="M1069 1266l-114 -10v-534q-1 -75 -5.5 -160.5t-19.5 -169.5t-43 -161.5t-75.5 -136.5t-117 -94.5t-167.5 -35.5q-84 0 -145 32t-103.5 85.5t-68.5 123t-40.5 144t-19.5 148.5t-5 137q0 148 6.5 295.5t11.5 296.5l-124 -4l10 194h396l16 -180l-116 -10q-5 -154 -12.5 -307
t-7.5 -307q0 -37 1 -84.5t7 -98.5t19 -100t36.5 -87.5t59.5 -62t89 -23.5q60 0 101 30t67 79t40 111t20 125t7 122.5t1 102.5v530l-124 -4l10 194h396zM779 1709q-7 -44 -25.5 -85t-48 -72.5t-68.5 -51t-86 -19.5t-87 17t-69.5 46.5t-47.5 69t-22 85.5l106 22q8 -56 42 -82
t88 -26q23 0 42 10.5t33.5 27.5t23.5 38t13 42z" />
    <glyph glyph-name="ubreve" unicode="&#x16d;" horiz-adv-x="863" 
d="M862 160l-4 -170l-288 -10l-6 162q-20 -30 -47.5 -57.5t-60 -48.5t-69 -33.5t-73.5 -12.5q-46 0 -78 15t-54 41t-35 59.5t-20 71t-9 76t-2 73.5q0 136 3.5 271.5t6.5 272.5l-102 10l20 160l258 -14q-5 -180 -9.5 -356t-4.5 -356q0 -23 5 -48t16.5 -45.5t30.5 -33.5
t48 -13q44 0 74.5 24.5t49.5 60.5t27.5 78t10.5 77q6 110 7 220t3 220h-88l-10 162l270 4l-16 -850zM658 1309q-7 -44 -25.5 -85t-48 -72.5t-68.5 -51t-86 -19.5t-87 17t-69.5 46.5t-47.5 69t-22 85.5l106 22q8 -56 42 -82t88 -26q23 0 42 10.5t33.5 27.5t23.5 38t13 42z
" />
    <glyph glyph-name="Uring" unicode="&#x16e;" horiz-adv-x="1104" 
d="M1069 1266l-114 -10v-534q-1 -75 -5.5 -160.5t-19.5 -169.5t-43 -161.5t-75.5 -136.5t-117 -94.5t-167.5 -35.5q-84 0 -145 32t-103.5 85.5t-68.5 123t-40.5 144t-19.5 148.5t-5 137q0 148 6.5 295.5t11.5 296.5l-124 -4l10 194h396l16 -180l-116 -10q-5 -154 -12.5 -307
t-7.5 -307q0 -37 1 -84.5t7 -98.5t19 -100t36.5 -87.5t59.5 -62t89 -23.5q60 0 101 30t67 79t40 111t20 125t7 122.5t1 102.5v530l-124 -4l10 194h396zM734 1650q0 -38 -13.5 -71t-37.5 -57.5t-56.5 -39t-70.5 -14.5t-71.5 14t-59 38t-40.5 57t-15 71t14 71.5t38 58.5
t57 39.5t71 14.5q39 0 72.5 -13.5t58.5 -37.5t39 -57.5t14 -73.5zM640 1658q0 39 -25.5 62.5t-64.5 23.5q-21 0 -37 -8.5t-27 -22t-16.5 -31t-5.5 -36.5q0 -39 25.5 -62.5t64.5 -23.5q42 0 64 28.5t22 69.5z" />
    <glyph glyph-name="uring" unicode="&#x16f;" horiz-adv-x="863" 
d="M862 160l-4 -170l-288 -10l-6 162q-20 -30 -47.5 -57.5t-60 -48.5t-69 -33.5t-73.5 -12.5q-46 0 -78 15t-54 41t-35 59.5t-20 71t-9 76t-2 73.5q0 136 3.5 271.5t6.5 272.5l-102 10l20 160l258 -14q-5 -180 -9.5 -356t-4.5 -356q0 -23 5 -48t16.5 -45.5t30.5 -33.5
t48 -13q44 0 74.5 24.5t49.5 60.5t27.5 78t10.5 77q6 110 7 220t3 220h-88l-10 162l270 4l-16 -850zM613 1253q0 -38 -13.5 -71t-37.5 -57.5t-56.5 -39t-70.5 -14.5t-71.5 14t-59 38t-40.5 57t-15 71t14 71.5t38 58.5t57 39.5t71 14.5q39 0 72.5 -13.5t58.5 -37.5t39 -57.5
t14 -73.5zM519 1261q0 39 -25.5 62.5t-64.5 23.5q-21 0 -37 -8.5t-27 -22t-16.5 -31t-5.5 -36.5q0 -39 25.5 -62.5t64.5 -23.5q42 0 64 28.5t22 69.5z" />
    <glyph glyph-name="Uhungarumlaut" unicode="&#x170;" horiz-adv-x="1104" 
d="M1069 1266l-114 -10v-534q-1 -75 -5.5 -160.5t-19.5 -169.5t-43 -161.5t-75.5 -136.5t-117 -94.5t-167.5 -35.5q-84 0 -145 32t-103.5 85.5t-68.5 123t-40.5 144t-19.5 148.5t-5 137q0 148 6.5 295.5t11.5 296.5l-124 -4l10 194h396l16 -180l-116 -10q-5 -154 -12.5 -307
t-7.5 -307q0 -37 1 -84.5t7 -98.5t19 -100t36.5 -87.5t59.5 -62t89 -23.5q60 0 101 30t67 79t40 111t20 125t7 122.5t1 102.5v530l-124 -4l10 194h396zM715 1808l-212 -302l-94 30l130 312zM925 1738l-222 -232l-94 30l130 252z" />
    <glyph glyph-name="uhungarumlaut" unicode="&#x171;" horiz-adv-x="863" 
d="M862 160l-4 -170l-288 -10l-6 162q-20 -30 -47.5 -57.5t-60 -48.5t-69 -33.5t-73.5 -12.5q-46 0 -78 15t-54 41t-35 59.5t-20 71t-9 76t-2 73.5q0 136 3.5 271.5t6.5 272.5l-102 10l20 160l258 -14q-5 -180 -9.5 -356t-4.5 -356q0 -23 5 -48t16.5 -45.5t30.5 -33.5
t48 -13q44 0 74.5 24.5t49.5 60.5t27.5 78t10.5 77q6 110 7 220t3 220h-88l-10 162l270 4l-16 -850zM577 1397l-212 -302l-94 30l130 312zM787 1327l-222 -232l-94 30l130 252z" />
    <glyph glyph-name="Uogonek" unicode="&#x172;" horiz-adv-x="1104" 
d="M676 -308q-21 -6 -42 -10t-44 -4q-38 0 -70 11.5t-54.5 33.5t-35 53t-12.5 70q0 32 10 64t27 61q-68 14 -117 52t-83.5 92.5t-56 120.5t-33.5 135t-16 137t-4 126q0 148 6.5 295.5t11.5 296.5l-124 -4l10 194h396l16 -180l-116 -10q-5 -154 -12.5 -307t-7.5 -307
q0 -37 1 -84.5t7 -98.5t19 -100t36.5 -87.5t59.5 -62t89 -23.5q60 0 101 30t67 79t40 111t20 125t7 122.5t1 102.5v530l-124 -4l10 194h396l14 -180l-114 -10v-534q-1 -73 -5 -155t-18 -163.5t-39.5 -157.5t-68.5 -135.5t-106.5 -98.5t-152.5 -46q-13 -25 -21 -50t-8 -48
q0 -35 14.5 -52.5t49.5 -17.5q28 0 52 12z" />
    <glyph glyph-name="uogonek" unicode="&#x173;" horiz-adv-x="863" 
d="M862 -308q-21 -6 -42 -10t-44 -4q-38 0 -70 11.5t-54.5 33.5t-35 53t-12.5 70q0 35 11.5 70t31.5 67l-77 -3l-6 162q-20 -30 -47.5 -57.5t-60 -48.5t-69 -33.5t-73.5 -12.5q-46 0 -78 15t-54 41t-35 59.5t-20 71t-9 76t-2 73.5q0 136 3.5 271.5t6.5 272.5l-102 10l20 160
l258 -14q-5 -180 -9.5 -356t-4.5 -356q0 -23 5 -48t16.5 -45.5t30.5 -33.5t48 -13q44 0 74.5 24.5t49.5 60.5t27.5 78t10.5 77q6 110 7 220t3 220h-88l-10 162l270 4l-16 -850l146 -10l-4 -170l-96 -3q-17 -29 -28.5 -60t-11.5 -59q0 -35 14.5 -52.5t49.5 -17.5q28 0 52 12z
" />
    <glyph glyph-name="Wcircumflex" unicode="&#x174;" horiz-adv-x="1289" 
d="M1283 1252l-124 4l-148 -1262l-256 -12l-114 976l-126 -946l-274 -8l-108 1222l-124 -4l10 194h366l16 -180l-76 -10l60 -1012l156 998l-62 10l10 174l306 10l12 -164l-68 -20l148 -978l80 1012l-76 10l16 180h366zM875 1490l-142 -30l-92 174l-88 -174l-140 30l162 242
l136 10z" />
    <glyph glyph-name="wcircumflex" unicode="&#x175;" horiz-adv-x="1052" 
d="M1045 868l-76 -6l-130 -874l-226 -6l-80 696l-82 -680l-226 -6l-130 870h-92l10 170l316 -4l4 -162l-68 -8l78 -666l94 676h-40l10 160h256l12 -160h-42l98 -676l86 676h-78l10 160l286 4zM757 1114l-142 -30l-92 174l-88 -174l-140 30l162 242l136 10z" />
    <glyph glyph-name="Ycircumflex" unicode="&#x176;" horiz-adv-x="958" 
d="M970 1236l-124 -10l-288 -702l-4 -330l140 4l-10 -180l-412 -10l-6 186h118l-2 334l-268 698l-124 -4l10 194h406l16 -180l-116 -10l170 -540l188 540l-124 -4l10 194l406 10zM710 1512l-142 -30l-92 174l-88 -174l-140 30l162 242l136 10z" />
    <glyph glyph-name="ycircumflex" unicode="&#x177;" horiz-adv-x="790" 
d="M787 848l-96 -6l-238 -1080l82 -4v-166l-344 -4l-6 156l96 10l56 240l-252 878h-92l10 170l336 -4l4 -162l-88 -8l158 -604l116 594l-78 10l-10 160l346 4v-184zM626 1132l-142 -30l-92 174l-88 -174l-140 30l162 242l136 10z" />
    <glyph glyph-name="Ydieresis" unicode="&#x178;" horiz-adv-x="958" 
d="M970 1236l-124 -10l-288 -702l-4 -330l140 4l-10 -180l-412 -10l-6 186h118l-2 334l-268 698l-124 -4l10 194h406l16 -180l-116 -10l170 -540l188 540l-124 -4l10 194l406 10zM720 1592q0 -39 -26.5 -65.5t-65.5 -26.5t-64.5 27t-25.5 65q0 39 26.5 66.5t65.5 27.5
t64.5 -27.5t25.5 -66.5zM440 1592q0 -44 -29 -74t-73 -30q-21 0 -39.5 8.5t-32 23t-21 33.5t-7.5 39q0 44 30 74t74 30q22 0 40 -8.5t31 -22.5t20 -33t7 -40z" />
    <glyph glyph-name="Zacute" unicode="&#x179;" horiz-adv-x="858" 
d="M805 18l-738 -10l-6 186l542 1042l-382 -2l10 -252h-176l10 434l728 4l2 -194l-544 -1032l388 2v258l156 10zM703 1714l-222 -232l-94 30l130 252z" />
    <glyph glyph-name="zacute" unicode="&#x17a;" horiz-adv-x="706" 
d="M649 288l-4 -284l-584 -4v164l392 694l-238 -4v-120h-158l-6 298l594 -4v-164l-392 -704l238 4l2 132zM623 1327l-222 -232l-94 30l130 252z" />
    <glyph glyph-name="Zdotaccent" unicode="&#x17b;" horiz-adv-x="858" 
d="M805 18l-738 -10l-6 186l542 1042l-382 -2l10 -252h-176l10 434l728 4l2 -194l-544 -1032l388 2v258l156 10zM530 1592q0 -44 -29 -74t-73 -30q-21 0 -39.5 8.5t-32 23t-21 33.5t-7.5 39q0 44 30 74t74 30q22 0 40 -8.5t31 -22.5t20 -33t7 -40z" />
    <glyph glyph-name="zdotaccent" unicode="&#x17c;" horiz-adv-x="706" 
d="M649 288l-4 -284l-584 -4v164l392 694l-238 -4v-120h-158l-6 298l594 -4v-164l-392 -704l238 4l2 132zM454 1195q0 -44 -29 -74t-73 -30q-21 0 -39.5 8.5t-32 23t-21 33.5t-7.5 39q0 44 30 74t74 30q22 0 40 -8.5t31 -22.5t20 -33t7 -40z" />
    <glyph glyph-name="Zcaron" unicode="&#x17d;" horiz-adv-x="858" 
d="M805 18l-738 -10l-6 186l542 1042l-382 -2l10 -252h-176l10 434l728 4l2 -194l-544 -1032l388 2v258l156 10zM661 1734l-162 -242l-134 -10l-166 252l142 30l92 -174l88 174z" />
    <glyph glyph-name="zcaron" unicode="&#x17e;" horiz-adv-x="706" 
d="M649 288l-4 -284l-584 -4v164l392 694l-238 -4v-120h-158l-6 298l594 -4v-164l-392 -704l238 4l2 132zM581 1349l-162 -242l-134 -10l-166 252l142 30l92 -174l88 174z" />
    <glyph glyph-name="AEacute" unicode="&#x1fc;" horiz-adv-x="1416" 
d="M654 464l-266 -12l-86 -260l112 -10l-6 -180h-446l4 194l144 -4l402 1068l-100 -4v170h944l10 -388l-148 -10l-20 206l-364 -8l-4 -446h304v-144l-306 -18l-4 -446l374 14v220h148l10 -398l-814 -20l-6 184h118v292zM652 1226h-2l-204 -606h208v210v131v79t-0.5 53t-1 53
t-0.5 80zM1070 1714l-222 -232l-94 30l130 252z" />
    <glyph glyph-name="aeacute" unicode="&#x1fd;" horiz-adv-x="1147" 
d="M1096 606q0 -82 -6 -160l-430 -8q0 -21 2 -50.5t6.5 -62t13 -64t22.5 -57t34.5 -41t49.5 -15.5q31 0 53.5 16.5t37 41t22.5 53.5t11 55h174q-9 -57 -30 -115t-56 -105t-85 -76.5t-117 -29.5q-80 0 -134 33t-90 87q-23 -20 -52.5 -40.5t-66.5 -38t-80.5 -28.5t-92.5 -11
q-62 0 -104.5 24.5t-68 65t-36.5 92.5t-11 106q0 68 22.5 124t63 95.5t97.5 61t125 21.5q27 0 53.5 -3.5t52.5 -12.5q2 17 2 32v32q0 9 -1 29.5t-3.5 46t-7.5 53t-13.5 50t-20 37t-28.5 14.5q-19 0 -37 -13t-34 -33.5t-29.5 -46t-24.5 -50.5t-19 -46.5t-12 -34.5l-170 8
l-6 372l166 4v-146q10 26 27 54t39.5 50.5t50 37t59.5 14.5q69 0 113 -18.5t71 -53.5q33 39 80 61.5t110 22.5q106 0 167 -33.5t92.5 -92t40 -138t8.5 -170.5zM922 664q0 30 -3.5 68t-16 72t-36.5 57t-64 23q-35 0 -59 -15.5t-40 -40.5t-25 -57.5t-13 -66t-5.5 -65.5
t-1.5 -57h258q6 42 6 82zM482 238v146q-14 20 -41.5 26t-50.5 6q-72 0 -117 -35.5t-45 -112.5q0 -47 25 -79.5t75 -32.5q16 0 42.5 4.5t51 14.5t42.5 25.5t18 37.5zM851 1295l-222 -232l-94 30l130 252z" />
    <glyph glyph-name="Oslashacute" unicode="&#x1fe;" 
d="M270 392l354 838q-21 18 -45.5 28t-56.5 10q-66 0 -111.5 -35.5t-75.5 -93.5t-47 -130.5t-25 -146.5t-9.5 -142.5t-1.5 -117.5q0 -42 3.5 -97.5t14.5 -112.5zM720 1026l-364 -822q23 -23 52.5 -35.5t67.5 -12.5q65 0 110 33t74.5 86.5t46 120.5t24.5 134.5t9.5 129.5
t1.5 106q0 22 -0.5 52t-3 64t-7 70.5t-11.5 73.5zM904 1440l-70 -158q31 -55 51.5 -119.5t32 -131t16 -132t4.5 -121.5q0 -81 -5 -173t-21.5 -182t-48 -173.5t-84 -146.5t-129.5 -101t-184 -38q-57 0 -105 15t-87 41l-18 -40l-152 20l60 144q-29 52 -48.5 112t-31 122
t-16 123.5t-4.5 116.5q0 81 6 175t24 187t50.5 179t86 152t130.5 105.5t183 39.5q47 0 86 -10t72 -28l18 42zM818 1754l-222 -232l-94 30l130 252z" />
    <glyph glyph-name="oslashacute" unicode="&#x1ff;" horiz-adv-x="746" 
d="M222 366l206 506q-20 10 -40 10q-39 0 -66.5 -23.5t-47 -60.5t-31.5 -82.5t-18.5 -91t-8.5 -85.5t-2 -65q0 -18 1.5 -47t6.5 -61zM526 668l-220 -506q12 -9 24.5 -13.5t29.5 -4.5q38 0 65.5 23t47 59.5t31.5 81.5t18.5 90.5t9 85.5t2.5 66q0 21 -1.5 51.5t-6.5 66.5z
M680 1024l-60 -138q20 -39 34 -83.5t22.5 -89.5t12 -88.5t3.5 -80.5q0 -50 -6 -111t-21 -123.5t-39.5 -122t-61.5 -105.5t-87 -74t-115 -28q-71 0 -122 30l-14 -30l-152 20l54 130q-21 39 -35 83.5t-23 89.5t-12.5 89.5t-3.5 83.5q0 50 6 112t20.5 125.5t39 123.5t61 106.5
t87 74.5t116.5 28q59 0 104 -24l10 22zM646 1344l-222 -232l-94 30l130 252z" />
    <glyph glyph-name="dotlessj" unicode="&#x237;" horiz-adv-x="401" 
d="M315 1022l-6 -970q-1 -107 -20.5 -193t-67 -146t-126.5 -92.5t-198 -32.5q-20 0 -40 1t-40 3l4 176q85 -2 143.5 7.5t94.5 40t52 87.5t16 149v808l-116 -6l6 166z" />
    <glyph glyph-name="circumflex" unicode="&#x2c6;" horiz-adv-x="462" 
d="M462 1162l-142 -30l-92 174l-88 -174l-140 30l162 242l136 10z" />
    <glyph glyph-name="caron" unicode="&#x2c7;" horiz-adv-x="462" 
d="M462 1384l-162 -242l-134 -10l-166 252l142 30l92 -174l88 174z" />
    <glyph glyph-name="breve" unicode="&#x2d8;" horiz-adv-x="454" 
d="M454 1390q-7 -44 -25.5 -85t-48 -72.5t-68.5 -51t-86 -19.5t-87 17t-69.5 46.5t-47.5 69t-22 85.5l106 22q8 -56 42 -82t88 -26q23 0 42 10.5t33.5 27.5t23.5 38t13 42z" />
    <glyph glyph-name="dotaccent" unicode="&#x2d9;" horiz-adv-x="202" 
d="M202 1242q0 -44 -29 -74t-73 -30q-21 0 -39.5 8.5t-32 23t-21 33.5t-7.5 39q0 44 30 74t74 30q22 0 40 -8.5t31 -22.5t20 -33t7 -40z" />
    <glyph glyph-name="ring" unicode="&#x2da;" horiz-adv-x="364" 
d="M364 1340q0 -38 -13.5 -71t-37.5 -57.5t-56.5 -39t-70.5 -14.5t-71.5 14t-59 38t-40.5 57t-15 71t14 71.5t38 58.5t57 39.5t71 14.5q39 0 72.5 -13.5t58.5 -37.5t39 -57.5t14 -73.5zM270 1348q0 39 -25.5 62.5t-64.5 23.5q-21 0 -37 -8.5t-27 -22t-16.5 -31t-5.5 -36.5
q0 -39 25.5 -62.5t64.5 -23.5q42 0 64 28.5t22 69.5z" />
    <glyph glyph-name="ogonek" unicode="&#x2db;" horiz-adv-x="258" 
d="M258 -308q-21 -6 -42 -10t-44 -4q-38 0 -70 11.5t-54.5 33.5t-35 53t-12.5 70q0 31 10 63t26.5 61.5t38.5 55t45 44.5l84 -20q-14 -16 -29.5 -38t-28 -46.5t-20.5 -50t-8 -47.5q0 -35 14.5 -52.5t49.5 -17.5q28 0 52 12z" />
    <glyph glyph-name="tilde" unicode="&#x2dc;" horiz-adv-x="486" 
d="M486 1254q-14 -12 -31.5 -24t-37 -22t-40 -16t-39.5 -6q-26 0 -50.5 13t-47.5 28t-45.5 28t-44.5 13q-12 0 -28 -10.5t-32 -25t-29.5 -29.5t-20.5 -23l-40 120q12 14 29.5 31t38 31.5t42.5 24t42 9.5q26 0 48 -12.5t43.5 -27.5t44 -27.5t50.5 -12.5q30 0 60 19.5t48 40.5
z" />
    <glyph glyph-name="hungarumlaut" unicode="&#x2dd;" horiz-adv-x="516" 
d="M306 1414l-212 -302l-94 30l130 312zM516 1344l-222 -232l-94 30l130 252z" />
    <glyph glyph-name="uni0312" unicode="&#x312;" horiz-adv-x="253" 
d="M230 1174q0 -21 -8 -39.5t-22 -32t-32.5 -21.5t-39.5 -8t-39.5 8t-32 21.5t-21.5 32t-8 39.5q0 60 27.5 110.5t78.5 83.5l43 -34q-5 -5 -11.5 -12t-12 -15t-9.5 -16.5t-5 -15.5q38 -4 65 -32.5t27 -68.5z" />
    <glyph glyph-name="uni0315" unicode="&#x315;" horiz-adv-x="246" 
d="M222 1265q0 -60 -28 -110t-79 -82l-41 34q9 10 22.5 26.5t15.5 30.5q-40 4 -66.5 32.5t-26.5 68.5q0 21 8 39.5t21.5 33t32 22.5t39.5 8t39.5 -8t32.5 -22.5t22 -33t8 -39.5z" />
    <glyph glyph-name="uni0326" unicode="&#x326;" horiz-adv-x="285" 
d="M243 -157q0 -60 -28 -110t-79 -82l-42 34q5 5 11 12t12 14.5t10.5 15.5t5.5 15q-40 4 -66.5 32.5t-26.5 68.5q0 21 8 39.5t21.5 33t32 22.5t39.5 8t39.5 -8t32.5 -22.5t22 -33t8 -39.5z" />
    <glyph glyph-name="Wgrave" unicode="&#x1e80;" horiz-adv-x="1289" 
d="M1283 1252l-124 4l-148 -1262l-256 -12l-114 976l-126 -946l-274 -8l-108 1222l-124 -4l10 194h366l16 -180l-76 -10l60 -1012l156 998l-62 10l10 174l306 10l12 -164l-68 -20l148 -978l80 1012l-76 10l16 180h366zM682 1492l-92 -30l-224 232l186 50z" />
    <glyph glyph-name="wgrave" unicode="&#x1e81;" horiz-adv-x="1052" 
d="M1045 868l-76 -6l-130 -874l-226 -6l-80 696l-82 -680l-226 -6l-130 870h-92l10 170l316 -4l4 -162l-68 -8l78 -666l94 676h-40l10 160h256l12 -160h-42l98 -676l86 676h-78l10 160l286 4zM595 1111l-92 -30l-224 232l186 50z" />
    <glyph glyph-name="Wacute" unicode="&#x1e82;" horiz-adv-x="1289" 
d="M1283 1252l-124 4l-148 -1262l-256 -12l-114 976l-126 -946l-274 -8l-108 1222l-124 -4l10 194h366l16 -180l-76 -10l60 -1012l156 998l-62 10l10 174l306 10l12 -164l-68 -20l148 -978l80 1012l-76 10l16 180h366zM926 1694l-222 -232l-94 30l130 252z" />
    <glyph glyph-name="wacute" unicode="&#x1e83;" horiz-adv-x="1052" 
d="M1045 868l-76 -6l-130 -874l-226 -6l-80 696l-82 -680l-226 -6l-130 870h-92l10 170l316 -4l4 -162l-68 -8l78 -666l94 676h-40l10 160h256l12 -160h-42l98 -676l86 676h-78l10 160l286 4zM800 1323l-222 -232l-94 30l130 252z" />
    <glyph glyph-name="Wdieresis" unicode="&#x1e84;" horiz-adv-x="1289" 
d="M1283 1252l-124 4l-148 -1262l-256 -12l-114 976l-126 -946l-274 -8l-108 1222l-124 -4l10 194h366l16 -180l-76 -10l60 -1012l156 998l-62 10l10 174l306 10l12 -164l-68 -20l148 -978l80 1012l-76 10l16 180h366zM885 1569q0 -39 -26.5 -65.5t-65.5 -26.5t-64.5 27
t-25.5 65q0 39 26.5 66.5t65.5 27.5t64.5 -27.5t25.5 -66.5zM605 1569q0 -44 -29 -74t-73 -30q-21 0 -39.5 8.5t-32 23t-21 33.5t-7.5 39q0 44 30 74t74 30q22 0 40 -8.5t31 -22.5t20 -33t7 -40z" />
    <glyph glyph-name="wdieresis" unicode="&#x1e85;" horiz-adv-x="1052" 
d="M1045 868l-76 -6l-130 -874l-226 -6l-80 696l-82 -680l-226 -6l-130 870h-92l10 170l316 -4l4 -162l-68 -8l78 -666l94 676h-40l10 160h256l12 -160h-42l98 -676l86 676h-78l10 160l286 4zM767 1189q0 -39 -26.5 -65.5t-65.5 -26.5t-64.5 27t-25.5 65q0 39 26.5 66.5
t65.5 27.5t64.5 -27.5t25.5 -66.5zM487 1189q0 -44 -29 -74t-73 -30q-21 0 -39.5 8.5t-32 23t-21 33.5t-7.5 39q0 44 30 74t74 30q22 0 40 -8.5t31 -22.5t20 -33t7 -40z" />
    <glyph glyph-name="Ygrave" unicode="&#x1ef2;" horiz-adv-x="958" 
d="M970 1236l-124 -10l-288 -702l-4 -330l140 4l-10 -180l-412 -10l-6 186h118l-2 334l-268 698l-124 -4l10 194h406l16 -180l-116 -10l170 -540l188 540l-124 -4l10 194l406 10zM521 1492l-92 -30l-224 232l186 50z" />
    <glyph glyph-name="ygrave" unicode="&#x1ef3;" horiz-adv-x="790" 
d="M787 848l-96 -6l-238 -1080l82 -4v-166l-344 -4l-6 156l96 10l56 240l-252 878h-92l10 170l336 -4l4 -162l-88 -8l158 -604l116 594l-78 10l-10 160l346 4v-184zM433 1142l-92 -30l-224 232l186 50z" />
    <glyph glyph-name="endash" unicode="&#x2013;" horiz-adv-x="939" 
d="M871 838l-10 -180l-784 -10l-6 186z" />
    <glyph glyph-name="emdash" unicode="&#x2014;" horiz-adv-x="1739" 
d="M1671 838l-10 -180l-1584 -10l-6 186z" />
    <glyph glyph-name="quoteleft" unicode="&#x2018;" horiz-adv-x="316" 
d="M288 1180q0 -26 -10 -49t-27.5 -40t-41 -27t-49.5 -10t-49 10t-40 27t-27 40t-10 49q0 75 34.5 138t97.5 104l54 -42q-14 -12 -29.5 -34t-18.5 -40q24 -2 45 -13t37 -27.5t25 -38.5t9 -47z" />
    <glyph glyph-name="quoteright" unicode="&#x2019;" horiz-adv-x="308" 
d="M278 1294q0 -75 -35.5 -138t-98.5 -102l-52 42q12 12 28.5 33t19.5 39q-25 2 -46 13t-36.5 27.5t-24.5 38.5t-9 47q0 26 10 49.5t27 41t40 27.5t49 10t49.5 -10t41 -27.5t27.5 -41t10 -49.5z" />
    <glyph glyph-name="quotesinglbase" unicode="&#x201a;" horiz-adv-x="356" 
d="M304 114q0 -75 -35.5 -138t-98.5 -102l-52 42q12 12 28.5 33t19.5 39q-25 2 -46 13t-36.5 27.5t-24.5 38.5t-9 47q0 26 10 49.5t27 41t40 27.5t49 10t49.5 -10t41 -27.5t27.5 -41t10 -49.5z" />
    <glyph glyph-name="quotedblleft" unicode="&#x201c;" horiz-adv-x="616" 
d="M588 1180q0 -26 -10 -49t-27.5 -40t-41 -27t-49.5 -10t-49 10t-40 27t-27 40t-10 49q0 75 34.5 138t97.5 104l54 -42q-14 -12 -29.5 -34t-18.5 -40q24 -2 45 -13t37 -27.5t25 -38.5t9 -47zM288 1180q0 -26 -10 -49t-27.5 -40t-41 -27t-49.5 -10t-49 10t-40 27t-27 40
t-10 49q0 75 34.5 138t97.5 104l54 -42q-14 -12 -29.5 -34t-18.5 -40q24 -2 45 -13t37 -27.5t25 -38.5t9 -47z" />
    <glyph glyph-name="quotedblright" unicode="&#x201d;" horiz-adv-x="608" 
d="M278 1294q0 -75 -35.5 -138t-98.5 -102l-52 42q12 12 28.5 33t19.5 39q-25 2 -46 13t-36.5 27.5t-24.5 38.5t-9 47q0 26 10 49.5t27 41t40 27.5t49 10t49.5 -10t41 -27.5t27.5 -41t10 -49.5zM578 1294q0 -75 -35.5 -138t-98.5 -102l-52 42q12 12 28.5 33t19.5 39
q-25 2 -46 13t-36.5 27.5t-24.5 38.5t-9 47q0 26 10 49.5t27 41t40 27.5t49 10t49.5 -10t41 -27.5t27.5 -41t10 -49.5z" />
    <glyph glyph-name="quotedblbase" unicode="&#x201e;" horiz-adv-x="656" 
d="M304 114q0 -75 -35.5 -138t-98.5 -102l-52 42q12 12 28.5 33t19.5 39q-25 2 -46 13t-36.5 27.5t-24.5 38.5t-9 47q0 26 10 49.5t27 41t40 27.5t49 10t49.5 -10t41 -27.5t27.5 -41t10 -49.5zM604 114q0 -75 -35.5 -138t-98.5 -102l-52 42q12 12 28.5 33t19.5 39
q-25 2 -46 13t-36.5 27.5t-24.5 38.5t-9 47q0 26 10 49.5t27 41t40 27.5t49 10t49.5 -10t41 -27.5t27.5 -41t10 -49.5z" />
    <glyph glyph-name="dagger" unicode="&#x2020;" horiz-adv-x="722" 
d="M679 1218l-10 -180l-228 -4l-6 -1240h-172v1238l-206 -4l-6 186h212v402h182l-2 -400z" />
    <glyph glyph-name="daggerdbl" unicode="&#x2021;" horiz-adv-x="742" 
d="M686 378l-10 -180l-232 -4l-2 -400h-172v398l-206 -4l-6 186h212v658l-206 -4l-6 186h212v402h182l-2 -400l236 2l-10 -180l-228 -4l-4 -658z" />
    <glyph glyph-name="bullet" unicode="&#x2022;" horiz-adv-x="504" 
d="M454 720q0 -41 -16 -78t-43 -64.5t-64 -43.5t-79 -16t-79 16t-64 43.5t-43 64.5t-16 78q0 42 16 79t43 65t64 44t79 16t79 -16t64 -44t43 -65t16 -79z" />
    <glyph glyph-name="ellipsis" unicode="&#x2026;" horiz-adv-x="1182" 
d="M304 114q0 -26 -10 -49t-27.5 -40t-41 -27t-49.5 -10t-49 10t-40 27t-27 40t-10 49t10 49.5t27 41t40 27.5t49 10t49.5 -10t41 -27.5t27.5 -41t10 -49.5zM718 114q0 -26 -10 -49t-27.5 -40t-41 -27t-49.5 -10t-49 10t-40 27t-27 40t-10 49t10 49.5t27 41t40 27.5t49 10
t49.5 -10t41 -27.5t27.5 -41t10 -49.5zM1132 114q0 -26 -10 -49t-27.5 -40t-41 -27t-49.5 -10t-49 10t-40 27t-27 40t-10 49t10 49.5t27 41t40 27.5t49 10t49.5 -10t41 -27.5t27.5 -41t10 -49.5z" />
    <glyph glyph-name="perthousand" unicode="&#x2030;" horiz-adv-x="2209" 
d="M679 1016q0 -42 -6 -90.5t-20 -97t-37.5 -94t-58.5 -80t-83 -55.5t-111 -21q-65 0 -113 21t-82.5 56t-57 80t-35 93.5t-17.5 97t-5 90.5q0 44 5.5 94.5t19 100t37.5 94.5t60.5 79.5t87 55t118.5 20.5q59 0 104.5 -22.5t78.5 -59.5t55 -84t35.5 -96.5t19 -97t5.5 -84.5z
M553 1016q0 24 -3 58t-10.5 70.5t-20.5 72t-33 64t-48.5 46t-66.5 17.5q-42 0 -72 -17t-51 -45t-34 -63t-20.5 -71.5t-10 -71t-2.5 -60.5t2.5 -59t9.5 -68.5t20 -69.5t33.5 -61t50 -43.5t70.5 -16.5q36 0 64 17t48.5 44.5t34.5 62t22.5 70t12.5 68t4 56.5zM1157 1440
l-686 -1460l-112 20l676 1460zM1459 416q0 -42 -6 -90.5t-20 -97t-37.5 -94t-58.5 -80t-83 -55.5t-111 -21q-65 0 -113 21t-82.5 55.5t-57 80t-35 94t-17.5 97.5t-5 90q0 44 5.5 94.5t19 100t37.5 94.5t60.5 79.5t87 55t118.5 20.5q59 0 104.5 -22.5t78.5 -59.5t55 -84
t35.5 -96.5t19 -97t5.5 -84.5zM1333 416q0 24 -3 58t-10.5 70.5t-20.5 72t-33 64t-48.5 46t-66.5 17.5q-42 0 -72 -17t-51 -45t-34 -63t-20.5 -71.5t-10 -71t-2.5 -60.5t2.5 -59t9.5 -68.5t20 -69.5t33.5 -61t50 -43.5t70.5 -16.5q36 0 64 17t48.5 44.5t34.5 62t22.5 70
t12.5 68t4 56.5zM2159 416q0 -42 -6 -90.5t-20 -97t-37.5 -94t-58.5 -80t-83 -55.5t-111 -21q-65 0 -113 21t-82.5 55.5t-57 80t-35 94t-17.5 97.5t-5 90q0 44 5.5 94.5t19 100t37.5 94.5t60.5 79.5t87 55t118.5 20.5q59 0 104.5 -22.5t78.5 -59.5t55 -84t35.5 -96.5t19 -97
t5.5 -84.5zM2033 416q0 24 -3 58t-10.5 70.5t-20.5 72t-33 64t-48.5 46t-66.5 17.5q-42 0 -72 -17t-51 -45t-34 -63t-20.5 -71.5t-10 -71t-2.5 -60.5t2.5 -59t9.5 -68.5t20 -69.5t33.5 -61t50 -43.5t70.5 -16.5q36 0 64 17t48.5 44.5t34.5 62t22.5 70t12.5 68t4 56.5z" />
    <glyph glyph-name="guilsinglleft" unicode="&#x2039;" horiz-adv-x="704" 
d="M650 262l-68 -160l-558 318l-12 128l570 336l68 -160l-454 -236z" />
    <glyph glyph-name="guilsinglright" unicode="&#x203a;" horiz-adv-x="704" 
d="M692 548l-12 -128l-558 -318l-68 160l454 226l-454 236l68 160z" />
    <glyph glyph-name="fraction" unicode="&#x2044;" horiz-adv-x="694" 
d="M750 1440l-688 -1460l-112 20l676 1460z" />
    <glyph glyph-name="Euro" unicode="&#x20ac;" horiz-adv-x="1024" 
d="M576 682l-34 -128l-174 -2q10 -38 26 -73t41 -61.5t59 -42t80 -15.5q58 0 98 22.5t64.5 60t36.5 84.5t15 97h126q0 -82 -20.5 -157t-62.5 -132t-107.5 -91t-155.5 -34q-78 0 -137.5 28.5t-102.5 75.5t-70.5 108t-41.5 126l-166 -2l24 132l124 2v34v26l-108 -2l24 132
l96 2q13 70 39 133t70 111t108 76t153 28q75 0 125.5 -35.5t88.5 -98.5l2 132l140 -2l-18 -408l-126 4q-7 42 -21 88t-38 85t-60 64t-87 25t-88.5 -16.5t-64 -44t-43 -64.5t-26.5 -77l254 2l-36 -128l-232 -4q-2 -6 -2 -11.5v-10.5q0 -9 1 -19t1 -21z" />
    <glyph glyph-name="trademark" unicode="&#x2122;" horiz-adv-x="1010" 
d="M946 1318l-48 2l-8 -336h38l2 -72h-160l2 72h44l2 272l-86 -290l-80 -2l-64 286l-6 -262h44l2 -70l-180 2v70l58 -2l4 322l-64 4l2 68h170l78 -310l102 318h150zM354 1236l-4 90l-70 -2l-4 -336l52 2l-4 -70l-162 -2l-2 70h44v332l-76 -4l2 -82h-70l4 152l348 10l8 -152z
" />
    <glyph glyph-name="partialdiff" unicode="&#x2202;" horiz-adv-x="766" 
d="M538 550q0 21 -2 54t-7.5 70t-15.5 74t-26 67t-39.5 48.5t-55.5 18.5q-39 0 -66.5 -23.5t-47 -60.5t-31.5 -82.5t-18.5 -91t-8.5 -85.5t-2 -65q0 -21 2 -53.5t8 -69.5t16.5 -73.5t26.5 -66.5t39 -48.5t54 -18.5q38 0 65.5 23t47 59.5t31.5 81.5t18.5 90.5t9 85.5t2.5 66z
M268 1410l158 64q75 -103 135 -242q25 -59 49.5 -132.5t43.5 -159.5t30.5 -185.5t11.5 -210.5q0 -50 -6 -111t-21 -123.5t-39.5 -122t-61.5 -105.5t-87 -74t-115 -28q-62 0 -109 23.5t-81 62t-57 89.5t-36.5 106t-19 111t-5.5 104q0 50 6 112t20.5 125.5t39 123.5t61 106.5
t87 74.5t116.5 28q30 0 59 -12t55 -32q-21 46 -48.5 103.5t-58 114.5t-63.5 107.5t-64 82.5z" />
    <glyph glyph-name="minus" unicode="&#x2212;" horiz-adv-x="799" 
d="M715 838l-10 -180l-612 -10l-6 186z" />
    <glyph glyph-name="approxequal" unicode="&#x2248;" horiz-adv-x="992" 
d="M931 922q-22 -24 -52.5 -50.5t-65.5 -48.5t-72.5 -36.5t-71.5 -14.5q-47 0 -90.5 19.5t-84 42.5t-80 42.5t-79.5 19.5q-21 0 -49.5 -16t-57 -37.5t-52.5 -43.5t-37 -35l-70 168q22 23 54.5 49.5t68.5 49t74 37t73 14.5q46 0 85 -19.5t77 -42.5t78 -42.5t90 -19.5
q25 0 52 8t52.5 21t48 29.5t39.5 33.5zM931 602q-22 -24 -52.5 -50.5t-65.5 -48.5t-72.5 -36.5t-71.5 -14.5q-47 0 -90.5 19.5t-84 42.5t-80 42.5t-79.5 19.5q-21 0 -49.5 -16t-57 -37.5t-52.5 -43.5t-37 -35l-70 168q22 23 54.5 49.5t68.5 49t74 37t73 14.5q46 0 85 -19.5
t77 -42.5t78 -42.5t90 -19.5q25 0 52 8t52.5 21t48 29.5t39.5 33.5z" />
    <glyph glyph-name="notequal" unicode="&#x2260;" horiz-adv-x="766" 
d="M638 1204l-60 -166h120l-10 -180l-178 -4l-80 -218l268 2l-10 -180l-326 -6l-74 -202l-152 20l60 180l-120 -2l-6 186h188l72 218l-254 -4l-6 186l322 2l64 188z" />
    </font>
</defs>
</svg>
