<?xml version="1.0" standalone="no"?>
<!DOCTYPE svg PUBLIC "-//W3C//DTD SVG 1.1//EN" "http://www.w3.org/Graphics/SVG/1.1/DTD/svg11.dtd" >
<svg xmlns="http://www.w3.org/2000/svg" xmlns:xlink="http://www.w3.org/1999/xlink" version="1.1">
<metadata>
Created by FontForge 20161013 at Fri Jul 29 23:48:03 2011
 By ,,,
Copyright (c) 2011, Sorkin Type Co (www.sorkintype.com)with Reserved Font Name "Merriweather".This Font Software is licensed under the SIL Open Font License,Version 1.1. This license is available with a FAQ at:http://scripts.sil.org/OFL
</metadata>
<defs>
<font id="Merriweather" horiz-adv-x="0" >
  <font-face 
    font-family="Merriweather"
    font-weight="400"
    font-stretch="normal"
    units-per-em="2048"
    panose-1="2 6 5 3 5 4 6 3 7 4"
    ascent="1638"
    descent="-410"
    x-height="1119"
    cap-height="1553"
    bbox="-86 -640 2457 1920"
    underline-thickness="147"
    underline-position="-412"
    unicode-range="U+0001-FB04"
  />
<missing-glyph horiz-adv-x="1770" 
d="M177 1416h1416v-1416h-1416v1416zM559 252l324 353l337 -353l113 113l-348 343l348 334l-119 116l-328 -351l-333 352l-114 -116l344 -338l-343 -318z" />
    <glyph glyph-name=".notdef" horiz-adv-x="1770" 
d="M177 1416h1416v-1416h-1416v1416zM559 252l324 353l337 -353l113 113l-348 343l348 334l-119 116l-328 -351l-333 352l-114 -116l344 -338l-343 -318z" />
    <glyph glyph-name=".null" 
 />
    <glyph glyph-name="nonmarkingreturn" 
 />
    <glyph glyph-name="uni0000" 
 />
    <glyph glyph-name="uni0000" 
 />
    <glyph glyph-name="uni0001" 
 />
    <glyph glyph-name="uni0002" 
 />
    <glyph glyph-name="uni0003" 
 />
    <glyph glyph-name="uni0004" 
 />
    <glyph glyph-name="uni0005" 
 />
    <glyph glyph-name="uni0006" 
 />
    <glyph glyph-name="uni0007" 
 />
    <glyph glyph-name="uni0008" 
 />
    <glyph glyph-name="uni0009" unicode="&#x9;" 
 />
    <glyph glyph-name="uni000A" unicode="&#xa;" 
 />
    <glyph glyph-name="uni000B" 
 />
    <glyph glyph-name="uni000C" 
 />
    <glyph glyph-name="uni000D" unicode="&#xd;" 
 />
    <glyph glyph-name="uni000E" 
 />
    <glyph glyph-name="uni000F" 
 />
    <glyph glyph-name="uni0010" 
 />
    <glyph glyph-name="uni0011" 
 />
    <glyph glyph-name="uni0012" 
 />
    <glyph glyph-name="uni0013" 
 />
    <glyph glyph-name="uni0014" 
 />
    <glyph glyph-name="uni0015" 
 />
    <glyph glyph-name="uni0016" 
 />
    <glyph glyph-name="uni0017" 
 />
    <glyph glyph-name="uni0018" 
 />
    <glyph glyph-name="uni0019" 
 />
    <glyph glyph-name="uni001A" 
 />
    <glyph glyph-name="uni001B" 
 />
    <glyph glyph-name="uni001C" 
 />
    <glyph glyph-name="uni001D" 
 />
    <glyph glyph-name="uni001E" 
 />
    <glyph glyph-name="uni001F" 
 />
    <glyph glyph-name="space" unicode=" " horiz-adv-x="523" 
 />
    <glyph glyph-name="exclam" unicode="!" horiz-adv-x="706" 
d="M215 1780h256l-73 -1290h-118zM215 101q0 31 13.5 58t34.5 46.5t47.5 30.5t53.5 11q66 0 96.5 -36.5t30.5 -87.5q0 -33 -13 -60t-34 -45.5t-48 -29t-55 -10.5q-24 0 -47 8.5t-40.5 24t-28 38.5t-10.5 52z" />
    <glyph glyph-name="quotedbl" unicode="&#x22;" horiz-adv-x="1260" 
d="M737 1782h226l-49 -816h-128zM297 1782h226l-49 -816h-128z" />
    <glyph glyph-name="numbersign" unicode="#" horiz-adv-x="1431" 
d="M371 365h-221v128h226l33 405h-237v127h244l27 330h165l-25 -330h314l27 330h165l-25 -330h217v-127h-224l-34 -405h223q0 -32 0.5 -64t0.5 -64h-229l-30 -365h-160l24 365h-315l-32 -365h-162zM857 493l33 405h-314l-34 -405h315z" />
    <glyph glyph-name="dollar" unicode="$" horiz-adv-x="1270" 
d="M174 383h88l63 -199q30 -31 69 -51.5t82.5 -32.5t90 -17t90.5 -5q55 0 109.5 15t98 47.5t70.5 82.5t27 120q0 64 -31 116t-82 97t-117.5 85t-136.5 79q-76 42 -149.5 88t-131.5 100.5t-94 121.5t-36 151q0 91 36.5 158.5t94 113.5t128.5 72.5t141 35.5l6 170h157l-6 -166
q116 -7 194.5 -29.5t116.5 -45.5v-277h-85l-78 192q-18 16 -43.5 28t-57 20t-67 11.5t-71.5 3.5q-41 0 -90.5 -12.5t-92.5 -42t-72.5 -78t-29.5 -121.5q0 -57 27.5 -105t74 -89t107 -78t126.5 -72q79 -43 159 -89t143.5 -102.5t103.5 -125t40 -156.5q0 -105 -37 -181.5
t-100.5 -127.5t-148 -77.5t-179.5 -31.5l-7 -210h-157l7 212q-60 5 -115.5 14t-102 20t-80.5 23t-52 23v322z" />
    <glyph glyph-name="percent" unicode="%" horiz-adv-x="1770" 
d="M1074 1601h159l-546 -1601h-159zM396 692q-71 -2 -127 27t-95 78.5t-60 116t-21 139.5q0 90 27 158.5t73 116t106 72.5t125 27q79 3 136 -25.5t94 -78.5t54.5 -117.5t17.5 -143.5q0 -89 -27 -157.5t-73 -115t-105.5 -71t-124.5 -26.5zM408 795q78 0 118.5 69t40.5 191
q0 61 -10.5 110.5t-30 85t-48.5 55t-66 19.5q-39 0 -68.5 -18.5t-49.5 -53t-30.5 -83t-10.5 -109.5q0 -57 10.5 -105.5t30 -84t48.5 -56t66 -20.5zM1043 525q0 90 27 158.5t73 116t106 72.5t125 27q79 3 136 -25.5t94 -78.5t54.5 -117.5t17.5 -143.5q0 -89 -27 -157.5
t-73 -115t-105.5 -71t-124.5 -26.5q-71 -2 -127 27t-95 78.5t-60 116t-21 139.5zM1203 533q0 -57 10.5 -105.5t30 -84t48.5 -56t66 -20.5q78 0 118.5 69t40.5 191q0 61 -10.5 110.5t-30 85t-48.5 55t-66 19.5q-39 0 -68.5 -18.5t-49.5 -53t-30.5 -83t-10.5 -109.5z" />
    <glyph glyph-name="ampersand" unicode="&#x26;" horiz-adv-x="1569" 
d="M187 368q0 71 23.5 130t65.5 108.5t100.5 91t128.5 78.5q-31 44 -62.5 91t-56.5 97t-41 104t-16 112q0 92 29.5 163.5t81.5 120.5t122 74.5t150 25.5q90 0 154 -27.5t105.5 -74t61 -106.5t19.5 -125q0 -75 -29.5 -142t-76.5 -124t-105 -103.5t-114 -82.5q23 -30 56 -70
t70.5 -84.5t77.5 -90.5t78.5 -89t73 -80t61.5 -62q10 25 15 51.5t7.5 52t2.5 49v43.5q0 52 -4.5 93.5t-10.5 72t-12.5 49t-10.5 24.5h185q11 -38 20 -86t9 -109q0 -38 -4.5 -80.5t-15 -86t-28 -86t-44.5 -80.5q60 -45 116 -73t110 -36v-85q-64 -20 -143 -6q-48 8 -98.5 28
t-104.5 55q-37 -32 -84.5 -55t-98.5 -39t-103.5 -23.5t-100.5 -7.5q-53 0 -114.5 6.5t-123.5 23.5t-120 45.5t-102.5 73t-71.5 106.5t-27 145zM664 857q49 26 90 60t71 76.5t46.5 94t16.5 113.5q0 39 -8 85t-30 85.5t-60.5 66.5t-98.5 27q-30 0 -64 -11t-62.5 -36.5
t-47.5 -67.5t-19 -105q0 -70 16.5 -128.5t41.5 -106.5t54 -86t54 -67zM369 394q0 -74 31 -131t83.5 -96t122.5 -59.5t149 -20.5q43 0 84 3.5t77 12t67.5 23.5t56.5 38q-35 30 -77 71t-86.5 87.5t-89.5 96.5t-86.5 99t-77 93.5t-61.5 81.5q-48 -32 -84.5 -62t-60.5 -64.5
t-36 -76t-12 -96.5z" />
    <glyph glyph-name="quotesingle" unicode="'" horiz-adv-x="820" 
d="M297 1782h226l-49 -816h-128z" />
    <glyph glyph-name="parenleft" unicode="(" horiz-adv-x="813" 
d="M597 -320q-23 14 -68 50.5t-98.5 97t-109.5 146t-102 197t-75 250t-29 304.5q0 145 29 273t75 236.5t102 196t109.5 151.5t98.5 103.5t68 52.5l88 -52q-21 -14 -56.5 -49.5t-77 -92t-85 -133.5t-79 -174t-60 -213t-28.5 -250q-5 -149 16 -278.5t57.5 -238t82.5 -196
t91.5 -152.5t86 -107t65.5 -60z" />
    <glyph glyph-name="parenright" unicode=")" horiz-adv-x="813" 
d="M128 -257q21 14 56.5 49.5t77 92t85 133.5t79 174t60 212.5t28.5 250.5q5 149 -16 278.5t-57.5 238t-82.5 196t-91.5 152.5t-86 107t-65.5 60l101 62q23 -14 68 -50.5t98.5 -97t109.5 -146t102 -197t75 -250t29 -304.5q0 -145 -29 -273t-75 -236.5t-102 -196
t-109.5 -151.5t-98.5 -103.5t-68 -52.5z" />
    <glyph glyph-name="asterisk" unicode="*" horiz-adv-x="1295" 
d="M584 1126l27 105l-64 -71l-296 -233l-100 141l343 180l92 30l-90 30l-346 174l98 144l295 -230l68 -69l-27 114l-34 345q46 0 91.5 -0.5t91.5 -0.5l-31 -344l-32 -114l86 82l276 215l113 -143l-351 -167l-100 -36l100 -33l350 -179l-114 -137l-289 233l-70 69l28 -105
l34 -358h-183z" />
    <glyph glyph-name="plus" unicode="+" horiz-adv-x="1269" 
d="M557 561l7 166l-166 -7h-220v155h220l166 -12l-7 169v228h155v-228l-9 -169l137 12h251v-155h-251l-137 7l9 -166v-240h-155v240z" />
    <glyph glyph-name="comma" unicode="," horiz-adv-x="685" 
d="M196 134l112 145q59 -15 100.5 -52t67.5 -83.5t37.5 -96.5t11.5 -90q0 -85 -28 -158t-73 -131t-102 -100t-115 -66l-47 60v26q36 12 68.5 41t57 69t39 87t14.5 95q0 38 -11.5 74t-31 65t-45.5 48t-55 22v45z" />
    <glyph glyph-name="hyphen" unicode="-" horiz-adv-x="1241" 
d="M178 874h885v-147h-885v147z" />
    <glyph glyph-name="period" unicode="." horiz-adv-x="706" 
d="M215 101q0 31 13.5 58t34.5 46.5t47.5 30.5t53.5 11q66 0 96.5 -36.5t30.5 -87.5q0 -33 -13 -60t-34 -45.5t-48 -29t-55 -10.5q-24 0 -47 8.5t-40.5 24t-28 38.5t-10.5 52z" />
    <glyph glyph-name="slash" unicode="/" horiz-adv-x="816" 
d="M603 1599h183l-573 -1962h-183z" />
    <glyph glyph-name="zero" unicode="0" horiz-adv-x="1327" 
d="M132 632q2 145 47.5 260t121.5 194.5t174.5 122t206.5 43.5q146 1 245 -47.5t159.5 -133.5t86 -200.5t24.5 -247.5q-1 -144 -43.5 -264t-115.5 -205.5t-171 -133.5t-210 -48q-95 0 -171.5 25t-135 69.5t-100.5 106.5t-68.5 135.5t-38.5 155.5t-11 168zM665 77
q90 -2 152.5 34t101 105.5t56 170t17.5 227.5q0 112 -18.5 208.5t-58 168t-100.5 112.5t-146 43q-90 1 -153 -33t-103 -99t-58 -159.5t-18 -213.5q0 -107 19.5 -207.5t60 -179t102 -127t146.5 -50.5z" />
    <glyph glyph-name="one" unicode="1" horiz-adv-x="933" 
d="M116 85l291 27v912l-272 -53l-20 99q30 9 71 24t85.5 33t89.5 38.5t83 39t66.5 34t40.5 25.5l52 -15l-3 -1138l268 -26v-85h-752v85z" />
    <glyph glyph-name="two" unicode="2" horiz-adv-x="1221" 
d="M131 79q131 82 251 177t212 195.5t146.5 202.5t54.5 198q0 48 -14 97.5t-45.5 89.5t-81.5 65.5t-123 25.5q-51 0 -102.5 -14.5t-98 -36.5t-84.5 -47.5t-63 -47.5l-47 76q28 35 75.5 71t108 65.5t131.5 48t146 18.5q103 0 178.5 -29.5t124.5 -78t72.5 -110.5t23.5 -127
q0 -104 -47.5 -212t-130.5 -212t-197 -200t-246 -175l571 42l96 142l86 -28l-65 -275h-903z" />
    <glyph glyph-name="three" unicode="3" horiz-adv-x="1074" 
d="M124 -208q85 -15 165 -10t150.5 26.5t129 58.5t100.5 84.5t65 104t23 118.5q0 72 -17 128t-57 94.5t-106 59t-163 20.5l-154 -34v134q83 16 157.5 44.5t131.5 68t90.5 88t34.5 105.5q1 69 -18 117t-52.5 78t-77.5 43.5t-92 13.5q-57 0 -102.5 -9.5t-83 -25.5t-69.5 -36
t-60 -42l-53 88q23 24 63 52t95 52t124.5 40t150.5 16q70 0 138.5 -18t122 -57t86.5 -101.5t33 -150.5q0 -60 -29 -122t-76.5 -116t-107.5 -95.5t-123 -60.5q107 4 186 -21t131.5 -71t78 -109t25.5 -133q0 -77 -27.5 -152t-79.5 -141t-126 -119.5t-167.5 -87t-204 -43.5
t-234.5 11q0 28 -0.5 55t-0.5 55z" />
    <glyph glyph-name="four" unicode="4" horiz-adv-x="1253" 
d="M75 94q78 142 156.5 279.5t157 280.5t157 295.5t156.5 323.5h63l118 -88l-565 -966l-72 -104l521 31l3 468l176 49v-506l212 13v-170h-212v-376h-181l2 376h-661z" />
    <glyph glyph-name="five" unicode="5" horiz-adv-x="1079" 
d="M137 -245q72 -8 145.5 3.5t142.5 40.5t128.5 73t104.5 100.5t70.5 123t25.5 140.5q0 89 -22 153t-62 106t-95 63.5t-121 25t-140 -9t-151 -38.5l-35 30l79 671h530l29 19h113l-49 -184h-477l-75 -427q73 35 152.5 48.5t155 5t143.5 -40.5t119 -86.5t81 -132.5t30 -180
q0 -70 -24.5 -142.5t-70.5 -140.5t-110.5 -127.5t-144.5 -104t-173.5 -70t-196.5 -25.5q-25 0 -51 3t-52 11z" />
    <glyph glyph-name="six" unicode="6" horiz-adv-x="1251" 
d="M127 563q0 129 35.5 245.5t97.5 218t145.5 186.5t179 150t198.5 108.5t204 62.5l41 -84q-163 -53 -290.5 -139t-216 -191.5t-136.5 -222t-52 -230.5q-4 -111 8 -216t49.5 -187t104 -131.5t171.5 -49.5q76 0 131 33.5t90.5 86.5t52.5 118t17 128q0 95 -19 168t-52 122
t-78 74t-98 25q-41 0 -72 -5t-54 -13t-41 -19t-34 -23l-44 79q12 18 42 38t71 36t88.5 26.5t95.5 10.5q96 0 167.5 -39t119 -101t71 -140.5t23.5 -157.5q0 -64 -15 -130t-45 -127t-73.5 -114.5t-100 -93.5t-126 -63t-150.5 -23q-119 0 -213 47t-159 127t-99.5 186t-34.5 224
z" />
    <glyph glyph-name="seven" unicode="7" horiz-adv-x="1236" 
d="M365 -246q159 325 302 666t290 698l-620 -22l-94 -179l-99 10l48 326h893l35 -39l-555 -1530z" />
    <glyph glyph-name="eight" unicode="8" horiz-adv-x="1241" 
d="M129 373q0 56 19.5 112.5t58.5 109.5t98 101.5t137 87.5q-50 34 -93 73t-74.5 85.5t-50 101.5t-18.5 121q0 99 39 172t102.5 121t144.5 71.5t164 23.5q86 0 160.5 -25t130 -70.5t87 -109.5t31.5 -142q0 -56 -19.5 -116.5t-55.5 -117.5t-87 -105.5t-114 -80.5
q66 -40 127.5 -82t108.5 -88.5t76 -99t30 -113.5q1 -75 -18.5 -136t-55 -109t-84 -83t-104 -58t-116.5 -34t-121 -11q-58 0 -118 10.5t-116 31.5t-105 53.5t-85.5 77.5t-57.5 101.5t-21 126.5zM683 850q43 12 81.5 42t68.5 70.5t48 87.5t20 92q3 70 -16 128.5t-53.5 99.5
t-83 64t-103.5 23q-53 0 -103 -18.5t-90 -52t-64 -81.5t-24 -107q0 -53 26 -100t70.5 -89t102 -81.5t120.5 -77.5zM313 420q0 -71 24 -134t69 -110t110 -74.5t148 -27.5q52 0 104.5 18.5t94.5 52t68 81.5t26 107q0 67 -37 119.5t-97 98t-135 86.5t-151 86q-45 -21 -85.5 -52
t-71 -69.5t-49 -84.5t-18.5 -97z" />
    <glyph glyph-name="nine" unicode="9" horiz-adv-x="1260" 
d="M237 -319q109 35 200.5 91.5t166 128t131.5 154t96 169.5t60.5 174t24.5 168q4 111 -5.5 216t-44 187t-98.5 131.5t-169 49.5q-76 0 -131 -33.5t-90.5 -86.5t-52.5 -118t-17 -128q0 -95 19 -168t52 -122t78 -74t98 -25q32 0 62.5 5.5t57 14t47.5 19t34 21.5l44 -79
q-19 -22 -50 -42t-70 -35.5t-84 -24.5t-93 -9q-96 0 -167.5 39t-119 101t-71 140.5t-23.5 157.5q0 64 15 130t45 127t73.5 114.5t100 93.5t126 63t150.5 23q119 0 210.5 -47.5t153 -128t93 -186t31.5 -222.5q0 -136 -34.5 -263.5t-95 -240.5t-141.5 -209.5t-175 -170.5
t-196 -123t-203 -68z" />
    <glyph glyph-name="colon" unicode=":" horiz-adv-x="706" 
d="M341 788q-24 0 -47 8.5t-40.5 24t-28 38.5t-10.5 52q0 31 13.5 58t34.5 46.5t47.5 30.5t53.5 11q66 0 96.5 -36.5t30.5 -87.5q0 -33 -13 -60t-34 -45.5t-48 -29t-55 -10.5zM215 101q0 31 13.5 58t34.5 46.5t47.5 30.5t53.5 11q66 0 96.5 -36.5t30.5 -87.5q0 -33 -13 -60
t-34 -45.5t-48 -29t-55 -10.5q-24 0 -47 8.5t-40.5 24t-28 38.5t-10.5 52z" />
    <glyph glyph-name="semicolon" unicode=";" horiz-adv-x="706" 
d="M341 788q-24 0 -47 8.5t-40.5 24t-28 38.5t-10.5 52q0 31 13.5 58t34.5 46.5t47.5 30.5t53.5 11q66 0 96.5 -36.5t30.5 -87.5q0 -33 -13 -60t-34 -45.5t-48 -29t-55 -10.5zM235 134l112 145q59 -15 100.5 -52t67.5 -83.5t37.5 -96.5t11.5 -90q0 -85 -28 -158t-73 -131
t-102 -100t-115 -66l-47 60v26q36 12 68.5 41t57 69t39 87t14.5 95q0 38 -11.5 74t-31 65t-45.5 48t-55 22v45z" />
    <glyph glyph-name="less" unicode="&#x3c;" horiz-adv-x="1325" 
d="M128 818l969 495v-183l-799 -379l799 -377v-184l-969 494v134z" />
    <glyph glyph-name="equal" unicode="=" horiz-adv-x="1241" 
d="M178 1061h885v-147h-885v147zM178 672h885v-147h-885v147z" />
    <glyph glyph-name="greater" unicode="&#x3e;" horiz-adv-x="1325" 
d="M228 373l799 378l-799 378v184l969 -494v-134l-969 -495v183z" />
    <glyph glyph-name="question" unicode="?" horiz-adv-x="1012" 
d="M472 490q-24 18 -54.5 58t-58.5 88.5t-48 100t-23 93.5q-2 42 31.5 76.5t85.5 64t113.5 55t116.5 49.5t94.5 47t47.5 47q4 65 -12.5 127t-48 116.5t-77 100t-100.5 78t-117 50.5t-127 18q-19 0 -42 -1t-45.5 -3.5t-43 -7t-34.5 -10.5v152q8 10 27.5 18.5t45.5 14.5
t56.5 9.5t60.5 3.5q125 0 221 -30t166 -81t116 -117.5t71.5 -139t32 -146t-2.5 -138.5q0 -37 -30 -68t-76 -59t-100.5 -53.5t-104 -51.5t-86 -53.5t-46.5 -58.5q-6 -41 1.5 -83t23 -86t35 -89t36.5 -91h-105zM406 101q0 31 13.5 58t34.5 46.5t47.5 30.5t53.5 11
q66 0 96.5 -36.5t30.5 -87.5q0 -33 -13 -60t-34 -45.5t-48 -29t-55 -10.5q-24 0 -47 8.5t-40.5 24t-28 38.5t-10.5 52z" />
    <glyph glyph-name="at" unicode="@" horiz-adv-x="2133" 
d="M236 416q0 156 36.5 292.5t102 250t156.5 202.5t200 150.5t232 94t253 32.5q144 0 269 -43t217.5 -123.5t145.5 -196.5t53 -263q0 -137 -24.5 -248t-66.5 -197t-96.5 -148t-114.5 -102.5t-122 -59.5t-117 -19q-23 0 -43.5 8.5t-36.5 27t-26.5 48t-14.5 72.5
q-5 40 0 103.5t22 167.5q-32 -81 -75 -160t-94 -141t-107 -100.5t-114 -38.5q-46 0 -91.5 27.5t-81.5 80t-58.5 127.5t-22.5 170q0 64 13.5 135.5t40.5 140.5t65.5 132t89.5 111t112.5 76.5t133.5 28.5q25 0 58.5 -3t68.5 -9t69 -15.5t60 -23.5q6 18 16 34t29 12
q28 -9 57 -19t61 -21q-12 -54 -24 -130t-22.5 -159t-20 -167t-17.5 -155q-6 -53 -6.5 -97.5t4 -76.5t13 -50t20.5 -18q29 0 64.5 20.5t71.5 58t70 90t60 117t42 138.5t16 155q0 107 -24.5 191t-68 147.5t-103 108t-129 72.5t-146 40.5t-154.5 12.5q-100 0 -194.5 -24
t-178 -70.5t-153.5 -116.5t-121 -161.5t-79 -205t-28 -247.5t26.5 -240t74 -186t113.5 -136.5t146 -92t170.5 -52t187.5 -16.5q44 0 94.5 5.5t98 14.5t88 20.5t65.5 23.5l37 -85q-33 -26 -85 -47.5t-113.5 -36.5t-129 -23.5t-131.5 -8.5q-171 0 -315.5 55.5t-249.5 158.5
t-164.5 250t-59.5 330zM774 506q0 -25 2 -58t7 -68t14.5 -68.5t25 -60t37.5 -42.5t53 -16q33 0 72 32t78.5 85t76.5 121.5t68 140.5t52.5 142t28.5 127q-15 16 -41.5 28.5t-57 21t-61 12.5t-54.5 4q-83 0 -140.5 -32.5t-93 -88t-51.5 -128t-16 -152.5z" />
    <glyph glyph-name="A" unicode="A" horiz-adv-x="1493" 
d="M2 85l143 29l521 1439h168l498 -1438l159 -30v-85h-528v85l166 30l-108 322h-600l-108 -322l167 -30v-85h-478v85zM982 554l-163 488l-95 301l-264 -789h522z" />
    <glyph glyph-name="B" unicode="B" horiz-adv-x="1419" 
d="M106 85l169 30v1323l-165 17v98h253q66 2 156.5 8.5t211.5 5.5q120 -1 212.5 -25.5t154.5 -70t94 -110t32 -144.5q0 -69 -17.5 -131t-53.5 -112t-91 -86t-130 -53q82 -1 154 -28.5t125 -77t84 -119t31 -154.5q0 -101 -39.5 -187t-120 -149t-202 -98.5t-286.5 -35.5
q-43 0 -88 1.5t-87 3.5t-79 4.5t-63 4.5h-255v85zM470 879q25 -5 56.5 -6.5t64 -1.5t64 0.5t56.5 0.5q76 0 137 19.5t103.5 58.5t65.5 96.5t23 133.5q0 70 -26.5 122.5t-73.5 87.5t-110.5 52.5t-138.5 17.5q-19 0 -49 0.5t-62.5 -0.5t-61.5 -4.5t-46 -10.5zM470 135
q13 -8 42.5 -15.5t65.5 -12.5t74.5 -8t70.5 -3q82 0 154 17t125.5 55t84.5 99.5t31 150.5q0 173 -94.5 252.5t-282.5 79.5q-35 0 -71.5 0.5t-72 0t-68 -1.5t-59.5 -4v-610z" />
    <glyph glyph-name="C" unicode="C" horiz-adv-x="1410" 
d="M86 724q0 129 30 241.5t84 206.5t129 167t164.5 124t190.5 77.5t208 26.5q72 0 134 -8.5t114 -20t94 -23.5t75 -19l-16 -290h-106l-52 167q-32 21 -64 36t-68.5 24.5t-79 13.5t-94.5 4q-107 0 -204.5 -44t-172 -129t-118.5 -209t-44 -283q0 -142 35.5 -270.5t106 -226
t174.5 -155t241 -57.5q121 0 198 31.5t122 88.5l58 154q23 0 42.5 -0.5t42.5 -0.5v-287q-36 -2 -79.5 -16t-103.5 -31t-139.5 -30.5t-186.5 -13.5q-155 0 -286 55t-226.5 154.5t-149 237.5t-53.5 305z" />
    <glyph glyph-name="D" unicode="D" horiz-adv-x="1593" 
d="M106 85l169 30v1322l-165 18v98h263q67 0 116 2t91 5t82 5t87 2q194 1 336 -50.5t235 -149t138 -236.5t45 -314q0 -197 -61 -352t-167.5 -262t-251 -162t-310.5 -51q-74 2 -155.5 6.5t-181.5 4.5q-68 0 -135 -0.5t-135 -0.5v85zM470 132q64 -18 132 -25.5t146 -5.5
q110 3 209.5 44t175.5 122.5t120.5 206t44.5 294.5q0 177 -42.5 307.5t-121.5 216t-192 126.5t-253 37q-41 -1 -72 -3t-56 -4t-46.5 -5.5t-44.5 -7.5v-1303z" />
    <glyph glyph-name="E" unicode="E" horiz-adv-x="1319" 
d="M102 85l169 30v1322l-165 18v98h1038l29 -286h-110l-46 168l-552 13v-583l372 7l30 157h102v-430h-102l-30 153l-372 6v-650l594 19l100 207l97 -24l-45 -310h-1109v85z" />
    <glyph glyph-name="F" unicode="F" horiz-adv-x="1238" 
d="M104 85l171 29v1324l-165 17v98h1074l19 -285l-100 -2l-46 163l-588 14v-596l440 9l40 145h98v-420h-111l-26 151l-441 8v-625l289 -20v-95h-654v85z" />
    <glyph glyph-name="G" unicode="G" horiz-adv-x="1536" 
d="M86 724q0 129 29 241.5t82 206.5t126.5 167t162.5 124t191 77.5t211 26.5q94 0 167.5 -7.5t129.5 -18t96 -21.5t66 -17l-16 -290h-106l-52 167q-8 10 -33.5 22.5t-68.5 24t-104.5 18.5t-141.5 6q-107 -2 -204 -47.5t-170.5 -130.5t-117 -208t-43.5 -279
q0 -91 14.5 -178.5t43.5 -166t73.5 -145.5t104 -115.5t135 -76t166.5 -27.5q43 0 89 4.5t90 16t83 32t69 53.5v410l-243 17v98h561v-98l-123 -18v-511q-33 -2 -92.5 -19t-136 -37t-164.5 -36.5t-179 -16.5q-155 0 -283 56.5t-219.5 157t-142 238t-50.5 300.5z" />
    <glyph glyph-name="H" unicode="H" horiz-adv-x="1706" 
d="M106 85l169 30v1322l-165 18v98h523v-98l-163 -17v-624h767v624l-165 17v98h520v-98l-161 -17v-1323l172 -30v-85h-538v85l172 29v582h-767v-581l172 -30v-85h-536v85z" />
    <glyph glyph-name="I" unicode="I" horiz-adv-x="763" 
d="M105 85l179 29v1324l-175 17v98h543v-98l-173 -18v-1322l182 -30v-85h-556v85z" />
    <glyph glyph-name="J" unicode="J" horiz-adv-x="720" 
d="M238 -59q15 44 24 92.5t14 105t6.5 121t1.5 141.5v1037l-165 17v98h523v-98l-163 -18v-887q0 -71 0.5 -138.5t-0.5 -131t-5 -121.5t-14 -110q-20 -99 -70 -175t-118 -131t-147.5 -88t-158.5 -45l-52 71q56 18 106.5 43t92.5 57t74 72t51 88z" />
    <glyph glyph-name="K" unicode="K" horiz-adv-x="1419" 
d="M106 85l169 29v1324l-165 17v98h523v-98l-163 -18v-689l569 689l-155 18q0 25 -0.5 49t-0.5 49h499v-98l-163 -18l-469 -540q25 -28 58 -76.5t71 -108t79.5 -126.5t82.5 -133t79 -126t70 -105.5t56.5 -72.5t36.5 -27l160 -37v-85h-309q-13 0 -35.5 27t-51.5 72.5
t-63.5 105t-71 124.5t-74 131t-73.5 125t-69 106.5t-60 74.5l-166 -192v-461l183 -28v-85h-547v85z" />
    <glyph glyph-name="L" unicode="L" horiz-adv-x="1244" 
d="M106 85l169 30v1312l-165 17v109h538v-109l-177 -17l-2 -1315l535 24l123 238l87 -43l-65 -331h-1043v85z" />
    <glyph glyph-name="M" unicode="M" horiz-adv-x="1977" 
d="M77 85l172 29l100 1313l-195 17v109h461l360 -1090l46 -147l46 151l344 1086h425v-109l-187 -17l113 -1312l172 -30v-85h-520v85l164 29l-82 936l-10 346l-41 -163l-421 -1248h-67l-384 1094q-29 81 -56 163t-55 164l-8 -342l-49 -949l190 -30v-85h-518v85z" />
    <glyph glyph-name="N" unicode="N" horiz-adv-x="1662" 
d="M104 85l171 30v1312l-165 17v109h355l669 -1095l142 -274v1244l-164 17v108h473v-108l-166 -17v-1428h-205l-660 1040l-136 278v-1203l194 -30v-85h-508v85z" />
    <glyph glyph-name="O" unicode="O" horiz-adv-x="1554" 
d="M90 752q4 191 61.5 341t154.5 254t225 160t273 60q156 4 281 -53.5t211.5 -162t131.5 -249t42 -314.5q-4 -191 -59.5 -341.5t-149.5 -255t-219.5 -160.5t-267.5 -59q-158 -3 -286 54.5t-217.5 162.5t-136.5 249t-44 314zM791 77q110 0 196 48.5t145.5 140t90.5 223
t31 298.5q0 87 -13.5 171t-40 158.5t-65.5 138t-91 109t-116.5 71.5t-140.5 26q-110 0 -199 -48t-151.5 -139t-96.5 -222.5t-34 -298.5q0 -131 32.5 -252.5t94.5 -216t152 -151t206 -56.5z" />
    <glyph glyph-name="P" unicode="P" horiz-adv-x="1296" 
d="M86 85l189 30v1312l-165 17v109h263q24 0 64 2t88.5 5t101 5t102.5 2q115 0 211 -22t165 -75.5t107.5 -142.5t38.5 -224q0 -81 -22.5 -151t-62.5 -127t-95 -101t-119 -73t-135.5 -43.5t-144.5 -12.5q-76 2 -123 1t-79 -6v-475l267 -30v-85h-651v85zM470 708
q57 -8 105.5 -9.5t93.5 -1.5q48 0 95.5 6.5t90 23t79 45t63 73.5t41.5 107.5t15 147.5q0 184 -103.5 273t-296.5 83q-49 -2 -93.5 -5.5t-89.5 -14.5v-728z" />
    <glyph glyph-name="Q" unicode="Q" horiz-adv-x="1554" 
d="M90 752q4 191 61.5 341t154.5 254t225 160t273 60q156 4 281 -53.5t211.5 -162t131.5 -249t42 -314.5q-3 -168 -47 -305t-119 -238.5t-176.5 -166.5t-219.5 -90q24 -59 69.5 -94t101 -54t114.5 -24.5t110 -5.5q37 0 75 8t64 25l18 -123q-20 -30 -79 -53t-144 -23
q-72 0 -140 14.5t-126.5 51t-103.5 100.5t-71 163q-5 0 -11 -0.5t-11 -0.5q-158 -3 -286 54.5t-217.5 162.5t-136.5 249t-44 314zM791 77q110 0 196 48.5t145.5 140t90.5 223t31 298.5q0 87 -13.5 171t-40 158.5t-65.5 138t-91 109t-116.5 71.5t-140.5 26q-110 0 -199 -48
t-151.5 -139t-96.5 -222.5t-34 -298.5q0 -131 32.5 -252.5t94.5 -216t152 -151t206 -56.5z" />
    <glyph glyph-name="R" unicode="R" horiz-adv-x="1419" 
d="M86 85l189 30v1312l-165 17v109h263q48 0 124 7t176 7q115 0 211.5 -19t166.5 -66.5t109 -127.5t39 -201q0 -78 -24.5 -147t-68.5 -125.5t-105.5 -99.5t-136.5 -69l10 -4l10 -4q47 -24 91 -74.5t84.5 -113.5t77.5 -131t70.5 -125.5t63 -97.5t55.5 -47l107 -30v-85h-289
q-19 0 -41.5 30t-48.5 78.5t-55.5 111t-62 126.5t-68 125t-74 107.5t-79.5 73t-85 22.5q-35 -2 -74.5 -2h-85.5v-558l207 -29v-85h-591v85zM470 785q12 -2 35.5 -3t49.5 -1.5t51 -1t41 -0.5q80 0 144.5 20t109.5 62.5t69.5 109t24.5 159.5q0 77 -17 139.5t-57 106t-107 66
t-167 18.5q-49 -2 -94 -3.5t-83 -12.5v-659z" />
    <glyph glyph-name="S" unicode="S" horiz-adv-x="1229" 
d="M154 383h88l63 -199q30 -31 69 -51.5t82.5 -32.5t90 -17t90.5 -5q55 0 109.5 15t98 47.5t70.5 82.5t27 120q0 64 -31 116t-82 97t-117.5 85t-136.5 79q-76 42 -149.5 88t-131.5 100.5t-94 121.5t-36 151q0 70 22 126t58.5 98.5t85 73.5t102 50.5t108.5 28.5t105 9
q73 0 134.5 -7t110.5 -18.5t84.5 -25t57.5 -26.5v-277h-85l-78 192q-18 16 -43.5 28t-57 20t-67 11.5t-71.5 3.5q-41 0 -90.5 -12.5t-92.5 -42t-72.5 -78t-29.5 -121.5q0 -57 27.5 -105t74 -89t107 -78t126.5 -72q79 -43 159 -89t143.5 -102.5t103.5 -125t40 -156.5
q0 -112 -42 -191.5t-113 -130.5t-164.5 -74.5t-196.5 -23.5q-75 0 -147.5 8t-134 20.5t-107.5 27.5t-67 28v322z" />
    <glyph glyph-name="T" unicode="T" horiz-adv-x="1270" 
d="M309 85l245 30v1327l-363 -20l-70 -171l-91 -2l25 304h1191l-2 -307l-82 -9l-52 186l-361 19v-1327l261 -30v-85h-701v85z" />
    <glyph glyph-name="U" unicode="U" horiz-adv-x="1576" 
d="M191 661q0 195 0.5 388t0.5 388l-159 18v98h533v-98l-179 -19v-780q0 -169 34 -281t94.5 -178.5t143 -94t180.5 -27.5q105 0 180.5 42.5t123.5 121.5t71 192t23 255v750l-182 19v98h490v-98l-158 -19v-749q0 -188 -42.5 -323t-119.5 -222t-184 -128.5t-235 -41.5
q-170 0 -287.5 44.5t-190.5 131.5t-105 215.5t-32 297.5z" />
    <glyph glyph-name="V" unicode="V" horiz-adv-x="1425" 
d="M137 1439l-132 16v98h537v-98l-180 -18l339 -1024l69 -218l60 220l299 1023l-165 17v97h456v-97l-121 -16l-486 -1459h-150z" />
    <glyph glyph-name="W" unicode="W" horiz-adv-x="2101" 
d="M135 1438l-130 16v99h535v-99l-189 -17l313 -1029q15 -49 30 -97t31 -97l62 182l212 862l-56 180l-162 16v99h545v-99l-174 -16l272 -1050l49 -191l51 229l261 1012l-173 16v99h484v-99l-148 -16l-427 -1458h-161l-287 1015l-284 -1015h-164z" />
    <glyph glyph-name="X" unicode="X" horiz-adv-x="1420" 
d="M15 85l177 29l428 667l-420 657l-149 17v98h561v-98l-177 -17l313 -539l309 539l-154 17v98h477v-98l-144 -16l-416 -619l440 -705l165 -30v-85h-575v85l186 29l-350 569l-314 -568l192 -30v-85h-549v85z" />
    <glyph glyph-name="Y" unicode="Y" horiz-adv-x="1352" 
d="M402 85l204 31v522l-480 800l-114 17v98h492v-98l-154 -18l318 -592l48 -101l45 103l288 589l-170 19v98h460v-98l-130 -27l-408 -791v-521l214 -31v-85h-613v85z" />
    <glyph glyph-name="Z" unicode="Z" horiz-adv-x="1352" 
d="M92 89l868 1235l103 120l-712 -23l-95 -228l-107 19l32 341h1073l28 -86l-863 -1235l-97 -121l749 38l130 255l99 -24l-71 -380h-1111z" />
    <glyph glyph-name="bracketleft" unicode="[" horiz-adv-x="855" 
d="M200 1486q0 74 8 122.5t29 77t58 40t95 11.5q41 0 75.5 -4t66 -10t61.5 -14t62 -16q0 -22 -0.5 -43t-0.5 -43h-291v-1666l291 -2q0 -22 0.5 -43t0.5 -43q-32 -9 -62 -17t-61.5 -14t-66 -9.5t-75.5 -3.5q-58 0 -95 11.5t-58 40t-29 77t-8 122.5v1426z" />
    <glyph glyph-name="backslash" unicode="\" horiz-adv-x="816" 
d="M603 -363l-573 1962h183l573 -1962h-183z" />
    <glyph glyph-name="bracketright" unicode="]" horiz-adv-x="855" 
d="M201 -61l291 2v1666h-291q0 22 -0.5 43t-0.5 43q32 8 62 16t61.5 14t66 10t75.5 4q58 0 95 -11.5t58 -40t29 -77t8 -122.5v-1426q0 -74 -8 -122.5t-29 -77t-58 -40t-95 -11.5q-41 0 -75.5 3.5t-66 9.5t-61.5 14t-62 17q0 22 0.5 43t0.5 43z" />
    <glyph glyph-name="asciicircum" unicode="^" horiz-adv-x="1320" 
d="M561 1531h197l384 -967q-44 0 -87.5 -0.5t-87.5 -0.5l-317 763l-317 -763q-39 0 -77.5 0.5t-77.5 0.5z" />
    <glyph glyph-name="underscore" unicode="_" horiz-adv-x="1415" 
d="M1435 -192v-147h-1455v147h1455z" />
    <glyph glyph-name="grave" unicode="`" horiz-adv-x="884" 
d="M609 1340q-41 19 -95.5 49.5t-109 69t-103.5 82.5t-79 90l146 149l294 -386z" />
    <glyph glyph-name="a" unicode="a" horiz-adv-x="1145" 
d="M118 322q7 70 45 122.5t94 90.5t124.5 63t137.5 40t133 21t111 6v87q0 79 -21 128.5t-58 77.5t-87 38t-108 10q-29 0 -65 -5.5t-74.5 -15.5t-77.5 -24t-74 -31l-37 90q37 30 90.5 52.5t110 37.5t110 22t91.5 7q79 0 150.5 -16.5t125.5 -58t85.5 -112t31.5 -179.5l-2 -688
h128v-66q-35 -19 -86.5 -31t-103.5 -12q-18 0 -39 2.5t-38.5 12.5t-29 31t-11.5 58v28q-23 -28 -54.5 -52t-72 -42t-92 -28t-114.5 -10q-78 0 -141.5 28t-106 75.5t-63 110t-12.5 132.5zM312 318q0 -59 16 -100t46.5 -66.5t74.5 -37t99 -11.5q30 0 61 8t59.5 20t53 27.5
t39.5 30.5q0 94 0.5 186.5t1.5 186.5q-42 0 -92 -4.5t-100 -15.5t-97 -29t-83 -45.5t-57.5 -64.5t-21.5 -85z" />
    <glyph glyph-name="b" unicode="b" horiz-adv-x="1264" 
d="M203 1466l-171 36v87l323 36l40 -17v-584q27 23 59.5 46t72 41.5t87.5 30t106 11.5q84 0 164 -29.5t142 -95t100 -169.5t38 -254q0 -128 -41 -243t-115.5 -201.5t-179 -137.5t-230.5 -51q-71 0 -137.5 8t-120 20t-90.5 25.5t-47 24.5v1416zM395 158q16 -42 77.5 -61.5
t148.5 -19.5q65 0 127.5 29t112 89t80 153t32.5 221q2 120 -26.5 205t-75.5 138t-107.5 77.5t-123.5 24.5q-44 0 -81.5 -9t-68 -23t-55 -30.5t-40.5 -31.5v-762z" />
    <glyph glyph-name="c" unicode="c" horiz-adv-x="1045" 
d="M105 538q-1 138 41 249t115.5 190t173 123t214.5 49q42 1 85.5 -1.5t82 -9t70.5 -16.5t52 -23v-240h-95l-51 126q-16 13 -37 22t-43 15t-44 8.5t-40 2.5q-67 0 -128 -25t-108 -75.5t-75 -127t-29 -179.5q-1 -136 32 -233t86 -158.5t118 -90t128 -28.5q39 0 81 5t81 13
t72 19.5t54 23.5l34 -89q-29 -26 -72 -46t-94.5 -34t-108 -21.5t-113.5 -7.5q-116 0 -205 42t-150.5 117t-93.5 177.5t-33 222.5z" />
    <glyph glyph-name="d" unicode="d" horiz-adv-x="1269" 
d="M537 -24q-84 0 -163 33.5t-139.5 103t-97.5 176t-37 252.5q0 134 45 246.5t123 193.5t183.5 126.5t226.5 45.5q53 0 103 -7t86 -19v333l-213 36v87l360 42l45 -23v-1517h135v-75q-17 -9 -42.5 -17t-54 -14t-58 -9t-55.5 -3q-18 0 -37.5 2.5t-35.5 12.5t-26.5 31t-10.5 58
v25q-15 -17 -44 -38t-72 -39t-98.5 -30.5t-122.5 -12.5zM614 113q32 0 59.5 3.5t51.5 9.5q49 12 84 32t58 43v765q-11 13 -27 27t-41.5 26t-61 19.5t-83.5 7.5q-38 0 -79 -9.5t-81 -31.5t-76 -57t-64 -85.5t-45 -118t-18 -154.5q-2 -123 25 -213t72.5 -148.5t104.5 -87
t121 -28.5z" />
    <glyph glyph-name="e" unicode="e" horiz-adv-x="1145" 
d="M100 556q0 128 40.5 236t113 187t174.5 124.5t225 48.5q88 2 159 -25.5t121 -81.5t78.5 -132t32.5 -177q2 -63 -2.5 -109t-9.5 -82h-741v-11.5t1 -11.5q4 -121 41 -200t92.5 -125.5t122.5 -65t131 -18.5q39 0 82 4.5t83.5 13t75 19.5t55.5 23l37 -85q-29 -26 -75.5 -47
t-101.5 -35.5t-115 -22t-117 -7.5q-121 0 -214.5 41.5t-157.5 117t-97.5 182.5t-33.5 239zM840 663q3 51 1.5 102.5t-12.5 98t-33.5 85t-60.5 62.5q-26 17 -59 25.5t-75 8.5q-56 0 -108.5 -21t-94 -67t-69.5 -118.5t-36 -175.5h547z" />
    <glyph glyph-name="f" unicode="f" horiz-adv-x="837" 
d="M110 85l201 22v877h-220v76l220 59v83q0 74 18.5 139.5t50 119.5t73 96.5t87 71.5t92.5 44.5t89 15.5q68 0 100 -6t43 -11v-170q-14 8 -62.5 19.5t-120.5 11.5q-41 0 -73.5 -7t-56 -32.5t-36 -75t-12.5 -134.5v-165h302v-135h-302v-879l230 -20v-85h-623v85z" />
    <glyph glyph-name="g" unicode="g" horiz-adv-x="1203" 
d="M127 -233q0 46 16.5 88t41.5 77t54.5 62.5t56.5 44.5q-45 16 -68 37t-32.5 44t-10.5 47t-1 45q0 18 8 47t23.5 62t39 67t53.5 61q-75 45 -118.5 120.5t-43.5 184.5q0 103 39.5 179t104 126t146.5 75t166 27q85 2 159.5 -17.5t131.5 -62.5q20 23 58.5 37.5t102.5 14.5h121
v-151h-196q21 -38 32.5 -86t11.5 -105q0 -99 -36.5 -175.5t-98 -128.5t-142 -79t-168.5 -27q-118 0 -211 37q-6 -16 -8.5 -34.5t-3 -36t0 -33t0.5 -25.5q0 -54 28.5 -84t99.5 -36q45 -4 108 -4.5t150 -0.5q93 0 159 -14.5t109.5 -38.5t68.5 -56t38 -67t16 -70.5t3 -67.5
q0 -86 -36 -156t-103.5 -120t-165 -77.5t-221.5 -27.5q-90 0 -176.5 14t-154.5 48.5t-110 92t-42 143.5zM607 488q62 0 105 17t69.5 51.5t38.5 86t12 120.5q0 149 -64 221t-192 72q-50 0 -93.5 -13t-76 -43.5t-51 -81t-18.5 -126.5q0 -62 15 -117.5t47.5 -97t84 -65.5
t123.5 -24zM313 -169q0 -68 26 -115.5t70 -77t102 -43t123 -13.5q81 0 145.5 13.5t109.5 40.5t69 68.5t24 97.5q0 48 -11 85.5t-43 63.5t-89.5 39.5t-150.5 13.5l-126 2q-59 0 -105.5 3.5t-83.5 9.5q-12 -14 -22.5 -31.5t-19 -40t-13.5 -51t-5 -65.5z" />
    <glyph glyph-name="h" unicode="h" horiz-adv-x="1404" 
d="M124 85l150 21v1354l-171 36v87l316 42l47 -23l-2 -442l-3 -173q44 36 95.5 64t103.5 47.5t101.5 30t89.5 10.5q102 0 167 -31t102.5 -95.5t51.5 -165.5t13 -240v-501l150 -21v-85h-510v85l168 21v416q0 116 -5.5 204t-29 147.5t-70.5 89.5t-130 30q-33 0 -70 -4
t-74.5 -13.5t-75 -25.5t-72.5 -41v-803l147 -21v-85h-489v85z" />
    <glyph glyph-name="i" unicode="i" horiz-adv-x="683" 
d="M333 1375q-24 0 -47 8.5t-40.5 24t-28 38.5t-10.5 52q0 31 13.5 58t34.5 46.5t47.5 30.5t53.5 11q66 0 96.5 -36.5t30.5 -87.5q0 -33 -13 -60t-34 -45.5t-48 -29t-55 -10.5zM112 85l170 21v819l-138 73v62l277 79l45 -20v-1013l162 -21v-85h-516v85z" />
    <glyph glyph-name="j" unicode="j" horiz-adv-x="650" 
d="M326 1404q-24 0 -47 8.5t-40.5 24t-28 38.5t-10.5 52q0 31 13.5 58t34.5 46.5t47.5 30.5t53.5 11q66 0 96.5 -36.5t30.5 -87.5q0 -33 -13 -60t-34 -45.5t-48 -29t-55 -10.5zM275 925l-139 74v60l281 80l46 -20v-1135q0 -117 -25.5 -209.5t-73 -157t-114.5 -98.5t-150 -34
q-10 0 -27 1t-33.5 3t-30.5 5t-18 6v138q8 -3 23 -5t31.5 -3.5t31.5 -2t24 -0.5q48 0 81.5 18.5t54 62t29.5 114.5t9 176v927z" />
    <glyph glyph-name="k" unicode="k" horiz-adv-x="1274" 
d="M110 85l164 22v1353l-180 36v87l332 42l40 -23v-898l-5 -154l445 459l-151 14v106h472v-106l-152 -16l-340 -342l423 -559l136 -21v-85h-485v85l139 23l-329 461l-159 -158l6 -194v-112l144 -20v-85h-500v85z" />
    <glyph glyph-name="l" unicode="l" horiz-adv-x="698" 
d="M108 85l170 21v1354l-160 36v87l313 42l40 -23v-1496l178 -21v-85h-541v85z" />
    <glyph glyph-name="m" unicode="m" horiz-adv-x="2070" 
d="M138 85l136 22v813l-142 78v62l266 79l45 -20v-143q33 29 80 57.5t100.5 51.5t109.5 37.5t107 16.5q108 4 174.5 -28.5t103.5 -113.5q36 27 85 52t103 44.5t109 31.5t103 14q93 3 157 -23t103 -84t56 -150t17 -221v-555l169 -21v-85h-497v85l136 21v520q0 96 -9 166.5
t-35.5 116t-73.5 66.5t-123 18q-68 -3 -135 -25.5t-132 -59.5q11 -48 17 -109.5t6 -127.5v-566l153 -20v-85h-495v85l150 22v535q0 95 -9.5 163t-36.5 111t-74.5 61.5t-123.5 15.5q-54 -3 -123.5 -27.5t-145.5 -76.5v-183q0 -151 -1 -300t0 -300l149 -21v-85h-479v85z" />
    <glyph glyph-name="n" unicode="n" horiz-adv-x="1396" 
d="M138 85l136 20v815l-142 78v62l266 79l45 -20v-143q34 29 82 57.5t102 51.5t111 37.5t108 16.5q93 3 156 -22.5t102 -83t56 -147.5t17 -216v-565l161 -20v-85h-504v85l151 21v529q0 91 -9 160t-35.5 114t-73.5 66t-123 18q-62 -3 -131 -27.5t-145 -76.5v-783l149 -21v-85
h-479v85z" />
    <glyph glyph-name="o" unicode="o" horiz-adv-x="1231" 
d="M103 582q2 134 46.5 239.5t117.5 178.5t168.5 112t199.5 40q127 1 221 -44t155.5 -123.5t91.5 -184.5t29 -227q-1 -133 -42.5 -243t-112 -188.5t-165 -122t-202.5 -43.5q-138 0 -235 50t-158 134t-88.5 193.5t-25.5 228.5zM619 88q85 -2 143.5 29t95 91.5t53 150
t16.5 205.5q0 101 -17.5 188.5t-55 152.5t-95 102.5t-136.5 39.5q-85 1 -144.5 -29.5t-97.5 -89.5t-55.5 -144t-17.5 -193q0 -97 19 -187t57 -159.5t96.5 -112t138.5 -44.5z" />
    <glyph glyph-name="p" unicode="p" horiz-adv-x="1324" 
d="M264 -404v1324l-142 78v62l265 79l46 -21v-116q21 24 55.5 50.5t79.5 48.5t100 36.5t117 14.5q84 0 163 -29.5t140.5 -95.5t98.5 -172.5t37 -259.5q0 -128 -41.5 -240.5t-117 -196.5t-180.5 -132.5t-231 -48.5q-56 0 -106 9.5t-98 22.5l6 -269v-145l196 -21v-85h-528v85z
M456 170q23 -40 78.5 -64t142.5 -24q65 0 128 26.5t113 85t81.5 151t33.5 224.5q2 126 -25.5 212.5t-74 140.5t-106 77.5t-122.5 23.5q-48 0 -86.5 -11t-69.5 -27t-54.5 -34t-39.5 -32l1 -389v-360z" />
    <glyph glyph-name="q" unicode="q" horiz-adv-x="1242" 
d="M536 -28q-36 0 -82 8t-94.5 30t-95 62t-83 103.5t-59 154.5t-22.5 216q0 127 43.5 238t122 193t187.5 129t239 47q60 0 117 -11t92 -25l120 23l40 -20v-1515l136 -21v-95h-534v95l206 21v348l6 153q-17 -17 -46.5 -40t-71.5 -44t-97 -35.5t-124 -14.5zM606 111q47 0 88 8
t74.5 21.5t58.5 30.5t42 34v761q-35 45 -89 62.5t-120 17.5q-77 0 -143.5 -29t-116 -87.5t-78.5 -146t-31 -204.5q-2 -116 20 -203.5t63 -146t100 -88.5t132 -30z" />
    <glyph glyph-name="r" unicode="r" horiz-adv-x="923" 
d="M112 85l162 21v814l-142 78v62l264 79l47 -20v-154q19 28 57.5 59t86.5 56.5t100 42t98 16.5q33 0 59.5 -1.5t37.5 -5.5v-205q-16 6 -33 12.5t-37.5 11t-46.5 7.5t-60 3q-81 0 -136 -20.5t-101 -49.5v-782l285 -24v-85h-641v85z" />
    <glyph glyph-name="s" unicode="s" horiz-adv-x="1048" 
d="M168 290h89l39 -122q25 -21 49.5 -36.5t50 -25.5t54.5 -15.5t64 -6.5q56 -2 103 8.5t81 34t53 59.5t19 86q0 45 -24.5 77t-64.5 57.5t-91 47t-104 47.5q-59 28 -115.5 61.5t-100 75t-69.5 93.5t-25 119q1 52 18.5 94t47 75t68.5 57.5t83 41t90.5 25t91.5 9.5
q50 1 96.5 -4.5t87 -15.5t73 -23t55.5 -26v-214h-85l-43 112q-14 15 -30.5 27.5t-37 22t-46.5 15.5t-59 6q-48 0 -88.5 -9.5t-70.5 -29.5t-47.5 -52t-18.5 -77q-2 -45 22 -78.5t63 -60.5t89.5 -50.5t103.5 -49.5q55 -26 111.5 -53.5t101.5 -65t73.5 -88t28.5 -120.5
q0 -85 -34 -149t-93.5 -107t-139 -64.5t-170.5 -21.5t-182 21.5t-167 63.5v229z" />
    <glyph glyph-name="t" unicode="t" horiz-adv-x="862" 
d="M264 262q0 184 0.5 365.5t0.5 365.5h-153v75q44 11 73.5 17.5t49 15t32.5 21.5t24 38q7 17 17.5 50t20 67.5t16.5 65t9 43.5h99v-267h336v-126h-336v-504q0 -116 3 -188.5t15 -113.5t35 -55.5t64 -14.5q25 0 55.5 5t59 12t52.5 15.5t36 16.5l31 -88q-23 -25 -61 -44
t-82.5 -32t-89 -19.5t-78.5 -6.5q-109 0 -169 67t-60 219z" />
    <glyph glyph-name="u" unicode="u" horiz-adv-x="1292" 
d="M214 977l-103 30v77l257 55l35 -18v-689q0 -83 9 -142.5t33 -98t66 -57t108 -18.5q45 0 88.5 12.5t81 30t65.5 37t41 33.5v739l-125 32v82l286 57l28 -17v-1037h120v-76q-15 -8 -37 -15.5t-47.5 -13.5t-52 -10t-50.5 -4q-48 0 -75.5 20.5t-27.5 65.5v82
q-87 -76 -182.5 -115.5t-186.5 -39.5q-118 0 -184 36.5t-98.5 101t-40 152.5t-8.5 192v516z" />
    <glyph glyph-name="v" unicode="v" horiz-adv-x="1188" 
d="M99 995l-97 19v105h440v-105l-123 -21l219 -534l94 -286l92 274l191 546l-128 20v106h399v-105l-106 -22l-407 -1016h-135z" />
    <glyph glyph-name="w" unicode="w" horiz-adv-x="1692" 
d="M104 995l-102 18v106h436v-106l-138 -21l188 -610l54 -217l45 216l190 738h172l193 -737l57 -217l55 209l156 620l-124 19v106h404v-105l-125 -23l-298 -1016h-176l-216 762l-26 149l-38 -149l-201 -762h-166z" />
    <glyph glyph-name="x" unicode="x" horiz-adv-x="1168" 
d="M6 85l150 22l333 435l-348 453l-137 18v106h501v-106l-139 -18l195 -287l48 -73l40 70l198 293l-142 15v106h451v-106l-155 -19l-326 -427l358 -462l131 -20v-85h-495v85l138 21q-38 57 -66 97t-47.5 67.5t-32 44t-20 26.5t-11.5 14.5t-6 8.5l-70 99l-42 -76l-196 -281
l181 -21v-85h-491v85z" />
    <glyph glyph-name="y" unicode="y" horiz-adv-x="1150" 
d="M150 -339q17 -5 39.5 -8t40.5 -3q36 0 78 13t85 50.5t83.5 106.5t73.5 180h-43l-401 995l-104 18v106h463v-106l-144 -20l235 -671l67 -204l58 204l203 674l-156 17v106h432v-106l-112 -16q-67 -194 -117.5 -341t-88 -255t-64 -183t-44.5 -125t-29 -80.5t-19 -50.5
q-39 -100 -78.5 -180t-83.5 -138.5t-94.5 -96t-112.5 -52.5q-40 -10 -88 -10q-10 0 -22 1t-23.5 3t-20.5 5t-13 6v161z" />
    <glyph glyph-name="z" unicode="z" horiz-adv-x="1078" 
d="M88 82l69 95l539 750l82 98l-490 -16l-60 -184h-93v294h849l25 -82l-586 -809l-100 -130l530 22l64 169q26 0 51.5 -0.5t51.5 -0.5l-17 -288h-883z" />
    <glyph glyph-name="braceleft" unicode="{" horiz-adv-x="1035" 
d="M330 579q0 20 -23 40t-59 38t-80.5 32.5t-87.5 24.5v126q42 10 86.5 23.5t80.5 29.5t59.5 34.5t23.5 39.5v519q0 74 8 122.5t29 77t58 40t95 11.5q41 0 75.5 -4t66 -10t61.5 -14t62 -16q0 -22 -0.5 -43t-0.5 -43h-291v-636q0 -42 -20.5 -70.5t-54.5 -51.5
q-31 -20 -68.5 -37t-77.5 -36q48 -21 91.5 -43t75.5 -50q25 -22 39.5 -48.5t14.5 -59.5v-634h291q0 -22 0.5 -44t0.5 -44q-32 -9 -62 -17t-61.5 -14t-66 -9.5t-75.5 -3.5q-58 0 -95 11.5t-58 40t-29 77t-8 122.5v519z" />
    <glyph glyph-name="bar" unicode="|" horiz-adv-x="873" 
d="M358 1780h173v-1966h-173v1966z" />
    <glyph glyph-name="braceright" unicode="}" horiz-adv-x="958" 
d="M174 -59h291v634q0 33 14.5 59.5t39.5 48.5q32 28 75 50t91 43q-40 19 -77.5 36t-67.5 37q-34 23 -54.5 51.5t-20.5 70.5v636h-291q0 22 -0.5 43t-0.5 43q32 8 62 16t61.5 14t66 10t75.5 4q58 0 95 -11.5t58 -40t29 -77t8 -122.5v-519q0 -21 23.5 -39.5t59.5 -34.5
t80.5 -29.5t86.5 -23.5v-126q-43 -10 -87.5 -24.5t-80.5 -32.5t-59 -38t-23 -40v-519q0 -74 -8 -122.5t-29 -77t-58 -40t-95 -11.5q-41 0 -75.5 3.5t-66 9.5t-61.5 14t-62 17q0 22 0.5 44t0.5 44z" />
    <glyph glyph-name="asciitilde" unicode="~" horiz-adv-x="1257" 
d="M149 868q22 38 58 72.5t81 60.5t96.5 41.5t106.5 15.5q39 0 71 -12.5t59 -31t51 -40t48 -40t49 -31t54 -12.5q34 0 65 10t57.5 25t49 33t40.5 35l72 -89q-23 -38 -58.5 -72.5t-80.5 -61t-96.5 -42t-106.5 -15.5q-39 0 -71 12.5t-59 31t-51 40.5t-47.5 40.5t-49 31
t-54.5 12.5q-35 0 -65.5 -10t-57 -25t-49 -33.5t-40.5 -34.5z" />
    <glyph glyph-name="uni007F" 
 />
    <glyph glyph-name="nonbreakingspace" unicode="&#xa0;" horiz-adv-x="523" 
 />
    <glyph glyph-name="exclamdown" unicode="&#xa1;" horiz-adv-x="713" 
d="M348 1169q-24 0 -47 8.5t-40.5 24t-28 38.5t-10.5 52q0 31 13.5 58t34.5 46.5t47.5 30.5t53.5 11q66 0 96.5 -36.5t30.5 -87.5q0 -33 -13 -60t-34 -45.5t-48 -29t-55 -10.5zM288 922h118l65 -1330h-256z" />
    <glyph glyph-name="cent" unicode="&#xa2;" horiz-adv-x="1117" 
d="M515 -13q-94 16 -166.5 63.5t-122 120t-75 166t-26.5 201.5q-1 127 35 231.5t100 182t151.5 126.5t189.5 64l13 220h124l-12 -213q36 -1 70.5 -5t65 -10.5t55.5 -15t42 -19.5v-240h-95l-51 126q-16 13 -37 22t-43 15t-44 8.5t-40 2.5q-67 0 -128 -25t-108 -75.5t-75 -127
t-29 -179.5q-1 -136 32 -233t86 -158.5t118 -90t128 -28.5q39 0 81 5t81 13t72 19.5t54 23.5l34 -89q-27 -24 -66.5 -43t-86 -33t-98.5 -22t-105 -10l-11 -196h-124z" />
    <glyph glyph-name="sterling" unicode="&#xa3;" horiz-adv-x="1441" 
d="M89 61q0 27 20.5 56t58.5 52.5t93 37.5t123 11q10 22 16.5 54t10.5 67.5t5.5 71t1.5 64.5v252h-180v147h180v113q0 112 35.5 216.5t101 185.5t157 129.5t203.5 48.5q42 0 78.5 -3t70 -12t64 -25t59.5 -41l-96 -183q-4 7 -25 30t-56.5 47.5t-83.5 43.5t-106 19
q-43 0 -81 -20t-67 -71t-46 -139t-17 -224v-115h326v-147h-325v-31q0 -69 -2.5 -124.5t-8.5 -100t-15 -81.5t-21.5 -70.5t-28.5 -65.5t-36 -67q34 -2 72.5 -16.5t81.5 -32t88.5 -35t92.5 -25.5q95 -17 158.5 -4t102 44t54.5 75.5t16 90.5q0 19 -4 39.5t-13 40.5t-23 38
t-33 33l92 175q69 -29 110.5 -91.5t52.5 -146.5q4 -31 3.5 -71.5t-10.5 -83t-33 -84.5t-63 -77t-100 -59.5t-145 -31.5q-85 -8 -156.5 0.5t-131 25t-107.5 37t-86 38t-67.5 28t-51.5 6.5q-19 -26 -42 -50t-49.5 -42t-56.5 -28.5t-63 -10.5q-14 0 -31 3t-32 13t-25 28t-10 48
z" />
    <glyph glyph-name="currency" unicode="&#xa4;" horiz-adv-x="1436" 
d="M406 461q-36 48 -56 106t-20 123q0 63 19.5 120t54.5 105l-179 180l85 86l181 -182q47 32 102 50.5t117 18.5q66 0 126 -21.5t108 -59.5l182 181l85 -86l-184 -184q30 -45 46.5 -97.5t16.5 -110.5q0 -63 -19 -119t-53 -103l181 -180l-86 -85l-181 180q-47 -34 -103 -52.5
t-119 -18.5q-60 0 -114.5 17t-101.5 49l-180 -180l-86 85zM473 690q0 -51 18.5 -95.5t51 -78.5t75.5 -53.5t92 -19.5t92 19.5t75.5 53.5t51 78.5t18.5 95.5t-18.5 95.5t-51 78.5t-75.5 53.5t-92 19.5t-92 -19.5t-75.5 -53.5t-51 -78.5t-18.5 -95.5z" />
    <glyph glyph-name="yen" unicode="&#xa5;" horiz-adv-x="1407" 
d="M413 85l194 30v262h-425v127h425v230h-425v127h360l-380 576l-130 18v98h503v-98l-149 -17l283 -463l49 -114h27l62 122q63 109 128 226t131 229l-148 17v98h456v-98l-141 -29l-360 -565h337v-127h-408v-230h408v-127h-408v-261l204 -31v-85h-593v85z" />
    <glyph glyph-name="brokenbar" unicode="&#xa6;" horiz-adv-x="873" 
d="M358 1780h173v-894h-173v894zM358 708h173v-894h-173v894z" />
    <glyph glyph-name="section" unicode="&#xa7;" horiz-adv-x="1327" 
d="M256 140l65 -194q34 -38 73.5 -59t82 -32t87 -13.5t89.5 -2.5q51 0 105 12t98 39.5t72 73t28 112.5q0 66 -33 116.5t-87 92t-123 76t-140.5 69.5t-140.5 73.5t-123 86t-87 108.5t-33 141q0 40 7.5 81.5t21.5 80.5t33 74t43 62q-42 44 -66 98t-24 123q0 72 22.5 130.5
t60 104.5t87 80t104 56t110 33t105.5 11q73 0 135 -7t111.5 -18.5t85.5 -25t58 -26.5v-277h-85l-78 192q-13 15 -37.5 26t-56.5 18.5t-69 11.5t-76 4q-41 0 -91.5 -14.5t-95.5 -47t-75.5 -84.5t-30.5 -128q0 -63 33 -111t87 -87t123 -72.5t141.5 -67t141.5 -71t123 -84.5
t87 -108t33 -141q0 -42 -6.5 -86t-18.5 -85t-29 -78t-39 -65q36 -42 57 -92t21 -113q0 -110 -42 -186.5t-113 -124.5t-164.5 -69.5t-196.5 -21.5q-75 0 -147.5 8t-134 20.5t-107.5 27.5t-67 28v322h86zM373 878q0 -56 26.5 -100.5t70.5 -80.5t102.5 -67t121.5 -60t127.5 -60
t121.5 -67q13 35 20.5 76t7.5 76q0 58 -26 104t-69 84t-100 70t-119.5 62.5t-126 61.5t-120.5 67q-17 -37 -27 -81t-10 -85z" />
    <glyph glyph-name="dieresis" unicode="&#xa8;" horiz-adv-x="1062" 
d="M752 1382q-24 0 -46.5 8t-40 23t-27.5 37.5t-10 51.5q0 31 13 57.5t34 45.5t47 30t53 11q66 0 96.5 -35.5t30.5 -86.5q0 -33 -13 -59.5t-34 -44.5t-48 -28t-55 -10zM286 1382q-24 0 -46.5 8t-40 23t-27.5 37.5t-10 51.5q0 31 13 57.5t34 45.5t47 30t53 11
q66 0 96.5 -35.5t30.5 -86.5q0 -33 -13 -59.5t-34 -44.5t-48 -28t-55 -10z" />
    <glyph glyph-name="copyright" unicode="&#xa9;" horiz-adv-x="2041" 
d="M1021 219q-115 0 -222.5 31t-201.5 87.5t-171 134.5t-132 172.5t-85.5 202t-30.5 222.5t30.5 223t85.5 203t132 173t171 134t201 87t223 31q115 0 222 -31t200.5 -87t171 -134t132.5 -173t85.5 -203t30.5 -223t-30.5 -222.5t-85.5 -202t-132.5 -172.5t-171 -134.5
t-200.5 -87.5t-222 -31zM1021 339q99 0 190 26.5t170 75t144 116t111 148.5t71.5 173t25.5 191t-25.5 192t-71.5 174t-111 148.5t-144 115.5t-170.5 74.5t-189.5 26.5q-99 0 -190.5 -26.5t-170.5 -74.5t-144 -115.5t-111 -148.5t-71.5 -174t-25.5 -192q0 -98 25.5 -190.5
t71.5 -173.5t111 -148.5t144 -116t170.5 -75t190.5 -26.5zM1030 584q-111 0 -194.5 35.5t-139.5 99t-84.5 151t-28.5 191.5q0 105 40.5 196t104.5 159.5t144 109.5t158 47q27 2 72.5 2t93 -5.5t88.5 -18.5t60 -36v-210h-116l-49 126q-11 7 -23 13.5t-30.5 10.5t-45.5 6.5
t-68 2.5q-59 0 -104.5 -27t-77 -75.5t-47.5 -115t-16 -145.5q0 -84 25.5 -154t70.5 -120.5t106 -78.5t133 -28q31 0 65.5 5t66 13t56 19t36.5 22l28 -73q-21 -24 -54.5 -46.5t-75.5 -39t-91.5 -26.5t-102.5 -10z" />
    <glyph glyph-name="ordfeminine" unicode="&#xaa;" horiz-adv-x="964" 
d="M323 736q-33 0 -75.5 14t-79.5 43t-62.5 74t-25.5 108q0 90 45.5 146t121.5 86.5t174 41t203 10.5v26q0 64 -15.5 100.5t-44 55.5t-68 24t-86.5 5q-39 0 -75.5 -4.5t-68.5 -12.5t-58.5 -19t-44.5 -25l-38 88q22 20 60 37.5t84.5 30.5t97.5 20.5t99 7.5q72 0 133 -9.5
t105.5 -41t69.5 -90t25 -155.5l-2 -458h87v-76q-13 -5 -33.5 -11t-44 -11t-46.5 -8t-42 -3t-35 3t-28 13t-19 28.5t-7 49.5v15q-17 -15 -42.5 -32.5t-62.5 -33.5t-86.5 -26.5t-114.5 -10.5zM399 853q26 0 57 4.5t62 13t58.5 21.5t45.5 30l1 246q-78 0 -143.5 -7.5
t-112.5 -26t-73.5 -49.5t-26.5 -77q0 -38 10.5 -67t28.5 -48.5t42 -29.5t51 -10z" />
    <glyph glyph-name="guillemotleft" unicode="&#xab;" horiz-adv-x="1897" 
d="M953 693l648 382l51 -85l-514 -376l514 -360l-51 -91l-648 365v165zM245 693l648 382l51 -85l-514 -376l514 -360l-51 -91l-648 365v165z" />
    <glyph glyph-name="logicalnot" unicode="&#xac;" horiz-adv-x="1232" 
d="M178 872h876v-529h-164v401h-712v128z" />
    <glyph glyph-name="registered" unicode="&#xae;" horiz-adv-x="2041" 
d="M1021 219q-115 0 -222.5 31t-201.5 87.5t-171 134.5t-132 172.5t-85.5 202t-30.5 222.5t30.5 223t85.5 203t132 173t171 134t201 87t223 31q115 0 222 -31t200.5 -87t171 -134t132.5 -173t85.5 -203t30.5 -223t-30.5 -222.5t-85.5 -202t-132.5 -172.5t-171 -134.5
t-200.5 -87.5t-222 -31zM1021 339q99 0 190 26.5t170 75t144 116t111 148.5t71.5 173t25.5 191t-25.5 192t-71.5 174t-111 148.5t-144 115.5t-170.5 74.5t-189.5 26.5q-99 0 -190.5 -26.5t-170.5 -74.5t-144 -115.5t-111 -148.5t-71.5 -174t-25.5 -192q0 -98 25.5 -190.5
t71.5 -173.5t111 -148.5t144 -116t170.5 -75t190.5 -26.5zM626 679l92 28v728l-92 24v97h160q30 -1 51.5 -1t48 1t64 2.5t100.5 2.5q172 0 260 -60.5t91 -175.5q0 -45 -10.5 -91.5t-39 -87t-79.5 -72t-132 -45.5q45 -25 76 -60t55 -73t44 -75.5t42.5 -67t50.5 -48t69 -18.5
v-93h-158q-47 0 -77 25t-52 64t-40.5 87.5t-41.5 94.5t-55 85t-82 60h-74v-309l91 -22v-85h-362v85zM897 1108q30 -6 60 -7.5t74 -1.5q42 0 77 15t60 40t39 58t14 69q0 48 -15 82t-42.5 56t-65.5 32t-84 10h-29.5t-25 -0.5t-27 -3t-35.5 -7.5v-342z" />
    <glyph glyph-name="macron" unicode="&#xaf;" horiz-adv-x="885" 
d="M195 1591h531v-148h-531v148z" />
    <glyph glyph-name="degree" unicode="&#xb0;" horiz-adv-x="677" 
d="M338 961q-65 0 -123 25t-101.5 68t-68.5 100.5t-25 122.5t25 122.5t68.5 100.5t101.5 68t123 25q66 0 124 -25t101.5 -68t68.5 -100.5t25 -122.5t-25 -122.5t-68.5 -100.5t-101.5 -68t-124 -25zM338 1075q44 0 80.5 15.5t63 42.5t41.5 64t15 81q0 42 -15.5 78.5t-42.5 64
t-63.5 43.5t-78.5 16q-44 0 -80.5 -15.5t-63 -42.5t-41.5 -64t-15 -80q0 -42 15.5 -78.5t42.5 -64.5t63.5 -44t78.5 -16z" />
    <glyph glyph-name="plusminus" unicode="&#xb1;" horiz-adv-x="1269" 
d="M557 561l7 166l-166 -7h-220v155h220l166 -12l-7 169v228h155v-228l-9 -169l137 12h251v-155h-251l-137 7l9 -166v-240h-155v240zM191 177h885v-147h-885v147z" />
    <glyph glyph-name="twosuperior" unicode="&#xb2;" horiz-adv-x="1256" 
d="M144 836q38 19 99.5 53.5t131.5 79t141 97t128.5 107t93.5 109.5t36 106q0 54 -18.5 90.5t-49 59t-70 32.5t-82.5 10t-89.5 -11.5t-91.5 -32.5t-85.5 -51.5t-70.5 -68.5l-74 87q24 37 68.5 77t104.5 73t132 54.5t150 21.5q81 0 142 -13.5t105 -36t73 -51.5t45.5 -60
t23.5 -61t7 -54q0 -96 -47.5 -177.5t-131 -154.5t-197.5 -142t-247 -139l519 38l119 140l103 -42l-56 -256h-869z" />
    <glyph glyph-name="threesuperior" unicode="&#xb3;" horiz-adv-x="1145" 
d="M225 784q29 -11 65 -21t73.5 -17t74.5 -10.5t68 -3.5q74 1 128.5 18t90.5 45.5t53.5 67.5t17.5 83q0 43 -16.5 75.5t-45.5 54t-68 32.5t-84 12l-197 -40v120q82 16 137 36.5t91.5 46t57.5 55t35 63.5q7 17 8.5 36t0.5 37q-1 30 -19.5 52t-45.5 36.5t-59 20.5t-61 5
q-38 -2 -79 -9.5t-80 -20t-73.5 -28.5t-59.5 -34l-49 90q23 18 60.5 38t83.5 38t97 32t101 19q91 10 162.5 -7t121 -51.5t75 -83t25.5 -102.5q0 -91 -55.5 -157.5t-170.5 -108.5q60 3 105.5 -9t79.5 -34t56.5 -50.5t36.5 -59t20 -59.5t6 -52q0 -71 -31 -131.5t-90.5 -105.5
t-145.5 -70.5t-195 -25.5q-30 0 -68 4t-78.5 12.5t-82 21.5t-77.5 30v110z" />
    <glyph glyph-name="acute" unicode="&#xb4;" horiz-adv-x="884" 
d="M222 1394l294 386l146 -149q-30 -46 -79 -90t-103.5 -82.5t-109 -69t-95.5 -49.5z" />
    <glyph glyph-name="mu" unicode="&#xb5;" horiz-adv-x="1415" 
d="M453 -373h-189v813v21v516l-103 30v77l257 55l35 -18v-689q0 -83 9 -142.5t33 -98t66 -57t108 -18.5q45 0 88.5 12.5t81 30t65.5 37t41 33.5v739l-125 32v82l286 57l28 -17v-1037h120v-76q-15 -8 -37 -15.5t-47.5 -13.5t-52 -10t-50.5 -4q-48 0 -75.5 20.5t-27.5 65.5v82
q-87 -79 -182.5 -117t-186.5 -38q-43 0 -78 5t-64 14v-371z" />
    <glyph glyph-name="mu" unicode="&#x3bc;" horiz-adv-x="1415" 
d="M453 -373h-189v813v21v516l-103 30v77l257 55l35 -18v-689q0 -83 9 -142.5t33 -98t66 -57t108 -18.5q45 0 88.5 12.5t81 30t65.5 37t41 33.5v739l-125 32v82l286 57l28 -17v-1037h120v-76q-15 -8 -37 -15.5t-47.5 -13.5t-52 -10t-50.5 -4q-48 0 -75.5 20.5t-27.5 65.5v82
q-87 -79 -182.5 -117t-186.5 -38q-43 0 -78 5t-64 14v-371z" />
    <glyph glyph-name="paragraph" unicode="&#xb6;" horiz-adv-x="1346" 
d="M343 85l199 30v561q-213 0 -318.5 108.5t-105.5 342.5q0 98 30.5 180t94 141t161 92t230.5 33q34 0 91.5 -2.5t121.5 -6t125.5 -7t103.5 -4.5h171v-101l-172 -33v-1304l148 -30v-85h-317l-2 1419h-196v-1419h-365v85z" />
    <glyph glyph-name="periodcentered" unicode="&#xb7;" horiz-adv-x="706" 
d="M341 712q-24 0 -47 8.5t-40.5 24t-28 38.5t-10.5 52q0 31 13.5 58t34.5 46.5t47.5 30.5t53.5 11q66 0 96.5 -36.5t30.5 -87.5q0 -33 -13 -60t-34 -45.5t-48 -29t-55 -10.5z" />
    <glyph glyph-name="cedilla" unicode="&#xb8;" horiz-adv-x="615" 
d="M333 0q-4 -25 -5.5 -59.5t1.5 -65.5q69 0 117.5 -17.5t79 -44.5t44.5 -60.5t14 -66.5q0 -50 -19 -88t-53 -65t-80 -42t-101 -18q-44 -2 -74.5 -0.5t-52.5 5t-38.5 8t-31.5 8.5q0 26 0.5 50.5t0.5 50.5q12 -3 27.5 -5.5t31.5 -5t30.5 -3.5t23.5 -1q28 0 53 3t44.5 14.5
t31 33.5t11.5 60q0 44 -38 72t-119 28q-6 0 -13.5 -0.5l-15 -1t-13.5 -1.5t-7 -1q1 49 10 100.5t26 112.5h115z" />
    <glyph glyph-name="onesuperior" unicode="&#xb9;" horiz-adv-x="1085" 
d="M215 804l272 27v653l-272 -53l-20 99q30 9 71 24t85.5 33t89.5 38.5t83 39t66.5 34t40.5 25.5l52 -15l-3 -879l259 -26v-85h-724v85z" />
    <glyph glyph-name="ordmasculine" unicode="&#xba;" horiz-adv-x="998" 
d="M491 736q-84 0 -157.5 28t-127.5 82.5t-84.5 135t-28.5 184.5q2 114 41.5 195t100 132.5t134 75.5t143.5 24q93 0 167 -30.5t125.5 -87.5t78.5 -138t26 -181q-1 -113 -41.5 -193t-102 -130t-134.5 -73.5t-140 -23.5zM488 838q54 0 95.5 12.5t70.5 46.5t44 93.5t15 153.5
q0 77 -14.5 141t-42 110t-67 71t-88.5 24q-50 -1 -89 -19t-66.5 -55.5t-42 -97t-14.5 -142.5q0 -78 16 -140.5t43 -106.5t63 -67.5t77 -23.5z" />
    <glyph glyph-name="guillemotright" unicode="&#xbb;" horiz-adv-x="1897" 
d="M1467 623l-513 361l51 91l648 -365v-165l-648 -382l-51 85zM245 248l513 375l-513 361l51 91l648 -365v-165l-648 -382z" />
    <glyph glyph-name="onequarter" unicode="&#xbc;" horiz-adv-x="2626" 
d="M1571 1881l130 -43l-773 -2181l-132 44zM245 804l272 27v653l-272 -53l-20 99q30 9 71 24t85.5 33t89.5 38.5t83 39t66.5 34t40.5 25.5l52 -15l-3 -879l259 -26v-85h-724v85zM1984 1113l68 1l110 -102l-511 -625l-72 -96l408 32l2 252l176 20v-258l273 21l3 -170h-276
v-365h-181l2 365h-524l-52 94z" />
    <glyph glyph-name="onehalf" unicode="&#xbd;" horiz-adv-x="2626" 
d="M1571 1881l130 -37l-773 -2187l-132 31zM245 804l272 27v653l-272 -53l-20 99q30 9 71 24t85.5 33t89.5 38.5t83 39t66.5 34t40.5 25.5l52 -15l-3 -879l259 -26v-85h-724v85zM1464 114q38 19 99.5 53.5t131.5 79t141 97t128.5 107t93.5 109.5t36 106q0 54 -18.5 90.5
t-49 59t-70 32.5t-82.5 10t-89.5 -11.5t-91.5 -32.5t-85.5 -51.5t-70.5 -68.5l-74 87q24 37 68.5 77t104.5 73t132 54.5t150 21.5q81 0 142 -13.5t105 -36t73 -51.5t45.5 -60t23.5 -61t7 -54q0 -96 -47.5 -177.5t-131 -154.5t-197.5 -142t-247 -139l519 38l119 140l103 -42
l-56 -256h-869z" />
    <glyph glyph-name="threequarters" unicode="&#xbe;" horiz-adv-x="2626" 
d="M1571 1881l130 -37l-773 -2187l-132 31zM225 784q29 -11 65 -21t73.5 -17t74.5 -10.5t68 -3.5q74 1 128.5 18t90.5 45.5t53.5 67.5t17.5 83q0 43 -16.5 75.5t-45.5 54t-68 32.5t-84 12l-197 -40v120q82 16 137 36.5t91.5 46t57.5 55t35 63.5q7 17 8.5 36t0.5 37
q-1 30 -19.5 52t-45.5 36.5t-59 20.5t-61 5q-38 -2 -79 -9.5t-80 -20t-73.5 -28.5t-59.5 -34l-49 90q23 18 60.5 38t83.5 38t97 32t101 19q91 10 162.5 -7t121 -51.5t75 -83t25.5 -102.5q0 -91 -55.5 -157.5t-170.5 -108.5q60 3 105.5 -9t79.5 -34t56.5 -50.5t36.5 -59
t20 -59.5t6 -52q0 -71 -31 -131.5t-90.5 -105.5t-145.5 -70.5t-195 -25.5q-30 0 -68 4t-78.5 12.5t-82 21.5t-77.5 30v110zM1984 1113l68 1l110 -102l-511 -625l-72 -96l408 32l2 252l176 20v-258l273 21l3 -170h-276v-365h-181l2 365h-524l-52 94z" />
    <glyph glyph-name="questiondown" unicode="&#xbf;" horiz-adv-x="1012" 
d="M445 1171q-24 0 -47 8.5t-40.5 24t-28 38.5t-10.5 52q0 31 13.5 58t34.5 46.5t47.5 30.5t53.5 11q66 0 96.5 -36.5t30.5 -87.5q0 -33 -13 -60t-34 -45.5t-48 -29t-55 -10.5zM94 235q0 37 30 68t76 59t100.5 53.5t104 51.5t86 53t46.5 59q6 40 -1.5 82.5t-23 86.5t-35 89
t-36.5 91h105q24 -18 54.5 -58t58.5 -88.5t48 -100t23 -93.5q2 -42 -31.5 -76.5t-85.5 -64t-113.5 -55t-116.5 -49.5t-95 -47t-47 -47q-4 -65 12.5 -127t48 -116.5t77 -100t100.5 -78t117 -50.5t127 -18q19 0 42 1t45.5 3.5t43 7t34.5 10.5v-152q-8 -10 -27.5 -18.5
t-45.5 -14.5t-56.5 -9.5t-60.5 -3.5q-125 0 -221 30t-166 81t-116 117.5t-71.5 139t-32 146t2.5 138.5z" />
    <glyph glyph-name="Agrave" unicode="&#xc0;" horiz-adv-x="1493" 
d="M760 1607q-47 8 -97.5 23.5t-102 36.5t-102 47.5t-97.5 56.5l146 149l306 -259zM2 85l143 29l521 1439h168l498 -1438l159 -30v-85h-528v85l166 30l-108 322h-600l-108 -322l167 -30v-85h-478v85zM982 554l-163 488l-95 301l-264 -789h522z" />
    <glyph glyph-name="Aacute" unicode="&#xc1;" horiz-adv-x="1493" 
d="M687 1661l306 259l146 -149q-47 -30 -97.5 -56.5t-102 -47.5t-102.5 -36.5t-97 -23.5zM2 85l143 29l521 1439h168l498 -1438l159 -30v-85h-528v85l166 30l-108 322h-600l-108 -322l167 -30v-85h-478v85zM982 554l-163 488l-95 301l-264 -789h522z" />
    <glyph glyph-name="Acircumflex" unicode="&#xc2;" horiz-adv-x="1493" 
d="M401 1662l253 258h189l257 -255l-87 -49l-264 168l-270 -168zM2 85l143 29l521 1439h168l498 -1438l159 -30v-85h-528v85l166 30l-108 322h-600l-108 -322l167 -30v-85h-478v85zM982 554l-163 488l-95 301l-264 -789h522z" />
    <glyph glyph-name="Atilde" unicode="&#xc3;" horiz-adv-x="1493" 
d="M351 1750q19 35 49.5 66t68 54t79 36.5t80.5 13.5q49 0 82 -19.5t60.5 -43.5t54.5 -43.5t63 -19.5q58 0 105.5 24.5t79.5 56.5l52 -73q-19 -35 -49.5 -66t-68 -54.5t-79 -37t-80.5 -13.5q-33 0 -58 9.5t-46 24t-38.5 31.5t-35.5 31.5t-38 24t-44 9.5q-26 0 -52.5 -7.5
t-51 -19.5t-45.5 -27t-36 -30zM2 85l143 29l521 1439h168l498 -1438l159 -30v-85h-528v85l166 30l-108 322h-600l-108 -322l167 -30v-85h-478v85zM982 554l-163 488l-95 301l-264 -789h522z" />
    <glyph glyph-name="Adieresis" unicode="&#xc4;" horiz-adv-x="1493" 
d="M968 1651q-24 0 -47 8.5t-40.5 24t-28 38.5t-10.5 52q0 31 13.5 58t34.5 46.5t47.5 30.5t53.5 11q66 0 96.5 -36.5t30.5 -87.5q0 -33 -13 -60t-34 -45.5t-48 -29t-55 -10.5zM502 1651q-24 0 -47 8.5t-40.5 24t-28 38.5t-10.5 52q0 31 13.5 58t34.5 46.5t47.5 30.5
t53.5 11q66 0 96.5 -36.5t30.5 -87.5q0 -33 -13 -60t-34 -45.5t-48 -29t-55 -10.5zM2 85l143 29l521 1439h168l498 -1438l159 -30v-85h-528v85l166 30l-108 322h-600l-108 -322l167 -30v-85h-478v85zM982 554l-163 488l-95 301l-264 -789h522z" />
    <glyph glyph-name="Aring" unicode="&#xc5;" horiz-adv-x="1493" 
d="M2 85l143 29l491 1357q-63 29 -102 85t-39 128q0 50 20 93t54.5 75t80 50t97.5 18t97.5 -18t80 -50t54.5 -75t20 -93q0 -71 -38 -126.5t-100 -84.5l471 -1358l159 -30v-85h-528v85l166 30l-108 322h-600l-108 -322l167 -30v-85h-478v85zM747 1554q27 0 51.5 9.5
t42.5 26.5t28.5 40.5t10.5 51.5q0 27 -10.5 50t-28.5 40.5t-42.5 27t-51.5 9.5t-51.5 -9.5t-42.5 -27t-28.5 -40.5t-10.5 -50q0 -28 10.5 -51.5t28.5 -40.5t42.5 -26.5t51.5 -9.5zM982 554l-163 488l-95 301l-264 -789h522z" />
    <glyph glyph-name="AE" unicode="&#xc6;" horiz-adv-x="1940" 
d="M2 85l141 29l584 1439h971l29 -285l-100 -2l-46 169l-611 12l173 -579l386 6l30 157h92v-420h-92l-30 143l-353 4l193 -647l321 16l100 207l87 -43l-45 -291h-846v85l163 30l-105 341h-605l-128 -341l169 -30v-85h-478v85zM1008 573l-188 612l-36 191l-301 -803h525z" />
    <glyph glyph-name="Ccedilla" unicode="&#xc7;" horiz-adv-x="1410" 
d="M86 724q0 129 30 241.5t84 206.5t129 167t164.5 124t190.5 77.5t208 26.5q72 0 134 -8.5t114 -20t94 -23.5t75 -19l-16 -290h-106l-52 167q-32 21 -64 36t-68.5 24.5t-79 13.5t-94.5 4q-107 0 -204.5 -44t-172 -129t-118.5 -209t-44 -283q0 -142 35.5 -270.5t106 -226
t174.5 -155t241 -57.5q121 0 198 31.5t122 88.5l58 154q23 0 42.5 -0.5t42.5 -0.5v-287q-34 -2 -74.5 -14.5t-95 -28.5t-126 -30t-166.5 -17q-2 -23 -2 -49t2 -49q69 0 117.5 -17.5t79 -44.5t44.5 -60.5t14 -66.5q0 -50 -19 -88t-53 -65t-80 -42t-101 -18q-44 -2 -74.5 -0.5
t-52.5 5t-38.5 8t-31.5 8.5q0 26 0.5 50.5t0.5 50.5q12 -3 27.5 -5.5t31.5 -5t30.5 -3.5t23.5 -1q28 0 53 3t44.5 14.5t31 33.5t11.5 60q0 44 -38 72t-119 28q-6 0 -13.5 -0.5l-15 -1t-13.5 -1.5t-7 -1q1 45 8 90.5t21 98.5q-141 12 -259.5 71.5t-204 157.5t-133 230
t-47.5 289z" />
    <glyph glyph-name="Egrave" unicode="&#xc8;" horiz-adv-x="1319" 
d="M738 1607q-47 8 -97.5 23.5t-102 36.5t-102 47.5t-97.5 56.5l146 149l306 -259zM102 85l169 30v1322l-165 18v98h1038l29 -286h-110l-46 168l-552 13v-583l372 7l30 157h102v-430h-102l-30 153l-372 6v-650l594 19l100 207l97 -24l-45 -310h-1109v85z" />
    <glyph glyph-name="Eacute" unicode="&#xc9;" horiz-adv-x="1319" 
d="M665 1661l306 259l146 -149q-47 -30 -97.5 -56.5t-102 -47.5t-102.5 -36.5t-97 -23.5zM102 85l169 30v1322l-165 18v98h1038l29 -286h-110l-46 168l-552 13v-583l372 7l30 157h102v-430h-102l-30 153l-372 6v-650l594 19l100 207l97 -24l-45 -310h-1109v85z" />
    <glyph glyph-name="Ecircumflex" unicode="&#xca;" horiz-adv-x="1319" 
d="M379 1662l253 258h189l257 -255l-87 -49l-264 168l-270 -168zM102 85l169 30v1322l-165 18v98h1038l29 -286h-110l-46 168l-552 13v-583l372 7l30 157h102v-430h-102l-30 153l-372 6v-650l594 19l100 207l97 -24l-45 -310h-1109v85z" />
    <glyph glyph-name="Edieresis" unicode="&#xcb;" horiz-adv-x="1319" 
d="M946 1651q-24 0 -47 8.5t-40.5 24t-28 38.5t-10.5 52q0 31 13.5 58t34.5 46.5t47.5 30.5t53.5 11q66 0 96.5 -36.5t30.5 -87.5q0 -33 -13 -60t-34 -45.5t-48 -29t-55 -10.5zM480 1651q-24 0 -47 8.5t-40.5 24t-28 38.5t-10.5 52q0 31 13.5 58t34.5 46.5t47.5 30.5
t53.5 11q66 0 96.5 -36.5t30.5 -87.5q0 -33 -13 -60t-34 -45.5t-48 -29t-55 -10.5zM102 85l169 30v1322l-165 18v98h1038l29 -286h-110l-46 168l-552 13v-583l372 7l30 157h102v-430h-102l-30 153l-372 6v-650l594 19l100 207l97 -24l-45 -310h-1109v85z" />
    <glyph glyph-name="Igrave" unicode="&#xcc;" horiz-adv-x="763" 
d="M396 1607q-47 8 -97.5 23.5t-102 36.5t-102 47.5t-97.5 56.5l146 149l306 -259zM105 85l179 29v1324l-175 17v98h543v-98l-173 -18v-1322l182 -30v-85h-556v85z" />
    <glyph glyph-name="Iacute" unicode="&#xcd;" horiz-adv-x="763" 
d="M323 1661l306 259l146 -149q-47 -30 -97.5 -56.5t-102 -47.5t-102.5 -36.5t-97 -23.5zM105 85l179 29v1324l-175 17v98h543v-98l-173 -18v-1322l182 -30v-85h-556v85z" />
    <glyph glyph-name="Icircumflex" unicode="&#xce;" horiz-adv-x="763" 
d="M37 1662l253 258h189l257 -255l-87 -49l-264 168l-270 -168zM105 85l179 29v1324l-175 17v98h543v-98l-173 -18v-1322l182 -30v-85h-556v85z" />
    <glyph glyph-name="Idieresis" unicode="&#xcf;" horiz-adv-x="763" 
d="M604 1651q-24 0 -47 8.5t-40.5 24t-28 38.5t-10.5 52q0 31 13.5 58t34.5 46.5t47.5 30.5t53.5 11q66 0 96.5 -36.5t30.5 -87.5q0 -33 -13 -60t-34 -45.5t-48 -29t-55 -10.5zM138 1651q-24 0 -47 8.5t-40.5 24t-28 38.5t-10.5 52q0 31 13.5 58t34.5 46.5t47.5 30.5
t53.5 11q66 0 96.5 -36.5t30.5 -87.5q0 -33 -13 -60t-34 -45.5t-48 -29t-55 -10.5zM105 85l179 29v1324l-175 17v98h543v-98l-173 -18v-1322l182 -30v-85h-556v85z" />
    <glyph glyph-name="Eth" unicode="&#xd0;" horiz-adv-x="1593" 
d="M106 85l169 30v609h-176v147h176v566l-165 18v98h263q67 0 116 2t91 5t82 5t87 2q194 1 336 -50.5t235 -149t138 -236.5t45 -314q0 -197 -61 -352t-167.5 -262t-251 -162t-310.5 -51q-74 2 -155.5 6.5t-181.5 4.5q-68 0 -135 -0.5t-135 -0.5v85zM470 132
q64 -18 132 -25.5t146 -5.5q110 3 209.5 44t175.5 122.5t120.5 206t44.5 294.5q0 177 -42.5 307.5t-121.5 216t-192 126.5t-253 37q-41 -1 -72 -3t-56 -4t-46.5 -5.5t-44.5 -7.5v-564h257v-147h-257v-592z" />
    <glyph glyph-name="Ntilde" unicode="&#xd1;" horiz-adv-x="1662" 
d="M433 1750q19 35 49.5 66t68 54t79 36.5t80.5 13.5q49 0 82 -19.5t60.5 -43.5t54.5 -43.5t63 -19.5q58 0 105.5 24.5t79.5 56.5l52 -73q-19 -35 -49.5 -66t-68 -54.5t-79 -37t-80.5 -13.5q-33 0 -58 9.5t-46 24t-38.5 31.5t-35.5 31.5t-38 24t-44 9.5q-26 0 -52.5 -7.5
t-51 -19.5t-45.5 -27t-36 -30zM104 85l171 30v1312l-165 17v109h355l669 -1095l142 -274v1244l-164 17v108h473v-108l-166 -17v-1428h-205l-660 1040l-136 278v-1203l194 -30v-85h-508v85z" />
    <glyph glyph-name="Ograve" unicode="&#xd2;" horiz-adv-x="1554" 
d="M801 1607q-47 8 -97.5 23.5t-102 36.5t-102 47.5t-97.5 56.5l146 149l306 -259zM90 752q4 191 61.5 341t154.5 254t225 160t273 60q156 4 281 -53.5t211.5 -162t131.5 -249t42 -314.5q-4 -191 -59.5 -341.5t-149.5 -255t-219.5 -160.5t-267.5 -59q-158 -3 -286 54.5
t-217.5 162.5t-136.5 249t-44 314zM791 77q110 0 196 48.5t145.5 140t90.5 223t31 298.5q0 87 -13.5 171t-40 158.5t-65.5 138t-91 109t-116.5 71.5t-140.5 26q-110 0 -199 -48t-151.5 -139t-96.5 -222.5t-34 -298.5q0 -131 32.5 -252.5t94.5 -216t152 -151t206 -56.5z" />
    <glyph glyph-name="Oacute" unicode="&#xd3;" horiz-adv-x="1554" 
d="M728 1661l306 259l146 -149q-47 -30 -97.5 -56.5t-102 -47.5t-102.5 -36.5t-97 -23.5zM90 752q4 191 61.5 341t154.5 254t225 160t273 60q156 4 281 -53.5t211.5 -162t131.5 -249t42 -314.5q-4 -191 -59.5 -341.5t-149.5 -255t-219.5 -160.5t-267.5 -59
q-158 -3 -286 54.5t-217.5 162.5t-136.5 249t-44 314zM791 77q110 0 196 48.5t145.5 140t90.5 223t31 298.5q0 87 -13.5 171t-40 158.5t-65.5 138t-91 109t-116.5 71.5t-140.5 26q-110 0 -199 -48t-151.5 -139t-96.5 -222.5t-34 -298.5q0 -131 32.5 -252.5t94.5 -216
t152 -151t206 -56.5z" />
    <glyph glyph-name="Ocircumflex" unicode="&#xd4;" horiz-adv-x="1554" 
d="M442 1662l253 258h189l257 -255l-87 -49l-264 168l-270 -168zM90 752q4 191 61.5 341t154.5 254t225 160t273 60q156 4 281 -53.5t211.5 -162t131.5 -249t42 -314.5q-4 -191 -59.5 -341.5t-149.5 -255t-219.5 -160.5t-267.5 -59q-158 -3 -286 54.5t-217.5 162.5
t-136.5 249t-44 314zM791 77q110 0 196 48.5t145.5 140t90.5 223t31 298.5q0 87 -13.5 171t-40 158.5t-65.5 138t-91 109t-116.5 71.5t-140.5 26q-110 0 -199 -48t-151.5 -139t-96.5 -222.5t-34 -298.5q0 -131 32.5 -252.5t94.5 -216t152 -151t206 -56.5z" />
    <glyph glyph-name="Otilde" unicode="&#xd5;" horiz-adv-x="1554" 
d="M392 1750q19 35 49.5 66t68 54t79 36.5t80.5 13.5q49 0 82 -19.5t60.5 -43.5t54.5 -43.5t63 -19.5q58 0 105.5 24.5t79.5 56.5l52 -73q-19 -35 -49.5 -66t-68 -54.5t-79 -37t-80.5 -13.5q-33 0 -58 9.5t-46 24t-38.5 31.5t-35.5 31.5t-38 24t-44 9.5q-26 0 -52.5 -7.5
t-51 -19.5t-45.5 -27t-36 -30zM90 752q4 191 61.5 341t154.5 254t225 160t273 60q156 4 281 -53.5t211.5 -162t131.5 -249t42 -314.5q-4 -191 -59.5 -341.5t-149.5 -255t-219.5 -160.5t-267.5 -59q-158 -3 -286 54.5t-217.5 162.5t-136.5 249t-44 314zM791 77
q110 0 196 48.5t145.5 140t90.5 223t31 298.5q0 87 -13.5 171t-40 158.5t-65.5 138t-91 109t-116.5 71.5t-140.5 26q-110 0 -199 -48t-151.5 -139t-96.5 -222.5t-34 -298.5q0 -131 32.5 -252.5t94.5 -216t152 -151t206 -56.5z" />
    <glyph glyph-name="Odieresis" unicode="&#xd6;" horiz-adv-x="1554" 
d="M1009 1651q-24 0 -47 8.5t-40.5 24t-28 38.5t-10.5 52q0 31 13.5 58t34.5 46.5t47.5 30.5t53.5 11q66 0 96.5 -36.5t30.5 -87.5q0 -33 -13 -60t-34 -45.5t-48 -29t-55 -10.5zM543 1651q-24 0 -47 8.5t-40.5 24t-28 38.5t-10.5 52q0 31 13.5 58t34.5 46.5t47.5 30.5
t53.5 11q66 0 96.5 -36.5t30.5 -87.5q0 -33 -13 -60t-34 -45.5t-48 -29t-55 -10.5zM90 752q4 191 61.5 341t154.5 254t225 160t273 60q156 4 281 -53.5t211.5 -162t131.5 -249t42 -314.5q-4 -191 -59.5 -341.5t-149.5 -255t-219.5 -160.5t-267.5 -59q-158 -3 -286 54.5
t-217.5 162.5t-136.5 249t-44 314zM791 77q110 0 196 48.5t145.5 140t90.5 223t31 298.5q0 87 -13.5 171t-40 158.5t-65.5 138t-91 109t-116.5 71.5t-140.5 26q-110 0 -199 -48t-151.5 -139t-96.5 -222.5t-34 -298.5q0 -131 32.5 -252.5t94.5 -216t152 -151t206 -56.5z" />
    <glyph glyph-name="multiply" unicode="&#xd7;" horiz-adv-x="1241" 
d="M178 468l342 327l-342 327l117 123l325 -350l325 350l117 -123l-342 -327l342 -327l-117 -123l-325 350l-325 -350z" />
    <glyph glyph-name="Oslash" unicode="&#xd8;" horiz-adv-x="1554" 
d="M506 19q-99 40 -177.5 111t-132.5 165.5t-81.5 210.5t-24.5 246q4 191 61.5 341t154.5 254t225 160t273 60q63 2 120.5 -7t110.5 -27l56 160l83 -34l-56 -162q85 -45 151.5 -116t112 -162.5t68 -200.5t20.5 -230q-4 -191 -59.5 -341.5t-149.5 -255t-219.5 -160.5
t-267.5 -59q-95 -2 -178 18l-65 -189l-88 33zM987 1405q-44 26 -93.5 41t-106.5 15q-110 0 -199 -48t-151.5 -139t-96.5 -222.5t-34 -298.5q0 -93 16.5 -182t48 -167.5t78 -143t107.5 -108.5zM639 106q70 -29 152 -29q110 0 196 48.5t145.5 140t90.5 223t31 298.5
q0 83 -12.5 163t-36.5 152t-60 134t-83 109z" />
    <glyph glyph-name="Ugrave" unicode="&#xd9;" horiz-adv-x="1576" 
d="M833 1607q-47 8 -97.5 23.5t-102 36.5t-102 47.5t-97.5 56.5l146 149l306 -259zM191 661q0 195 0.5 388t0.5 388l-159 18v98h533v-98l-179 -19v-780q0 -169 34 -281t94.5 -178.5t143 -94t180.5 -27.5q105 0 180.5 42.5t123.5 121.5t71 192t23 255v750l-182 19v98h490v-98
l-158 -19v-749q0 -188 -42.5 -323t-119.5 -222t-184 -128.5t-235 -41.5q-170 0 -287.5 44.5t-190.5 131.5t-105 215.5t-32 297.5z" />
    <glyph glyph-name="Uacute" unicode="&#xda;" horiz-adv-x="1576" 
d="M760 1661l306 259l146 -149q-47 -30 -97.5 -56.5t-102 -47.5t-102.5 -36.5t-97 -23.5zM191 661q0 195 0.5 388t0.5 388l-159 18v98h533v-98l-179 -19v-780q0 -169 34 -281t94.5 -178.5t143 -94t180.5 -27.5q105 0 180.5 42.5t123.5 121.5t71 192t23 255v750l-182 19v98
h490v-98l-158 -19v-749q0 -188 -42.5 -323t-119.5 -222t-184 -128.5t-235 -41.5q-170 0 -287.5 44.5t-190.5 131.5t-105 215.5t-32 297.5z" />
    <glyph glyph-name="Ucircumflex" unicode="&#xdb;" horiz-adv-x="1576" 
d="M474 1662l253 258h189l257 -255l-87 -49l-264 168l-270 -168zM191 661q0 195 0.5 388t0.5 388l-159 18v98h533v-98l-179 -19v-780q0 -169 34 -281t94.5 -178.5t143 -94t180.5 -27.5q105 0 180.5 42.5t123.5 121.5t71 192t23 255v750l-182 19v98h490v-98l-158 -19v-749
q0 -188 -42.5 -323t-119.5 -222t-184 -128.5t-235 -41.5q-170 0 -287.5 44.5t-190.5 131.5t-105 215.5t-32 297.5z" />
    <glyph glyph-name="Udieresis" unicode="&#xdc;" horiz-adv-x="1576" 
d="M1041 1651q-24 0 -47 8.5t-40.5 24t-28 38.5t-10.5 52q0 31 13.5 58t34.5 46.5t47.5 30.5t53.5 11q66 0 96.5 -36.5t30.5 -87.5q0 -33 -13 -60t-34 -45.5t-48 -29t-55 -10.5zM575 1651q-24 0 -47 8.5t-40.5 24t-28 38.5t-10.5 52q0 31 13.5 58t34.5 46.5t47.5 30.5
t53.5 11q66 0 96.5 -36.5t30.5 -87.5q0 -33 -13 -60t-34 -45.5t-48 -29t-55 -10.5zM191 661q0 195 0.5 388t0.5 388l-159 18v98h533v-98l-179 -19v-780q0 -169 34 -281t94.5 -178.5t143 -94t180.5 -27.5q105 0 180.5 42.5t123.5 121.5t71 192t23 255v750l-182 19v98h490v-98
l-158 -19v-749q0 -188 -42.5 -323t-119.5 -222t-184 -128.5t-235 -41.5q-170 0 -287.5 44.5t-190.5 131.5t-105 215.5t-32 297.5z" />
    <glyph glyph-name="Yacute" unicode="&#xdd;" horiz-adv-x="1352" 
d="M648 1661l306 259l146 -149q-47 -30 -97.5 -56.5t-102 -47.5t-102.5 -36.5t-97 -23.5zM402 85l204 31v522l-480 800l-114 17v98h492v-98l-154 -18l318 -592l48 -101l45 103l288 589l-170 19v98h460v-98l-130 -27l-408 -791v-521l214 -31v-85h-613v85z" />
    <glyph glyph-name="Thorn" unicode="&#xde;" horiz-adv-x="1296" 
d="M86 85l189 30v1323l-174 17v98h543v-98l-174 -18v-207q57 7 125 15.5t134 8.5q115 0 211 -26.5t165 -80.5t107.5 -135t38.5 -189q0 -81 -22.5 -150.5t-62.5 -125t-95 -98t-119 -71t-135.5 -42t-144.5 -11.5q-76 2 -123 2.5t-79 2.5v-215l267 -30v-85h-651v85zM470 438
q57 -8 105.5 -9.5t93.5 -1.5q72 0 141 16.5t123 60.5t87 120t33 196q0 77 -26.5 138.5t-77.5 104t-125.5 63.5t-170.5 17q-49 -2 -93.5 -10t-89.5 -19v-676z" />
    <glyph glyph-name="germandbls" unicode="&#xdf;" horiz-adv-x="1334" 
d="M67 86l160 31v761q0 183 45 317t119.5 221t172 129t202.5 42q57 0 113 -13.5t100.5 -47.5t71.5 -90.5t27 -142.5q0 -61 -15 -108.5t-37 -86.5t-48 -72.5t-48 -67.5t-37 -71t-15 -83q0 -39 18.5 -67.5t48.5 -52t69 -43.5t79 -42t79 -47.5t69 -59t48.5 -78t18.5 -104.5
q0 -88 -34 -150.5t-91 -102.5t-132 -59t-157 -19q-44 0 -102.5 2.5t-118.5 16.5v173q19 -10 47.5 -24t61 -26.5t66 -21.5t62.5 -9q40 0 78.5 8.5t68.5 29.5t48.5 57t18.5 91q0 39 -18.5 69t-48.5 54.5t-68.5 45.5t-79 42t-79 44t-68.5 51.5t-48.5 64t-18.5 82.5
q0 34 15.5 70.5t39 75.5t50.5 80t50.5 84.5t39 90t15.5 95.5q0 50 -11 94.5t-34.5 77.5t-60 52.5t-86.5 19.5q-82 0 -138.5 -29.5t-91 -98.5t-50 -182.5t-15.5 -280.5v-878h-351v86z" />
    <glyph glyph-name="agrave" unicode="&#xe0;" horiz-adv-x="1145" 
d="M712 1340q-41 19 -95.5 49.5t-109 69t-103.5 82.5t-79 90l146 149l294 -386zM118 322q7 70 45 122.5t94 90.5t124.5 63t137.5 40t133 21t111 6v87q0 79 -21 128.5t-58 77.5t-87 38t-108 10q-29 0 -65 -5.5t-74.5 -15.5t-77.5 -24t-74 -31l-37 90q37 30 90.5 52.5
t110 37.5t110 22t91.5 7q79 0 150.5 -16.5t125.5 -58t85.5 -112t31.5 -179.5l-2 -688h128v-66q-35 -19 -86.5 -31t-103.5 -12q-18 0 -39 2.5t-38.5 12.5t-29 31t-11.5 58v28q-23 -28 -54.5 -52t-72 -42t-92 -28t-114.5 -10q-78 0 -141.5 28t-106 75.5t-63 110t-12.5 132.5z
M312 318q0 -59 16 -100t46.5 -66.5t74.5 -37t99 -11.5q30 0 61 8t59.5 20t53 27.5t39.5 30.5q0 94 0.5 186.5t1.5 186.5q-42 0 -92 -4.5t-100 -15.5t-97 -29t-83 -45.5t-57.5 -64.5t-21.5 -85z" />
    <glyph glyph-name="aacute" unicode="&#xe1;" horiz-adv-x="1145" 
d="M443 1394l294 386l146 -149q-30 -46 -79 -90t-103.5 -82.5t-109 -69t-95.5 -49.5zM118 322q7 70 45 122.5t94 90.5t124.5 63t137.5 40t133 21t111 6v87q0 79 -21 128.5t-58 77.5t-87 38t-108 10q-29 0 -65 -5.5t-74.5 -15.5t-77.5 -24t-74 -31l-37 90q37 30 90.5 52.5
t110 37.5t110 22t91.5 7q79 0 150.5 -16.5t125.5 -58t85.5 -112t31.5 -179.5l-2 -688h128v-66q-35 -19 -86.5 -31t-103.5 -12q-18 0 -39 2.5t-38.5 12.5t-29 31t-11.5 58v28q-23 -28 -54.5 -52t-72 -42t-92 -28t-114.5 -10q-78 0 -141.5 28t-106 75.5t-63 110t-12.5 132.5z
M312 318q0 -59 16 -100t46.5 -66.5t74.5 -37t99 -11.5q30 0 61 8t59.5 20t53 27.5t39.5 30.5q0 94 0.5 186.5t1.5 186.5q-42 0 -92 -4.5t-100 -15.5t-97 -29t-83 -45.5t-57.5 -64.5t-21.5 -85z" />
    <glyph glyph-name="acircumflex" unicode="&#xe2;" horiz-adv-x="1145" 
d="M221 1381l273 394h189l262 -393l-85 -46l-272 267l-292 -268zM118 322q7 70 45 122.5t94 90.5t124.5 63t137.5 40t133 21t111 6v87q0 79 -21 128.5t-58 77.5t-87 38t-108 10q-29 0 -65 -5.5t-74.5 -15.5t-77.5 -24t-74 -31l-37 90q37 30 90.5 52.5t110 37.5t110 22
t91.5 7q79 0 150.5 -16.5t125.5 -58t85.5 -112t31.5 -179.5l-2 -688h128v-66q-35 -19 -86.5 -31t-103.5 -12q-18 0 -39 2.5t-38.5 12.5t-29 31t-11.5 58v28q-23 -28 -54.5 -52t-72 -42t-92 -28t-114.5 -10q-78 0 -141.5 28t-106 75.5t-63 110t-12.5 132.5zM312 318
q0 -59 16 -100t46.5 -66.5t74.5 -37t99 -11.5q30 0 61 8t59.5 20t53 27.5t39.5 30.5q0 94 0.5 186.5t1.5 186.5q-42 0 -92 -4.5t-100 -15.5t-97 -29t-83 -45.5t-57.5 -64.5t-21.5 -85z" />
    <glyph glyph-name="atilde" unicode="&#xe3;" horiz-adv-x="1145" 
d="M189 1490q19 35 49.5 66.5t68 55.5t79 38.5t80.5 14.5q49 0 82 -21t60.5 -46.5t54.5 -46.5t63 -21q29 0 55.5 9t50 23t43.5 30.5t36 32.5l52 -73q-19 -35 -49.5 -67t-68 -56t-79 -38.5t-80.5 -14.5q-33 0 -58 10t-46 25t-38.5 33t-35.5 33t-38 25t-44 10q-29 0 -56 -9
t-50.5 -23t-43.5 -31t-35 -32zM118 322q7 70 45 122.5t94 90.5t124.5 63t137.5 40t133 21t111 6v87q0 79 -21 128.5t-58 77.5t-87 38t-108 10q-29 0 -65 -5.5t-74.5 -15.5t-77.5 -24t-74 -31l-37 90q37 30 90.5 52.5t110 37.5t110 22t91.5 7q79 0 150.5 -16.5t125.5 -58
t85.5 -112t31.5 -179.5l-2 -688h128v-66q-35 -19 -86.5 -31t-103.5 -12q-18 0 -39 2.5t-38.5 12.5t-29 31t-11.5 58v28q-23 -28 -54.5 -52t-72 -42t-92 -28t-114.5 -10q-78 0 -141.5 28t-106 75.5t-63 110t-12.5 132.5zM312 318q0 -59 16 -100t46.5 -66.5t74.5 -37t99 -11.5
q30 0 61 8t59.5 20t53 27.5t39.5 30.5q0 94 0.5 186.5t1.5 186.5q-42 0 -92 -4.5t-100 -15.5t-97 -29t-83 -45.5t-57.5 -64.5t-21.5 -85z" />
    <glyph glyph-name="adieresis" unicode="&#xe4;" horiz-adv-x="1145" 
d="M808 1382q-24 0 -46.5 8t-40 23t-27.5 37.5t-10 51.5q0 31 13 57.5t34 45.5t47 30t53 11q66 0 96.5 -35.5t30.5 -86.5q0 -33 -13 -59.5t-34 -44.5t-48 -28t-55 -10zM342 1382q-24 0 -46.5 8t-40 23t-27.5 37.5t-10 51.5q0 31 13 57.5t34 45.5t47 30t53 11
q66 0 96.5 -35.5t30.5 -86.5q0 -33 -13 -59.5t-34 -44.5t-48 -28t-55 -10zM118 322q7 70 45 122.5t94 90.5t124.5 63t137.5 40t133 21t111 6v87q0 79 -21 128.5t-58 77.5t-87 38t-108 10q-29 0 -65 -5.5t-74.5 -15.5t-77.5 -24t-74 -31l-37 90q37 30 90.5 52.5t110 37.5
t110 22t91.5 7q79 0 150.5 -16.5t125.5 -58t85.5 -112t31.5 -179.5l-2 -688h128v-66q-35 -19 -86.5 -31t-103.5 -12q-18 0 -39 2.5t-38.5 12.5t-29 31t-11.5 58v28q-23 -28 -54.5 -52t-72 -42t-92 -28t-114.5 -10q-78 0 -141.5 28t-106 75.5t-63 110t-12.5 132.5zM312 318
q0 -59 16 -100t46.5 -66.5t74.5 -37t99 -11.5q30 0 61 8t59.5 20t53 27.5t39.5 30.5q0 94 0.5 186.5t1.5 186.5q-42 0 -92 -4.5t-100 -15.5t-97 -29t-83 -45.5t-57.5 -64.5t-21.5 -85z" />
    <glyph glyph-name="aring" unicode="&#xe5;" horiz-adv-x="1145" 
d="M556 1320q-52 0 -97.5 19t-80 51.5t-54.5 76.5t-20 94t20 94t54.5 76.5t80 51.5t97.5 19t97.5 -19t80 -51.5t54.5 -76.5t20 -94t-20 -94t-54.5 -76.5t-80 -51.5t-97.5 -19zM556 1426q27 0 51.5 10.5t42.5 28.5t28.5 42t10.5 52q0 27 -10.5 51t-28.5 42t-42.5 28.5
t-51.5 10.5t-51.5 -10.5t-42.5 -28.5t-28.5 -42t-10.5 -51q0 -28 10.5 -52t28.5 -42t42.5 -28.5t51.5 -10.5zM118 322q7 70 45 122.5t94 90.5t124.5 63t137.5 40t133 21t111 6v87q0 79 -21 128.5t-58 77.5t-87 38t-108 10q-29 0 -65 -5.5t-74.5 -15.5t-77.5 -24t-74 -31
l-37 90q37 30 90.5 52.5t110 37.5t110 22t91.5 7q79 0 150.5 -16.5t125.5 -58t85.5 -112t31.5 -179.5l-2 -688h128v-66q-35 -19 -86.5 -31t-103.5 -12q-18 0 -39 2.5t-38.5 12.5t-29 31t-11.5 58v28q-23 -28 -54.5 -52t-72 -42t-92 -28t-114.5 -10q-78 0 -141.5 28
t-106 75.5t-63 110t-12.5 132.5zM312 318q0 -59 16 -100t46.5 -66.5t74.5 -37t99 -11.5q30 0 61 8t59.5 20t53 27.5t39.5 30.5q0 94 0.5 186.5t1.5 186.5q-42 0 -92 -4.5t-100 -15.5t-97 -29t-83 -45.5t-57.5 -64.5t-21.5 -85z" />
    <glyph glyph-name="ae" unicode="&#xe6;" horiz-adv-x="1800" 
d="M118 322q7 70 45 122.5t94 90.5t124.5 63t137.5 40t133 21t111 6v87q0 79 -21 128.5t-58 77.5t-87 38t-108 10q-29 0 -65 -5.5t-74.5 -15.5t-77.5 -24t-74 -31l-37 90q37 30 90.5 52.5t110 37.5t110 22t91.5 7q56 0 108.5 -8t98 -26.5t82 -50t61.5 -78.5q74 81 176 127
t227 49q88 2 159 -25.5t121 -81.5t78.5 -132t32.5 -177q2 -63 -2.5 -109t-9.5 -82h-740q2 -130 38.5 -214t93 -132.5t124 -67t131.5 -18.5q39 0 83.5 4.5t87 13t78.5 19.5t57 23l37 -85q-29 -26 -77 -47t-105 -35.5t-118.5 -22t-118.5 -7.5q-133 0 -231 48t-162 136
q-29 -40 -73 -73.5t-99.5 -58t-121 -38.5t-138.5 -14q-78 0 -141.5 28t-106 75.5t-63 110t-12.5 132.5zM1503 663q3 51 1.5 102.5t-12.5 98t-33.5 85t-60.5 62.5q-26 17 -59 25.5t-75 8.5q-56 0 -108.5 -21t-94 -67t-69.5 -118.5t-36 -175.5h547zM312 318q0 -59 16 -100
t46.5 -66.5t74.5 -37t99 -11.5q30 0 61 8t59.5 20t53 27.5t39.5 30.5q0 94 0.5 186.5t1.5 186.5q-42 0 -92 -4.5t-100 -15.5t-97 -29t-83 -45.5t-57.5 -64.5t-21.5 -85z" />
    <glyph glyph-name="ccedilla" unicode="&#xe7;" horiz-adv-x="1045" 
d="M518 -17q-99 12 -176 58.5t-129.5 120t-79.5 169.5t-28 207q-1 138 41 249t115.5 190t173 123t214.5 49q42 1 85.5 -1.5t82 -9t70.5 -16.5t52 -23v-240h-95l-51 126q-16 13 -37 22t-43 15t-44 8.5t-40 2.5q-67 0 -128 -25t-108 -75.5t-75 -127t-29 -179.5
q-1 -136 32 -233t86 -158.5t118 -90t128 -28.5q39 0 81 5t81 13t72 19.5t54 23.5l34 -89q-26 -23 -63.5 -42t-82 -32.5t-94 -22t-100.5 -11.5q-2 -23 -3 -51t2 -54q69 0 117.5 -17.5t79 -44.5t44.5 -60.5t14 -66.5q0 -50 -19 -88t-53 -65t-80 -42t-101 -18
q-44 -2 -74.5 -0.5t-52.5 5t-38.5 8t-31.5 8.5q0 26 0.5 50.5t0.5 50.5q12 -3 27.5 -5.5t31.5 -5t30.5 -3.5t23.5 -1q28 0 53 3t44.5 14.5t31 33.5t11.5 60q0 44 -38 72t-119 28q-6 0 -13.5 -0.5l-15 -1t-13.5 -1.5t-7 -1q1 46 9 93.5t22 102.5z" />
    <glyph glyph-name="egrave" unicode="&#xe8;" horiz-adv-x="1145" 
d="M736 1340q-41 19 -95.5 49.5t-109 69t-103.5 82.5t-79 90l146 149l294 -386zM100 556q0 128 40.5 236t113 187t174.5 124.5t225 48.5q88 2 159 -25.5t121 -81.5t78.5 -132t32.5 -177q2 -63 -2.5 -109t-9.5 -82h-741v-11.5t1 -11.5q4 -121 41 -200t92.5 -125.5t122.5 -65
t131 -18.5q39 0 82 4.5t83.5 13t75 19.5t55.5 23l37 -85q-29 -26 -75.5 -47t-101.5 -35.5t-115 -22t-117 -7.5q-121 0 -214.5 41.5t-157.5 117t-97.5 182.5t-33.5 239zM840 663q3 51 1.5 102.5t-12.5 98t-33.5 85t-60.5 62.5q-26 17 -59 25.5t-75 8.5q-56 0 -108.5 -21
t-94 -67t-69.5 -118.5t-36 -175.5h547z" />
    <glyph glyph-name="eacute" unicode="&#xe9;" horiz-adv-x="1145" 
d="M467 1394l294 386l146 -149q-30 -46 -79 -90t-103.5 -82.5t-109 -69t-95.5 -49.5zM100 556q0 128 40.5 236t113 187t174.5 124.5t225 48.5q88 2 159 -25.5t121 -81.5t78.5 -132t32.5 -177q2 -63 -2.5 -109t-9.5 -82h-741v-11.5t1 -11.5q4 -121 41 -200t92.5 -125.5
t122.5 -65t131 -18.5q39 0 82 4.5t83.5 13t75 19.5t55.5 23l37 -85q-29 -26 -75.5 -47t-101.5 -35.5t-115 -22t-117 -7.5q-121 0 -214.5 41.5t-157.5 117t-97.5 182.5t-33.5 239zM840 663q3 51 1.5 102.5t-12.5 98t-33.5 85t-60.5 62.5q-26 17 -59 25.5t-75 8.5
q-56 0 -108.5 -21t-94 -67t-69.5 -118.5t-36 -175.5h547z" />
    <glyph glyph-name="ecircumflex" unicode="&#xea;" horiz-adv-x="1145" 
d="M245 1381l273 394h189l262 -393l-85 -46l-272 267l-292 -268zM100 556q0 128 40.5 236t113 187t174.5 124.5t225 48.5q88 2 159 -25.5t121 -81.5t78.5 -132t32.5 -177q2 -63 -2.5 -109t-9.5 -82h-741v-11.5t1 -11.5q4 -121 41 -200t92.5 -125.5t122.5 -65t131 -18.5
q39 0 82 4.5t83.5 13t75 19.5t55.5 23l37 -85q-29 -26 -75.5 -47t-101.5 -35.5t-115 -22t-117 -7.5q-121 0 -214.5 41.5t-157.5 117t-97.5 182.5t-33.5 239zM840 663q3 51 1.5 102.5t-12.5 98t-33.5 85t-60.5 62.5q-26 17 -59 25.5t-75 8.5q-56 0 -108.5 -21t-94 -67
t-69.5 -118.5t-36 -175.5h547z" />
    <glyph glyph-name="edieresis" unicode="&#xeb;" horiz-adv-x="1145" 
d="M832 1382q-24 0 -46.5 8t-40 23t-27.5 37.5t-10 51.5q0 31 13 57.5t34 45.5t47 30t53 11q66 0 96.5 -35.5t30.5 -86.5q0 -33 -13 -59.5t-34 -44.5t-48 -28t-55 -10zM366 1382q-24 0 -46.5 8t-40 23t-27.5 37.5t-10 51.5q0 31 13 57.5t34 45.5t47 30t53 11
q66 0 96.5 -35.5t30.5 -86.5q0 -33 -13 -59.5t-34 -44.5t-48 -28t-55 -10zM100 556q0 128 40.5 236t113 187t174.5 124.5t225 48.5q88 2 159 -25.5t121 -81.5t78.5 -132t32.5 -177q2 -63 -2.5 -109t-9.5 -82h-741v-11.5t1 -11.5q4 -121 41 -200t92.5 -125.5t122.5 -65
t131 -18.5q39 0 82 4.5t83.5 13t75 19.5t55.5 23l37 -85q-29 -26 -75.5 -47t-101.5 -35.5t-115 -22t-117 -7.5q-121 0 -214.5 41.5t-157.5 117t-97.5 182.5t-33.5 239zM840 663q3 51 1.5 102.5t-12.5 98t-33.5 85t-60.5 62.5q-26 17 -59 25.5t-75 8.5q-56 0 -108.5 -21
t-94 -67t-69.5 -118.5t-36 -175.5h547z" />
    <glyph glyph-name="igrave" unicode="&#xec;" horiz-adv-x="683" 
d="M479 1340q-41 19 -95.5 49.5t-109 69t-103.5 82.5t-79 90l146 149l294 -386zM112 85l170 21v819l-138 73v62l277 79l45 -20v-1013l162 -21v-85h-516v85z" />
    <glyph glyph-name="iacute" unicode="&#xed;" horiz-adv-x="683" 
d="M210 1394l294 386l146 -149q-30 -46 -79 -90t-103.5 -82.5t-109 -69t-95.5 -49.5zM112 85l170 21v819l-138 73v62l277 79l45 -20v-1013l162 -21v-85h-516v85z" />
    <glyph glyph-name="icircumflex" unicode="&#xee;" horiz-adv-x="683" 
d="M-12 1381l273 394h189l262 -393l-85 -46l-272 267l-292 -268zM112 85l170 21v819l-138 73v62l277 79l45 -20v-1013l162 -21v-85h-516v85z" />
    <glyph glyph-name="idieresis" unicode="&#xef;" horiz-adv-x="683" 
d="M575 1382q-24 0 -46.5 8t-40 23t-27.5 37.5t-10 51.5q0 31 13 57.5t34 45.5t47 30t53 11q66 0 96.5 -35.5t30.5 -86.5q0 -33 -13 -59.5t-34 -44.5t-48 -28t-55 -10zM109 1382q-24 0 -46.5 8t-40 23t-27.5 37.5t-10 51.5q0 31 13 57.5t34 45.5t47 30t53 11
q66 0 96.5 -35.5t30.5 -86.5q0 -33 -13 -59.5t-34 -44.5t-48 -28t-55 -10zM112 85l170 21v819l-138 73v62l277 79l45 -20v-1013l162 -21v-85h-516v85z" />
    <glyph glyph-name="eth" unicode="&#xf0;" horiz-adv-x="1231" 
d="M100 502q0 131 41 230t111.5 166t164.5 100.5t199 33.5q37 0 79.5 -9.5t84 -27t78 -41t60.5 -50.5q-17 76 -48 146.5t-72 133.5t-90.5 118t-101.5 101l-169 -146l-100 78l165 149q-98 66 -181 93l26 108q68 -23 128.5 -51t116.5 -60q23 20 53.5 46.5t56.5 49.5
q31 27 63 54l103 -85q-2 -2 -18.5 -16.5t-40.5 -35t-52 -44.5t-52 -45q111 -85 191.5 -188.5t132.5 -217.5t77 -234.5t25 -238.5q0 -158 -41 -278t-111.5 -201t-164 -123t-199.5 -44q-116 -3 -211 35.5t-162.5 109t-104.5 169t-37 215.5zM310 511q0 -85 20.5 -163.5
t60.5 -138.5t100 -96t140 -36q68 0 122.5 41t92 107.5t57.5 151.5t20 174v18.5v30.5t-1.5 35t-4.5 32q-7 33 -27.5 77.5t-57 84t-90.5 67.5t-127 28q-81 0 -139 -29t-94.5 -83t-54 -130.5t-17.5 -170.5z" />
    <glyph glyph-name="ntilde" unicode="&#xf1;" horiz-adv-x="1396" 
d="M353 1490q19 35 49.5 66.5t68 55.5t79 38.5t80.5 14.5q49 0 82 -21t60.5 -46.5t54.5 -46.5t63 -21q29 0 55.5 9t50 23t43.5 30.5t36 32.5l52 -73q-19 -35 -49.5 -67t-68 -56t-79 -38.5t-80.5 -14.5q-33 0 -58 10t-46 25t-38.5 33t-35.5 33t-38 25t-44 10q-29 0 -56 -9
t-50.5 -23t-43.5 -31t-35 -32zM138 85l136 20v815l-142 78v62l266 79l45 -20v-143q34 29 82 57.5t102 51.5t111 37.5t108 16.5q93 3 156 -22.5t102 -83t56 -147.5t17 -216v-565l161 -20v-85h-504v85l151 21v529q0 91 -9 160t-35.5 114t-73.5 66t-123 18q-62 -3 -131 -27.5
t-145 -76.5v-783l149 -21v-85h-479v85z" />
    <glyph glyph-name="ograve" unicode="&#xf2;" horiz-adv-x="1231" 
d="M757 1340q-41 19 -95.5 49.5t-109 69t-103.5 82.5t-79 90l146 149l294 -386zM103 582q2 134 46.5 239.5t117.5 178.5t168.5 112t199.5 40q127 1 221 -44t155.5 -123.5t91.5 -184.5t29 -227q-1 -133 -42.5 -243t-112 -188.5t-165 -122t-202.5 -43.5q-138 0 -235 50
t-158 134t-88.5 193.5t-25.5 228.5zM619 88q85 -2 143.5 29t95 91.5t53 150t16.5 205.5q0 101 -17.5 188.5t-55 152.5t-95 102.5t-136.5 39.5q-85 1 -144.5 -29.5t-97.5 -89.5t-55.5 -144t-17.5 -193q0 -97 19 -187t57 -159.5t96.5 -112t138.5 -44.5z" />
    <glyph glyph-name="oacute" unicode="&#xf3;" horiz-adv-x="1231" 
d="M488 1394l294 386l146 -149q-30 -46 -79 -90t-103.5 -82.5t-109 -69t-95.5 -49.5zM103 582q2 134 46.5 239.5t117.5 178.5t168.5 112t199.5 40q127 1 221 -44t155.5 -123.5t91.5 -184.5t29 -227q-1 -133 -42.5 -243t-112 -188.5t-165 -122t-202.5 -43.5q-138 0 -235 50
t-158 134t-88.5 193.5t-25.5 228.5zM619 88q85 -2 143.5 29t95 91.5t53 150t16.5 205.5q0 101 -17.5 188.5t-55 152.5t-95 102.5t-136.5 39.5q-85 1 -144.5 -29.5t-97.5 -89.5t-55.5 -144t-17.5 -193q0 -97 19 -187t57 -159.5t96.5 -112t138.5 -44.5z" />
    <glyph glyph-name="ocircumflex" unicode="&#xf4;" horiz-adv-x="1231" 
d="M266 1381l273 394h189l262 -393l-85 -46l-272 267l-292 -268zM103 582q2 134 46.5 239.5t117.5 178.5t168.5 112t199.5 40q127 1 221 -44t155.5 -123.5t91.5 -184.5t29 -227q-1 -133 -42.5 -243t-112 -188.5t-165 -122t-202.5 -43.5q-138 0 -235 50t-158 134t-88.5 193.5
t-25.5 228.5zM619 88q85 -2 143.5 29t95 91.5t53 150t16.5 205.5q0 101 -17.5 188.5t-55 152.5t-95 102.5t-136.5 39.5q-85 1 -144.5 -29.5t-97.5 -89.5t-55.5 -144t-17.5 -193q0 -97 19 -187t57 -159.5t96.5 -112t138.5 -44.5z" />
    <glyph glyph-name="otilde" unicode="&#xf5;" horiz-adv-x="1231" 
d="M234 1490q19 35 49.5 66.5t68 55.5t79 38.5t80.5 14.5q49 0 82 -21t60.5 -46.5t54.5 -46.5t63 -21q29 0 55.5 9t50 23t43.5 30.5t36 32.5l52 -73q-19 -35 -49.5 -67t-68 -56t-79 -38.5t-80.5 -14.5q-33 0 -58 10t-46 25t-38.5 33t-35.5 33t-38 25t-44 10q-29 0 -56 -9
t-50.5 -23t-43.5 -31t-35 -32zM103 582q2 134 46.5 239.5t117.5 178.5t168.5 112t199.5 40q127 1 221 -44t155.5 -123.5t91.5 -184.5t29 -227q-1 -133 -42.5 -243t-112 -188.5t-165 -122t-202.5 -43.5q-138 0 -235 50t-158 134t-88.5 193.5t-25.5 228.5zM619 88
q85 -2 143.5 29t95 91.5t53 150t16.5 205.5q0 101 -17.5 188.5t-55 152.5t-95 102.5t-136.5 39.5q-85 1 -144.5 -29.5t-97.5 -89.5t-55.5 -144t-17.5 -193q0 -97 19 -187t57 -159.5t96.5 -112t138.5 -44.5z" />
    <glyph glyph-name="odieresis" unicode="&#xf6;" horiz-adv-x="1231" 
d="M853 1382q-24 0 -46.5 8t-40 23t-27.5 37.5t-10 51.5q0 31 13 57.5t34 45.5t47 30t53 11q66 0 96.5 -35.5t30.5 -86.5q0 -33 -13 -59.5t-34 -44.5t-48 -28t-55 -10zM387 1382q-24 0 -46.5 8t-40 23t-27.5 37.5t-10 51.5q0 31 13 57.5t34 45.5t47 30t53 11
q66 0 96.5 -35.5t30.5 -86.5q0 -33 -13 -59.5t-34 -44.5t-48 -28t-55 -10zM103 582q2 134 46.5 239.5t117.5 178.5t168.5 112t199.5 40q127 1 221 -44t155.5 -123.5t91.5 -184.5t29 -227q-1 -133 -42.5 -243t-112 -188.5t-165 -122t-202.5 -43.5q-138 0 -235 50t-158 134
t-88.5 193.5t-25.5 228.5zM619 88q85 -2 143.5 29t95 91.5t53 150t16.5 205.5q0 101 -17.5 188.5t-55 152.5t-95 102.5t-136.5 39.5q-85 1 -144.5 -29.5t-97.5 -89.5t-55.5 -144t-17.5 -193q0 -97 19 -187t57 -159.5t96.5 -112t138.5 -44.5z" />
    <glyph glyph-name="divide" unicode="&#xf7;" horiz-adv-x="1281" 
d="M631 1052q-24 0 -47 8.5t-40.5 24t-28 38.5t-10.5 52q0 31 13.5 58t34.5 46.5t47.5 30.5t53.5 11q66 0 96.5 -36.5t30.5 -87.5q0 -33 -13 -60t-34 -45.5t-48 -29t-55 -10.5zM178 874h925v-147h-925v147zM505 398q0 31 13.5 58t34.5 46.5t47.5 30.5t53.5 11
q66 0 96.5 -36.5t30.5 -87.5q0 -33 -13 -60t-34 -45.5t-48 -29t-55 -10.5q-24 0 -47 8.5t-40.5 24t-28 38.5t-10.5 52z" />
    <glyph glyph-name="oslash" unicode="&#xf8;" horiz-adv-x="1231" 
d="M389 19q-77 34 -132 92t-90 132.5t-50.5 160.5t-14.5 178q2 134 46.5 239.5t117.5 178.5t168.5 112t199.5 40q78 0 142 -16l57 167l81 -32l-55 -165q69 -33 120.5 -87t85.5 -123t50.5 -151t15.5 -172q-1 -133 -42.5 -243t-112 -188.5t-165 -122t-202.5 -43.5
q-73 0 -134 15l-62 -185l-85 33zM732 1022q-50 24 -110 25q-85 1 -144.5 -29.5t-97.5 -89.5t-55.5 -144t-17.5 -193q0 -65 8.5 -126.5t25 -117t42 -102.5t59.5 -81zM519 110q44 -20 99 -22q85 -2 143.5 29t95 91.5t53 150t16.5 205.5q0 129 -28.5 234t-90.5 169z" />
    <glyph glyph-name="ugrave" unicode="&#xf9;" horiz-adv-x="1292" 
d="M745 1340q-41 19 -95.5 49.5t-109 69t-103.5 82.5t-79 90l146 149l294 -386zM214 977l-103 30v77l257 55l35 -18v-689q0 -83 9 -142.5t33 -98t66 -57t108 -18.5q45 0 88.5 12.5t81 30t65.5 37t41 33.5v739l-125 32v82l286 57l28 -17v-1037h120v-76q-15 -8 -37 -15.5
t-47.5 -13.5t-52 -10t-50.5 -4q-48 0 -75.5 20.5t-27.5 65.5v82q-87 -76 -182.5 -115.5t-186.5 -39.5q-118 0 -184 36.5t-98.5 101t-40 152.5t-8.5 192v516z" />
    <glyph glyph-name="uacute" unicode="&#xfa;" horiz-adv-x="1292" 
d="M476 1394l294 386l146 -149q-30 -46 -79 -90t-103.5 -82.5t-109 -69t-95.5 -49.5zM214 977l-103 30v77l257 55l35 -18v-689q0 -83 9 -142.5t33 -98t66 -57t108 -18.5q45 0 88.5 12.5t81 30t65.5 37t41 33.5v739l-125 32v82l286 57l28 -17v-1037h120v-76q-15 -8 -37 -15.5
t-47.5 -13.5t-52 -10t-50.5 -4q-48 0 -75.5 20.5t-27.5 65.5v82q-87 -76 -182.5 -115.5t-186.5 -39.5q-118 0 -184 36.5t-98.5 101t-40 152.5t-8.5 192v516z" />
    <glyph glyph-name="ucircumflex" unicode="&#xfb;" horiz-adv-x="1292" 
d="M254 1381l273 394h189l262 -393l-85 -46l-272 267l-292 -268zM214 977l-103 30v77l257 55l35 -18v-689q0 -83 9 -142.5t33 -98t66 -57t108 -18.5q45 0 88.5 12.5t81 30t65.5 37t41 33.5v739l-125 32v82l286 57l28 -17v-1037h120v-76q-15 -8 -37 -15.5t-47.5 -13.5
t-52 -10t-50.5 -4q-48 0 -75.5 20.5t-27.5 65.5v82q-87 -76 -182.5 -115.5t-186.5 -39.5q-118 0 -184 36.5t-98.5 101t-40 152.5t-8.5 192v516z" />
    <glyph glyph-name="udieresis" unicode="&#xfc;" horiz-adv-x="1292" 
d="M841 1382q-24 0 -46.5 8t-40 23t-27.5 37.5t-10 51.5q0 31 13 57.5t34 45.5t47 30t53 11q66 0 96.5 -35.5t30.5 -86.5q0 -33 -13 -59.5t-34 -44.5t-48 -28t-55 -10zM375 1382q-24 0 -46.5 8t-40 23t-27.5 37.5t-10 51.5q0 31 13 57.5t34 45.5t47 30t53 11
q66 0 96.5 -35.5t30.5 -86.5q0 -33 -13 -59.5t-34 -44.5t-48 -28t-55 -10zM214 977l-103 30v77l257 55l35 -18v-689q0 -83 9 -142.5t33 -98t66 -57t108 -18.5q45 0 88.5 12.5t81 30t65.5 37t41 33.5v739l-125 32v82l286 57l28 -17v-1037h120v-76q-15 -8 -37 -15.5
t-47.5 -13.5t-52 -10t-50.5 -4q-48 0 -75.5 20.5t-27.5 65.5v82q-87 -76 -182.5 -115.5t-186.5 -39.5q-118 0 -184 36.5t-98.5 101t-40 152.5t-8.5 192v516z" />
    <glyph glyph-name="yacute" unicode="&#xfd;" horiz-adv-x="1150" 
d="M466 1394l294 386l146 -149q-30 -46 -79 -90t-103.5 -82.5t-109 -69t-95.5 -49.5zM150 -339q17 -5 39.5 -8t40.5 -3q36 0 78 13t85 50.5t83.5 106.5t73.5 180h-43l-401 995l-104 18v106h463v-106l-144 -20l235 -671l67 -204l58 204l203 674l-156 17v106h432v-106
l-112 -16q-67 -194 -117.5 -341t-88 -255t-64 -183t-44.5 -125t-29 -80.5t-19 -50.5q-39 -100 -78.5 -180t-83.5 -138.5t-94.5 -96t-112.5 -52.5q-40 -10 -88 -10q-10 0 -22 1t-23.5 3t-20.5 5t-13 6v161z" />
    <glyph glyph-name="thorn" unicode="&#xfe;" horiz-adv-x="1264" 
d="M394 -102l1 -303l196 -21v-85h-528v85l140 22v1870l-171 36v87l323 36l40 -17v-584q27 23 59.5 46t72 41.5t87.5 30t106 11.5q84 0 164 -29.5t142 -95t100 -169.5t38 -254q0 -128 -41 -243t-115.5 -201.5t-179 -137.5t-230.5 -51q-56 0 -108.5 5.5t-100.5 13.5zM395 158
q16 -42 77.5 -61.5t148.5 -19.5q65 0 127.5 29t112 89t80 153t32.5 221q2 120 -26.5 205t-75.5 138t-107.5 77.5t-123.5 24.5q-44 0 -81.5 -9t-68 -23t-55 -30.5t-40.5 -31.5v-762z" />
    <glyph glyph-name="ydieresis" unicode="&#xff;" horiz-adv-x="1150" 
d="M831 1382q-24 0 -46.5 8t-40 23t-27.5 37.5t-10 51.5q0 31 13 57.5t34 45.5t47 30t53 11q66 0 96.5 -35.5t30.5 -86.5q0 -33 -13 -59.5t-34 -44.5t-48 -28t-55 -10zM365 1382q-24 0 -46.5 8t-40 23t-27.5 37.5t-10 51.5q0 31 13 57.5t34 45.5t47 30t53 11
q66 0 96.5 -35.5t30.5 -86.5q0 -33 -13 -59.5t-34 -44.5t-48 -28t-55 -10zM150 -339q17 -5 39.5 -8t40.5 -3q36 0 78 13t85 50.5t83.5 106.5t73.5 180h-43l-401 995l-104 18v106h463v-106l-144 -20l235 -671l67 -204l58 204l203 674l-156 17v106h432v-106l-112 -16
q-67 -194 -117.5 -341t-88 -255t-64 -183t-44.5 -125t-29 -80.5t-19 -50.5q-39 -100 -78.5 -180t-83.5 -138.5t-94.5 -96t-112.5 -52.5q-40 -10 -88 -10q-10 0 -22 1t-23.5 3t-20.5 5t-13 6v161z" />
    <glyph glyph-name="Aogonek" unicode="&#x104;" horiz-adv-x="1493" 
d="M2 85l143 29l521 1439h168l498 -1438l159 -30v-85h-187q-45 -18 -94 -51t-90 -73t-68 -81t-27 -75q0 -35 8 -57t24 -35t40 -19t55 -8t64.5 6.5t63 21t53 25t35.5 18.5l22 -88q-20 -15 -49.5 -35.5t-71.5 -38.5t-97.5 -29t-127.5 -7q-55 3 -92.5 20.5t-61 44t-34 58.5
t-10.5 65q0 46 26 95.5t68 95t94.5 84t105.5 63.5h-177v85l166 30l-108 322h-600l-108 -322l167 -30v-85h-478v85zM982 554l-163 488l-95 301l-264 -789h522z" />
    <glyph glyph-name="aogonek" unicode="&#x105;" horiz-adv-x="1145" 
d="M118 322q7 70 45 122.5t94 90.5t124.5 63t137.5 40t133 21t111 6v87q0 79 -21 128.5t-58 77.5t-87 38t-108 10q-29 0 -65 -5.5t-74.5 -15.5t-77.5 -24t-74 -31l-37 90q37 30 90.5 52.5t110 37.5t110 22t91.5 7q79 0 150.5 -16.5t125.5 -58t85.5 -112t31.5 -179.5l-2 -688
h128v-66q-6 -4 -10 -5l26 5q-56 -28 -106 -63t-88 -73.5t-60 -76.5t-22 -72q0 -58 27 -86t68.5 -35t89.5 2.5t90 26.5v-88q-34 -26 -81 -43.5t-98 -24t-100.5 0t-89 29t-64 62t-24.5 99.5q0 42 21 86.5t55 85.5t77.5 74t87.5 53q-18 0 -37 3.5t-34.5 14.5t-25.5 31t-10 55
v28q-23 -28 -54.5 -52t-72 -42t-92 -28t-114.5 -10q-78 0 -141.5 28t-106 75.5t-63 110t-12.5 132.5zM312 318q0 -59 16 -100t46.5 -66.5t74.5 -37t99 -11.5q30 0 61 8t59.5 20t53 27.5t39.5 30.5q0 94 0.5 186.5t1.5 186.5q-42 0 -92 -4.5t-100 -15.5t-97 -29t-83 -45.5
t-57.5 -64.5t-21.5 -85z" />
    <glyph glyph-name="Eogonek" unicode="&#x118;" horiz-adv-x="1319" 
d="M102 85l169 30v1322l-165 18v98h1038l29 -286h-110l-46 168l-552 13v-583l372 7l30 157h102v-430h-102l-30 153l-372 6v-650l594 19l100 207l97 -24l-45 -310q-45 -18 -94 -51t-90 -73t-68 -81t-27 -75q0 -35 8 -57t24 -35t40 -19t55 -8t64.5 6.5t63 21t53 25t35.5 18.5
l22 -88q-20 -15 -49.5 -35.5t-71.5 -38.5t-97.5 -29t-127.5 -7q-55 3 -92.5 20.5t-61 44t-34 58.5t-10.5 65q0 46 26 95.5t68 95t94.5 84t105.5 63.5h-945v85z" />
    <glyph glyph-name="eogonek" unicode="&#x119;" horiz-adv-x="1145" 
d="M100 556q0 128 40.5 236t113 187t174.5 124.5t225 48.5q88 2 159 -25.5t121 -81.5t78.5 -132t32.5 -177q2 -63 -2.5 -109t-9.5 -82h-741v-11.5t1 -11.5q4 -121 41 -200t92.5 -125.5t122.5 -65t131 -18.5q39 0 82 4.5t83.5 13t75 19.5t55.5 23l37 -85l-2 -2l2 1l-20 -15
q-43 -30 -108 -51.5t-137 -32.5q54 33 120 54l143 44q-5 -4 -9 -7.5t-9 -6.5q-74 -56 -123.5 -102t-79.5 -84.5t-42.5 -70.5t-12.5 -61q0 -58 28.5 -89t71 -42t92 -4.5t91.5 23.5v-88q-34 -26 -81.5 -42t-99.5 -20t-102.5 5t-91 33.5t-65.5 65.5t-25 101q0 33 13 71.5
t37.5 77.5t61 75.5t83.5 66.5q-36 -6 -72.5 -9t-71.5 -3q-121 0 -214.5 41.5t-157.5 117t-97.5 182.5t-33.5 239zM840 663q3 51 1.5 102.5t-12.5 98t-33.5 85t-60.5 62.5q-26 17 -59 25.5t-75 8.5q-56 0 -108.5 -21t-94 -67t-69.5 -118.5t-36 -175.5h547z" />
    <glyph glyph-name="hbar" unicode="&#x127;" horiz-adv-x="1404" 
d="M124 85l150 21v1110h-165v118h165v126l-171 36v87l316 42l47 -23l-1 -268h175v-118h-176v-56l-3 -173q44 36 95.5 64t103.5 47.5t101.5 30t89.5 10.5q102 0 167 -31t102.5 -95.5t51.5 -165.5t13 -240v-501l150 -21v-85h-510v85l168 21v416q0 116 -5.5 204t-29 147.5
t-70.5 89.5t-130 30q-33 0 -70 -4t-74.5 -13.5t-75 -25.5t-72.5 -41v-803l147 -21v-85h-489v85z" />
    <glyph glyph-name="Itilde" unicode="&#x128;" horiz-adv-x="763" 
d="M-13 1750q19 35 49.5 66t68 54t79 36.5t80.5 13.5q49 0 82 -19.5t60.5 -43.5t54.5 -43.5t63 -19.5q58 0 105.5 24.5t79.5 56.5l52 -73q-19 -35 -49.5 -66t-68 -54.5t-79 -37t-80.5 -13.5q-33 0 -58 9.5t-46 24t-38.5 31.5t-35.5 31.5t-38 24t-44 9.5q-26 0 -52.5 -7.5
t-51 -19.5t-45.5 -27t-36 -30zM105 85l179 29v1324l-175 17v98h543v-98l-173 -18v-1322l182 -30v-85h-556v85z" />
    <glyph glyph-name="itilde" unicode="&#x129;" horiz-adv-x="683" 
d="M-44 1490q19 35 49.5 66.5t68 55.5t79 38.5t80.5 14.5q49 0 82 -21t60.5 -46.5t54.5 -46.5t63 -21q29 0 55.5 9t50 23t43.5 30.5t36 32.5l52 -73q-19 -35 -49.5 -67t-68 -56t-79 -38.5t-80.5 -14.5q-33 0 -58 10t-46 25t-38.5 33t-35.5 33t-38 25t-44 10q-29 0 -56 -9
t-50.5 -23t-43.5 -31t-35 -32zM112 85l170 21v819l-138 73v62l277 79l45 -20v-1013l162 -21v-85h-516v85z" />
    <glyph glyph-name="dotlessi" unicode="&#x131;" horiz-adv-x="683" 
d="M112 85l170 21v819l-138 73v62l277 79l45 -20v-1013l162 -21v-85h-516v85z" />
    <glyph glyph-name="IJ" unicode="&#x132;" horiz-adv-x="1483" 
d="M677 -319q56 18 106.5 43t92.5 57t74 72t51 88q15 44 24 92.5t14 105t6.5 121t1.5 141.5v1037l-165 17v98h523v-98l-163 -18v-887q0 -71 0.5 -138.5t-0.5 -131t-5 -121.5t-14 -110q-20 -99 -70 -175t-118 -131t-147.5 -88t-158.5 -45zM105 85l179 29v1324l-175 17v98h543
v-98l-173 -18v-1322l182 -30v-85h-556v85z" />
    <glyph glyph-name="ij" unicode="&#x133;" horiz-adv-x="1333" 
d="M1009 1404q-24 0 -47 8.5t-40.5 24t-28 38.5t-10.5 52q0 31 13.5 58t34.5 46.5t47.5 30.5t53.5 11q66 0 96.5 -36.5t30.5 -87.5q0 -33 -13 -60t-34 -45.5t-48 -29t-55 -10.5zM333 1375q-24 0 -47 8.5t-40.5 24t-28 38.5t-10.5 52q0 31 13.5 58t34.5 46.5t47.5 30.5
t53.5 11q66 0 96.5 -36.5t30.5 -87.5q0 -33 -13 -60t-34 -45.5t-48 -29t-55 -10.5zM674 -362q8 -3 23 -5t31.5 -3.5t31.5 -2t24 -0.5q48 0 81.5 18.5t54 62t29.5 114.5t9 176v927l-139 74v60l281 80l46 -20v-1135q0 -117 -25.5 -209.5t-73 -157t-114.5 -98.5t-150 -34
q-10 0 -27 1t-33.5 3t-30.5 5t-18 6v138zM112 85l170 21v819l-138 73v62l277 79l45 -20v-1013l162 -21v-85h-516v85z" />
    <glyph glyph-name="Jcircumflex" unicode="&#x134;" horiz-adv-x="720" 
d="M35 1662l253 258h189l257 -255l-87 -49l-264 168l-270 -168zM238 -59q15 44 24 92.5t14 105t6.5 121t1.5 141.5v1037l-165 17v98h523v-98l-163 -18v-887q0 -71 0.5 -138.5t-0.5 -131t-5 -121.5t-14 -110q-20 -99 -70 -175t-118 -131t-147.5 -88t-158.5 -45l-52 71
q56 18 106.5 43t92.5 57t74 72t51 88z" />
    <glyph glyph-name="jcircumflex" unicode="&#x135;" horiz-adv-x="650" 
d="M1 1381l273 394h189l262 -393l-85 -46l-272 267l-292 -268zM275 925l-139 74v60l281 80l46 -20v-1135q0 -117 -25.5 -209.5t-73 -157t-114.5 -98.5t-150 -34q-10 0 -27 1t-33.5 3t-30.5 5t-18 6v138q8 -3 23 -5t31.5 -3.5t31.5 -2t24 -0.5q48 0 81.5 18.5t54 62
t29.5 114.5t9 176v927z" />
    <glyph glyph-name="Kcommaaccent" unicode="&#x136;" horiz-adv-x="1419" 
d="M106 85l169 29v1324l-165 17v98h523v-98l-163 -18v-689l569 689l-155 18q0 25 -0.5 49t-0.5 49h499v-98l-163 -18l-469 -540q25 -28 58 -76.5t71 -108t79.5 -126.5t82.5 -133t79 -126t70 -105.5t56.5 -72.5t36.5 -27l160 -37v-85h-309q-13 0 -35.5 27t-51.5 72.5
t-63.5 105t-71 124.5t-74 131t-73.5 125t-69 106.5t-60 74.5l-166 -192v-461l183 -28v-85h-547v85zM816 -41q52 -14 90.5 -41.5t64 -62.5t38 -74t12.5 -76q0 -68 -26.5 -127t-65 -104.5t-82 -75t-76.5 -38.5l-56 50v26q28 13 47.5 38t31.5 56.5t17 66.5t5 68q0 28 -11 53
t-26.5 43.5t-33.5 29t-31 10.5v54z" />
    <glyph glyph-name="kcommaaccent" unicode="&#x137;" horiz-adv-x="1274" 
d="M110 85l164 22v1353l-180 36v87l332 42l40 -23v-898l-5 -154l445 459l-151 14v106h472v-106l-152 -16l-340 -342l423 -559l136 -21v-85h-485v85l139 23l-329 461l-159 -158l6 -194v-112l144 -20v-85h-500v85zM701 -41q52 -14 90.5 -41.5t64 -62.5t38 -74t12.5 -76
q0 -68 -26.5 -127t-65 -104.5t-82 -75t-76.5 -38.5l-56 50v26q28 13 47.5 38t31.5 56.5t17 66.5t5 68q0 28 -11 53t-26.5 43.5t-33.5 29t-31 10.5v54z" />
    <glyph glyph-name="kgreenlandic" unicode="&#x138;" horiz-adv-x="1274" 
d="M110 85l164 22v875l-180 36v87l332 42l40 -23v-420l-5 -154l445 459l-151 14v106h472v-106l-152 -16l-340 -342l423 -559l136 -21v-85h-485v85l139 23l-329 461l-159 -158l6 -194v-112l144 -20v-85h-500v85z" />
    <glyph glyph-name="Ldotaccent" unicode="&#x13f;" horiz-adv-x="1392" 
d="M106 85l169 30v1312l-165 17v109h538v-109l-177 -17l-2 -1315l535 24l123 238l87 -43l-65 -331h-1043v85zM1068 835q0 31 13.5 58t34.5 46.5t47.5 30.5t53.5 11q66 0 96.5 -36.5t30.5 -87.5q0 -33 -13 -60t-34 -45.5t-48 -29t-55 -10.5q-24 0 -47 8.5t-40.5 24t-28 38.5
t-10.5 52z" />
    <glyph glyph-name="ldot" unicode="&#x140;" horiz-adv-x="1071" 
d="M108 85l170 21v1354l-160 36v87l313 42l40 -23v-1496l178 -21v-85h-541v85zM743 797q0 31 13.5 58t34.5 46.5t47.5 30.5t53.5 11q66 0 96.5 -36.5t30.5 -87.5q0 -33 -13 -60t-34 -45.5t-48 -29t-55 -10.5q-24 0 -47 8.5t-40.5 24t-28 38.5t-10.5 52z" />
    <glyph glyph-name="Lslash" unicode="&#x141;" horiz-adv-x="1244" 
d="M106 85l169 30v448l-179 -68q1 40 1 72v73l13 5.5t36.5 15t56.5 22.5t72 29v715l-165 17v109h538v-109l-177 -17l-1 -638q96 38 192.5 76.5t175.5 69.5q92 36 177 70v-160l-545 -208l-1 -525l535 24l123 238l87 -43l-65 -331h-1043v85z" />
    <glyph glyph-name="lslash" unicode="&#x142;" horiz-adv-x="698" 
d="M108 85l170 21v659l-156 -61v137l156 64v555l-160 36v87l313 42l40 -23v-618l185 76v-147l-185 -73v-734l178 -21v-85h-541v85z" />
    <glyph glyph-name="Nacute" unicode="&#x143;" horiz-adv-x="1662" 
d="M769 1661l306 259l146 -149q-47 -30 -97.5 -56.5t-102 -47.5t-102.5 -36.5t-97 -23.5zM104 85l171 30v1312l-165 17v109h355l669 -1095l142 -274v1244l-164 17v108h473v-108l-166 -17v-1428h-205l-660 1040l-136 278v-1203l194 -30v-85h-508v85z" />
    <glyph glyph-name="nacute" unicode="&#x144;" horiz-adv-x="1396" 
d="M607 1394l294 386l146 -149q-30 -46 -79 -90t-103.5 -82.5t-109 -69t-95.5 -49.5zM138 85l136 20v815l-142 78v62l266 79l45 -20v-143q34 29 82 57.5t102 51.5t111 37.5t108 16.5q93 3 156 -22.5t102 -83t56 -147.5t17 -216v-565l161 -20v-85h-504v85l151 21v529
q0 91 -9 160t-35.5 114t-73.5 66t-123 18q-62 -3 -131 -27.5t-145 -76.5v-783l149 -21v-85h-479v85z" />
    <glyph glyph-name="OE" unicode="&#x152;" horiz-adv-x="2069" 
d="M90 752q4 191 61.5 341t154.5 254t225 160t273 60q81 1 157 -14h946l29 -286h-110l-46 168l-528 13v-581l368 7l30 157h102v-430h-102l-30 153l-368 6v-652l560 19l100 207l97 -24l-45 -310h-1007q-44 -13 -89.5 -19.5t-93.5 -8.5q-158 -3 -286 54.5t-217.5 162.5
t-136.5 249t-44 314zM791 77q80 0 146.5 25.5t120.5 74.5v1173q-54 52 -121.5 81.5t-149.5 29.5q-110 0 -199 -48t-151.5 -139t-96.5 -222.5t-34 -298.5q0 -131 32.5 -252.5t94.5 -216t152 -151t206 -56.5z" />
    <glyph glyph-name="oe" unicode="&#x153;" horiz-adv-x="2028" 
d="M103 582q2 134 46.5 239.5t117.5 178.5t168.5 112t199.5 40q81 1 148.5 -17.5t122 -53t95.5 -84t69 -109.5q72 120 192 190t276 74q88 2 159 -25.5t121 -81.5t78.5 -132t32.5 -177q2 -63 -2.5 -109t-9.5 -82h-741v-11.5t1 -11.5q4 -121 41 -200t92.5 -125.5t122.5 -65
t131 -18.5q39 0 82 4.5t83.5 13t75 19.5t55.5 23l37 -85q-29 -26 -75.5 -47t-101.5 -35.5t-115 -22t-117 -7.5q-159 0 -270 69.5t-170 195.5q-35 -62 -82 -111t-103 -83t-120 -52.5t-133 -18.5q-138 0 -235 50t-158 134t-88.5 193.5t-25.5 228.5zM619 88q85 -2 143.5 29
t95 91.5t53 150t16.5 205.5q0 101 -17.5 188.5t-55 152.5t-95 102.5t-136.5 39.5q-85 1 -144.5 -29.5t-97.5 -89.5t-55.5 -144t-17.5 -193q0 -97 19 -187t57 -159.5t96.5 -112t138.5 -44.5zM1725 663q3 51 1.5 102.5t-12.5 98t-33.5 85t-60.5 62.5q-26 17 -59 25.5t-75 8.5
q-56 0 -108.5 -21t-94 -67t-69.5 -118.5t-36 -175.5h547z" />
    <glyph glyph-name="Racute" unicode="&#x154;" horiz-adv-x="1419" 
d="M635 1661l306 259l146 -149q-47 -30 -97.5 -56.5t-102 -47.5t-102.5 -36.5t-97 -23.5zM86 85l189 30v1312l-165 17v109h263q48 0 124 7t176 7q115 0 211.5 -19t166.5 -66.5t109 -127.5t39 -201q0 -78 -24.5 -147t-68.5 -125.5t-105.5 -99.5t-136.5 -69l10 -4l10 -4
q47 -24 91 -74.5t84.5 -113.5t77.5 -131t70.5 -125.5t63 -97.5t55.5 -47l107 -30v-85h-289q-19 0 -41.5 30t-48.5 78.5t-55.5 111t-62 126.5t-68 125t-74 107.5t-79.5 73t-85 22.5q-35 -2 -74.5 -2h-85.5v-558l207 -29v-85h-591v85zM470 785q12 -2 35.5 -3t49.5 -1.5t51 -1
t41 -0.5q80 0 144.5 20t109.5 62.5t69.5 109t24.5 159.5q0 77 -17 139.5t-57 106t-107 66t-167 18.5q-49 -2 -94 -3.5t-83 -12.5v-659z" />
    <glyph glyph-name="Rcommaaccent" unicode="&#x156;" horiz-adv-x="1419" 
d="M86 85l189 30v1312l-165 17v109h263q48 0 124 7t176 7q115 0 211.5 -19t166.5 -66.5t109 -127.5t39 -201q0 -78 -24.5 -147t-68.5 -125.5t-105.5 -99.5t-136.5 -69l10 -4l10 -4q47 -24 91 -74.5t84.5 -113.5t77.5 -131t70.5 -125.5t63 -97.5t55.5 -47l107 -30v-85h-289
q-19 0 -41.5 30t-48.5 78.5t-55.5 111t-62 126.5t-68 125t-74 107.5t-79.5 73t-85 22.5q-35 -2 -74.5 -2h-85.5v-558l207 -29v-85h-591v85zM470 785q12 -2 35.5 -3t49.5 -1.5t51 -1t41 -0.5q80 0 144.5 20t109.5 62.5t69.5 109t24.5 159.5q0 77 -17 139.5t-57 106t-107 66
t-167 18.5q-49 -2 -94 -3.5t-83 -12.5v-659zM760 -41q52 -14 90.5 -41.5t64 -62.5t38 -74t12.5 -76q0 -68 -26.5 -127t-65 -104.5t-82 -75t-76.5 -38.5l-56 50v26q28 13 47.5 38t31.5 56.5t17 66.5t5 68q0 28 -11 53t-26.5 43.5t-33.5 29t-31 10.5v54z" />
    <glyph glyph-name="rcommaaccent" unicode="&#x157;" horiz-adv-x="923" 
d="M112 85l162 21v814l-142 78v62l264 79l47 -20v-154q19 28 57.5 59t86.5 56.5t100 42t98 16.5q33 0 59.5 -1.5t37.5 -5.5v-205q-16 6 -33 12.5t-37.5 11t-46.5 7.5t-60 3q-81 0 -136 -20.5t-101 -49.5v-782l285 -24v-85h-641v85zM366 -41q52 -14 90.5 -41.5t64 -62.5
t38 -74t12.5 -76q0 -68 -26.5 -127t-65 -104.5t-82 -75t-76.5 -38.5l-56 50v26q28 13 47.5 38t31.5 56.5t17 66.5t5 68q0 28 -11 53t-26.5 43.5t-33.5 29t-31 10.5v54z" />
    <glyph glyph-name="Rcaron" unicode="&#x158;" horiz-adv-x="1419" 
d="M369 1871l87 49l244 -168l250 168l78 -46l-233 -258h-189zM86 85l189 30v1312l-165 17v109h263q48 0 124 7t176 7q115 0 211.5 -19t166.5 -66.5t109 -127.5t39 -201q0 -78 -24.5 -147t-68.5 -125.5t-105.5 -99.5t-136.5 -69l10 -4l10 -4q47 -24 91 -74.5t84.5 -113.5
t77.5 -131t70.5 -125.5t63 -97.5t55.5 -47l107 -30v-85h-289q-19 0 -41.5 30t-48.5 78.5t-55.5 111t-62 126.5t-68 125t-74 107.5t-79.5 73t-85 22.5l95 73q21 -9 40 -14t36 -8t32.5 -6t30.5 -7q-17 -6 -34 -11t-34 -9q-55 -13 -132.5 -16.5t-193.5 -3.5v-558l207 -29v-85
h-591v85zM470 785q12 -2 35.5 -3t49.5 -1.5t51 -1t41 -0.5q80 0 144.5 20t109.5 62.5t69.5 109t24.5 159.5q0 77 -17 139.5t-57 106t-107 66t-167 18.5q-49 -2 -94 -3.5t-83 -12.5v-659z" />
    <glyph glyph-name="rcaron" unicode="&#x159;" horiz-adv-x="923" 
d="M216 1728l85 46l282 -267l282 268l75 -46l-263 -394h-189zM112 85l162 21v814l-142 78v62l264 79l47 -20v-154q19 28 57.5 59t86.5 56.5t100 42t98 16.5q33 0 59.5 -1.5t37.5 -5.5v-205q-16 6 -33 12.5t-37.5 11t-46.5 7.5t-60 3q-81 0 -136 -20.5t-101 -49.5v-782
l285 -24v-85h-641v85z" />
    <glyph glyph-name="Scaron" unicode="&#x160;" horiz-adv-x="1229" 
d="M312 1871l87 49l244 -168l250 168l78 -46l-233 -258h-189zM148 383h88l63 -199q30 -31 69 -51.5t82.5 -32.5t90 -17t90.5 -5q55 0 109.5 15t98 47.5t70.5 82.5t27 120q0 64 -31 116t-82 97t-117.5 85t-136.5 79q-76 42 -149.5 88t-131.5 100.5t-94 121.5t-36 151
q0 70 22 126t58.5 98.5t85 73.5t102 50.5t108.5 28.5t105 9q73 0 134.5 -7t110.5 -18.5t84.5 -25t57.5 -26.5v-277h-85l-78 192q-18 16 -43.5 28t-57 20t-67 11.5t-71.5 3.5q-41 0 -90.5 -12.5t-92.5 -42t-72.5 -78t-29.5 -121.5q0 -57 27.5 -105t74 -89t107 -78t126.5 -72
q79 -43 159 -89t143.5 -102.5t103.5 -125t40 -156.5q0 -112 -42 -191.5t-113 -130.5t-164.5 -74.5t-196.5 -23.5q-75 0 -147.5 8t-134 20.5t-107.5 27.5t-67 28v322z" />
    <glyph glyph-name="scaron" unicode="&#x161;" horiz-adv-x="1018" 
d="M156 1728l85 46l282 -267l282 268l75 -46l-263 -394h-189zM163 290h89l39 -122q25 -21 49.5 -36.5t50 -25.5t54.5 -15.5t64 -6.5q56 -2 103 8.5t81 34t53 59.5t19 86q0 45 -24.5 77t-64.5 57.5t-91 47t-104 47.5q-59 28 -115.5 61.5t-100 75t-69.5 93.5t-25 119
q1 52 18.5 94t47 75t68.5 57.5t83 41t90.5 25t91.5 9.5q50 1 96.5 -4.5t87 -15.5t73 -23t55.5 -26v-214h-85l-43 112q-14 15 -30.5 27.5t-37 22t-46.5 15.5t-59 6q-48 0 -88.5 -9.5t-70.5 -29.5t-47.5 -52t-18.5 -77q-2 -45 22 -78.5t63 -60.5t89.5 -50.5t103.5 -49.5
q55 -26 111.5 -53.5t101.5 -65t73.5 -88t28.5 -120.5q0 -85 -34 -149t-93.5 -107t-139 -64.5t-170.5 -21.5t-182 21.5t-167 63.5v229z" />
    <glyph glyph-name="Ydieresis" unicode="&#x178;" horiz-adv-x="1352" 
d="M929 1651q-24 0 -47 8.5t-40.5 24t-28 38.5t-10.5 52q0 31 13.5 58t34.5 46.5t47.5 30.5t53.5 11q66 0 96.5 -36.5t30.5 -87.5q0 -33 -13 -60t-34 -45.5t-48 -29t-55 -10.5zM463 1651q-24 0 -47 8.5t-40.5 24t-28 38.5t-10.5 52q0 31 13.5 58t34.5 46.5t47.5 30.5
t53.5 11q66 0 96.5 -36.5t30.5 -87.5q0 -33 -13 -60t-34 -45.5t-48 -29t-55 -10.5zM402 85l204 31v522l-480 800l-114 17v98h492v-98l-154 -18l318 -592l48 -101l45 103l288 589l-170 19v98h460v-98l-130 -27l-408 -791v-521l214 -31v-85h-613v85z" />
    <glyph glyph-name="Zacute" unicode="&#x179;" horiz-adv-x="1352" 
d="M675 1661l306 259l146 -149q-47 -30 -97.5 -56.5t-102 -47.5t-102.5 -36.5t-97 -23.5zM92 89l868 1235l103 120l-712 -23l-95 -228l-107 19l32 341h1073l28 -86l-863 -1235l-97 -121l749 38l130 255l99 -24l-71 -380h-1111z" />
    <glyph glyph-name="Zdotaccent" unicode="&#x17b;" horiz-adv-x="1352" 
d="M722 1651q-24 0 -47 8.5t-40.5 24t-28 38.5t-10.5 52q0 31 13.5 58t34.5 46.5t47.5 30.5t53.5 11q66 0 96.5 -36.5t30.5 -87.5q0 -33 -13 -60t-34 -45.5t-48 -29t-55 -10.5zM92 89l868 1235l103 120l-712 -23l-95 -228l-107 19l32 341h1073l28 -86l-863 -1235l-97 -121
l749 38l130 255l99 -24l-71 -380h-1111z" />
    <glyph glyph-name="zdotaccent" unicode="&#x17c;" horiz-adv-x="1078" 
d="M533 1360q-24 0 -47 8.5t-40.5 24t-28 38.5t-10.5 52q0 31 13.5 58t34.5 46.5t47.5 30.5t53.5 11q66 0 96.5 -36.5t30.5 -87.5q0 -33 -13 -60t-34 -45.5t-48 -29t-55 -10.5zM88 82l69 95l539 750l82 98l-490 -16l-60 -184h-93v294h849l25 -82l-586 -809l-100 -130l530 22
l64 169q26 0 51.5 -0.5t51.5 -0.5l-17 -288h-883z" />
    <glyph glyph-name="Zcaron" unicode="&#x17d;" horiz-adv-x="1352" 
d="M409 1871l87 49l244 -168l250 168l78 -46l-233 -258h-189zM92 89l868 1235l103 120l-712 -23l-95 -228l-107 19l32 341h1073l28 -86l-863 -1235l-97 -121l749 38l130 255l99 -24l-71 -380h-1111z" />
    <glyph glyph-name="zcaron" unicode="&#x17e;" horiz-adv-x="1078" 
d="M197 1728l85 46l282 -267l282 268l75 -46l-263 -394h-189zM88 82l69 95l539 750l82 98l-490 -16l-60 -184h-93v294h849l25 -82l-586 -809l-100 -130l530 22l64 169q26 0 51.5 -0.5t51.5 -0.5l-17 -288h-883z" />
    <glyph glyph-name="florin" unicode="&#x192;" horiz-adv-x="1063" 
d="M399 984h-220l6 76l225 59l5 83q6 74 29.5 139.5t59.5 119.5t80.5 96.5t92.5 71.5t96 44.5t90 15.5q34 0 58.5 -1.5t41 -4t26.5 -5.5t15 -6l-12 -170q-14 8 -61.5 19.5t-119.5 11.5q-41 0 -74 -7t-58.5 -32.5t-42 -75t-22.5 -134.5l-12 -165h302l-11 -135h-302
l-102 -1340h-192z" />
    <glyph glyph-name="dotlessj" unicode="&#x237;" horiz-adv-x="650" 
d="M275 925l-139 74v60l281 80l46 -20v-1135q0 -117 -25.5 -209.5t-73 -157t-114.5 -98.5t-150 -34q-10 0 -27 1t-33.5 3t-30.5 5t-18 6v138q8 -3 23 -5t31.5 -3.5t31.5 -2t24 -0.5q48 0 81.5 18.5t54 62t29.5 114.5t9 176v927z" />
    <glyph glyph-name="circumflex" unicode="&#x2c6;" horiz-adv-x="1063" 
d="M164 1381l273 394h189l262 -393l-85 -46l-272 267l-292 -268z" />
    <glyph glyph-name="caron" unicode="&#x2c7;" horiz-adv-x="1063" 
d="M164 1728l85 46l282 -267l282 268l75 -46l-263 -394h-189z" />
    <glyph glyph-name="breve" unicode="&#x2d8;" horiz-adv-x="1063" 
d="M531 1379q-76 0 -138 27t-105.5 71.5t-67 102t-23.5 118.5h94q4 -6 10.5 -21.5t17 -35t27.5 -40.5t42.5 -38.5t60.5 -28.5t83 -11q72 0 116.5 23.5t70 54t37.5 59.5t19 39h90q0 -61 -25 -118.5t-70 -102.5t-106 -72t-133 -27z" />
    <glyph glyph-name="dotaccent" unicode="&#x2d9;" horiz-adv-x="575" 
d="M273 1360q-24 0 -47 8.5t-40.5 24t-28 38.5t-10.5 52q0 31 13.5 58t34.5 46.5t47.5 30.5t53.5 11q66 0 96.5 -36.5t30.5 -87.5q0 -33 -13 -60t-34 -45.5t-48 -29t-55 -10.5z" />
    <glyph glyph-name="ring" unicode="&#x2da;" horiz-adv-x="575" 
d="M287 1320q-52 0 -97.5 19t-80 51.5t-54.5 76.5t-20 94t20 94t54.5 76.5t80 51.5t97.5 19t97.5 -19t80 -51.5t54.5 -76.5t20 -94t-20 -94t-54.5 -76.5t-80 -51.5t-97.5 -19zM287 1426q27 0 51.5 10.5t42.5 28.5t28.5 42t10.5 52q0 27 -10.5 51t-28.5 42t-42.5 28.5
t-51.5 10.5t-51.5 -10.5t-42.5 -28.5t-28.5 -42t-10.5 -51q0 -28 10.5 -52t28.5 -42t42.5 -28.5t51.5 -10.5z" />
    <glyph glyph-name="ogonek" unicode="&#x2db;" horiz-adv-x="709" 
d="M307 8l91 -8q-45 -18 -94 -51t-90 -73t-68 -81t-27 -75q0 -35 8 -57t24 -35t40 -19t55 -8t64.5 6.5t63 21t53 25t35.5 18.5l22 -88q-20 -15 -49.5 -35.5t-71.5 -38.5t-97.5 -29t-127.5 -7q-55 3 -92.5 20.5t-61 44t-34 58.5t-10.5 65q0 46 26 95.5t68 95t94.5 84
t105.5 63.5z" />
    <glyph glyph-name="tilde" unicode="&#x2dc;" horiz-adv-x="886" 
d="M56 1490q19 35 49.5 66.5t68 55.5t79 38.5t80.5 14.5q49 0 82 -21t60.5 -46.5t54.5 -46.5t63 -21q29 0 55.5 9t50 23t43.5 30.5t36 32.5l52 -73q-19 -35 -49.5 -67t-68 -56t-79 -38.5t-80.5 -14.5q-33 0 -58 10t-46 25t-38.5 33t-35.5 33t-38 25t-44 10q-29 0 -56 -9
t-50.5 -23t-43.5 -31t-35 -32z" />
    <glyph glyph-name="hungarumlaut" unicode="&#x2dd;" horiz-adv-x="915" 
d="M686 1394l324 416l126 -119q-35 -45 -87 -96t-108 -99t-109.5 -89.5t-92.5 -66.5zM196 1394l324 416l126 -119q-35 -45 -87 -96t-108 -99t-109.5 -89.5t-92.5 -66.5z" />
    <glyph glyph-name="Delta" unicode="&#x394;" horiz-adv-x="1770" 
d="M836 1516h32l753 -1489l-16 -26h-1443l-14 21zM1355 120l-540 1093l-498 -1093h1038z" />
    <glyph glyph-name="Delta" unicode="&#x2206;" horiz-adv-x="1770" 
d="M836 1516h32l753 -1489l-16 -26h-1443l-14 21zM1355 120l-540 1093l-498 -1093h1038z" />
    <glyph glyph-name="Omega" unicode="&#x3a9;" horiz-adv-x="1948" 
d="M142 361l99 7l33 -186h340q-63 39 -126.5 102t-114.5 145.5t-82 182t-29 210.5q2 126 31 229t78 184.5t116 141t145 99t164.5 58.5t175.5 19q147 0 270.5 -45.5t212.5 -134t137.5 -218t45.5 -297.5q-2 -93 -33.5 -190.5t-81 -188t-111.5 -168t-124 -129.5h348l70 217
l99 -7l-46 -392h-680v166q77 46 140 113.5t108 155.5t69.5 194t24.5 228q0 157 -38.5 272.5t-102.5 191.5t-148 113t-174 37q-107 0 -195.5 -41t-152 -122.5t-98.5 -203t-35 -281.5q0 -123 34.5 -228.5t88.5 -189.5t119 -144.5t125 -94.5v-166h-702v361z" />
    <glyph glyph-name="Omega" unicode="&#x2126;" horiz-adv-x="1948" 
d="M142 361l99 7l33 -186h340q-63 39 -126.5 102t-114.5 145.5t-82 182t-29 210.5q2 126 31 229t78 184.5t116 141t145 99t164.5 58.5t175.5 19q147 0 270.5 -45.5t212.5 -134t137.5 -218t45.5 -297.5q-2 -93 -33.5 -190.5t-81 -188t-111.5 -168t-124 -129.5h348l70 217
l99 -7l-46 -392h-680v166q77 46 140 113.5t108 155.5t69.5 194t24.5 228q0 157 -38.5 272.5t-102.5 191.5t-148 113t-174 37q-107 0 -195.5 -41t-152 -122.5t-98.5 -203t-35 -281.5q0 -123 34.5 -228.5t88.5 -189.5t119 -144.5t125 -94.5v-166h-702v361z" />
    <glyph glyph-name="pi" unicode="&#x3c0;" horiz-adv-x="1592" 
d="M184 114q6 1 22.5 6.5t37.5 14.5t45 20.5t45 26.5q44 30 71 62.5t43 70t22.5 80.5t9.5 94l21 437h-60q-29 0 -58 -7t-53.5 -20t-43 -32t-27.5 -42l-104 13q-3 15 -1 43t15 54q45 90 124.5 137t182.5 47h663q67 0 117.5 23t81.5 84h104q-5 -69 -30.5 -123.5t-67.5 -93.5
t-98.5 -60.5t-121.5 -23.5l-33 -664q0 -32 5 -51.5t12.5 -29.5t16.5 -13t16 -3q22 0 46.5 9t46.5 25.5t39.5 38.5t27.5 49h109q-11 -44 -39 -97.5t-70.5 -101t-96.5 -79.5t-116 -32q-51 0 -78.5 28t-39.5 71.5t-12.5 97.5t2.5 107l41 645l-381 1l-20 -496q-6 -86 -14.5 -144
t-23 -99.5t-37.5 -72.5t-57 -62q-29 -27 -64.5 -45.5t-75.5 -30.5z" />
    <glyph glyph-name="uni2000" unicode="&#x2000;" horiz-adv-x="3072" 
 />
    <glyph glyph-name="uni2001" unicode="&#x2001;" horiz-adv-x="2048" 
 />
    <glyph glyph-name="uni2002" unicode="&#x2002;" horiz-adv-x="1024" 
 />
    <glyph glyph-name="uni2003" unicode="&#x2003;" horiz-adv-x="2048" 
 />
    <glyph glyph-name="uni2004" unicode="&#x2004;" horiz-adv-x="683" 
 />
    <glyph glyph-name="uni2005" unicode="&#x2005;" horiz-adv-x="512" 
 />
    <glyph glyph-name="uni2006" unicode="&#x2006;" horiz-adv-x="341" 
 />
    <glyph glyph-name="uni2007" unicode="&#x2007;" horiz-adv-x="1288" 
 />
    <glyph glyph-name="uni2008" unicode="&#x2008;" horiz-adv-x="723" 
 />
    <glyph glyph-name="uni2009" unicode="&#x2009;" horiz-adv-x="410" 
 />
    <glyph glyph-name="uni200A" unicode="&#x200a;" horiz-adv-x="204" 
 />
    <glyph glyph-name="endash" unicode="&#x2013;" horiz-adv-x="1380" 
d="M178 874h1024v-147h-1024v147z" />
    <glyph glyph-name="emdash" unicode="&#x2014;" horiz-adv-x="2404" 
d="M178 874h2048v-147h-2048v147z" />
    <glyph glyph-name="quoteleft" unicode="&#x2018;" horiz-adv-x="774" 
d="M417 940q-59 15 -100.5 52t-67.5 83.5t-37.5 96t-11.5 90.5q0 85 27.5 158t72.5 131t102 100t116 66l47 -60v-26q-36 -12 -68.5 -41t-57 -69t-39 -87t-14.5 -95q0 -38 11.5 -74t31 -65t45.5 -48t55 -22v-45z" />
    <glyph glyph-name="quoteright" unicode="&#x2019;" horiz-adv-x="774" 
d="M209 1020v26q36 12 68.5 41t57 69t39 87t14.5 95q0 38 -11.5 74t-31 65t-45.5 48t-55 22v45l112 145q59 -15 100.5 -52t67.5 -83.5t37.5 -96.5t11.5 -90q0 -85 -28 -158t-73 -131t-102 -100t-115 -66z" />
    <glyph glyph-name="quotesinglbase" unicode="&#x201a;" horiz-adv-x="774" 
d="M245 131l112 145q59 -15 100.5 -52t67.5 -83.5t37.5 -96.5t11.5 -90q0 -85 -28 -158t-73 -131t-102 -100t-115 -66l-47 60v26q36 12 68.5 41t57 69t39 87t14.5 95q0 38 -11.5 74t-31 65t-45.5 48t-55 22v45z" />
    <glyph glyph-name="quotedblleft" unicode="&#x201c;" horiz-adv-x="1301" 
d="M944 940q-59 15 -100.5 52t-67.5 83.5t-37.5 96t-11.5 90.5q0 85 27.5 158t72.5 131t102 100t116 66l47 -60v-26q-36 -12 -68.5 -41t-57 -69t-39 -87t-14.5 -95q0 -38 11.5 -74t31 -65t45.5 -48t55 -22v-45zM417 940q-59 15 -100.5 52t-67.5 83.5t-37.5 96t-11.5 90.5
q0 85 27.5 158t72.5 131t102 100t116 66l47 -60v-26q-36 -12 -68.5 -41t-57 -69t-39 -87t-14.5 -95q0 -38 11.5 -74t31 -65t45.5 -48t55 -22v-45z" />
    <glyph glyph-name="quotedblright" unicode="&#x201d;" horiz-adv-x="1325" 
d="M760 1020v26q36 12 68.5 41t57 69t39 87t14.5 95q0 38 -11.5 74t-31 65t-45.5 48t-55 22v45l112 145q59 -15 100.5 -52t67.5 -83.5t37.5 -96.5t11.5 -90q0 -85 -28 -158t-73 -131t-102 -100t-115 -66zM209 1020v26q36 12 68.5 41t57 69t39 87t14.5 95q0 38 -11.5 74
t-31 65t-45.5 48t-55 22v45l112 145q59 -15 100.5 -52t67.5 -83.5t37.5 -96.5t11.5 -90q0 -85 -28 -158t-73 -131t-102 -100t-115 -66z" />
    <glyph glyph-name="quotedblbase" unicode="&#x201e;" horiz-adv-x="1325" 
d="M796 134l112 145q59 -15 100.5 -52t67.5 -83.5t37.5 -96.5t11.5 -90q0 -85 -28 -158t-73 -131t-102 -100t-115 -66l-47 60v26q36 12 68.5 41t57 69t39 87t14.5 95q0 38 -11.5 74t-31 65t-45.5 48t-55 22v45zM245 134l112 145q59 -15 100.5 -52t67.5 -83.5t37.5 -96.5
t11.5 -90q0 -85 -28 -158t-73 -131t-102 -100t-115 -66l-47 60v26q36 12 68.5 41t57 69t39 87t14.5 95q0 38 -11.5 74t-31 65t-45.5 48t-55 22v45z" />
    <glyph glyph-name="dagger" unicode="&#x2020;" horiz-adv-x="923" 
d="M373 1001l4 134l-285 -4l1 147l301 -4l-21 199l-5 175h187l-5 -175l-20 -199l301 4v-147l-284 4l3 -134l-38 -718h-100z" />
    <glyph glyph-name="daggerdbl" unicode="&#x2021;" horiz-adv-x="923" 
d="M92 629l301 -4l-20 374l4 136l-286 -4l1 147l301 -4l-20 198l-5 176h187l-5 -176l-20 -198l301 4l1 -147l-286 4l4 -136l-20 -374l301 4l1 -147l-286 4l4 -135l-42 -717h-93l-42 717l4 135l-286 -4z" />
    <glyph glyph-name="bullet" unicode="&#x2022;" horiz-adv-x="841" 
d="M414 509q-42 0 -78.5 17.5t-63.5 47t-41.5 68.5t-11.5 82q3 45 21.5 84t47.5 68t66.5 45.5t78.5 16.5t78 -16.5t64 -45.5t41.5 -68t11.5 -84t-21.5 -84t-47.5 -68t-66.5 -46t-78.5 -17z" />
    <glyph glyph-name="ellipsis" unicode="&#x2026;" horiz-adv-x="2118" 
d="M1627 101q0 31 13.5 58t34.5 46.5t47.5 30.5t53.5 11q66 0 96.5 -36.5t30.5 -87.5q0 -33 -13 -60t-34 -45.5t-48 -29t-55 -10.5q-24 0 -47 8.5t-40.5 24t-28 38.5t-10.5 52zM921 101q0 31 13.5 58t34.5 46.5t47.5 30.5t53.5 11q66 0 96.5 -36.5t30.5 -87.5q0 -33 -13 -60
t-34 -45.5t-48 -29t-55 -10.5q-24 0 -47 8.5t-40.5 24t-28 38.5t-10.5 52zM215 101q0 31 13.5 58t34.5 46.5t47.5 30.5t53.5 11q66 0 96.5 -36.5t30.5 -87.5q0 -33 -13 -60t-34 -45.5t-48 -29t-55 -10.5q-24 0 -47 8.5t-40.5 24t-28 38.5t-10.5 52z" />
    <glyph glyph-name="perthousand" unicode="&#x2030;" horiz-adv-x="2551" 
d="M1074 1601h159l-546 -1601h-159zM396 692q-71 -2 -127 27t-95 78.5t-60 116t-21 139.5q0 90 27 158.5t73 116t106 72.5t125 27q79 3 136 -25.5t94 -78.5t54.5 -117.5t17.5 -143.5q0 -89 -27 -157.5t-73 -115t-105.5 -71t-124.5 -26.5zM408 795q78 0 118.5 69t40.5 191
q0 61 -10.5 110.5t-30 85t-48.5 55t-66 19.5q-39 0 -68.5 -18.5t-49.5 -53t-30.5 -83t-10.5 -109.5q0 -57 10.5 -105.5t30 -84t48.5 -56t66 -20.5zM1824 525q0 90 27 158.5t73 116t106 72.5t125 27q79 3 136 -25.5t94 -78.5t54.5 -117.5t17.5 -143.5q0 -89 -27 -157.5
t-73 -115t-105.5 -71t-124.5 -26.5q-71 -2 -127 27t-95 78.5t-60 116t-21 139.5zM1043 525q0 90 27 158.5t73 116t106 72.5t125 27q79 3 136 -25.5t94 -78.5t54.5 -117.5t17.5 -143.5q0 -89 -27 -157.5t-73 -115t-105.5 -71t-124.5 -26.5q-71 -2 -127 27t-95 78.5t-60 116
t-21 139.5zM1984 533q0 -57 10.5 -105.5t30 -84t48.5 -56t66 -20.5q78 0 118.5 69t40.5 191q0 61 -10.5 110.5t-30 85t-48.5 55t-66 19.5q-39 0 -68.5 -18.5t-49.5 -53t-30.5 -83t-10.5 -109.5zM1203 533q0 -57 10.5 -105.5t30 -84t48.5 -56t66 -20.5q78 0 118.5 69
t40.5 191q0 61 -10.5 110.5t-30 85t-48.5 55t-66 19.5q-39 0 -68.5 -18.5t-49.5 -53t-30.5 -83t-10.5 -109.5z" />
    <glyph glyph-name="guilsinglleft" unicode="&#x2039;" horiz-adv-x="1189" 
d="M245 693l648 382l51 -85l-514 -376l514 -360l-51 -91l-648 365v165z" />
    <glyph glyph-name="guilsinglright" unicode="&#x203a;" horiz-adv-x="1189" 
d="M245 248l513 375l-513 361l51 91l648 -365v-165l-648 -382z" />
    <glyph glyph-name="fraction" unicode="&#x2044;" horiz-adv-x="885" 
d="M765 1881l130 -37l-773 -2187l-132 31z" />
    <glyph glyph-name="Euro" unicode="&#x20ac;" horiz-adv-x="1390" 
d="M-39 693h195v31q0 45 3 88t8 85h-176v127h200q32 127 92 228t144 171t191.5 107t233.5 37q72 0 134 -8.5t114 -20t94 -23.5t75 -19l-16 -290h-86l-52 167q-63 43 -142 60.5t-184 17.5q-170 0 -273 -110.5t-138 -316.5h571v-127h-585q-2 -27 -3 -54.5t-1 -56.5v-47t2 -46
h557v-127h-548q12 -104 41 -193.5t80 -155t128 -103t187 -37.5q61 0 107 6t84 18t71 31t67 45q21 87 45 174q23 0 44.5 -0.5t44.5 -0.5v-287q-36 -2 -79.5 -16t-103.5 -31t-139.5 -30.5t-186.5 -13.5q-136 0 -240 42.5t-178 120.5t-118 187.5t-60 243.5h-204v127z" />
    <glyph glyph-name="trademark" unicode="&#x2122;" horiz-adv-x="2218" 
d="M956 854l109 15l30 591l-104 9v84h354l156 -426l45 -153l186 579h307v-84l-96 -9l61 -590l98 -16v-77h-348v77l89 15l-31 371l-9 221l-20 -68l-211 -624h-107l-214 547l-56 150l-4 -157l-19 -440l95 -15v-77h-311v77zM315 854l121 15v589l-158 -11l-43 -128l-65 -1
l20 235h676v-233l-61 -5l-27 133l-165 12v-591l129 -15v-77h-427v77z" />
    <glyph glyph-name="partialdiff" unicode="&#x2202;" horiz-adv-x="1241" 
d="M63 411q0 91 26.5 172t73 149.5t111.5 123t142 92.5t163.5 58.5t176.5 20.5q123 0 239 -38q-4 80 -15.5 156t-34.5 142.5t-59 122t-88.5 95.5t-122.5 62t-162 22q-81 0 -160 -19t-150 -66l-64 79q42 30 94.5 54t111.5 40.5t120.5 25t121.5 8.5q112 0 199.5 -27t153 -75.5
t111 -116t74 -149t41 -175t12.5 -192.5q0 -106 -12.5 -221.5t-42.5 -226.5t-79.5 -211t-122.5 -176t-172.5 -120.5t-229.5 -44.5q-99 0 -182.5 31.5t-144.5 89t-95 137.5t-34 177zM250 468q0 -76 25.5 -143.5t71 -118.5t109 -80.5t140.5 -29.5q68 0 122 23t95 63t70.5 93.5
t49.5 114.5t32.5 127t19.5 130q5 42 7 81.5t3 76.5q-68 49 -148.5 74.5t-164.5 25.5q-82 0 -159.5 -27t-138 -81.5t-97.5 -136.5t-37 -192z" />
    <glyph glyph-name="product" unicode="&#x220f;" horiz-adv-x="1415" 
d="M200 -61v1499l-165 18v97h1345v-97l-165 -18v-1499l169 -31v-85h-536v85l172 31v1509h-625v-1509l172 -31v-85h-536v85z" />
    <glyph glyph-name="summation" unicode="&#x2211;" horiz-adv-x="1592" 
d="M769 677l-561 795l6 81h1077l33 -325h-103l-57 207l-739 14l546 -741l-553 -787l758 29l100 207l97 -24l-45 -313l-1104 1l-16 32z" />
    <glyph glyph-name="minus" unicode="&#x2212;" horiz-adv-x="1241" 
d="M178 874h885v-147h-885v147z" />
    <glyph glyph-name="radical" unicode="&#x221a;" horiz-adv-x="1770" 
d="M180 579l181 129h169l335 -855h8l633 2067h163l-719 -2274h-177l-388 909l-126 -92z" />
    <glyph glyph-name="infinity" unicode="&#x221e;" horiz-adv-x="1770" 
d="M501 240q-97 -2 -169.5 28.5t-120.5 81t-72 115t-24 132.5q0 84 32 157t85.5 126t124.5 83.5t149 30.5q66 0 122.5 -23.5t106 -61t93.5 -85t84 -96.5q40 51 82 98.5t88 84t97 59.5t110 24q97 1 166.5 -29t113.5 -80.5t65 -115.5t21 -132q0 -84 -32 -157t-85.5 -126
t-124.5 -83.5t-149 -30.5q-66 0 -122.5 23t-106 60.5t-93.5 85t-84 96.5q-38 -51 -77 -98.5t-81.5 -84t-91.5 -59t-107 -23.5zM523 357q41 0 79 19.5t73.5 51t67.5 72t61 82.5q-32 43 -68 94t-77 94.5t-87 72.5t-97 29q-50 0 -85 -20.5t-57 -53.5t-32 -76t-10 -88
q0 -53 16.5 -102.5t47 -88.5t73.5 -62.5t95 -23.5zM967 650q33 -45 72 -97.5t83 -97t93 -74t100 -29.5q50 0 82 21t50 56t25 79.5t7 91.5q0 51 -13.5 99t-40.5 85.5t-66.5 60t-91.5 22.5q-41 0 -81.5 -19t-78.5 -49.5t-73.5 -69.5t-66.5 -79z" />
    <glyph glyph-name="integral" unicode="&#x222b;" horiz-adv-x="1063" 
d="M130 -234q5 -21 21 -42t39.5 -38t53.5 -27.5t62 -10.5q69 0 111.5 20t65.5 61t31 103.5t8 148.5q0 153 -24 305.5t-53.5 304.5t-53.5 304t-24 304q0 104 29 197.5t84 164t133 111.5t176 41q26 0 64.5 -5t78 -20.5t75.5 -44.5t57 -77l-130 -91q-5 21 -21 42t-39.5 38
t-53.5 27.5t-62 10.5q-69 0 -111.5 -20t-65.5 -61t-31 -103.5t-8 -148.5q0 -153 24 -305t53.5 -304t53.5 -304t24 -305q0 -104 -29 -197.5t-84 -164t-133 -111.5t-176 -41q-26 0 -64.5 5t-78 20.5t-75.5 44.5t-57 77z" />
    <glyph glyph-name="approxequal" unicode="&#x2248;" horiz-adv-x="1282" 
d="M150 983q22 38 58 72.5t81 60.5t96.5 41.5t106.5 15.5q39 0 71 -12.5t59 -31t51 -40t48 -40t49 -31t54 -12.5q34 0 65 10t57.5 25t49 33t40.5 35l72 -89q-23 -38 -58.5 -72.5t-80.5 -61t-96.5 -42t-106.5 -15.5q-39 0 -71 12.5t-59 31t-51 40.5t-47.5 40.5t-49 31
t-54.5 12.5q-35 0 -65.5 -10t-57 -25t-49 -33.5t-40.5 -34.5zM164 593q22 38 58 72.5t81 60.5t96.5 41.5t106.5 15.5q39 0 71 -12.5t59 -31t51 -40t48 -40t49 -31t54 -12.5q34 0 65 10t57.5 25t49 33t40.5 35l72 -89q-23 -38 -58.5 -72.5t-80.5 -61t-96.5 -42t-106.5 -15.5
q-39 0 -71 12.5t-59 31t-51 40.5t-47.5 40.5t-49 31t-54.5 12.5q-35 0 -65.5 -10t-57 -25t-49 -33.5t-40.5 -34.5z" />
    <glyph glyph-name="notequal" unicode="&#x2260;" horiz-adv-x="1241" 
d="M456 525h-278v147h324l67 242h-391v147h435l52 178h174l-52 -178h276v-147h-320l-67 -242h387v-147h-431l-50 -171h-174z" />
    <glyph glyph-name="lessequal" unicode="&#x2264;" horiz-adv-x="1324" 
d="M178 1020l968 423v-172l-730 -294l730 -297v-172l-968 429v83zM178 324h968v-147h-968v147z" />
    <glyph glyph-name="greaterequal" unicode="&#x2265;" horiz-adv-x="1324" 
d="M178 680l730 297l-730 294v172l968 -423v-83l-968 -429v172zM178 324h968v-147h-968v147z" />
    <glyph glyph-name="lozenge" unicode="&#x25ca;" horiz-adv-x="1415" 
d="M188 691v54l431 671h187l421 -691v-54l-431 -671h-187zM1056 679l-357 611l-340 -554l356 -610z" />
    <glyph glyph-name="ff" unicode="&#xfb00;" horiz-adv-x="1674" 
d="M947 85l201 22v877h-220v76l220 59v83q0 74 18.5 139.5t50 119.5t73 96.5t87 71.5t92.5 44.5t89 15.5q68 0 100 -6t43 -11v-170q-14 8 -62.5 19.5t-120.5 11.5q-41 0 -73.5 -7t-56 -32.5t-36 -75t-12.5 -134.5v-165h302v-135h-302v-879l230 -20v-85h-623v85zM110 85
l201 22v877h-220v76l220 59v83q0 74 18.5 139.5t50 119.5t73 96.5t87 71.5t92.5 44.5t89 15.5q68 0 100 -6t43 -11v-170q-14 8 -62.5 19.5t-120.5 11.5q-41 0 -73.5 -7t-56 -32.5t-36 -75t-12.5 -134.5v-165h302v-135h-302v-879l230 -20v-85h-623v85z" />
    <glyph glyph-name="fi" unicode="&#xfb01;" horiz-adv-x="1520" 
d="M110 85l201 22v877h-220v76l220 59v83q0 74 18.5 139.5t50 119.5t73 96.5t87 71.5t92.5 44.5t89 15.5q68 0 100 -6t43 -11v-170q-14 8 -62.5 19.5t-120.5 11.5q-41 0 -73.5 -7t-56 -32.5t-36 -75t-12.5 -134.5v-165h302v-135h-302v-879l230 -20v-85h-623v85zM1170 1375
q-24 0 -47 8.5t-40.5 24t-28 38.5t-10.5 52q0 31 13.5 58t34.5 46.5t47.5 30.5t53.5 11q66 0 96.5 -36.5t30.5 -87.5q0 -33 -13 -60t-34 -45.5t-48 -29t-55 -10.5zM949 85l170 21v819l-138 73v62l277 79l45 -20v-1013l162 -21v-85h-516v85z" />
    <glyph glyph-name="fl" unicode="&#xfb02;" horiz-adv-x="1535" 
d="M110 85l201 22v877h-220v76l220 59v83q0 74 18.5 139.5t50 119.5t73 96.5t87 71.5t92.5 44.5t89 15.5q68 0 100 -6t43 -11v-170q-14 8 -62.5 19.5t-120.5 11.5q-41 0 -73.5 -7t-56 -32.5t-36 -75t-12.5 -134.5v-165h302v-135h-302v-879l230 -20v-85h-623v85zM945 85
l170 21v1354l-160 36v87l313 42l40 -23v-1496l178 -21v-85h-541v85z" />
    <glyph glyph-name="ffi" unicode="&#xfb03;" horiz-adv-x="2357" 
d="M947 85l201 22v877h-220v76l220 59v83q0 74 18.5 139.5t50 119.5t73 96.5t87 71.5t92.5 44.5t89 15.5q68 0 100 -6t43 -11v-170q-14 8 -62.5 19.5t-120.5 11.5q-41 0 -73.5 -7t-56 -32.5t-36 -75t-12.5 -134.5v-165h302v-135h-302v-879l230 -20v-85h-623v85zM110 85
l201 22v877h-220v76l220 59v83q0 74 18.5 139.5t50 119.5t73 96.5t87 71.5t92.5 44.5t89 15.5q68 0 100 -6t43 -11v-170q-14 8 -62.5 19.5t-120.5 11.5q-41 0 -73.5 -7t-56 -32.5t-36 -75t-12.5 -134.5v-165h302v-135h-302v-879l230 -20v-85h-623v85zM1881 1498
q0 31 13.5 58t34.5 46.5t47.5 30.5t53.5 11q66 0 96.5 -36.5t30.5 -87.5q0 -33 -13 -60t-34 -45.5t-48 -29t-55 -10.5q-24 0 -47 8.5t-40.5 24t-28 38.5t-10.5 52zM1786 85l170 21v819l-138 73v62l277 79l45 -20v-1013l162 -21v-85h-516v85z" />
    <glyph glyph-name="ffl" unicode="&#xfb04;" horiz-adv-x="2372" 
d="M947 85l201 22v877h-220v76l220 59v83q0 74 18.5 139.5t50 119.5t73 96.5t87 71.5t92.5 44.5t89 15.5q68 0 100 -6t43 -11v-170q-14 8 -62.5 19.5t-120.5 11.5q-41 0 -73.5 -7t-56 -32.5t-36 -75t-12.5 -134.5v-165h302v-135h-302v-879l230 -20v-85h-623v85zM110 85
l201 22v877h-220v76l220 59v83q0 74 18.5 139.5t50 119.5t73 96.5t87 71.5t92.5 44.5t89 15.5q68 0 100 -6t43 -11v-170q-14 8 -62.5 19.5t-120.5 11.5q-41 0 -73.5 -7t-56 -32.5t-36 -75t-12.5 -134.5v-165h302v-135h-302v-879l230 -20v-85h-623v85zM1782 85l170 21v1354
l-160 36v87l313 42l40 -23v-1496l178 -21v-85h-541v85z" />
    <glyph glyph-name="grave.cap" horiz-adv-x="1062" 
d="M544 1607q-47 8 -97.5 23.5t-102 36.5t-102 47.5t-97.5 56.5l146 149l306 -259z" />
    <glyph glyph-name="dieresis.cap" horiz-adv-x="1062" 
d="M752 1651q-24 0 -47 8.5t-40.5 24t-28 38.5t-10.5 52q0 31 13.5 58t34.5 46.5t47.5 30.5t53.5 11q66 0 96.5 -36.5t30.5 -87.5q0 -33 -13 -60t-34 -45.5t-48 -29t-55 -10.5zM286 1651q-24 0 -47 8.5t-40.5 24t-28 38.5t-10.5 52q0 31 13.5 58t34.5 46.5t47.5 30.5
t53.5 11q66 0 96.5 -36.5t30.5 -87.5q0 -33 -13 -60t-34 -45.5t-48 -29t-55 -10.5z" />
    <glyph glyph-name="commabelow" horiz-adv-x="707" 
d="M377 -41q52 -14 90.5 -41.5t64 -62.5t38 -74t12.5 -76q0 -68 -26.5 -127t-65 -104.5t-82 -75t-76.5 -38.5l-56 50v26q28 13 47.5 38t31.5 56.5t17 66.5t5 68q0 28 -11 53t-26.5 43.5t-33.5 29t-31 10.5v54z" />
    <glyph glyph-name="commaaccent" horiz-adv-x="707" 
d="M377 -41q52 -14 90.5 -41.5t64 -62.5t38 -74t12.5 -76q0 -68 -26.5 -127t-65 -104.5t-82 -75t-76.5 -38.5l-56 50v26q28 13 47.5 38t31.5 56.5t17 66.5t5 68q0 28 -11 53t-26.5 43.5t-33.5 29t-31 10.5v54z" />
    <glyph glyph-name="circumflex.cap" horiz-adv-x="1062" 
d="M185 1662l253 258h189l257 -255l-87 -49l-264 168l-270 -168z" />
    <glyph glyph-name="caron.cap" horiz-adv-x="708" 
d="M205 1871l87 49l244 -168l250 168l78 -46l-233 -258h-189z" />
    <glyph glyph-name="breve.cap" horiz-adv-x="574" 
d="M287 1611q-76 0 -136 25.5t-102 68t-64 98.5t-22 117h84q4 -6 10.5 -21t17 -33t27.5 -38t42.5 -36t60.5 -26.5t83 -10.5q72 0 116.5 22t70 50.5t37.5 55.5t19 37h80q0 -61 -23.5 -117t-66.5 -98.5t-102.5 -68t-131.5 -25.5z" />
    <glyph glyph-name="ring.cap" horiz-adv-x="708" 
d="M354 1448q-52 0 -97.5 18t-80 50t-54.5 75t-20 93t20 93t54.5 75t80 50t97.5 18t97.5 -18t80 -50t54.5 -75t20 -93t-20 -93t-54.5 -75t-80 -50t-97.5 -18zM354 1554q27 0 51.5 9.5t42.5 26.5t28.5 40.5t10.5 51.5q0 27 -10.5 50t-28.5 40.5t-42.5 27t-51.5 9.5
t-51.5 -9.5t-42.5 -27t-28.5 -40.5t-10.5 -50q0 -28 10.5 -51.5t28.5 -40.5t42.5 -26.5t51.5 -9.5z" />
    <glyph glyph-name="ogonek.cap" horiz-adv-x="709" 
d="M322 5l75 -5q-49 -17 -98 -51t-88.5 -73.5t-64 -80t-24.5 -70.5q0 -29 5.5 -51.5t20 -39t38 -25t59.5 -8.5q13 0 30 2.5t35 7t35 10t29 11.5l22 -88q-20 -15 -48.5 -28t-62 -22.5t-71.5 -14.5t-77 -5q-41 0 -77 13.5t-63 38.5t-42.5 61t-15.5 80q0 42 26 91t68.5 95.5
t98 85t115.5 61.5z" />
    <glyph glyph-name="tilde.cap" horiz-adv-x="1063" 
d="M135 1750q19 35 49.5 66t68 54t79 36.5t80.5 13.5q49 0 82 -19.5t60.5 -43.5t54.5 -43.5t63 -19.5q58 0 105.5 24.5t79.5 56.5l52 -73q-19 -35 -49.5 -66t-68 -54.5t-79 -37t-80.5 -13.5q-33 0 -58 9.5t-46 24t-38.5 31.5t-35.5 31.5t-38 24t-44 9.5q-26 0 -52.5 -7.5
t-51 -19.5t-45.5 -27t-36 -30z" />
    <glyph glyph-name="hungarumlaut.cap" horiz-adv-x="709" 
d="M535 1574l284 346l126 -119q-35 -45 -80.5 -85t-94 -75t-96 -65.5t-86.5 -55.5zM44 1574l284 346l126 -119q-35 -45 -80.5 -85t-94 -75t-96 -65.5t-86.5 -55.5z" />
    <glyph glyph-name="foundryicon" horiz-adv-x="1940" 
d="M618 1701q-29 0 -49.5 17t-20.5 41q0 13 7 32.5t17.5 42t22.5 45.5t23 41q34 -49 53 -92t19 -69q0 -24 -21 -41t-51 -17zM605 128q0 17 5.5 28.5t13.5 18.5t17 10t17 3q17 0 33.5 -13.5t16.5 -46.5q0 -41 4.5 -68t15.5 -43t28.5 -23t43.5 -7q20 0 35.5 7.5t26.5 28.5
t17 58t6 96h22v492h-35q0 17 10 30t25 18v192h-775q0 68 27.5 133t78 122t121.5 104.5t157 81t184.5 51t204.5 15.5l5 160h40l9 -160q106 2 205 -16t185 -51t156.5 -80.5t121 -104.5t78 -122t27.5 -133h-768v-732l21 1q0 -148 -44.5 -217t-140.5 -69q-45 0 -81 11.5
t-61.5 39t-39 73t-13.5 112.5z" />
    <glyph glyph-name="acute.cap" horiz-adv-x="1062" 
d="M465 1661l306 259l146 -149q-47 -30 -97.5 -56.5t-102 -47.5t-102.5 -36.5t-97 -23.5z" />
    <glyph glyph-name="HT" 
 />
    <glyph glyph-name="LF" 
 />
    <glyph glyph-name="DLE" 
 />
    <glyph glyph-name="DC1" 
 />
    <glyph glyph-name="DC2" 
 />
    <glyph glyph-name="DC3" 
 />
    <glyph glyph-name="DC4" 
 />
    <glyph glyph-name="RS" 
 />
    <glyph glyph-name="US" 
 />
    <glyph glyph-name="DEL" 
 />
    <glyph glyph-name="dotaccent.cap" horiz-adv-x="574" 
d="M278 1651q-24 0 -47 8.5t-40.5 24t-28 38.5t-10.5 52q0 31 13.5 58t34.5 46.5t47.5 30.5t53.5 11q66 0 96.5 -36.5t30.5 -87.5q0 -33 -13 -60t-34 -45.5t-48 -29t-55 -10.5z" />
    </font>
</defs>
</svg>
