<?xml version="1.0" standalone="no"?>
<!DOCTYPE svg PUBLIC "-//W3C//DTD SVG 1.1//EN" "http://www.w3.org/Graphics/SVG/1.1/DTD/svg11.dtd" >
<svg xmlns="http://www.w3.org/2000/svg" xmlns:xlink="http://www.w3.org/1999/xlink" version="1.1">
<metadata>
Created by FontForge 20161013 at Sat Mar 19 02:44:35 2011
 By ,,,
vernon adams
</metadata>
<defs>
<font id="Michroma" horiz-adv-x="448" >
  <font-face 
    font-family="Michroma"
    font-weight="400"
    font-stretch="normal"
    units-per-em="2048"
    panose-1="0 0 0 0 0 0 0 0 0 0"
    ascent="1638"
    descent="-410"
    x-height="1152"
    cap-height="1536"
    bbox="-253 -622 4032 3066"
    underline-thickness="102"
    underline-position="-307"
    unicode-range="U+0002-FB02"
  />
<missing-glyph horiz-adv-x="1024" 
 />
    <glyph glyph-name=".notdef" horiz-adv-x="1024" 
 />
    <glyph glyph-name="glyph1" horiz-adv-x="0" 
 />
    <glyph glyph-name="nonmarkingreturn" unicode="&#xd;" horiz-adv-x="0" 
 />
    <glyph glyph-name="NULL" horiz-adv-x="0" 
 />
    <glyph glyph-name="NULL" horiz-adv-x="0" 
 />
    <glyph glyph-name="uni0002" horiz-adv-x="0" 
 />
    <glyph glyph-name="uni0009" unicode="&#x9;" horiz-adv-x="0" 
 />
    <glyph glyph-name="uni000A" unicode="&#xa;" horiz-adv-x="0" 
 />
    <glyph glyph-name="space" unicode=" " 
 />
    <glyph glyph-name="exclam" unicode="!" 
d="M128 1536h192l-48 -1088h-96zM320 0h-192v192h192v-192z" />
    <glyph glyph-name="quotedbl" unicode="&#x22;" horiz-adv-x="768" 
d="M128 1536h192l-32 -384h-128zM448 1536h192l-32 -384h-128z" />
    <glyph glyph-name="numbersign" unicode="#" horiz-adv-x="1536" 
d="M835 320h-309l-111 -448l-160 48l99 400h-226v160h265l96 384h-297v160h336l112 448l160 -48l-100 -400h309l112 448l160 -48l-100 -400h227v-160h-266l-96 -384h298v-160h-337l-111 -448l-160 48zM565 480h309l96 384h-309z" />
    <glyph glyph-name="dollar" unicode="$" horiz-adv-x="2018" 
d="M913 -36h-81q-144 0 -252 11t-186 33.5t-129 57t-81.5 81t-42.5 106t-12 131.5h192q0 -90 26 -141t86 -76.5t157.5 -32t241.5 -6.5h81v576h-17q-176 0 -301.5 13t-210.5 37.5t-136 61t-77.5 83.5t-34.5 104.5t-8 124.5q0 70 12.5 130t46.5 108.5t93 86.5t151.5 63.5
t222.5 38.5q112 11 259 13v96h192v-96h47q144 0 252 -10.5t186 -33t129.5 -56t82 -80t42.5 -105.5t12 -131h-192q0 90 -26 141t-86 76.5t-158 32t-242 6.5h-47v-544h55q158 0 271 -13t190.5 -38.5t123.5 -63.5t71 -86.5t32.5 -108.5t7.5 -130t-12.5 -131.5t-44.5 -112.5
t-87 -91t-140 -68t-205 -42q-113 -14 -262 -15v-92h-192v92zM913 864v544q-161 -2 -269 -14q-124 -13 -196 -45t-100 -86t-28 -135q0 -50 7 -89t28.5 -68.5t60.5 -49.5t103 -33t156.5 -18.5t220.5 -5.5h17zM1105 704v-576q157 1 262 16q111 16 177 51t93 91.5t27 137.5
t-18.5 135t-73 86t-153.5 45.5t-259 13.5h-55z" />
    <glyph glyph-name="percent" unicode="%" horiz-adv-x="1023" 
d="M64 0h192l704 1536h-192z" />
    <glyph glyph-name="ampersand" unicode="&#x26;" horiz-adv-x="2432" 
d="M1760 768h192v-64q0 -154 -10.5 -266t-42.5 -190t-91 -126.5t-155 -75.5t-234.5 -36.5t-330.5 -9.5q-176 0 -315.5 2.5t-246 16.5t-182.5 45t-124 88t-70 144.5t-22 215.5q0 96 21.5 166.5t55.5 120.5t75 81t80 49t71.5 24.5t48.5 6.5q-36 24 -65.5 49t-50.5 55t-32.5 67
t-11.5 85q0 96 31.5 159.5t85 102.5t124 58t148.5 26t159 6.5t156 -0.5q160 0 279.5 -4.5t204.5 -19.5t140 -44t87 -79t44.5 -123.5t12.5 -177.5h-192q0 72 -7 121.5t-28.5 81.5t-60.5 49t-103 25t-156.5 9.5t-220.5 1.5q-144 0 -242 -3t-158 -21t-86 -57t-26 -111
q0 -26 8 -50.5t26.5 -48.5t49 -47t76.5 -46l1632 -832l-64 -160l-1600 801q-72 0 -131 -18t-101 -56.5t-65 -99.5t-23 -147q0 -80 12.5 -135t44.5 -90.5t87 -54.5t140.5 -28t204.5 -10.5t279 -1.5q128 0 227.5 1.5t174 10t126 27.5t83.5 54.5t46.5 90.5t14.5 136v256z" />
    <glyph glyph-name="quotesingle" unicode="'" 
d="M128 1536h192l-32 -384h-128z" />
    <glyph glyph-name="parenleft" unicode="(" horiz-adv-x="768" 
d="M640 -64q-128 0 -215.5 35t-144.5 95.5t-88 141.5t-45 173.5t-16.5 191.5t-2.5 195t2.5 195t16.5 191.5t45 173.5t88 141.5t144.5 95.5t215.5 35v-160q-81 0 -136 -18.5t-90.5 -56t-54.5 -93.5t-27.5 -130.5t-10 -168t-1.5 -205.5t1.5 -205.5t10 -168t27.5 -130.5
t54.5 -93.5t90.5 -56t136 -18.5v-160z" />
    <glyph glyph-name="parenright" unicode=")" horiz-adv-x="768" 
d="M128 96q80 0 135.5 18.5t91 56t54.5 93.5t27.5 130.5t10 168t1.5 205.5t-1.5 205.5t-10 168t-27.5 130.5t-54.5 93.5t-91 56t-135.5 18.5v160q128 0 215.5 -35t144.5 -95.5t88 -141.5t45 -173.5t16.5 -191.5t2.5 -195t-2.5 -195t-16.5 -191.5t-45 -173.5t-88 -141.5
t-144.5 -95.5t-215.5 -35v160z" />
    <glyph glyph-name="asterisk" unicode="*" horiz-adv-x="1415" 
d="M420 384l-156 111l364 401l-500 176l100 178l432 -258l-48 544h192l-48 -544l431 258l100 -178l-499 -176l364 -401l-156 -111l-288 450z" />
    <glyph glyph-name="plus" unicode="+" horiz-adv-x="1344" 
d="M128 960h448v448h192v-448h448v-160h-448v-480h-192v480h-448v160z" />
    <glyph glyph-name="comma" unicode="," 
d="M128 128h192l-128 -384h-128z" />
    <glyph glyph-name="hyphen" unicode="-" horiz-adv-x="1024" 
d="M128 672h768v-160h-768v160z" />
    <glyph glyph-name="period" unicode="." 
d="M320 0h-192v192h192v-192z" />
    <glyph glyph-name="slash" unicode="/" horiz-adv-x="1023" 
d="M768 1536h192l-704 -1536h-192z" />
    <glyph glyph-name="zero" unicode="0" horiz-adv-x="2048" 
d="M1217 1568q176 0 296.5 -21.5t198.5 -65t120 -109.5t61.5 -155t23 -201t3.5 -248t-3.5 -248t-23 -201t-61.5 -155t-120 -109.5t-198.5 -65t-296.5 -21.5h-385q-176 0 -296.5 21.5t-198.5 65t-120.5 109.5t-62 155t-22.5 201t-3 248t3 248t22.5 201t62 155t120.5 109.5
t198.5 65t296.5 21.5h385zM1217 128q128 0 215 7.5t144 30.5t88 66t45 114t16.5 174.5t2.5 247.5t-2.5 247.5t-16.5 174.5t-45 114t-87.5 66t-144 30.5t-215.5 7.5h-385q-128 0 -215.5 -7.5t-144.5 -30.5t-88 -66t-45 -114t-16 -174.5t-2 -247.5t2.5 -247.5t16.5 -174.5
t44.5 -114t87.5 -66t144.5 -30.5t215.5 -7.5h385z" />
    <glyph glyph-name="one" unicode="1" horiz-adv-x="992" 
d="M608 1536h256v-1536h-192v1376l-448 -384l-96 128z" />
    <glyph glyph-name="two" unicode="2" horiz-adv-x="1984" 
d="M128 192q0 60 3 119.5t13.5 114t31 102.5t56 84.5t88.5 60.5t128 31l1024 96q48 4 84 14t59.5 38.5t35.5 83.5t12 151q0 80 -12 135t-40 91t-75.5 55t-118.5 28t-168 10.5t-225 1.5q-176 0 -296.5 -6.5t-199 -23.5t-120.5 -46t-61.5 -75.5t-23 -111.5t-3.5 -153h-192
q0 144 26.5 242.5t78 162.5t127.5 99t175.5 51t222 18.5t266.5 2.5t261.5 -4.5t210 -20.5t160.5 -47t112.5 -84.5t66 -132.5t21.5 -191q0 -96 -14 -174.5t-50 -136.5t-98 -93t-158 -44l-1024 -96q-73 -7 -112 -27t-57 -63.5t-20.5 -114.5t-2.5 -179h1504v-160h-1696v192z
" />
    <glyph glyph-name="three" unicode="3" horiz-adv-x="1984" 
d="M1472 864q48 0 84 8t59.5 31.5t35.5 67.5t12 116q0 80 -12 135t-40 91t-75.5 55t-118.5 28t-168 10.5t-225 1.5q-176 0 -296.5 -4.5t-199 -17t-120.5 -34.5t-61.5 -57.5t-23 -86.5t-3.5 -120h-192q0 121 26.5 204t78 136.5t127.5 82t175.5 41t222 14.5t266.5 2
t261.5 -4.5t210 -20.5t160.5 -47t112.5 -84.5t66 -132.5t21.5 -191q0 -72 -9.5 -122t-29 -84.5t-49.5 -57t-72 -40.5q42 -18 72 -46t49.5 -68.5t29 -95t9.5 -126.5q0 -112 -21.5 -191t-66 -132.5t-112.5 -84.5t-160.5 -47t-210 -20.5t-261.5 -4.5t-266.5 2t-222 16
t-175.5 44.5t-127.5 87.5t-78 145t-26.5 217h192q0 -76 4 -131.5t23 -94.5t61 -63.5t120.5 -38.5t199 -19t296.5 -5q128 0 225 1.5t168 10.5t118.5 28t75.5 55t40 91t12 135q0 84 -12 134.5t-35.5 77.5t-59.5 35t-84 8h-704v160h704z" />
    <glyph glyph-name="four" unicode="4" horiz-adv-x="2048" 
d="M1664 320v-320h-192v320h-1344v192l1280 1024h256v-1056h256v-160h-256zM1472 480v928l-1152 -928h1152z" />
    <glyph glyph-name="five" unicode="5" horiz-adv-x="1984" 
d="M1280 1056q128 0 220.5 -13.5t156.5 -42t103 -72.5t60.5 -104.5t28.5 -138t7 -173.5q0 -125 -21.5 -214.5t-66 -150t-112.5 -96t-160.5 -54t-210 -24t-261.5 -5.5t-266.5 2t-222 16t-175.5 44.5t-127.5 87.5t-78 145t-26.5 217h192q0 -76 3.5 -131.5t23 -94.5t61.5 -63.5
t120.5 -38.5t199 -19t296.5 -5q128 0 225 2t168.5 13t118.5 34.5t75.5 66.5t40.5 108.5t12 160.5q0 128 -15 204t-57 115.5t-117 51.5t-195 12h-512q-132 0 -214 -11.5t-130 -32.5t-70 -50.5t-34 -65.5h-192v800h1664v-160h-1472v-480q1 2 8.5 14.5t26 30.5t50 38t81 37
t119 28.5t163.5 11.5h512z" />
    <glyph glyph-name="six" unicode="6" horiz-adv-x="1984" 
d="M960 1408q-155 0 -262.5 -5t-178.5 -23.5t-111 -55.5t-59.5 -101t-24 -159.5t-4.5 -231.5q78 47 202 71.5t310 24.5h321q216 0 353 -30t214.5 -90t106.5 -150t29 -210t-29 -210t-106.5 -150t-214.5 -90t-353 -30h-321q-176 0 -296.5 21.5t-199 65t-120.5 109.5t-61.5 155
t-23 201t-3.5 248q0 144 4 259.5t27 204t73 152.5t142.5 104.5t235 60t350.5 19.5q176 0 306 -13t222.5 -39t151.5 -64t92.5 -88t46 -111t12.5 -133h-159q0 40 -5.5 77t-26.5 69t-64 58t-117.5 45t-186.5 29t-272 10zM832 768q-105 0 -184 -2.5t-135.5 -11.5t-94 -26
t-59 -45.5t-30.5 -70.5t-9 -100q0 -80 9 -139.5t30.5 -102t59 -70.5t94 -44t135.5 -22t184 -6h321q112 0 193.5 6t138 20t92 38t55 59.5t26 84t6.5 112.5t-7 112.5t-26.5 84t-54.5 59.5t-92 38t-138 20t-193 6h-321z" />
    <glyph glyph-name="seven" unicode="7" horiz-adv-x="1984" 
d="M704 0h-256l1184 1376h-1504v160h1728v-192z" />
    <glyph glyph-name="eight" unicode="8" horiz-adv-x="1984" 
d="M1121 1568q216 0 353 -27t214.5 -79.5t106.5 -130t29 -179.5q0 -57 -10 -107.5t-35.5 -92.5t-68.5 -76.5t-110 -59.5q76 -28 126 -67t78.5 -88t40 -106.5t11.5 -122.5q0 -75 -12 -138.5t-42 -115t-81.5 -91t-129.5 -66t-186.5 -40t-252.5 -13.5h-321q-216 0 -353 30.5
t-214.5 89.5t-106.5 145.5t-29 198.5q0 65 11 122.5t40 106.5t78.5 88t126.5 67q-67 25 -110.5 59.5t-68.5 76.5t-35 92.5t-10 107.5q0 102 29 179.5t106.5 130t214.5 79.5t353 27h258zM1152 128q112 0 193.5 6.5t138 21t92 37.5t55 57t26.5 79t7 103q0 56 -6.5 100.5
t-26 78t-55 57.5t-92.5 39t-138.5 22t-193.5 7h-321q-112 0 -193.5 -7t-138 -22t-92 -39t-55 -57.5t-26 -78t-6.5 -100.5q0 -58 7 -103t26.5 -79t54.5 -57t92 -37.5t138 -21t193 -6.5h321zM1152 896q157 0 251.5 11.5t145 40.5t67 78.5t16.5 125.5q0 50 -6.5 88.5t-26 67
t-55 47.5t-92.5 31t-138.5 17t-193.5 5h-257q-112 0 -193.5 -5t-138 -17t-92 -31t-55 -47.5t-26 -67t-6.5 -88.5q0 -52 7 -91t26.5 -67.5t54.5 -47.5t92 -30t138 -15.5t193 -4.5h289z" />
    <glyph glyph-name="nine" unicode="9" horiz-adv-x="1984" 
d="M1024 128q155 0 262.5 5t178.5 23.5t111 55.5t59.5 101t24 159.5t4.5 231.5q-78 -47 -202 -71.5t-310 -24.5h-321q-216 0 -353 30t-214.5 90t-106.5 150t-29 210t29 210t106.5 150t214.5 90t353 30h321q176 0 296.5 -21.5t199 -65t120.5 -109.5t61.5 -155t23 -201
t3.5 -248q0 -144 -4 -259.5t-27 -204t-73 -152.5t-142.5 -104.5t-235 -60t-350.5 -19.5q-176 0 -306 13t-222.5 39t-151.5 64t-92.5 88t-46 111t-12.5 133h159q0 -40 6 -77t26.5 -69t63.5 -58t117.5 -45t186.5 -29t272 -10zM1152 768q157 0 257 7t156.5 33t77.5 77t21 139
q0 120 -21 195t-77.5 117t-156.5 57t-257 15h-321q-112 0 -193.5 -6t-138 -20t-92 -38t-55 -59.5t-26 -84t-6.5 -112.5t7 -112.5t26.5 -84t54.5 -59.5t92 -38t138 -20t193 -6h321z" />
    <glyph glyph-name="colon" unicode=":" 
d="M320 768h-192v192h192v-192zM320 192h-192v192h192v-192z" />
    <glyph glyph-name="semicolon" unicode=";" 
d="M128 512h192l-128 -384h-128zM320 768h-192v192h192v-192z" />
    <glyph glyph-name="less" unicode="&#x3c;" horiz-adv-x="1152" 
d="M1024 1472v-256l-752 -384l752 -384v-256l-896 544v192z" />
    <glyph glyph-name="equal" unicode="=" horiz-adv-x="1472" 
d="M128 1024h1216v-160h-1216v160zM128 480h1216v-160h-1216v160z" />
    <glyph glyph-name="greater" unicode="&#x3e;" horiz-adv-x="1152" 
d="M1024 928v-192l-896 -544v256l752 384l-752 384v256z" />
    <glyph glyph-name="question" unicode="?" horiz-adv-x="1856" 
d="M704 321v66q0 60 2.5 121.5t16.5 118t45 105.5t88 85.5t144.5 57.5t215.5 21q72 0 131 8t100.5 34.5t64.5 77t23 136.5q0 94 -26 146t-85.5 76.5t-157.5 29t-242 4.5q-176 0 -296.5 -4.5t-199 -16t-120.5 -31.5t-61.5 -52t-23 -76.5t-3.5 -105.5h-192q0 112 26.5 188
t78 125.5t127.5 76.5t175.5 39.5t222 14.5t266.5 2q112 0 208 -4t174 -18t138 -41t101 -73t62 -114.5t21 -164.5q0 -89 -25 -165.5t-79 -132.5t-139 -87.5t-205 -31.5q-96 0 -162 -8.5t-108.5 -28t-65.5 -51t-33.5 -77.5t-12.5 -108t-2 -142h-192zM896 0h-192v192h192v-192z
" />
    <glyph glyph-name="at" unicode="@" horiz-adv-x="2240" 
d="M1117 288q107 0 181 7.5t119.5 36t66 85.5t20.5 156q0 101 -20.5 159t-66 87.5t-119.5 37t-181 7.5q-95 0 -163 -3.5t-113.5 -14t-72.5 -30.5t-41.5 -52t-18.5 -78t-4 -110t4 -110t18.5 -78t41.5 -52t72.5 -30.5t113.5 -14t163 -3.5zM2112 480q0 -96 -12 -163t-47 -109
t-97.5 -61t-164.5 -19q-73 0 -117 19.5t-68 48t-31.5 62t-7.5 62.5q-25 -54 -81 -96q-24 -18 -57.5 -35.5t-79 -31t-103 -21.5t-129.5 -8q-127 0 -221.5 9.5t-161.5 30.5t-110 55t-68 84t-34.5 116.5t-9.5 152.5t9.5 152.5t34.5 116.5t68 84t110 55t161.5 30.5t221.5 9.5
q62 0 111.5 -7t88.5 -18t68 -25.5t50 -29.5q48 -35 69 -80v128h192v-512q0 -62 3 -99.5t12.5 -58t28.5 -27.5t51 -7q42 0 67.5 7t39 27.5t18 58t4.5 99.5v288q0 96 -12.5 166.5t-44.5 120.5t-87.5 81t-140.5 49t-204 24.5t-279 6.5q-176 0 -306 -5t-222.5 -25.5
t-151.5 -61.5t-92.5 -112t-46 -177.5t-12.5 -258.5q0 -144 13 -247.5t46.5 -174.5t92.5 -114t151 -66t222 -30.5t945 -7.5v-160h-639q-224 0 -387 21.5t-276.5 65t-184.5 109.5t-110 155t-52.5 201t-13.5 248q0 160 13.5 281.5t52.5 210.5t110 148t184.5 94.5t276.5 50.5
t387 15q192 0 338 -14t252.5 -44t177.5 -78t113.5 -115.5t78.5 -644.5z" />
    <glyph glyph-name="A" unicode="A" horiz-adv-x="2176" 
d="M1696 352h-1216l-192 -352h-224l896 1536h256l896 -1536h-224zM1600 512l-512 896l-512 -896h1024z" />
    <glyph glyph-name="B" unicode="B" horiz-adv-x="2112" 
d="M192 0v1536h1281q144 0 232 -23.5t135.5 -69t63.5 -113.5t16 -156q0 -64 -11 -113t-29 -85t-41 -60.5t-47 -40.5q-56 -38 -128 -43q90 -5 160 -44q30 -17 58.5 -42.5t51 -63t36.5 -88t14 -116.5q0 -80 -7.5 -146.5t-30.5 -119.5t-66 -93t-114.5 -66.5t-175 -39.5
t-247.5 -13h-1151zM1279 160q112 0 194 3.5t139 15t92 33t54.5 57t26.5 86.5t7 123q0 56 -7 97.5t-26.5 70t-54.5 46t-92 27.5t-139 13.5t-194 3.5h-895v-576h895zM1279 896q98 0 169 4t121 15t81 30.5t48.5 50.5t23.5 74.5t6 103.5q0 64 -14 104t-50 61.5t-97.5 29
t-157.5 7.5h-1025v-480h895z" />
    <glyph glyph-name="C" unicode="C" horiz-adv-x="2111" 
d="M1791 1056q0 120 -26 190t-86 106t-157.5 46t-241.5 10h-449q-128 0 -215.5 -7.5t-144.5 -30.5t-88 -66t-45 -114t-16 -174.5t-2 -247.5t2.5 -247.5t16.5 -174.5t44.5 -114t87.5 -66t144.5 -30.5t215.5 -7.5h449q112 0 193 6t138 22t92 44t54.5 70.5t26.5 102t7 139.5
h192q0 -96 -12 -173.5t-42.5 -138t-81.5 -104.5t-129 -72.5t-186 -42t-252 -13.5h-449q-176 0 -296.5 21.5t-198.5 65t-120.5 109.5t-62 155t-22.5 201t-3 248t3 248t22.5 201t62 155t120.5 109.5t198.5 65t296.5 21.5h449q144 0 252 -13.5t186 -41t129 -69.5t81.5 -99
t42.5 -129t12 -160h-192z" />
    <glyph glyph-name="D" unicode="D" horiz-adv-x="2176" 
d="M1343 160q127 0 215 7t145 28.5t88 62.5t45.5 108.5t17 166t2.5 235.5t-2.5 235.5t-17 166t-45.5 108.5t-88 62.5t-144.5 28.5t-215.5 7h-959v-1216h959zM192 0v1536h1151q176 0 296.5 -20.5t199 -62.5t121 -105t62 -148.5t23 -193t3.5 -238.5t-3.5 -238.5t-23 -193
t-62 -148.5t-121 -105t-199 -62.5t-296.5 -20.5h-1151z" />
    <glyph glyph-name="E" unicode="E" horiz-adv-x="1792" 
d="M192 0v1536h1536v-160h-1344v-512h1280v-160h-1280v-544h1344v-160h-1536z" />
    <glyph glyph-name="F" unicode="F" horiz-adv-x="1728" 
d="M192 0v1536h1472v-160h-1280v-512h1216v-160h-1216v-704h-192z" />
    <glyph glyph-name="G" unicode="G" horiz-adv-x="2177" 
d="M1857 1056q0 120 -26 190t-86 106t-158 46t-242 10h-514q-128 0 -215.5 -7.5t-144.5 -30.5t-88 -66t-45 -114t-16 -174.5t-2 -247.5t2.5 -247.5t16.5 -174.5t44.5 -114t87.5 -66t144.5 -30.5t215.5 -7.5h515q112 0 193 6t138 22t92 44t54.5 70.5t26.5 102t7 139.5v96
h-770v160h962v-256q0 -96 -12 -173.5t-42.5 -138t-81.5 -104.5t-129 -72.5t-186 -42t-252 -13.5h-515q-176 0 -296.5 21.5t-198.5 65t-120.5 109.5t-62 155t-22.5 201t-3 248t3 248t22.5 201t62 155t120.5 109.5t198.5 65t296.5 21.5h514q144 0 252 -13.5t186 -41
t129.5 -69.5t82 -99t42.5 -129t12 -160h-192z" />
    <glyph glyph-name="H" unicode="H" horiz-adv-x="2176" 
d="M1792 1536h192v-1536h-192v704h-1408v-704h-192v1536h192v-672h1408v672z" />
    <glyph glyph-name="I" unicode="I" horiz-adv-x="576" 
d="M192 1536h192v-1536h-192v1536z" />
    <glyph glyph-name="J" unicode="J" horiz-adv-x="1715" 
d="M576 0q-144 0 -232 26t-136 86t-64 158t-16 242v64h192v-64q0 -120 13 -190.5t43 -107.5t79 -47.5t121 -10.5h448q96 0 158 17.5t98 53.5t50 91t14 130v1088h192v-1088q0 -120 -26 -205t-86 -139t-158 -79t-242 -25h-448z" />
    <glyph glyph-name="K" unicode="K" horiz-adv-x="2016" 
d="M1632 1536h288l-1088 -752l1120 -784h-288l-1024 704h-256v-704h-192v1536h192v-672h256z" />
    <glyph glyph-name="L" unicode="L" horiz-adv-x="1664" 
d="M192 0v1536h192v-1376h1216v-160h-1408z" />
    <glyph glyph-name="M" unicode="M" horiz-adv-x="2800" 
d="M384 1408v-1408h-192v1536h320l895 -1344l895 1344h306v-1536h-192v1387l-912 -1387h-194z" />
    <glyph glyph-name="N" unicode="N" horiz-adv-x="2321" 
d="M384 0h-192v1536h337l1408 -1344v1344h192v-1536h-256l-1489 1376v-1376z" />
    <glyph glyph-name="O" unicode="O" horiz-adv-x="2240" 
d="M1409 1568q176 0 296.5 -21.5t198.5 -65t120 -109.5t61.5 -155t23 -201t3.5 -248t-3.5 -248t-23 -201t-61.5 -155t-120 -109.5t-198.5 -65t-296.5 -21.5h-578q-176 0 -296.5 21.5t-198.5 65t-120.5 109.5t-62 155t-22.5 201t-3 248t3 248t22.5 201t62 155t120.5 109.5
t198.5 65t296.5 21.5h578zM1409 128q127 0 214.5 7.5t144.5 30.5t88 66t45 114t16.5 174.5t2.5 247.5t-2.5 247.5t-16.5 174.5t-45 114t-87.5 66t-144 30.5t-215.5 7.5h-578q-128 0 -215.5 -7.5t-144.5 -30.5t-88 -66t-45 -114t-16 -174.5t-2 -247.5t2.5 -247.5t16.5 -174.5
t44.5 -114t87.5 -66t144.5 -30.5t215.5 -7.5h578z" />
    <glyph glyph-name="P" unicode="P" horiz-adv-x="1984" 
d="M192 1536h1154q143 0 241.5 -12.5t162.5 -37.5t98.5 -62t50.5 -87t18.5 -112t2.5 -137q0 -78 -3.5 -144t-23 -119.5t-62 -94t-121 -67.5t-199 -41t-296.5 -14h-831v-608h-192v1536zM384 768h831q128 0 215.5 4.5t144.5 16.5t88 34t45.5 58t17 86.5t2.5 120.5
q0 65 -2.5 112t-17 79t-45.5 51t-88 29.5t-144.5 13.5t-215.5 3h-831v-608z" />
    <glyph glyph-name="Q" unicode="Q" horiz-adv-x="2352" 
d="M832 1568q-176 0 -296.5 -21.5t-198.5 -65t-120.5 -109.5t-62 -155t-22.5 -201t-3 -248t3 -248t22.5 -201t62 -155t120.5 -109.5t198.5 -65t296.5 -21.5h578q176 0 296.5 21.5t198.5 65t120 109.5q2 3 3 6l116 -74l80 128l-139 89q1 3 1 6q20 89 23.5 201t3.5 248
t-3.5 248t-23 201t-61.5 155t-120 109.5t-198.5 65t-296.5 21.5h-578zM832 128q-128 0 -215.5 7.5t-144.5 30.5t-87.5 66t-44.5 114t-16.5 174.5t-2.5 247.5t2 247.5t16 174.5t45 114t88 66t144.5 30.5t215.5 7.5h578q128 0 215.5 -7.5t144 -30.5t87.5 -66t45 -114
t16.5 -174.5t2.5 -247.5t-3 -248q-1 -52 -5 -96l-585 376l-81 -129l630 -404q-9 -20 -20 -35q-31 -43 -88 -66t-144.5 -30.5t-214.5 -7.5h-578z" />
    <glyph glyph-name="R" unicode="R" horiz-adv-x="2112" 
d="M1952 0h-192v288q0 70 -2.5 120.5t-17 86.5t-45.5 58t-88 34t-144.5 16.5t-215.5 4.5h-863v-608h-192v1536h1087q176 0 296.5 -12.5t199 -37.5t121 -62t62 -87t23 -112t3.5 -137q0 -96 -13.5 -168.5t-45.5 -123.5t-85 -81.5t-133 -42.5q80 -12 128 -42t74 -78t34.5 -114
t8.5 -150v-288zM384 768h895q128 0 215.5 4.5t144.5 16.5t88 34t45.5 58t17 86.5t2.5 120.5q0 65 -2.5 112t-17 79t-45.5 51t-88 29.5t-144.5 13.5t-215.5 3h-895v-608z" />
    <glyph glyph-name="S" unicode="S" horiz-adv-x="1984" 
d="M1160 864q158 0 271 -13t190.5 -38.5t123.5 -63.5t71 -86.5t32.5 -108.5t7.5 -130t-12.5 -131.5t-44.5 -112.5t-87 -91t-140 -68t-204.5 -42.5t-279.5 -14.5h-256q-144 0 -252 11t-186 33.5t-129 57t-81.5 81t-42.5 106t-12 131.5h192q0 -90 26 -141t86 -76.5t157.5 -32
t241.5 -6.5h256q168 0 279 16t177 51t93 91.5t27 137.5t-18.5 135t-73 86t-153.5 45.5t-259 13.5h-264q-176 0 -301.5 13t-210.5 37.5t-136 61t-77.5 83.5t-34.5 104.5t-8 124.5q0 70 12.5 130t46.5 108.5t93 86.5t151.5 63.5t222.5 38.5t306 13h192q144 0 252 -10.5
t186 -33t129.5 -56t82 -80t42.5 -105.5t12 -131h-192q0 90 -26 141t-86 76.5t-158 32t-242 6.5h-192q-192 0 -316 -13.5t-196 -45.5t-100 -86t-28 -135q0 -50 7 -89t28.5 -68.5t60.5 -49.5t103 -33t156.5 -18.5t220.5 -5.5h264z" />
    <glyph glyph-name="T" unicode="T" horiz-adv-x="1984" 
d="M1856 1536v-160h-768v-1376h-192v1376h-768v160h1728z" />
    <glyph glyph-name="U" unicode="U" horiz-adv-x="2113" 
d="M1985 1536v-768q0 -136 -3.5 -248t-23 -201t-61.5 -155t-120 -109.5t-198.5 -65t-296.5 -21.5h-450q-176 0 -296.5 21.5t-198.5 65t-120.5 109.5t-62 155t-22.5 201t-3 248v768h192v-768q0 -144 2.5 -247.5t16.5 -174.5t44.5 -114t87.5 -66t144.5 -30.5t215.5 -7.5h450
q127 0 215 7.5t144.5 30.5t87.5 66t45.5 114t16.5 174.5t2 247.5l-1 768h193z" />
    <glyph glyph-name="V" unicode="V" horiz-adv-x="2048" 
d="M1760 1536h224l-832 -1536h-256l-832 1536h224l736 -1408z" />
    <glyph glyph-name="W" unicode="W" horiz-adv-x="3328" 
d="M1584 1536h224l624 -1376l608 1376h224l-704 -1536h-256l-608 1344l-608 -1344h-256l-768 1536h224l672 -1376z" />
    <glyph glyph-name="X" unicode="X" horiz-adv-x="2176" 
d="M1209 810l903 -810h-272l-765 686l-739 -686h-272l873 810l-809 726h272l670 -602l649 602h272z" />
    <glyph glyph-name="Y" unicode="Y" horiz-adv-x="2200" 
d="M128 1536h256l704 -752l704 752h256l-864 -896v-640h-192v640z" />
    <glyph glyph-name="Z" unicode="Z" horiz-adv-x="2046" 
d="M128 0v160l1486 1216h-1422v160h1696v-160l-1494 -1216h1526v-160h-1792z" />
    <glyph glyph-name="bracketleft" unicode="[" horiz-adv-x="832" 
d="M128 1536h576v-160h-384v-1216h384v-160h-576v1536z" />
    <glyph glyph-name="backslash" unicode="\" horiz-adv-x="1023" 
d="M960 0h-192l-704 1536h192z" />
    <glyph glyph-name="bracketright" unicode="]" horiz-adv-x="832" 
d="M704 0h-576v160h384v1216h-384v160h576v-1536z" />
    <glyph glyph-name="asciicircum" unicode="^" horiz-adv-x="1088" 
d="M544 1408l-352 -512l-128 96l384 544h192l384 -544l-128 -96z" />
    <glyph glyph-name="underscore" unicode="_" horiz-adv-x="1088" 
d="M0 0h1088v-160h-1088v160z" />
    <glyph glyph-name="grave" unicode="`" horiz-adv-x="960" 
d="M128 1664l128 192l576 -480l-64 -96z" />
    <glyph glyph-name="a" unicode="a" horiz-adv-x="1595" 
d="M1275 158q-3 -12 -45 -60q-30 -36 -80 -63.5t-133.5 -43t-219.5 -15.5q-181 0 -309 18.5t-209 57t-118.5 98.5t-37.5 143q0 87 20.5 147.5t60 101.5t95.5 64t127.5 35t156.5 15t181 3q137 0 229 -11.5t150.5 -29t88.5 -37.5t43 -37q0 112 -9.5 191t-31 132t-55.5 84.5
t-83.5 47.5t-115.5 20.5t-151 4.5q-132 0 -219 -6.5t-138 -25.5t-72 -52.5t-21 -87.5h-192q0 91 32.5 154t108 102.5t198.5 57.5t303 18q176 0 298 -29t197.5 -102t109 -196.5t33.5 -312.5v-544h-192v158zM829 128q127 0 212.5 12t137.5 36t74 60t22 84t-25.5 81.5t-85 54.5
t-157.5 30.5t-242 9.5t-232.5 -5t-136.5 -23t-64.5 -53t-16.5 -95t17.5 -97.5t71.5 -58.5t155.5 -28.5t269.5 -7.5z" />
    <glyph glyph-name="b" unicode="b" horiz-adv-x="1632" 
d="M832 -22q-138 0 -229.5 18.5t-149.5 40t-88 68t-45 72.5v-177h-192v1536h192v-493q13 21 43.5 45.5t89 46t150.5 35.5t229 14q192 0 326 -29t218 -99t122 -187.5t38 -294.5q0 -174 -38 -289t-122 -183t-218 -96t-326 -28zM832 128q112 0 193.5 7t138.5 25t92.5 50
t55 81.5t26 119t6.5 163.5t-6.5 164t-26 119.5t-55 82t-92.5 51t-138.5 25.5t-193.5 7q-96 0 -171 -4.5t-132 -20.5t-96.5 -46t-64.5 -80t-36.5 -124t-11.5 -177q0 -102 11.5 -174.5t36.5 -121.5t64.5 -78.5t96.5 -44.5t132 -19.5t171 -4.5z" />
    <glyph glyph-name="c" unicode="c" horiz-adv-x="1569" 
d="M96 574q0 120 12 212t42.5 160t82 113.5t130 73.5t186.5 40t252 12q192 0 316 -23.5t196 -72t100 -123t28 -177.5h-192q0 37 -2 69t-14.5 58t-39.5 46.5t-77 34.5t-126.5 21t-188.5 7q-128 0 -215.5 -9t-144.5 -29.5t-88 -55t-45 -84.5t-16.5 -117.5t-2.5 -155.5
q0 -86 2.5 -152.5t16.5 -116t45 -83.5t88 -55t144.5 -30t215.5 -9q112 0 188.5 8t126.5 23t77 37t39.5 50.5t14.5 63t2 74.5h192q0 -105 -28 -182t-100 -126.5t-196 -73.5t-316 -24q-144 0 -252 12t-186.5 39.5t-130 72.5t-82 111t-42.5 155.5t-12 205.5z" />
    <glyph glyph-name="d" unicode="d" horiz-adv-x="1632" 
d="M800 -22q-192 0 -326 28t-218 96t-122 183t-38 289q0 180 38 298t122 187t218 97t326 28q136 0 228 -14t150.5 -35t89 -45.5t44.5 -45.5v492h192v-1536h-192v171l-48 -57q-42 -41 -93 -66t-143 -47.5t-228 -22.5zM800 128q96 0 171 4.5t132 19.5t96.5 44.5t64.5 78.5
t36.5 121.5t11.5 174.5q0 106 -11.5 180.5t-36.5 125t-64.5 79.5t-96.5 44.5t-132 19.5t-171 4q-112 0 -193.5 -7t-138.5 -25t-92.5 -50t-55 -82t-26 -120.5t-6.5 -165.5q0 -94 6.5 -163.5t26 -119t55 -81.5t92.5 -50t138.5 -25t193.5 -7z" />
    <glyph glyph-name="e" unicode="e" horiz-adv-x="1568" 
d="M800 -22q-192 0 -326 26.5t-218 91.5t-122 174t-38 274q0 189 38 312.5t122 196.5t218 102t326 29q137 0 237.5 -20t172 -58t116 -92t70 -113.5t35 -139.5t9.5 -169l-16 -64h-1136q0 -132 26 -216.5t86 -123.5t158 -49.5t242 -10.5q132 0 218.5 7.5t137.5 28.5t71.5 58.5
t20.5 97.5h192q0 -93 -32.5 -158.5t-107.5 -106t-197.5 -59t-302.5 -18.5zM800 1024q-96 0 -171.5 -4t-132 -17.5t-96.5 -39t-64.5 -60t-36 -97t-11.5 -150.5h960q0 117 -25 183.5t-79 109.5t-139 59t-205 16z" />
    <glyph glyph-name="f" unicode="f" horiz-adv-x="1056" 
d="M512 1006v-1006h-192v1006h-192v146h192v10q0 117 26 195t86 125t158.5 66.5t242.5 19.5h223v-160h-224q-91 0 -152 -4t-98.5 -27t-53.5 -73t-16 -142v-10h544v-146h-544z" />
    <glyph glyph-name="g" unicode="g" horiz-adv-x="1632" 
d="M800 1024q-112 0 -193.5 -7t-138.5 -25t-92.5 -50t-55 -82t-26 -120.5t-6.5 -165.5q0 -94 6.5 -163.5t26 -119t55 -81.5t92.5 -50t138.5 -25t193.5 -7q96 0 171 4.5t132 20t96.5 45t64.5 79t36.5 123t11.5 177.5t-11.5 178t-36.5 123.5t-64.5 78.5t-96.5 44t-132 19
t-171 4zM1504 160q0 -168 -38 -279t-122 -179.5t-218 -95.5t-326 -27q-180 0 -302.5 16t-197.5 50.5t-107.5 89t-32.5 132.5h192q0 -39 20.5 -64t71.5 -39t137.5 -19.5t218.5 -5.5q144 0 242 10.5t158 49.5t86 118t26 211q-14 -24 -44.5 -52t-89 -52t-150.5 -40t-228 -16
q-192 0 -326 28.5t-218 97.5t-122 186t-38 294q0 180 38 298t122 187t218 97t326 28q136 0 228 -14t150.5 -35t89 -45.5t44.5 -44.5v107h192v-992z" />
    <glyph glyph-name="h" unicode="h" horiz-adv-x="1601" 
d="M1280 0v650q0 104 -16 175.5t-64 115.5t-136 63.5t-232 19.5q-156 0 -255.5 -22.5t-156.5 -63t-78.5 -97.5t-21.5 -127v-714h-192v1536h192v-566q20 47 57 81t85.5 58t104.5 38.5t113.5 22.5t113 11t102.5 3q128 0 220.5 -15.5t157 -46t103.5 -75.5t60.5 -104.5
t28.5 -133t7 -159.5l-1 -650h-192z" />
    <glyph glyph-name="i" unicode="i" horiz-adv-x="576" 
d="M192 1152h192v-1152h-192v1152zM384 1344h-192v192h192v-192z" />
    <glyph glyph-name="j" unicode="j" horiz-adv-x="672" 
d="M480 -64q0 -74 -10 -133t-46 -100.5t-106 -64t-190 -22.5v160q48 0 79 7t49 25t25 49t7 79v1216h192v-1216zM480 1344h-192v192h192v-192z" />
    <glyph glyph-name="k" unicode="k" horiz-adv-x="1408" 
d="M128 1536h192v-840h64l704 456h288l-816 -536l848 -616h-288l-736 552h-64v-552h-192v1536z" />
    <glyph glyph-name="l" unicode="l" horiz-adv-x="576" 
d="M192 1536h192v-1536h-192v1536z" />
    <glyph glyph-name="m" unicode="m" horiz-adv-x="2496" 
d="M1344 0h-192v650q0 104 -13.5 175.5t-55 115.5t-117 63.5t-198.5 19.5q-135 0 -222 -22.5t-137 -63t-69.5 -97.5t-19.5 -127v-714h-192v1152h192v-182q1 3 9 20t28.5 40.5t56 50.5t92 50t136.5 38t190 15q108 0 187.5 -13.5t136 -40t92 -66t56.5 -90.5q17 27 53 63
t100.5 69t161.5 55.5t237 22.5q115 0 197.5 -15.5t139.5 -46t91.5 -75.5t53 -104.5t24.5 -133t6 -159.5v-650h-192v650q0 104 -13.5 175.5t-55 115.5t-117 63.5t-198.5 19.5q-135 0 -222 -22.5t-137 -63t-69.5 -97.5t-19.5 -127v-714z" />
    <glyph glyph-name="n" unicode="n" horiz-adv-x="1601" 
d="M1280 0v640q0 107 -16 180.5t-64 118.5t-136 65t-232 20q-156 0 -255.5 -23t-156.5 -65t-78.5 -101t-21.5 -131v-704h-192v1152h192v-192q21 49 60 84.5t88 60.5t106 40.5t114 24t110.5 11.5t97.5 3q128 0 220.5 -16t157 -47t103.5 -77t60.5 -106.5t28.5 -135t7 -162.5
l-1 -640h-192z" />
    <glyph glyph-name="o" unicode="o" horiz-adv-x="1600" 
d="M96 584q0 177 38 293t122 184t218 95.5t326 27.5t326 -27.5t218 -95.5t122 -184t38 -293t-38 -294t-122 -186t-218 -97.5t-326 -28.5t-326 28.5t-218 97.5t-122 186t-38 294zM288 584q0 -96 7 -167t26.5 -122t54.5 -83t92 -51t138.5 -26t193.5 -7q96 0 171.5 4.5
t132 20.5t96.5 45.5t64.5 80.5t36 125.5t11.5 179.5q0 103 -11.5 175.5t-36 121.5t-64.5 77.5t-96.5 43t-132 18.5t-171.5 4t-171.5 -4t-132 -18.5t-96.5 -43t-64.5 -77.5t-36 -121.5t-11.5 -175.5z" />
    <glyph glyph-name="p" unicode="p" horiz-adv-x="1632" 
d="M832 1184q192 0 326 -29t218 -99t122 -187.5t38 -294.5q0 -174 -38 -289t-122 -183t-218 -96t-326 -28q-137 0 -229 15t-150.5 37.5t-89 48.5t-43.5 49v-512h-192v1536h192v-107q13 20 43.5 44.5t89 45.5t150.5 35t229 14zM832 1024q-96 0 -171 -5t-132 -20.5t-96.5 -45
t-64.5 -79t-36.5 -122.5t-11.5 -175q0 -103 11.5 -177t36.5 -123.5t64.5 -79t96.5 -45t132 -20t171 -4.5q112 0 193.5 7t138.5 25t92.5 50t55 81.5t26 119t6.5 163.5t-6.5 164t-26 120t-55 82t-92.5 51t-138.5 26t-193.5 7z" />
    <glyph glyph-name="q" unicode="q" horiz-adv-x="1632" 
d="M800 1184q136 0 228 -15t150.5 -37.5t89 -48.5t44.5 -48v117h192v-1536h-192v512q-14 -23 -44.5 -49t-89 -48.5t-150.5 -37.5t-228 -15q-192 0 -326 28.5t-218 97.5t-122 186t-38 294t38 293t122 184t218 95.5t326 27.5zM800 1024q-112 0 -193.5 -6t-138.5 -23t-92.5 -47
t-55 -79t-26 -119t-6.5 -166t6.5 -167t26 -122t55 -83t92.5 -51t138.5 -26t193.5 -7q96 0 171 4.5t132 20.5t96.5 46t64.5 81t36.5 126t11.5 181q0 104 -11.5 177t-36.5 121.5t-64.5 76.5t-96.5 41.5t-132 17t-171 3.5z" />
    <glyph glyph-name="r" unicode="r" horiz-adv-x="1280" 
d="M1120 777q0 72 -10.5 119.5t-49.5 76t-115.5 40t-208.5 11.5q-129 0 -210 -22.5t-127 -63.5t-62.5 -98t-16.5 -127v-713h-192v1152h192v-183q10 31 37 68.5t82 70t142.5 54.5t218.5 22q150 0 244 -26.5t146.5 -78t71 -127.5t18.5 -175h-160z" />
    <glyph glyph-name="s" unicode="s" horiz-adv-x="1600" 
d="M800 525q112 0 191 -3.5t132.5 -12t84.5 -21.5t47 -38.5t20.5 -51t4.5 -58.5q0 -36 -4.5 -65.5t-21.5 -53.5t-50 -41t-90 -29t-141.5 -17.5t-204.5 -5.5q-132 0 -218.5 7.5t-137.5 28.5t-71.5 58.5t-20.5 97.5h-192q0 -91 32.5 -154t107.5 -102.5t197.5 -57.5t302.5 -18
q144 0 252.5 8.5t186.5 26t129.5 46t81.5 68t42 91t12 116.5t-12 114.5t-41.5 86t-78.5 67.5t-124 46t-177.5 21t-238.5 6q-112 0 -191 0.5t-132.5 6t-84.5 16.5t-47 32t-20.5 53.5t-4.5 66.5q0 58 26 91t86 49t158 20t242 4q132 0 218.5 -7.5t137.5 -27t71.5 -53.5
t20.5 -88h192q0 87 -29 150t-101.5 104.5t-196 61.5t-313.5 20q-192 0 -326 -17t-218 -55.5t-122 -100t-38 -151.5q0 -66 12 -122.5t41 -95t78.5 -61.5t124 -35.5t177.5 -16.5t239 -4z" />
    <glyph glyph-name="s" unicode="&#x17f;" horiz-adv-x="1600" 
d="M800 525q112 0 191 -3.5t132.5 -12t84.5 -21.5t47 -38.5t20.5 -51t4.5 -58.5q0 -36 -4.5 -65.5t-21.5 -53.5t-50 -41t-90 -29t-141.5 -17.5t-204.5 -5.5q-132 0 -218.5 7.5t-137.5 28.5t-71.5 58.5t-20.5 97.5h-192q0 -91 32.5 -154t107.5 -102.5t197.5 -57.5t302.5 -18
q144 0 252.5 8.5t186.5 26t129.5 46t81.5 68t42 91t12 116.5t-12 114.5t-41.5 86t-78.5 67.5t-124 46t-177.5 21t-238.5 6q-112 0 -191 0.5t-132.5 6t-84.5 16.5t-47 32t-20.5 53.5t-4.5 66.5q0 58 26 91t86 49t158 20t242 4q132 0 218.5 -7.5t137.5 -27t71.5 -53.5
t20.5 -88h192q0 87 -29 150t-101.5 104.5t-196 61.5t-313.5 20q-192 0 -326 -17t-218 -55.5t-122 -100t-38 -151.5q0 -66 12 -122.5t41 -95t78.5 -61.5t124 -35.5t177.5 -16.5t239 -4z" />
    <glyph glyph-name="t" unicode="t" horiz-adv-x="1376" 
d="M1248 512q0 -147 -24 -245.5t-80.5 -157.5t-148.5 -84t-227 -25q-131 0 -220 20t-144 68t-79 128t-24 200v578h-237v158h237v315h192v-315h723v-158h-723v-578q0 -96 14.5 -148t46.5 -76t84.5 -28t128.5 -4q60 0 107.5 2t83 12.5t60.5 32t40.5 60.5t22.5 98.5t7 146.5
h160z" />
    <glyph glyph-name="u" unicode="u" horiz-adv-x="1601" 
d="M321 1152v-640q0 -107 16 -180.5t64 -118.5t136 -65t232 -20q156 0 255.5 23t156.5 65t78.5 101t21.5 131v704h192v-1152h-192v192q-14 -31 -47 -68.5t-99 -69.5t-170.5 -54t-259.5 -22q-129 0 -221.5 15.5t-157 46t-103.5 75.5t-60 104.5t-28 132.5t-7 160l1 640h192z
" />
    <glyph glyph-name="v" unicode="v" horiz-adv-x="1600" 
d="M672 0h256l608 1152h-224l-512 -1024l-512 1024h-224z" />
    <glyph glyph-name="w" unicode="w" horiz-adv-x="2240" 
d="M2176 1152h-224l-356 -1008l-380 1008h-192l-384 -1008l-352 1008h-224l448 -1152h256l352 944l352 -944h256z" />
    <glyph glyph-name="x" unicode="x" horiz-adv-x="1628" 
d="M1276 0h256l-590 587l562 565h-256l-429 -445l-439 445h-256l562 -566l-590 -586h256l462 482z" />
    <glyph glyph-name="y" unicode="y" horiz-adv-x="1568" 
d="M672 0h64q-16 -32 -28.5 -61t-30.5 -54t-45 -45t-71.5 -34.5t-110.5 -22t-162 -7.5v-160q112 0 194 10.5t141.5 30t100.5 47.5t71 63.5t53.5 78t47.5 90.5l32 64l576 1152h-224l-480 -1024l-512 1024h-224z" />
    <glyph glyph-name="z" unicode="z" horiz-adv-x="1472" 
d="M192 1152v-141h912l-976 -851v-160h1216v143h-962l962 849v160h-1152z" />
    <glyph glyph-name="braceleft" unicode="{" horiz-adv-x="960" 
d="M320 536q0 -66 2.5 -135.5t16.5 -136.5t45 -126.5t88 -104.5t144.5 -71t215.5 -26v160q-81 0 -136 13.5t-90.5 39t-54.5 63.5t-27.5 87t-10 108.5t-1.5 128.5q0 29 -2 60t-14 61t-38 58.5t-74 52.5q48 24 74 52.5t38 58.5t14 61t2 60q0 69 1 128.5t10 108.5t28 87
t54.5 63.5t90.5 39t136 13.5v160q-128 0 -215.5 -26t-144.5 -71t-88 -104.5t-45 -126.5t-16.5 -137t-2.5 -135q0 -36 -3 -64.5t-21 -48t-57 -29.5t-111 -10v-160q72 0 111 -9.5t57 -28.5t21 -47.5t3 -66.5z" />
    <glyph glyph-name="bar" unicode="|" 
d="M128 -128h192v1728h-192v-1728z" />
    <glyph glyph-name="braceright" unicode="}" horiz-adv-x="960" 
d="M640 536q0 38 3 66.5t21 47.5t57 28.5t111 9.5v160q-72 0 -111 10t-57 29.5t-21 48t-3 64.5q0 65 -3 135t-16.5 137t-44.5 126.5t-88 104.5t-144.5 71t-215.5 26v-160q80 0 135.5 -13.5t91 -39t54.5 -63.5t27.5 -87t10 -108.5t1.5 -128.5q0 -29 2 -60t14 -61t38 -58.5
t74 -52.5q-48 -24 -74 -52.5t-38 -58.5t-14 -61t-2 -60q0 -69 -1.5 -128.5t-10 -108.5t-27.5 -87t-54.5 -63.5t-91 -39t-135.5 -13.5v-160q128 0 215.5 26t144.5 71t88 104.5t45 126.5t16.5 137t2.5 135z" />
    <glyph glyph-name="asciitilde" unicode="~" horiz-adv-x="1152" 
d="M384 928q45 0 83.5 -15t81.5 -33t95 -33t124 -15q36 0 80.5 12.5t83.5 42t65.5 78.5t26.5 123h-192q0 -30 -4 -49t-12 -29.5t-20 -14t-28 -3.5q-45 0 -83.5 15t-81.5 33t-95 33t-124 15q-36 0 -80.5 -11.5t-83.5 -40t-65.5 -78.5t-26.5 -126h192q0 31 4 50t12 29t20 13.5
t28 3.5z" />
    <glyph glyph-name="uni00A0" unicode="&#xa0;" horiz-adv-x="0" 
 />
    <glyph glyph-name="exclamdown" unicode="&#xa1;" 
d="M128 0.09375h192l-48 1087.93h-96zM320 1536h-192v-191.988h192v191.988z" />
    <glyph glyph-name="cent" unicode="&#xa2;" horiz-adv-x="1601" 
d="M128 544q0 -112 12 -198t42.5 -150t82 -108t130 -70.5t186.5 -38t252 -11.5q192 0 316 24.5t196 75.5t100 129.5t28 186.5h-192q0 -40 -2 -74.5t-14.5 -63t-39.5 -50.5t-77 -37t-126.5 -23t-188.5 -8q-128 0 -215.5 8.5t-144.5 28t-88 51.5t-45 78t-16.5 108t-2.5 142
t2.5 142t16.5 108t45 78t88 51.5t144.5 28t215.5 8.5q112 0 188.5 -8t126.5 -23t77 -37t39.5 -50.5t14.5 -63t2 -74.5h192q0 108 -28 186.5t-100 129.5t-196 75.5t-316 24.5q-144 0 -252 -11.5t-186.5 -38t-130 -70.5t-82 -108t-42.5 -150t-12 -198z" />
    <glyph glyph-name="sterling" unicode="&#xa3;" horiz-adv-x="1663" 
d="M64 800h192v158q0 120 12 212t42 160t81.5 113.5t130 73.5t186.5 40t252 12q171 0 282.5 -23.5t176.5 -72t91 -123t26 -177.5h-192q0 37 -2 69t-13.5 58t-35 46.5t-66 34.5t-108 21t-159.5 7q-128 0 -215.5 -9t-144.5 -29.5t-88 -55t-45 -84.5t-16.5 -117.5t-2.5 -155.5
v-158h832v-160h-832v-480h1024v-160h-1216v640h-192v160z" />
    <glyph glyph-name="currency" unicode="&#xa4;" horiz-adv-x="1280" 
d="M640 928q-87 0 -161 -19.5t-133 -60.5l-150 129l-84 -97l144 -124q-31 -48 -47.5 -108.5t-16.5 -135.5q0 -76 16.5 -136t47.5 -108l-144 -124l84 -97l150 129q58 -42 132.5 -61t161.5 -19q86 0 160.5 19t132.5 60l151 -128l84 97l-145 124q31 48 48 108t17 136
q0 75 -16.5 135.5t-48.5 108.5l145 124l-84 97l-150 -129q-59 41 -133.5 60.5t-160.5 19.5zM640 256q-54 0 -101 13t-81.5 43t-54 79t-19.5 121t19.5 121t54 79t81.5 43t101 13t100.5 -13t81 -43t54.5 -79t20 -121t-20 -121t-54.5 -79t-81 -43t-100.5 -13z" />
    <glyph glyph-name="yen" unicode="&#xa5;" horiz-adv-x="2048" 
d="M416 416h512v224h-512v160h357l-709 736h256l704 -768l704 768h256l-710 -736h358v-160h-512v-224h512v-160h-512v-256h-192v256h-512v160z" />
    <glyph glyph-name="brokenbar" unicode="&#xa6;" 
d="M128 896h192v704h-192v-704zM128 -128h192v704h-192v-704z" />
    <glyph glyph-name="section" unicode="&#xa7;" horiz-adv-x="1504" 
d="M704 480q112 0 191 -3.5t132.5 -11t84.5 -19.5t47 -30t20.5 -41.5t4.5 -54.5q0 -33 -4.5 -59.5t-21.5 -48t-50 -37.5t-90 -26.5t-141.5 -15.5t-204.5 -5q-102 0 -169 7.5t-107 28.5t-56 58.5t-16 97.5h-192q0 -96 27.5 -163t90.5 -109t166.5 -61t255.5 -19
q144 0 252.5 8.5t186.5 26t129.5 46t81.5 68t42 91t12 116.5q0 80 -19.5 135.5t-70.5 91.5q43 60 65.5 111.5t22.5 94.5q0 50 -33.5 88t-103.5 63.5t-178.5 38.5t-258.5 13q-112 0 -191 3.5t-132.5 11t-84 19.5t-46.5 30t-20.5 41.5t-4.5 54.5q0 32 4.5 59t21.5 48.5
t50 37.5t90 26.5t141.5 15.5t204.5 5q102 0 169 -7.5t107 -28.5t56 -58.5t16 -97.5h192q0 96 -27.5 163t-90.5 109t-166.5 61t-255.5 19q-144 0 -252.5 -8.5t-186.5 -26t-129.5 -46t-81.5 -68t-42 -91t-12 -116.5q0 -81 20 -136.5t71 -92.5q-43 -52 -67.5 -99t-24.5 -89
q0 -33 7.5 -62.5t29 -53.5t61 -43.5t103.5 -32.5t156 -20t219 -7zM704 640q-120 0 -195 4t-116.5 14t-56.5 28t-15 47q0 19 9.5 43.5t21.5 55.5q74 -17 184 -24.5t265 -7.5q106 0 179.5 -4t119.5 -14t66 -28t20 -46q0 -20 -8.5 -44.5t-24.5 -56.5q-77 18 -187 25.5t-262 7.5
z" />
    <glyph glyph-name="dieresis" unicode="&#xa8;" horiz-adv-x="1088" 
d="M256 1536h-192v-192h192v192zM1024 1536h-192v-192h192v192z" />
    <glyph glyph-name="copyright" unicode="&#xa9;" horiz-adv-x="1920" 
d="M960 1664q-176 0 -306 -21.5t-222.5 -65t-151.5 -109.5t-93 -155t-46.5 -201t-12.5 -248t12.5 -248t46.5 -201t93 -155t151.5 -109.5t222.5 -65t306 -21.5t306 21.5t222.5 65t151.5 109.5t93 155t46.5 201t12.5 248t-12.5 248t-46.5 201t-93 155t-151.5 109.5t-222.5 65
t-306 21.5zM960 224q-128 0 -225 7.5t-168.5 30.5t-118.5 66t-75.5 114t-40.5 174.5t-12 247.5t12 247.5t40.5 174.5t75.5 114t118.5 66t168.5 30.5t225 7.5t225 -7.5t168.5 -30.5t118.5 -66t75.5 -114t40.5 -174.5t12 -247.5t-12 -247.5t-40.5 -174.5t-75.5 -114
t-118.5 -66t-168.5 -30.5t-225 -7.5zM448 893q0 -141 21 -234t77.5 -148.5t156 -78t256.5 -22.5q152 0 251 20.5t157.5 63t81.5 108.5t23 157h-160q0 -34 -2 -62.5t-12.5 -52.5t-32 -42.5t-61 -31.5t-99.5 -19.5t-146 -6.5q-87 0 -146.5 7t-98.5 23.5t-60 43.5t-31 65.5
t-11.5 90.5t-1.5 119t1.5 119t11.5 90.5t31 65t60 43t98.5 23.5t146.5 7q86 0 146 -6.5t99.5 -19t61 -31t32 -42.5t12.5 -53t2 -62h160q0 90 -23 156t-81.5 108.5t-157.5 63t-251 20.5q-157 0 -256.5 -22.5t-156 -78t-77.5 -148t-21 -233.5z" />
    <glyph glyph-name="ordfeminine" unicode="&#xaa;" horiz-adv-x="1600" 
d="M1280 158q-3 -12 -45 -60q-30 -36 -80 -63.5t-133.5 -43t-219.5 -15.5q-181 0 -309 18.5t-209 57t-118.5 98.5t-37.5 143q0 87 20.5 147.5t60 101.5t95.5 64t127.5 35t156.5 15t181 3q137 0 229 -11.5t150.5 -29t88.5 -37.5t43 -37q0 112 -9.5 191t-31 132t-55.5 84.5
t-83.5 47.5t-115.5 20.5t-151 4.5q-132 0 -219 -6.5t-138 -25.5t-72 -52.5t-21 -87.5h-192q0 91 32.5 154t108 102.5t198.5 57.5t303 18q176 0 298 -29t197.5 -102t109 -196.5t33.5 -312.5v-544h-192v158zM834 128q127 0 212.5 12t137.5 36t74 60t22 84t-25.5 81.5t-85 54.5
t-157.5 30.5t-242 9.5t-232.5 -5t-136.5 -23t-64.5 -53t-16.5 -95t17.5 -97.5t71.5 -58.5t155.5 -28.5t269.5 -7.5z" />
    <glyph glyph-name="guillemotleft" unicode="&#xab;" horiz-adv-x="1344" 
d="M768 256l-96 -128l-544 384v192l544 384l96 -128l-512 -352zM1216 256l-96 -128l-544 384v192l544 384l96 -128l-512 -352z" />
    <glyph glyph-name="logicalnot" unicode="&#xac;" horiz-adv-x="1216" 
d="M1088 640h-192v288h-768v160h960v-448z" />
    <glyph glyph-name="registered" unicode="&#xae;" horiz-adv-x="1920" 
d="M1405 536q0 70 -8.5 126t-34.5 96.5t-74 66t-128 35.5q80 5 128 29.5t74 58t34 71t8 69.5q-1 70 -23 124t-82 90.5t-165.5 55t-273.5 18.5h-287v-992h160v416h95q95 0 163 -4t114 -14.5t73.5 -29t42 -48t19 -71t4.5 -97.5v-152h161v152zM733 1248h127q120 0 195 -8.5
t117 -27.5t57 -49.5t15 -74.5q0 -46 -15 -76.5t-57 -49t-117 -26.5t-195 -8h-127v320zM960 1664q-176 0 -306 -21.5t-222.5 -65t-151.5 -109.5t-93 -155t-46.5 -201t-12.5 -248t12.5 -248t46.5 -201t93 -155t151.5 -109.5t222.5 -65t306 -21.5t306 21.5t222.5 65
t151.5 109.5t93 155t46.5 201t12.5 248t-12.5 248t-46.5 201t-93 155t-151.5 109.5t-222.5 65t-306 21.5zM960 224q-128 0 -225 7.5t-168.5 30.5t-118.5 66t-75.5 114t-40.5 174.5t-12 247.5t12 247.5t40.5 174.5t75.5 114t118.5 66t168.5 30.5t225 7.5t225 -7.5
t168.5 -30.5t118.5 -66t75.5 -114t40.5 -174.5t12 -247.5t-12 -247.5t-40.5 -174.5t-75.5 -114t-118.5 -66t-168.5 -30.5t-225 -7.5z" />
    <glyph glyph-name="macron" unicode="&#xaf;" horiz-adv-x="1024" 
d="M128 1344h768v160h-768v-160z" />
    <glyph glyph-name="degree" unicode="&#xb0;" horiz-adv-x="1280" 
d="M640 928q-96 0 -178 -24.5t-142 -75.5t-94 -129.5t-34 -186.5t34 -186.5t94 -129.5t142 -75.5t178 -24.5t178 24.5t142 75.5t94 129.5t34 186.5t-34 186.5t-94 129.5t-142 75.5t-178 24.5zM640 256q-54 0 -101 13t-81.5 43t-54 79t-19.5 121t19.5 121t54 79t81.5 43
t101 13t100.5 -13t81 -43t54.5 -79t20 -121t-20 -121t-54.5 -79t-81 -43t-100.5 -13z" />
    <glyph glyph-name="plusminus" unicode="&#xb1;" horiz-adv-x="1344" 
d="M128 960h448v448h192v-448h448v-160h-448v-480h-192v480h-448v160z" />
    <glyph glyph-name="twosuperior" unicode="&#xb2;" horiz-adv-x="1344" 
d="M128 448h1058v160h-866q0 40 1.5 68t10.5 47.5t28.5 33.5t55 25.5t90 23t134.5 27.5l258 51q93 18 154.5 47.5t98 72.5t51 102t14.5 137q0 116 -33.5 181.5t-101 97.5t-169.5 39t-239 7q-89 0 -164 -2t-136 -11t-106.5 -28.5t-76.5 -55t-46.5 -90t-15.5 -133.5h192
q0 33 1 58t10 43t29 29.5t59.5 18t101 9t152.5 2.5q102 0 169.5 -3.5t108 -19.5t57 -49.5t16.5 -93.5t-12.5 -96.5t-36.5 -58t-59.5 -32.5t-81.5 -20l-386 -73q-110 -21 -173.5 -49t-96 -64t-41.5 -80t-9 -97v-224z" />
    <glyph glyph-name="threesuperior" unicode="&#xb3;" horiz-adv-x="1471" 
d="M768 1056v-160h191q16 0 36.5 0.5t41.5 -2t41.5 -11t36.5 -26.5t25.5 -48t9.5 -75q0 -60 -17 -92.5t-59.5 -47t-116.5 -16.5t-188 -2q-111 0 -187.5 1t-126.5 4.5t-77 11.5t-40 22.5t-15.5 35.5t-2.5 52h-192q0 -78 18.5 -130t55 -83.5t91 -47t125.5 -21.5t159 -5.5
t192 0.5q148 0 256 7t178.5 37.5t105 94.5t34.5 178q0 61 -9.5 100.5t-29 65.5t-49.5 43t-72 34q42 13 72 31.5t49.5 46.5t29 68t9.5 96q0 81 -15 136.5t-46 90.5t-78 54t-111 27t-145 9t-179 1q-104 0 -192 1t-159 -5t-125.5 -23.5t-91 -52.5t-55 -93t-18.5 -145h192
q0 38 2.5 65t15.5 44.5t40 27.5t77 14.5t126.5 5.5t187.5 1q114 0 188 1t116.5 -12t59.5 -46t17 -102q0 -50 -12 -81.5t-35.5 -49t-59.5 -24t-84 -6.5h-191z" />
    <glyph glyph-name="acute" unicode="&#xb4;" horiz-adv-x="960" 
d="M832 1664l-128 192l-576 -480l64 -96z" />
    <glyph glyph-name="mu" unicode="&#xb5;" horiz-adv-x="1601" 
d="M129 -384v280.5t-0.5 220.5t-0.5 176.5v149v137.5t0.5 142.5t0.5 164v201.5h192v-576q0 -107 16 -180.5t64 -118.5t136 -65t232 -20q156 0 255.5 23t156.5 65t78.5 101t21.5 131v640h192v-1088h-192v191q-1 -2 -9.5 -19.5t-31 -42.5t-62 -53t-103 -52t-154.5 -40
t-216 -16q-132 0 -225.5 16.5t-158.5 48.5v-417h-192z" />
    <glyph glyph-name="paragraph" unicode="&#xb6;" horiz-adv-x="1984" 
d="M1088 1376h384v-1376h192v1376h192v160h-1023q-160 0 -274.5 -12.5t-193 -37.5t-125.5 -62t-72 -87t-32.5 -112t-7.5 -137q0 -78 7.5 -144t32.5 -119.5t72 -94t125 -67.5t193 -41t275 -14h63v-608h192v1376z" />
    <glyph glyph-name="periodcentered" unicode="&#xb7;" 
d="M320 896h-192v-192h192v192z" />
    <glyph glyph-name="cedilla" unicode="&#xb8;" horiz-adv-x="640" 
d="M128 -384q48 0 84 1.5t60 10.5t36 28.5t12 55.5q0 12 -3 23.5t-21 20.5t-57 14.5t-111 5.5v288h128v-192q48 0 94 -7t82 -25t58 -49t22 -79q0 -84 -33 -134.5t-87 -77.5t-123 -35.5t-141 -8.5v160z" />
    <glyph glyph-name="onesuperior" unicode="&#xb9;" horiz-adv-x="896" 
d="M64 1120l96 -128l416 384v-928h192v1088h-256z" />
    <glyph glyph-name="ordmasculine" unicode="&#xba;" horiz-adv-x="1664" 
d="M128 961q0 168 38 279t122 177t218 93t326 27t326 -27t218 -93t122 -177t38 -279t-38 -279t-122 -177t-218 -93t-326 -27t-326 27t-218 93t-122 177t-38 279zM320 961q0 -88 7 -153t26.5 -111.5t54.5 -75.5t92 -46t138.5 -23.5t193.5 -6.5q144 0 242 11t158 53t86 125
t26 227t-26 227t-86 125t-158 53t-242 11t-242 -11t-158 -53t-86 -125t-26 -227z" />
    <glyph glyph-name="guillemotright" unicode="&#xbb;" horiz-adv-x="1344" 
d="M640 608l-512 352l96 128l544 -384v-192l-544 -384l-96 128zM1088 608l-512 352l96 128l544 -384v-192l-544 -384l-96 128z" />
    <glyph glyph-name="onequarter" unicode="&#xbc;" horiz-adv-x="2848" 
d="M128 1120l96 -128l416 384v-928h192v1088h-256zM1600 1536h192l-704 -1536h-192zM2720 192v160h-192v736h-256l-768 -704v-192h832v-192h192v192h192zM1696 352l640 608v-608h-640z" />
    <glyph glyph-name="onehalf" unicode="&#xbd;" horiz-adv-x="2880" 
d="M128 1120l96 -128l416 384v-928h192v1088h-256zM1569 1536h192l-704 -1536h-192zM1664 4h1058v160h-866q0 40 1.5 68t10.5 47.5t28.5 33.5t55 25.5t90 23t134.5 27.5l258 51q93 18 154.5 47.5t98 72.5t51 102t14.5 137q0 116 -33.5 181.5t-101 97.5t-169.5 39t-239 7
q-89 0 -164 -2t-136 -11t-106.5 -28.5t-76.5 -55t-46.5 -90t-15.5 -133.5h192q0 33 1 58t10 43t29 29.5t59.5 18t101 9t152.5 2.5q102 0 169.5 -3.5t108 -19.5t57 -49.5t16.5 -93.5t-12.5 -96.5t-36.5 -58t-59.5 -32.5t-81.5 -20l-386 -73q-110 -21 -173.5 -49t-96 -64
t-41.5 -80t-9 -97v-224z" />
    <glyph glyph-name="threequarters" unicode="&#xbe;" horiz-adv-x="3072" 
d="M768 1056v-160h191q16 0 36.5 0.5t41.5 -2t41.5 -11t36.5 -26.5t25.5 -48t9.5 -75q0 -60 -17 -92.5t-59.5 -47t-116.5 -16.5t-188 -2q-111 0 -187.5 1t-126.5 4.5t-77 11.5t-40 22.5t-15.5 35.5t-2.5 52h-192q0 -78 18.5 -130t55 -83.5t91 -47t125.5 -21.5t159 -5.5
t192 0.5q148 0 256 7t178.5 37.5t105 94.5t34.5 178q0 61 -9.5 100.5t-29 65.5t-49.5 43t-72 34q42 13 72 31.5t49.5 46.5t29 68t9.5 96q0 81 -15 136.5t-46 90.5t-78 54t-111 27t-145 9t-179 1q-104 0 -192 1t-159 -5t-125.5 -23.5t-91 -52.5t-55 -93t-18.5 -145h192
q0 38 2.5 65t15.5 44.5t40 27.5t77 14.5t126.5 5.5t187.5 1q114 0 188 1t116.5 -12t59.5 -46t17 -102q0 -50 -12 -81.5t-35.5 -49t-59.5 -24t-84 -6.5h-191zM1920 1536h192l-704 -1536h-192zM2944 192v160h-192v736h-256l-768 -704v-192h832v-192h192v192h192zM1920 352
l640 608v-608h-640z" />
    <glyph glyph-name="questiondown" unicode="&#xbf;" horiz-adv-x="1856" 
d="M704 321v66q0 60 2.5 121.5t16.5 118t45 105.5t88 85.5t144.5 57.5t215.5 21q72 0 131 8t100.5 34.5t64.5 77t23 136.5q0 94 -26 146t-85.5 76.5t-157.5 29t-242 4.5q-176 0 -296.5 -4.5t-199 -16t-120.5 -31.5t-61.5 -52t-23 -76.5t-3.5 -105.5h-192q0 112 26.5 188
t78 125.5t127.5 76.5t175.5 39.5t222 14.5t266.5 2q112 0 208 -4t174 -18t138 -41t101 -73t62 -114.5t21 -164.5q0 -89 -25 -165.5t-79 -132.5t-139 -87.5t-205 -31.5q-96 0 -162 -8.5t-108.5 -28t-65.5 -51t-33.5 -77.5t-12.5 -108t-2 -142h-192zM896 0h-192v192h192v-192z
" />
    <glyph glyph-name="Agrave" unicode="&#xc0;" horiz-adv-x="2304" 
d="M1760 352h-1216l-192 -352h-224l896 1536h256l896 -1536h-224zM1664 512l-512 896l-512 -896h1024zM800 2112l128 192l576 -480l-64 -96z" />
    <glyph glyph-name="Aacute" unicode="&#xc1;" horiz-adv-x="2304" 
d="M1760 352h-1216l-192 -352h-224l896 1536h256l896 -1536h-224zM1664 512l-512 896l-512 -896h1024zM1504 2112l-128 192l-576 -480l64 -96z" />
    <glyph glyph-name="Acircumflex" unicode="&#xc2;" horiz-adv-x="2304" 
d="M1760 352h-1216l-192 -352h-224l896 1536h256l896 -1536h-224zM1664 512l-512 896l-512 -896h1024zM1440 1728l128 96l-320 480h-192l-320 -480l128 -96l288 448z" />
    <glyph glyph-name="Atilde" unicode="&#xc3;" horiz-adv-x="2304" 
d="M1760 352h-1216l-192 -352h-224l896 1536h256l896 -1536h-224zM1664 512l-512 896l-512 -896h1024zM960 1888q45 0 83.5 -15t81.5 -33t95 -33t124 -15q36 0 80.5 12.5t83.5 42t65.5 78.5t26.5 123h-192q0 -30 -4 -49t-12 -29.5t-20 -14t-28 -3.5q-45 0 -83.5 15
t-81.5 33.5t-95 33.5t-124 15q-36 0 -80.5 -11.5t-83.5 -40.5t-65.5 -79t-26.5 -126h192q0 31 4 50t12 29t20 13.5t28 3.5z" />
    <glyph glyph-name="Adieresis" unicode="&#xc4;" horiz-adv-x="2304" 
d="M1760 352h-1216l-192 -352h-224l896 1536h256l896 -1536h-224zM1664 512l-512 896l-512 -896h1024zM864 1984h-192v-192h192v192zM1632 1984h-192v-192h192v192z" />
    <glyph glyph-name="Aring" unicode="&#xc5;" horiz-adv-x="2304" 
d="M1760 352h-1216l-192 -352h-224l896 1536h256l896 -1536h-224zM1664 512l-512 896l-512 -896h1024zM1152 2368q-96 0 -163 -27.5t-109 -72.5t-61 -102.5t-19 -117.5t19 -117.5t61 -102.5t109 -72.5t163 -27.5t163 27.5t109 72.5t61 102.5t19 117.5t-19 117.5t-61 102.5
t-109 72.5t-163 27.5zM1152 1856q-60 0 -97.5 16.5t-58.5 43.5t-28.5 61.5t-7.5 70.5t7.5 70.5t28.5 61.5t58.5 43.5t97.5 16.5t97.5 -16.5t58.5 -43.5t28.5 -61.5t7.5 -70.5t-7.5 -70.5t-28.5 -61.5t-58.5 -43.5t-97.5 -16.5z" />
    <glyph glyph-name="AE" unicode="&#xc6;" horiz-adv-x="3072" 
d="M1472 0v352h-890l-326 -352h-256l1408 1536h1536v-160h-1280v-512h1216v-160h-1216v-544h1280v-160h-1472zM1472 512v864l-768 -864h768z" />
    <glyph glyph-name="Ccedilla" unicode="&#xc7;" horiz-adv-x="2111" 
d="M959 -384q48 0 84 1.5t60 10.5t36 28.5t12 55.5q0 12 -3 23.5t-21 20.5t-57 14.5t-111 5.5v192h-128q-176 0 -296.5 21.5t-198.5 65t-120.5 109.5t-62 155t-22.5 201t-3 248t3 248t22.5 201t62 155t120.5 109.5t198.5 65t296.5 21.5h449q144 0 252 -13.5t186 -41
t129 -69.5t81.5 -99t42.5 -129t12 -160h-192q0 120 -26 190t-86 106t-157.5 46t-241.5 10h-449q-128 0 -215.5 -7.5t-144.5 -30.5t-88 -66t-45 -114t-16 -174.5t-2 -247.5t2.5 -247.5t16.5 -174.5t44.5 -114t87.5 -66t144.5 -30.5t215.5 -7.5h449q112 0 193 6t138 22t92 44
t54.5 70.5t26.5 102t7 139.5h192q0 -96 -12 -173.5t-42.5 -138t-81.5 -104.5t-129 -72.5t-186 -42t-252 -13.5h-193v-96q48 0 94 -7t82 -25t58 -49t22 -79q0 -84 -33 -134.5t-87 -77.5t-123 -35.5t-141 -8.5v160z" />
    <glyph glyph-name="Egrave" unicode="&#xc8;" horiz-adv-x="1792" 
d="M192 0v1536h1536v-160h-1344v-512h1280v-160h-1280v-544h1344v-160h-1536zM608 2112l128 192l576 -480l-64 -96z" />
    <glyph glyph-name="Eacute" unicode="&#xc9;" horiz-adv-x="1792" 
d="M192 0v1536h1536v-160h-1344v-512h1280v-160h-1280v-544h1344v-160h-1536zM1312 2112l-128 192l-576 -480l64 -96z" />
    <glyph glyph-name="Ecircumflex" unicode="&#xca;" horiz-adv-x="1792" 
d="M192 0v1536h1536v-160h-1344v-512h1280v-160h-1280v-544h1344v-160h-1536zM1248 1728l128 96l-320 480h-192l-320 -480l128 -96l288 448z" />
    <glyph glyph-name="Edieresis" unicode="&#xcb;" horiz-adv-x="1792" 
d="M192 0v1536h1536v-160h-1344v-512h1280v-160h-1280v-544h1344v-160h-1536zM672 1984h-192v-192h192v192zM1440 1984h-192v-192h192v192z" />
    <glyph glyph-name="Igrave" unicode="&#xcc;" 
d="M129 1536h192v-1536h-192v1536zM-125 2112l128 192l576 -480l-64 -96z" />
    <glyph glyph-name="Iacute" unicode="&#xcd;" 
d="M129 1536h192v-1536h-192v1536zM579 2112l-128 192l-576 -480l64 -96z" />
    <glyph glyph-name="Icircumflex" unicode="&#xce;" 
d="M129 1536h192v-1536h-192v1536zM515 1728l128 96l-320 480h-192l-320 -480l128 -96l288 448z" />
    <glyph glyph-name="Idieresis" unicode="&#xcf;" 
d="M129 1536h192v-1536h-192v1536zM-61 1984h-192v-192h192v192zM707 1984h-192v-192h192v192z" />
    <glyph glyph-name="Eth" unicode="&#xd0;" horiz-adv-x="2112" 
d="M0 704h128v-704h1151q176 0 296.5 20.5t199 62.5t121 105t62 148.5t23 193t3.5 238.5t-3.5 238.5t-23 193t-62 148.5t-121 105t-199 62.5t-296.5 20.5h-1151v-672h-128v-160zM320 160v544h448v160h-448v512h959q128 0 215.5 -7t144.5 -28.5t88 -62.5t45.5 -108.5t17 -166
t2.5 -235.5t-2.5 -235.5t-17 -166t-45.5 -108.5t-88 -62.5t-145 -28.5t-215 -7h-959z" />
    <glyph glyph-name="Ntilde" unicode="&#xd1;" horiz-adv-x="2193" 
d="M321 0h-192v1536h337l1408 -1344v1344h192v-1536h-256l-1489 1376v-1376zM904 1888q45 0 83.5 -15t81.5 -33t95 -33t124 -15q36 0 80.5 12.5t83.5 42t65.5 78.5t26.5 123h-192q0 -30 -4 -49t-12 -29.5t-20 -14t-28 -3.5q-45 0 -83.5 15t-81.5 33.5t-95 33.5t-124 15
q-36 0 -80.5 -11.5t-83.5 -40.5t-65.5 -79t-26.5 -126h192q0 31 4 50t12 29t20 13.5t28 3.5z" />
    <glyph glyph-name="Ograve" unicode="&#xd2;" horiz-adv-x="2240" 
d="M1409 1568q176 0 296.5 -21.5t198.5 -65t120 -109.5t61.5 -155t23 -201t3.5 -248t-3.5 -248t-23 -201t-61.5 -155t-120 -109.5t-198.5 -65t-296.5 -21.5h-578q-176 0 -296.5 21.5t-198.5 65t-120.5 109.5t-62 155t-22.5 201t-3 248t3 248t22.5 201t62 155t120.5 109.5
t198.5 65t296.5 21.5h578zM1409 128q127 0 214.5 7.5t144.5 30.5t88 66t45 114t16.5 174.5t2.5 247.5t-2.5 247.5t-16.5 174.5t-45 114t-87.5 66t-144 30.5t-215.5 7.5h-578q-128 0 -215.5 -7.5t-144.5 -30.5t-88 -66t-45 -114t-16 -174.5t-2 -247.5t2.5 -247.5t16.5 -174.5
t44.5 -114t87.5 -66t144.5 -30.5t215.5 -7.5h578zM767 2112l128 192l576 -480l-64 -96z" />
    <glyph glyph-name="Oacute" unicode="&#xd3;" horiz-adv-x="2240" 
d="M1409 1568q176 0 296.5 -21.5t198.5 -65t120 -109.5t61.5 -155t23 -201t3.5 -248t-3.5 -248t-23 -201t-61.5 -155t-120 -109.5t-198.5 -65t-296.5 -21.5h-578q-176 0 -296.5 21.5t-198.5 65t-120.5 109.5t-62 155t-22.5 201t-3 248t3 248t22.5 201t62 155t120.5 109.5
t198.5 65t296.5 21.5h578zM1409 128q127 0 214.5 7.5t144.5 30.5t88 66t45 114t16.5 174.5t2.5 247.5t-2.5 247.5t-16.5 174.5t-45 114t-87.5 66t-144 30.5t-215.5 7.5h-578q-128 0 -215.5 -7.5t-144.5 -30.5t-88 -66t-45 -114t-16 -174.5t-2 -247.5t2.5 -247.5t16.5 -174.5
t44.5 -114t87.5 -66t144.5 -30.5t215.5 -7.5h578zM1471 2112l-128 192l-576 -480l64 -96z" />
    <glyph glyph-name="Ocircumflex" unicode="&#xd4;" horiz-adv-x="2240" 
d="M1409 1568q176 0 296.5 -21.5t198.5 -65t120 -109.5t61.5 -155t23 -201t3.5 -248t-3.5 -248t-23 -201t-61.5 -155t-120 -109.5t-198.5 -65t-296.5 -21.5h-578q-176 0 -296.5 21.5t-198.5 65t-120.5 109.5t-62 155t-22.5 201t-3 248t3 248t22.5 201t62 155t120.5 109.5
t198.5 65t296.5 21.5h578zM1409 128q127 0 214.5 7.5t144.5 30.5t88 66t45 114t16.5 174.5t2.5 247.5t-2.5 247.5t-16.5 174.5t-45 114t-87.5 66t-144 30.5t-215.5 7.5h-578q-128 0 -215.5 -7.5t-144.5 -30.5t-88 -66t-45 -114t-16 -174.5t-2 -247.5t2.5 -247.5t16.5 -174.5
t44.5 -114t87.5 -66t144.5 -30.5t215.5 -7.5h578zM1407 1728l128 96l-320 480h-192l-320 -480l128 -96l288 448z" />
    <glyph glyph-name="Otilde" unicode="&#xd5;" horiz-adv-x="2240" 
d="M1409 1568q176 0 296.5 -21.5t198.5 -65t120 -109.5t61.5 -155t23 -201t3.5 -248t-3.5 -248t-23 -201t-61.5 -155t-120 -109.5t-198.5 -65t-296.5 -21.5h-578q-176 0 -296.5 21.5t-198.5 65t-120.5 109.5t-62 155t-22.5 201t-3 248t3 248t22.5 201t62 155t120.5 109.5
t198.5 65t296.5 21.5h578zM1409 128q127 0 214.5 7.5t144.5 30.5t88 66t45 114t16.5 174.5t2.5 247.5t-2.5 247.5t-16.5 174.5t-45 114t-87.5 66t-144 30.5t-215.5 7.5h-578q-128 0 -215.5 -7.5t-144.5 -30.5t-88 -66t-45 -114t-16 -174.5t-2 -247.5t2.5 -247.5t16.5 -174.5
t44.5 -114t87.5 -66t144.5 -30.5t215.5 -7.5h578zM927 1888q45 0 83.5 -15t81.5 -33t95 -33t124 -15q36 0 80.5 12.5t83.5 42t65.5 78.5t26.5 123h-192q0 -30 -4 -49t-12 -29.5t-20 -14t-28 -3.5q-45 0 -83.5 15t-81.5 33.5t-95 33.5t-124 15q-36 0 -80.5 -11.5t-83.5 -40.5
t-65.5 -79t-26.5 -126h192q0 31 4 50t12 29t20 13.5t28 3.5z" />
    <glyph glyph-name="Odieresis" unicode="&#xd6;" horiz-adv-x="2240" 
d="M1409 1568q176 0 296.5 -21.5t198.5 -65t120 -109.5t61.5 -155t23 -201t3.5 -248t-3.5 -248t-23 -201t-61.5 -155t-120 -109.5t-198.5 -65t-296.5 -21.5h-578q-176 0 -296.5 21.5t-198.5 65t-120.5 109.5t-62 155t-22.5 201t-3 248t3 248t22.5 201t62 155t120.5 109.5
t198.5 65t296.5 21.5h578zM1409 128q127 0 214.5 7.5t144.5 30.5t88 66t45 114t16.5 174.5t2.5 247.5t-2.5 247.5t-16.5 174.5t-45 114t-87.5 66t-144 30.5t-215.5 7.5h-578q-128 0 -215.5 -7.5t-144.5 -30.5t-88 -66t-45 -114t-16 -174.5t-2 -247.5t2.5 -247.5t16.5 -174.5
t44.5 -114t87.5 -66t144.5 -30.5t215.5 -7.5h578zM831 1984h-192v-192h192v192zM1599 1984h-192v-192h192v192z" />
    <glyph glyph-name="multiply" unicode="&#xd7;" horiz-adv-x="1344" 
d="M1125 1181l-136 136l-317 -317l-317 317l-136 -136l317 -317l-317 -317l136 -136l317 317l317 -317l136 136l-317 317z" />
    <glyph glyph-name="Oslash" unicode="&#xd8;" horiz-adv-x="2241" 
d="M1410 1568h4l90 224l160 -64l-68 -167q60 -6 110 -15q121 -21 199 -64.5t120 -109.5t61.5 -155t23 -201t3.5 -248t-3.5 -248t-23 -201t-61.5 -155t-120 -109.5t-198.5 -65t-296.5 -21.5h-456l-90 -224l-160 64l65 161q-135 3 -234 21q-120 21 -198 64.5t-120.5 109.5
t-62 155t-22.5 201t-3 248t3 248t22.5 201t62 155t120.5 109.5t198.5 65t296.5 21.5h578zM616 1400q-87 -7 -144 -30t-88 -66t-45 -114t-16 -174.5t-2 -247.5t2.5 -247.5t16.5 -174.5t44.5 -114t87.5 -66t144.5 -30.5t215.5 -7.5h1l516 1280h-517q-128 0 -216 -8zM1410 128
q127 0 214.5 7.5t144.5 30.5t88 66t45 114t16.5 174.5t2.5 247.5t-2.5 247.5t-16.5 174.5t-45 114t-87.5 66t-144.5 30q-41 4 -91 6l-515 -1278h391z" />
    <glyph glyph-name="Ugrave" unicode="&#xd9;" horiz-adv-x="2113" 
d="M1985 1536v-768q0 -136 -3.5 -248t-23 -201t-61.5 -155t-120 -109.5t-198.5 -65t-296.5 -21.5h-450q-176 0 -296.5 21.5t-198.5 65t-120.5 109.5t-62 155t-22.5 201t-3 248v768h192v-768q0 -144 2.5 -247.5t16.5 -174.5t44.5 -114t87.5 -66t144.5 -30.5t215.5 -7.5h450
q127 0 215 7.5t144.5 30.5t87.5 66t45.5 114t16.5 174.5t2 247.5l-1 768h193zM704 2112l128 192l576 -480l-64 -96z" />
    <glyph glyph-name="Uacute" unicode="&#xda;" horiz-adv-x="2113" 
d="M1985 1536v-768q0 -136 -3.5 -248t-23 -201t-61.5 -155t-120 -109.5t-198.5 -65t-296.5 -21.5h-450q-176 0 -296.5 21.5t-198.5 65t-120.5 109.5t-62 155t-22.5 201t-3 248v768h192v-768q0 -144 2.5 -247.5t16.5 -174.5t44.5 -114t87.5 -66t144.5 -30.5t215.5 -7.5h450
q127 0 215 7.5t144.5 30.5t87.5 66t45.5 114t16.5 174.5t2 247.5l-1 768h193zM1408 2112l-128 192l-576 -480l64 -96z" />
    <glyph glyph-name="Ucircumflex" unicode="&#xdb;" horiz-adv-x="2113" 
d="M1985 1536v-768q0 -136 -3.5 -248t-23 -201t-61.5 -155t-120 -109.5t-198.5 -65t-296.5 -21.5h-450q-176 0 -296.5 21.5t-198.5 65t-120.5 109.5t-62 155t-22.5 201t-3 248v768h192v-768q0 -144 2.5 -247.5t16.5 -174.5t44.5 -114t87.5 -66t144.5 -30.5t215.5 -7.5h450
q127 0 215 7.5t144.5 30.5t87.5 66t45.5 114t16.5 174.5t2 247.5l-1 768h193zM1344 1728l128 96l-320 480h-192l-320 -480l128 -96l288 448z" />
    <glyph glyph-name="Udieresis" unicode="&#xdc;" horiz-adv-x="2113" 
d="M1985 1536v-768q0 -136 -3.5 -248t-23 -201t-61.5 -155t-120 -109.5t-198.5 -65t-296.5 -21.5h-450q-176 0 -296.5 21.5t-198.5 65t-120.5 109.5t-62 155t-22.5 201t-3 248v768h192v-768q0 -144 2.5 -247.5t16.5 -174.5t44.5 -114t87.5 -66t144.5 -30.5t215.5 -7.5h450
q127 0 215 7.5t144.5 30.5t87.5 66t45.5 114t16.5 174.5t2 247.5l-1 768h193zM768 1984h-192v-192h192v192zM1536 1984h-192v-192h192v192z" />
    <glyph glyph-name="Yacute" unicode="&#xdd;" horiz-adv-x="2176" 
d="M128 1536h256l704 -752l704 752h256l-864 -896v-640h-192v640zM1452 2112l-128 192l-576 -480l64 -96z" />
    <glyph glyph-name="Thorn" unicode="&#xde;" horiz-adv-x="1920" 
d="M128 0h192v416h831q176 0 296.5 14t199 41t121 67.5t62 94t23 119.5t3.5 144q0 75 -2.5 137t-18.5 112t-50.5 87t-98.5 62t-162.5 37.5t-241.5 12.5h-962v192h-192v-1536zM320 1184h831q128 0 215.5 -3t144.5 -13.5t88 -29.5t45.5 -51t17 -79t2.5 -112q0 -70 -2.5 -120.5
t-17 -86.5t-45.5 -58t-88 -34t-144.5 -16.5t-215.5 -4.5h-831v608z" />
    <glyph glyph-name="germandbls" unicode="&#xdf;" horiz-adv-x="2048" 
d="M769 1536q-144 0 -247.5 -13t-175 -39.5t-114.5 -66.5t-66 -93t-30.5 -119.5t-7.5 -146.5v-1186h192v1186q0 71 7 122.5t26.5 87t54.5 57t92 33t139 15t194 3.5h383q96 0 168 -7.5t120 -29t72 -61.5t24 -104q0 -89 -14 -143.5t-55.5 -84.5t-117 -40t-198.5 -10h-703v-160
h703q112 0 194 -3.5t139 -13.5t92 -27.5t54.5 -46t26.5 -70t7 -97.5q0 -72 -7 -123t-26.5 -86.5t-54.5 -57t-92 -33t-139 -15t-194 -3.5h-703v-160h767q144 0 247.5 13t175 39.5t114.5 66.5t66 93t30.5 119.5t7.5 146.5q0 66 -14 116.5t-36.5 88t-51 63t-58.5 42.5
q-70 39 -160 44q54 5 96 43q18 16 35 40.5t30.5 60.5t22 85t8.5 113q0 88 -26 156t-86 113.5t-158 69t-242 23.5h-511z" />
    <glyph glyph-name="agrave" unicode="&#xe0;" horiz-adv-x="1600" 
d="M1280 158q-3 -12 -45 -60q-30 -36 -80 -63.5t-133.5 -43t-219.5 -15.5q-181 0 -309 18.5t-209 57t-118.5 98.5t-37.5 143q0 87 20.5 147.5t60 101.5t95.5 64t127.5 35t156.5 15t181 3q137 0 229 -11.5t150.5 -29t88.5 -37.5t43 -37q0 112 -9.5 191t-31 132t-55.5 84.5
t-83.5 47.5t-115.5 20.5t-151 4.5q-132 0 -219 -6.5t-138 -25.5t-72 -52.5t-21 -87.5h-192q0 91 32.5 154t108 102.5t198.5 57.5t303 18q176 0 298 -29t197.5 -102t109 -196.5t33.5 -312.5v-544h-192v158zM834 128q127 0 212.5 12t137.5 36t74 60t22 84t-25.5 81.5t-85 54.5
t-157.5 30.5t-242 9.5t-232.5 -5t-136.5 -23t-64.5 -53t-16.5 -95t17.5 -97.5t71.5 -58.5t155.5 -28.5t269.5 -7.5zM448 1664l128 192l576 -480l-64 -96z" />
    <glyph glyph-name="aacute" unicode="&#xe1;" horiz-adv-x="1600" 
d="M1280 158q-3 -12 -45 -60q-30 -36 -80 -63.5t-133.5 -43t-219.5 -15.5q-181 0 -309 18.5t-209 57t-118.5 98.5t-37.5 143q0 87 20.5 147.5t60 101.5t95.5 64t127.5 35t156.5 15t181 3q137 0 229 -11.5t150.5 -29t88.5 -37.5t43 -37q0 112 -9.5 191t-31 132t-55.5 84.5
t-83.5 47.5t-115.5 20.5t-151 4.5q-132 0 -219 -6.5t-138 -25.5t-72 -52.5t-21 -87.5h-192q0 91 32.5 154t108 102.5t198.5 57.5t303 18q176 0 298 -29t197.5 -102t109 -196.5t33.5 -312.5v-544h-192v158zM834 128q127 0 212.5 12t137.5 36t74 60t22 84t-25.5 81.5t-85 54.5
t-157.5 30.5t-242 9.5t-232.5 -5t-136.5 -23t-64.5 -53t-16.5 -95t17.5 -97.5t71.5 -58.5t155.5 -28.5t269.5 -7.5zM1152 1664l-128 192l-576 -480l64 -96z" />
    <glyph glyph-name="acircumflex" unicode="&#xe2;" horiz-adv-x="1600" 
d="M1280 158q-3 -12 -45 -60q-30 -36 -80 -63.5t-133.5 -43t-219.5 -15.5q-181 0 -309 18.5t-209 57t-118.5 98.5t-37.5 143q0 87 20.5 147.5t60 101.5t95.5 64t127.5 35t156.5 15t181 3q137 0 229 -11.5t150.5 -29t88.5 -37.5t43 -37q0 112 -9.5 191t-31 132t-55.5 84.5
t-83.5 47.5t-115.5 20.5t-151 4.5q-132 0 -219 -6.5t-138 -25.5t-72 -52.5t-21 -87.5h-192q0 91 32.5 154t108 102.5t198.5 57.5t303 18q176 0 298 -29t197.5 -102t109 -196.5t33.5 -312.5v-544h-192v158zM834 128q127 0 212.5 12t137.5 36t74 60t22 84t-25.5 81.5t-85 54.5
t-157.5 30.5t-242 9.5t-232.5 -5t-136.5 -23t-64.5 -53t-16.5 -95t17.5 -97.5t71.5 -58.5t155.5 -28.5t269.5 -7.5zM1088 1280l128 96l-320 480h-192l-320 -480l128 -96l288 448z" />
    <glyph glyph-name="atilde" unicode="&#xe3;" horiz-adv-x="1600" 
d="M1280 158q-3 -12 -45 -60q-30 -36 -80 -63.5t-133.5 -43t-219.5 -15.5q-181 0 -309 18.5t-209 57t-118.5 98.5t-37.5 143q0 87 20.5 147.5t60 101.5t95.5 64t127.5 35t156.5 15t181 3q137 0 229 -11.5t150.5 -29t88.5 -37.5t43 -37q0 112 -9.5 191t-31 132t-55.5 84.5
t-83.5 47.5t-115.5 20.5t-151 4.5q-132 0 -219 -6.5t-138 -25.5t-72 -52.5t-21 -87.5h-192q0 91 32.5 154t108 102.5t198.5 57.5t303 18q176 0 298 -29t197.5 -102t109 -196.5t33.5 -312.5v-544h-192v158zM834 128q127 0 212.5 12t137.5 36t74 60t22 84t-25.5 81.5t-85 54.5
t-157.5 30.5t-242 9.5t-232.5 -5t-136.5 -23t-64.5 -53t-16.5 -95t17.5 -97.5t71.5 -58.5t155.5 -28.5t269.5 -7.5zM608 1440q45 0 83.5 -15t81.5 -33t95 -33t124 -15q36 0 80.5 12.5t83.5 42t65.5 78.5t26.5 123h-192q0 -30 -4 -49t-12 -29.5t-20 -14t-28 -3.5
q-45 0 -83.5 15t-81.5 33.5t-95 33.5t-124 15q-36 0 -80.5 -11.5t-83.5 -40.5t-65.5 -79t-26.5 -126h192q0 31 4 50t12 29t20 13.5t28 3.5z" />
    <glyph glyph-name="adieresis" unicode="&#xe4;" horiz-adv-x="1600" 
d="M1280 158q-3 -12 -45 -60q-30 -36 -80 -63.5t-133.5 -43t-219.5 -15.5q-181 0 -309 18.5t-209 57t-118.5 98.5t-37.5 143q0 87 20.5 147.5t60 101.5t95.5 64t127.5 35t156.5 15t181 3q137 0 229 -11.5t150.5 -29t88.5 -37.5t43 -37q0 112 -9.5 191t-31 132t-55.5 84.5
t-83.5 47.5t-115.5 20.5t-151 4.5q-132 0 -219 -6.5t-138 -25.5t-72 -52.5t-21 -87.5h-192q0 91 32.5 154t108 102.5t198.5 57.5t303 18q176 0 298 -29t197.5 -102t109 -196.5t33.5 -312.5v-544h-192v158zM834 128q127 0 212.5 12t137.5 36t74 60t22 84t-25.5 81.5t-85 54.5
t-157.5 30.5t-242 9.5t-232.5 -5t-136.5 -23t-64.5 -53t-16.5 -95t17.5 -97.5t71.5 -58.5t155.5 -28.5t269.5 -7.5zM512 1536h-192v-192h192v192zM1280 1536h-192v-192h192v192z" />
    <glyph glyph-name="aring" unicode="&#xe5;" horiz-adv-x="1600" 
d="M1280 158q-3 -12 -45 -60q-30 -36 -80 -63.5t-133.5 -43t-219.5 -15.5q-181 0 -309 18.5t-209 57t-118.5 98.5t-37.5 143q0 87 20.5 147.5t60 101.5t95.5 64t127.5 35t156.5 15t181 3q137 0 229 -11.5t150.5 -29t88.5 -37.5t43 -37q0 112 -9.5 191t-31 132t-55.5 84.5
t-83.5 47.5t-115.5 20.5t-151 4.5q-132 0 -219 -6.5t-138 -25.5t-72 -52.5t-21 -87.5h-192q0 91 32.5 154t108 102.5t198.5 57.5t303 18q176 0 298 -29t197.5 -102t109 -196.5t33.5 -312.5v-544h-192v158zM834 128q127 0 212.5 12t137.5 36t74 60t22 84t-25.5 81.5t-85 54.5
t-157.5 30.5t-242 9.5t-232.5 -5t-136.5 -23t-64.5 -53t-16.5 -95t17.5 -97.5t71.5 -58.5t155.5 -28.5t269.5 -7.5zM800 1920q-96 0 -163 -27.5t-109 -72.5t-61 -102.5t-19 -117.5t19 -117.5t61 -102.5t109 -72.5t163 -27.5t163 27.5t109 72.5t61 102.5t19 117.5t-19 117.5
t-61 102.5t-109 72.5t-163 27.5zM800 1408q-60 0 -97.5 16.5t-58.5 43.5t-28.5 61.5t-7.5 70.5t7.5 70.5t28.5 61.5t58.5 43.5t97.5 16.5t97.5 -16.5t58.5 -43.5t28.5 -61.5t7.5 -70.5t-7.5 -70.5t-28.5 -61.5t-58.5 -43.5t-97.5 -16.5z" />
    <glyph glyph-name="ae" unicode="&#xe6;" horiz-adv-x="2752" 
d="M1984 -32q-115 0 -208.5 9t-168 30t-130.5 54.5t-95 83.5q-28 -37 -73 -67q-32 -21 -77 -41.5t-106.5 -36.5t-141.5 -26t-182 -10q-181 0 -309 19t-209 59.5t-118.5 102.5t-37.5 148q0 87 20.5 147.5t60 101.5t95.5 64t127.5 35t156.5 15t181 3q84 0 150.5 -5t118.5 -13
t90 -18.5t65 -21.5q63 -26 87 -57q0 96 -9.5 164t-31 114.5t-55.5 73.5t-83.5 41.5t-115.5 18.5t-151 4q-132 0 -219 -7.5t-138 -28.5t-72 -58.5t-21 -97.5h-192q0 96 32.5 163t108 109t198.5 61t303 19q105 0 189.5 -8t151.5 -32t118 -68t89 -116q34 72 89 116t131 68
t171.5 32t210.5 8q137 0 237.5 -18.5t172 -52.5t116 -83t70 -109t35 -131t9.5 -150l-16 -64h-1136v-26q2 -123 29.5 -194.5t88 -107.5t157 -46t237.5 -10q132 0 218.5 7.5t137.5 28.5t71.5 58.5t20.5 97.5h192q0 -96 -32.5 -163t-107.5 -109t-197.5 -61t-302.5 -19zM834 128
q127 0 212.5 12t137.5 36t74 60t22 84t-25.5 81.5t-85 54.5t-157.5 30.5t-242 9.5t-232.5 -5t-136.5 -23t-64.5 -53t-16.5 -95t17.5 -97.5t71.5 -58.5t155.5 -28.5t269.5 -7.5zM1984 960q-144 0 -242 -9.5t-158 -42.5t-86 -96.5t-26 -171.5h960q0 96 -25 158t-79 98t-139 50
t-205 14z" />
    <glyph glyph-name="ccedilla" unicode="&#xe7;" horiz-adv-x="1601" 
d="M704 -544q72 0 141 8.5t123 35.5t87 77.5t33 134.5q0 48 -22 79t-58 49t-82 25t-94 7v96h1q192 0 316 24.5t196 75.5t100 129.5t28 186.5h-192q0 -40 -2 -74.5t-14.5 -63t-39.5 -50.5t-77 -37t-126.5 -23t-188.5 -8q-128 0 -215.5 8.5t-144.5 28t-88 51.5t-45 78
t-16.5 108t-2.5 142t2.5 142t16.5 108t45 78t88 51.5t144.5 28t215.5 8.5q112 0 188.5 -8t126.5 -23t77 -37t39.5 -50.5t14.5 -63t2 -74.5h192q0 108 -28 186.5t-100 129.5t-196 75.5t-316 24.5q-144 0 -252 -11.5t-186.5 -38t-130 -70.5t-82 -108t-42.5 -150t-12 -198
t12 -198t42.5 -150t82 -108t130 -70.5t186.5 -37.5q56 -6 123 -9v-195q72 0 111 -5.5t57 -14.5t21 -20.5t3 -23.5q0 -36 -12 -55.5t-36 -28.5t-60 -10.5t-84 -1.5v-160z" />
    <glyph glyph-name="egrave" unicode="&#xe8;" horiz-adv-x="1600" 
d="M832 -22q-192 0 -326 26.5t-218 91.5t-122 174t-38 274q0 189 38 312.5t122 196.5t218 102t326 29q137 0 237.5 -20t172 -58t116 -92t70 -113.5t35 -139.5t9.5 -169l-16 -64h-1136q0 -132 26 -216.5t86 -123.5t158 -49.5t242 -10.5q132 0 218.5 7.5t137.5 28.5t71.5 58.5
t20.5 97.5h192q0 -93 -32.5 -158.5t-107.5 -106t-197.5 -59t-302.5 -18.5zM832 1024q-96 0 -171.5 -4t-132 -17.5t-96.5 -39t-64.5 -60t-36 -97t-11.5 -150.5h960q0 117 -25 183.5t-79 109.5t-139 59t-205 16zM448 1664l128 192l576 -480l-64 -96z" />
    <glyph glyph-name="eacute" unicode="&#xe9;" horiz-adv-x="1600" 
d="M832 -22q-192 0 -326 26.5t-218 91.5t-122 174t-38 274q0 189 38 312.5t122 196.5t218 102t326 29q137 0 237.5 -20t172 -58t116 -92t70 -113.5t35 -139.5t9.5 -169l-16 -64h-1136q0 -132 26 -216.5t86 -123.5t158 -49.5t242 -10.5q132 0 218.5 7.5t137.5 28.5t71.5 58.5
t20.5 97.5h192q0 -93 -32.5 -158.5t-107.5 -106t-197.5 -59t-302.5 -18.5zM832 1024q-96 0 -171.5 -4t-132 -17.5t-96.5 -39t-64.5 -60t-36 -97t-11.5 -150.5h960q0 117 -25 183.5t-79 109.5t-139 59t-205 16zM1152 1664l-128 192l-576 -480l64 -96z" />
    <glyph glyph-name="ecircumflex" unicode="&#xea;" horiz-adv-x="1600" 
d="M832 -22q-192 0 -326 26.5t-218 91.5t-122 174t-38 274q0 189 38 312.5t122 196.5t218 102t326 29q137 0 237.5 -20t172 -58t116 -92t70 -113.5t35 -139.5t9.5 -169l-16 -64h-1136q0 -132 26 -216.5t86 -123.5t158 -49.5t242 -10.5q132 0 218.5 7.5t137.5 28.5t71.5 58.5
t20.5 97.5h192q0 -93 -32.5 -158.5t-107.5 -106t-197.5 -59t-302.5 -18.5zM832 1024q-96 0 -171.5 -4t-132 -17.5t-96.5 -39t-64.5 -60t-36 -97t-11.5 -150.5h960q0 117 -25 183.5t-79 109.5t-139 59t-205 16zM1088 1280l128 96l-320 480h-192l-320 -480l128 -96l288 448z
" />
    <glyph glyph-name="edieresis" unicode="&#xeb;" horiz-adv-x="1600" 
d="M832 -22q-192 0 -326 26.5t-218 91.5t-122 174t-38 274q0 189 38 312.5t122 196.5t218 102t326 29q137 0 237.5 -20t172 -58t116 -92t70 -113.5t35 -139.5t9.5 -169l-16 -64h-1136q0 -132 26 -216.5t86 -123.5t158 -49.5t242 -10.5q132 0 218.5 7.5t137.5 28.5t71.5 58.5
t20.5 97.5h192q0 -93 -32.5 -158.5t-107.5 -106t-197.5 -59t-302.5 -18.5zM832 1024q-96 0 -171.5 -4t-132 -17.5t-96.5 -39t-64.5 -60t-36 -97t-11.5 -150.5h960q0 117 -25 183.5t-79 109.5t-139 59t-205 16zM512 1536h-192v-192h192v192zM1280 1536h-192v-192h192v192z
" />
    <glyph glyph-name="igrave" unicode="&#xec;" 
d="M128 0h192v1088h-192v-1088zM-125 1664l128 192l576 -480l-64 -96z" />
    <glyph glyph-name="iacute" unicode="&#xed;" 
d="M128 0h192v1088h-192v-1088zM579 1664l-128 192l-576 -480l64 -96z" />
    <glyph glyph-name="icircumflex" unicode="&#xee;" 
d="M128 0h192v1088h-192v-1088zM515 1280l128 96l-320 480h-192l-320 -480l128 -96l288 448z" />
    <glyph glyph-name="idieresis" unicode="&#xef;" 
d="M128 0h192v1088h-192v-1088zM-61 1536h-192v-192h192v192zM707 1536h-192v-192h192v192z" />
    <glyph glyph-name="eth" unicode="&#xf0;" horiz-adv-x="1984" 
d="M1324 1026l307 110q33 -116 33 -304q-26 16 -58.5 29t-77.5 24t-106 19t-145 13.5t-194 8t-252 2.5q-216 0 -353 -30t-214.5 -90t-106.5 -150t-29 -210t29 -210t106.5 -150t214.5 -90t353 -30h321q176 0 296.5 21.5t199 65t120.5 109.5t61.5 155t23 201t3.5 248
q0 131 -14 237t-46 191l251 90l-43 120l-265 -95q-45 67 -109.5 116t-152 80t-200 46t-253.5 15q-176 0 -306 -13t-222.5 -39t-151.5 -64t-92.5 -88t-46 -111t-12.5 -133h159q0 40 5.5 77t26.5 69t64 58t117.5 45t186.5 29t272 10q105 0 191.5 -4.5t155.5 -20t120.5 -46.5
t87.5 -84l-298 -107zM831 768q185 0 319 -2.5t226.5 -11.5t149 -26t87.5 -45.5t41 -70.5t10 -100q0 -120 -21 -195t-77.5 -117t-156.5 -57t-257 -15h-321q-112 0 -193.5 6t-138 20t-92 38t-55 59.5t-26 84t-6.5 112.5t7 112.5t26.5 84t54.5 59.5t92 38t138 20t193 6z" />
    <glyph glyph-name="ntilde" unicode="&#xf1;" horiz-adv-x="1602" 
d="M1280 0v640q0 107 -16 180.5t-64 118.5t-136 65t-232 20q-156 0 -255.5 -23t-156.5 -65t-78.5 -101t-21.5 -131v-704h-192v1152h192v-192q21 49 60 84.5t88 60.5t106 40.5t114 24t110.5 11.5t97.5 3q128 0 220.5 -16t157 -47t103.5 -77t60.5 -106.5t28.5 -135t7 -162.5
l-1 -640h-192zM609 1440q45 0 83.5 -15t81.5 -33t95 -33t124 -15q36 0 80.5 12.5t83.5 42t65.5 78.5t26.5 123h-192q0 -30 -4 -49t-12 -29.5t-20 -14t-28 -3.5q-45 0 -83.5 15t-81.5 33.5t-95 33.5t-124 15q-36 0 -80.5 -11.5t-83.5 -40.5t-65.5 -79t-26.5 -126h192
q0 31 4 50t12 29t20 13.5t28 3.5z" />
    <glyph glyph-name="ograve" unicode="&#xf2;" horiz-adv-x="1664" 
d="M128 584q0 177 38 293t122 184t218 95.5t326 27.5t326 -27.5t218 -95.5t122 -184t38 -293t-38 -294t-122 -186t-218 -97.5t-326 -28.5t-326 28.5t-218 97.5t-122 186t-38 294zM320 584q0 -96 7 -167t26.5 -122t54.5 -83t92 -51t138.5 -26t193.5 -7q96 0 171.5 4.5
t132 20.5t96.5 45.5t64.5 80.5t36 125.5t11.5 179.5q0 103 -11.5 175.5t-36 121.5t-64.5 77.5t-96.5 43t-132 18.5t-171.5 4t-171.5 -4t-132 -18.5t-96.5 -43t-64.5 -77.5t-36 -121.5t-11.5 -175.5zM480 1664l128 192l576 -480l-64 -96z" />
    <glyph glyph-name="oacute" unicode="&#xf3;" horiz-adv-x="1664" 
d="M128 584q0 177 38 293t122 184t218 95.5t326 27.5t326 -27.5t218 -95.5t122 -184t38 -293t-38 -294t-122 -186t-218 -97.5t-326 -28.5t-326 28.5t-218 97.5t-122 186t-38 294zM320 584q0 -96 7 -167t26.5 -122t54.5 -83t92 -51t138.5 -26t193.5 -7q96 0 171.5 4.5
t132 20.5t96.5 45.5t64.5 80.5t36 125.5t11.5 179.5q0 103 -11.5 175.5t-36 121.5t-64.5 77.5t-96.5 43t-132 18.5t-171.5 4t-171.5 -4t-132 -18.5t-96.5 -43t-64.5 -77.5t-36 -121.5t-11.5 -175.5zM1184 1664l-128 192l-576 -480l64 -96z" />
    <glyph glyph-name="ocircumflex" unicode="&#xf4;" horiz-adv-x="1664" 
d="M128 584q0 177 38 293t122 184t218 95.5t326 27.5t326 -27.5t218 -95.5t122 -184t38 -293t-38 -294t-122 -186t-218 -97.5t-326 -28.5t-326 28.5t-218 97.5t-122 186t-38 294zM320 584q0 -96 7 -167t26.5 -122t54.5 -83t92 -51t138.5 -26t193.5 -7q96 0 171.5 4.5
t132 20.5t96.5 45.5t64.5 80.5t36 125.5t11.5 179.5q0 103 -11.5 175.5t-36 121.5t-64.5 77.5t-96.5 43t-132 18.5t-171.5 4t-171.5 -4t-132 -18.5t-96.5 -43t-64.5 -77.5t-36 -121.5t-11.5 -175.5zM1120 1280l128 96l-320 480h-192l-320 -480l128 -96l288 448z" />
    <glyph glyph-name="otilde" unicode="&#xf5;" horiz-adv-x="1664" 
d="M128 584q0 177 38 293t122 184t218 95.5t326 27.5t326 -27.5t218 -95.5t122 -184t38 -293t-38 -294t-122 -186t-218 -97.5t-326 -28.5t-326 28.5t-218 97.5t-122 186t-38 294zM320 584q0 -96 7 -167t26.5 -122t54.5 -83t92 -51t138.5 -26t193.5 -7q96 0 171.5 4.5
t132 20.5t96.5 45.5t64.5 80.5t36 125.5t11.5 179.5q0 103 -11.5 175.5t-36 121.5t-64.5 77.5t-96.5 43t-132 18.5t-171.5 4t-171.5 -4t-132 -18.5t-96.5 -43t-64.5 -77.5t-36 -121.5t-11.5 -175.5zM640 1440q45 0 83.5 -15t81.5 -33t95 -33t124 -15q36 0 80.5 12.5t83.5 42
t65.5 78.5t26.5 123h-192q0 -30 -4 -49t-12 -29.5t-20 -14t-28 -3.5q-45 0 -83.5 15t-81.5 33.5t-95 33.5t-124 15q-36 0 -80.5 -11.5t-83.5 -40.5t-65.5 -79t-26.5 -126h192q0 31 4 50t12 29t20 13.5t28 3.5z" />
    <glyph glyph-name="odieresis" unicode="&#xf6;" horiz-adv-x="1664" 
d="M128 584q0 177 38 293t122 184t218 95.5t326 27.5t326 -27.5t218 -95.5t122 -184t38 -293t-38 -294t-122 -186t-218 -97.5t-326 -28.5t-326 28.5t-218 97.5t-122 186t-38 294zM320 584q0 -96 7 -167t26.5 -122t54.5 -83t92 -51t138.5 -26t193.5 -7q96 0 171.5 4.5
t132 20.5t96.5 45.5t64.5 80.5t36 125.5t11.5 179.5q0 103 -11.5 175.5t-36 121.5t-64.5 77.5t-96.5 43t-132 18.5t-171.5 4t-171.5 -4t-132 -18.5t-96.5 -43t-64.5 -77.5t-36 -121.5t-11.5 -175.5zM544 1536h-192v-192h192v192zM1312 1536h-192v-192h192v192z" />
    <glyph glyph-name="divide" unicode="&#xf7;" horiz-adv-x="1280" 
d="M128 512h1024v160h-1024v-160zM768 960h-192v-192h192v192zM768 384h-192v-192h192v192z" />
    <glyph glyph-name="oslash" unicode="&#xf8;" horiz-adv-x="1664" 
d="M128 544q0 168 38 279t122 177t218 93t326 27q76 0 143 -5l81 197l160 -64l-64 -154q3 -1 6 -1q134 -27 218 -93t122 -177t38 -279t-38 -279t-122 -177t-218 -93t-326 -27q-76 0 -143 5l-81 -197l-160 64l63 154q-2 1 -5 1q-134 27 -218 93t-122 177t-38 279zM320 544
q0 -88 7 -153t26.5 -111.5t54.5 -75.5t92 -46q32 -10 72 -17l338 818q-37 1 -78 1q-144 0 -242 -11t-158 -53t-86 -125t-26 -227zM832 128q144 0 242 11t158 53t86 125t26 227t-26 227t-86 125q-55 38 -141 50l-338 -818h79z" />
    <glyph glyph-name="ugrave" unicode="&#xf9;" horiz-adv-x="1602" 
d="M321 1152v-640q0 -107 16 -180.5t64 -118.5t136 -65t232 -20q156 0 255.5 23t156.5 65t78.5 101t21.5 131v704h192v-1152h-192v192q-14 -31 -47 -68.5t-99 -69.5t-170.5 -54t-259.5 -22q-129 0 -221.5 15.5t-157 46t-103.5 75.5t-60 104.5t-28 132.5t-7 160l1 640h192z
M449 1664l128 192l576 -480l-64 -96z" />
    <glyph glyph-name="uacute" unicode="&#xfa;" horiz-adv-x="1602" 
d="M321 1152v-640q0 -107 16 -180.5t64 -118.5t136 -65t232 -20q156 0 255.5 23t156.5 65t78.5 101t21.5 131v704h192v-1152h-192v192q-14 -31 -47 -68.5t-99 -69.5t-170.5 -54t-259.5 -22q-129 0 -221.5 15.5t-157 46t-103.5 75.5t-60 104.5t-28 132.5t-7 160l1 640h192z
M1153 1664l-128 192l-576 -480l64 -96z" />
    <glyph glyph-name="ucircumflex" unicode="&#xfb;" horiz-adv-x="1602" 
d="M321 1152v-640q0 -107 16 -180.5t64 -118.5t136 -65t232 -20q156 0 255.5 23t156.5 65t78.5 101t21.5 131v704h192v-1152h-192v192q-14 -31 -47 -68.5t-99 -69.5t-170.5 -54t-259.5 -22q-129 0 -221.5 15.5t-157 46t-103.5 75.5t-60 104.5t-28 132.5t-7 160l1 640h192z
M1089 1280l128 96l-320 480h-192l-320 -480l128 -96l288 448z" />
    <glyph glyph-name="udieresis" unicode="&#xfc;" horiz-adv-x="1602" 
d="M321 1152v-640q0 -107 16 -180.5t64 -118.5t136 -65t232 -20q156 0 255.5 23t156.5 65t78.5 101t21.5 131v704h192v-1152h-192v192q-14 -31 -47 -68.5t-99 -69.5t-170.5 -54t-259.5 -22q-129 0 -221.5 15.5t-157 46t-103.5 75.5t-60 104.5t-28 132.5t-7 160l1 640h192z
M513 1536h-192v-192h192v192zM1281 1536h-192v-192h192v192z" />
    <glyph glyph-name="yacute" unicode="&#xfd;" horiz-adv-x="1568" 
d="M672 0h64q-16 -32 -28.5 -61t-30.5 -54t-45 -45t-71.5 -34.5t-110.5 -22t-162 -7.5v-160q112 0 194 10.5t141.5 30t100.5 47.5t71 63.5t53.5 78t47.5 90.5l32 64l576 1152h-224l-480 -1024l-512 1024h-224zM1136 1664l-128 192l-576 -480l64 -96z" />
    <glyph glyph-name="thorn" unicode="&#xfe;" horiz-adv-x="1600" 
d="M832 1120q-84 0 -150.5 -7t-118.5 -18t-90 -25.5t-65 -29.5q-63 -35 -88 -79v575h-192v-1920h192v512q25 -45 88 -80q27 -15 65 -29.5t90 -25.5t118.5 -18t150.5 -7q192 0 326 27t218 93t122 177t38 279t-38 279t-122 177t-218 93t-326 27zM832 960q112 0 193.5 -6.5
t138.5 -23.5t92.5 -46t55 -75.5t26 -111.5t6.5 -153t-6.5 -153t-26 -111.5t-55 -75.5t-92.5 -46t-138.5 -23.5t-193.5 -6.5q-96 0 -171 4t-132 18.5t-96.5 42t-64.5 74t-36.5 115t-11.5 165.5q0 95 11.5 163t36.5 113.5t64.5 72.5t96.5 41.5t132 18.5t171 4z" />
    <glyph glyph-name="ydieresis" unicode="&#xff;" horiz-adv-x="1568" 
d="M672 0h64q-16 -32 -28.5 -61t-30.5 -54t-45 -45t-71.5 -34.5t-110.5 -22t-162 -7.5v-160q112 0 194 10.5t141.5 30t100.5 47.5t71 63.5t53.5 78t47.5 90.5l32 64l576 1152h-224l-480 -1024l-512 1024h-224zM496 1536h-192v-192h192v192zM1264 1536h-192v-192h192v192z
" />
    <glyph glyph-name="Amacron" unicode="&#x100;" horiz-adv-x="2304" 
d="M768 1690h768v160h-768v-160zM1760 352h-1216l-192 -352h-224l896 1536h256l896 -1536h-224zM1664 512l-512 896l-512 -896h1024z" />
    <glyph glyph-name="amacron" unicode="&#x101;" horiz-adv-x="1600" 
d="M450 1244h768v160h-768v-160zM1280 158q-3 -12 -45 -60q-30 -36 -80 -63.5t-133.5 -43t-219.5 -15.5q-181 0 -309 18.5t-209 57t-118.5 98.5t-37.5 143q0 87 20.5 147.5t60 101.5t95.5 64t127.5 35t156.5 15t181 3q137 0 229 -11.5t150.5 -29t88.5 -37.5t43 -37
q0 112 -9.5 191t-31 132t-55.5 84.5t-83.5 47.5t-115.5 20.5t-151 4.5q-132 0 -219 -6.5t-138 -25.5t-72 -52.5t-21 -87.5h-192q0 91 32.5 154t108 102.5t198.5 57.5t303 18q176 0 298 -29t197.5 -102t109 -196.5t33.5 -312.5v-544h-192v158zM834 128q127 0 212.5 12
t137.5 36t74 60t22 84t-25.5 81.5t-85 54.5t-157.5 30.5t-242 9.5t-232.5 -5t-136.5 -23t-64.5 -53t-16.5 -95t17.5 -97.5t71.5 -58.5t155.5 -28.5t269.5 -7.5z" />
    <glyph glyph-name="Aogonek" unicode="&#x104;" horiz-adv-x="2304" 
d="M2082 -555q-72 0 -141 13t-123 43t-87 79t-33 121q0 36 11 69t29 62t41 54.5t47 46.5q56 49 128 88h128q-72 -48 -111 -94.5t-57 -85.5t-21 -67.5t-3 -40.5q0 -72 47.5 -100t144.5 -28v-160zM1760 352h-1216l-192 -352h-224l896 1536h256l896 -1536h-224zM1664 512
l-512 896l-512 -896h1024z" />
    <glyph glyph-name="aogonek" unicode="&#x105;" horiz-adv-x="1600" 
d="M1413 -572q-72 0 -141 13t-123 43t-87 79t-33 121q0 36 11 69t29 62t41 54.5t47 46.5q56 49 128 88h128q-72 -48 -111 -94.5t-57 -85.5t-21 -67.5t-3 -40.5q0 -72 47.5 -100t144.5 -28v-160zM1280 158q-3 -12 -45 -60q-30 -36 -80 -63.5t-133.5 -43t-219.5 -15.5
q-181 0 -309 18.5t-209 57t-118.5 98.5t-37.5 143q0 87 20.5 147.5t60 101.5t95.5 64t127.5 35t156.5 15t181 3q137 0 229 -11.5t150.5 -29t88.5 -37.5t43 -37q0 112 -9.5 191t-31 132t-55.5 84.5t-83.5 47.5t-115.5 20.5t-151 4.5q-132 0 -219 -6.5t-138 -25.5t-72 -52.5
t-21 -87.5h-192q0 91 32.5 154t108 102.5t198.5 57.5t303 18q176 0 298 -29t197.5 -102t109 -196.5t33.5 -312.5v-544h-192v158zM834 128q127 0 212.5 12t137.5 36t74 60t22 84t-25.5 81.5t-85 54.5t-157.5 30.5t-242 9.5t-232.5 -5t-136.5 -23t-64.5 -53t-16.5 -95
t17.5 -97.5t71.5 -58.5t155.5 -28.5t269.5 -7.5z" />
    <glyph glyph-name="Ccircumflex" unicode="&#x108;" horiz-adv-x="2111" 
d="M1343 1690l128 96l-320 480h-192l-320 -480l128 -96l288 448zM1791 1056q0 120 -26 190t-86 106t-157.5 46t-241.5 10h-449q-128 0 -215.5 -7.5t-144.5 -30.5t-88 -66t-45 -114t-16 -174.5t-2 -247.5t2.5 -247.5t16.5 -174.5t44.5 -114t87.5 -66t144.5 -30.5t215.5 -7.5
h449q112 0 193 6t138 22t92 44t54.5 70.5t26.5 102t7 139.5h192q0 -96 -12 -173.5t-42.5 -138t-81.5 -104.5t-129 -72.5t-186 -42t-252 -13.5h-449q-176 0 -296.5 21.5t-198.5 65t-120.5 109.5t-62 155t-22.5 201t-3 248t3 248t22.5 201t62 155t120.5 109.5t198.5 65
t296.5 21.5h449q144 0 252 -13.5t186 -41t129 -69.5t81.5 -99t42.5 -129t12 -160h-192z" />
    <glyph glyph-name="ccircumflex" unicode="&#x109;" horiz-adv-x="1601" 
d="M1121 1244l128 96l-320 480h-192l-320 -480l128 -96l288 448zM128 574q0 120 12 212t42.5 160t82 113.5t130 73.5t186.5 40t252 12q192 0 316 -23.5t196 -72t100 -123t28 -177.5h-192q0 37 -2 69t-14.5 58t-39.5 46.5t-77 34.5t-126.5 21t-188.5 7q-128 0 -215.5 -9
t-144.5 -29.5t-88 -55t-45 -84.5t-16.5 -117.5t-2.5 -155.5q0 -86 2.5 -152.5t16.5 -116t45 -83.5t88 -55t144.5 -30t215.5 -9q112 0 188.5 8t126.5 23t77 37t39.5 50.5t14.5 63t2 74.5h192q0 -105 -28 -182t-100 -126.5t-196 -73.5t-316 -24q-144 0 -252 12t-186.5 39.5
t-130 72.5t-82 111t-42.5 155.5t-12 205.5z" />
    <glyph glyph-name="Cdotaccent" unicode="&#x10a;" horiz-adv-x="2111" 
d="M1151 1882h-192v-192h192v192zM1791 1056q0 120 -26 190t-86 106t-157.5 46t-241.5 10h-449q-128 0 -215.5 -7.5t-144.5 -30.5t-88 -66t-45 -114t-16 -174.5t-2 -247.5t2.5 -247.5t16.5 -174.5t44.5 -114t87.5 -66t144.5 -30.5t215.5 -7.5h449q112 0 193 6t138 22t92 44
t54.5 70.5t26.5 102t7 139.5h192q0 -96 -12 -173.5t-42.5 -138t-81.5 -104.5t-129 -72.5t-186 -42t-252 -13.5h-449q-176 0 -296.5 21.5t-198.5 65t-120.5 109.5t-62 155t-22.5 201t-3 248t3 248t22.5 201t62 155t120.5 109.5t198.5 65t296.5 21.5h449q144 0 252 -13.5
t186 -41t129 -69.5t81.5 -99t42.5 -129t12 -160h-192z" />
    <glyph glyph-name="cdotaccent" unicode="&#x10b;" horiz-adv-x="1601" 
d="M929 1436h-192v-192h192v192zM128 574q0 120 12 212t42.5 160t82 113.5t130 73.5t186.5 40t252 12q192 0 316 -23.5t196 -72t100 -123t28 -177.5h-192q0 37 -2 69t-14.5 58t-39.5 46.5t-77 34.5t-126.5 21t-188.5 7q-128 0 -215.5 -9t-144.5 -29.5t-88 -55t-45 -84.5
t-16.5 -117.5t-2.5 -155.5q0 -86 2.5 -152.5t16.5 -116t45 -83.5t88 -55t144.5 -30t215.5 -9q112 0 188.5 8t126.5 23t77 37t39.5 50.5t14.5 63t2 74.5h192q0 -105 -28 -182t-100 -126.5t-196 -73.5t-316 -24q-144 0 -252 12t-186.5 39.5t-130 72.5t-82 111t-42.5 155.5
t-12 205.5z" />
    <glyph glyph-name="Ccaron" unicode="&#x10c;" horiz-adv-x="2112" 
d="M1056 1818l-288 448l-128 -96l320 -480h192l320 480l-128 96zM1792 1056q0 120 -26 190t-86 106t-157.5 46t-241.5 10h-449q-128 0 -215.5 -7.5t-144.5 -30.5t-88 -66t-45 -114t-16 -174.5t-2 -247.5t2.5 -247.5t16.5 -174.5t44.5 -114t87.5 -66t144.5 -30.5t215.5 -7.5
h449q112 0 193 6t138 22t92 44t54.5 70.5t26.5 102t7 139.5h192q0 -96 -12 -173.5t-42.5 -138t-81.5 -104.5t-129 -72.5t-186 -42t-252 -13.5h-449q-176 0 -296.5 21.5t-198.5 65t-120.5 109.5t-62 155t-22.5 201t-3 248t3 248t22.5 201t62 155t120.5 109.5t198.5 65
t296.5 21.5h449q144 0 252 -13.5t186 -41t129 -69.5t81.5 -99t42.5 -129t12 -160h-192z" />
    <glyph glyph-name="ccaron" unicode="&#x10d;" horiz-adv-x="1601" 
d="M833 1372l-288 448l-128 -96l320 -480h192l320 480l-128 96zM128 574q0 120 12 212t42.5 160t82 113.5t130 73.5t186.5 40t252 12q192 0 316 -23.5t196 -72t100 -123t28 -177.5h-192q0 37 -2 69t-14.5 58t-39.5 46.5t-77 34.5t-126.5 21t-188.5 7q-128 0 -215.5 -9
t-144.5 -29.5t-88 -55t-45 -84.5t-16.5 -117.5t-2.5 -155.5q0 -86 2.5 -152.5t16.5 -116t45 -83.5t88 -55t144.5 -30t215.5 -9q112 0 188.5 8t126.5 23t77 37t39.5 50.5t14.5 63t2 74.5h192q0 -105 -28 -182t-100 -126.5t-196 -73.5t-316 -24q-144 0 -252 12t-186.5 39.5
t-130 72.5t-82 111t-42.5 155.5t-12 205.5z" />
    <glyph glyph-name="Dcroat" unicode="&#x110;" horiz-adv-x="2112" 
d="M0 704h128v-704h1151q176 0 296.5 20.5t199 62.5t121 105t62 148.5t23 193t3.5 238.5t-3.5 238.5t-23 193t-62 148.5t-121 105t-199 62.5t-296.5 20.5h-1151v-672h-128v-160zM320 160v544h448v160h-448v512h959q128 0 215.5 -7t144.5 -28.5t88 -62.5t45.5 -108.5t17 -166
t2.5 -235.5t-2.5 -235.5t-17 -166t-45.5 -108.5t-88 -62.5t-145 -28.5t-215 -7h-959z" />
    <glyph glyph-name="dcroat" unicode="&#x111;" horiz-adv-x="1664" 
d="M896 1409h448v127h192v-127h128v-160h-128v-1249h-192v127q-25 -45 -88 -80q-27 -15 -65 -29t-90 -25.5t-118.5 -18t-150.5 -6.5q-192 0 -326 27t-218 93t-122 177t-38 279t38 279t122 177t218 93t326 27q84 0 150.5 -7t118.5 -18t90 -25.5t65 -29.5q63 -35 88 -80v289
h-448v160zM832 128q96 0 171 4t132 18.5t96.5 41.5t64.5 72.5t36.5 113.5t11.5 163q0 97 -11.5 165.5t-36.5 115t-64.5 74t-96.5 42t-132 18.5t-171 4q-112 0 -193.5 -6.5t-138.5 -23.5t-92.5 -46t-55 -75.5t-26 -111.5t-6.5 -153t6.5 -153t26 -111.5t55 -75.5t92.5 -46
t138.5 -23.5t193.5 -6.5z" />
    <glyph glyph-name="Emacron" unicode="&#x112;" horiz-adv-x="1792" 
d="M576 1690h768v160h-768v-160zM192 0v1536h1536v-160h-1344v-512h1280v-160h-1280v-544h1344v-160h-1536z" />
    <glyph glyph-name="emacron" unicode="&#x113;" horiz-adv-x="1600" 
d="M448 1244h768v160h-768v-160zM832 -22q-192 0 -326 26.5t-218 91.5t-122 174t-38 274q0 189 38 312.5t122 196.5t218 102t326 29q137 0 237.5 -20t172 -58t116 -92t70 -113.5t35 -139.5t9.5 -169l-16 -64h-1136q0 -132 26 -216.5t86 -123.5t158 -49.5t242 -10.5
q132 0 218.5 7.5t137.5 28.5t71.5 58.5t20.5 97.5h192q0 -93 -32.5 -158.5t-107.5 -106t-197.5 -59t-302.5 -18.5zM832 1024q-96 0 -171.5 -4t-132 -17.5t-96.5 -39t-64.5 -60t-36 -97t-11.5 -150.5h960q0 117 -25 183.5t-79 109.5t-139 59t-205 16z" />
    <glyph glyph-name="Edotaccent" unicode="&#x116;" horiz-adv-x="1792" 
d="M1056 1882h-192v-192h192v192zM192 0v1536h1536v-160h-1344v-512h1280v-160h-1280v-544h1344v-160h-1536z" />
    <glyph glyph-name="edotaccent" unicode="&#x117;" horiz-adv-x="1600" 
d="M928 1436h-192v-192h192v192zM832 -22q-192 0 -326 26.5t-218 91.5t-122 174t-38 274q0 189 38 312.5t122 196.5t218 102t326 29q137 0 237.5 -20t172 -58t116 -92t70 -113.5t35 -139.5t9.5 -169l-16 -64h-1136q0 -132 26 -216.5t86 -123.5t158 -49.5t242 -10.5
q132 0 218.5 7.5t137.5 28.5t71.5 58.5t20.5 97.5h192q0 -93 -32.5 -158.5t-107.5 -106t-197.5 -59t-302.5 -18.5zM832 1024q-96 0 -171.5 -4t-132 -17.5t-96.5 -39t-64.5 -60t-36 -97t-11.5 -150.5h960q0 117 -25 183.5t-79 109.5t-139 59t-205 16z" />
    <glyph glyph-name="Eogonek" unicode="&#x118;" horiz-adv-x="1792" 
d="M1714 -555q-72 0 -141 13t-123 43t-87 79t-33 121q0 36 11 69t29 62t41 54.5t47 46.5q56 49 128 88h128q-72 -48 -111 -94.5t-57 -85.5t-21 -67.5t-3 -40.5q0 -72 47.5 -100t144.5 -28v-160zM192 0v1536h1536v-160h-1344v-512h1280v-160h-1280v-544h1344v-160h-1536z" />
    <glyph glyph-name="eogonek" unicode="&#x119;" horiz-adv-x="1600" 
d="M1063 -587q-72 0 -141 13t-123 43t-87 79t-33 121q0 36 11 69t29 62t41 54.5t47 46.5q56 49 128 88h128q-72 -48 -111 -94.5t-57 -85.5t-21 -67.5t-3 -40.5q0 -72 47.5 -100t144.5 -28v-160zM832 -22q-192 0 -326 26.5t-218 91.5t-122 174t-38 274q0 189 38 312.5
t122 196.5t218 102t326 29q137 0 237.5 -20t172 -58t116 -92t70 -113.5t35 -139.5t9.5 -169l-16 -64h-1136q0 -132 26 -216.5t86 -123.5t158 -49.5t242 -10.5q132 0 218.5 7.5t137.5 28.5t71.5 58.5t20.5 97.5h192q0 -93 -32.5 -158.5t-107.5 -106t-197.5 -59t-302.5 -18.5z
M832 1024q-96 0 -171.5 -4t-132 -17.5t-96.5 -39t-64.5 -60t-36 -97t-11.5 -150.5h960q0 117 -25 183.5t-79 109.5t-139 59t-205 16z" />
    <glyph glyph-name="Ecaron" unicode="&#x11a;" horiz-adv-x="1792" 
d="M960 1818l-288 448l-128 -96l320 -480h192l320 480l-128 96zM192 0v1536h1536v-160h-1344v-512h1280v-160h-1280v-544h1344v-160h-1536z" />
    <glyph glyph-name="ecaron" unicode="&#x11b;" horiz-adv-x="1600" 
d="M832 1371l-288 448l-128 -96l320 -480h192l320 480l-128 96zM832 -22q-192 0 -326 26.5t-218 91.5t-122 174t-38 274q0 189 38 312.5t122 196.5t218 102t326 29q137 0 237.5 -20t172 -58t116 -92t70 -113.5t35 -139.5t9.5 -169l-16 -64h-1136q0 -132 26 -216.5t86 -123.5
t158 -49.5t242 -10.5q132 0 218.5 7.5t137.5 28.5t71.5 58.5t20.5 97.5h192q0 -93 -32.5 -158.5t-107.5 -106t-197.5 -59t-302.5 -18.5zM832 1024q-96 0 -171.5 -4t-132 -17.5t-96.5 -39t-64.5 -60t-36 -97t-11.5 -150.5h960q0 117 -25 183.5t-79 109.5t-139 59t-205 16z
" />
    <glyph glyph-name="Gcircumflex" unicode="&#x11c;" horiz-adv-x="2177" 
d="M1376 1690l128 96l-320 480h-192l-320 -480l128 -96l288 448zM1857 1056q0 120 -26 190t-86 106t-158 46t-242 10h-514q-128 0 -215.5 -7.5t-144.5 -30.5t-88 -66t-45 -114t-16 -174.5t-2 -247.5t2.5 -247.5t16.5 -174.5t44.5 -114t87.5 -66t144.5 -30.5t215.5 -7.5h515
q112 0 193 6t138 22t92 44t54.5 70.5t26.5 102t7 139.5v96h-770v160h962v-256q0 -96 -12 -173.5t-42.5 -138t-81.5 -104.5t-129 -72.5t-186 -42t-252 -13.5h-515q-176 0 -296.5 21.5t-198.5 65t-120.5 109.5t-62 155t-22.5 201t-3 248t3 248t22.5 201t62 155t120.5 109.5
t198.5 65t296.5 21.5h514q144 0 252 -13.5t186 -41t129.5 -69.5t82 -99t42.5 -129t12 -160h-192z" />
    <glyph glyph-name="gcircumflex" unicode="&#x11d;" horiz-adv-x="1664" 
d="M1120 1244l128 96l-320 480h-192l-320 -480l128 -96l288 448zM832 1024q-112 0 -193.5 -7t-138.5 -25t-92.5 -50t-55 -82t-26 -120.5t-6.5 -165.5q0 -94 6.5 -163.5t26 -119t55 -81.5t92.5 -50t138.5 -25t193.5 -7q96 0 171 4.5t132 20t96.5 45t64.5 79t36.5 123
t11.5 177.5t-11.5 178t-36.5 123.5t-64.5 78.5t-96.5 44t-132 19t-171 4zM1536 160q0 -168 -38 -279t-122 -179.5t-218 -95.5t-326 -27q-180 0 -302.5 16t-197.5 50.5t-107.5 89t-32.5 132.5h192q0 -39 20.5 -64t71.5 -39t137.5 -19.5t218.5 -5.5q144 0 242 10.5t158 49.5
t86 118t26 211q-14 -24 -44.5 -52t-89 -52t-150.5 -40t-228 -16q-192 0 -326 28.5t-218 97.5t-122 186t-38 294q0 180 38 298t122 187t218 97t326 28q136 0 228 -14t150.5 -35t89 -45.5t44.5 -44.5v107h192v-992z" />
    <glyph glyph-name="Gbreve" unicode="&#x11e;" horiz-adv-x="2177" 
d="M704 2010q0 -168 96 -244t288 -76t288 76t96 244h-160q0 -72 -17 -111t-47 -57t-71 -21t-89 -3t-89 3t-71 21t-47 57t-17 111h-160zM1857 1056q0 120 -26 190t-86 106t-158 46t-242 10h-514q-128 0 -215.5 -7.5t-144.5 -30.5t-88 -66t-45 -114t-16 -174.5t-2 -247.5
t2.5 -247.5t16.5 -174.5t44.5 -114t87.5 -66t144.5 -30.5t215.5 -7.5h515q112 0 193 6t138 22t92 44t54.5 70.5t26.5 102t7 139.5v96h-770v160h962v-256q0 -96 -12 -173.5t-42.5 -138t-81.5 -104.5t-129 -72.5t-186 -42t-252 -13.5h-515q-176 0 -296.5 21.5t-198.5 65
t-120.5 109.5t-62 155t-22.5 201t-3 248t3 248t22.5 201t62 155t120.5 109.5t198.5 65t296.5 21.5h514q144 0 252 -13.5t186 -41t129.5 -69.5t82 -99t42.5 -129t12 -160h-192z" />
    <glyph glyph-name="gbreve" unicode="&#x11f;" horiz-adv-x="1664" 
d="M448 1564q0 -168 96 -244t288 -76t288 76t96 244h-160q0 -72 -17 -111t-47 -57t-71 -21t-89 -3t-89 3t-71 21t-47 57t-17 111h-160zM832 1024q-112 0 -193.5 -7t-138.5 -25t-92.5 -50t-55 -82t-26 -120.5t-6.5 -165.5q0 -94 6.5 -163.5t26 -119t55 -81.5t92.5 -50
t138.5 -25t193.5 -7q96 0 171 4.5t132 20t96.5 45t64.5 79t36.5 123t11.5 177.5t-11.5 178t-36.5 123.5t-64.5 78.5t-96.5 44t-132 19t-171 4zM1536 160q0 -168 -38 -279t-122 -179.5t-218 -95.5t-326 -27q-180 0 -302.5 16t-197.5 50.5t-107.5 89t-32.5 132.5h192
q0 -39 20.5 -64t71.5 -39t137.5 -19.5t218.5 -5.5q144 0 242 10.5t158 49.5t86 118t26 211q-14 -24 -44.5 -52t-89 -52t-150.5 -40t-228 -16q-192 0 -326 28.5t-218 97.5t-122 186t-38 294q0 180 38 298t122 187t218 97t326 28q136 0 228 -14t150.5 -35t89 -45.5t44.5 -44.5
v107h192v-992z" />
    <glyph glyph-name="Gdotaccent" unicode="&#x120;" horiz-adv-x="2177" 
d="M1184 1882h-192v-192h192v192zM1857 1056q0 120 -26 190t-86 106t-158 46t-242 10h-514q-128 0 -215.5 -7.5t-144.5 -30.5t-88 -66t-45 -114t-16 -174.5t-2 -247.5t2.5 -247.5t16.5 -174.5t44.5 -114t87.5 -66t144.5 -30.5t215.5 -7.5h515q112 0 193 6t138 22t92 44
t54.5 70.5t26.5 102t7 139.5v96h-770v160h962v-256q0 -96 -12 -173.5t-42.5 -138t-81.5 -104.5t-129 -72.5t-186 -42t-252 -13.5h-515q-176 0 -296.5 21.5t-198.5 65t-120.5 109.5t-62 155t-22.5 201t-3 248t3 248t22.5 201t62 155t120.5 109.5t198.5 65t296.5 21.5h514
q144 0 252 -13.5t186 -41t129.5 -69.5t82 -99t42.5 -129t12 -160h-192z" />
    <glyph glyph-name="gdotaccent" unicode="&#x121;" horiz-adv-x="1664" 
d="M928 1436h-192v-192h192v192zM832 1024q-112 0 -193.5 -7t-138.5 -25t-92.5 -50t-55 -82t-26 -120.5t-6.5 -165.5q0 -94 6.5 -163.5t26 -119t55 -81.5t92.5 -50t138.5 -25t193.5 -7q96 0 171 4.5t132 20t96.5 45t64.5 79t36.5 123t11.5 177.5t-11.5 178t-36.5 123.5
t-64.5 78.5t-96.5 44t-132 19t-171 4zM1536 160q0 -168 -38 -279t-122 -179.5t-218 -95.5t-326 -27q-180 0 -302.5 16t-197.5 50.5t-107.5 89t-32.5 132.5h192q0 -39 20.5 -64t71.5 -39t137.5 -19.5t218.5 -5.5q144 0 242 10.5t158 49.5t86 118t26 211q-14 -24 -44.5 -52
t-89 -52t-150.5 -40t-228 -16q-192 0 -326 28.5t-218 97.5t-122 186t-38 294q0 180 38 298t122 187t218 97t326 28q136 0 228 -14t150.5 -35t89 -45.5t44.5 -44.5v107h192v-992z" />
    <glyph glyph-name="Gcommaaccent" unicode="&#x122;" horiz-adv-x="2177" 
d="M1025 -152h192l-128 -384h-128zM1857 1056q0 120 -26 190t-86 106t-158 46t-242 10h-514q-128 0 -215.5 -7.5t-144.5 -30.5t-88 -66t-45 -114t-16 -174.5t-2 -247.5t2.5 -247.5t16.5 -174.5t44.5 -114t87.5 -66t144.5 -30.5t215.5 -7.5h515q112 0 193 6t138 22t92 44
t54.5 70.5t26.5 102t7 139.5v96h-770v160h962v-256q0 -96 -12 -173.5t-42.5 -138t-81.5 -104.5t-129 -72.5t-186 -42t-252 -13.5h-515q-176 0 -296.5 21.5t-198.5 65t-120.5 109.5t-62 155t-22.5 201t-3 248t3 248t22.5 201t62 155t120.5 109.5t198.5 65t296.5 21.5h514
q144 0 252 -13.5t186 -41t129.5 -69.5t82 -99t42.5 -129t12 -160h-192z" />
    <glyph glyph-name="Hcircumflex" unicode="&#x124;" horiz-adv-x="2048" 
d="M1312 1690l128 96l-320 480h-192l-320 -480l128 -96l288 448zM1729 1536h192v-1536h-192v704h-1408v-704h-192v1536h192v-672h1408v672z" />
    <glyph glyph-name="hcircumflex" unicode="&#x125;" horiz-adv-x="1601" 
d="M1088 1658l128 96l-320 480h-192l-320 -480l128 -96l288 448zM1280 0v650q0 104 -16 175.5t-64 115.5t-136 63.5t-232 19.5q-156 0 -255.5 -22.5t-156.5 -63t-78.5 -97.5t-21.5 -127v-714h-192v1536h192v-566q20 47 57 81t85.5 58t104.5 38.5t113.5 22.5t113 11t102.5 3
q128 0 220.5 -15.5t157 -46t103.5 -75.5t60.5 -104.5t28.5 -133t7 -159.5l-1 -650h-192z" />
    <glyph glyph-name="Itilde" unicode="&#x128;" 
d="M34 1786q45 0 83.5 -15t81.5 -33t95 -33t124 -15q36 0 80.5 12.5t83.5 42t65.5 78.5t26.5 123h-192q0 -30 -4 -49t-12 -29.5t-20 -14t-28 -3.5q-45 0 -83.5 15t-81.5 33.5t-95 33.5t-124 15q-36 0 -80.5 -11.5t-83.5 -40.5t-65.5 -79t-26.5 -126h192q0 31 4 50t12 29
t20 13.5t28 3.5zM129 1536h192v-1536h-192v1536z" />
    <glyph glyph-name="itilde" unicode="&#x129;" 
d="M34 1340q45 0 83.5 -15t81.5 -33t95 -33t124 -15q36 0 80.5 12.5t83.5 42t65.5 78.5t26.5 123h-192q0 -30 -4 -49t-12 -29.5t-20 -14t-28 -3.5q-45 0 -83.5 15t-81.5 33.5t-95 33.5t-124 15q-36 0 -80.5 -11.5t-83.5 -40.5t-65.5 -79t-26.5 -126h192q0 31 4 50t12 29
t20 13.5t28 3.5zM128 0h192v1088h-192v-1088z" />
    <glyph glyph-name="Imacron" unicode="&#x12a;" 
d="M-158 1690h768v160h-768v-160zM129 1536h192v-1536h-192v1536z" />
    <glyph glyph-name="imacron" unicode="&#x12b;" 
d="M-158 1244h768v160h-768v-160zM128 0h192v1088h-192v-1088z" />
    <glyph glyph-name="Ibreve" unicode="&#x12c;" 
d="M-159 2010q0 -168 96 -244t288 -76t288 76t96 244h-160q0 -72 -17 -111t-47 -57t-71 -21t-89 -3t-89 3t-71 21t-47 57t-17 111h-160zM129 1536h192v-1536h-192v1536z" />
    <glyph glyph-name="ibreve" unicode="&#x12d;" 
d="M-159 1563q0 -168 96 -244t288 -76t288 76t96 244h-160q0 -72 -17 -111t-47 -57t-71 -21t-89 -3t-89 3t-71 21t-47 57t-17 111h-160zM128 0h192v1088h-192v-1088z" />
    <glyph glyph-name="Iogonek" unicode="&#x12e;" 
d="M290 -555q-72 0 -141 13t-123 43t-87 79t-33 121q0 36 11 69t29 62t41 54.5t47 46.5q56 49 128 88h128q-72 -48 -111 -94.5t-57 -85.5t-21 -67.5t-3 -40.5q0 -72 47.5 -100t144.5 -28v-160zM129 1536h192v-1536h-192v1536z" />
    <glyph glyph-name="iogonek" unicode="&#x12f;" 
d="M290 -555q-72 0 -141 13t-123 43t-87 79t-33 121q0 36 11 69t29 62t41 54.5t47 46.5q56 49 128 88h128q-72 -48 -111 -94.5t-57 -85.5t-21 -67.5t-3 -40.5q0 -72 47.5 -100t144.5 -28v-160zM129 1152h192v-1152h-192v1152zM321 1344h-192v192h192v-192z" />
    <glyph glyph-name="Idotaccent" unicode="&#x130;" 
d="M320 1882h-192v-192h192v192zM129 1536h192v-1536h-192v1536z" />
    <glyph glyph-name="dotlessi" unicode="&#x131;" 
d="M128 0h192v1088h-192v-1088z" />
    <glyph glyph-name="IJ" unicode="&#x132;" horiz-adv-x="2112" 
d="M1024 0q-144 0 -232 26t-136 86t-64 158t-16 242v64h192v-64q0 -120 13 -190.5t43 -107.5t79 -47.5t121 -10.5h448q96 0 158 17.5t98 53.5t50 91t14 130v1088h192v-1088q0 -120 -26 -205t-86 -139t-158 -79t-242 -25h-448zM129 1536h192v-1536h-192v1536z" />
    <glyph glyph-name="ij" unicode="&#x133;" horiz-adv-x="1056" 
d="M928 -64q0 -74 -10 -133t-46 -100.5t-106 -64t-190 -22.5v160q48 0 79 7t49 25t25 49t7 79v1216h192v-1216zM928 1344h-192v192h192v-192zM129 1152h192v-1152h-192v1152zM321 1344h-192v192h192v-192z" />
    <glyph glyph-name="Jcircumflex" unicode="&#x134;" horiz-adv-x="1664" 
d="M1728 1690l128 96l-320 480h-192l-320 -480l128 -96l288 448zM576 0q-144 0 -232 26t-136 86t-64 158t-16 242v64h192v-64q0 -120 13 -190.5t43 -107.5t79 -47.5t121 -10.5h448q96 0 158 17.5t98 53.5t50 91t14 130v1088h192v-1088q0 -120 -26 -205t-86 -139t-158 -79
t-242 -25h-448z" />
    <glyph glyph-name="jcircumflex" unicode="&#x135;" horiz-adv-x="608" 
d="M674 1244l128 96l-320 480h-192l-320 -480l128 -96l288 448zM480 1088h-192v-1152q0 -48 -7 -79t-25 -49t-49 -25t-79 -7v-160q120 0 190 22.5t106 64t46 100.5t10 133v1152z" />
    <glyph glyph-name="Kcommaaccent" unicode="&#x136;" horiz-adv-x="2016" 
d="M944 -120h192l-128 -384h-128zM1569 1536h288l-1088 -752l1120 -784h-288l-1024 704h-256v-704h-192v1536h192v-672h256z" />
    <glyph glyph-name="kcommaaccent" unicode="&#x137;" horiz-adv-x="1408" 
d="M704 -120h192l-128 -384h-128zM128 1536h192v-840h64l704 456h288l-816 -536l848 -616h-288l-736 552h-64v-552h-192v1536z" />
    <glyph glyph-name="kgreenlandic" unicode="&#x138;" horiz-adv-x="1408" 
d="M128 0h192v512h64l736 -512h288l-848 576l816 512h-288l-704 -432h-64v880h-192v-1536z" />
    <glyph glyph-name="Lacute" unicode="&#x139;" horiz-adv-x="1664" 
d="M1536 2074l-128 192l-576 -480l64 -96zM192 0v1536h192v-1376h1216v-160h-1408z" />
    <glyph glyph-name="lacute" unicode="&#x13a;" 
d="M864 2042l-128 192l-576 -480l64 -96zM129 1536h192v-1536h-192v1536z" />
    <glyph glyph-name="Lcommaaccent" unicode="&#x13b;" horiz-adv-x="1664" 
d="M832 -120h192l-128 -384h-128zM192 0v1536h192v-1376h1216v-160h-1408z" />
    <glyph glyph-name="lcommaaccent" unicode="&#x13c;" 
d="M160 -120h192l-128 -384h-128zM129 1536h192v-1536h-192v1536z" />
    <glyph glyph-name="Lcaron" unicode="&#x13d;" horiz-adv-x="1664" 
d="M831 1568h192l-128 -384h-128zM192 0v1536h192v-1376h1216v-160h-1408z" />
    <glyph glyph-name="lcaron" unicode="&#x13e;" 
d="M567 1536h192l-128 -384h-128zM129 1536h192v-1536h-192v1536z" />
    <glyph glyph-name="Ldot" unicode="&#x13f;" horiz-adv-x="1664" 
d="M992 881h-192v-192h192v192zM192 0v1536h192v-1376h1216v-160h-1408z" />
    <glyph glyph-name="ldot" unicode="&#x140;" horiz-adv-x="896" 
d="M768 896h-192v-192h192v192zM129 1536h192v-1536h-192v1536z" />
    <glyph glyph-name="Lslash" unicode="&#x141;" horiz-adv-x="1664" 
d="M64 768l704 160v160l-704 -160v-160zM1600 0v160h-1216v1376h-192v-1536h1408z" />
    <glyph glyph-name="lslash" unicode="&#x142;" horiz-adv-x="512" 
d="M0 768l576 160v160l-576 -160v-160zM128 0h192v1536h-192v-1536z" />
    <glyph glyph-name="Nacute" unicode="&#x143;" horiz-adv-x="2193" 
d="M1736 2074l-128 192l-576 -480l64 -96zM321 0h-192v1536h337l1408 -1344v1344h192v-1536h-256l-1489 1376v-1376z" />
    <glyph glyph-name="nacute" unicode="&#x144;" horiz-adv-x="1601" 
d="M1504 1627l-128 192l-576 -480l64 -96zM1344 0v640q0 107 -16 180.5t-64 118.5t-136 65t-232 20q-156 0 -255.5 -23t-156.5 -65t-78.5 -101t-21.5 -131v-704h-192v1152h192v-192q21 49 60 84.5t88 60.5t106 40.5t114 24t110.5 11.5t97.5 3q128 0 220.5 -16t157 -47
t103.5 -77t60.5 -106.5t28.5 -135t7 -162.5l-1 -640h-192z" />
    <glyph glyph-name="Ncommaaccent" unicode="&#x145;" horiz-adv-x="2193" 
d="M1032 -121h192l-128 -384h-128zM321 0h-192v1536h337l1408 -1344v1344h192v-1536h-256l-1489 1376v-1376z" />
    <glyph glyph-name="ncommaaccent" unicode="&#x146;" horiz-adv-x="1601" 
d="M800 -121h192l-128 -384h-128zM1344 0v640q0 107 -16 180.5t-64 118.5t-136 65t-232 20q-156 0 -255.5 -23t-156.5 -65t-78.5 -101t-21.5 -131v-704h-192v1152h192v-192q21 49 60 84.5t88 60.5t106 40.5t114 24t110.5 11.5t97.5 3q128 0 220.5 -16t157 -47t103.5 -77
t60.5 -106.5t28.5 -135t7 -162.5l-1 -640h-192z" />
    <glyph glyph-name="Ncaron" unicode="&#x147;" horiz-adv-x="2193" 
d="M1096 1818l-288 448l-128 -96l320 -480h192l320 480l-128 96zM321 0h-192v1536h337l1408 -1344v1344h192v-1536h-256l-1489 1376v-1376z" />
    <glyph glyph-name="ncaron" unicode="&#x148;" horiz-adv-x="1601" 
d="M864 1371l-288 448l-128 -96l320 -480h192l320 480l-128 96zM1344 0v640q0 107 -16 180.5t-64 118.5t-136 65t-232 20q-156 0 -255.5 -23t-156.5 -65t-78.5 -101t-21.5 -131v-704h-192v1152h192v-192q21 49 60 84.5t88 60.5t106 40.5t114 24t110.5 11.5t97.5 3
q128 0 220.5 -16t157 -47t103.5 -77t60.5 -106.5t28.5 -135t7 -162.5l-1 -640h-192z" />
    <glyph glyph-name="Omacron" unicode="&#x14c;" horiz-adv-x="2241" 
d="M737 1690h768v160h-768v-160zM1410 1568q176 0 296.5 -21.5t198.5 -65t120 -109.5t61.5 -155t23 -201t3.5 -248t-3.5 -248t-23 -201t-61.5 -155t-120 -109.5t-198.5 -65t-296.5 -21.5h-578q-176 0 -296.5 21.5t-198.5 65t-120.5 109.5t-62 155t-22.5 201t-3 248t3 248
t22.5 201t62 155t120.5 109.5t198.5 65t296.5 21.5h578zM1410 128q127 0 214.5 7.5t144.5 30.5t88 66t45 114t16.5 174.5t2.5 247.5t-2.5 247.5t-16.5 174.5t-45 114t-87.5 66t-144 30.5t-215.5 7.5h-578q-128 0 -215.5 -7.5t-144.5 -30.5t-88 -66t-45 -114t-16 -174.5
t-2 -247.5t2.5 -247.5t16.5 -174.5t44.5 -114t87.5 -66t144.5 -30.5t215.5 -7.5h578z" />
    <glyph glyph-name="omacron" unicode="&#x14d;" horiz-adv-x="1664" 
d="M448 1244h768v160h-768v-160zM128 584q0 177 38 293t122 184t218 95.5t326 27.5t326 -27.5t218 -95.5t122 -184t38 -293t-38 -294t-122 -186t-218 -97.5t-326 -28.5t-326 28.5t-218 97.5t-122 186t-38 294zM320 584q0 -96 7 -167t26.5 -122t54.5 -83t92 -51t138.5 -26
t193.5 -7q96 0 171.5 4.5t132 20.5t96.5 45.5t64.5 80.5t36 125.5t11.5 179.5q0 103 -11.5 175.5t-36 121.5t-64.5 77.5t-96.5 43t-132 18.5t-171.5 4t-171.5 -4t-132 -18.5t-96.5 -43t-64.5 -77.5t-36 -121.5t-11.5 -175.5z" />
    <glyph glyph-name="Obreve" unicode="&#x14e;" horiz-adv-x="2241" 
d="M737 2010q0 -168 96 -244t288 -76t288 76t96 244h-160q0 -72 -17 -111t-47 -57t-71 -21t-89 -3t-89 3t-71 21t-47 57t-17 111h-160zM1410 1568q176 0 296.5 -21.5t198.5 -65t120 -109.5t61.5 -155t23 -201t3.5 -248t-3.5 -248t-23 -201t-61.5 -155t-120 -109.5
t-198.5 -65t-296.5 -21.5h-578q-176 0 -296.5 21.5t-198.5 65t-120.5 109.5t-62 155t-22.5 201t-3 248t3 248t22.5 201t62 155t120.5 109.5t198.5 65t296.5 21.5h578zM1410 128q127 0 214.5 7.5t144.5 30.5t88 66t45 114t16.5 174.5t2.5 247.5t-2.5 247.5t-16.5 174.5
t-45 114t-87.5 66t-144 30.5t-215.5 7.5h-578q-128 0 -215.5 -7.5t-144.5 -30.5t-88 -66t-45 -114t-16 -174.5t-2 -247.5t2.5 -247.5t16.5 -174.5t44.5 -114t87.5 -66t144.5 -30.5t215.5 -7.5h578z" />
    <glyph glyph-name="obreve" unicode="&#x14f;" horiz-adv-x="1664" 
d="M448 1563q0 -168 96 -244t288 -76t288 76t96 244h-160q0 -72 -17 -111t-47 -57t-71 -21t-89 -3t-89 3t-71 21t-47 57t-17 111h-160zM128 584q0 177 38 293t122 184t218 95.5t326 27.5t326 -27.5t218 -95.5t122 -184t38 -293t-38 -294t-122 -186t-218 -97.5t-326 -28.5
t-326 28.5t-218 97.5t-122 186t-38 294zM320 584q0 -96 7 -167t26.5 -122t54.5 -83t92 -51t138.5 -26t193.5 -7q96 0 171.5 4.5t132 20.5t96.5 45.5t64.5 80.5t36 125.5t11.5 179.5q0 103 -11.5 175.5t-36 121.5t-64.5 77.5t-96.5 43t-132 18.5t-171.5 4t-171.5 -4
t-132 -18.5t-96.5 -43t-64.5 -77.5t-36 -121.5t-11.5 -175.5z" />
    <glyph glyph-name="Ohungarumlaut" unicode="&#x150;" horiz-adv-x="2241" 
d="M1484 2074l-128 192l-576 -480l64 -96zM2037 2074l-128 192l-576 -480l64 -96zM1410 1568q176 0 296.5 -21.5t198.5 -65t120 -109.5t61.5 -155t23 -201t3.5 -248t-3.5 -248t-23 -201t-61.5 -155t-120 -109.5t-198.5 -65t-296.5 -21.5h-578q-176 0 -296.5 21.5t-198.5 65
t-120.5 109.5t-62 155t-22.5 201t-3 248t3 248t22.5 201t62 155t120.5 109.5t198.5 65t296.5 21.5h578zM1410 128q127 0 214.5 7.5t144.5 30.5t88 66t45 114t16.5 174.5t2.5 247.5t-2.5 247.5t-16.5 174.5t-45 114t-87.5 66t-144 30.5t-215.5 7.5h-578q-128 0 -215.5 -7.5
t-144.5 -30.5t-88 -66t-45 -114t-16 -174.5t-2 -247.5t2.5 -247.5t16.5 -174.5t44.5 -114t87.5 -66t144.5 -30.5t215.5 -7.5h578z" />
    <glyph glyph-name="ohungarumlaut" unicode="&#x151;" horiz-adv-x="1664" 
d="M1196 1627l-128 192l-576 -480l64 -96zM1749 1627l-128 192l-576 -480l64 -96zM128 584q0 177 38 293t122 184t218 95.5t326 27.5t326 -27.5t218 -95.5t122 -184t38 -293t-38 -294t-122 -186t-218 -97.5t-326 -28.5t-326 28.5t-218 97.5t-122 186t-38 294zM320 584
q0 -96 7 -167t26.5 -122t54.5 -83t92 -51t138.5 -26t193.5 -7q96 0 171.5 4.5t132 20.5t96.5 45.5t64.5 80.5t36 125.5t11.5 179.5q0 103 -11.5 175.5t-36 121.5t-64.5 77.5t-96.5 43t-132 18.5t-171.5 4t-171.5 -4t-132 -18.5t-96.5 -43t-64.5 -77.5t-36 -121.5
t-11.5 -175.5z" />
    <glyph glyph-name="OE" unicode="&#x152;" horiz-adv-x="3520" 
d="M1920 0v64q-78 -48 -202 -72t-309 -24h-578q-176 0 -296.5 21.5t-198.5 65t-120.5 109.5t-62 155t-22.5 201t-3 248t3 248t22.5 201t62 155t120.5 109.5t198.5 65t296.5 17.5h578q185 4 309 -20t202 -72v64h1536v-160h-1344v-512h1280v-160h-1280v-544h1344v-160h-1536z
M1409 128q127 0 214.5 7.5t144.5 30.5t88 66t45 114t16.5 174.5t2.5 247.5t-2.5 247.5t-16.5 174.5t-45 114t-87.5 66t-144 28.5t-215.5 5.5h-578q-128 4 -215.5 -3.5t-144.5 -30.5t-88 -66t-45 -114t-16 -174.5t-2 -247.5t2.5 -247.5t16.5 -174.5t44.5 -114t87.5 -66
t144.5 -30.5t215.5 -7.5h578z" />
    <glyph glyph-name="oe" unicode="&#x153;" horiz-adv-x="2816" 
d="M128 544q0 -168 38 -279t122 -177t218 -93t326 -27q117 0 217.5 17t179 47t133 71t78.5 89q24 -48 78 -89t133 -71t179.5 -47t217.5 -17q180 0 302.5 19t197.5 61t107.5 109t32.5 163h-192q0 -60 -20.5 -97.5t-71.5 -58.5t-137.5 -28.5t-218.5 -7.5q-144 0 -242 10.5
t-158 49.5t-86 115.5t-26 208.5h1136l16 64q0 79 -9.5 150t-35 131t-70 109t-116 83t-172 52.5t-237.5 18.5q-117 0 -222 -17t-187 -47t-134.5 -71t-64.5 -89q-12 46 -65 86.5t-134.5 71t-186.5 48.5t-222 18q-192 0 -326 -27t-218 -93t-122 -177t-38 -279zM320 544
q0 144 26 227t86 125t158 53t242 11t242 -11t158 -53t86 -125t26 -227t-26 -227t-86 -125t-158 -53t-242 -11q-112 0 -193.5 6.5t-138.5 23.5t-92 46t-54.5 75.5t-26.5 111.5t-7 153zM2048 960q120 0 205 -14t139 -50t79 -98t25 -158h-960q0 108 26 171.5t86 96.5t158 42.5
t242 9.5z" />
    <glyph glyph-name="Racute" unicode="&#x154;" horiz-adv-x="2112" 
d="M1376 2074l-128 192l-576 -480l64 -96zM1952 0h-192v288q0 70 -2.5 120.5t-17 86.5t-45.5 58t-88 34t-144.5 16.5t-215.5 4.5h-863v-608h-192v1536h1087q176 0 296.5 -12.5t199 -37.5t121 -62t62 -87t23 -112t3.5 -137q0 -96 -13.5 -168.5t-45.5 -123.5t-85 -81.5
t-133 -42.5q80 -12 128 -42t74 -78t34.5 -114t8.5 -150v-288zM384 768h895q128 0 215.5 4.5t144.5 16.5t88 34t45.5 58t17 86.5t2.5 120.5q0 65 -2.5 112t-17 79t-45.5 51t-88 29.5t-144.5 13.5t-215.5 3h-895v-608z" />
    <glyph glyph-name="racute" unicode="&#x155;" horiz-adv-x="1344" 
d="M1344 1627l-128 192l-576 -480l64 -96zM1120 777q0 72 -10.5 119.5t-49.5 76t-115.5 40t-208.5 11.5q-129 0 -210 -22.5t-127 -63.5t-62.5 -98t-16.5 -127v-713h-192v1152h192v-183q10 31 37 68.5t82 70t142.5 54.5t218.5 22q150 0 244 -26.5t146.5 -78t71 -127.5
t18.5 -175h-160z" />
    <glyph glyph-name="Rcommaaccent" unicode="&#x156;" horiz-adv-x="2112" 
d="M1008 -121h192l-128 -384h-128zM1952 0h-192v288q0 70 -2.5 120.5t-17 86.5t-45.5 58t-88 34t-144.5 16.5t-215.5 4.5h-863v-608h-192v1536h1087q176 0 296.5 -12.5t199 -37.5t121 -62t62 -87t23 -112t3.5 -137q0 -96 -13.5 -168.5t-45.5 -123.5t-85 -81.5t-133 -42.5
q80 -12 128 -42t74 -78t34.5 -114t8.5 -150v-288zM384 768h895q128 0 215.5 4.5t144.5 16.5t88 34t45.5 58t17 86.5t2.5 120.5q0 65 -2.5 112t-17 79t-45.5 51t-88 29.5t-144.5 13.5t-215.5 3h-895v-608z" />
    <glyph glyph-name="rcommaaccent" unicode="&#x157;" horiz-adv-x="1280" 
d="M160 -121h192l-128 -384h-128zM1120 777q0 72 -10.5 119.5t-49.5 76t-115.5 40t-208.5 11.5q-129 0 -210 -22.5t-127 -63.5t-62.5 -98t-16.5 -127v-713h-192v1152h192v-183q10 31 37 68.5t82 70t142.5 54.5t218.5 22q150 0 244 -26.5t146.5 -78t71 -127.5t18.5 -175h-160
z" />
    <glyph glyph-name="Rcaron" unicode="&#x158;" horiz-adv-x="2112" 
d="M736 1818l-288 448l-128 -96l320 -480h192l320 480l-128 96zM1952 0h-192v288q0 70 -2.5 120.5t-17 86.5t-45.5 58t-88 34t-144.5 16.5t-215.5 4.5h-863v-608h-192v1536h1087q176 0 296.5 -12.5t199 -37.5t121 -62t62 -87t23 -112t3.5 -137q0 -96 -13.5 -168.5
t-45.5 -123.5t-85 -81.5t-133 -42.5q80 -12 128 -42t74 -78t34.5 -114t8.5 -150v-288zM384 768h895q128 0 215.5 4.5t144.5 16.5t88 34t45.5 58t17 86.5t2.5 120.5q0 65 -2.5 112t-17 79t-45.5 51t-88 29.5t-144.5 13.5t-215.5 3h-895v-608z" />
    <glyph glyph-name="rcaron" unicode="&#x159;" horiz-adv-x="1280" 
d="M704 1371l-288 448l-128 -96l320 -480h192l320 480l-128 96zM1120 777q0 72 -10.5 119.5t-49.5 76t-115.5 40t-208.5 11.5q-129 0 -210 -22.5t-127 -63.5t-62.5 -98t-16.5 -127v-713h-192v1152h192v-183q10 31 37 68.5t82 70t142.5 54.5t218.5 22q150 0 244 -26.5
t146.5 -78t71 -127.5t18.5 -175h-160z" />
    <glyph glyph-name="Sacute" unicode="&#x15a;" horiz-adv-x="1984" 
d="M1696 2074l-128 192l-576 -480l64 -96zM1160 864q158 0 271 -13t190.5 -38.5t123.5 -63.5t71 -86.5t32.5 -108.5t7.5 -130t-12.5 -131.5t-44.5 -112.5t-87 -91t-140 -68t-204.5 -42.5t-279.5 -14.5h-256q-144 0 -252 11t-186 33.5t-129 57t-81.5 81t-42.5 106t-12 131.5
h192q0 -90 26 -141t86 -76.5t157.5 -32t241.5 -6.5h256q168 0 279 16t177 51t93 91.5t27 137.5t-18.5 135t-73 86t-153.5 45.5t-259 13.5h-264q-176 0 -301.5 13t-210.5 37.5t-136 61t-77.5 83.5t-34.5 104.5t-8 124.5q0 70 12.5 130t46.5 108.5t93 86.5t151.5 63.5
t222.5 38.5t306 13h192q144 0 252 -10.5t186 -33t129.5 -56t82 -80t42.5 -105.5t12 -131h-192q0 90 -26 141t-86 76.5t-158 32t-242 6.5h-192q-192 0 -316 -13.5t-196 -45.5t-100 -86t-28 -135q0 -50 7 -89t28.5 -68.5t60.5 -49.5t103 -33t156.5 -18.5t220.5 -5.5h264z" />
    <glyph glyph-name="sacute" unicode="&#x15b;" horiz-adv-x="1600" 
d="M1472 1627l-128 192l-576 -480l64 -96zM800 525q112 0 191 -3.5t132.5 -12t84.5 -21.5t47 -38.5t20.5 -51t4.5 -58.5q0 -36 -4.5 -65.5t-21.5 -53.5t-50 -41t-90 -29t-141.5 -17.5t-204.5 -5.5q-132 0 -218.5 7.5t-137.5 28.5t-71.5 58.5t-20.5 97.5h-192
q0 -91 32.5 -154t107.5 -102.5t197.5 -57.5t302.5 -18q144 0 252.5 8.5t186.5 26t129.5 46t81.5 68t42 91t12 116.5t-12 114.5t-41.5 86t-78.5 67.5t-124 46t-177.5 21t-238.5 6q-112 0 -191 0.5t-132.5 6t-84.5 16.5t-47 32t-20.5 53.5t-4.5 66.5q0 58 26 91t86 49t158 20
t242 4q132 0 218.5 -7.5t137.5 -27t71.5 -53.5t20.5 -88h192q0 87 -29 150t-101.5 104.5t-196 61.5t-313.5 20q-192 0 -326 -17t-218 -55.5t-122 -100t-38 -151.5q0 -66 12 -122.5t41 -95t78.5 -61.5t124 -35.5t177.5 -16.5t239 -4z" />
    <glyph glyph-name="Scircumflex" unicode="&#x15c;" horiz-adv-x="1984" 
d="M1344 1690l128 96l-320 480h-192l-320 -480l128 -96l288 448zM1160 864q158 0 271 -13t190.5 -38.5t123.5 -63.5t71 -86.5t32.5 -108.5t7.5 -130t-12.5 -131.5t-44.5 -112.5t-87 -91t-140 -68t-204.5 -42.5t-279.5 -14.5h-256q-144 0 -252 11t-186 33.5t-129 57t-81.5 81
t-42.5 106t-12 131.5h192q0 -90 26 -141t86 -76.5t157.5 -32t241.5 -6.5h256q168 0 279 16t177 51t93 91.5t27 137.5t-18.5 135t-73 86t-153.5 45.5t-259 13.5h-264q-176 0 -301.5 13t-210.5 37.5t-136 61t-77.5 83.5t-34.5 104.5t-8 124.5q0 70 12.5 130t46.5 108.5
t93 86.5t151.5 63.5t222.5 38.5t306 13h192q144 0 252 -10.5t186 -33t129.5 -56t82 -80t42.5 -105.5t12 -131h-192q0 90 -26 141t-86 76.5t-158 32t-242 6.5h-192q-192 0 -316 -13.5t-196 -45.5t-100 -86t-28 -135q0 -50 7 -89t28.5 -68.5t60.5 -49.5t103 -33t156.5 -18.5
t220.5 -5.5h264z" />
    <glyph glyph-name="scircumflex" unicode="&#x15d;" horiz-adv-x="1600" 
d="M1120 1244l128 96l-320 480h-192l-320 -480l128 -96l288 448zM800 525q112 0 191 -3.5t132.5 -12t84.5 -21.5t47 -38.5t20.5 -51t4.5 -58.5q0 -36 -4.5 -65.5t-21.5 -53.5t-50 -41t-90 -29t-141.5 -17.5t-204.5 -5.5q-132 0 -218.5 7.5t-137.5 28.5t-71.5 58.5
t-20.5 97.5h-192q0 -91 32.5 -154t107.5 -102.5t197.5 -57.5t302.5 -18q144 0 252.5 8.5t186.5 26t129.5 46t81.5 68t42 91t12 116.5t-12 114.5t-41.5 86t-78.5 67.5t-124 46t-177.5 21t-238.5 6q-112 0 -191 0.5t-132.5 6t-84.5 16.5t-47 32t-20.5 53.5t-4.5 66.5
q0 58 26 91t86 49t158 20t242 4q132 0 218.5 -7.5t137.5 -27t71.5 -53.5t20.5 -88h192q0 87 -29 150t-101.5 104.5t-196 61.5t-313.5 20q-192 0 -326 -17t-218 -55.5t-122 -100t-38 -151.5q0 -66 12 -122.5t41 -95t78.5 -61.5t124 -35.5t177.5 -16.5t239 -4z" />
    <glyph glyph-name="Scedilla" unicode="&#x15e;" horiz-adv-x="1984" 
d="M896 -462q48 0 84 1.5t60 10.5t36 28.5t12 55.5q0 12 -3 23.5t-21 20.5t-57 14.5t-111 5.5v288h128v-192q48 0 94 -7t82 -25t58 -49t22 -79q0 -84 -33 -134.5t-87 -77.5t-123 -35.5t-141 -8.5v160zM1160 864q158 0 271 -13t190.5 -38.5t123.5 -63.5t71 -86.5t32.5 -108.5
t7.5 -130t-12.5 -131.5t-44.5 -112.5t-87 -91t-140 -68t-204.5 -42.5t-279.5 -14.5h-256q-144 0 -252 11t-186 33.5t-129 57t-81.5 81t-42.5 106t-12 131.5h192q0 -90 26 -141t86 -76.5t157.5 -32t241.5 -6.5h256q168 0 279 16t177 51t93 91.5t27 137.5t-18.5 135t-73 86
t-153.5 45.5t-259 13.5h-264q-176 0 -301.5 13t-210.5 37.5t-136 61t-77.5 83.5t-34.5 104.5t-8 124.5q0 70 12.5 130t46.5 108.5t93 86.5t151.5 63.5t222.5 38.5t306 13h192q144 0 252 -10.5t186 -33t129.5 -56t82 -80t42.5 -105.5t12 -131h-192q0 90 -26 141t-86 76.5
t-158 32t-242 6.5h-192q-192 0 -316 -13.5t-196 -45.5t-100 -86t-28 -135q0 -50 7 -89t28.5 -68.5t60.5 -49.5t103 -33t156.5 -18.5t220.5 -5.5h264z" />
    <glyph glyph-name="scedilla" unicode="&#x15f;" horiz-adv-x="1600" 
d="M704 -459q48 0 84 1.5t60 10.5t36 28.5t12 55.5q0 12 -3 23.5t-21 20.5t-57 14.5t-111 5.5v288q-139 3 -239 17q-122 18 -197 57.5t-107.5 102.5t-32.5 154h192q0 -60 20.5 -97.5t71.5 -58.5t137.5 -28.5t218.5 -7.5q120 0 204.5 5.5t141.5 17.5t90 29t50 41t21.5 53.5
t4.5 65.5q0 33 -4.5 58.5t-20.5 44.5t-47 32t-84.5 21.5t-132.5 12t-191 3.5q-136 0 -239 4t-177.5 16.5t-124 35.5t-78.5 61.5t-41 95t-12 135.5q0 90 38 151.5t122 100t218 55.5t326 17q190 0 313.5 -20t196 -61.5t101.5 -104.5t29 -150h-192q0 54 -20.5 88t-71.5 53.5
t-137.5 27t-218.5 7.5q-144 0 -242 -4t-158 -20t-86 -49t-26 -91q0 -47 4.5 -79.5t20.5 -53.5t47 -32t84.5 -16.5t132.5 -6t191 -0.5q136 0 238.5 -6t177.5 -21t124 -39.5t78.5 -61t41.5 -86t12 -114.5t-12 -116.5t-42 -91t-81.5 -68t-129.5 -46t-187 -25.5q-83 -7 -188 -8
v-192q48 0 94 -7t82 -25t58 -49t22 -79q0 -84 -33 -134.5t-87 -77.5t-123 -35.5t-141 -8.5v160z" />
    <glyph glyph-name="Scaron" unicode="&#x160;" horiz-adv-x="1984" 
d="M1160 864q158 0 271 -13t190.5 -38.5t123.5 -63.5t71 -86.5t32.5 -108.5t7.5 -130t-12.5 -131.5t-44.5 -112.5t-87 -91t-140 -68t-204.5 -42.5t-279.5 -14.5h-256q-144 0 -252 11t-186 33.5t-129 57t-81.5 81t-42.5 106t-12 131.5h192q0 -90 26 -141t86 -76.5t157.5 -32
t241.5 -6.5h256q168 0 279 16t177 51t93 91.5t27 137.5t-18.5 135t-73 86t-153.5 45.5t-259 13.5h-264q-176 0 -301.5 13t-210.5 37.5t-136 61t-77.5 83.5t-34.5 104.5t-8 124.5q0 70 12.5 130t46.5 108.5t93 86.5t151.5 63.5t222.5 38.5t306 13h192q144 0 252 -10.5
t186 -33t129.5 -56t82 -80t42.5 -105.5t12 -131h-192q0 90 -26 141t-86 76.5t-158 32t-242 6.5h-192q-192 0 -316 -13.5t-196 -45.5t-100 -86t-28 -135q0 -50 7 -89t28.5 -68.5t60.5 -49.5t103 -33t156.5 -18.5t220.5 -5.5h264zM992 1856l-288 448l-128 -96l320 -480h192
l320 480l-128 96z" />
    <glyph glyph-name="scaron" unicode="&#x161;" horiz-adv-x="1600" 
d="M800 525q112 0 191 -3.5t132.5 -12t84.5 -21.5t47 -38.5t20.5 -51t4.5 -58.5q0 -36 -4.5 -65.5t-21.5 -53.5t-50 -41t-90 -29t-141.5 -17.5t-204.5 -5.5q-132 0 -218.5 7.5t-137.5 28.5t-71.5 58.5t-20.5 97.5h-192q0 -91 32.5 -154t107.5 -102.5t197.5 -57.5t302.5 -18
q144 0 252.5 8.5t186.5 26t129.5 46t81.5 68t42 91t12 116.5t-12 114.5t-41.5 86t-78.5 67.5t-124 46t-177.5 21t-238.5 6q-112 0 -191 0.5t-132.5 6t-84.5 16.5t-47 32t-20.5 53.5t-4.5 66.5q0 58 26 91t86 49t158 20t242 4q132 0 218.5 -7.5t137.5 -27t71.5 -53.5
t20.5 -88h192q0 87 -29 150t-101.5 104.5t-196 61.5t-313.5 20q-192 0 -326 -17t-218 -55.5t-122 -100t-38 -151.5q0 -66 12 -122.5t41 -95t78.5 -61.5t124 -35.5t177.5 -16.5t239 -4zM800 1408l-288 448l-128 -96l320 -480h192l320 480l-128 96z" />
    <glyph glyph-name="Tcommaaccent" unicode="&#x162;" horiz-adv-x="1984" 
d="M928 -427q48 0 84 1.5t60 10.5t36 28.5t12 55.5q0 12 -3 23.5t-21 20.5t-57 14.5t-111 5.5v288h128v-192q48 0 94 -7t82 -25t58 -49t22 -79q0 -84 -33 -134.5t-87 -77.5t-123 -35.5t-141 -8.5v160zM1856 1536v-160h-768v-1376h-192v1376h-768v160h1728z" />
    <glyph glyph-name="tcommaaccent" unicode="&#x163;" horiz-adv-x="1440" 
d="M768 -427q48 0 84 1.5t60 10.5t36 28.5t12 55.5q0 12 -3 23.5t-21 20.5t-57 14.5t-111 5.5v288h128v-192q48 0 94 -7t82 -25t58 -49t22 -79q0 -84 -33 -134.5t-87 -77.5t-123 -35.5t-141 -8.5v160zM1312 512q0 -147 -24 -245.5t-80.5 -157.5t-148.5 -84t-227 -25
q-131 0 -220 20t-144 68t-79 128t-24 200v578h-237v158h237v315h192v-315h723v-158h-723v-578q0 -96 14.5 -148t46.5 -76t84.5 -28t128.5 -4q60 0 107.5 2t83 12.5t60.5 32t40.5 60.5t22.5 98.5t7 146.5h160z" />
    <glyph glyph-name="Tcaron" unicode="&#x164;" horiz-adv-x="1984" 
d="M992 1818l-288 448l-128 -96l320 -480h192l320 480l-128 96zM1856 1536v-160h-768v-1376h-192v1376h-768v160h1728z" />
    <glyph glyph-name="tcaron" unicode="&#x165;" horiz-adv-x="1440" 
d="M804 1664h192l-128 -384h-128zM1312 512q0 -147 -24 -245.5t-80.5 -157.5t-148.5 -84t-227 -25q-131 0 -220 20t-144 68t-79 128t-24 200v578h-237v158h237v315h192v-315h723v-158h-723v-578q0 -96 14.5 -148t46.5 -76t84.5 -28t128.5 -4q60 0 107.5 2t83 12.5t60.5 32
t40.5 60.5t22.5 98.5t7 146.5h160z" />
    <glyph glyph-name="Tbar" unicode="&#x166;" horiz-adv-x="1984" 
d="M1856 1536v-160h-768v-1376h-192v1376h-768v160h1728zM605 672h768v-160h-768v160z" />
    <glyph glyph-name="tbar" unicode="&#x167;" horiz-adv-x="1440" 
d="M1312 512q0 -147 -24 -245.5t-80.5 -157.5t-148.5 -84t-227 -25q-131 0 -220 20t-144 68t-79 128t-24 200v578h-237v158h237v315h192v-315h723v-158h-723v-578q0 -96 14.5 -148t46.5 -76t84.5 -28t128.5 -4q60 0 107.5 2t83 12.5t60.5 32t40.5 60.5t22.5 98.5t7 146.5
h160zM128 672h768v-160h-768v160z" />
    <glyph glyph-name="Utilde" unicode="&#x168;" horiz-adv-x="2113" 
d="M865 1786q45 0 83.5 -15t81.5 -33t95 -33t124 -15q36 0 80.5 12.5t83.5 42t65.5 78.5t26.5 123h-192q0 -30 -4 -49t-12 -29.5t-20 -14t-28 -3.5q-45 0 -83.5 15t-81.5 33.5t-95 33.5t-124 15q-36 0 -80.5 -11.5t-83.5 -40.5t-65.5 -79t-26.5 -126h192q0 31 4 50t12 29
t20 13.5t28 3.5zM1985 1536v-768q0 -136 -3.5 -248t-23 -201t-61.5 -155t-120 -109.5t-198.5 -65t-296.5 -21.5h-450q-176 0 -296.5 21.5t-198.5 65t-120.5 109.5t-62 155t-22.5 201t-3 248v768h192v-768q0 -144 2.5 -247.5t16.5 -174.5t44.5 -114t87.5 -66t144.5 -30.5
t215.5 -7.5h450q127 0 215 7.5t144.5 30.5t87.5 66t45.5 114t16.5 174.5t2 247.5l-1 768h193z" />
    <glyph glyph-name="utilde" unicode="&#x169;" horiz-adv-x="1601" 
d="M609 1340q45 0 83.5 -15t81.5 -33t95 -33t124 -15q36 0 80.5 12.5t83.5 42t65.5 78.5t26.5 123h-192q0 -30 -4 -49t-12 -29.5t-20 -14t-28 -3.5q-45 0 -83.5 15t-81.5 33.5t-95 33.5t-124 15q-36 0 -80.5 -11.5t-83.5 -40.5t-65.5 -79t-26.5 -126h192q0 31 4 50t12 29
t20 13.5t28 3.5zM321 1152v-640q0 -107 16 -180.5t64 -118.5t136 -65t232 -20q156 0 255.5 23t156.5 65t78.5 101t21.5 131v704h192v-1152h-192v192q-14 -31 -47 -68.5t-99 -69.5t-170.5 -54t-259.5 -22q-129 0 -221.5 15.5t-157 46t-103.5 75.5t-60 104.5t-28 132.5t-7 160
l1 640h192z" />
    <glyph glyph-name="Umacron" unicode="&#x16a;" horiz-adv-x="2113" 
d="M673 1690h768v160h-768v-160zM1985 1536v-768q0 -136 -3.5 -248t-23 -201t-61.5 -155t-120 -109.5t-198.5 -65t-296.5 -21.5h-450q-176 0 -296.5 21.5t-198.5 65t-120.5 109.5t-62 155t-22.5 201t-3 248v768h192v-768q0 -144 2.5 -247.5t16.5 -174.5t44.5 -114t87.5 -66
t144.5 -30.5t215.5 -7.5h450q127 0 215 7.5t144.5 30.5t87.5 66t45.5 114t16.5 174.5t2 247.5l-1 768h193z" />
    <glyph glyph-name="umacron" unicode="&#x16b;" horiz-adv-x="1601" 
d="M417 1244h768v160h-768v-160zM321 1152v-640q0 -107 16 -180.5t64 -118.5t136 -65t232 -20q156 0 255.5 23t156.5 65t78.5 101t21.5 131v704h192v-1152h-192v192q-14 -31 -47 -68.5t-99 -69.5t-170.5 -54t-259.5 -22q-129 0 -221.5 15.5t-157 46t-103.5 75.5t-60 104.5
t-28 132.5t-7 160l1 640h192z" />
    <glyph glyph-name="Ubreve" unicode="&#x16c;" horiz-adv-x="2113" 
d="M673 2010q0 -168 96 -244t288 -76t288 76t96 244h-160q0 -72 -17 -111t-47 -57t-71 -21t-89 -3t-89 3t-71 21t-47 57t-17 111h-160zM1985 1536v-768q0 -136 -3.5 -248t-23 -201t-61.5 -155t-120 -109.5t-198.5 -65t-296.5 -21.5h-450q-176 0 -296.5 21.5t-198.5 65
t-120.5 109.5t-62 155t-22.5 201t-3 248v768h192v-768q0 -144 2.5 -247.5t16.5 -174.5t44.5 -114t87.5 -66t144.5 -30.5t215.5 -7.5h450q127 0 215 7.5t144.5 30.5t87.5 66t45.5 114t16.5 174.5t2 247.5l-1 768h193z" />
    <glyph glyph-name="ubreve" unicode="&#x16d;" horiz-adv-x="1601" 
d="M417 1564q0 -168 96 -244t288 -76t288 76t96 244h-160q0 -72 -17 -111t-47 -57t-71 -21t-89 -3t-89 3t-71 21t-47 57t-17 111h-160zM321 1152v-640q0 -107 16 -180.5t64 -118.5t136 -65t232 -20q156 0 255.5 23t156.5 65t78.5 101t21.5 131v704h192v-1152h-192v192
q-14 -31 -47 -68.5t-99 -69.5t-170.5 -54t-259.5 -22q-129 0 -221.5 15.5t-157 46t-103.5 75.5t-60 104.5t-28 132.5t-7 160l1 640h192z" />
    <glyph glyph-name="Uring" unicode="&#x16e;" horiz-adv-x="2113" 
d="M1057 2330q-96 0 -163 -27.5t-109 -72.5t-61 -102.5t-19 -117.5t19 -117.5t61 -102.5t109 -72.5t163 -27.5t163 27.5t109 72.5t61 102.5t19 117.5t-19 117.5t-61 102.5t-109 72.5t-163 27.5zM1057 1818q-60 0 -97.5 16.5t-58.5 43.5t-28.5 61.5t-7.5 70.5t7.5 70.5
t28.5 61.5t58.5 43.5t97.5 16.5t97.5 -16.5t58.5 -43.5t28.5 -61.5t7.5 -70.5t-7.5 -70.5t-28.5 -61.5t-58.5 -43.5t-97.5 -16.5zM1985 1536v-768q0 -136 -3.5 -248t-23 -201t-61.5 -155t-120 -109.5t-198.5 -65t-296.5 -21.5h-450q-176 0 -296.5 21.5t-198.5 65
t-120.5 109.5t-62 155t-22.5 201t-3 248v768h192v-768q0 -144 2.5 -247.5t16.5 -174.5t44.5 -114t87.5 -66t144.5 -30.5t215.5 -7.5h450q127 0 215 7.5t144.5 30.5t87.5 66t45.5 114t16.5 174.5t2 247.5l-1 768h193z" />
    <glyph glyph-name="uring" unicode="&#x16f;" horiz-adv-x="1601" 
d="M801 1883q-96 0 -163 -27.5t-109 -72.5t-61 -102.5t-19 -117.5t19 -117.5t61 -102.5t109 -72.5t163 -27.5t163 27.5t109 72.5t61 102.5t19 117.5t-19 117.5t-61 102.5t-109 72.5t-163 27.5zM801 1371q-60 0 -97.5 16.5t-58.5 43.5t-28.5 61.5t-7.5 70.5t7.5 70.5
t28.5 61.5t58.5 43.5t97.5 16.5t97.5 -16.5t58.5 -43.5t28.5 -61.5t7.5 -70.5t-7.5 -70.5t-28.5 -61.5t-58.5 -43.5t-97.5 -16.5zM321 1152v-640q0 -107 16 -180.5t64 -118.5t136 -65t232 -20q156 0 255.5 23t156.5 65t78.5 101t21.5 131v704h192v-1152h-192v192
q-14 -31 -47 -68.5t-99 -69.5t-170.5 -54t-259.5 -22q-129 0 -221.5 15.5t-157 46t-103.5 75.5t-60 104.5t-28 132.5t-7 160l1 640h192z" />
    <glyph glyph-name="Uhungarumlaut" unicode="&#x170;" horiz-adv-x="2113" 
d="M1420 2074l-128 192l-576 -480l64 -96zM1973 2074l-128 192l-576 -480l64 -96zM1985 1536v-768q0 -136 -3.5 -248t-23 -201t-61.5 -155t-120 -109.5t-198.5 -65t-296.5 -21.5h-450q-176 0 -296.5 21.5t-198.5 65t-120.5 109.5t-62 155t-22.5 201t-3 248v768h192v-768
q0 -144 2.5 -247.5t16.5 -174.5t44.5 -114t87.5 -66t144.5 -30.5t215.5 -7.5h450q127 0 215 7.5t144.5 30.5t87.5 66t45.5 114t16.5 174.5t2 247.5l-1 768h193z" />
    <glyph glyph-name="uhungarumlaut" unicode="&#x171;" horiz-adv-x="1602" 
d="M1164 1627l-128 192l-576 -480l64 -96zM1717 1627l-128 192l-576 -480l64 -96zM321 1152v-640q0 -107 16 -180.5t64 -118.5t136 -65t232 -20q156 0 255.5 23t156.5 65t78.5 101t21.5 131v704h192v-1152h-192v192q-14 -31 -47 -68.5t-99 -69.5t-170.5 -54t-259.5 -22
q-129 0 -221.5 15.5t-157 46t-103.5 75.5t-60 104.5t-28 132.5t-7 160l1 640h192z" />
    <glyph glyph-name="Uogonek" unicode="&#x172;" horiz-adv-x="2113" 
d="M1121 -587q-72 0 -141 13t-123 43t-87 79t-33 121q0 36 11 69t29 62t41 54.5t47 46.5q56 49 128 88h128q-72 -48 -111 -94.5t-57 -85.5t-21 -67.5t-3 -40.5q0 -72 47.5 -100t144.5 -28v-160zM1985 1536v-768q0 -136 -3.5 -248t-23 -201t-61.5 -155t-120 -109.5
t-198.5 -65t-296.5 -21.5h-450q-176 0 -296.5 21.5t-198.5 65t-120.5 109.5t-62 155t-22.5 201t-3 248v768h192v-768q0 -144 2.5 -247.5t16.5 -174.5t44.5 -114t87.5 -66t144.5 -30.5t215.5 -7.5h450q127 0 215 7.5t144.5 30.5t87.5 66t45.5 114t16.5 174.5t2 247.5l-1 768
h193z" />
    <glyph glyph-name="uogonek" unicode="&#x173;" horiz-adv-x="1601" 
d="M1410 -571q-72 0 -141 13t-123 43t-87 79t-33 121q0 36 11 69t29 62t41 54.5t47 46.5q56 49 128 88h128q-72 -48 -111 -94.5t-57 -85.5t-21 -67.5t-3 -40.5q0 -72 47.5 -100t144.5 -28v-160zM321 1152v-640q0 -107 16 -180.5t64 -118.5t136 -65t232 -20q156 0 255.5 23
t156.5 65t78.5 101t21.5 131v704h192v-1152h-192v192q-14 -31 -47 -68.5t-99 -69.5t-170.5 -54t-259.5 -22q-129 0 -221.5 15.5t-157 46t-103.5 75.5t-60 104.5t-28 132.5t-7 160l1 640h192z" />
    <glyph glyph-name="Wcircumflex" unicode="&#x174;" horiz-adv-x="3456" 
d="M2016 1690l128 96l-320 480h-192l-320 -480l128 -96l288 448zM1648 1536h224l624 -1376l608 1376h224l-704 -1536h-256l-608 1344l-608 -1344h-256l-768 1536h224l672 -1376z" />
    <glyph glyph-name="wcircumflex" unicode="&#x175;" horiz-adv-x="2368" 
d="M1472 1243l128 96l-320 480h-192l-320 -480l128 -96l288 448zM2240 1152h-224l-356 -1008l-380 1008h-192l-384 -1008l-352 1008h-224l448 -1152h256l352 944l352 -944h256z" />
    <glyph glyph-name="Ycircumflex" unicode="&#x176;" horiz-adv-x="2200" 
d="M1376 1690l128 96l-320 480h-192l-320 -480l128 -96l288 448zM128 1536h256l704 -752l704 752h256l-864 -896v-640h-192v640z" />
    <glyph glyph-name="ycircumflex" unicode="&#x177;" horiz-adv-x="1696" 
d="M1136 1243l128 96l-320 480h-192l-320 -480l128 -96l288 448zM736 0h64q-16 -32 -28.5 -61t-30.5 -54t-45 -45t-71.5 -34.5t-110.5 -22t-162 -7.5v-160q112 0 194 10.5t141.5 30t100.5 47.5t71 63.5t53.5 78t47.5 90.5l32 64l576 1152h-224l-480 -1024l-512 1024h-224z
" />
    <glyph glyph-name="Ydieresis" unicode="&#x178;" horiz-adv-x="2200" 
d="M128 1536h256l704 -752l704 752h256l-864 -896v-640h-192v640zM812 1984h-192v-192h192v192zM1580 1984h-192v-192h192v192z" />
    <glyph glyph-name="Zacute" unicode="&#x179;" horiz-adv-x="2046" 
d="M1680 2074l-128 192l-576 -480l64 -96zM128 0v160l1486 1216h-1422v160h1696v-160l-1494 -1216h1526v-160h-1792z" />
    <glyph glyph-name="zacute" unicode="&#x17a;" horiz-adv-x="1472" 
d="M1408 1627l-128 192l-576 -480l64 -96zM192 1152v-141h912l-976 -851v-160h1216v143h-962l962 849v160h-1152z" />
    <glyph glyph-name="Zdotaccent" unicode="&#x17b;" horiz-adv-x="2046" 
d="M1136 1882h-192v-192h192v192zM128 0v160l1486 1216h-1422v160h1696v-160l-1494 -1216h1526v-160h-1792z" />
    <glyph glyph-name="zdotaccent" unicode="&#x17c;" horiz-adv-x="1472" 
d="M864 1436h-192v-192h192v192zM192 1152v-141h912l-976 -851v-160h1216v143h-962l962 849v160h-1152z" />
    <glyph glyph-name="Zcaron" unicode="&#x17d;" horiz-adv-x="2046" 
d="M128 0v160l1486 1216h-1422v160h1696v-160l-1494 -1216h1526v-160h-1792zM1023 1856l-288 448l-128 -96l320 -480h192l320 480l-128 96z" />
    <glyph glyph-name="zcaron" unicode="&#x17e;" horiz-adv-x="1472" 
d="M192 1152v-141h912l-976 -851v-160h1216v143h-962l962 849v160h-1152zM736 1408l-288 448l-128 -96l320 -480h192l320 480l-128 96z" />
    <glyph glyph-name="uni0189" unicode="&#x189;" horiz-adv-x="2112" 
d="M0 704h128v-704h1151q176 0 296.5 20.5t199 62.5t121 105t62 148.5t23 193t3.5 238.5t-3.5 238.5t-23 193t-62 148.5t-121 105t-199 62.5t-296.5 20.5h-1151v-672h-128v-160zM320 160v544h448v160h-448v512h959q128 0 215.5 -7t144.5 -28.5t88 -62.5t45.5 -108.5t17 -166
t2.5 -235.5t-2.5 -235.5t-17 -166t-45.5 -108.5t-88 -62.5t-145 -28.5t-215 -7h-959z" />
    <glyph glyph-name="florin" unicode="&#x192;" horiz-adv-x="1184" 
d="M320 960h-192v128h192v64q0 120 26 200t86 128t158.5 68t242.5 20h127v-160h-128q-91 0 -152 -4t-98.5 -28t-53.5 -76t-16 -148v-64h448v-128h-448v-832q0 -120 -26 -200t-86 -128t-158.5 -68t-242.5 -20l1 160q91 0 152 4t98.5 28t53.5 76t16 148v832z" />
    <glyph glyph-name="uni01C0" unicode="&#x1c0;" 
d="M128 -128h192v1728h-192v-1728z" />
    <glyph glyph-name="uni01C1" unicode="&#x1c1;" horiz-adv-x="896" 
d="M576 -128h192v1728h-192v-1728zM128 -128h192v1728h-192v-1728z" />
    <glyph glyph-name="uni01C4" unicode="&#x1c4;" horiz-adv-x="4158" 
d="M2240 0v160l1486 1216h-1422v160h1696v-160l-1494 -1216h1526v-160h-1792zM3135 1856l-288 448l-128 -96l320 -480h192l320 480l-128 96zM1280 160q127 0 215 7t145 28.5t88 62.5t45.5 108.5t17 166t2.5 235.5t-2.5 235.5t-17 166t-45.5 108.5t-88 62.5t-144.5 28.5
t-215.5 7h-959v-1216h959zM129 0v1536h1151q176 0 296.5 -20.5t199 -62.5t121 -105t62 -148.5t23 -193t3.5 -238.5t-3.5 -238.5t-23 -193t-62 -148.5t-121 -105t-199 -62.5t-296.5 -20.5h-1151z" />
    <glyph glyph-name="uni01C5" unicode="&#x1c5;" horiz-adv-x="3584" 
d="M2304 1152v-141h912l-976 -851v-160h1216v143h-962l962 849v160h-1152zM2848 1408l-288 448l-128 -96l320 -480h192l320 480l-128 96zM1280 160q127 0 215 7t145 28.5t88 62.5t45.5 108.5t17 166t2.5 235.5t-2.5 235.5t-17 166t-45.5 108.5t-88 62.5t-144.5 28.5
t-215.5 7h-959v-1216h959zM129 0v1536h1151q176 0 296.5 -20.5t199 -62.5t121 -105t62 -148.5t23 -193t3.5 -238.5t-3.5 -238.5t-23 -193t-62 -148.5t-121 -105t-199 -62.5t-296.5 -20.5h-1151z" />
    <glyph glyph-name="uni01C6" unicode="&#x1c6;" horiz-adv-x="3136" 
d="M1856 1152v-141h912l-976 -851v-160h1216v143h-962l962 849v160h-1152zM2400 1408l-288 448l-128 -96l320 -480h192l320 480l-128 96zM832 -22q-192 0 -326 28t-218 96t-122 183t-38 289q0 180 38 298t122 187t218 97t326 28q136 0 228 -14t150.5 -35t89 -45.5
t44.5 -45.5v492h192v-1536h-192v171l-48 -57q-42 -41 -93 -66t-143 -47.5t-228 -22.5zM832 128q96 0 171 4.5t132 19.5t96.5 44.5t64.5 78.5t36.5 121.5t11.5 174.5q0 106 -11.5 180.5t-36.5 125t-64.5 79.5t-96.5 44.5t-132 19.5t-171 4q-112 0 -193.5 -7t-138.5 -25
t-92.5 -50t-55 -82t-26 -120.5t-6.5 -165.5q0 -94 6.5 -163.5t26 -119t55 -81.5t92.5 -50t138.5 -25t193.5 -7z" />
    <glyph glyph-name="uni01C7" unicode="&#x1c7;" horiz-adv-x="3328" 
d="M2240 0q-144 0 -232 26t-136 86t-64 158t-16 242v64h192v-64q0 -120 13 -190.5t43 -107.5t79 -47.5t121 -10.5h448q96 0 158 17.5t98 53.5t50 91t14 130v1088h192v-1088q0 -120 -26 -205t-86 -139t-158 -79t-242 -25h-448zM129 0v1536h192v-1376h1216v-160h-1408z" />
    <glyph glyph-name="uni01C8" unicode="&#x1c8;" horiz-adv-x="2272" 
d="M2144 -64q0 -74 -10 -133t-46 -100.5t-106 -64t-190 -22.5v160q48 0 79 7t49 25t25 49t7 79v1216h192v-1216zM2144 1344h-192v192h192v-192zM129 0v1536h192v-1376h1216v-160h-1408z" />
    <glyph glyph-name="uni01C9" unicode="&#x1c9;" horiz-adv-x="1056" 
d="M928 -64q0 -74 -10 -133t-46 -100.5t-106 -64t-190 -22.5v160q48 0 79 7t49 25t25 49t7 79v1216h192v-1216zM928 1344h-192v192h192v-192zM129 1536h192v-1536h-192v1536z" />
    <glyph glyph-name="uni01CA" unicode="&#x1ca;" horiz-adv-x="3857" 
d="M2769 0q-144 0 -232 26t-136 86t-64 158t-16 242v64h192v-64q0 -120 13 -190.5t43 -107.5t79 -47.5t121 -10.5h448q96 0 158 17.5t98 53.5t50 91t14 130v1088h192v-1088q0 -120 -26 -205t-86 -139t-158 -79t-242 -25h-448zM321 0h-192v1536h337l1408 -1344v1344h192
v-1536h-256l-1489 1376v-1376z" />
    <glyph glyph-name="uni01CB" unicode="&#x1cb;" horiz-adv-x="2801" 
d="M2673 -64q0 -74 -10 -133t-46 -100.5t-106 -64t-190 -22.5v160q48 0 79 7t49 25t25 49t7 79v1216h192v-1216zM2673 1344h-192v192h192v-192zM321 0h-192v1536h337l1408 -1344v1344h192v-1536h-256l-1489 1376v-1376z" />
    <glyph glyph-name="uni01CC" unicode="&#x1cc;" horiz-adv-x="2210" 
d="M2082 -64q0 -74 -10 -133t-46 -100.5t-106 -64t-190 -22.5v160q48 0 79 7t49 25t25 49t7 79v1216h192v-1216zM2082 1344h-192v192h192v-192zM1280 0v640q0 107 -16 180.5t-64 118.5t-136 65t-232 20q-156 0 -255.5 -23t-156.5 -65t-78.5 -101t-21.5 -131v-704h-192v1152
h192v-192q21 49 60 84.5t88 60.5t106 40.5t114 24t110.5 11.5t97.5 3q128 0 220.5 -16t157 -47t103.5 -77t60.5 -106.5t28.5 -135t7 -162.5l-1 -640h-192z" />
    <glyph glyph-name="uni01CD" unicode="&#x1cd;" horiz-adv-x="2304" 
d="M1152 1818l-288 448l-128 -96l320 -480h192l320 480l-128 96zM1760 352h-1216l-192 -352h-224l896 1536h256l896 -1536h-224zM1664 512l-512 896l-512 -896h1024z" />
    <glyph glyph-name="uni01CE" unicode="&#x1ce;" horiz-adv-x="1600" 
d="M834 1371l-288 448l-128 -96l320 -480h192l320 480l-128 96zM1280 158q-3 -12 -45 -60q-30 -36 -80 -63.5t-133.5 -43t-219.5 -15.5q-181 0 -309 18.5t-209 57t-118.5 98.5t-37.5 143q0 87 20.5 147.5t60 101.5t95.5 64t127.5 35t156.5 15t181 3q137 0 229 -11.5
t150.5 -29t88.5 -37.5t43 -37q0 112 -9.5 191t-31 132t-55.5 84.5t-83.5 47.5t-115.5 20.5t-151 4.5q-132 0 -219 -6.5t-138 -25.5t-72 -52.5t-21 -87.5h-192q0 91 32.5 154t108 102.5t198.5 57.5t303 18q176 0 298 -29t197.5 -102t109 -196.5t33.5 -312.5v-544h-192v158z
M834 128q127 0 212.5 12t137.5 36t74 60t22 84t-25.5 81.5t-85 54.5t-157.5 30.5t-242 9.5t-232.5 -5t-136.5 -23t-64.5 -53t-16.5 -95t17.5 -97.5t71.5 -58.5t155.5 -28.5t269.5 -7.5z" />
    <glyph glyph-name="uni01CF" unicode="&#x1cf;" 
d="M225 1818l-288 448l-128 -96l320 -480h192l320 480l-128 96zM129 1536h192v-1536h-192v1536z" />
    <glyph glyph-name="uni01D0" unicode="&#x1d0;" 
d="M225 1371l-288 448l-128 -96l320 -480h192l320 480l-128 96zM128 0h192v1088h-192v-1088z" />
    <glyph glyph-name="uni01D1" unicode="&#x1d1;" horiz-adv-x="2241" 
d="M1121 1818l-288 448l-128 -96l320 -480h192l320 480l-128 96zM1410 1568q176 0 296.5 -21.5t198.5 -65t120 -109.5t61.5 -155t23 -201t3.5 -248t-3.5 -248t-23 -201t-61.5 -155t-120 -109.5t-198.5 -65t-296.5 -21.5h-578q-176 0 -296.5 21.5t-198.5 65t-120.5 109.5
t-62 155t-22.5 201t-3 248t3 248t22.5 201t62 155t120.5 109.5t198.5 65t296.5 21.5h578zM1410 128q127 0 214.5 7.5t144.5 30.5t88 66t45 114t16.5 174.5t2.5 247.5t-2.5 247.5t-16.5 174.5t-45 114t-87.5 66t-144 30.5t-215.5 7.5h-578q-128 0 -215.5 -7.5t-144.5 -30.5
t-88 -66t-45 -114t-16 -174.5t-2 -247.5t2.5 -247.5t16.5 -174.5t44.5 -114t87.5 -66t144.5 -30.5t215.5 -7.5h578z" />
    <glyph glyph-name="uni01D2" unicode="&#x1d2;" horiz-adv-x="1664" 
d="M832 1371l-288 448l-128 -96l320 -480h192l320 480l-128 96zM128 584q0 177 38 293t122 184t218 95.5t326 27.5t326 -27.5t218 -95.5t122 -184t38 -293t-38 -294t-122 -186t-218 -97.5t-326 -28.5t-326 28.5t-218 97.5t-122 186t-38 294zM320 584q0 -96 7 -167t26.5 -122
t54.5 -83t92 -51t138.5 -26t193.5 -7q96 0 171.5 4.5t132 20.5t96.5 45.5t64.5 80.5t36 125.5t11.5 179.5q0 103 -11.5 175.5t-36 121.5t-64.5 77.5t-96.5 43t-132 18.5t-171.5 4t-171.5 -4t-132 -18.5t-96.5 -43t-64.5 -77.5t-36 -121.5t-11.5 -175.5z" />
    <glyph glyph-name="uni01D3" unicode="&#x1d3;" horiz-adv-x="2113" 
d="M1057 1818l-288 448l-128 -96l320 -480h192l320 480l-128 96zM1985 1536v-768q0 -136 -3.5 -248t-23 -201t-61.5 -155t-120 -109.5t-198.5 -65t-296.5 -21.5h-450q-176 0 -296.5 21.5t-198.5 65t-120.5 109.5t-62 155t-22.5 201t-3 248v768h192v-768q0 -144 2.5 -247.5
t16.5 -174.5t44.5 -114t87.5 -66t144.5 -30.5t215.5 -7.5h450q127 0 215 7.5t144.5 30.5t87.5 66t45.5 114t16.5 174.5t2 247.5l-1 768h193z" />
    <glyph glyph-name="uni01D4" unicode="&#x1d4;" horiz-adv-x="1602" 
d="M800 1371l-288 448l-128 -96l320 -480h192l320 480l-128 96zM321 1152v-640q0 -107 16 -180.5t64 -118.5t136 -65t232 -20q156 0 255.5 23t156.5 65t78.5 101t21.5 131v704h192v-1152h-192v192q-14 -31 -47 -68.5t-99 -69.5t-170.5 -54t-259.5 -22q-129 0 -221.5 15.5
t-157 46t-103.5 75.5t-60 104.5t-28 132.5t-7 160l1 640h192z" />
    <glyph glyph-name="uni01D5" unicode="&#x1d5;" horiz-adv-x="2113" 
d="M672 2106h768v160h-768v-160zM1985 1536v-768q0 -136 -3.5 -248t-23 -201t-61.5 -155t-120 -109.5t-198.5 -65t-296.5 -21.5h-450q-176 0 -296.5 21.5t-198.5 65t-120.5 109.5t-62 155t-22.5 201t-3 248v768h192v-768q0 -144 2.5 -247.5t16.5 -174.5t44.5 -114t87.5 -66
t144.5 -30.5t215.5 -7.5h450q127 0 215 7.5t144.5 30.5t87.5 66t45.5 114t16.5 174.5t2 247.5l-1 768h193zM768 1984h-192v-192h192v192zM1536 1984h-192v-192h192v192z" />
    <glyph glyph-name="uni01D6" unicode="&#x1d6;" horiz-adv-x="1602" 
d="M417 1658h768v160h-768v-160zM321 1152v-640q0 -107 16 -180.5t64 -118.5t136 -65t232 -20q156 0 255.5 23t156.5 65t78.5 101t21.5 131v704h192v-1152h-192v192q-14 -31 -47 -68.5t-99 -69.5t-170.5 -54t-259.5 -22q-129 0 -221.5 15.5t-157 46t-103.5 75.5t-60 104.5
t-28 132.5t-7 160l1 640h192zM513 1536h-192v-192h192v192zM1281 1536h-192v-192h192v192z" />
    <glyph glyph-name="uni01D7" unicode="&#x1d7;" horiz-adv-x="2113" 
d="M1696 2490l-128 192l-576 -480l64 -96zM1985 1536v-768q0 -136 -3.5 -248t-23 -201t-61.5 -155t-120 -109.5t-198.5 -65t-296.5 -21.5h-450q-176 0 -296.5 21.5t-198.5 65t-120.5 109.5t-62 155t-22.5 201t-3 248v768h192v-768q0 -144 2.5 -247.5t16.5 -174.5t44.5 -114
t87.5 -66t144.5 -30.5t215.5 -7.5h450q127 0 215 7.5t144.5 30.5t87.5 66t45.5 114t16.5 174.5t2 247.5l-1 768h193zM768 1984h-192v-192h192v192zM1536 1984h-192v-192h192v192z" />
    <glyph glyph-name="uni01D8" unicode="&#x1d8;" horiz-adv-x="1602" 
d="M1441 2042l-128 192l-576 -480l64 -96zM321 1152v-640q0 -107 16 -180.5t64 -118.5t136 -65t232 -20q156 0 255.5 23t156.5 65t78.5 101t21.5 131v704h192v-1152h-192v192q-14 -31 -47 -68.5t-99 -69.5t-170.5 -54t-259.5 -22q-129 0 -221.5 15.5t-157 46t-103.5 75.5
t-60 104.5t-28 132.5t-7 160l1 640h192zM513 1536h-192v-192h192v192zM1281 1536h-192v-192h192v192z" />
    <glyph glyph-name="uni01D9" unicode="&#x1d9;" horiz-adv-x="2113" 
d="M1056 2234l-288 448l-128 -96l320 -480h192l320 480l-128 96zM1985 1536v-768q0 -136 -3.5 -248t-23 -201t-61.5 -155t-120 -109.5t-198.5 -65t-296.5 -21.5h-450q-176 0 -296.5 21.5t-198.5 65t-120.5 109.5t-62 155t-22.5 201t-3 248v768h192v-768q0 -144 2.5 -247.5
t16.5 -174.5t44.5 -114t87.5 -66t144.5 -30.5t215.5 -7.5h450q127 0 215 7.5t144.5 30.5t87.5 66t45.5 114t16.5 174.5t2 247.5l-1 768h193zM768 1984h-192v-192h192v192zM1536 1984h-192v-192h192v192z" />
    <glyph glyph-name="uni01DA" unicode="&#x1da;" horiz-adv-x="1602" 
d="M801 1786l-288 448l-128 -96l320 -480h192l320 480l-128 96zM321 1152v-640q0 -107 16 -180.5t64 -118.5t136 -65t232 -20q156 0 255.5 23t156.5 65t78.5 101t21.5 131v704h192v-1152h-192v192q-14 -31 -47 -68.5t-99 -69.5t-170.5 -54t-259.5 -22q-129 0 -221.5 15.5
t-157 46t-103.5 75.5t-60 104.5t-28 132.5t-7 160l1 640h192zM513 1536h-192v-192h192v192zM1281 1536h-192v-192h192v192z" />
    <glyph glyph-name="uni01DB" unicode="&#x1db;" horiz-adv-x="2113" 
d="M416 2490l128 192l576 -480l-64 -96zM1985 1536v-768q0 -136 -3.5 -248t-23 -201t-61.5 -155t-120 -109.5t-198.5 -65t-296.5 -21.5h-450q-176 0 -296.5 21.5t-198.5 65t-120.5 109.5t-62 155t-22.5 201t-3 248v768h192v-768q0 -144 2.5 -247.5t16.5 -174.5t44.5 -114
t87.5 -66t144.5 -30.5t215.5 -7.5h450q127 0 215 7.5t144.5 30.5t87.5 66t45.5 114t16.5 174.5t2 247.5l-1 768h193zM768 1984h-192v-192h192v192zM1536 1984h-192v-192h192v192z" />
    <glyph glyph-name="uni01DC" unicode="&#x1dc;" horiz-adv-x="1602" 
d="M161 2042l128 192l576 -480l-64 -96zM321 1152v-640q0 -107 16 -180.5t64 -118.5t136 -65t232 -20q156 0 255.5 23t156.5 65t78.5 101t21.5 131v704h192v-1152h-192v192q-14 -31 -47 -68.5t-99 -69.5t-170.5 -54t-259.5 -22q-129 0 -221.5 15.5t-157 46t-103.5 75.5
t-60 104.5t-28 132.5t-7 160l1 640h192zM513 1536h-192v-192h192v192zM1281 1536h-192v-192h192v192z" />
    <glyph glyph-name="uni01DE" unicode="&#x1de;" horiz-adv-x="2304" 
d="M768 2106h768v160h-768v-160zM1760 352h-1216l-192 -352h-224l896 1536h256l896 -1536h-224zM1664 512l-512 896l-512 -896h1024zM864 1984h-192v-192h192v192zM1632 1984h-192v-192h192v192z" />
    <glyph glyph-name="uni01DF" unicode="&#x1df;" horiz-adv-x="1600" 
d="M416 1658h768v160h-768v-160zM1280 158q-3 -12 -45 -60q-30 -36 -80 -63.5t-133.5 -43t-219.5 -15.5q-181 0 -309 18.5t-209 57t-118.5 98.5t-37.5 143q0 87 20.5 147.5t60 101.5t95.5 64t127.5 35t156.5 15t181 3q137 0 229 -11.5t150.5 -29t88.5 -37.5t43 -37
q0 112 -9.5 191t-31 132t-55.5 84.5t-83.5 47.5t-115.5 20.5t-151 4.5q-132 0 -219 -6.5t-138 -25.5t-72 -52.5t-21 -87.5h-192q0 91 32.5 154t108 102.5t198.5 57.5t303 18q176 0 298 -29t197.5 -102t109 -196.5t33.5 -312.5v-544h-192v158zM834 128q127 0 212.5 12
t137.5 36t74 60t22 84t-25.5 81.5t-85 54.5t-157.5 30.5t-242 9.5t-232.5 -5t-136.5 -23t-64.5 -53t-16.5 -95t17.5 -97.5t71.5 -58.5t155.5 -28.5t269.5 -7.5zM512 1536h-192v-192h192v192zM1280 1536h-192v-192h192v192z" />
    <glyph glyph-name="uni01E0" unicode="&#x1e0;" horiz-adv-x="2304" 
d="M768 2004h768v160h-768v-160zM1248 1882h-192v-192h192v192zM1760 352h-1216l-192 -352h-224l896 1536h256l896 -1536h-224zM1664 512l-512 896l-512 -896h1024z" />
    <glyph glyph-name="uni01E1" unicode="&#x1e1;" horiz-adv-x="1600" 
d="M450 1556h768v160h-768v-160zM930 1435h-192v-192h192v192zM1280 158q-3 -12 -45 -60q-30 -36 -80 -63.5t-133.5 -43t-219.5 -15.5q-181 0 -309 18.5t-209 57t-118.5 98.5t-37.5 143q0 87 20.5 147.5t60 101.5t95.5 64t127.5 35t156.5 15t181 3q137 0 229 -11.5
t150.5 -29t88.5 -37.5t43 -37q0 112 -9.5 191t-31 132t-55.5 84.5t-83.5 47.5t-115.5 20.5t-151 4.5q-132 0 -219 -6.5t-138 -25.5t-72 -52.5t-21 -87.5h-192q0 91 32.5 154t108 102.5t198.5 57.5t303 18q176 0 298 -29t197.5 -102t109 -196.5t33.5 -312.5v-544h-192v158z
M834 128q127 0 212.5 12t137.5 36t74 60t22 84t-25.5 81.5t-85 54.5t-157.5 30.5t-242 9.5t-232.5 -5t-136.5 -23t-64.5 -53t-16.5 -95t17.5 -97.5t71.5 -58.5t155.5 -28.5t269.5 -7.5z" />
    <glyph glyph-name="uni01E2" unicode="&#x1e2;" horiz-adv-x="3200" 
d="M1920 1690h768v160h-768v-160zM1600 0v352h-890l-326 -352h-256l1408 1536h1536v-160h-1280v-512h1216v-160h-1216v-544h1280v-160h-1472zM1600 512v864l-768 -864h768z" />
    <glyph glyph-name="uni01E3" unicode="&#x1e3;" horiz-adv-x="3200" 
d="M1249 1243h768v160h-768v-160zM1280 158q-3 -12 -45 -60q-30 -36 -80 -63.5t-133.5 -43t-219.5 -15.5q-181 0 -309 18.5t-209 57t-118.5 98.5t-37.5 143q0 87 20.5 147.5t60 101.5t95.5 64t127.5 35t156.5 15t181 3q137 0 229 -11.5t150.5 -29t88.5 -37.5t43 -37
q0 112 -9.5 191t-31 132t-55.5 84.5t-83.5 47.5t-115.5 20.5t-151 4.5q-132 0 -219 -6.5t-138 -25.5t-72 -52.5t-21 -87.5h-192q0 91 32.5 154t108 102.5t198.5 57.5t303 18q176 0 298 -29t197.5 -102t109 -196.5t33.5 -312.5v-544h-192v158zM834 128q127 0 212.5 12
t137.5 36t74 60t22 84t-25.5 81.5t-85 54.5t-157.5 30.5t-242 9.5t-232.5 -5t-136.5 -23t-64.5 -53t-16.5 -95t17.5 -97.5t71.5 -58.5t155.5 -28.5t269.5 -7.5zM2432 -22q-192 0 -326 26.5t-218 91.5t-122 174t-38 274q0 189 38 312.5t122 196.5t218 102t326 29
q137 0 237.5 -20t172 -58t116 -92t70 -113.5t35 -139.5t9.5 -169l-16 -64h-1136q0 -132 26 -216.5t86 -123.5t158 -49.5t242 -10.5q132 0 218.5 7.5t137.5 28.5t71.5 58.5t20.5 97.5h192q0 -93 -32.5 -158.5t-107.5 -106t-197.5 -59t-302.5 -18.5zM2432 1024
q-96 0 -171.5 -4t-132 -17.5t-96.5 -39t-64.5 -60t-36 -97t-11.5 -150.5h960q0 117 -25 183.5t-79 109.5t-139 59t-205 16z" />
    <glyph glyph-name="Gcaron" unicode="&#x1e6;" horiz-adv-x="2178" 
d="M1089 1818l-288 448l-128 -96l320 -480h192l320 480l-128 96zM1858 1056q0 120 -26 190t-86 106t-158 46t-242 10h-514q-128 0 -215.5 -7.5t-144.5 -30.5t-88 -66t-45 -114t-16 -174.5t-2 -247.5t2.5 -247.5t16.5 -174.5t44.5 -114t87.5 -66t144.5 -30.5t215.5 -7.5h515
q112 0 193 6t138 22t92 44t54.5 70.5t26.5 102t7 139.5v96h-770v160h962v-256q0 -96 -12 -173.5t-42.5 -138t-81.5 -104.5t-129 -72.5t-186 -42t-252 -13.5h-515q-176 0 -296.5 21.5t-198.5 65t-120.5 109.5t-62 155t-22.5 201t-3 248t3 248t22.5 201t62 155t120.5 109.5
t198.5 65t296.5 21.5h514q144 0 252 -13.5t186 -41t129.5 -69.5t82 -99t42.5 -129t12 -160h-192z" />
    <glyph glyph-name="gcaron" unicode="&#x1e7;" horiz-adv-x="1664" 
d="M832 1371l-288 448l-128 -96l320 -480h192l320 480l-128 96zM832 1024q-112 0 -193.5 -7t-138.5 -25t-92.5 -50t-55 -82t-26 -120.5t-6.5 -165.5q0 -94 6.5 -163.5t26 -119t55 -81.5t92.5 -50t138.5 -25t193.5 -7q96 0 171 4.5t132 20t96.5 45t64.5 79t36.5 123
t11.5 177.5t-11.5 178t-36.5 123.5t-64.5 78.5t-96.5 44t-132 19t-171 4zM1536 160q0 -168 -38 -279t-122 -179.5t-218 -95.5t-326 -27q-180 0 -302.5 16t-197.5 50.5t-107.5 89t-32.5 132.5h192q0 -39 20.5 -64t71.5 -39t137.5 -19.5t218.5 -5.5q144 0 242 10.5t158 49.5
t86 118t26 211q-14 -24 -44.5 -52t-89 -52t-150.5 -40t-228 -16q-192 0 -326 28.5t-218 97.5t-122 186t-38 294q0 180 38 298t122 187t218 97t326 28q136 0 228 -14t150.5 -35t89 -45.5t44.5 -44.5v107h192v-992z" />
    <glyph glyph-name="uni01E8" unicode="&#x1e8;" horiz-adv-x="2016" 
d="M992 1818l-288 448l-128 -96l320 -480h192l320 480l-128 96zM1569 1536h288l-1088 -752l1120 -784h-288l-1024 704h-256v-704h-192v1536h192v-672h256z" />
    <glyph glyph-name="uni01E9" unicode="&#x1e9;" horiz-adv-x="1536" 
d="M225 1786l-288 448l-128 -96l320 -480h192l320 480l-128 96zM128 1536h192v-840h64l704 456h288l-816 -536l848 -616h-288l-736 552h-64v-552h-192v1536z" />
    <glyph glyph-name="uni01EA" unicode="&#x1ea;" horiz-adv-x="2241" 
d="M1185 -588q-72 0 -141 13t-123 43t-87 79t-33 121q0 36 11 69t29 62t41 54.5t47 46.5q56 49 128 88h128q-72 -48 -111 -94.5t-57 -85.5t-21 -67.5t-3 -40.5q0 -72 47.5 -100t144.5 -28v-160zM1410 1568q176 0 296.5 -21.5t198.5 -65t120 -109.5t61.5 -155t23 -201
t3.5 -248t-3.5 -248t-23 -201t-61.5 -155t-120 -109.5t-198.5 -65t-296.5 -21.5h-578q-176 0 -296.5 21.5t-198.5 65t-120.5 109.5t-62 155t-22.5 201t-3 248t3 248t22.5 201t62 155t120.5 109.5t198.5 65t296.5 21.5h578zM1410 128q127 0 214.5 7.5t144.5 30.5t88 66
t45 114t16.5 174.5t2.5 247.5t-2.5 247.5t-16.5 174.5t-45 114t-87.5 66t-144 30.5t-215.5 7.5h-578q-128 0 -215.5 -7.5t-144.5 -30.5t-88 -66t-45 -114t-16 -174.5t-2 -247.5t2.5 -247.5t16.5 -174.5t44.5 -114t87.5 -66t144.5 -30.5t215.5 -7.5h578z" />
    <glyph glyph-name="uni01EB" unicode="&#x1eb;" horiz-adv-x="1664" 
d="M896 -588q-72 0 -141 13t-123 43t-87 79t-33 121q0 36 11 69t29 62t41 54.5t47 46.5q56 49 128 88h128q-72 -48 -111 -94.5t-57 -85.5t-21 -67.5t-3 -40.5q0 -72 47.5 -100t144.5 -28v-160zM128 584q0 177 38 293t122 184t218 95.5t326 27.5t326 -27.5t218 -95.5
t122 -184t38 -293t-38 -294t-122 -186t-218 -97.5t-326 -28.5t-326 28.5t-218 97.5t-122 186t-38 294zM320 584q0 -96 7 -167t26.5 -122t54.5 -83t92 -51t138.5 -26t193.5 -7q96 0 171.5 4.5t132 20.5t96.5 45.5t64.5 80.5t36 125.5t11.5 179.5q0 103 -11.5 175.5t-36 121.5
t-64.5 77.5t-96.5 43t-132 18.5t-171.5 4t-171.5 -4t-132 -18.5t-96.5 -43t-64.5 -77.5t-36 -121.5t-11.5 -175.5z" />
    <glyph glyph-name="uni01EC" unicode="&#x1ec;" horiz-adv-x="2241" 
d="M737 1690h768v160h-768v-160zM1185 -588q-72 0 -141 13t-123 43t-87 79t-33 121q0 36 11 69t29 62t41 54.5t47 46.5q56 49 128 88h128q-72 -48 -111 -94.5t-57 -85.5t-21 -67.5t-3 -40.5q0 -72 47.5 -100t144.5 -28v-160zM1410 1568q176 0 296.5 -21.5t198.5 -65
t120 -109.5t61.5 -155t23 -201t3.5 -248t-3.5 -248t-23 -201t-61.5 -155t-120 -109.5t-198.5 -65t-296.5 -21.5h-578q-176 0 -296.5 21.5t-198.5 65t-120.5 109.5t-62 155t-22.5 201t-3 248t3 248t22.5 201t62 155t120.5 109.5t198.5 65t296.5 21.5h578zM1410 128
q127 0 214.5 7.5t144.5 30.5t88 66t45 114t16.5 174.5t2.5 247.5t-2.5 247.5t-16.5 174.5t-45 114t-87.5 66t-144 30.5t-215.5 7.5h-578q-128 0 -215.5 -7.5t-144.5 -30.5t-88 -66t-45 -114t-16 -174.5t-2 -247.5t2.5 -247.5t16.5 -174.5t44.5 -114t87.5 -66t144.5 -30.5
t215.5 -7.5h578z" />
    <glyph glyph-name="uni01ED" unicode="&#x1ed;" horiz-adv-x="1664" 
d="M448 1243h768v160h-768v-160zM896 -588q-72 0 -141 13t-123 43t-87 79t-33 121q0 36 11 69t29 62t41 54.5t47 46.5q56 49 128 88h128q-72 -48 -111 -94.5t-57 -85.5t-21 -67.5t-3 -40.5q0 -72 47.5 -100t144.5 -28v-160zM128 584q0 177 38 293t122 184t218 95.5t326 27.5
t326 -27.5t218 -95.5t122 -184t38 -293t-38 -294t-122 -186t-218 -97.5t-326 -28.5t-326 28.5t-218 97.5t-122 186t-38 294zM320 584q0 -96 7 -167t26.5 -122t54.5 -83t92 -51t138.5 -26t193.5 -7q96 0 171.5 4.5t132 20.5t96.5 45.5t64.5 80.5t36 125.5t11.5 179.5
q0 103 -11.5 175.5t-36 121.5t-64.5 77.5t-96.5 43t-132 18.5t-171.5 4t-171.5 -4t-132 -18.5t-96.5 -43t-64.5 -77.5t-36 -121.5t-11.5 -175.5z" />
    <glyph glyph-name="uni01F0" unicode="&#x1f0;" horiz-adv-x="608" 
d="M385 1371l-288 448l-128 -96l320 -480h192l320 480l-128 96zM480 1088h-192v-1152q0 -48 -7 -79t-25 -49t-49 -25t-79 -7v-160q120 0 190 22.5t106 64t46 100.5t10 133v1152z" />
    <glyph glyph-name="uni01F1" unicode="&#x1f1;" horiz-adv-x="4158" 
d="M2240 0v160l1486 1216h-1422v160h1696v-160l-1494 -1216h1526v-160h-1792zM1280 160q127 0 215 7t145 28.5t88 62.5t45.5 108.5t17 166t2.5 235.5t-2.5 235.5t-17 166t-45.5 108.5t-88 62.5t-144.5 28.5t-215.5 7h-959v-1216h959zM129 0v1536h1151q176 0 296.5 -20.5
t199 -62.5t121 -105t62 -148.5t23 -193t3.5 -238.5t-3.5 -238.5t-23 -193t-62 -148.5t-121 -105t-199 -62.5t-296.5 -20.5h-1151z" />
    <glyph glyph-name="uni01F2" unicode="&#x1f2;" horiz-adv-x="3584" 
d="M2304 1152v-141h912l-976 -851v-160h1216v143h-962l962 849v160h-1152zM1280 160q127 0 215 7t145 28.5t88 62.5t45.5 108.5t17 166t2.5 235.5t-2.5 235.5t-17 166t-45.5 108.5t-88 62.5t-144.5 28.5t-215.5 7h-959v-1216h959zM129 0v1536h1151q176 0 296.5 -20.5
t199 -62.5t121 -105t62 -148.5t23 -193t3.5 -238.5t-3.5 -238.5t-23 -193t-62 -148.5t-121 -105t-199 -62.5t-296.5 -20.5h-1151z" />
    <glyph glyph-name="uni01F3" unicode="&#x1f3;" horiz-adv-x="3136" 
d="M1856 1152v-141h912l-976 -851v-160h1216v143h-962l962 849v160h-1152zM832 -22q-192 0 -326 28t-218 96t-122 183t-38 289q0 180 38 298t122 187t218 97t326 28q136 0 228 -14t150.5 -35t89 -45.5t44.5 -45.5v492h192v-1536h-192v171l-48 -57q-42 -41 -93 -66
t-143 -47.5t-228 -22.5zM832 128q96 0 171 4.5t132 19.5t96.5 44.5t64.5 78.5t36.5 121.5t11.5 174.5q0 106 -11.5 180.5t-36.5 125t-64.5 79.5t-96.5 44.5t-132 19.5t-171 4q-112 0 -193.5 -7t-138.5 -25t-92.5 -50t-55 -82t-26 -120.5t-6.5 -165.5q0 -94 6.5 -163.5
t26 -119t55 -81.5t92.5 -50t138.5 -25t193.5 -7z" />
    <glyph glyph-name="uni01F4" unicode="&#x1f4;" horiz-adv-x="2178" 
d="M1729 2074l-128 192l-576 -480l64 -96zM1858 1056q0 120 -26 190t-86 106t-158 46t-242 10h-514q-128 0 -215.5 -7.5t-144.5 -30.5t-88 -66t-45 -114t-16 -174.5t-2 -247.5t2.5 -247.5t16.5 -174.5t44.5 -114t87.5 -66t144.5 -30.5t215.5 -7.5h515q112 0 193 6t138 22
t92 44t54.5 70.5t26.5 102t7 139.5v96h-770v160h962v-256q0 -96 -12 -173.5t-42.5 -138t-81.5 -104.5t-129 -72.5t-186 -42t-252 -13.5h-515q-176 0 -296.5 21.5t-198.5 65t-120.5 109.5t-62 155t-22.5 201t-3 248t3 248t22.5 201t62 155t120.5 109.5t198.5 65t296.5 21.5
h514q144 0 252 -13.5t186 -41t129.5 -69.5t82 -99t42.5 -129t12 -160h-192z" />
    <glyph glyph-name="uni01F5" unicode="&#x1f5;" horiz-adv-x="1664" 
d="M1472 1627l-128 192l-576 -480l64 -96zM832 1024q-112 0 -193.5 -7t-138.5 -25t-92.5 -50t-55 -82t-26 -120.5t-6.5 -165.5q0 -94 6.5 -163.5t26 -119t55 -81.5t92.5 -50t138.5 -25t193.5 -7q96 0 171 4.5t132 20t96.5 45t64.5 79t36.5 123t11.5 177.5t-11.5 178
t-36.5 123.5t-64.5 78.5t-96.5 44t-132 19t-171 4zM1536 160q0 -168 -38 -279t-122 -179.5t-218 -95.5t-326 -27q-180 0 -302.5 16t-197.5 50.5t-107.5 89t-32.5 132.5h192q0 -39 20.5 -64t71.5 -39t137.5 -19.5t218.5 -5.5q144 0 242 10.5t158 49.5t86 118t26 211
q-14 -24 -44.5 -52t-89 -52t-150.5 -40t-228 -16q-192 0 -326 28.5t-218 97.5t-122 186t-38 294q0 180 38 298t122 187t218 97t326 28q136 0 228 -14t150.5 -35t89 -45.5t44.5 -44.5v107h192v-992z" />
    <glyph glyph-name="uni01F8" unicode="&#x1f8;" horiz-adv-x="2193" 
d="M456 2074l128 192l576 -480l-64 -96zM321 0h-192v1536h337l1408 -1344v1344h192v-1536h-256l-1489 1376v-1376z" />
    <glyph glyph-name="uni01F9" unicode="&#x1f9;" horiz-adv-x="1602" 
d="M160 1627l128 192l576 -480l-64 -96zM1280 0v640q0 107 -16 180.5t-64 118.5t-136 65t-232 20q-156 0 -255.5 -23t-156.5 -65t-78.5 -101t-21.5 -131v-704h-192v1152h192v-192q21 49 60 84.5t88 60.5t106 40.5t114 24t110.5 11.5t97.5 3q128 0 220.5 -16t157 -47
t103.5 -77t60.5 -106.5t28.5 -135t7 -162.5l-1 -640h-192z" />
    <glyph glyph-name="Aringacute" unicode="&#x1fa;" horiz-adv-x="2304" 
d="M1792 2874l-128 192l-576 -480l64 -96zM1760 352h-1216l-192 -352h-224l896 1536h256l896 -1536h-224zM1664 512l-512 896l-512 -896h1024zM1152 2368q-96 0 -163 -27.5t-109 -72.5t-61 -102.5t-19 -117.5t19 -117.5t61 -102.5t109 -72.5t163 -27.5t163 27.5t109 72.5
t61 102.5t19 117.5t-19 117.5t-61 102.5t-109 72.5t-163 27.5zM1152 1856q-60 0 -97.5 16.5t-58.5 43.5t-28.5 61.5t-7.5 70.5t7.5 70.5t28.5 61.5t58.5 43.5t97.5 16.5t97.5 -16.5t58.5 -43.5t28.5 -61.5t7.5 -70.5t-7.5 -70.5t-28.5 -61.5t-58.5 -43.5t-97.5 -16.5z" />
    <glyph glyph-name="aringacute" unicode="&#x1fb;" horiz-adv-x="1600" 
d="M1440 2426l-128 192l-576 -480l64 -96zM1280 158q-3 -12 -45 -60q-30 -36 -80 -63.5t-133.5 -43t-219.5 -15.5q-181 0 -309 18.5t-209 57t-118.5 98.5t-37.5 143q0 87 20.5 147.5t60 101.5t95.5 64t127.5 35t156.5 15t181 3q137 0 229 -11.5t150.5 -29t88.5 -37.5t43 -37
q0 112 -9.5 191t-31 132t-55.5 84.5t-83.5 47.5t-115.5 20.5t-151 4.5q-132 0 -219 -6.5t-138 -25.5t-72 -52.5t-21 -87.5h-192q0 91 32.5 154t108 102.5t198.5 57.5t303 18q176 0 298 -29t197.5 -102t109 -196.5t33.5 -312.5v-544h-192v158zM834 128q127 0 212.5 12
t137.5 36t74 60t22 84t-25.5 81.5t-85 54.5t-157.5 30.5t-242 9.5t-232.5 -5t-136.5 -23t-64.5 -53t-16.5 -95t17.5 -97.5t71.5 -58.5t155.5 -28.5t269.5 -7.5zM800 1920q-96 0 -163 -27.5t-109 -72.5t-61 -102.5t-19 -117.5t19 -117.5t61 -102.5t109 -72.5t163 -27.5
t163 27.5t109 72.5t61 102.5t19 117.5t-19 117.5t-61 102.5t-109 72.5t-163 27.5zM800 1408q-60 0 -97.5 16.5t-58.5 43.5t-28.5 61.5t-7.5 70.5t7.5 70.5t28.5 61.5t58.5 43.5t97.5 16.5t97.5 -16.5t58.5 -43.5t28.5 -61.5t7.5 -70.5t-7.5 -70.5t-28.5 -61.5t-58.5 -43.5
t-97.5 -16.5z" />
    <glyph glyph-name="AEacute" unicode="&#x1fc;" horiz-adv-x="3200" 
d="M2944 2074l-128 192l-576 -480l64 -96zM1600 0v352h-890l-326 -352h-256l1408 1536h1536v-160h-1280v-512h1216v-160h-1216v-544h1280v-160h-1472zM1600 512v864l-768 -864h768z" />
    <glyph glyph-name="aeacute" unicode="&#x1fd;" horiz-adv-x="3200" 
d="M2273 1627l-128 192l-576 -480l64 -96zM1280 158q-3 -12 -45 -60q-30 -36 -80 -63.5t-133.5 -43t-219.5 -15.5q-181 0 -309 18.5t-209 57t-118.5 98.5t-37.5 143q0 87 20.5 147.5t60 101.5t95.5 64t127.5 35t156.5 15t181 3q137 0 229 -11.5t150.5 -29t88.5 -37.5t43 -37
q0 112 -9.5 191t-31 132t-55.5 84.5t-83.5 47.5t-115.5 20.5t-151 4.5q-132 0 -219 -6.5t-138 -25.5t-72 -52.5t-21 -87.5h-192q0 91 32.5 154t108 102.5t198.5 57.5t303 18q176 0 298 -29t197.5 -102t109 -196.5t33.5 -312.5v-544h-192v158zM834 128q127 0 212.5 12
t137.5 36t74 60t22 84t-25.5 81.5t-85 54.5t-157.5 30.5t-242 9.5t-232.5 -5t-136.5 -23t-64.5 -53t-16.5 -95t17.5 -97.5t71.5 -58.5t155.5 -28.5t269.5 -7.5zM2432 -22q-192 0 -326 26.5t-218 91.5t-122 174t-38 274q0 189 38 312.5t122 196.5t218 102t326 29
q137 0 237.5 -20t172 -58t116 -92t70 -113.5t35 -139.5t9.5 -169l-16 -64h-1136q0 -132 26 -216.5t86 -123.5t158 -49.5t242 -10.5q132 0 218.5 7.5t137.5 28.5t71.5 58.5t20.5 97.5h192q0 -93 -32.5 -158.5t-107.5 -106t-197.5 -59t-302.5 -18.5zM2432 1024
q-96 0 -171.5 -4t-132 -17.5t-96.5 -39t-64.5 -60t-36 -97t-11.5 -150.5h960q0 117 -25 183.5t-79 109.5t-139 59t-205 16z" />
    <glyph glyph-name="Oslashacute" unicode="&#x1fe;" horiz-adv-x="2241" 
d="M1761 2298l-128 192l-576 -480l64 -96zM1410 1568h4l90 224l160 -64l-68 -167q60 -6 110 -15q121 -21 199 -64.5t120 -109.5t61.5 -155t23 -201t3.5 -248t-3.5 -248t-23 -201t-61.5 -155t-120 -109.5t-198.5 -65t-296.5 -21.5h-456l-90 -224l-160 64l65 161
q-135 3 -234 21q-120 21 -198 64.5t-120.5 109.5t-62 155t-22.5 201t-3 248t3 248t22.5 201t62 155t120.5 109.5t198.5 65t296.5 21.5h578zM616 1400q-87 -7 -144 -30t-88 -66t-45 -114t-16 -174.5t-2 -247.5t2.5 -247.5t16.5 -174.5t44.5 -114t87.5 -66t144.5 -30.5
t215.5 -7.5h1l516 1280h-517q-128 0 -216 -8zM1410 128q127 0 214.5 7.5t144.5 30.5t88 66t45 114t16.5 174.5t2.5 247.5t-2.5 247.5t-16.5 174.5t-45 114t-87.5 66t-144.5 30q-41 4 -91 6l-515 -1278h391z" />
    <glyph glyph-name="oslashacute" unicode="&#x1ff;" horiz-adv-x="1664" 
d="M1472 1818l-128 192l-576 -480l64 -96zM128 544q0 168 38 279t122 177t218 93t326 27q76 0 143 -5l81 197l160 -64l-64 -154q3 -1 6 -1q134 -27 218 -93t122 -177t38 -279t-38 -279t-122 -177t-218 -93t-326 -27q-76 0 -143 5l-81 -197l-160 64l63 154q-2 1 -5 1
q-134 27 -218 93t-122 177t-38 279zM320 544q0 -88 7 -153t26.5 -111.5t54.5 -75.5t92 -46q32 -10 72 -17l338 818q-37 1 -78 1q-144 0 -242 -11t-158 -53t-86 -125t-26 -227zM832 128q144 0 242 11t158 53t86 125t26 227t-26 227t-86 125q-55 38 -141 50l-338 -818h79z" />
    <glyph glyph-name="uni0200" unicode="&#x200;" horiz-adv-x="2304" 
d="M1760 352h-1216l-192 -352h-224l896 1536h256l896 -1536h-224zM1664 512l-512 896l-512 -896h1024z" />
    <glyph glyph-name="uni0201" unicode="&#x201;" horiz-adv-x="1600" 
d="M1280 158q-3 -12 -45 -60q-30 -36 -80 -63.5t-133.5 -43t-219.5 -15.5q-181 0 -309 18.5t-209 57t-118.5 98.5t-37.5 143q0 87 20.5 147.5t60 101.5t95.5 64t127.5 35t156.5 15t181 3q137 0 229 -11.5t150.5 -29t88.5 -37.5t43 -37q0 112 -9.5 191t-31 132t-55.5 84.5
t-83.5 47.5t-115.5 20.5t-151 4.5q-132 0 -219 -6.5t-138 -25.5t-72 -52.5t-21 -87.5h-192q0 91 32.5 154t108 102.5t198.5 57.5t303 18q176 0 298 -29t197.5 -102t109 -196.5t33.5 -312.5v-544h-192v158zM834 128q127 0 212.5 12t137.5 36t74 60t22 84t-25.5 81.5t-85 54.5
t-157.5 30.5t-242 9.5t-232.5 -5t-136.5 -23t-64.5 -53t-16.5 -95t17.5 -97.5t71.5 -58.5t155.5 -28.5t269.5 -7.5z" />
    <glyph glyph-name="uni0202" unicode="&#x202;" horiz-adv-x="2304" 
d="M768 1690q0 168 96 244t288 76t288 -76t96 -244h-160q0 72 -17 111t-47 57t-71 21t-89 3t-89 -3t-71 -21t-47 -57t-17 -111h-160zM1760 352h-1216l-192 -352h-224l896 1536h256l896 -1536h-224zM1664 512l-512 896l-512 -896h1024z" />
    <glyph glyph-name="uni0203" unicode="&#x203;" horiz-adv-x="1600" 
d="M450 1242q0 168 96 244t288 76t288 -76t96 -244h-160q0 72 -17 111t-47 57t-71 21t-89 3t-89 -3t-71 -21t-47 -57t-17 -111h-160zM1280 158q-3 -12 -45 -60q-30 -36 -80 -63.5t-133.5 -43t-219.5 -15.5q-181 0 -309 18.5t-209 57t-118.5 98.5t-37.5 143q0 87 20.5 147.5
t60 101.5t95.5 64t127.5 35t156.5 15t181 3q137 0 229 -11.5t150.5 -29t88.5 -37.5t43 -37q0 112 -9.5 191t-31 132t-55.5 84.5t-83.5 47.5t-115.5 20.5t-151 4.5q-132 0 -219 -6.5t-138 -25.5t-72 -52.5t-21 -87.5h-192q0 91 32.5 154t108 102.5t198.5 57.5t303 18
q176 0 298 -29t197.5 -102t109 -196.5t33.5 -312.5v-544h-192v158zM834 128q127 0 212.5 12t137.5 36t74 60t22 84t-25.5 81.5t-85 54.5t-157.5 30.5t-242 9.5t-232.5 -5t-136.5 -23t-64.5 -53t-16.5 -95t17.5 -97.5t71.5 -58.5t155.5 -28.5t269.5 -7.5z" />
    <glyph glyph-name="uni0204" unicode="&#x204;" horiz-adv-x="1792" 
d="M192 0v1536h1536v-160h-1344v-512h1280v-160h-1280v-544h1344v-160h-1536z" />
    <glyph glyph-name="uni0205" unicode="&#x205;" horiz-adv-x="1600" 
d="M832 -22q-192 0 -326 26.5t-218 91.5t-122 174t-38 274q0 189 38 312.5t122 196.5t218 102t326 29q137 0 237.5 -20t172 -58t116 -92t70 -113.5t35 -139.5t9.5 -169l-16 -64h-1136q0 -132 26 -216.5t86 -123.5t158 -49.5t242 -10.5q132 0 218.5 7.5t137.5 28.5t71.5 58.5
t20.5 97.5h192q0 -93 -32.5 -158.5t-107.5 -106t-197.5 -59t-302.5 -18.5zM832 1024q-96 0 -171.5 -4t-132 -17.5t-96.5 -39t-64.5 -60t-36 -97t-11.5 -150.5h960q0 117 -25 183.5t-79 109.5t-139 59t-205 16z" />
    <glyph glyph-name="uni0206" unicode="&#x206;" horiz-adv-x="1792" 
d="M512 1690q0 168 96 244t288 76t288 -76t96 -244h-160q0 72 -17 111t-47 57t-71 21t-89 3t-89 -3t-71 -21t-47 -57t-17 -111h-160zM129 0v1536h1536v-160h-1344v-512h1280v-160h-1280v-544h1344v-160h-1536z" />
    <glyph glyph-name="uni0207" unicode="&#x207;" horiz-adv-x="1600" 
d="M448 1242q0 168 96 244t288 76t288 -76t96 -244h-160q0 72 -17 111t-47 57t-71 21t-89 3t-89 -3t-71 -21t-47 -57t-17 -111h-160zM832 -22q-192 0 -326 26.5t-218 91.5t-122 174t-38 274q0 189 38 312.5t122 196.5t218 102t326 29q137 0 237.5 -20t172 -58t116 -92
t70 -113.5t35 -139.5t9.5 -169l-16 -64h-1136q0 -132 26 -216.5t86 -123.5t158 -49.5t242 -10.5q132 0 218.5 7.5t137.5 28.5t71.5 58.5t20.5 97.5h192q0 -93 -32.5 -158.5t-107.5 -106t-197.5 -59t-302.5 -18.5zM832 1024q-96 0 -171.5 -4t-132 -17.5t-96.5 -39t-64.5 -60
t-36 -97t-11.5 -150.5h960q0 117 -25 183.5t-79 109.5t-139 59t-205 16z" />
    <glyph glyph-name="uni0208" unicode="&#x208;" 
d="M129 1536h192v-1536h-192v1536z" />
    <glyph glyph-name="uni0209" unicode="&#x209;" 
d="M128 0h192v1088h-192v-1088z" />
    <glyph glyph-name="uni020A" unicode="&#x20a;" 
d="M-159 1690q0 168 96 244t288 76t288 -76t96 -244h-160q0 72 -17 111t-47 57t-71 21t-89 3t-89 -3t-71 -21t-47 -57t-17 -111h-160zM129 1536h192v-1536h-192v1536z" />
    <glyph glyph-name="uni020B" unicode="&#x20b;" 
d="M-159 1242q0 168 96 244t288 76t288 -76t96 -244h-160q0 72 -17 111t-47 57t-71 21t-89 3t-89 -3t-71 -21t-47 -57t-17 -111h-160zM128 0h192v1088h-192v-1088z" />
    <glyph glyph-name="uni020C" unicode="&#x20c;" horiz-adv-x="2240" 
d="M1409 1568q176 0 296.5 -21.5t198.5 -65t120 -109.5t61.5 -155t23 -201t3.5 -248t-3.5 -248t-23 -201t-61.5 -155t-120 -109.5t-198.5 -65t-296.5 -21.5h-578q-176 0 -296.5 21.5t-198.5 65t-120.5 109.5t-62 155t-22.5 201t-3 248t3 248t22.5 201t62 155t120.5 109.5
t198.5 65t296.5 21.5h578zM1409 128q127 0 214.5 7.5t144.5 30.5t88 66t45 114t16.5 174.5t2.5 247.5t-2.5 247.5t-16.5 174.5t-45 114t-87.5 66t-144 30.5t-215.5 7.5h-578q-128 0 -215.5 -7.5t-144.5 -30.5t-88 -66t-45 -114t-16 -174.5t-2 -247.5t2.5 -247.5t16.5 -174.5
t44.5 -114t87.5 -66t144.5 -30.5t215.5 -7.5h578z" />
    <glyph glyph-name="uni020D" unicode="&#x20d;" horiz-adv-x="1664" 
d="M128 584q0 177 38 293t122 184t218 95.5t326 27.5t326 -27.5t218 -95.5t122 -184t38 -293t-38 -294t-122 -186t-218 -97.5t-326 -28.5t-326 28.5t-218 97.5t-122 186t-38 294zM320 584q0 -96 7 -167t26.5 -122t54.5 -83t92 -51t138.5 -26t193.5 -7q96 0 171.5 4.5
t132 20.5t96.5 45.5t64.5 80.5t36 125.5t11.5 179.5q0 103 -11.5 175.5t-36 121.5t-64.5 77.5t-96.5 43t-132 18.5t-171.5 4t-171.5 -4t-132 -18.5t-96.5 -43t-64.5 -77.5t-36 -121.5t-11.5 -175.5z" />
    <glyph glyph-name="uni020E" unicode="&#x20e;" horiz-adv-x="2241" 
d="M737 1690q0 168 96 244t288 76t288 -76t96 -244h-160q0 72 -17 111t-47 57t-71 21t-89 3t-89 -3t-71 -21t-47 -57t-17 -111h-160zM1410 1568q176 0 296.5 -21.5t198.5 -65t120 -109.5t61.5 -155t23 -201t3.5 -248t-3.5 -248t-23 -201t-61.5 -155t-120 -109.5t-198.5 -65
t-296.5 -21.5h-578q-176 0 -296.5 21.5t-198.5 65t-120.5 109.5t-62 155t-22.5 201t-3 248t3 248t22.5 201t62 155t120.5 109.5t198.5 65t296.5 21.5h578zM1410 128q127 0 214.5 7.5t144.5 30.5t88 66t45 114t16.5 174.5t2.5 247.5t-2.5 247.5t-16.5 174.5t-45 114t-87.5 66
t-144 30.5t-215.5 7.5h-578q-128 0 -215.5 -7.5t-144.5 -30.5t-88 -66t-45 -114t-16 -174.5t-2 -247.5t2.5 -247.5t16.5 -174.5t44.5 -114t87.5 -66t144.5 -30.5t215.5 -7.5h578z" />
    <glyph glyph-name="uni020F" unicode="&#x20f;" horiz-adv-x="1664" 
d="M448 1242q0 168 96 244t288 76t288 -76t96 -244h-160q0 72 -17 111t-47 57t-71 21t-89 3t-89 -3t-71 -21t-47 -57t-17 -111h-160zM128 584q0 177 38 293t122 184t218 95.5t326 27.5t326 -27.5t218 -95.5t122 -184t38 -293t-38 -294t-122 -186t-218 -97.5t-326 -28.5
t-326 28.5t-218 97.5t-122 186t-38 294zM320 584q0 -96 7 -167t26.5 -122t54.5 -83t92 -51t138.5 -26t193.5 -7q96 0 171.5 4.5t132 20.5t96.5 45.5t64.5 80.5t36 125.5t11.5 179.5q0 103 -11.5 175.5t-36 121.5t-64.5 77.5t-96.5 43t-132 18.5t-171.5 4t-171.5 -4
t-132 -18.5t-96.5 -43t-64.5 -77.5t-36 -121.5t-11.5 -175.5z" />
    <glyph glyph-name="uni0210" unicode="&#x210;" horiz-adv-x="2048" 
d="M1889 0h-192v288q0 70 -2.5 120.5t-17 86.5t-45.5 58t-88 34t-144.5 16.5t-215.5 4.5h-863v-608h-192v1536h1087q176 0 296.5 -12.5t199 -37.5t121 -62t62 -87t23 -112t3.5 -137q0 -96 -13.5 -168.5t-45.5 -123.5t-85 -81.5t-133 -42.5q80 -12 128 -42t74 -78t34.5 -114
t8.5 -150v-288zM321 768h895q128 0 215.5 4.5t144.5 16.5t88 34t45.5 58t17 86.5t2.5 120.5q0 65 -2.5 112t-17 79t-45.5 51t-88 29.5t-144.5 13.5t-215.5 3h-895v-608z" />
    <glyph glyph-name="uni0211" unicode="&#x211;" horiz-adv-x="1408" 
d="M1120 777q0 72 -10.5 119.5t-49.5 76t-115.5 40t-208.5 11.5q-129 0 -210 -22.5t-127 -63.5t-62.5 -98t-16.5 -127v-713h-192v1152h192v-183q10 31 37 68.5t82 70t142.5 54.5t218.5 22q150 0 244 -26.5t146.5 -78t71 -127.5t18.5 -175h-160z" />
    <glyph glyph-name="uni0212" unicode="&#x212;" horiz-adv-x="2048" 
d="M288 1690q0 168 96 244t288 76t288 -76t96 -244h-160q0 72 -17 111t-47 57t-71 21t-89 3t-89 -3t-71 -21t-47 -57t-17 -111h-160zM1889 0h-192v288q0 70 -2.5 120.5t-17 86.5t-45.5 58t-88 34t-144.5 16.5t-215.5 4.5h-863v-608h-192v1536h1087q176 0 296.5 -12.5
t199 -37.5t121 -62t62 -87t23 -112t3.5 -137q0 -96 -13.5 -168.5t-45.5 -123.5t-85 -81.5t-133 -42.5q80 -12 128 -42t74 -78t34.5 -114t8.5 -150v-288zM321 768h895q128 0 215.5 4.5t144.5 16.5t88 34t45.5 58t17 86.5t2.5 120.5q0 65 -2.5 112t-17 79t-45.5 51t-88 29.5
t-144.5 13.5t-215.5 3h-895v-608z" />
    <glyph glyph-name="uni0213" unicode="&#x213;" horiz-adv-x="1408" 
d="M320 1242q0 168 96 244t288 76t288 -76t96 -244h-160q0 72 -17 111t-47 57t-71 21t-89 3t-89 -3t-71 -21t-47 -57t-17 -111h-160zM1120 777q0 72 -10.5 119.5t-49.5 76t-115.5 40t-208.5 11.5q-129 0 -210 -22.5t-127 -63.5t-62.5 -98t-16.5 -127v-713h-192v1152h192
v-183q10 31 37 68.5t82 70t142.5 54.5t218.5 22q150 0 244 -26.5t146.5 -78t71 -127.5t18.5 -175h-160z" />
    <glyph glyph-name="uni0214" unicode="&#x214;" horiz-adv-x="2113" 
d="M1985 1536v-768q0 -136 -3.5 -248t-23 -201t-61.5 -155t-120 -109.5t-198.5 -65t-296.5 -21.5h-450q-176 0 -296.5 21.5t-198.5 65t-120.5 109.5t-62 155t-22.5 201t-3 248v768h192v-768q0 -144 2.5 -247.5t16.5 -174.5t44.5 -114t87.5 -66t144.5 -30.5t215.5 -7.5h450
q127 0 215 7.5t144.5 30.5t87.5 66t45.5 114t16.5 174.5t2 247.5l-1 768h193z" />
    <glyph glyph-name="uni0215" unicode="&#x215;" horiz-adv-x="1602" 
d="M321 1152v-640q0 -107 16 -180.5t64 -118.5t136 -65t232 -20q156 0 255.5 23t156.5 65t78.5 101t21.5 131v704h192v-1152h-192v192q-14 -31 -47 -68.5t-99 -69.5t-170.5 -54t-259.5 -22q-129 0 -221.5 15.5t-157 46t-103.5 75.5t-60 104.5t-28 132.5t-7 160l1 640h192z
" />
    <glyph glyph-name="uni0216" unicode="&#x216;" horiz-adv-x="2113" 
d="M673 1690q0 168 96 244t288 76t288 -76t96 -244h-160q0 72 -17 111t-47 57t-71 21t-89 3t-89 -3t-71 -21t-47 -57t-17 -111h-160zM1985 1536v-768q0 -136 -3.5 -248t-23 -201t-61.5 -155t-120 -109.5t-198.5 -65t-296.5 -21.5h-450q-176 0 -296.5 21.5t-198.5 65
t-120.5 109.5t-62 155t-22.5 201t-3 248v768h192v-768q0 -144 2.5 -247.5t16.5 -174.5t44.5 -114t87.5 -66t144.5 -30.5t215.5 -7.5h450q127 0 215 7.5t144.5 30.5t87.5 66t45.5 114t16.5 174.5t2 247.5l-1 768h193z" />
    <glyph glyph-name="uni0217" unicode="&#x217;" horiz-adv-x="1602" 
d="M416 1242q0 168 96 244t288 76t288 -76t96 -244h-160q0 72 -17 111t-47 57t-71 21t-89 3t-89 -3t-71 -21t-47 -57t-17 -111h-160zM321 1152v-640q0 -107 16 -180.5t64 -118.5t136 -65t232 -20q156 0 255.5 23t156.5 65t78.5 101t21.5 131v704h192v-1152h-192v192
q-14 -31 -47 -68.5t-99 -69.5t-170.5 -54t-259.5 -22q-129 0 -221.5 15.5t-157 46t-103.5 75.5t-60 104.5t-28 132.5t-7 160l1 640h192z" />
    <glyph glyph-name="uni0218" unicode="&#x218;" horiz-adv-x="1984" 
d="M896 -157h192l-128 -384h-128zM1160 864q158 0 271 -13t190.5 -38.5t123.5 -63.5t71 -86.5t32.5 -108.5t7.5 -130t-12.5 -131.5t-44.5 -112.5t-87 -91t-140 -68t-204.5 -42.5t-279.5 -14.5h-256q-144 0 -252 11t-186 33.5t-129 57t-81.5 81t-42.5 106t-12 131.5h192
q0 -90 26 -141t86 -76.5t157.5 -32t241.5 -6.5h256q168 0 279 16t177 51t93 91.5t27 137.5t-18.5 135t-73 86t-153.5 45.5t-259 13.5h-264q-176 0 -301.5 13t-210.5 37.5t-136 61t-77.5 83.5t-34.5 104.5t-8 124.5q0 70 12.5 130t46.5 108.5t93 86.5t151.5 63.5t222.5 38.5
t306 13h192q144 0 252 -10.5t186 -33t129.5 -56t82 -80t42.5 -105.5t12 -131h-192q0 90 -26 141t-86 76.5t-158 32t-242 6.5h-192q-192 0 -316 -13.5t-196 -45.5t-100 -86t-28 -135q0 -50 7 -89t28.5 -68.5t60.5 -49.5t103 -33t156.5 -18.5t220.5 -5.5h264z" />
    <glyph glyph-name="uni0219" unicode="&#x219;" horiz-adv-x="1600" 
d="M704 -153h192l-128 -384h-128zM800 525q112 0 191 -3.5t132.5 -12t84.5 -21.5t47 -38.5t20.5 -51t4.5 -58.5q0 -36 -4.5 -65.5t-21.5 -53.5t-50 -41t-90 -29t-141.5 -17.5t-204.5 -5.5q-132 0 -218.5 7.5t-137.5 28.5t-71.5 58.5t-20.5 97.5h-192q0 -91 32.5 -154
t107.5 -102.5t197.5 -57.5t302.5 -18q144 0 252.5 8.5t186.5 26t129.5 46t81.5 68t42 91t12 116.5t-12 114.5t-41.5 86t-78.5 67.5t-124 46t-177.5 21t-238.5 6q-112 0 -191 0.5t-132.5 6t-84.5 16.5t-47 32t-20.5 53.5t-4.5 66.5q0 58 26 91t86 49t158 20t242 4
q132 0 218.5 -7.5t137.5 -27t71.5 -53.5t20.5 -88h192q0 87 -29 150t-101.5 104.5t-196 61.5t-313.5 20q-192 0 -326 -17t-218 -55.5t-122 -100t-38 -151.5q0 -66 12 -122.5t41 -95t78.5 -61.5t124 -35.5t177.5 -16.5t239 -4z" />
    <glyph glyph-name="uni021A" unicode="&#x21a;" horiz-adv-x="1984" 
d="M928 -121h192l-128 -384h-128zM1856 1536v-160h-768v-1376h-192v1376h-768v160h1728z" />
    <glyph glyph-name="uni021B" unicode="&#x21b;" horiz-adv-x="1440" 
d="M768 -121h192l-128 -384h-128zM1312 512q0 -147 -24 -245.5t-80.5 -157.5t-148.5 -84t-227 -25q-131 0 -220 20t-144 68t-79 128t-24 200v578h-237v158h237v315h192v-315h723v-158h-723v-578q0 -96 14.5 -148t46.5 -76t84.5 -28t128.5 -4q60 0 107.5 2t83 12.5t60.5 32
t40.5 60.5t22.5 98.5t7 146.5h160z" />
    <glyph glyph-name="uni021E" unicode="&#x21e;" horiz-adv-x="2048" 
d="M1024 1818l-288 448l-128 -96l320 -480h192l320 480l-128 96zM1729 1536h192v-1536h-192v704h-1408v-704h-192v1536h192v-672h1408v672z" />
    <glyph glyph-name="uni021F" unicode="&#x21f;" horiz-adv-x="1602" 
d="M800 1786l-288 448l-128 -96l320 -480h192l320 480l-128 96zM1280 0v650q0 104 -16 175.5t-64 115.5t-136 63.5t-232 19.5q-156 0 -255.5 -22.5t-156.5 -63t-78.5 -97.5t-21.5 -127v-714h-192v1536h192v-566q20 47 57 81t85.5 58t104.5 38.5t113.5 22.5t113 11t102.5 3
q128 0 220.5 -15.5t157 -46t103.5 -75.5t60.5 -104.5t28.5 -133t7 -159.5l-1 -650h-192z" />
    <glyph glyph-name="uni0226" unicode="&#x226;" horiz-adv-x="2304" 
d="M1248 1882h-192v-192h192v192zM1760 352h-1216l-192 -352h-224l896 1536h256l896 -1536h-224zM1664 512l-512 896l-512 -896h1024z" />
    <glyph glyph-name="uni0227" unicode="&#x227;" horiz-adv-x="1600" 
d="M930 1435h-192v-192h192v192zM1280 158q-3 -12 -45 -60q-30 -36 -80 -63.5t-133.5 -43t-219.5 -15.5q-181 0 -309 18.5t-209 57t-118.5 98.5t-37.5 143q0 87 20.5 147.5t60 101.5t95.5 64t127.5 35t156.5 15t181 3q137 0 229 -11.5t150.5 -29t88.5 -37.5t43 -37
q0 112 -9.5 191t-31 132t-55.5 84.5t-83.5 47.5t-115.5 20.5t-151 4.5q-132 0 -219 -6.5t-138 -25.5t-72 -52.5t-21 -87.5h-192q0 91 32.5 154t108 102.5t198.5 57.5t303 18q176 0 298 -29t197.5 -102t109 -196.5t33.5 -312.5v-544h-192v158zM834 128q127 0 212.5 12
t137.5 36t74 60t22 84t-25.5 81.5t-85 54.5t-157.5 30.5t-242 9.5t-232.5 -5t-136.5 -23t-64.5 -53t-16.5 -95t17.5 -97.5t71.5 -58.5t155.5 -28.5t269.5 -7.5z" />
    <glyph glyph-name="uni0228" unicode="&#x228;" horiz-adv-x="1792" 
d="M832 -427q48 0 84 1.5t60 10.5t36 28.5t12 55.5q0 12 -3 23.5t-21 20.5t-57 14.5t-111 5.5v288h128v-192q48 0 94 -7t82 -25t58 -49t22 -79q0 -84 -33 -134.5t-87 -77.5t-123 -35.5t-141 -8.5v160zM129 0v1536h1536v-160h-1344v-512h1280v-160h-1280v-544h1344v-160
h-1536z" />
    <glyph glyph-name="uni0229" unicode="&#x229;" horiz-adv-x="1600" 
d="M768 -459q48 0 84 1.5t60 10.5t36 28.5t12 55.5q0 12 -3 23.5t-21 20.5t-57 14.5t-111 5.5v288h128v-192q48 0 94 -7t82 -25t58 -49t22 -79q0 -84 -33 -134.5t-87 -77.5t-123 -35.5t-141 -8.5v160zM832 -22q-192 0 -326 26.5t-218 91.5t-122 174t-38 274q0 189 38 312.5
t122 196.5t218 102t326 29q137 0 237.5 -20t172 -58t116 -92t70 -113.5t35 -139.5t9.5 -169l-16 -64h-1136q0 -132 26 -216.5t86 -123.5t158 -49.5t242 -10.5q132 0 218.5 7.5t137.5 28.5t71.5 58.5t20.5 97.5h192q0 -93 -32.5 -158.5t-107.5 -106t-197.5 -59t-302.5 -18.5z
M832 1024q-96 0 -171.5 -4t-132 -17.5t-96.5 -39t-64.5 -60t-36 -97t-11.5 -150.5h960q0 117 -25 183.5t-79 109.5t-139 59t-205 16z" />
    <glyph glyph-name="uni022A" unicode="&#x22a;" horiz-adv-x="2241" 
d="M736 2106h768v160h-768v-160zM1410 1568q176 0 296.5 -21.5t198.5 -65t120 -109.5t61.5 -155t23 -201t3.5 -248t-3.5 -248t-23 -201t-61.5 -155t-120 -109.5t-198.5 -65t-296.5 -21.5h-578q-176 0 -296.5 21.5t-198.5 65t-120.5 109.5t-62 155t-22.5 201t-3 248t3 248
t22.5 201t62 155t120.5 109.5t198.5 65t296.5 21.5h578zM1410 128q127 0 214.5 7.5t144.5 30.5t88 66t45 114t16.5 174.5t2.5 247.5t-2.5 247.5t-16.5 174.5t-45 114t-87.5 66t-144 30.5t-215.5 7.5h-578q-128 0 -215.5 -7.5t-144.5 -30.5t-88 -66t-45 -114t-16 -174.5
t-2 -247.5t2.5 -247.5t16.5 -174.5t44.5 -114t87.5 -66t144.5 -30.5t215.5 -7.5h578zM832 1984h-192v-192h192v192zM1600 1984h-192v-192h192v192z" />
    <glyph glyph-name="uni022B" unicode="&#x22b;" horiz-adv-x="1664" 
d="M448 1658h768v160h-768v-160zM128 584q0 177 38 293t122 184t218 95.5t326 27.5t326 -27.5t218 -95.5t122 -184t38 -293t-38 -294t-122 -186t-218 -97.5t-326 -28.5t-326 28.5t-218 97.5t-122 186t-38 294zM320 584q0 -96 7 -167t26.5 -122t54.5 -83t92 -51t138.5 -26
t193.5 -7q96 0 171.5 4.5t132 20.5t96.5 45.5t64.5 80.5t36 125.5t11.5 179.5q0 103 -11.5 175.5t-36 121.5t-64.5 77.5t-96.5 43t-132 18.5t-171.5 4t-171.5 -4t-132 -18.5t-96.5 -43t-64.5 -77.5t-36 -121.5t-11.5 -175.5zM544 1536h-192v-192h192v192zM1312 1536h-192
v-192h192v192z" />
    <glyph glyph-name="uni022C" unicode="&#x22c;" horiz-adv-x="2241" 
d="M544 2171h768v160h-768v-160zM1410 1568q176 0 296.5 -21.5t198.5 -65t120 -109.5t61.5 -155t23 -201t3.5 -248t-3.5 -248t-23 -201t-61.5 -155t-120 -109.5t-198.5 -65t-296.5 -21.5h-578q-176 0 -296.5 21.5t-198.5 65t-120.5 109.5t-62 155t-22.5 201t-3 248t3 248
t22.5 201t62 155t120.5 109.5t198.5 65t296.5 21.5h578zM1410 128q127 0 214.5 7.5t144.5 30.5t88 66t45 114t16.5 174.5t2.5 247.5t-2.5 247.5t-16.5 174.5t-45 114t-87.5 66t-144 30.5t-215.5 7.5h-578q-128 0 -215.5 -7.5t-144.5 -30.5t-88 -66t-45 -114t-16 -174.5
t-2 -247.5t2.5 -247.5t16.5 -174.5t44.5 -114t87.5 -66t144.5 -30.5t215.5 -7.5h578zM928 1888q45 0 83.5 -15t81.5 -33t95 -33t124 -15q36 0 80.5 12.5t83.5 42t65.5 78.5t26.5 123h-192q0 -30 -4 -49t-12 -29.5t-20 -14t-28 -3.5q-45 0 -83.5 15t-81.5 33.5t-95 33.5
t-124 15q-36 0 -80.5 -11.5t-83.5 -40.5t-65.5 -79t-26.5 -126h192q0 31 4 50t12 29t20 13.5t28 3.5z" />
    <glyph glyph-name="uni022D" unicode="&#x22d;" horiz-adv-x="1664" 
d="M256 1723h768v160h-768v-160zM128 584q0 177 38 293t122 184t218 95.5t326 27.5t326 -27.5t218 -95.5t122 -184t38 -293t-38 -294t-122 -186t-218 -97.5t-326 -28.5t-326 28.5t-218 97.5t-122 186t-38 294zM320 584q0 -96 7 -167t26.5 -122t54.5 -83t92 -51t138.5 -26
t193.5 -7q96 0 171.5 4.5t132 20.5t96.5 45.5t64.5 80.5t36 125.5t11.5 179.5q0 103 -11.5 175.5t-36 121.5t-64.5 77.5t-96.5 43t-132 18.5t-171.5 4t-171.5 -4t-132 -18.5t-96.5 -43t-64.5 -77.5t-36 -121.5t-11.5 -175.5zM640 1440q45 0 83.5 -15t81.5 -33t95 -33
t124 -15q36 0 80.5 12.5t83.5 42t65.5 78.5t26.5 123h-192q0 -30 -4 -49t-12 -29.5t-20 -14t-28 -3.5q-45 0 -83.5 15t-81.5 33.5t-95 33.5t-124 15q-36 0 -80.5 -11.5t-83.5 -40.5t-65.5 -79t-26.5 -126h192q0 31 4 50t12 29t20 13.5t28 3.5z" />
    <glyph glyph-name="uni022E" unicode="&#x22e;" horiz-adv-x="2241" 
d="M1217 1882h-192v-192h192v192zM1410 1568q176 0 296.5 -21.5t198.5 -65t120 -109.5t61.5 -155t23 -201t3.5 -248t-3.5 -248t-23 -201t-61.5 -155t-120 -109.5t-198.5 -65t-296.5 -21.5h-578q-176 0 -296.5 21.5t-198.5 65t-120.5 109.5t-62 155t-22.5 201t-3 248t3 248
t22.5 201t62 155t120.5 109.5t198.5 65t296.5 21.5h578zM1410 128q127 0 214.5 7.5t144.5 30.5t88 66t45 114t16.5 174.5t2.5 247.5t-2.5 247.5t-16.5 174.5t-45 114t-87.5 66t-144 30.5t-215.5 7.5h-578q-128 0 -215.5 -7.5t-144.5 -30.5t-88 -66t-45 -114t-16 -174.5
t-2 -247.5t2.5 -247.5t16.5 -174.5t44.5 -114t87.5 -66t144.5 -30.5t215.5 -7.5h578z" />
    <glyph glyph-name="uni022F" unicode="&#x22f;" horiz-adv-x="1664" 
d="M928 1435h-192v-192h192v192zM128 584q0 177 38 293t122 184t218 95.5t326 27.5t326 -27.5t218 -95.5t122 -184t38 -293t-38 -294t-122 -186t-218 -97.5t-326 -28.5t-326 28.5t-218 97.5t-122 186t-38 294zM320 584q0 -96 7 -167t26.5 -122t54.5 -83t92 -51t138.5 -26
t193.5 -7q96 0 171.5 4.5t132 20.5t96.5 45.5t64.5 80.5t36 125.5t11.5 179.5q0 103 -11.5 175.5t-36 121.5t-64.5 77.5t-96.5 43t-132 18.5t-171.5 4t-171.5 -4t-132 -18.5t-96.5 -43t-64.5 -77.5t-36 -121.5t-11.5 -175.5z" />
    <glyph glyph-name="uni0230" unicode="&#x230;" horiz-adv-x="2241" 
d="M737 2004h768v160h-768v-160zM1217 1882h-192v-192h192v192zM1410 1568q176 0 296.5 -21.5t198.5 -65t120 -109.5t61.5 -155t23 -201t3.5 -248t-3.5 -248t-23 -201t-61.5 -155t-120 -109.5t-198.5 -65t-296.5 -21.5h-578q-176 0 -296.5 21.5t-198.5 65t-120.5 109.5
t-62 155t-22.5 201t-3 248t3 248t22.5 201t62 155t120.5 109.5t198.5 65t296.5 21.5h578zM1410 128q127 0 214.5 7.5t144.5 30.5t88 66t45 114t16.5 174.5t2.5 247.5t-2.5 247.5t-16.5 174.5t-45 114t-87.5 66t-144 30.5t-215.5 7.5h-578q-128 0 -215.5 -7.5t-144.5 -30.5
t-88 -66t-45 -114t-16 -174.5t-2 -247.5t2.5 -247.5t16.5 -174.5t44.5 -114t87.5 -66t144.5 -30.5t215.5 -7.5h578z" />
    <glyph glyph-name="uni0231" unicode="&#x231;" horiz-adv-x="1664" 
d="M448 1556h768v160h-768v-160zM928 1435h-192v-192h192v192zM128 584q0 177 38 293t122 184t218 95.5t326 27.5t326 -27.5t218 -95.5t122 -184t38 -293t-38 -294t-122 -186t-218 -97.5t-326 -28.5t-326 28.5t-218 97.5t-122 186t-38 294zM320 584q0 -96 7 -167t26.5 -122
t54.5 -83t92 -51t138.5 -26t193.5 -7q96 0 171.5 4.5t132 20.5t96.5 45.5t64.5 80.5t36 125.5t11.5 179.5q0 103 -11.5 175.5t-36 121.5t-64.5 77.5t-96.5 43t-132 18.5t-171.5 4t-171.5 -4t-132 -18.5t-96.5 -43t-64.5 -77.5t-36 -121.5t-11.5 -175.5z" />
    <glyph glyph-name="uni0232" unicode="&#x232;" horiz-adv-x="2200" 
d="M704 1690h768v160h-768v-160zM128 1536h256l704 -752l704 752h256l-864 -896v-640h-192v640z" />
    <glyph glyph-name="uni0233" unicode="&#x233;" horiz-adv-x="1696" 
d="M464 1243h768v160h-768v-160zM736 0h64q-16 -32 -28.5 -61t-30.5 -54t-45 -45t-71.5 -34.5t-110.5 -22t-162 -7.5v-160q112 0 194 10.5t141.5 30t100.5 47.5t71 63.5t53.5 78t47.5 90.5l32 64l576 1152h-224l-480 -1024l-512 1024h-224z" />
    <glyph glyph-name="dotlessj" unicode="&#x237;" horiz-adv-x="608" 
d="M480 1088h-192v-1152q0 -48 -7 -79t-25 -49t-49 -25t-79 -7v-160q120 0 190 22.5t106 64t46 100.5t10 133v1152z" />
    <glyph glyph-name="circumflex" unicode="&#x2c6;" horiz-adv-x="1088" 
d="M832 1280l128 96l-320 480h-192l-320 -480l128 -96l288 448z" />
    <glyph glyph-name="caron" unicode="&#x2c7;" horiz-adv-x="1088" 
d="M544 1408l-288 448l-128 -96l320 -480h192l320 480l-128 96z" />
    <glyph glyph-name="breve" unicode="&#x2d8;" horiz-adv-x="1280" 
d="M256 1600q0 -168 96 -244t288 -76t288 76t96 244h-160q0 -72 -17 -111t-47 -57t-71 -21t-89 -3t-89 3t-71 21t-47 57t-17 111h-160z" />
    <glyph glyph-name="dotaccent" unicode="&#x2d9;" 
d="M320 1536h-192v-192h192v192z" />
    <glyph glyph-name="ring" unicode="&#x2da;" horiz-adv-x="1280" 
d="M640 1920q-96 0 -163 -27.5t-109 -72.5t-61 -102.5t-19 -117.5t19 -117.5t61 -102.5t109 -72.5t163 -27.5t163 27.5t109 72.5t61 102.5t19 117.5t-19 117.5t-61 102.5t-109 72.5t-163 27.5zM640 1408q-60 0 -97.5 16.5t-58.5 43.5t-28.5 61.5t-7.5 70.5t7.5 70.5
t28.5 61.5t58.5 43.5t97.5 16.5t97.5 -16.5t58.5 -43.5t28.5 -61.5t7.5 -70.5t-7.5 -70.5t-28.5 -61.5t-58.5 -43.5t-97.5 -16.5z" />
    <glyph glyph-name="ogonek" unicode="&#x2db;" horiz-adv-x="640" 
d="M512 -512q-72 0 -141 13t-123 43t-87 79t-33 121q0 36 11 69t29 62t41 54.5t47 46.5q56 49 128 88h128q-72 -48 -111 -94.5t-57 -85.5t-21 -67.5t-3 -40.5q0 -72 47.5 -100t144.5 -28v-160z" />
    <glyph glyph-name="tilde" unicode="&#x2dc;" horiz-adv-x="1152" 
d="M384 1440q45 0 83.5 -15t81.5 -33t95 -33t124 -15q36 0 80.5 12.5t83.5 42t65.5 78.5t26.5 123h-192q0 -30 -4 -49t-12 -29.5t-20 -14t-28 -3.5q-45 0 -83.5 15t-81.5 33.5t-95 33.5t-124 15q-36 0 -80.5 -11.5t-83.5 -40.5t-65.5 -79t-26.5 -126h192q0 31 4 50t12 29
t20 13.5t28 3.5z" />
    <glyph glyph-name="hungarumlaut" unicode="&#x2dd;" horiz-adv-x="1512" 
d="M832 1664l-128 192l-576 -480l64 -96zM1385 1664l-128 192l-576 -480l64 -96z" />
    <glyph glyph-name="uni03A9" unicode="&#x3a9;" horiz-adv-x="1472" 
d="M192 160h192q-61 22 -108.5 62.5t-80.5 102.5t-50 147.5t-17 198.5q0 130 12.5 230.5t40.5 175t74 125t113.5 82t158.5 45t209 13.5t209 -13.5t158.5 -45t113.5 -82t74 -125t40.5 -175t12.5 -230.5q0 -113 -17 -198.5t-50 -147.5t-80.5 -102.5t-108.5 -62.5h192v-160
h-384v224q48 0 94 12.5t82 58t58 134.5t22 242q0 128 -8.5 215.5t-28 144.5t-51.5 88t-78 45t-108 16.5t-142 2.5t-142 -2.5t-108 -16.5t-78 -45t-51.5 -88t-28 -144.5t-8.5 -215.5q0 -153 22 -242t58 -134.5t82 -58t94 -12.5v-224h-384v160z" />
    <glyph glyph-name="pi" unicode="&#x3c0;" 
d="M128 1088h192v-1088h-192v1088zM320 1344h-192v192h192v-192zM128 1088h192v-1088h-192v1088zM320 1344h-192v192h192v-192z" />
    <glyph glyph-name="endash" unicode="&#x2013;" horiz-adv-x="1088" 
d="M128 512h832v160h-832v-160z" />
    <glyph glyph-name="emdash" unicode="&#x2014;" horiz-adv-x="1088" 
d="M0 512h1088v160h-1088v-160z" />
    <glyph glyph-name="quoteleft" unicode="&#x2018;" horiz-adv-x="512" 
d="M128 1152h128l128 384h-192z" />
    <glyph glyph-name="quoteright" unicode="&#x2019;" horiz-adv-x="512" 
d="M128 1152h128l128 384h-192z" />
    <glyph glyph-name="quotesinglbase" unicode="&#x201a;" 
d="M64 -256h128l128 384h-192z" />
    <glyph glyph-name="quotedblleft" unicode="&#x201c;" horiz-adv-x="768" 
d="M384 1152h128l128 384h-192zM128 1152h128l128 384h-192z" />
    <glyph glyph-name="quotedblright" unicode="&#x201d;" horiz-adv-x="832" 
d="M128 1152h128l128 384h-192zM448 1152h128l128 384h-192z" />
    <glyph glyph-name="quotedblbase" unicode="&#x201e;" horiz-adv-x="832" 
d="M128 -192h128l128 384h-192zM448 -192h128l128 384h-192z" />
    <glyph glyph-name="dagger" unicode="&#x2020;" horiz-adv-x="960" 
d="M832 928v160h-256v512h-192v-512h-256v-160h256v-1056h192v1056h256z" />
    <glyph glyph-name="daggerdbl" unicode="&#x2021;" horiz-adv-x="960" 
d="M832 320v160h-256v448h256v160h-256v512h-192v-512h-256v-160h256v-448h-256v-160h256v-448h192v448h256z" />
    <glyph glyph-name="bullet" unicode="&#x2022;" horiz-adv-x="1280" 
d="M640 256q54 0 100.5 13t81 43t54.5 79t20 121t-20 121t-54.5 79t-81 43t-100.5 13t-101 -13t-81.5 -43t-54 -79t-19.5 -121t19.5 -121t54 -79t81.5 -43t101 -13z" />
    <glyph glyph-name="ellipsis" unicode="&#x2026;" horiz-adv-x="1344" 
d="M1216 0h-192v192h192v-192zM768 0h-192v192h192v-192zM320 0h-192v192h192v-192z" />
    <glyph glyph-name="perthousand" unicode="&#x2030;" 
d="M64 0h192l704 1536h-192z" />
    <glyph glyph-name="guilsinglleft" unicode="&#x2039;" horiz-adv-x="896" 
d="M256 608l512 352l-96 128l-544 -384v-192l544 -384l96 128z" />
    <glyph glyph-name="guilsinglright" unicode="&#x203a;" horiz-adv-x="896" 
d="M128 256l96 -128l544 384v192l-544 384l-96 -128l512 -352z" />
    <glyph glyph-name="fraction" unicode="&#x2044;" horiz-adv-x="1023" 
d="M64 0h192l704 1536h-192z" />
    <glyph glyph-name="foursuperior" unicode="&#x2074;" horiz-adv-x="1472" 
d="M1344 192v160h-192v736h-256l-768 -704v-192h832v-192h192v192h192zM320 352l640 608v-608h-640z" />
    <glyph glyph-name="Euro" unicode="&#x20ac;" horiz-adv-x="2042" 
d="M525 14q11 -1 33.5 -2.5t51.5 -2.5t60.5 -2.5t60.5 -3t51.5 -2.5t33.5 -1h145h172q19 0 49 0.5t64 1t69.5 1.5t65.5 1.5t51 1t27 0.5q106 6 183.5 30t130.5 71t83.5 121t42.5 180q5 49 8 93.5t4.5 87t1.5 86v91.5v153t-7.5 165t-27 160.5t-58.5 140.5t-102 106t-157 55
q-17 2 -59 5.5t-89.5 7.5t-89.5 6.5t-59 3.5h-57h-74q-12 -1 -48.5 -1.5t-85.5 -1t-104.5 -1.5t-104.5 -1.5t-85.5 -1.5t-48.5 -1q-81 -1 -159 -14t-144 -46t-115 -88.5t-72 -140.5q-15 -56 -23 -113.5t-11 -115.5t-3 -116v-116q0 -80 0.5 -167.5t9.5 -173t31.5 -164.5
t66.5 -141t114 -102t174 -49zM318 844v164q0 7 2.5 33t5.5 57t6.5 60t5.5 44q8 55 34 90.5t64 57.5t84.5 32.5t95 14.5t96.5 4t89 2q7 0 33.5 1t57 2t56.5 2t33 1h56q110 0 213.5 -4t220.5 -10q70 -2 117.5 -29t77 -71t42.5 -102t13 -122v-567q0 -79 -11 -138t-40 -99.5
t-80 -63.5t-131 -31q-12 -1 -47 -3t-74.5 -4t-76 -3.5t-52.5 -1.5q-2 -1 -21 -1.5t-44.5 -0.5h-51.5h-41h-46h-57.5t-50.5 0.5t-26 1.5q-37 0 -81 1t-90.5 3t-91.5 6t-83 10q-51 8 -86 33t-57.5 61t-34 79.5t-15.5 88.5q-2 14 -4 46t-4.5 67t-4 66t-1.5 43v180zM1008 1440
q3 0 3 -3t-3 -3q-2 0 -2 3t2 3z" />
    <glyph glyph-name="trademark" unicode="&#x2122;" horiz-adv-x="2752" 
d="M128 1536v-128h384v-704h192v704h384v128h-960zM1823 704h194l415 683v-683h192v832h-306l-398 -672l-384 672h-320v-832h192v704z" />
    <glyph glyph-name="Omega" unicode="&#x2126;" horiz-adv-x="1472" 
d="M192 0h384v224q-48 0 -94 12.5t-82 58t-58 134.5t-22 242q0 128 8.5 215.5t28 144.5t51.5 88t78 45t108 16.5t142 2.5t142 -2.5t108 -16.5t78 -45t51.5 -88t28 -144.5t8.5 -215.5q0 -153 -22 -242t-58 -134.5t-82 -58t-94 -12.5v-224h384v160h-192q61 22 108.5 62.5
t80.5 102.5t50 147.5t17 198.5q0 130 -12.5 230.5t-40.5 175t-74 125t-113.5 82t-158.5 45t-209 13.5t-209 -13.5t-158.5 -45t-113.5 -82t-74 -125t-40.5 -175t-12.5 -230.5q0 -113 17 -198.5t50 -147.5t80.5 -102.5t108.5 -62.5h-192v-160z" />
    <glyph glyph-name="partialdiff" unicode="&#x2202;" horiz-adv-x="1984" 
d="M960 1408q-160 0 -267.5 -10.5t-175 -29.5t-101.5 -45.5t-48.5 -58.5t-15 -68.5t-0.5 -75.5h-160q0 71 8 132t35 110.5t77.5 88t136 64.5t210.5 39.5t301 13.5q208 0 355.5 -19.5t247 -60.5t157.5 -104.5t88.5 -152.5t39 -204t8.5 -259q0 -136 -3.5 -248t-23 -201
t-61.5 -155t-120.5 -109.5t-199 -65t-296.5 -21.5h-321q-216 0 -353 30t-214.5 90t-106.5 150t-29 210t29 210t106.5 150t214.5 90t353 30h321q186 0 310 -24.5t202 -71.5q0 128 -7.5 220t-32.5 156t-72 103.5t-125 61t-192.5 28.5t-274.5 7zM831 768q-112 0 -193 -6
t-138 -20t-92 -38t-54.5 -59.5t-26.5 -84t-7 -112.5t6.5 -112.5t26 -84t55 -59.5t92 -38t138 -20t193.5 -6h321q157 0 257 15t156.5 57t77.5 117t21 195q0 88 -21 139t-77.5 77t-156.5 33t-257 7h-321z" />
    <glyph glyph-name="Delta" unicode="&#x2206;" horiz-adv-x="1664" 
d="M128 -1l576 1537h256l576 -1537h-1408zM1280 159l-448 1249l-448 -1249h896z" />
    <glyph glyph-name="product" unicode="&#x220f;" horiz-adv-x="1792" 
d="M1664 0h-192v1376h-1152v-1376h-192v1536h1536v-1536z" />
    <glyph glyph-name="summation" unicode="&#x2211;" horiz-adv-x="1664" 
d="M864 736l-544 -576h1216v-160h-1408v176l576 608l-576 576v176h1408v-160h-1216l544 -544v-96z" />
    <glyph glyph-name="minus" unicode="&#x2212;" horiz-adv-x="1472" 
d="M128 512h1216v160h-1216v-160z" />
    <glyph glyph-name="radical" unicode="&#x221a;" horiz-adv-x="1632" 
d="M128 896h224l416 -768l512 1408h224l-608 -1536h-256z" />
    <glyph glyph-name="infinity" unicode="&#x221e;" horiz-adv-x="2496" 
d="M1854 -32q-97 0 -184.5 39.5t-164 101.5t-140.5 137.5t-114 146.5q-51 -72 -116 -147t-142 -137t-165.5 -101.5t-185.5 -39.5q-106 0 -199.5 27t-163.5 93t-110.5 177t-40.5 279t40.5 279t110.5 177t163.5 93t199.5 27q105 0 193.5 -38t164 -99.5t139.5 -139t120 -156.5
q33 48 72.5 99t84 99t95 91t105.5 75t114.5 50.5t123.5 18.5q106 0 199.5 -27t163.5 -93t110.5 -177t40.5 -279t-40.5 -279t-110.5 -177t-163.5 -93t-199.5 -27zM642 128q67 0 136 36.5t136 94.5t128.5 131t113.5 145q-50 75 -107.5 151t-122 137t-135.5 99t-149 38
q-40 0 -79.5 -4t-75 -18.5t-66.5 -41.5t-53.5 -73.5t-35 -114.5t-12.5 -164q0 -132 28 -213.5t73 -126.5t103 -60.5t118 -15.5zM1854 960q-65 0 -132 -37t-132 -96t-125 -132.5t-110 -146.5q51 -73 111 -147.5t124.5 -135t131.5 -99t132 -38.5q60 0 118 15.5t103 60.5
t73 126.5t28 213.5q0 96 -12.5 164t-35 114.5t-53.5 73.5t-66.5 41.5t-75 18.5t-79.5 4z" />
    <glyph glyph-name="integral" unicode="&#x222b;" horiz-adv-x="1089" 
d="M449 1152q0 120 26 200t86 128t158 68t242 20v-160q-91 0 -152 -4t-98.5 -28t-53.5 -76t-16 -148v-1024q0 -120 -26 -200t-86 -128t-158.5 -68t-242.5 -20l1 160q91 0 152 4t98.5 28t53.5 76t16 148v1024z" />
    <glyph glyph-name="approxequal" unicode="&#x2248;" horiz-adv-x="1152" 
d="M384 543q-16 0 -28 -3.5t-20 -13.5t-12 -29t-4 -50h-192q0 76 26.5 126t65.5 78.5t83.5 40t80.5 11.5q72 0 124 -15t95 -33t81.5 -33t83.5 -15q16 0 28 3.5t20 14t12 29.5t4 49h192q0 -74 -26.5 -123t-65.5 -78.5t-83.5 -42t-80.5 -12.5q-72 0 -124 15t-95 33t-81.5 33
t-83.5 15zM384 928q-16 0 -28 -3.5t-20 -13.5t-12 -29t-4 -50h-192q0 76 26.5 126t65.5 78.5t83.5 40t80.5 11.5q72 0 124 -15t95 -33t81.5 -33t83.5 -15q16 0 28 3.5t20 14t12 29.5t4 49h192q0 -74 -26.5 -123t-65.5 -78.5t-83.5 -42t-80.5 -12.5q-72 0 -124 15t-95 33
t-81.5 33t-83.5 15z" />
    <glyph glyph-name="notequal" unicode="&#x2260;" horiz-adv-x="1472" 
d="M384 -64l160 -64l608 1536l-160 64zM128 864h1216v160h-1216v-160zM128 320h1216v160h-1216v-160z" />
    <glyph glyph-name="lessequal" unicode="&#x2264;" horiz-adv-x="1152" 
d="M1024 1472v-256l-752 -384l752 -384v-256l-896 544v192zM128 128h894v-160h-894v160z" />
    <glyph glyph-name="greaterequal" unicode="&#x2265;" horiz-adv-x="1152" 
d="M1024 928v-192l-896 -544v256l752 384l-752 384v256zM128 128h894v-160h-894v160z" />
    <glyph glyph-name="lozenge" unicode="&#x25ca;" horiz-adv-x="1280" 
d="M1152 768l-448 768h-128l-448 -768l448 -768h128zM352 768l288 512l288 -512l-288 -512z" />
    <glyph glyph-name="uniF8FF" unicode="&#xf8ff;" horiz-adv-x="0" 
 />
    <glyph glyph-name="fi" unicode="&#xfb01;" horiz-adv-x="1632" 
d="M512 1006v-1006h-192v1006h-192v146h192v10q0 117 26 195t86 125t158.5 66.5t242.5 19.5h223v-160h-224q-91 0 -152 -4t-98.5 -27t-53.5 -73t-16 -142v-10h544v-146h-544zM1312 1152h192v-1152h-192v1152zM1504 1344h-192v192h192v-192z" />
    <glyph glyph-name="fl" unicode="&#xfb02;" horiz-adv-x="1632" 
d="M512 1006v-1006h-192v1006h-192v146h192v10q0 117 26 195t86 125t158.5 66.5t242.5 19.5h223v-160h-224q-91 0 -152 -4t-98.5 -27t-53.5 -73t-16 -142v-10h544v-146h-544zM1312 1536h192v-1536h-192v1536z" />
    <glyph glyph-name="doublegrave" horiz-adv-x="1512" 
d="M1321 1280l64 96l-576 480l-128 -192zM768 1280l64 96l-576 480l-128 -192z" />
    </font>
</defs>
</svg>
