<?xml version="1.0" standalone="no"?>
<!DOCTYPE svg PUBLIC "-//W3C//DTD SVG 1.1//EN" "http://www.w3.org/Graphics/SVG/1.1/DTD/svg11.dtd" >
<svg xmlns="http://www.w3.org/2000/svg" xmlns:xlink="http://www.w3.org/1999/xlink" version="1.1">
<metadata>
Created by FontForge 20161013 at Tue Aug 16 17:59:31 2011
 By ,,,
Copyright (c) 2011 by Pablo Impallari. www.impallari.com Igino Marini. www.ikern.com. All rights reserved.
</metadata>
<defs>
<font id="Miltonian-Regular" horiz-adv-x="580" >
  <font-face 
    font-family="Miltonian"
    font-weight="400"
    font-stretch="normal"
    units-per-em="1000"
    panose-1="4 6 5 5 6 9 2 4 0 4"
    ascent="800"
    descent="-200"
    x-height="415"
    cap-height="686"
    bbox="-18 -274 1130 918"
    underline-thickness="0"
    underline-position="0"
    unicode-range="U+0020-1F33F"
  />
<missing-glyph horiz-adv-x="0" 
 />
    <glyph glyph-name=".notdef" horiz-adv-x="0" 
 />
    <glyph glyph-name=".null" horiz-adv-x="0" 
 />
    <glyph glyph-name="nonmarkingreturn" horiz-adv-x="212" 
 />
    <glyph glyph-name="space" unicode=" " horiz-adv-x="240" 
 />
    <glyph glyph-name="exclam" unicode="!" horiz-adv-x="322" 
d="M59 47q-10 17 -10 41t10.5 43.5t27.5 31.5q34 24 88 24q44 0 63 -49q11 -29 11 -60.5t-7.5 -45t-19.5 -22.5q-24 -17 -53 -17t-48.5 6.5t-35.5 18.5t-26 29zM99.5 111.5q-7.5 -11.5 -7.5 -24.5t6.5 -23.5t15.5 -17.5q20 -16 47 -16t45 17t18 42.5t-13 42.5t-32 17
t-33.5 -4.5t-26.5 -13t-19.5 -20zM67 443l1 16q1 10 3.5 37.5t5.5 58t6 58t4 38.5q11 37 63 37q86 0 118 -48q11 -17 11 -44l-62 -299q-5 -19 -18.5 -37.5t-40 -18.5t-45.5 23.5t-29 55.5q-17 52 -17 123zM229 508l-1 8q0 15 4 30.5t4 33t-1 29t-12 29.5q-40 8 -57.5 8
t-25 -1.5t-10.5 -12.5q-19 -76 -19 -177l13 -108q0 -8 14.5 -31t16.5 -25l19 19z" />
    <glyph glyph-name="quotedbl" unicode="&#x22;" horiz-adv-x="483" 
d="M147 402l-57 1q-16 5 -26 20.5t-17 29.5q10 0 11.5 2.5t1.5 17t-4 37.5t-9 46q-13 58 -13 91q0 23 8 28.5t24 5.5l124 -11q12 -3 12 -18q0 -72 -18 -243q-11 -7 -37 -7zM147 638q-32 7 -51.5 7t-21.5 -4.5t-2 -33.5t25 -154h43q7 49 7 82v103zM388 402l-57 1
q-24 7 -42 50q9 0 10.5 2.5t1.5 17t-4 37.5t-9 46q-13 58 -13 91q0 23 8 28.5t24 5.5l124 -11q12 -3 12 -18q0 -72 -18 -243q-11 -7 -37 -7zM388 638q-32 7 -51 7t-21.5 -4.5t-2.5 -33.5t25 -154h43q8 56 8 97v48l-1 30v10z" />
    <glyph glyph-name="numbersign" unicode="#" horiz-adv-x="563" 
d="M306 185l-5 1q-4 -1 -14 -2.5t-21 -4t-20.5 -4t-16.5 -4t-13 -23.5t-10 -46q-5 -39 -5 -70t3 -36.5t3 -14t-8 -17.5t-16 -9q-25 0 -25 25q0 46 8.5 92.5t8.5 92.5l-23 1l-26 1q-20 0 -26 -3.5t-6 -17.5t2 -17q-9 6 -11.5 16.5t-13.5 15.5q-8 3 -15.5 5.5t-13.5 6.5
q-15 9 -15 26.5t10 17.5l75 -7q23 0 34 7l-38 68q-4 -1 -12 -1q-32 0 -32 23q0 30 56 33q12 0 20 1.5t22 2.5q27 4 58 9l62 235q3 14 19 14q12 0 12 -23l-1 -9l-49 -199v-10l36 -2q45 0 51 25l50 192q2 8 10.5 20t17 12t12.5 -7t4 -14l-1 -11l-60 -207h116q11 0 18 -8
t7 -23.5t-12 -15.5h-137l-19 -93l137 -12q4 -1 11.5 -5.5t7.5 -8.5t-3 -14t-4 -10h-159l-34 -161v-7q0 -13 7.5 -24t7.5 -24q-11 0 -20 -4t-20 -4q-18 0 -18 29l1 16l36 173v12zM104 121q0 -3 -2.5 -3t-2.5 2.5t2 2.5t3 -1v-1zM124 296q0 -15 16 -37q30 -43 43 -43
q19 0 24 58q1 13 1 18q0 12 -15.5 12t-33 -4t-35.5 -4zM229 221q54 0 83 8q11 0 19 61q2 16 2 27q-33 0 -82 -7q-22 -46 -22 -89z" />
    <glyph glyph-name="dollar" unicode="$" horiz-adv-x="473" 
d="M435 587v-13l-11 -21q-17 -35 -29 -57.5t-14 -26.5q-5 -11 -14 -15q-6 0 -16 11.5t-10 14.5q0 15 5.5 27t7.5 14q-20 12 -42.5 13.5t-37.5 1.5q-38 0 -40 -2l-14 -26v-161q13 -3 29 -10q34 -15 38.5 -17l13.5 -6t17.5 -8.5t15 -7.5t9 -5t13.5 -12.5t23.5 -23.5t24.5 -25
l20 -20q11 -14 11 -49t-17.5 -58t-45 -34.5t-61 -16t-64.5 -13.5q-15 -5 -16 -20t0.5 -32t-1 -30t-22.5 -13q-8 0 -16 2q-10 3 -13.5 21.5t-5.5 31.5q-5 33 -5 40q-40 27 -88 27h-6l-40 -14q-1 2 -1 10v10q0 39 35 90q9 14 19 23q2 2 -2.5 4t-2.5 2q0 -19 8.5 -43.5
t10.5 -27.5t8.5 -7.5t14.5 -8.5q20 -10 28 -11.5t23 -0.5t32.5 3t32.5 4t21 2v191q0 11 -73 20q-39 5 -47.5 7t-24 10.5t-30.5 20.5q-39 28 -39 50.5t9 46.5t24 45q28 43 74 67l40 13q6 2 16 7t10.5 6.5t3 11.5t4.5 21t4 21l3 15q4 22 12 38q4 3 10 5t11.5 4t12.5 2v-118
q0 -2 12.5 -7t20.5 -6l16 -1h34.5t16.5 0.5t5 5t8.5 9t8 8.5t5.5 4.5t12 -4.5t15 -9zM301 90q20 0 43 10t35.5 20.5t14 27t1.5 25.5v18t-1 10t-9 10t-19 19q-26 27 -34 34q-13 12 -31 16v-190zM184 356q0 63 -16 152h-4q-2 0 -8 0.5t-17 -10.5t-20 -26q-20 -33 -20 -54
t7 -32.5t18 -17.5q21 -12 60 -12z" />
    <glyph glyph-name="percent" unicode="%" horiz-adv-x="793" 
d="M245 -24l72 7q0 -16 -7.5 -30.5t-27.5 -14.5h-174q-7 0 -13 6t-6 13q0 20 19 25q4 1 16 2.5t24.5 3.5t24 4t16.5 2l323 540l-69 12q-6 1 -6 11.5t8.5 17t16.5 8.5q4 -1 16 -1h41.5t25 0.5t18.5 7t16.5 6.5t11 -3.5t13.5 -3.5l50 7h2q8 0 15.5 -5.5t7.5 -14t-5 -13
t-11.5 -7t-14 -3t-13.5 -2t-16.5 -3.5t-20.5 -4q-25 -3 -25 -4l-19 -19l-328 -533q-1 -1 -1 -2q0 -5 7.5 -7.5t12.5 -2.5zM596 287q165 0 165 -122q0 -18 -5.5 -39t-18 -51t-32.5 -51q-41 -43 -118 -43q-56 0 -95 41q-38 40 -38 98q0 62 40 113q41 54 102 54zM660 146
q0 103 -42 103q-30 0 -44 -44q-8 -28 -8 -69l1 -31q7 -29 18 -54.5t13 -25.5h6q3 0 13 9l16 13q6 5 14 15q13 18 13 84zM554 62l-18 56q-2 10 -2 32q0 39 2 49q-14 -9 -14 -20t-3 -21t-7.5 -10t-9.5 -1q-10 -2 -10 -28.5t19 -51t43 -36.5l1 15l-1 10v6zM686 139
q0 -26 -3.5 -48t-3.5 -47q37 31 47 88q3 17 3 29t-3.5 25t-10.5 25q-16 28 -37 28q0 -26 4 -50t4 -50zM34 381l-1 26v9q0 52 17.5 92t57.5 75q26 13 71 13q31 0 75 -45q41 -43 41 -67v-74l-50 -93q-19 -32 -65 -42q-13 -3 -28.5 -3t-34 9.5t-33.5 24.5q-29 26 -50 66v9z
M76.5 442.5q-1.5 -10.5 -1.5 -28t1.5 -25t6.5 -15l11 -16.5q14 -17 20 -23h7l6 31q-7 52 -7 68v76q0 17 1 24q-1 -1 -3.5 -3t-9 -13.5t-14 -26.5t-12 -26.5t-6 -22zM189 450q1 21 1 49.5t-7 46.5q-22 0 -29 -39q-3 -16 -3 -33v-28q0 -16 0.5 -28.5t0.5 -25.5q1 -15 6 -57
q21 36 25.5 65t5.5 50zM226 521q2 -10 2 -26.5t-4 -37t-10 -41.5q-13 -52 -13 -83q23 0 39 46q12 37 12 61.5t-3.5 47t-22.5 33.5z" />
    <glyph glyph-name="ampersand" unicode="&#x26;" horiz-adv-x="719" 
d="M632 80q19 -6 19 -24.5t-23.5 -18.5t-41.5 5.5t-36 12.5q-50 19 -73 23q-4 0 -27 -14l-40 -27l-27 -14q-28 -18 -54 -22.5t-55 -4.5h-36q-90 0 -145 51q-57 53 -57 140v21q0 14 1 17t7.5 17t15.5 31l16 33q12 23 22 34.5t20 22.5q24 29 25.5 32.5t1.5 10.5v14l-1 76v8
q0 6 5.5 33.5t11 48.5t18 42.5t31.5 33.5q30 17 111 17q28 0 46 -9q20 -10 70 -47q26 -18 26 -72q0 -51 -54 -123q-20 -26 -43 -49l-68 -68t-35 -34q39 -49 141 -107q50 -28 59.5 -28t27 14.5t35.5 34.5q42 49 44 72l1 25v66l-1 30q-11 19 -67 27v26h200v-26q-17 0 -40 -6
t-27 -8.5t-9 -20.5t-9 -42q-8 -58 -8 -97q-2 -2 -7 -6.5t-7 -6.5l-67 -94v-7q0 -18 19 -24t42 -9.5t42 -9.5zM197.5 173.5q-1.5 -14.5 -1.5 -30t4 -33.5t17 -27.5t22.5 -16.5t20.5 -14q28 -15 44 -15q3 0 25 5.5t27.5 7.5t17.5 7.5t23 12.5q28 18 28 27q0 6 -57 43t-63.5 42
t-18 14.5t-23.5 18.5q-31 23 -37.5 23t-13 -10.5t-10 -25t-5 -29zM403 598l-7 -2q-11 -40 -30 -64q-30 -40 -76 -82q-7 -7 -30 -23q-41 -29 -50 -43q-4 -7 -15 -17t-25 -24q-5 -3 -14 -13l-20 -20q-39 -38 -47 -52.5t-11 -25.5q-3 -17 -3 -55t4.5 -59t16.5 -34.5t33 -23.5
t54 -23h13q-27 22 -40.5 46.5t-13.5 50t1.5 37.5t4.5 24q4 15 22 56q15 29 41 51.5t52 40.5q28 26 53.5 50.5t45.5 51.5q45 59 61 126q3 10 -3.5 18.5t-16.5 8.5zM331.5 636q-12.5 1 -38.5 1t-47.5 -10t-32.5 -29q-17 -28 -17 -102v-59q26 17 53 35t50 40q52 49 57 111
q-12 12 -24.5 13z" />
    <glyph glyph-name="quotesingle" unicode="'" horiz-adv-x="242" 
d="M147 402l-57 1q-16 5 -26 20.5t-17 29.5q10 0 11.5 2.5t1.5 17t-4 37.5t-9 46q-13 58 -13 91q0 23 8 28.5t24 5.5l124 -11q12 -3 12 -18q0 -72 -18 -243q-11 -7 -37 -7zM147 638q-32 7 -51.5 7t-21.5 -4.5t-2 -33.5t25 -154h43q7 49 7 82v103z" />
    <glyph glyph-name="parenleft" unicode="(" horiz-adv-x="400" 
d="M273 56q-62 92 -95 168.5t-33 155.5q0 89 48 207q-77 -57 -109 -129q-17 -41 -17 -83t8.5 -87t31.5 -86q50 -91 166 -146zM355 696q18 0 18 -14q0 -12 -23 -20q-10 -4 -22 -7.5t-24 -9.5q-113 -60 -120 -221q-2 -45 -2 -71.5t2 -44t10 -42.5q20 -60 65 -122.5t68 -76.5
t39 -17.5t24 -4.5t8 -17q0 -28 -59 -28q-64 0 -139 54q-117 86 -162 210q-14 40 -14 73.5t8.5 71t25.5 76.5t44 77t64 68q80 66 189 66z" />
    <glyph glyph-name="parenright" unicode=")" horiz-adv-x="400" 
d="M2 28q0 16 8 17t23.5 4.5t39 17.5t55.5 58.5t50.5 79.5t27.5 61q12 37 12 75t-2 82.5t-14 86.5q-27 93 -106 135q-12 6 -24 9.5t-22 7.5q-23 8 -23 21t18 13q158 0 253 -134q51 -72 70 -154q8 -37 8 -70.5t-14.5 -74t-38.5 -78.5t-56 -71.5t-67 -59.5q-75 -54 -136.5 -54
t-61.5 28zM207 587q48 -118 48 -202t-33 -160.5t-95 -168.5q168 80 197 232q8 45 8 72.5t-2.5 48t-14.5 49.5q-30 71 -108 129z" />
    <glyph glyph-name="asterisk" unicode="*" horiz-adv-x="343" 
d="M276 661q0 -24 -14 -45q28 -9 37 -25q-37 -13 -88 -25q10 -16 33 -26t35 -17t20 -19q0 -4 -5 -9t-7 -5t-16.5 5t-19.5 7.5t-13.5 5.5t-17.5 7q-21 9 -28 14v-89h-25v89q-5 -5 -56 -39h-7q-8 0 -13.5 6t-5.5 15.5t13 17.5h-7q-11 0 -19 -7t-17.5 -7t-15 6t-5.5 14l1 6
q4 2 15 7t23 11l23 11q21 11 24 15.5t3 14.5t-4.5 17.5t-10.5 14.5q-14 17 -14 39q15 0 24.5 -11t15.5 -18q13 -18 25 -12q4 2 8 5v57h31v-63q30 32 78 32z" />
    <glyph glyph-name="plus" unicode="+" horiz-adv-x="459" 
d="M280 179l117 7q35 0 35 -16q-7 -14 -7 -16l-155 -25q-1 -9 -1 -18v-27q0 -32 4 -63t4 -63q0 -15 -17 -15q-31 0 -32 123q-1 31 -1 57l-13 1l-7 -1h-5q-53 -6 -100 -14.5t-55 -9.5q-20 10 -20 21q0 24 20 28l173 25l7 6q0 127 10 164q3 11 15 11t12 -8v-160q0 -7 16 -7z
" />
    <glyph glyph-name="comma" unicode="," horiz-adv-x="214" 
d="M58 -33l-16 48q0 34 43 50q11 4 22 4q33 0 49 -20.5t16 -54.5q0 -26 -9 -36.5t-24.5 -26.5t-33.5 -31q-43 -36 -70 -36t-27 10t8 17t18 15q25 20 25 49z" />
    <glyph glyph-name="hyphen" unicode="-" horiz-adv-x="510" 
d="M428 232q-120 -8 -186 -8h-127q-60 0 -60 23q0 17 26 29l194 -6l144 6q14 0 24 -3t10 -16q0 -25 -25 -25z" />
    <glyph glyph-name="period" unicode="." horiz-adv-x="216" 
d="M46 10q-6 10 -6 23.5t7.5 25t19.5 19.5q25 18 52 18t39.5 -17t12.5 -42.5t-17.5 -42.5t-46.5 -17q-39 0 -61 33z" />
    <glyph glyph-name="slash" unicode="/" horiz-adv-x="367" 
d="M54 -18q-18 0 -18 17q0 20 91 247l13 33q14 36 23 68q31 123 99 257q33 65 51 65q6 0 13.5 -5t7.5 -12t-13 -44.5t-33.5 -90.5t-44.5 -114t-46.5 -117t-40 -99t-25 -61.5t-18.5 -44t-22 -47.5q-26 -52 -37 -52z" />
    <glyph glyph-name="zero" unicode="0" horiz-adv-x="669" 
d="M433.5 25.5q-58.5 -26.5 -115.5 -26.5t-105.5 23t-86 61.5t-60.5 88t-23 96.5t6 92.5t19.5 90t35 85.5t52.5 72q66 68 158.5 68t152 -29.5t95.5 -75.5q64 -84 64 -209q0 -139 -92 -257q-42 -53 -100.5 -79.5zM230 365q-7 -40 -7 -90t19.5 -109.5t55.5 -115.5q4 -7 32 -7
t59 12t39.5 49.5t13.5 64t8 49.5q4 43 4 85.5t-1 72.5t-5 63.5t-11.5 68t-20.5 62.5q-27 61 -75 61q-41 0 -71 -46q-33 -51 -33 -142q0 -38 -7 -78zM242 55l1 4q-18 36 -35 100q-29 108 -29 137v21q0 15 1 18l49 268q-66 0 -113 -145q-21 -63 -28.5 -111.5t-7.5 -67
t13.5 -57.5t36.5 -74q52 -84 112 -93zM478 118h6q5 0 23 24.5t24.5 37t16 27.5t16.5 33q17 41 17 93t-10.5 90.5t-28.5 74.5q-38 74 -104 123q38 -97 48 -153q12 -74 12 -176.5t-20 -173.5z" />
    <glyph glyph-name="one" unicode="1" horiz-adv-x="525" 
d="M48 -13q-12 7 -12 22q0 16 12 22q41 0 75.5 5.5t36.5 6.5q0 32 1.5 70t2.5 77q5 105 3 134t0.5 50.5t4.5 43.5q7 57 -1 82q-28 0 -51 -4t-60.5 -4t-37.5 27q0 7 6.5 12t12.5 6h10q68 0 93 8t39 13.5t25 9.5t13 6l158 122h27q0 -14 3 -31t-2 -31l-2 -162q0 -82 -9 -197.5
t-12 -151.5q-5 -79 -1 -79l112 -13q12 -2 15.5 -8.5t3.5 -14t-0.5 -14.5t-8.5 -7l-53 3l-332 -3h-72zM214 431q2 -26 -2 -88t-6.5 -105.5t-4.5 -82.5q-5 -98 -4 -112h28q1 0 18 -2t37 -3q54 -5 54 -1l36 494l-16 60q0 2 -2 4t-4 2q-6 0 -12 -6l-122 -79v-81z" />
    <glyph glyph-name="two" unicode="2" horiz-adv-x="602" 
d="M261 0q-28 7 -61 7t-62 -4t-51.5 -4t-29.5 5.5t-7 23.5q0 7 17.5 13t42 12.5t51 13t37 10.5t22.5 11.5t27 16.5q65 39 70.5 46.5t5.5 15.5l-1 25q8 252 8 437q0 8 -5 9t-17 1t-42 -6t-59 -17q-71 -29 -71 -71t49 -85q13 -12 26 -20l1 -6q0 -18 -58 -54q-55 -34 -68 -34
t-22.5 12t-15.5 28q-11 31 -11 51t0.5 29t2.5 18q6 19 16 43q83 116 191 141q39 9 85 9t80 -21t57 -54q46 -64 46 -149l-56 -168q-80 -158 -223 -235v-6q0 -8 50 -11t52 -3l159 7q2 13 4 38t7 50q12 62 47 62l-3 -69q-1 -12 -2.5 -31t-4 -37t-4 -31t-2.5 -13l-5 -6h-273z
M359 292l1 -66v-22l37 50l81 180q2 2 2 26t-5.5 52t-17.5 54q-29 62 -76 62q-17 0 -17 -36l2 -28q-7 -116 -7 -186v-86zM105 514q-18 -7 -18 -43v-16q0 -11 5 -25.5t20 -14.5q9 0 23 8.5t14 10.5v6q-37 74 -44 74z" />
    <glyph glyph-name="three" unicode="3" horiz-adv-x="586" 
d="M501 613l-1 -3v-2l-137 -168v-12q80 -18 131 -84q50 -65 50 -136.5t-25 -108t-66 -55.5q-66 -32 -196 -32q-78 0 -139 27q-78 35 -78 107q0 10 1.5 19t16.5 9t24.5 -12.5t17 -28.5t15 -31.5t19.5 -21.5q52 -25 112 -25l25 1l6 6v10l1 44v19q0 144 -7 231q-14 0 -28 -9
q-25 -17 -40 -17t-20.5 2t-5.5 16.5t9.5 24.5t22.5 16.5t26.5 11.5t22.5 10l1 41q0 68 -13 146q-20 7 -63 7l-74 -1l-13 -6q3 -15 3 -45t-14 -49q-7 0 -15.5 1t-9.5 12l-6 111q0 20 56 20q47 0 108 -9q114 -17 161 -17l95 7q27 0 27 -26zM314.5 384.5q-6.5 -0.5 -6.5 -9
t1 -30.5t2 -52.5t2.5 -66t2.5 -68.5q2 -76 4 -96h22q64 0 110 38q49 40 49 102q0 72 -49 126q-51 57 -123 57q-8 0 -14.5 -0.5zM302 453l12 6l112 130v13h-124v-149z" />
    <glyph glyph-name="four" unicode="4" horiz-adv-x="619" 
d="M582 40q6 0 6 -16v-11q0 -11 -6 -13q-214 -13 -461 -13q-14 0 -28 3t-14 21.5t13 22t23 3.5t35.5 1t54 2t51.5 2l22 1l6 6l1 69q0 118 -18 118q-13 0 -26 -7h-211q-7 0 -19.5 6.5t-12.5 15.5v2q0 1 1 1l390 453l7 1q21 0 32 -36q7 -26 7 -61t-2 -47l31 -267q-1 -1 -1 -5
v-7q0 -19 8 -19h74q1 0 3.5 7t2.5 15t-3.5 21t-3.5 19q0 13 16 13q30 0 30 -70l-2 -35l-12 -13l-112 -12q-1 -5 -1 -9v-15q0 -38 6.5 -74t6.5 -73h106zM303 540l-1 -28v-11q0 -75 11 -225q16 -212 21 -221l6 -12h96q0 39 -7.5 100.5t-7.5 68.5v123q-1 21 -8.5 110.5
t-11 132.5t-5.5 60h-7l-86 -92v-6zM67 272h201q0 52 -8 103t-8 103h-11z" />
    <glyph glyph-name="five" unicode="5" horiz-adv-x="620" 
d="M598 567q0 -78 -34 -78q-4 0 -10 0.5t-6 6.5v118l-234 -32l-71 -217l107 -11l124 -63q45 -22 45 -106q0 -58 -23 -95q-8 -14 -22 -22l-143 -87q-25 -7 -40 -9t-30.5 -2.5t-58.5 11t-85 32t-72.5 49t-30.5 58t23 29.5q25 0 28 -19l81 -81q27 -30 99 -31q18 -1 36 -1t25 8
l2 71q0 95 -20 226l-28 1q-30 0 -63 -9q-62 -18 -84.5 -18t-26 4t-3.5 15v22t6 17l38 229q-1 3 -1 9.5t3 17t9 20.5q13 22 28 22l11 -1l68 -19q16 -1 26 -1h79t62 2q85 6 112 33q29 29 43 29t20.5 -12.5t9 -29t2 -33t-0.5 -26.5v-27zM337 310q0 -19 5.5 -85t7.5 -93.5
t3.5 -50t2.5 -32.5h6q45 17 80 54q38 40 38 83q0 49 -30 74q-26 23 -84 46q-8 4 -10 4h-19zM238 588l-37 7q-21 0 -24 -18l-38 -206v-19h15q37 0 41 13l75 206v12q-1 1 -5.5 1.5t-10.5 1.5q-11 2 -16 2z" />
    <glyph glyph-name="six" unicode="6" horiz-adv-x="577" 
d="M499.5 576q5.5 -19 5.5 -40.5t-9 -21.5q-19 0 -28 7q-16 70 -57 96q-16 10 -44 10t-52 -9.5t-28 -46.5l-14 -162l6 -39q7 0 22 2l24 4q9 2 13 2t17.5 -4.5t30.5 -10.5q46 -15 57 -22q14 -14 31.5 -30.5t33.5 -35.5q37 -44 37 -91t-21 -84t-56 -62q-70 -51 -166 -51h-13
l-116 32q-4 1 -20 15q-63 52 -95 140q-19 49 -19 85q0 43 6.5 78.5t9.5 40.5l78 149l136 130q24 24 113 20q22 -1 40 -1q20 -19 35.5 -34t26 -31t16 -35zM368 173l-1 14q-11 142 -34 142h-49l-11 -13l-21 -198v-20l-2 -58q0 -7 1 -9h76l20 24q8 8 14.5 57.5t6.5 60.5z
M385 316l22 -112l-16 -149l2 -12q44 6 75 49q29 39 29 87t-31 86t-81 51zM82 266l2 -20q0 -24 14 -72q19 -62 50 -93q32 -32 51 -32q6 0 8.5 2t3.5 11l6 167v7l25 329l-15 -7l-124 -174z" />
    <glyph glyph-name="seven" unicode="7" horiz-adv-x="620" 
d="M422 50q13 0 13 -19q0 -17 -26 -22t-67 -5h-81q-124 0 -236 8q-9 5 -11 8t-2 10q0 24 21.5 28t53.5 4h37l6 6l100 217h-56q-7 0 -7 23.5t13 23.5h71l111 261l-157 45h-4l-6 1q-11 0 -15 -3t-9.5 -11.5t-12 -19t-13.5 -22.5q-17 -30 -21 -37l-1 -16q0 -14 7.5 -25t7.5 -24
t-11 -18t-18.5 -5t-16.5 8t-14 19q-10 22 -10 43.5t9 41.5t22 38.5t27 35.5t23 32q11 10 21 11.5t18 1.5h16q6 0 7 -1l143 -50h7l31 -1h46.5t34.5 1q21 3 47.5 12.5t32.5 15t11.5 5.5t12.5 -3t14 -7q19 -11 17 -16l-133 -341h58q2 0 4.5 -7t2.5 -8.5t-5 -8.5t-8 -7l-74 -19
l-97 -204h66zM310 56l99 205q-3 4 -3 13.5t9 20t19 15.5l105 286v6q-41 0 -85 -5t-45 -8l-241 -533h142z" />
    <glyph glyph-name="eight" unicode="8" horiz-adv-x="599" 
d="M545 192l-13 -93q-7 -28 -22.5 -53.5t-20.5 -27.5l-130 -62l-87 -12q-12 5 -31 6.5t-36 6.5t-44 22t-51 39q-55 54 -55 99q-17 1 -34 5.5t-17 25.5q0 30 39 30h19q0 53 42 110q36 48 87 83l1 4q0 2 -5 9t-8 12l-37 118q-13 6 -13 18t1.5 14.5t4.5 5t8 6t19.5 23
t29.5 40.5t32 35q33 26 109 26q69 0 119 -25q3 -6 6 -6q51 -32 65 -49q30 -36 30 -91q0 -119 -82 -171q-6 0 -13 -2.5t-7 -6t9.5 -10.5t21.5 -16q31 -23 38 -39q1 -2 4 -11.5t7 -21.5t8 -23.5t6 -17.5zM254 99q0 -112 39 -112q89 0 149 49t60 128q0 61 -39 104
q-40 43 -103 43q-51 0 -82 -87q-24 -66 -24 -125zM110.5 205q-13.5 -35 -13.5 -65.5t10 -55t27 -44.5q38 -43 89 -43q0 23 -5 52q-8 56 -8 67.5t6 34t15 51.5q19 61 41 114v13q-72 0 -124 -61q-24 -28 -37.5 -63zM315 459v-37q0 -40 21 -54q13 -9 40.5 -9t53 11t44.5 30
q39 42 39 99q0 60 -43 102q-46 44 -105 44q-24 0 -39 -77q-11 -57 -11 -109zM201.5 555q-10.5 -27 -10.5 -48t7 -43.5t20 -43.5q30 -51 67 -51q0 20 -6.5 39.5t-6.5 42t4 46.5t9 47q13 62 13 95q-17 0 -23.5 -7.5t-10.5 -13.5t-8 -9t-12 -4.5t-9 -3.5q-23 -19 -33.5 -46z
" />
    <glyph glyph-name="nine" unicode="9" horiz-adv-x="594" 
d="M206 5q-31 0 -31 22t19 35l87 180v9q-107 0 -144.5 14t-63 38.5t-46.5 68.5l-2 39v10q0 95 51 159q34 43 44 46l149 50q6 3 40 3t73 -10.5t66 -36.5q106 -102 106 -259q0 -51 -37 -144q-6 -15 -13 -23q-11 -12 -12 -27q-57 -78 -112 -118q-18 -13 -31 -17l-137 -38
q-1 -1 -2 -1h-4zM269 68q52 5 96.5 37.5t77 78.5t51 99.5t18.5 96.5t-11.5 86.5t-34 80.5t-56 61.5t-76.5 24.5q-3 0 -11.5 -0.5t-10.5 -0.5q5 -16 14.5 -27.5t18.5 -22.5q23 -28 23 -55v-136l-99 -311v-12zM73.5 473q-4.5 -20 -4.5 -58t26.5 -72.5t74.5 -45.5q0 30 -9.5 61
t-9.5 60t2 50t6 41t10 41t13 46v6l-31 -13q-12 -6 -32 -33.5t-30.5 -45t-15 -37.5zM194 421q-2 -8 -2 -18.5t4.5 -30t10.5 -36.5q14 -39 24 -39h63q1 0 5.5 10t8.5 23.5t8 28.5t6 29q4 20 4 58t-3 59t-9 37q-12 29 -45 60q-29 0 -38 -31z" />
    <glyph glyph-name="colon" unicode=":" horiz-adv-x="241" 
d="M61 10q-6 10 -6 23.5t7.5 25t19.5 19.5q25 18 51.5 18t39.5 -17t13 -42.5t-18 -42.5t-37.5 -17t-31.5 4t-22 11.5t-16 17.5zM61 367q-6 10 -6 23.5t7.5 25t19.5 20.5q25 17 51.5 17t39.5 -17t13 -42.5t-18 -42.5t-37.5 -17t-31.5 4t-22 11.5t-16 17.5z" />
    <glyph glyph-name="semicolon" unicode=";" horiz-adv-x="260" 
d="M76 367q-6 10 -6 23.5t7.5 25t19.5 20.5q25 17 51.5 17t39.5 -17t13 -42.5t-18 -42.5t-37.5 -17t-31.5 4t-22 11.5t-16 17.5zM79 -33l-16 48q0 24 28 43q15 11 38 11q32 0 48.5 -20.5t16.5 -50.5t-8 -40q-34 -37 -60 -58q-18 -15 -37.5 -25.5t-39.5 -10.5t-20 10t8 17
t17 15q26 20 26 49z" />
    <glyph glyph-name="less" unicode="&#x3c;" horiz-adv-x="437" 
d="M364 149.5q1 -1.5 1 -13.5t-7 -12h-31l-242 162q0 4 -19 15q-37 21 -37 31q0 16 7 22l322 198l3 1q2 0 8.5 -5.5t7.5 -8.5t-2 -8.5t-7 -11.5q-9 -16 -10 -16l-137 -88l-6 -6l-105 -68v-12l248 -174q5 -4 6 -5.5z" />
    <glyph glyph-name="equal" unicode="=" horiz-adv-x="439" 
d="M124 171l-63 -3v28l20 4q79 13 156 21h57.5t68.5 -13q1 0 1 -2v-8q0 -8 -26 -15h-114zM146 371l-45 -1h-15v40h277q13 0 13 -19l-1 -4v-2l-213 -14h-16z" />
    <glyph glyph-name="greater" unicode="&#x3e;" horiz-adv-x="438" 
d="M79 124q-7 0 -7 12t1 13.5t6 5.5l249 174v12l-106 68l-6 6l-137 88q-19 32 -19 34q2 5 8 10.5t9 5.5l325 -199q7 -6 7 -17t-9 -18t-20 -13q-27 -16 -27 -20l-242 -162h-32z" />
    <glyph glyph-name="question" unicode="?" horiz-adv-x="527" 
d="M146 37q0 75 68 75q32 0 53.5 -22t21.5 -55t-25 -53t-52 -20t-37.5 7t-16.5 17q-12 19 -12 51zM227 69l-4 -1h-2l-37 -38q-1 -1 -1 -2v-3q0 -8 2.5 -14.5t19.5 -6.5q48 0 48 34q0 31 -26 31zM326 161l-152 -7q-14 0 -21 11t-7 22v11l125 143l55 161q2 4 2 22.5t-1.5 30.5
t-4.5 24q-4 17 -20 53q-9 6 -16.5 14.5t-15.5 16.5q-17 19 -34 19q-64 0 -116 -68q-49 -64 -49 -131l1 -37q10 -38 64 -38q48 0 48 82q-3 9 -19 49q0 12 4 16t15 4l12 -1q13 -25 22.5 -52t20.5 -53v-3l1 -4q0 -39 -34 -62q-29 -19 -64 -19t-54.5 10t-31.5 27
q-22 31 -22 80.5t17 91.5t46.5 76t69.5 55t82 21t84.5 -11.5t78.5 -34.5q83 -51 83 -133q0 -41 -13 -83.5t-20 -54.5zM370 502q-31 -167 -137 -291h23t18 1q21 3 22 5l154 297v74q0 35 -50 62q-36 20 -74 26q0 -1 6 -9.5t6 -15.5q18 -43 25.5 -66.5t7.5 -38.5v-27
q0 -13 -1 -17z" />
    <glyph glyph-name="at" unicode="@" horiz-adv-x="704" 
d="M484 249q54 18 54 139v14l-1 30v6q-4 31 -41 54q-35 22 -67.5 22t-65.5 -15t-63 -37q-39 -29 -103 -100q-27 -31 -33 -61.5t-6 -52.5v-29l2 -45q52 -65 160 -83q30 -5 66 -5q82 0 151 38q6 4 19.5 12.5t27.5 17.5q34 21 35 21q18 0 18 -13q0 -17 -27 -42
q-26 -23 -64 -42.5t-68 -27.5q-53 -15 -110 -15t-88.5 3t-62.5 11q-105 27 -153 135q-18 43 -18 84t15 75.5t38.5 74.5t60 66t79.5 41t90 23t95 16h18q30 0 80.5 -16t67 -23.5t29 -27.5t19.5 -45q14 -44 14 -83t-14.5 -70t-37.5 -56q-54 -57 -114 -57q-5 0 -24.5 7.5
t-29.5 13t-14.5 11.5t-5.5 6l-39 -12q-60 0 -89 34q-12 14 -12 35v4q0 4 15 34t30 49q36 47 76 47q36 0 55 -39q14 -29 14 -57t-5.5 -39t-5.5 -23zM164 124q0 6 -4.5 6t-4.5 -6t4.5 -6t4.5 6zM139 149q0 6 -4.5 6t-4.5 -6t4.5 -6t4.5 6zM121 174q7 0 7 5.5t-6 7.5
q-6 0 -6 -6.5t5 -6.5zM261 488q-165 -71 -165 -217l-1 -24q0 -35 15 -48l12 13q7 137 50 189q11 14 47 48.5t42 38.5zM310 280q0 -10 39 -43q27 0 48 49q15 34 15 51.5t-2.5 28t-17.5 10.5l-6 -1q-76 -64 -76 -95zM581 450.5q6 -17.5 6 -46.5q0 -60 -25 -142q48 33 51 80
q1 14 1 30t-1 33.5t-5 33.5q-7 36 -33 49q0 -20 6 -37.5z" />
    <glyph glyph-name="A" unicode="A" horiz-adv-x="847" 
d="M371 8q0 -13 -7 -13h-308q-9 0 -13.5 7.5t-4.5 18.5t12 20q12 1 27.5 2t28.5 2q33 2 36 7l103 274l1 7q0 38 -81 45q-18 1 -28 1q-40 0 -69.5 -27.5t-29.5 -70.5q0 -29 28 -29q20 0 25.5 9t5.5 24v24q3 9 7 11t12.5 2t14.5 -5t9 -12q8 -15 8 -29t-6.5 -26t-16.5 -22
q-24 -22 -45 -22q-39 0 -60.5 19.5t-21.5 53t10 59.5t28 45q39 41 94 41q38 0 68 -6.5t64 -29.5l2 -1q1 0 5 3t4 5l81 211v3q0 2 -2.5 5.5t-4.5 3.5h-136q-7 0 -7 8.5t4.5 22.5t13.5 14l435 9q8 0 12 -8.5t4 -24.5t-10 -16h-91l73 -217q2 -11 5 -15t23 -4t50.5 9.5t64.5 9.5
q17 0 17 -19q0 -12 -9 -18.5t-20 -7.5l-91 -12q-12 0 -12 -11l102 -295l54 -14q12 -1 12 -13.5t-6 -19.5q-7 1 -13 1h-11l-189 -5q-11 0 -14 4t-3 18t14 19.5t25.5 8.5t21 2.5t20.5 -1.5q22 -2 35 -2v12l-88 273h-11q-4 0 -43.5 -35.5t-49.5 -45t-13.5 -18.5t-18.5 -9
t-23.5 9t-16 20t-16 20t-16 9t-7.5 -0.5t-1 -0.5h-1l-79 -218q-2 -2 -2 -9.5t5.5 -9.5t12.5 -4.5t12.5 -7.5t5.5 -18zM192 64v-10q0 -4 1 -8.5t12 -4.5h74q4 0 10 9.5t13 18.5l194 532v17h-97l-206 -549q-1 0 -1 -5zM439 338l-1 -6q0 -8 2.5 -10t9 -6.5t15 -10.5l17 -12
t20.5 -13l103 85q12 6 12 7.5t-1 3.5v2l-76 216z" />
    <glyph glyph-name="B" unicode="B" horiz-adv-x="721" 
d="M214 332l-1 -66q0 -57 4 -213l6 -13q7 -7 65 -10t67 -4q0 141 -8 219q-3 51 -3.5 98t-2.5 93q-5 104 -25 189q-7 7 -25 7q-60 0 -87 -7q0 -72 2 -98q5 -47 5 -78l4 -87zM78 -54q-23 0 -23 29q0 30 47 49q22 8 72 16l6 6v249q0 10 -7 13t-15 5.5t-15 7t-7 16.5q0 30 38 32
q0 94 -19 231q-21 0 -37 -18.5t-29.5 -41t-26 -41t-24.5 -18.5t-19.5 9t-7.5 15v9q0 4 1 6q29 74 103 118q70 43 150 43t137.5 -11.5t98 -29.5t66.5 -40.5t41 -43.5q25 -38 25 -71q0 -7 -1 -9q3 -3 3 -34t-13.5 -55t-44.5 -50q55 -21 83.5 -57.5t28.5 -92.5t-17 -92.5
t-42.5 -61t-56.5 -38t-59 -20.5q-40 -10 -81 -10t-84 7t-88 7h-44q-4 -8 -7.5 -11t-13 -3t-16 7t-19 7t-23 -5t-20.5 -12q-25 -16 -40 -16zM396 23q0 -9 27.5 -9t66.5 7.5t74 25.5q81 43 81 117t-19 99q-12 15 -32.5 24t-54.5 20h-19q-7 -1 -25.5 -4t-39 -6t-39 -5.5
t-25 -3.5t-6.5 -9v-4q0 -98 12 -247q-1 -1 -1 -2v-3zM386 342l42 2q10 1 26 2q33 4 56 8l10 2q36 22 50.5 53t14.5 53q0 81 -83 127q-32 18 -63 24.5t-39.5 6.5t-8.5 -1h-20q0 -41 5 -106q10 -130 10 -171z" />
    <glyph glyph-name="C" unicode="C" horiz-adv-x="648" 
d="M328 6l49 -1q90 0 143 30q47 26 54 57q8 33 17 43t18 10t16.5 -5.5t7.5 -20t-8.5 -36.5t-22.5 -41q-28 -42 -67 -60q-68 -32 -160 -32q-116 0 -189 64q-97 86 -110 279h-50q-8 0 -8 12t5 18t12 9.5t15.5 5.5t15.5 4q7 93 38 170q24 60 47 81t57 37.5t70 27.5
q67 21 131 21l113 -26q6 11 18.5 18t29.5 7q27 0 27 -47l-31 -134q0 -2 -17 -6q-21 0 -27 13q-39 110 -105 122q-17 3 -30 3q-62 0 -62 -46q0 -6 1 -10v3q1 -5 1 -18v-104q0 -220 -6 -311.5t-6 -114t13 -22.5zM280 427q0 139 4 190q-17 0 -58 -29q-40 -26 -58 -62t-27 -72
q-14 -57 -14 -133t9.5 -122t27.5 -81q34 -64 99 -98q17 99 17 388v19zM547 553q8 35 8 68q-10 -1 -18.5 -2l-17 -2t-14.5 -3z" />
    <glyph glyph-name="D" unicode="D" horiz-adv-x="763" 
d="M356 627l1 -10q0 -134 -4.5 -276.5t-4.5 -220t3.5 -89.5t10.5 -19q10 -10 42 -10q126 0 200 93q69 86 69 213q0 55 -15 115.5t-48 111t-85 83.5t-125 33q-17 0 -30.5 -4t-13.5 -20zM128 689q40 -15 92.5 -15t76 3t41.5 7q45 10 72 10q58 0 114 -27t100 -77.5t71 -122.5
t27 -158t-25 -150.5t-71 -108.5q-92 -88 -253 -88q-32 0 -63 3.5t-63 6.5q-96 11 -122 11h-37q-10 0 -21 -1q-7 7 -7 20.5t5.5 15.5t28.5 2h61q7 0 7 10q0 50 -5.5 142t-6.5 122q-11 8 -24 14t-27 13q42 24 54 52v20q-2 18 -4.5 56t-5 64.5t-3.5 50.5q-3 47 -6 70
q-2 7 -16 7t-26.5 -4.5t-23 -12t-20 -16.5t-19.5 -18q-13 0 -22.5 3.5t-9.5 17.5v10q28 35 58.5 50t72.5 18zM291 634l-104 -3l-4 -171q0 -88 9 -238q13 -197 13 -202l7 -7q13 0 24 1l42 1l32 -1v25l-1 25l5 339l-1 34v41l1 81v25q0 36 -7 51q-5 -1 -16 -1z" />
    <glyph glyph-name="E" unicode="E" horiz-adv-x="634" 
d="M528 -9l-31 -1h-27q-69 0 -279 -5l-29 -1h-39t-58 2.5t-26 17.5t14 20l85 -2q0 72 -5.5 138t-5.5 138q-5 9 -17.5 13t-17 8.5t-4.5 15.5t5 13.5t11.5 3t13 1.5t9.5 8v14l1 45v15l1 83q0 31 -6 85q-4 -1 -18 -1h-47h-24q-7 1 -7 9q0 23 6.5 32.5t25.5 9.5l120 1
q52 0 104 -4t97.5 -4t84 2t74.5 16q8 4 13.5 9t12.5 5t13 -5.5t6 -13.5l-1 -4v-2q-10 -17 -16 -27.5t-11 -15.5q-7 -10 -16.5 -10t-64.5 2t-163 -3q-11 -119 -11 -237q44 0 68.5 10t35.5 14.5t22 4.5t17 -7t6 -30t-10.5 -35.5t-41 -12.5t-35.5 19l-62 -4l-1 -13
q-5 -65 -5 -82v-28q0 -13 0.5 -31t1 -38.5t1.5 -38.5t1.5 -30.5t1.5 -13.5l6 -12l50 -1l64 -1q125 0 164 33q7 6 12 6q36 0 36 -34l-2 -14q-2 -13 -4 -13l-13 -13l-10 -1q-50 -5 -76 -5zM165 598l-2 -119v-108q0 -132 7 -218q8 -118 13 -118l6 -6l76 -1q0 27 -1.5 50
t-3.5 46q-4 71 -4 121.5t4 118t4 138.5l-1 60v37l-98 5v-6z" />
    <glyph glyph-name="F" unicode="F" horiz-adv-x="672" 
d="M398 -18q-248 -7 -280 -7t-50 2t-18 20q0 34 62 34q19 0 22.5 10.5t3.5 29.5l-7 103l6 112h-13q-22 0 -32.5 7.5t-10.5 17.5q0 25 56 25q8 32 8 83v69l-1 74v27l-7 25l-105 13q-10 2 -11.5 10t-1.5 15.5t1.5 14t11.5 10.5q51 0 116 -9q123 -17 150 -17h49l20 1l198 37h93
l6 -12l3 -91q0 -25 -7 -45.5t-31 -20.5h-9q-3 0 -5 1l-94 100h-11q-73 0 -123 -10t-51 -15q-3 -27 -4 -47.5t-2 -40t-1 -38.5v-109q15 -13 38 -12.5t33 3.5q27 6 35.5 9.5t11 13.5t5 20.5t6 19t14.5 8.5q25 0 25 -44q0 -35 -7.5 -68.5t-15.5 -50.5t-20 -17l-10 4q-9 4 -9 7
v57h-99l-7 -13v-63q0 -127 7 -204q1 -6 11 -6l73 6q28 0 28 -22q0 -27 -50 -27zM175 243l-2 -91v-48l2 -60l6 -13h30q49 0 76 6q7 3 7 17l-1 15l5 192l-6 229v56q0 27 1 38l-6 12l-88 18l-6 -12q-1 -1 -3.5 -52.5t-4.5 -90.5t-4 -79q-3 -58 -6 -137zM618.5 643.5
q-2.5 2.5 -19 2.5t-16.5 -9q0 -13 12 -21.5t20 -13.5q6 9 6 24t-2.5 17.5z" />
    <glyph glyph-name="G" unicode="G" horiz-adv-x="793" 
d="M562 285l87 -4q32 0 64.5 11.5t52.5 35.5q10 0 18.5 -5.5t8.5 -22t-11 -25.5t-25 -13.5t-27.5 -8t-19 -15t-7 -25t-2.5 -27.5t-1 -27t-3 -23q-43 -199 -293 -199q-128 0 -218 93q-95 96 -124 272h-54q-7 0 -7 17l1 10q3 1 10.5 4t15.5 6q24 8 26.5 9.5t7 19.5t9.5 41
q12 53 19 78q34 93 111 149t172 56q29 0 75 -10.5t70.5 -15.5t48 -5t35 5t19 10.5t14.5 10.5t14 5t11 -4l17 -17v-144q0 -11 -10 -16t-18 -5q-35 16 -67 39.5t-64.5 45.5t-66.5 37.5t-74 15.5l-14 -1q-20 -170 -20 -256q0 -154 20 -258q1 -5 4 -26t7 -45q9 -63 10 -64
q7 -11 17 -13t17 -2t20.5 3.5t30.5 8.5q41 12 65 22q25 17 43 42t18 49t-5 39.5t-13.5 29.5t-19.5 28t-23 31q-12 0 -37 -14t-32 -14t-17.5 10t-10.5 23t15 23t35 16q35 9 75 9zM240 38q21 -15 50 -29.5t31 -14.5h18q-14 85 -30 169.5t-16 170.5q0 11 3 45q5 73 5 109v74
q0 39 1 54q-6 7 -9 7q-6 0 -32 -13q-72 -49 -108.5 -113.5t-36.5 -151.5t40 -180.5t84 -126.5zM636 116q17 67 20 88q0 27 -48 35q-11 2 -19 2q20 -32 33 -61.5t14 -63.5zM543 620q5 -4 35 -20q53 -29 66 -42v69q-3 -1 -12.5 -1.5t-23.5 -1.5t-31 -2z" />
    <glyph glyph-name="H" unicode="H" horiz-adv-x="895" 
d="M162 -7l-67 -1q-25 0 -47 2q-9 4 -11.5 7.5t-2.5 10.5l2 14q3 14 5 14h126l6 141q0 105 -24 105q-19 0 -35.5 -10t-30.5 -10q-24 0 -24 21q0 6 0.5 10t6.5 7l87 37v37l-37 199h-75q-12 28 -12 33q0 13 14 15t32 2l28 -1q4 11 9 15.5t16 4.5t18.5 -4.5t43 -4.5t95.5 10.5
t121 10.5q33 0 33 -23q0 -17 -8 -21.5t-19 -4.5l-25 1q-14 0 -25 -6.5t-11 -27t1 -31.5t2 -23q4 -28 4 -67l-1 -59l7 -12h105l230 -47v240q0 4 -4 13q-8 17 -15 17h-99q-7 0 -7 15q0 35 157 35q25 0 43.5 1t30.5 0q24 0 24 -17q0 -19 -17.5 -24t-29.5 -5h-21q-8 0 -12 1
l-7 -6l-6 -257q10 0 13.5 -2t6.5 -2t38 37q65 70 72 70t13 -6t6 -20.5t-17 -37t-41 -41.5q-45 -37 -91 -57q0 -33 0.5 -62.5t1.5 -58.5q1 -68 4 -127q8 -4 20.5 -6.5t24.5 -6.5q30 -8 30 -27q0 -23 -34 -23t-71 7.5t-75 7.5l-19 -1q-7 1 -7 19q0 32 54 32q17 0 27 -2l7 31
v211l-230 50l-49 1q-44 0 -56 -20l-7 -202v-21q0 -56 7 -63h30q70 0 70 -27q0 -15 -39 -28q-13 0 -21.5 3.5t-19.5 3.5t-17 -2t-11 -5q-12 -7 -20 -7h-2q-1 0 -2 1q-48 24 -170 24zM326 297q0 87 -6 190.5t-8.5 110.5t-4.5 9q-92 0 -136 -17q-12 -4 -12 -8l49 -384v-80
q0 -33 4 -54l3 -21l6 -6h86q4 0 6 35.5t1 63.5z" />
    <glyph glyph-name="I" unicode="I" horiz-adv-x="457" 
d="M324 -34l-50 -2h-19q-29 0 -45 2q-37 6 -58 6h-84q-17 0 -24.5 5t-8.5 21t13 18t31 0.5t33 -1.5t21 9l2 140l2 108q0 11 -1 15q-6 -2 -13 -2t-16 12.5t-9 22.5t6 13.5t13 5.5t13 4t6 7q-3 30 -3.5 65.5t-1.5 72t-1.5 72.5t-3.5 67q-7 7 -9 7h-38q-13 0 -26 0.5t-20 9
t-7 16.5t0.5 12t6.5 7l99 5q18 -2 35 -2l178 4h14l43 -1h14q7 -3 7 -20.5t-10 -24t-37 -6.5l-48 2q0 -96 -4.5 -196t-4.5 -222.5t11 -205.5l68 -5q21 0 22 -23q-4 -9 -13 -11zM287 521q0 115 -22 115h-37q-34 0 -52 -2q-6 -2 -6 -11q0 -34 0.5 -92.5t1 -126t1.5 -137.5
t3 -127q3 -128 6 -128h92l6 6l1 25v9l-1 22v6z" />
    <glyph glyph-name="J" unicode="J" horiz-adv-x="646" 
d="M412 670l109 6q26 0 34.5 -28t8.5 -62v-78q0 -184 -23 -288t-58.5 -164t-78.5 -94q-75 -57 -194 -57q-191 0 -191 204q0 61 17 83q8 12 21 12t21.5 -4.5t16.5 -11.5t17 -16t20.5 -17.5t20.5 -12.5t14 -7q10 -6 10 -20t-3.5 -30.5t-8 -31.5t-9 -26.5t-5 -16.5t0 -14.5
t2.5 -18.5q3 -22 20 -22q85 0 125 32q13 53 13 141t2.5 151.5t4.5 116t4 101t2 108.5l-1 14v8l-25 6l-99 -12q-25 -4 -43 -24q-32 -34 -32 -62.5t15.5 -37.5t34.5 -11.5t34.5 -4.5t15.5 -13q0 -14 -19.5 -24t-39 -10t-36.5 11t-30 27q-29 32 -29 61q0 32 33 76q32 41 98 62
q36 11 72 11t51.5 -2t29 -4t26.5 -4t31 -2zM70 107l1 -11q5 -45 11 -70.5t27 -41.5q0 78 14 123q-3 3 -9.5 7t-13.5 8q-16 11 -20 11q-10 0 -10 -26zM512 574l-1 34l-6 6q-2 2 -23.5 4.5t-26.5 2.5t-16.5 -1t-24.5 -2q-35 -3 -40 -4q0 -330 -30 -626q60 18 104 102.5
t50 175.5q15 187 15 266z" />
    <glyph glyph-name="K" unicode="K" horiz-adv-x="827" 
d="M636 -17q-30 0 -30 17t10 24.5t21.5 11t21.5 6t10 11t-4 11t-17.5 18.5t-35.5 47.5t-48 60.5q-61 70 -117 70t-75 -32q-4 -33 -4 -77.5t3.5 -65t15.5 -39.5l64 14q3 0 9.5 -9t6.5 -16.5t-8 -14t-19 -10.5q-18 -8 -39 -8h-341q0 24 8 31q9 9 25.5 12t29 9.5t23.5 7.5l1 31
q0 50 -5.5 94t-11.5 101h-40q0 17 10 31.5t30 14.5v282q-8 -2 -29 -6l-54 -10q-24 0 -24 31l1 15q53 20 145 29q21 2 31 2l94 -1l108 -1h14q6 0 14 1q25 1 25 -23q0 -9 -22.5 -14.5t-33.5 -10t-12 -12.5q-16 -69 -16 -245v-11l1 -31v-10q21 16 80 70.5t99.5 92t76.5 70.5
q80 74 100 88t27.5 16.5t20 2.5t20 -1t11.5 -15q-26 -34 -71 -76t-93.5 -86t-93.5 -86t-71 -76q63 -26 135 -109q30 -34 58 -69.5t54.5 -62t49.5 -34t56 -7.5q0 -29 -79 -43q-54 -10 -102 -10zM190 616l-15 -373v-15q5 -47 8 -78q5 -70 7 -88q28 -21 132 -21q0 144 8 299.5
t11 230.5l1 23v22h-152z" />
    <glyph glyph-name="L" unicode="L" horiz-adv-x="751" 
d="M433 -2q-127 -17 -262 -17q-35 0 -63.5 2t-53.5 9.5t-28 14.5t-3 32h106l-1 77v30q0 14 2 25l-4 120q-35 6 -41.5 10.5t-6.5 12t6 15t14 15.5q22 22 23.5 30t5.5 34.5t8 58.5l7 60q4 28 4 35l-2 63l-79 -5q-21 0 -21 22q0 5 16 11q25 10 37 10l22 -1l301 14q43 0 43 -21
t-29 -25q-49 -6 -59 -11q-4 -11 -7 -17q-8 -24 -10 -43t-4.5 -41.5t-5 -48t-5 -48t-4 -38.5t-4.5 -32q-6 -32 -6 -127l1 -120q0 -25 6.5 -39.5t37.5 -14.5l73 -5q24 0 36 5.5l24 11t25 12.5q32 18 40.5 26t28 28.5t41.5 43.5q53 57 67 73q30 -11 30 -62q0 -38 -13.5 -87
t-22.5 -68q-21 -44 -44 -44q-47 0 -92.5 7.5t-71.5 7.5h-33l-24 -1h-5zM171 72l1 -33q5 -9 9 -11.5t12 -2.5l81 14q2 2 6 14l5 19q19 65 29 418q3 81 3 114v16h-112l-15 -30q-3 -7 -9 -120t-9 -159q-5 -103 -7 -122.5t-1 -27.5t2.5 -18.5l3 -21t1.5 -15.5v-34zM551 42
q15 -3 59.5 -3t58.5 29t14 86q-11 -12 -25 -27.5t-30 -31.5q-39 -38 -77 -53z" />
    <glyph glyph-name="M" unicode="M" horiz-adv-x="1123" 
d="M223.5 469q11.5 47 11.5 78t-5 61l-65 -6q-29 0 -40.5 9t-11.5 21t19 22q109 15 189.5 16t141.5 1q3 -61 61 -284q15 -60 29 -109l8 -2q29 0 95 183q11 32 20.5 59t12.5 35t3 15l-1 35v17q0 3 3.5 14.5t14.5 11.5l199 34q49 0 49 -26q0 -16 -10.5 -21t-23.5 -8t-23.5 -8
t-10.5 -20t7 -49t17 -70q25 -89 42 -99q6 -3 15.5 -5.5t18.5 -5.5q21 -5 21 -13q0 -12 -6 -18t-13 -12q-19 -16 -19 -38v-26l7 -21q6 -18 14.5 -40t16.5 -44.5t15 -41t15.5 -33t19.5 -22.5q16 -11 69 -22l1 -11q0 -5 -3.5 -14.5t-13.5 -9.5h-222l-49 52l-115 411l-18 -15
q-58 -139 -94.5 -210.5t-44 -83.5t-20 -29.5t-26.5 -34.5q-35 -39 -61 -39t-37 15t-20 38q-37 99 -73 200.5t-55 203.5q-7 -20 -23.5 -85t-28 -109t-22.5 -85q-27 -95 -36.5 -112.5t-12 -25t-4.5 -15.5q-4 -14 -4 -23.5t8 -17.5h74q-1 -3 -2 -10t-5 -14q-12 -18 -39 -18
h-194q0 21 9.5 29t22.5 11.5t26.5 7.5t22.5 19q6 13 15.5 31t18.5 35q19 39 27.5 68.5t27.5 79t36 98t28.5 95.5zM1010 46l-34 42q-10 39 -23 92.5t-27.5 111.5t-29.5 114t-29 101q-31 100 -48 100q-29 0 -45 -8.5t-24 -35.5q0 -18 12 -59l18 -66q6 -23 10 -42
q23 -81 45 -160t52 -157q16 -37 45 -40q9 -1 22.5 -1t29.5 4t26 4zM413 620l-21 1h-22.5t-23.5 -0.5t-18 -4.5q-15 -9 -15 -40v-14q0 -9 1 -10l123 -413q2 -10 10.5 -14t14.5 -4h10q14 14 35 49t21 37q-12 30 -38 130q-52 201 -77 283z" />
    <glyph glyph-name="N" unicode="N" horiz-adv-x="816" 
d="M232.5 43q10.5 -5 10.5 -23t-13 -18l-161 2q-12 0 -15 10.5t-3.5 21t6.5 15t16.5 7t19 6.5t13.5 16q22 135 32 373q2 63 2 92v41q0 12 -2 24q-61 0 -70 13q-11 17 -11 40q108 10 205 14.5t116 4.5q70 0 70 -25q0 -11 -21 -22t-21 -19.5t13.5 -33t32.5 -53.5
q40 -64 65 -96q2 2 7 2q31 0 49 18q3 -6 3 -17.5t-4 -17t-10 -12.5q-13 -15 -13 -29t2 -14q4 -12 22 -48l31 -61q12 -25 23.5 -47t20 -39t11.5 -22q9 40 9 122.5t-3 142t-7 107.5q-8 110 -14 110l-94 -8q0 29 10 40t18.5 12t21 2.5t26 3t24.5 2.5q40 6 76 6q54 0 57 -9
l2 -23q-10 -1 -25.5 -5.5t-26.5 -6.5q-3 -2 -14 -8.5t-14 -8.5q-1 -8 -2 -27t-3 -40q-3 -51 -3 -65v-16q3 -244 8 -317t5 -84q-4 -67 -210 -76q-20 0 -29.5 7.5t-9.5 26t2 22.5l-123 210l-64 -5q0 4 0.5 9.5t5 16t14.5 17.5t10 24.5t-13.5 48t-32.5 63.5q-38 70 -75 112
q-5 -8 -5 -25v-18q0 -48 -6 -143q-13 -184 -13 -225q0 -79 6 -86q4 -5 16 -5t25.5 -1t24 -6zM230 627q-33 0 -33 -17q0 -7 8.5 -18.5t21.5 -28.5q43 -56 52.5 -73.5t23 -43t32.5 -62.5t40.5 -79t41.5 -81q51 -100 61 -121.5t18 -30.5q21 -23 52 -23q1 0 12.5 2.5t26.5 5.5
q37 7 50 14q0 45 -85 216q-24 47 -58.5 107t-128.5 191q-30 38 -87 41q-18 1 -29 1h-19z" />
    <glyph glyph-name="O" unicode="O" horiz-adv-x="780" 
d="M512.5 -2q-69.5 -27 -145 -27t-133.5 26t-101.5 68.5t-68 97.5t-24.5 105.5t7.5 98t24.5 93.5q58 166 192 216q52 20 114 20q194 0 287 -110q74 -88 74 -223q0 -181 -107 -287q-50 -51 -119.5 -78zM243 356q-3 -39 -3 -70t7.5 -66.5t20.5 -71.5q24 -71 69 -135
q6 -14 69 -5q74 11 90 66q11 42 21.5 71.5t18.5 55.5q18 59 18 101t-3 75t-10 69.5t-18.5 73.5t-28.5 66q-40 67 -95 67q-58 0 -98 -69q-46 -78 -58 -228zM274 28l1 4q-85 165 -85 272q0 114 79 326q-127 -23 -165 -225q-11 -62 -11 -103t10.5 -85t32.5 -85q54 -95 138 -104
zM508 642q94 -113 94 -305q0 -73 -54 -231q-13 -38 -22 -66q83 46 125 132.5t42 205.5q0 81 -55 158q-51 72 -130 106z" />
    <glyph glyph-name="P" unicode="P" horiz-adv-x="644" 
d="M73 -12q-12 0 -12 19t19 19l57 -5v336l-32 -4q-20 0 -20 19q0 7 21.5 12.5t26.5 5.5q0 182 -37 238q-10 15 -24 15l-29 -2q-21 0 -21 19q0 13 14 19q44 3 82 3h89q247 0 361 -80q61 -43 61 -123q0 -60 -34 -110q-15 -22 -43 -41.5t-63.5 -30t-69.5 -14.5q-42 -5 -106 -5
v-240l12 -12q5 1 17 1h27q40 0 51 -3q17 -5 31 -23l-13 -13h-365zM148 642q0 -19 2 -25q0 -30 5.5 -105.5t6.5 -85.5t2 -40t2 -69.5t2.5 -83.5t3.5 -83q2 -65 2 -112q2 0 13 -2t24 -4t23.5 -3.5t17 -2t12.5 9.5t9 26q4 20 4 72l-2 156q-2 26 -4.5 62t-5.5 75.5t-7 77.5
t-8 69q-7 68 -12 68h-90zM372 324l40 1q53 2 72 55q13 33 13 78.5t-3.5 68.5t-13.5 42q-27 51 -114 66q-47 8 -80 8q0 -155 18 -257q5 -32 10.5 -44t16.5 -15t41 -3zM513 586q17 -32 21.5 -58.5t4.5 -57.5t-7 -65.5t-34 -61.5q32 5 58 36q32 39 32 94q0 53 -28 87
q-23 26 -47 26z" />
    <glyph glyph-name="Q" unicode="Q" horiz-adv-x="829" 
d="M448 679l32 1q73 0 167 -70q68 -50 73 -179q2 -34 2 -66t-6 -76t-18 -89q-26 -102 -63 -150q-8 -4 -8 -13.5t11 -23t27 -25.5q38 -30 56.5 -30t30 6.5t20.5 17.5q17 21 17 50q0 15 -11 32q-22 32 -22 44q0 1 4.5 9t15 6.5t21.5 -11.5t18 -24q14 -30 14 -55.5t-8 -45
t-23 -35.5q-31 -33 -82 -33q-29 0 -51.5 14t-42.5 30t-49 39h-1q-1 0 -2 0.5t-1 0t-1 -0.5h-1q-121 -62 -203 -62q-54 0 -123 38q-123 66 -167 196q-16 47 -16 104q0 14 2 30q-2 1 -10 3.5t-16 6.5q-23 9 -23 19t8 14.5t17 6.5q14 4 31 4q26 154 120 270q76 93 151 93
q41 0 83 -21q5 -2 7 -6.5t4 -8.5q5 -10 16 -10zM256 275q0 -97 22 -201q15 -33 37 -54q41 -39 74 -39q30 0 71 14q79 27 79 47q0 24 -37 54q-33 28 -52 28q-12 0 -22 -10q-20 -20 -32.5 -20t-20 9t-7.5 21q0 23 22 36t46.5 13t44.5 -7t37 -20q24 -19 46.5 -44t23.5 -25.5
t2 -0.5q36 0 76 184q14 61 14 81q0 142 -44 209q-48 74 -155 74q-73 0 -128 -62q-69 -78 -91 -216q-6 -39 -6 -71zM132 410q-17 -73 -17 -139.5t17.5 -111.5t42 -77t51 -51.5t45.5 -26.5q-44 52 -57 194q-3 40 -3 90.5t10.5 103t32.5 98.5q43 90 142 161q-31 20 -58 20
q-47 0 -88 -36t-71 -94t-47 -131z" />
    <glyph glyph-name="R" unicode="R" horiz-adv-x="752" 
d="M613 67l1 19q0 46 -8 67q-20 57 -78 79q-14 5 -27 5q-27 -6 -59 -15l-31 -9l-6 -6l12 -186h31q18 0 34 -1.5t16 -15.5q0 -28 -65.5 -28t-133 7.5t-136.5 7.5l-31 -1q-13 6 -13 19.5t11 18t26.5 5.5t31 1t24.5 5l1 38q0 265 -25 502q-1 2 -3 9t-3 9l-3 1q-21 0 -69 -62
l-24 -34q-16 -23 -16 -66t1.5 -63t6.5 -37q10 -29 49 -64q0 -13 -26 -22q-38 0 -59 65q-16 47 -16 103t27 114.5t85 96.5q64 32 156 32q143 0 230 -43q52 -26 87 -74.5t35 -129.5q0 -3 -1 -9.5t-2 -12.5q-3 -20 -3 -18l-68 -105v-7q94 -34 94 -200l-1 -35q19 -19 22 -19
q7 6 13.5 14t13.5 14q20 17 30.5 17t15 -0.5t4.5 -11t-5 -25.5t-14 -28q-21 -30 -50 -30q-17 0 -27.5 6t-28 20t-22 35.5t-4.5 47.5zM231 616l-2 -71v-25q0 -203 27 -462q7 -4 13 -19q61 -7 108 -7l-3 89l-6 24q-6 87 -7 173.5t-7.5 137.5t-9.5 73t-6 42.5t-6 35.5l-2 15
h-86zM379 616l1 -19q6 -78 9 -158t16 -158q3 -7 12 -7q146 0 186 131q0 86 -51 138q-17 18 -35 26t-36.5 15.5t-36.5 14.5q-42 17 -45 17h-20z" />
    <glyph glyph-name="S" unicode="S" horiz-adv-x="620" 
d="M571 478q0 -16 -37 -16q-6 0 -20 12.5t-34.5 31.5t-45 40.5t-50.5 40.5q-60 44 -98 44q-88 0 -120 -45q-12 -17 -12 -37.5t11 -38t38 -37.5q58 -43 189 -88q2 2 8 10.5t13 18.5q18 24 25 24t11.5 -5.5t4.5 -10.5t-2.5 -11t-6.5 -13q-11 -19 -12 -24q73 -51 99 -89
q31 -45 31 -114q0 -87 -72 -148q-74 -63 -187 -63q-56 0 -110.5 18.5t-88.5 62.5l-2 1q-2 0 -6 -2.5t-4 -4.5l-14 -68q-1 -7 -11.5 -7t-14 2.5t-8.5 10.5l-1 40q0 48 8 140q5 14 22 14t29 -15.5t23 -36.5l22 -42t26 -32q9 -9 40 -21q66 -27 110 -27q53 0 86 35q31 33 31 85
q0 33 -55 75q-53 40 -92 40q-7 0 -20 -8q-23 -15 -29 -15q1 5 1 9v7q0 14 -4 22q-112 57 -143 97q-18 24 -23 51t-5 61q0 89 34 147q24 41 67.5 58.5t82 17.5t62.5 -5t46 -14q31 -13 91 -51h8l53 63l12 1q25 0 29 -14q15 -126 15 -177zM111 522l-1 -60v-18q0 -38 24 -82
q35 -62 245 -127q56 -18 75.5 -48t19.5 -67t-14 -77q21 0 40 37q23 44 23 101t-28 91t-71 58.5t-94 43.5t-96.5 41t-79.5 51t-43 73v-17zM481.5 576.5q-4.5 -4.5 -4.5 -7.5t7 -12.5t15 -19.5q21 -26 25 -26h8l-2 11q-2 11 -4 26q-6 30 -11 51q-4 -3 -10.5 -6.5t-12.5 -7.5
t-10.5 -8.5z" />
    <glyph glyph-name="T" unicode="T" horiz-adv-x="693" 
d="M161 -18q-13 0 -13 22q0 6 2 11t11 5h75q2 25 6 61.5t8 80.5q10 110 10 199v243l-61 -9l-165 -106q-1 0 -1.5 -4.5t-2.5 -4.5q-11 0 -19 10t-8 21l67 176l113 -35q29 -9 83 -9l77 2l97 -1q73 0 120 22q9 4 15 8.5t11 8.5q12 8 25.5 8t17.5 -6l68 -139q0 -5 -9.5 -14.5
t-9.5 -8.5l-116 49l-83 32q-12 0 -19.5 -6t-11.5 -24q-8 -30 -8 -138l-6 -268q0 -125 12 -142q4 -5 10 -5l54 5q13 0 21.5 -1.5t8.5 -10.5q0 -26 -13 -28l-62 -4h-304zM302 603q-6 -54 -6 -145l-4 -204q0 -56 -4 -104q-6 -88 -6 -129h28q42 0 86 4l12 580q-27 -9 -50 -9
t-56 7zM167 610q-20 13 -48 13l-13 1q-19 0 -35 -58q-3 -11 -3 -12zM643 579q0 25 -17 43q-6 7 -17.5 7t-31.5 -5t-27 -20z" />
    <glyph glyph-name="U" unicode="U" horiz-adv-x="741" 
d="M599 659q0 25 29 25q7 0 13.5 -8t8 -28t4.5 -44t4 -46q4 -51 4 -117.5t-4.5 -137.5t-21.5 -125q-32 -108 -130 -178q-11 -8 -58.5 -20t-56.5 -12t-33 2.5t-49 7.5q-60 12 -78.5 32t-31.5 34t-21.5 26.5t-14.5 27.5t-12 40q-10 40 -32 158l-29 13q3 14 8 20.5t17 10.5
q3 7 9 37.5t6 32.5l-6 69l5 147q-26 0 -37 -16.5t-17 -36t-11 -36t-18 -16.5t-20.5 9t-7.5 33t15 49.5t39 41.5q47 29 118 29l108 -7q25 0 47.5 4t39.5 4t17 -13t-10 -21.5t-24 -14.5q-23 -10 -48 -14q-6 -8 -9.5 -45t-3.5 -48l3 -193l50 5q11 0 11 -20t-18 -24.5t-40 -5.5
v-19l38 -252q1 -7 45.5 -7t83.5 21t65.5 54.5t42 76t24.5 86.5q13 69 13 155l-1 55q0 31 -8.5 77.5t-12.5 71.5t-4 50zM167 576l4 -56l-3 -123q0 -138 18.5 -210t45 -113t70.5 -53l-25 303l-6 303q0 1 -23.5 3t-34.5 3t-12 1q-21 0 -27.5 -18t-6.5 -40z" />
    <glyph glyph-name="V" unicode="V" horiz-adv-x="661" 
d="M635 635l-28 2l-171 -641q-4 -14 -12 -16.5t-31.5 -2.5t-58 8.5t-71.5 17.5q-16 11 -18 25l-84 268h-61q-7 0 -7 14.5t9 17.5t19.5 3.5t19.5 2.5t9 12l-51 272h-98q-7 0 -7 14.5t10.5 21t24.5 9.5t28.5 3.5t26.5 1.5t24 2.5t25 2.5q26 2 46 2h27l32 -1h11
q16 -7 18.5 -21.5t3.5 -23.5t8 -17l139 -523h6l108 437v6q2 4 5.5 29t5.5 37t2 14v7q0 15 -7 15h-74q-7 0 -7 17t5 21.5t13 6.5t25 3t35.5 2t35.5 2t22.5 1t18.5 -0.5t27 -3.5q37 -8 37 -28t-41 -20zM300 33l12 -3q61 -16 75 -16v32l-152 578h-85q-4 0 -12 -4t-8 -8
l145 -566z" />
    <glyph glyph-name="W" unicode="W" horiz-adv-x="890" 
d="M875 595l-43 6q-2 0 -7 -2.5t-5 -3.5l-131 -595q-2 -10 -10 -18t-18 -8t-17 6.5t-7 13t2 12.5l-105 323v4l-7 2q-5 0 -23 -81l-50 -217q0 -4 6.5 -5.5t15.5 -4.5q21 -8 21 -24t-3 -19t-20.5 -2.5t-57 2t-84 4t-84 4t-55.5 2.5q-13 5 -13 16.5t6.5 17.5t15.5 10q14 5 35 5
v25l-143 503l-7 6q-18 -38 -18 -94q0 -17 3.5 -28t3.5 -23.5t-4 -15t-20 -2.5t-24.5 12.5t-8.5 39.5t0.5 49t4.5 43q10 52 39 68l17 8q45 23 51 23h137q7 0 19 -6.5t12 -13.5t-3 -10t-7 -6q-10 -7 -10 -16l1 -10l136 -477l6 -6l25 61l50 267q-1 5 -1 8v8q0 35 10 69t10 70
q-6 4 -26.5 8t-35.5 4l-4 9q-3 5 -3 9.5t5 11.5t14 8l93 6q32 0 32 -26q0 -27 -20 -42q-11 -38 -18 -67.5t-7 -64.5v-23l112 -354l6 -6l99 490v35l-56 -5q-8 0 -13.5 1.5t-5.5 11.5q0 50 103.5 50t103.5 -35q0 -21 -20 -21zM280 62q0 -7 18 -25h88l12 6l-169 564h-85
q-11 0 -12.5 -4t-1.5 -10v-6q0 -2 1 -4z" />
    <glyph glyph-name="X" unicode="X" horiz-adv-x="773" 
d="M421 -39q-31 0 -31 23q0 26 50 33v12l-124 211q-4 7 -9 7q-1 0 -2 -1h-1l-166 -204h85q6 0 9.5 -10t3.5 -17t-13.5 -13.5t-34 -10.5t-45 -6.5t-47.5 -3.5q-45 -2 -59 -2l-31 1q-5 4 -12 12t-7 10q0 16 12.5 21.5t29 6.5t31.5 1t20 5l203 260l-196 304q-16 25 -43 25
q-15 0 -16.5 6t-3.5 9q0 10 12.5 16t18.5 6h335q3 0 11 -9.5t8 -15t-6.5 -10t-14.5 -7.5q-19 -8 -28 -8l99 -173q0 -4 9 -7h2l168 180v12h-9l-25 1h-8l-50 -6q-14 0 -17 10.5t-3 16.5v11q0 5 1 5l12 7q2 1 15 2t31.5 2.5t40 3t40.5 2.5t32.5 2t21.5 1q36 0 36 -24
q0 -8 -6 -14l-43 -19l-199 -229l-18 -13l205 -354l6 -6q10 2 33 2t38.5 -5.5t15.5 -25.5q0 -13 -7 -14q-16 -2 -37 -3t-40.5 -2t-33.5 -1h-19q-29 0 -61.5 0.5t-63.5 -0.5q-76 -2 -105 -13zM490 23h164l-342 596h-185l214 -360l6 -6z" />
    <glyph glyph-name="Y" unicode="Y" horiz-adv-x="709" 
d="M388 164q-21 -50 -27 -73.5t-6 -29.5t3 -15h129l15 -22q-26 -48 -500 -48q0 31 7 43t12 12h122l-6 34v4q6 22 17.5 42.5t22.5 40.5q27 51 27 81t-7.5 36.5t-17 7t-17 0.5t-7.5 7.5t5 11.5t12 7q14 6 29 8q-26 45 -58 131l-43 146v15q-59 0 -80 19q-9 8 -9 24l1 16l146 14
q60 0 60 -38l-1 -4v-3l-59 -28q-1 -2 -1 -3v-3q3 -24 21 -90.5t30 -102.5q26 -79 38 -79h14l144 284q-2 6 -2 28.5t5.5 34t24.5 11.5l82 -2l225 6q0 -30 -39 -41q-22 -7 -47 -7q-8 -32 -45 -59l15 -14q-5 -4 -17 -16.5t-18 -18.5l-9 -9v-14l-100 -168l-1 -9q0 -7 4.5 -9.5
t10.5 -4t10.5 -4t4.5 -13t-9 -16.5t-21 -9.5t-24.5 -7.5t-18.5 -14q-26 -39 -47 -89zM557 644l-50 -5q-18 -9 -37.5 -31t-22.5 -28l-267 -526v-16q16 0 67 7.5t51 8.5l310 585z" />
    <glyph glyph-name="Z" unicode="Z" horiz-adv-x="769" 
d="M719 79q0 12 14 12q29 0 29 -28q0 -40 -25 -69q-26 -30 -66 -30q-11 0 -21 3l-314 67l-175 -42q-20 -14 -37 -23t-32 -9q-31 0 -31 19l1 7l105 253q25 36 25 44q-20 -7 -43.5 -7t-27.5 5t-4 14.5t2.5 19t16.5 12.5l99 19l180 247q-15 31 -93 31q-150 0 -212 -65
q-25 -26 -25 -68q0 -24 19 -47q8 -8 14 -14.5t6 -13.5t-6 -11.5t-17 -4.5t-24 9t-22 23q-19 30 -19 59q0 51 29.5 85.5t72.5 54.5q80 37 180 37h16l204 -44q42 0 76.5 6.5t72.5 6.5h25l-6 -25l-204 -266q-1 -1 -1 -2v-2q0 -9 12.5 -10.5t28 -2.5t28 -3.5t12.5 -13.5
q0 -17 -18 -20.5t-36 -3.5h-35q-17 0 -22 1l-13 -12l-93 -192q0 -1 -1 -2q0 -2 34 -10q74 -18 79 -13l143 -44l18 -1q83 0 83 39zM123 29l181 50q7 1 16 26q18 48 26 54l261 410v11h-143l-68 -74l-273 -452v-25z" />
    <glyph glyph-name="bracketleft" unicode="[" horiz-adv-x="472" 
d="M123 207l14 -178q1 -3 5 -8.5t6 -5.5l89 -8l-8 64l1 13q-11 106 -13 118t-2 32v49l1 125v71l-7 64q0 4 -6 21t-9 27t-5 14.5t-3 8.5t-3 9l-4 10l-64 5l-1 -12q4 -53 5 -163.5t2 -152.5q2 -82 2 -103zM76 629l5 37q0 5 6 12t8 7l300 -25q2 2 7.5 8t12.5 12.5t13 12t8 7
t3.5 1t3.5 -0.5h4t2 -1q10 -17 10 -34.5t-1 -30t-2 -20t-3 -14.5q-5 -16 -18 -14.5t-19 10t-12 18.5l-149 25q-11 2 -13.5 -8t-2.5 -15v-13l36 -586l88 -8q10 -1 12 8t2 20q0 31 16 34q29 -24 54 -107l1 -15q-15 1 -32 9q-34 14 -55 15.5t-47 -0.5t-52 -5q-108 -12 -146 4
q-16 6 -19 34l-23 586v6q0 4 0.5 10l1 12t0.5 9z" />
    <glyph glyph-name="backslash" unicode="\" horiz-adv-x="366" 
d="M312 -18q-15 0 -58 100q-11 25 -18.5 43.5t-25 61.5t-40 99t-47 117t-44.5 114q-46 122 -46 132t7 15t15 5t21.5 -19t27.5 -46q15 -27 48 -105q39 -100 45 -125t9 -37q8 -25 16 -46l18 -45q29 -72 42.5 -108t23.5 -64q24 -61 24 -76.5t-18 -15.5z" />
    <glyph glyph-name="bracketright" unicode="]" horiz-adv-x="472" 
d="M234 603l-1 13q0 5 -2.5 15t-12.5 8l-150 -25q-6 -10 -12 -18.5t-16 -9.5t-14.5 3.5t-6.5 11t-2.5 14t-2 20t-1.5 30t10 34.5q0 1 2 1h4t3.5 0.5t4 -1t8.5 -7t12.5 -12t12 -12.5t7.5 -8l300 25q2 0 8 -7t7 -10t2 -17.5t1.5 -19.5t1 -11l1 -12t0.5 -10v-6l-23 -586
q-3 -28 -19 -34.5t-41 -8.5t-51.5 0t-53.5 5q-96 11 -126 0q-10 -3 -20 -7q-25 -11 -40 -12l1 15q25 83 54 107q16 -3 16 -34q0 -11 1.5 -20t12.5 -8l88 8zM256 408l1 -125v-71q-4 -21 -7 -50t-5 -48.5t-2 -29.5v-13q0 -8 -2.5 -24.5t-3.5 -26t-2 -13.5l89 8q2 0 6 5.5
t5 8.5l14 178q0 4 1 33t1.5 70.5t1 91t1.5 94.5q2 107 4 130l-1 12l-64 -5l-4 -10q-6 -14 -10 -28t-7 -24q-9 -24 -9 -28l-7 -64v-71z" />
    <glyph glyph-name="asciicircum" unicode="^" horiz-adv-x="409" 
d="M201 663l5 1q34 -7 42 -13l131 -118q2 -2 7 -10.5t5 -14.5q0 -12 -25 -12l-130 105q-4 4 -8.5 5t-6.5 1.5t-2 0t-1 -0.5h-1l-148 -161q-11 -11 -17 -15t-16 -4t-14.5 2.5t-9.5 10.5q6 29 18.5 42t38.5 26l129 155h3z" />
    <glyph glyph-name="underscore" unicode="_" horiz-adv-x="641" 
d="M564 0q-117 -8 -256 -8h-200q-60 0 -60 23q0 16 26 29l266 -7l215 7q14 0 24 -3t10 -16q0 -25 -25 -25z" />
    <glyph glyph-name="grave" unicode="`" horiz-adv-x="242" 
d="M231 705l1 -5q0 -12 -5 -15t-16 -3h-7q-2 0 -4 1l-188 60q-1 0 -1 1v2q0 11 8 17t13 5.5t6 -0.5h5l188 -60v-3z" />
    <glyph glyph-name="a" unicode="a" horiz-adv-x="539" 
d="M325 35q-68 -82 -172 -82q-59 0 -99 43q-35 39 -35 75.5t17.5 63t49.5 45.5q70 43 212 63q15 2 23 7q14 10 14 62q0 56 -36 72q-14 7 -34 7t-29 -7t-14 -16q-6 -13 -6 -28.5t4.5 -19.5t4.5 -14.5t-6 -16t-15 -7.5q-13 -4 -38 -4q-18 0 -45 -9t-31 -9q-9 0 -13.5 11
t-4.5 20.5t7 25.5t17 33q23 37 40 50q31 23 57 37.5t53.5 14.5t47.5 -2t40 -8q71 -19 98 -67q25 -44 25 -106q0 -27 -7 -55t-7 -54t4.5 -43.5t12.5 -33.5q17 -37 38 -37q6 0 11.5 4t10.5 4q21 0 21 -21q0 -20 -18 -35q-36 -30 -69 -30t-47 4t-25 11t-19 14.5t-16 15.5
t-14.5 15t-7.5 7zM169 3q-25 57 -25 91t8.5 54.5t22.5 40.5q-57 -27 -77 -41q-43 -32 -43 -69q0 -34 33 -59q29 -21 61 -21q11 0 20 4zM196 153q-11 -18 -11 -34t1 -31.5t4 -31.5q9 -39 26 -41q25 0 43 14q32 25 34 50l12 125q-78 0 -109 -51zM354 383q26 -40 26 -85
q0 -30 -12 -60.5t-17.5 -48.5t-5.5 -43t5.5 -49t19.5 -43q30 -41 88 -41q-54 62 -54 162q0 26 6 49q11 41 11 62.5t-5.5 36.5t-15.5 28q-20 28 -46 32zM182 341l1 44q-25 -2 -47 -31q-22 -31 -22 -56q8 8 33 8h31q5 0 8 -1q-4 11 -4 36z" />
    <glyph glyph-name="b" unicode="b" horiz-adv-x="574" 
d="M58 566q-6 -3 -31 -3t-35 5t-10 16.5t3.5 17t9 8.5t11 4t11 2.5t21.5 7.5l35 11q57 19 73 27t30 14q34 17 50 17t21.5 -8t5.5 -21.5t-6 -21t-7.5 -19.5t-6 -41.5t-9.5 -67.5q-15 -112 -16 -153l22 23q24 23 50 29t64.5 6t76.5 -17.5t65 -47.5q55 -64 55 -164
q0 -75 -62 -129q-65 -56 -165 -72q-26 0 -43 6t-39 19q-3 4 -4.5 5.5t-7.5 1.5q-14 -7 -29 -17t-31 -19q-37 -22 -61.5 -22t-29.5 8.5t-5 39t5 71.5t5 80t-1 91.5t-3 108.5q-5 126 -12 204zM101 510l2 -139q2 -60 5.5 -121t3.5 -101.5t-1 -54.5t-3 -30q-3 -39 -3 -60
q5 4 19 12t28 17q37 23 37 31q0 3 -6 14q-11 20 -13 29t-3.5 33t-2 51t-0.5 51v33q0 123 29 361l-95 -39l3 -53v-34zM356 358q-12 11 -27.5 11t-36.5 -7t-40 -20q-44 -30 -44 -68v-147q0 -33 29 -63q29 -31 66 -31q38 0 63 67q23 61 23 137q0 89 -33 121zM411 361
q16 -69 16 -128q0 -112 -32 -184l25 9q21 10 40 41q36 55 36 88.5t-8.5 64.5t-21.5 54q-28 51 -55 55z" />
    <glyph glyph-name="c" unicode="c" horiz-adv-x="547" 
d="M338.5 415.5q25.5 -5.5 62.5 -5.5t71 27q13 0 24.5 -8.5t11.5 -9.5v-114q0 -10 -12 -17t-22.5 -7t-25 14.5t-34.5 32.5q-53 46 -110 46q-21 0 -37.5 -22t-26.5 -47t-14 -49q-7 -33 -7 -73.5t7.5 -70t19.5 -52.5q29 -54 67 -54q70 0 133 61q6 7 9 15.5t7 15.5q9 18 28 18
t25 -10t6 -20q-9 -18 -29.5 -39t-42 -36t-45.5 -24q-43 -16 -104.5 -16t-109 11t-82.5 38q-75 56 -75 184q0 88 63 148q70 69 187 69q30 0 55.5 -5.5zM214 20q-42 26 -42 160q0 59 11 113t16 69q-50 -17 -70 -43q-40 -50 -40 -140q0 -59 31 -107q35 -53 85 -53h4q2 0 3 0.5
t2 0.5zM462 337q6 7 6 18q0 14 -6 32l-44 -22z" />
    <glyph glyph-name="d" unicode="d" horiz-adv-x="665" 
d="M426.5 429.5q2.5 31.5 2.5 88.5t-11 57q-18 0 -32.5 -8t-30.5 -8t-21.5 7t-5.5 16t7 18t15 10.5t35 8.5t58 16t58.5 16.5t32.5 8.5q16 6 23 11.5t11 6.5q9 4 24 4t20 -6.5t5 -21t-7 -23.5t-10.5 -39t-10 -83t-13.5 -108q-15 -121 -18.5 -177t-5.5 -71t-4 -29
q-5 -37 -5 -58t4 -38q29 2 50 16t41 34q24 -2 24 -23.5t-14 -36t-34 -23.5q-38 -17 -68.5 -17t-47 9t-30.5 23q-23 23 -41 62q-38 -48 -96 -79.5t-115.5 -31.5t-91 18t-53.5 49q-38 57 -38 162q0 45 27 85.5t64.5 71t76 48.5t70.5 18t57 -5.5t40.5 -12.5t24.5 -14t17 -10
q14 27 16.5 58.5zM188 349q-105 -69 -105 -170q0 -89 40 -133q32 -36 84 -36q2 0 3 0.5t2 0.5q-44 33 -55 133q-3 27 -3 52q7 90 34 153zM208 278q-9 -25 -9 -52t3.5 -61.5t13.5 -66.5q22 -75 68 -75q52 0 86 51q27 40 41 106q10 46 10 75t-8 45t-22 30q-33 31 -65.5 31
t-54.5 -10.5t-38 -29t-25 -43.5zM463 213l-3 -77q0 -54 26 -91q9 -12 20 -15q0 31 7 112t14 136q12 94 26 327q-46 0 -65 -6t-19 -12l-1 -3l2 -57l-10 -195z" />
    <glyph glyph-name="e" unicode="e" horiz-adv-x="552" 
d="M247 129l-1 -13q0 -44 22 -77q8 -11 14 -14.5t16 -3.5h14q70 0 130 33q11 6 22.5 18.5l23 25t21.5 22t18 9.5t12 -9t4 -13q1 -10 -24.5 -38t-57 -46t-67.5 -29q-69 -23 -138 -23t-117 34t-86 86q-19 26 -22 55.5t-3 67t31 81.5t76 79.5t96.5 57.5t85.5 22t66 -5.5
t59 -18.5q66 -33 66 -96q0 -84 -90 -144q-76 -52 -171 -61zM223 29q-35 93 -35 156.5t18 114t41 95.5q-55 -16 -109 -75q-60 -66 -60 -129q0 -96 91 -139q26 -13 54 -23zM234 203q0 -10 10 -17t28 -7q33 0 74 59q37 56 37 100q0 24 -11 39q-20 27 -42.5 27t-40 -21.5
t-29.5 -52.5q-26 -66 -26 -127zM410 397q18 -27 18 -62.5t-22.5 -72t-51.5 -71.5q60 34 79 56q34 39 34 79q0 16 -11 35q-21 36 -46 36z" />
    <glyph glyph-name="f" unicode="f" horiz-adv-x="431" 
d="M393 19q0 -24 -40 -24q-2 0 -24 1t-61 1.5t-94 1.5t-121 1q-8 0 -15 5t-7 19t9.5 21t23 9t28 3t25.5 9l1 21q0 37 -9 84q-17 89 -17 132q-20 2 -38.5 5t-18.5 17q0 20 35 24q8 1 15 4q0 132 8.5 175t18 63t23.5 37q39 39 67 50q38 14 79 14t72.5 -14t60.5 -25q14 0 22 7
q15 13 26.5 13t26.5 -6l13 -157q0 -14 -3 -26.5t-16 -12.5q-21 0 -81 64q-12 13 -19.5 30t-15.5 33t-18.5 27t-24.5 11t-27.5 -1.5t-18 -14.5t-7 -22.5t-4 -19t-1.5 -21.5v-30q0 -167 32 -167q16 0 32 2q29 5 32 5q24 0 24 -20q0 -25 -70 -35q-14 -2 -18 -2q26 -69 44 -257
q3 -8 11 -9t17 -2t16 -5t7 -18zM233 52q65 0 65 17q0 76 -40 216q-23 85 -28 142q-9 86 -9 204q-43 -2 -73 -83q-25 -67 -25 -113q0 -147 37 -325q1 -8 1 -16q0 -29 18 -41zM414 597q9 -14 38 -50v57q-19 0 -38 -7z" />
    <glyph glyph-name="g" unicode="g" horiz-adv-x="599" 
d="M522 365q8 -85 8 -142.5t-3.5 -106t-14.5 -94.5q-30 -125 -134 -222q-78 -74 -204 -74q-59 0 -98 40q-39 38 -39 104q0 50 13 64q20 24 66 34l24 1q24 0 38 2q25 -13 25 -45l-8 -81q0 -5 7 -28q11 -41 16 -43q46 9 78 45.5t51 84.5q36 92 36 198q-25 -39 -83 -64
q-87 -36 -164 -9q-64 23 -88 83q-13 31 -13 69t13.5 78.5t39.5 74.5q59 76 151 76q22 0 59 -19q62 -32 82 -55q-4 12 -4 37v28q0 25 19 30.5t41 5.5t42.5 -0.5t38.5 -2.5q41 -6 41 -26q0 -10 -10.5 -19t-16.5 -13.5t-9 -10.5zM97 -129q0 -69 33 -105q13 -14 32 -14
q2 0 3.5 0.5t3.5 0.5q-1 6 -4.5 21t-8.5 36q-12 51 -19 98q-7 -1 -14 -1.5t-13 -3.5q-13 -7 -13 -32zM470 399q-41 -5 -61 -15q16 -86 16 -281q0 -153 -61 -258q104 85 120 236q4 43 4 72t-1.5 55.5t-3.5 58.5q-4 61 -13 132zM270.5 76q16.5 0 34 5.5t31.5 21.5
q34 37 34 121q0 57 -24 84t-64 27q-29 0 -45 -49q-12 -36 -12 -95.5t14.5 -87t31 -27.5zM204 76q-27 81 -27 120q0 86 36 156q-50 -6 -92 -66q-39 -55 -39 -105t33 -78t82 -28q2 0 3.5 0.5t3.5 0.5z" />
    <glyph glyph-name="h" unicode="h" horiz-adv-x="660" 
d="M273 25q23 0 29 -25q0 -18 -11 -21.5t-27.5 -3.5t-27 1t-20.5 2q-25 4 -58.5 4t-48 -1.5t-27.5 -4.5t-26 -6.5t-29 -7.5h-6q-32 0 -32 29q0 19 29 25q33 6 50.5 26t24.5 38q9 24 9 82q12 240 12 397l-21 -1q-15 0 -22 5t-7 21t13 18t35 8q83 20 135 52q16 20 25 20
t13.5 -9.5t4.5 -21.5t-8.5 -27t-11 -32t-6 -46.5t-6.5 -57.5q-7 -67 -7 -71t0.5 -15t0.5 -15q18 18 47.5 38t45.5 23.5t47 3.5q70 0 122 -52q58 -58 62 -177q1 -32 1 -62v-13q7 -70 19 -79l21 1q31 0 39.5 -5.5t8.5 -27.5q-12 -24 -96 -40q-21 -4 -36 -4q-51 0 -81.5 21
t-48.5 68q-2 5 -5.5 13.5t-6.5 17t-5.5 15.5t-2.5 9v182q0 23 -12 37.5t-30.5 14.5t-33 -14t-27.5 -36q-29 -52 -37 -126q-2 -19 -5 -38q-5 -42 -5 -51l6 -75q7 -7 17 -7zM215 462l18 114q2 4 2 28q-15 0 -36 -8q-39 -14 -41 -27q-2 -16 -2.5 -48.5t-1.5 -92.5
q-4 -152 -21 -372v-6q0 -12 -6 -19h69v189l19 199l-1 31v8q0 2 1 4zM439 304l-5 -88q0 -83 31 -147q0 -14 59 -24q11 -2 14 -2t12 2t9 6l-22 55v164q-3 6 -11 27.5t-20 44.5q-33 59 -76 59q-2 -1 -4 -1h-5q18 -41 18 -96zM414 407q0 3 -2 3q-4 0 -4 -2q0 -4 4 -4q2 0 2 3z
" />
    <glyph glyph-name="i" unicode="i" horiz-adv-x="399" 
d="M211 -8q-53 0 -137 -14q-25 0 -25 26q0 19 10.5 24t24.5 5.5t27.5 1.5t18.5 11v10l1 31v10q0 120 -20 207q-12 18 -29 21t-32.5 3.5t-27 4t-11.5 17.5t14.5 22t34 14t38 10.5t41.5 13t63.5 23.5t68.5 15t31.5 -5.5t3.5 -25.5t-6 -32l-1 -173q0 -55 3 -71
q4 -20 12.5 -50.5t20.5 -41t25 -19t23.5 -15t10.5 -11.5q0 -17 -12 -21.5t-27 -4.5l-12 1q-42 13 -132 13zM130 360q24 -15 31 -69q0 -3 2.5 -29t4.5 -62q6 -108 6 -146l12 -13h100q-3 7 -7 21.5l-8 29t-7 25.5l-3 10l-6 245l-6 19q-18 -6 -36 -6t-28 -3t-21 -6
q-26 -8 -34 -16zM147 484q-67 0 -67 78.5t88 122.5q42 0 67.5 -23.5t25.5 -64.5t-37 -77q-38 -36 -77 -36zM224 591l-13 25q0 14 -7 20t-15 6q-43 -14 -60 -49q-6 -12 -6 -28.5t6.5 -26t22 -9.5t28 7.5t22.5 17.5q22 25 22 37z" />
    <glyph glyph-name="j" unicode="j" horiz-adv-x="463" 
d="M159 321l28 -1q18 0 21.5 3t9.5 5.5t24 5.5q41 7 142 12q2 0 10.5 -6t8.5 -13v-70q0 -192 -9 -263.5t-21.5 -108.5t-27.5 -59t-29.5 -37t-33.5 -26q-45 -25 -103 -25q-48 0 -105 21q-13 5 -15 5l-49 49t-24 41.5t-3 40.5l1 81l19 20q95 0 105 -18q3 -7 8 -21q-7 0 -7 -32
v-36q0 -26 9.5 -49t28.5 -33q40 0 58 20t25 65q18 126 18 219q0 57 -8.5 82.5t-19 41t-23 21.5t-22.5 10.5t-16.5 12t-6.5 23.5t7 19zM291 156q1 -24 1 -35t-1.5 -28.5t-4 -45t-6 -61.5t-8.5 -68q-12 -77 -24 -111q48 18 83 99q28 64 28 101v297h-40q-62 0 -85 -16
q53 -43 57 -132zM76 -187l-23 120q-3 7 -19 7v-77zM190 440l1 24q4 21 25 41q37 34 62 34q10 0 33 -18q43 -34 43 -51q0 -42 -24 -68t-63.5 -26t-58 12t-18.5 52zM279 471q-38 0 -38 -33q0 -18 22 -18t37 22q4 6 4 16q0 13 -25 13z" />
    <glyph glyph-name="k" unicode="k" horiz-adv-x="618" 
d="M624 12q0 -23 -92 -23q-49 0 -62.5 3t-31.5 8t-34.5 23.5t-29 42t-23 49.5t-22.5 47q-28 50 -66 50q-17 0 -21 -2l-13 -12q-2 -16 -3 -26t-2 -19t-1 -13t1 -17.5t2 -28.5q1 -35 3 -47q3 -10 15.5 -12t26 -4t24.5 -8t11 -22t-13 -16q-8 0 -26 -1t-41 -2t-48.5 -2.5t-49 -3
t-41.5 -2.5t-27 -2q-32 0 -32 25q0 13 8 20.5t17.5 15t17.5 17.5t8 29q14 101 14 144v78q0 118 -14 210q-5 28 -29 31q-10 2 -21 4.5t-19 13.5l-1 4q0 14 13 21t26 7l6 -1q15 6 53 23.5t57.5 26.5t25.5 11.5t12 8t12 11.5q18 14 29 14q18 0 18 -27t-7 -42q-7 -81 -10 -187
t-3 -110v-12l1 -32v-10q102 59 176 131q-14 2 -28.5 6.5t-14.5 22.5q0 27 59 27q111 0 111 -36q0 -26 -65 -26l-126 -99q52 -28 112 -114q24 -34 44.5 -65t33 -43t25 -16.5t25 -10t21.5 -12.5t9 -19zM98 560q32 -91 32 -273q0 -44 -8 -134.5t-12 -123.5h22q17 0 27 2l20 4
q-1 2 -1 7v12l27 337l5 113q0 50 -5 106q-17 -5 -47.5 -20.5t-59.5 -29.5zM299 239q29 -21 55.5 -45.5t36.5 -49t16.5 -42.5t18.5 -33q28 -35 84 -35q-25 22 -37 44t-25 48q-35 65 -105 127q-3 0 -10 -2.5t-14 -4.5q-18 -7 -20 -7z" />
    <glyph glyph-name="l" unicode="l" horiz-adv-x="324" 
d="M72 -15l-15 -1q-34 0 -49 16q-5 6 -5 14.5t6 14.5t13 6h81q2 0 4.5 7t2.5 10.5t-1 11.5t-2 18q-3 28 -9.5 76t-6.5 138l7 258q0 17 -6 32q-15 -3 -22 -3q-29 0 -29 24q0 16 47 34l30 12t51 23q42 19 66 23q13 0 19 -14t6 -25t-3 -28t-6.5 -33.5t-6.5 -30t-3 -45.5t-3 -81
t-6 -95q-10 -125 -10 -169q0 -62 7 -93q2 -24 9 -28q8 -6 32 -6h6q17 0 30.5 -2t13.5 -14q0 -28 -20 -31q-107 -3 -228 -19zM192 60q-7 35 -7 64v49q0 58 7 164q13 197 13 301q-8 0 -28 -7q-38 -13 -42 -21l-6 -12q6 -24 6 -60t-1 -52t-2 -34q-4 -44 -4 -105q0 -151 26 -300
l23 -1q7 0 11 2.5t4 11.5z" />
    <glyph glyph-name="m" unicode="m" horiz-adv-x="867" 
d="M240 -8l-151 -2q-32 2 -44 4.5t-11.5 19t11.5 20t24.5 4t24.5 2.5t12 14l-5 45q0 6 1 30.5t2 54.5q3 75 6 94q-2 7 -4.5 16.5t-5.5 17.5q-6 20 -12 20l-57 3q-5 0 -8.5 10t-3.5 13q0 10 7 11l114 19q15 3 32 12q32 17 46.5 17t20.5 -5t9 -13q4 -11 4 -35q23 8 46.5 17.5
t45.5 18.5q52 19 71.5 19t32 -8.5t25 -20t23 -22.5t17.5 -17q85 68 148 68q77 0 114 -41q16 -17 16 -46l-6 -179v-54q0 -41 20 -46q23 -6 30 -11t7 -19.5t-16.5 -18t-33 -3.5t-24 -1t-13.5 -2l-12 -2t-15 -1q-92 0 -92 32q0 62 9.5 125t9.5 126q0 27 -7.5 44t-33.5 19
q-26 -2 -46 -18q-39 -30 -39 -52q8 -23 8.5 -56.5t0.5 -55.5t-2 -46.5t-6 -48.5q-12 -61 -35 -63q-5 -1 -21.5 -2t-24 -1.5t-15 0t-17.5 2t-17 5.5q-15 9 -15 32q0 52 7 99t7 95t-18.5 76t-41.5 28q-41 0 -69 -36q-24 -32 -24 -60l-9 -195q6 -5 15 -6t18 -2.5t15.5 -5.5
t6.5 -16.5t-14 -21.5h-38zM138 338q10 -52 10 -89t-4.5 -90t-6.5 -114l54 -3q7 0 7 12l7 239q0 16 -1 33l-2 34q0 -1 -10 -3t-22 -5q-32 -6 -32 -14zM444 262q1 -21 1 -38t-1.5 -31t-3.5 -35q-7 -56 -12 -122q38 0 58 4q14 92 14 166t-22.5 115.5t-60.5 46.5q-30 0 -42 -8
q65 -20 69 -98zM696 216q0 -38 -16 -169q0 -9 51 -9q9 0 13 2.5t4 12.5l-7 96q0 34 5 69q8 66 8 85t-5 34t-15 22q-13 9 -55 9h-7q24 -65 24 -152z" />
    <glyph glyph-name="n" unicode="n" horiz-adv-x="631" 
d="M51 -20q-28 4 -28 35q2 14 8 17t16 3l8 -1q28 0 35 24q6 16 6 58.5t7 95t7 96t-3 76.5l-47 -2h-9q-9 2 -20 6t-11 12t6.5 15t8.5 11q6 -1 11 -1h22t29 1t18.5 1.5t13 1.5t26.5 1q28 0 78 22q12 -2 20.5 -7.5t12.5 -7.5l-5 -49q2 -2 7 -2q8 0 29 16q47 21 75 31.5t44 10.5
t31.5 -5t31.5 -15q37 -21 51 -54q23 -57 23 -95q0 -16 -5 -42q-8 -49 -8 -73q0 -38 5 -53.5t9 -27.5q9 -31 14 -33q5 -5 13 -6.5t15 -3.5q19 -5 19 -19t-47 -22q-84 -14 -121 13q-71 52 -71 212q0 134 -52 134q-26 0 -48 -26q-22 -25 -24 -48l-20 -198q0 -35 20 -48.5
t53 -16.5q7 -1 7 -10q0 -19 -36 -19q-13 0 -31 5q-36 10 -67.5 10t-126.5 -23zM141 364l1 -60q0 -9 -2 -32.5t-4 -53.5q-6 -88 -6 -116t1 -40t5 -18q4 -7 35 -7q15 0 21 3t6 14.5t-4 31.5q2 17 4.5 42.5t5.5 54t6.5 58.5t5.5 56q6 57 6 74v4q0 9 -1.5 19t-11.5 10
q-21 0 -41.5 -7.5t-22.5 -10.5zM404 403q-26 0 -28 -16q0 -7 5 -11.5t11 -11.5q16 -19 20 -48t3 -70.5t3.5 -84.5t19 -80t50.5 -55q10 0 20 10t10 21l-16 83l7 137q0 64 -33 105q-15 21 -72 21z" />
    <glyph glyph-name="o" unicode="o" 
d="M57 82q-20 29 -23 61t-3 74t29 81.5t74 67.5q94 60 202 60q94 0 158 -93q27 -40 41.5 -87.5t14.5 -96.5t-30 -95q-40 -62 -114 -80q-24 -5 -61.5 -11t-44.5 -6q-74 0 -135 27t-108 98zM225 364q-20 0 -46.5 -16.5t-50.5 -41.5q-57 -61 -57 -118q0 -48 29 -81
q77 -89 114 -89q-10 40 -23 82.5t-13 69.5t3 49.5t9 48.5q14 64 35 96zM223 183q0 -23 2.5 -50t9.5 -52q17 -61 49 -61q35 0 54 24t28 58q12 46 12 144q0 42 -10 73q-19 58 -36 58q-63 0 -90 -71q-19 -52 -19 -123zM394 363q25 -68 25 -148q0 -68 -34 -170q-1 -2 -1 -4
q0 -9 19 -9t38.5 13.5t32.5 35.5q26 44 26 106t-29 104t-77 72z" />
    <glyph glyph-name="p" unicode="p" horiz-adv-x="596" 
d="M242 -263q-157 -10 -191.5 -10t-34.5 16t7 23t16 11t17 9t14 34.5t12 66.5t9 73q4 48 4 165v36q0 33 -2.5 66t-18.5 55q-5 7 -14.5 11t-19.5 9q-23 11 -23 30q0 5 58 24.5t79 27.5q51 19 58 29h34v-56q9 4 12 10.5t9 14.5q23 28 49 39.5t56 11.5q48 0 65 -7
q38 -18 62.5 -36t38.5 -42q24 -42 24 -141q0 -33 -46 -101q-11 -17 -20.5 -28t-32.5 -26t-47 -26q-55 -25 -68 -25t-26 4t-28 9q-42 12 -61 12q-3 0 -4 -48q-4 -98 -7 -129l4 -64q36 0 36 -27q0 -8 -5.5 -14.5t-14.5 -6.5zM199 288l1 54v17q-34 -6 -67 -23.5t-35 -22.5
q17 -25 24.5 -45.5t8 -28t2.5 -19.5q4 -22 4 -44l-7 -75q0 -155 -19 -314l36 -1q19 0 26 6q14 100 14 222l-2 39q0 22 8 35q-1 8 -1 28v41q0 43 2 62q5 33 5 44v25zM236 82q52 -25 113 -25q42 0 62 55q16 44 16 97.5t-3 77.5t-12 41q-14 28 -63 54q-56 -28 -90 -114
q-29 -72 -29 -156q0 -16 3.5 -19.5t3.5 -6t-0.5 -2.5t-0.5 -1v-1zM441 89q84 77 84 158q0 47 -26 91q-31 50 -76 50q-1 0 -4.5 -0.5t-5.5 -0.5q41 -29 57 -96q4 -19 4 -47.5t-11 -65.5t-15.5 -57.5t-5.5 -25t-1 -6.5z" />
    <glyph glyph-name="q" unicode="q" horiz-adv-x="664" 
d="M340 -258q-26 0 -26 22v4q9 17 17 21t16.5 4.5t18.5 1t23 10.5q6 24 6 67t1 65.5t2 41.5q4 44 4 62t-7 22q-69 -69 -163 -69q-88 0 -144 52q-56 53 -56 140q0 42 26 103t75 99t114 38t105 -19q0 -3 11.5 -9t19 -10t12.5 -6v6q0 1 -1 6l-2 10l-2 10t-1 11.5t5.5 12t13 8
t16.5 3t25.5 6t39.5 11.5t45 10q41 6 89 6q24 0 24 -25q0 -18 -20 -25q-44 -37 -56 -100q-1 -10 -2.5 -31t-3.5 -47.5t-4 -55.5t-4 -55.5t-3.5 -48t-2 -39t0.5 -47.5t4 -60q7 -72 26 -111q6 -12 15.5 -14.5t19 -4t16.5 -7t7 -21t-7 -16.5q-22 2 -60 2t-86.5 -9t-103.5 -19z
M509.5 14q-1.5 20 -1.5 28.5t6 53.5v40l1 14q1 16 3 40.5t4 54.5t4 58q3 37 7 85q3 8 8 22t10 22q-53 0 -105 -28q-11 -6 -12.5 -16t-1.5 -28t1 -34t3 -38q3 -53 3 -153l-7 -325q36 0 70.5 9t36.5 11q0 18 -8 35t-10 27.5t-4 31.5t-4 45.5t-3.5 44.5zM277 363
q-94 -63 -94 -211q0 -46 8 -65q17 -42 55.5 -42t68.5 19.5t50 49.5q40 62 40 138q0 52 -26 85.5t-73 33.5q-12 0 -16 -1t-13 -7zM164 55l-19 96q0 70 11 110q12 45 39 109q-46 -4 -84 -70q-34 -60 -34 -109q0 -21 11 -52.5t13 -38.5q11 -20 51 -40q8 -5 12 -5z" />
    <glyph glyph-name="r" unicode="r" horiz-adv-x="533" 
d="M267 -8l-185 -7q-23 0 -38.5 6t-15.5 32q0 12 26 15q30 3 36 9q22 24 22 132q0 75 -4 111t-5 39q-4 16 -17.5 19.5t-28.5 5.5t-26.5 7.5t-11.5 20t7 16.5q20 1 67 7.5t74 10t49 6.5q46 8 50 8q23 0 23 -31q0 -45 -11 -76q13 11 27 32t30 42q40 52 68 52t49 -12t36 -31
q32 -41 32 -89q0 -67 -48 -95q-18 -10 -41 -10t-35 14t-19.5 34t-13.5 42.5t-13 40.5q-81 -76 -90 -169q-2 -27 -2 -54l1 -65q0 -13 8 -17t18 -6.5t18 -6t8 -15.5t-12 -19zM122 372q25 -48 25 -123.5t-5.5 -123.5t-7.5 -91q7 -3 18.5 -3t24 3t22.5 8q23 10 23 24
q0 126 7.5 192.5t15.5 121.5q-32 -1 -63 -3.5t-60 -4.5zM388 399q0 -47 11 -81q21 -65 41 -65q23 0 33 19.5t10 40t-8 35.5t-21 26q-29 25 -66 25z" />
    <glyph glyph-name="s" unicode="s" horiz-adv-x="490" 
d="M281 397q-83 0 -83 -25q0 -31 19 -55t47 -45.5t61.5 -41.5t61.5 -42q66 -52 66 -109q0 -70 -78 -96q-48 -16 -119.5 -16t-118 11t-75 14.5t-34 11.5t-5.5 19.5t5 21t12 18.5q20 26 24 37.5t6 21t6 16.5q8 18 25.5 18t30 -23t29 -50.5t40 -50.5t62.5 -23q67 0 67 37
q0 31 -70 84q-31 23 -66.5 48t-65.5 50q-71 58 -71 98t20.5 62t50.5 34q41 18 126 24l50 1l76 1q44 0 53 -6q13 -10 13 -38t-0.5 -49t-2.5 -37q-4 -33 -20 -33q-22 0 -39 17.5t-32.5 38.5t-32 38.5t-38.5 17.5zM84 35q14 -16 78 -21q-12 28 -34.5 54t-28.5 30
q-9 -12 -12 -37t-3 -26zM99 329q0 -18 20 -39t50 -44.5t65 -49t65 -52.5q70 -65 70 -114q7 3 16 6.5t17 8.5q19 12 19 32t-20.5 41.5t-51 45t-66 48.5t-65.5 52q-72 63 -72 114q-47 -7 -47 -49zM406 329l4 42q0 17 -8.5 26t-25.5 9q-22 0 -36 -2q44 -44 66 -75z" />
    <glyph glyph-name="t" unicode="t" horiz-adv-x="459" 
d="M151 466l-6 57q0 2 -38 -6q-11 0 -21 8t-10 20.5t9.5 20t24.5 12.5q17 6 73 14l18 -1q16 2 32 11l29 16q32 18 54 18t25.5 -11.5t3.5 -27.5l-2 -11q-11 -66 -11 -88t0.5 -34l1 -24t1 -22t0.5 -14q23 0 45 4t46.5 4t24.5 -20q0 -13 -6 -20q-28 0 -68 -5t-44 -6
q-8 -5 -16 -54t-8.5 -64.5t-2.5 -30.5t-5 -31q-7 -37 -7 -80q0 -20 15 -37t36 -17l38 2q14 0 25.5 -4t11.5 -19q0 -1 -1 -2v-1q-32 -44 -156 -44q-81 0 -117 57q-27 42 -27 115q0 12 14 159l-2 44h-123q-7 0 -10.5 9t-3.5 14q0 15 14 21q127 8 137 13q6 36 6 55zM290 574
q-89 -22 -89 -50q0 -48 -13 -177q-19 -177 -19 -197.5t2 -42.5t11 -38q19 -34 76 -34q2 0 9 0.5t9 0.5q-13 20 -16 39.5t-3 48t3 54.5t3 42v25q0 22 7 41q20 120 20 288z" />
    <glyph glyph-name="u" unicode="u" horiz-adv-x="645" 
d="M551 -33q-98 0 -151 120q-9 -39 -72 -75q-135 -76 -218 23q-41 49 -41 108v167q0 12 -6 19.5t-13 15t-13 16t-6 22.5q0 29 98 29h39q37 0 51 -2l37 -13q0 -36 -6 -104q-13 -131 -13 -165v-11q0 -29 5 -38q9 -19 34 -19q17 0 31 9.5t25 17.5q2 3 15 21q25 31 25 35v254
q0 31 110 33h51t28.5 -4.5t7.5 -15t-1 -14t-6 -5.5q-3 -22 -7.5 -40.5t-8.5 -36.5q-9 -40 -9 -79q0 -155 58 -194q20 -13 34.5 -18t14.5 -6q0 -15 -34 -33q-34 -17 -59 -17zM431 379q-13 0 -13 -83q0 -108 10.5 -158t24.5 -68q43 -53 88 -53q2 0 7.5 0.5t7.5 0.5
q-63 53 -63 210q0 29 9 63q17 63 17 95zM123 370q-11 -46 -11 -103.5t1 -85.5t6 -51t15 -45q27 -55 73 -55q-20 57 -20.5 66t-0.5 22t2.5 34.5t5.5 47.5q8 71 8 92t-0.5 29.5t-1.5 17.5q-2 45 -2 24l-6 7h-69z" />
    <glyph glyph-name="v" unicode="v" horiz-adv-x="587" 
d="M589 379q-13 -19 -43 -19q-8 0 -18 -2q-2 -53 -23 -104q-34 -83 -124 -249q-8 -15 -68 -15q-66 0 -91.5 10t-41 25.5t-28 47.5t-21.5 70t-17 74q-23 94 -42 130q-7 13 -23.5 13t-30.5 4t-17.5 8t-3.5 20q0 39 148 39q26 0 50.5 -13t31.5 -36q26 -84 48.5 -154.5
t35.5 -99.5t18 -38l10 -18q13 -23 16 -23q35 70 65 137.5t36 79.5q16 32 16 60.5t-13 35t-28.5 7.5t-28.5 4t-13 19t3.5 21.5t14.5 9.5q35 -3 69.5 -8t70.5 -5l13 1q13 0 21 -5t8 -27zM106 386q20 -100 67 -237q27 -80 49 -107h80q-19 33 -42.5 100.5t-38 105.5t-31.5 68
q-39 68 -84 70z" />
    <glyph glyph-name="w" unicode="w" horiz-adv-x="828" 
d="M213 1q-37 22 -37 25v6q-42 83 -56 130q-15 51 -39 159q-5 19 -19 28.5t-29 17t-27 17t-12 23t8 22.5t20.5 11.5t35 5t43.5 4.5q42 4 57 4q42 0 61 -39q19 -46 37 -116q38 -156 54 -185q3 -5 3 -6q13 6 31 76q4 16 7 24q12 33 23.5 87t14 65t2.5 25.5t1.5 26.5t6 19.5
t15.5 7.5q39 0 81 -6q14 -8 19 -26.5t7 -29.5t5 -20l11 -33q8 -24 17 -50q23 -67 28 -83q43 -101 57 -110q75 195 75 276q0 13 -2 23q-74 0 -74 43q0 24 45.5 24t71.5 -0.5t41 -3.5q25 -5 25 -23q0 -22 -30 -29q-8 -2 -14 -6q0 -15 -46.5 -172t-53.5 -181t-17.5 -35
t-41.5 -11q-71 0 -104 45q-33 44 -94 165q-11 22 -13 24q-14 -21 -34.5 -90t-24.5 -80l-3 -11v-31q-9 -4 -14 -8q-15 -12 -72 -2q-22 3 -46 3zM75 403q4 -10 20.5 -21.5t25.5 -30.5t16.5 -44t13.5 -52.5t11 -52.5q10 -61 14 -70t13 -24t19 -29q26 -34 37 -34q21 0 29 4.5
t8 7.5q0 20 -10 47q-9 27 -24.5 81t-26.5 89q-28 90 -46 122q-8 13 -30 13q-40 0 -70 -6zM447 399q-22 -66 -22 -92.5t7 -47.5t16.5 -41t20 -39t24.5 -46.5t28 -50t27 -34t26.5 -14.5t33.5 -3q-55 106 -120 308q-3 10 -5.5 19t-6.5 17q-9 17 -29 24z" />
    <glyph glyph-name="x" unicode="x" horiz-adv-x="669" 
d="M567.5 -31q-29.5 -2 -100.5 -2t-113 -13q-23 0 -26.5 7.5t-3.5 22t6.5 20t15.5 6.5t17 1.5t11 8.5q-15 19 -25.5 34t-20.5 28q-16 21 -44 51q-10 0 -43 -23t-55 -38.5t-32 -22.5t-13.5 -9.5t-5.5 -2.5q5 -11 19.5 -12.5t29.5 -2t27 -4.5t12 -18t-7.5 -18.5t-27.5 -4.5
h-48q-102 0 -150 4q0 8 2 18t22 14q48 9 60.5 21t33 27.5t43 32t44.5 32.5t38 30l4 6q-11 35 -31 62.5t-33.5 44t-26.5 36.5q-8 9 -13 25q-8 26 -31 31q-29 6 -36 13t-7 19q0 25 16 25h219q1 2 7 4t10 2t11.5 -2.5t14.5 -7.5q17 -12 17 -23t-4.5 -18t-5.5 -11h-50
q0 -5 20 -25t33 -33.5t22 -22t14.5 -16t14 -7.5t26.5 13t38 31q52 44 56 57q-14 1 -28 6t-14 22q0 14 20 14l13 -1q82 -6 115 -12q11 -4 11 -20q0 -21 -72 -21q-79 -69 -106 -97t-27 -30.5t7.5 -14t16.5 -25.5q22 -30 33 -41l25 -30q2 -2 8.5 -12.5t14.5 -22.5t14.5 -23
t8.5 -14q0 -8 16.5 -9t37 -2.5t37 -7t16.5 -22.5q-18 -16 -43 -20.5t-54.5 -6.5zM512 37q-70 101 -71 102q-7 0 -10.5 7.5t-16.5 25.5q-33 51 -126 127q-23 32 -38 46t-17 14h-66q0 -16 8.5 -23.5t24 -30t35.5 -52.5t49 -61q41 -36 73.5 -78.5t63.5 -87.5l35 -1q56 0 56 7v5
z" />
    <glyph glyph-name="y" unicode="y" horiz-adv-x="615" 
d="M433 363q-42 0 -42 21q0 1 4 9.5t8 9.5l194 12q3 0 14 -9l11 -10q0 -22 -56 -24q-14 0 -25 -1q-13 -89 -41.5 -171t-47.5 -136t-32.5 -86t-30.5 -65.5t-36.5 -66.5t-40.5 -59q-45 -58 -81 -58q-62 0 -139 87q-39 46 -53.5 74t-14.5 37t6 14.5t15 8.5q12 4 34 4t35 -2
t24 -12q25 -24 25 -99q21 -27 30 -36q20 -18 41 -18q23 0 59 61q35 59 35 97t-11.5 65.5t-29 54.5t-38 54.5t-45 68t-59 79.5t-86.5 61q-7 3 -17.5 5t-20.5 5q-25 9 -25 26.5t14 26t36 13t49 6.5t40 3.5t18 1.5t12.5 -1t16 -2t19.5 -5.5t28.5 -23t34.5 -41.5q33 -41 58 -83
l62 -101q13 -18 32 -55h6q4 9 23 71t46 179l-1 15zM116 353q17 -20 37.5 -34.5t37.5 -34.5q50 -60 86.5 -120.5t54.5 -92.5t21.5 -40t7.5 -17q10 -21 14.5 -21t8.5 7t7 16q6 18 6 30q-26 44 -51.5 95t-54.5 93q-14 17 -29.5 38.5t-32.5 41.5q-40 45 -68 45q-29 0 -45 -6z
" />
    <glyph glyph-name="z" unicode="z" 
d="M284 61q0 -4 29 -10q47 0 83 13.5t65 32.5t43.5 33.5t31.5 14.5t20 -4.5t3 -14t-2.5 -20.5t-6.5 -26q-5 -21 -12 -43t-7.5 -30t-2.5 -15q-6 -16 -19 -16q-12 0 -19 7q-88 25 -131 25t-79 -4.5t-73 -10.5q-138 -22 -169 -12q-9 3 -8.5 18t11 32t25.5 35t31.5 35t23.5 25
t13.5 15.5t13.5 16.5q18 23 22 27q15 24 28.5 49.5t27.5 51.5q31 59 63 91q-92 0 -142 -21q-47 -21 -67 -46q-11 -12 -22.5 -12t-18.5 9t-7 24t5 35.5t13 38.5q19 42 33.5 42t28 -4t39 -5t70.5 -2t91 -2q166 -4 174.5 -5.5t15.5 -4.5q15 -7 15 -26q-1 -5 -1 -11
q-4 -5 -14.5 -16.5t-21.5 -24.5q-45 -54 -77 -102t-50.5 -76t-33.5 -51q-35 -54 -35 -56zM190 42l13 -1q17 0 24 5.5t30 37t55 84t53 83t31.5 47.5t20.5 33q24 38 24 40v6l-95 6q-26 -17 -49.5 -48.5t-35.5 -50t-20.5 -35t-18.5 -35.5q-28 -52 -32 -57q-29 -39 -57.5 -72
t-42.5 -59q2 -1 6 -1h8q21 0 43 7t43 10zM509 77l-83 -36q8 -12 47 -12l21 1q4 0 15 47zM186 396l-67 11q-12 0 -20.5 -10t-9.5 -27q19 0 55.5 11t41.5 15z" />
    <glyph glyph-name="braceleft" unicode="{" horiz-adv-x="436" 
d="M99 347q11 -30 11 -78.5t3 -88.5t17 -72q32 -71 127 -71h28q-32 29 -53.5 59t-21.5 64.5t4 57.5t4 43t-6 30.5t-13.5 19t-13.5 16.5t-6 19.5t6 17t14 8.5q21 10 24 24l49 255q-32 -5 -70 -45q-9 -10 -16 -17q-24 -24 -28.5 -55t-6.5 -64t-10.5 -65t-41.5 -58zM409 62
q20 -11 20 -41q0 -8 -2 -13t-12 -8l-19 1q-35 0 -68 -7t-73 -7t-76.5 17t-64.5 46q-59 63 -59 146l7 83v25q-7 11 -25 17t-25 10.5t-7 16t6.5 17t16.5 7t20.5 2t16.5 3.5t11.5 7t9.5 9q13 14 13 16l25 168q5 41 102 89q38 20 77 32t62 12q51 0 51 -22q0 -9 -15.5 -14.5
t-35 -12t-37.5 -15.5t-26.5 -33t-10.5 -54t-2.5 -59.5t-4 -58.5t-13.5 -48t-17 -31.5t-7 -21.5t10 -24t10 -38t-6.5 -48t-6.5 -50t11 -47t29 -39q40 -36 88 -36q15 0 27 4z" />
    <glyph glyph-name="bar" unicode="|" horiz-adv-x="221" 
d="M139 128q0 -110 -19.5 -110t-22.5 22q-6 42 -6 134v105q0 30 -2 46t-4 35q-6 59 -6 139q0 134 27 134q6 0 15.5 -6t9.5 -13q2 -287 5 -374.5t3 -111.5z" />
    <glyph glyph-name="braceright" unicode="}" horiz-adv-x="436" 
d="M40 1l-19 -1q-10 3 -12 8t-2 15q0 28 20 39q12 -4 31.5 -4t42.5 10t41 26q40 37 40 85q0 26 -6.5 51t-6.5 48t10 38t10 24t-7 21.5t-17 31.5t-13.5 48t-4 58.5t-2.5 59.5t-10.5 54t-27 33t-38 15.5t-34.5 12t-15 14.5q0 22 51 22q50 0 139 -44q59 -29 79.5 -51.5
t22.5 -37.5l25 -168q0 -2 9 -12q14 -15 22.5 -19t19 -4.5t20.5 -1.5q23 -4 23 -26q0 -10 -7 -14.5t-16 -7.5q-27 -9 -34 -20v-25l7 -83q0 -83 -59 -146q-60 -63 -143 -63q-38 0 -71 7t-68 7zM323 180q3 40 3 88.5t11 78.5q-33 26 -41.5 58t-10.5 65t-6.5 64t-28.5 55
q-7 7 -16.5 17t-21.5 20q-26 21 -48 25l49 -255q3 -14 24 -24q20 -8 20 -22.5t-6 -22.5t-13 -17q-20 -22 -20 -45.5t4 -46.5t4 -57.5t-21.5 -64.5t-53.5 -59h28q133 0 144 143z" />
    <glyph glyph-name="asciitilde" unicode="~" horiz-adv-x="644" 
d="M64 260q-22 0 -22 25t18.5 41.5t40.5 36.5q40 36 123 36l36 -2l185 -50l9 -1q47 0 78 16t56 54q12 0 16.5 -4.5t8.5 -14.5q-13 -70 -100 -88q-24 -5 -47 -5h-14l-217 50h-12q-58 0 -101 -47q-17 -18 -30 -32.5t-28 -14.5z" />
    <glyph glyph-name="uni00A0" unicode="&#xa0;" horiz-adv-x="240" 
 />
    <glyph glyph-name="exclamdown" unicode="&#xa1;" horiz-adv-x="323" 
d="M125 334l-13 -108q0 -108 19 -177q2 -11 10 -12t21 -1q27 0 62 7q11 18 12 30t1 29t-4 33t-4 30l1 8l-55 198l-19 19q-9 -9 -20 -31t-11 -25zM69 222l-1 16q0 122 46 178q19 24 45.5 24t40 -18.5t17.5 -37.5l63 -298q0 -50 -42 -74q-34 -19 -87 -19q-19 0 -38 8.5t-23 24
t-6.5 43t-5.5 57.5q-4 43 -9 96zM100 618q-7 -10 -7 -23.5t7.5 -25t19.5 -19.5q25 -18 52 -18t40 17t13 42.5t-18 42.5t-47 17q-39 0 -60 -33zM60 550q-10 19 -10 43t10 41t26 29q32 25 73 25q62 0 83 -40q8 -14 8 -29.5t-2 -36t-10 -40.5q-18 -47 -63 -47q-86 0 -115 55z
" />
    <glyph glyph-name="cent" unicode="&#xa2;" horiz-adv-x="494" 
d="M398 217l4 1q6 0 12.5 -4t6.5 -18t-15.5 -28.5t-35.5 -30.5q-40 -33 -108 -33h-17q-9 0 -17 1l-25 -99q0 -3 -7.5 -8t-8.5 -5q-14 0 -18 8.5t-4 14.5t2 16.5t5 25.5q8 40 13 60v2q0 4 -6 10q-67 36 -92 61q-52 50 -52 110l1 15q22 163 144 244q40 27 91 42q9 44 23 71.5
t20 33.5q14 0 17 -10t3 -19l-7 -62q0 -2 17.5 -10.5t41.5 -21.5q63 -37 77 -63v-5q0 -2 1 -4q0 -23 -22 -23l-10 1q-34 39 -51 49q-31 20 -76 20q-49 0 -52 -20l-81 -341l-1 -9q0 -13 8 -16q28 -15 46.5 -20.5t50.5 -5.5q57 0 120 70h2zM98.5 393q-19.5 -44 -19.5 -83
q0 -72 50 -112l6 13l56 291h-6q-7 0 -21 -14l-17 -17q-29 -34 -48.5 -78z" />
    <glyph glyph-name="sterling" unicode="&#xa3;" horiz-adv-x="673" 
d="M600 143l7 2q11 0 20 -19q-4 -13 -15 -43l-16.5 -45t-10.5 -26t-17 -21.5t-26 -16.5q-51 -25 -122 0q-33 11 -66 24.5t-66 25t-64.5 11.5t-60.5 -9t-47.5 -9t-32 6.5t-26.5 16.5q-31 24 -31 47q0 12 1.5 23t12.5 16q3 -3 10 -8q22 -14 33.5 -22t13.5 -8h4q13 0 35 45
q19 40 27.5 76t13.5 54.5t10 40.5l-53 36v19q15 -8 64 10q11 4 15 7q6 6 16 37.5t20 52.5t32 62.5t49 75.5q60 78 129 78q50 0 79 -14q53 -28 75 -76q3 -5 4.5 -17t2.5 -18.5t1 -8.5q-23 0 -31 7t-14 15.5t-16 15.5t-34 7h-40q-28 0 -70 -69q-16 -26 -25 -48l-16 -40
q-15 -37 -22 -57l-7 -20l14 -19h102q0 -32 -64 -38q-41 -3 -57 -11t-19.5 -19t-10 -32t-12.5 -44q-16 -60 -19 -70l-1 -19q0 -24 13 -35t24.5 -16.5t24 -11.5t25.5 -12q20 -8 34 -15l26 -1l34 -1l60 2q46 53 80 126zM422 610q-45 0 -98 -84q-48 -77 -70 -167q-3 -8 -12 -35
t-20 -58q-29 -84 -35 -102q-15 -51 -15 -77q28 0 55 20q4 15 15 46t24.5 69.5t29 82t28.5 81.5q21 58 32.5 93t19 49t16.5 28q18 33 30 54z" />
    <glyph glyph-name="currency" unicode="&#xa4;" horiz-adv-x="488" 
d="M103 130l-12 -6h-3q-8 0 -15.5 5t-7.5 14v4q0 1 1 2l55 68v2q0 1 1 2q-1 0 -11.5 20.5t-38.5 68.5q-1 3 -1 14v14q0 18 7 37q13 34 13 53q-31 26 -37 34q-15 19 -15 43q47 0 82 -46l7 -1q15 0 27 9t23.5 19.5t23.5 19.5t32 9t40.5 -9.5t43.5 -9.5h8l56 68q1 2 6 4.5
t9.5 2.5t10 -6t5.5 -12t-8 -19q-20 -31 -34 -48l-8 -8q31 -37 47 -69t16 -77q0 -59 -56 -115v-13l43 -55v-19h-31l-56 56q-19 0 -36 -6.5t-38 -6.5t-42.5 10t-45.5 10l-3 -1h-2zM121.5 357.5q-0.5 -10.5 -0.5 -29.5t12.5 -41.5t32.5 -38.5q40 -32 93 -32q20 0 41 18
q6 4 19.5 10.5t26.5 14.5t22 19q15 20 15 66q0 51 -19 80q-7 11 -19 16l-81 31q-1 1 -6 1h-6q-35 0 -92 -58q-16 -17 -32 -35q-6 -11 -6.5 -21.5z" />
    <glyph glyph-name="yen" unicode="&#xa5;" horiz-adv-x="640" 
d="M208 0l-32 -2q-11 0 -17.5 3.5t-6.5 14t5.5 17t13.5 10.5q14 7 36 7q14 0 14 72v23l-1 17v11l-74 13l-25 25l13 12h93q7 0 7 9v10q0 11 -7 12q-58 8 -82 17.5t-24 13.5q0 14 6.5 16.5t16.5 2.5l89 -6v12l-93 310l-19 18q-4 4 -19.5 4t-32 1.5t-29 7t-12.5 20.5q0 1 2 4.5
t4 8.5q7 11 13 11h230q13 6 22 6q18 0 21 -13l70 -234l66 166q4 52 24 66q15 10 75 10h18q45 0 45 -20q0 -22 -68 -28q-18 -1 -31 -3l-7 -7l-117 -266v-46h80q2 0 4.5 -10.5t2.5 -11.5q0 -16 -7 -16h-79l-1 -36q0 -12 2.5 -23.5t3.5 -11.5h74q5 0 13 -15q0 -9 -13.5 -13
t-30 -6.5t-30 -4t-13.5 -5.5v-122l74 -14q7 -2 7 -15t-7 -16zM277 364l1 -44v-18q0 -64 -4.5 -126t-4.5 -126h76l12 5l1 57q0 52 -5 62.5t-10.5 13t-5.5 12.5t14 17v62q-19 5 -19 19q0 9 4 13.5t15 10.5v106l-68 217q-48 6 -62 6t-25.5 -2.5t-11.5 -3.5v-13l93 -260v-8z" />
    <glyph glyph-name="brokenbar" unicode="&#xa6;" horiz-adv-x="174" 
d="M64 257q29 0 36 -47q1 -12 1 -21t-1.5 -28t-3.5 -37q-5 -44 -7 -46l-13 -13l-12 13v179zM114.5 578.5q-0.5 -9.5 -0.5 -40t-13 -134.5h-25v202q0 7 7.5 10.5t14 3.5t10.5 -7t5.5 -16t1 -18.5z" />
    <glyph glyph-name="section" unicode="&#xa7;" horiz-adv-x="627" 
d="M523 141l-2 -31q-14 -18 -42.5 -45t-31.5 -30q-8 -8 -26 -14q-97 -13 -154.5 -13t-74.5 1t-28 8t-20 14t-19 15q-20 16 -30 26q-29 -44 -69 -44q0 28 33 80q34 54 61 54q8 0 12 -2q-3 -13 4 -42t8.5 -32t6 -7t10.5 -8q15 -10 21 -12l76 -13h6q39 0 67 11.5t41.5 25
t13.5 34.5q0 15 -2 18l-8 9q-20 24 -31 28l-150 51q-1 0 -6 5q-11 12 -20 20.5t-16 17.5t-14.5 30.5t-7.5 39.5q0 39 24 70.5t52 55.5q-21 17 -36 35.5t-15 46.5v11q0 4 1 7q25 91 131 100q30 2 50 2h28l43 -2q15 0 60.5 -17t51.5 -20q5 27 19 27q11 0 20 -15q0 -3 -2 -12
t-4 -19q-5 -25 -7 -31q-2 -2 -6.5 -7t-6.5 -6q-25 15 -59.5 31t-44.5 20.5t-19 8t-18 4.5t-19 1h-36l-30 -2q-19 -4 -45.5 -13.5t-30.5 -11.5q11 -20 80 -32q28 -4 55 -8q62 -9 132 -62q38 -28 73 -74v-25q0 -34 -10.5 -53t-26.5 -33t-36.5 -28t-39.5 -37q3 -3 10.5 -10
t15.5 -15q20 -20 24 -26q13 -14 13.5 -26t0.5 -30zM182 374q-13 -26 -13 -59.5t20.5 -50t51 -26.5t65 -18t62.5 -25q65 -40 53 -136q4 3 13 12l33 33t18 19q12 15 11.5 23t-0.5 9v5l-75 76q-35 4 -89 19t-58 16.5t-10 6t-14.5 10.5t-16.5 12.5t-18 14.5q-14 11 -33 59z
M231 365l1 -17q5 -10 20 -22.5t24 -19.5q13 -9 60 -9q50 0 50 51q0 38 -37 60q-31 18 -72 18q-26 0 -32 -2q-14 -30 -14 -59zM207 550l-2 -13q0 -8 2 -12q17 -28 44.5 -41t56.5 -20.5t56.5 -15t41 -21.5t19 -30.5t8.5 -34.5q4 -24 4 -66q8 0 20.5 7t19 11.5t20 13t24.5 18.5
q26 25 26 53q0 2 -5 12t-8 13.5t-10.5 11.5t-16 16t-15 14.5t-11 9t-19 10.5t-30.5 16q-22 12 -49 23q-26 6 -96 15.5t-80 9.5z" />
    <glyph glyph-name="dieresis" unicode="&#xa8;" horiz-adv-x="582" 
d="M131 729q-5 8 -5 18.5t6 20.5t16 16q21 14 42.5 14t31.5 -13.5t10 -34t-14.5 -34t-30.5 -13.5t-25.5 3t-17.5 9t-13 14zM346 715q-18 12 -18 27.5t6 25.5t16 16q19 14 41 14t32.5 -13.5t10.5 -34t-15 -34t-35 -13.5t-38 12z" />
    <glyph glyph-name="copyright" unicode="&#xa9;" horiz-adv-x="640" 
d="M301.5 585q7.5 2 9 2.5t26 13.5t43.5 13q16 0 18 -2q81 -26 134 -93q56 -70 56 -151q0 -53 -18 -94t-46 -88q-36 -60 -140 -64q-28 -1 -59.5 -1t-67.5 5t-67 18q-69 27 -106 92q-37 67 -37 101t16 69t41 66q59 72 137 96q14 5 17.5 6.5t11 3t16 3.5t16 4zM398 562
l-37 -12h-50q-85 -18 -144 -68q-71 -60 -71 -136q0 -102 74 -154q65 -46 176 -46q55 0 79 6q49 12 74 46q3 5 9 14.5t12 19.5t11 18t6.5 12.5t5.5 19.5t8 31l7 30q4 14 4 17t-2 10q-3 19 -6 33.5t-7.5 32t-17 38.5t-29.5 36q-30 28 -89 52h-2l-4 1zM437 273q12 -6 12 -19.5
t-14.5 -24t-33.5 -17.5q-37 -15 -61 -15t-39.5 6.5t-28.5 16.5q-15 13 -50 53q-13 18 -13 38v7q0 5 5 20t9 28q8 26 10.5 31t9.5 12l15 15q24 24 31 26.5t13 5t12 4t9 2t16 2.5t28 4t28 3.5t16 2.5l26 13q6 3 26 3q0 -20 -9 -44q-19 -48 -37 -48q-11 0 -13 7t-2 15
q-4 0 -12 2t-16 3q-21 2 -26 -13q-13 -81 -13 -109.5t2 -38.5t11 -28q31 7 89 37zM247 362l-2 -33l2 -31q6 -13 26.5 -30.5t24.5 -19.5q15 123 15 168l-15 -4q-5 -4 -13 -12t-16.5 -16t-14.5 -14.5t-7 -7.5z" />
    <glyph glyph-name="ordfeminine" unicode="&#xaa;" horiz-adv-x="495" 
d="M140 249l-62 2q-7 3 -7 13.5t8 13.5t40 4.5t65.5 3t57.5 3.5q49 4 92 12l81 18q14 0 17 -4t3 -17.5t-14 -20.5t-30 -7q-120 -19 -163.5 -20t-59.5 -1h-28zM134 663l31 -1q9 0 15 1.5t12 2.5q20 5 45.5 5t41.5 -3.5t40.5 -26t38.5 -41t14 -33t0.5 -29.5t3.5 -32
q6 -42 17.5 -57t22.5 -15.5t20.5 -2t16.5 -7.5t7 -19q0 -21 -6 -24q-104 -26 -147 -26q-14 0 -20.5 5.5t-14 13l-15 15t-13 13.5t-7 6t-5 -3.5t-7.5 -8.5q-19 -21 -44 -30.5t-46 -9.5t-43 13q-37 22 -39 55q-1 14 -1 24l1 22l44 43q20 18 50 23.5t56 8.5l6 50q0 2 -6 11.5
t-13 13.5q-28 -3 -68 -32q-11 -7 -23.5 -19.5t-26.5 -17.5q-16 0 -24 9.5t-8 23.5q0 67 35 67q3 0 59 12zM107 461.5q-10 -9.5 -10 -24.5t13 -26t24.5 -11t25.5 6.5t28 16.5q34 24 34 38.5t-7.5 20.5t-23 6t-30.5 -2.5t-29.5 -8.5t-24.5 -15.5zM251 627l-1 -45
q0 -75 22 -106q7 -8 12 -19.5t10 -22.5q12 -28 37 -28q12 0 34 6q-24 28 -36 164q-28 51 -78 51z" />
    <glyph glyph-name="guillemotleft" unicode="&#xab;" horiz-adv-x="424" 
d="M172 515q6 7 21.5 7t15.5 -7v-31l-124 -143q-6 -5 -6 -18l68 -105q15 -11 15 -44h-33l-117 162zM351 515q4 7 20.5 7t16.5 -7v-31l-125 -143q-6 -6 -6 -18l69 -105q11 -8 12.5 -20.5t1.5 -23.5h-33l-117 162z" />
    <glyph glyph-name="logicalnot" unicode="&#xac;" horiz-adv-x="582" 
d="M431 237l2 74h-21l-66 1h-29q-57 0 -113.5 -9.5t-112 -9.5t-55.5 26q0 37 63 37q304 29 382 39q35 0 38 -101q1 -30 1 -65l-1 -61l-1 -56l-6 -6l-18 -2q-33 0 -42 13q-4 6 -5.5 14.5t-3.5 18.5q0 33 -6 52t-6 35z" />
    <glyph glyph-name="uni00AD" unicode="&#xad;" horiz-adv-x="510" 
d="M428 232q-120 -8 -186 -8h-127q-60 0 -60 23q0 17 26 29l194 -6l144 6q14 0 24 -3t10 -16q0 -25 -25 -25z" />
    <glyph glyph-name="registered" unicode="&#xae;" horiz-adv-x="727" 
d="M49 275l-1 22v66l1 25q0 2 3 12l6 17q2 6 4 10t6.5 13.5t5.5 11.5q9 9 24.5 25.5t31.5 32.5q41 40 45 42.5t20.5 9.5t36.5 15q56 23 64.5 25t21 4t26.5 4q35 5 41 5t13 -1.5t16 -3.5q15 -4 22.5 -7t22.5 -11.5t33 -18.5q50 -28 60 -34q127 -77 127 -227q0 -117 -95 -176
q-46 -29 -71.5 -38t-37.5 -13l-23 -7q-10 -4 -13 -4l-43 -2h-30l-40 2q-3 0 -30 10.5t-44 17t-32 12.5t-44 23.5t-56 40.5q-64 52 -71 97zM434 574q-6 3 -8.5 4t-21 1t-48 -5.5t-62.5 -14.5q-75 -21 -102 -42t-47.5 -40t-36.5 -41q-34 -51 -34 -104q0 -49 13 -70
q4 -7 36 -38t36 -34.5t9.5 -7t11.5 -7.5t11.5 -8t20 -11.5t38 -19.5t46.5 -20q49 -17 90 -17t78 11t72 30q81 44 104 97q8 17 13.5 32t8.5 23t3 9q0 13 -5.5 40.5t-10 47.5t-22.5 46t-43 47q-57 49 -150 92zM236 236l-40 1h-9l-12 13q6 13 23 18t27 7v164q-25 -11 -63 -38
q-2 0 -7 5t-5 10.5t6 13.5t14 15q15 13 24 16.5t19 7t22 7.5t23.5 7.5t18 5.5t22 6l31 8t29 7t17.5 4l19 1q32 0 52 -19.5t20 -51.5q0 -28 -3 -31q-2 -7 -18 -21.5t-19 -15.5q2 -3 7.5 -10t11.5 -15q20 -27 23 -35t5 -12q5 -10 15 -16q5 13 20.5 14.5t25.5 1.5
q0 -41 -23 -60q-9 -7 -24 -7t-24.5 14t-18.5 32t-21 34q-20 25 -52 20q-11 -2 -16 -2q0 -7 -2.5 -15.5t-3.5 -17.5q-3 -21 13 -27q10 -3 22 -6t19 -5t10 -2v-12q0 -4 -32.5 -8.5t-45.5 -4.5l-58 -1h-42zM250 344v-26q0 -28 11 -37t21 -9q25 0 31 3q3 24 6 62t5 59.5t2.5 28
t0.5 21.5v21q-34 0 -64 -15q-13 -59 -13 -108zM390 479l-27 -2q0 -1 -1 -7q-4 -15 -7 -26q-5 -20 -5 -24v-8q0 -24 12 -24t25.5 5.5t24.5 14.5q28 22 28 43q0 28 -31 28h-19z" />
    <glyph glyph-name="degree" unicode="&#xb0;" horiz-adv-x="232" 
d="M73 682l34 2q38 0 60 -15q42 -28 42 -66q0 -35 -31 -67q-31 -34 -64 -34q-23 0 -29 7l-55 68q-8 8 -8 30t14.5 44t36.5 31zM77 630.5q-6 -8.5 -6 -21t3 -22.5t8 -19q14 -22 28 -22t23.5 5.5t16.5 14.5q16 17 16 39.5t-15 28t-41.5 5.5t-32.5 -8.5z" />
    <glyph glyph-name="plusminus" unicode="&#xb1;" horiz-adv-x="433" 
d="M140 55l-52 1h-18q-14 8 -14 23t14 15l50 -13h12q72 0 183 26q30 7 57 13q3 -6 3 -20q0 -16 -2 -18q-6 -8 -38.5 -13t-46.5 -7t-26 -4t-15 -2h-13l-54 -1h-40zM230 572l3 -63q1 -7 2.5 -18t4 -21t4 -17t2.5 -7h113v-25q-88 -7 -126 -25q-4 -17 -8 -44t-4 -30v-51
q-1 -3 -5.5 -8t-7.5 -6l-12 14v109l-38 3l-51 -12q-12 -3 -37 -3v28l126 38l-1 31l1 31q0 14 5.5 45t6.5 31h22z" />
    <glyph glyph-name="uni00B2" unicode="&#xb2;" horiz-adv-x="383" 
d="M87 378h-25q-2 1 -12 10.5t-13 14.5v6q0 15 13 20q2 0 12 -1q29 -1 51 20t35 44q29 47 29 95q0 23 -4 33t-32 10t-49.5 -20t-41.5 -43q-10 3 -11.5 10t-1.5 15v12q41 65 130 65q60 0 91.5 -28.5t31.5 -90.5q0 -33 -13 -54t-32.5 -37.5t-41.5 -32t-40 -36.5
q45 -12 77.5 -12t46 14t22.5 31.5t18 31.5t27 14q0 -79 -34 -102q-19 -13 -44 -14t-34 -1h-33l-21 1q-1 0 -101 25zM226 617q2 -80 -63 -176q66 35 92 82q10 18 10 37q0 50 -39 57z" />
    <glyph glyph-name="uni00B3" unicode="&#xb3;" horiz-adv-x="371" 
d="M249 524q90 -70 90 -135q0 -38 -1 -41q-2 -5 -14 -13q-66 -39 -132 -39h-36q-16 0 -32 14q-5 2 -19.5 18t-22.5 24l-9 9q-2 1 -13 5q-13 6 -13 10v3q0 19 33 19h6l63 -63q26 42 26 107v9l-1 26v9l-38 -13h-7q-19 0 -19 19q0 8 3 11t8.5 6.5t12.5 6.5q15 8 26 13.5t14 7.5
v83q-5 0 -17.5 1t-26.5 2q-36 3 -44 1l-38 -12q-2 -1 -3 -1h-4q-8 0 -13.5 5.5t-5.5 15.5t9 16t21 9t25 3.5t22 1.5l100 13q22 0 52 -6t36 -7q13 -3 13 -16v-23q0 -30 -26 -57q-10 -11 -18 -19.5t-8 -16.5v-3q0 -1 1 -3zM224 486q-15 -77 -15 -156q43 0 85 24q19 12 19 38
v10q0 7 -2 10t-11 12t-19 18.5t-19 18.5l-12 12t-13 8t-13 5zM224 637h-13v-79q15 0 35 24q17 23 17 38t-27 15q-6 0 -12 2z" />
    <glyph glyph-name="acute" unicode="&#xb4;" horiz-adv-x="242" 
d="M202 768l4 1q10 0 18 -6t8 -12t-0.5 -6t-0.5 -1v-1l-188 -60q-2 -1 -4 -1h-7q-11 0 -16 3t-5 15v5q0 2 1 3l188 60h2z" />
    <glyph glyph-name="uni00B5" unicode="&#xb5;" horiz-adv-x="719" 
d="M617 -34l-13 1q-9 1 -23 3t-29 4q-36 5 -37 5.5t-5 4.5l-11 11q-15 15 -19 20t-8.5 15.5t-6.5 12.5h-5q-15 0 -33 -9q-35 -19 -46 -19q-26 0 -29 3q-10 2 -34.5 24t-27.5 26l-13 -25v-151l38 -38l-38 -50h-239v31h76v44q0 11 1 47.5t2 85t2.5 104t2.5 104.5q2 114 4 132
v13q-10 9 -17.5 17t-13 13t-7.5 7q10 17 51 25q104 13 151 13q2 0 7 -5t5 -8t-5 -13t-7 -12l-2 -108l1 -51l1 -37q0 -2 1.5 -10t2.5 -18q4 -26 10 -45q18 -64 61 -90q0 -2 12.5 -2t12.5 2q67 44 74 143q2 28 2 53t-0.5 41.5t-1.5 33.5t-11 74q-1 2 -7 12.5t-6 12.5q0 3 8 10
q21 15 30 15h138l13 -13q-10 -15 -38 -25v-160q6 0 12.5 1.5t12.5 0.5q14 -1 14 -18q0 -8 -6 -9.5t-14 -2.5q-19 -1 -19 -11v-7q1 -11 3 -31l4 -40t3.5 -36t2.5 -21t2.5 -15.5t3.5 -20.5t4 -17.5t2 -8.5q2 -1 12 -1l51 1q2 0 7 -4.5t5 -7.5q-9 -26 -74 -26zM148 68v-88
q0 -101 3 -113l13 -26h75v549h-63q-8 0 -16 -72t-9 -82t-1 -38q-2 -82 -2 -130zM571 2l-5 66l-12 87q-1 15 -2.5 49.5t-4 73.5t-4.5 73.5t-3 48.5h-37v-357q0 -41 68 -41z" />
    <glyph glyph-name="paragraph" unicode="&#xb6;" horiz-adv-x="697" 
d="M316 -1l-72 1h-24q-13 6 -13 21.5t13 15.5h101v198q-43 4 -94 10t-94.5 23.5t-73 50.5t-29.5 82.5t16 83.5t43 61q54 55 131 79q46 14 118 31t81 18t14 2l18 1q48 0 90 -8t94 -19q7 -4 18 -15t11 -23h-117q0 -31 5.5 -62t7.5 -63l12 -424q4 -1 12.5 -3t17.5 -6
q21 -8 21 -21t-13 -21q-8 -1 -29.5 -2.5t-46 -3.5t-46 -4t-26.5 -2h-20l-72 -1h-54zM484 85l1 121v35q0 157 -26 296q-12 60 -12 88h-51l1 -38q1 -18 2.5 -60.5t4 -97.5t5 -116.5t5 -116.5t5 -98t3.5 -61h12l50 13v35zM258 568l-1 -56v-70q0 -81 14 -144q5 -8 17 -17
t17.5 -9t10.5 5t5 10v20l1 64v21q0 57 -1 104.5t-13 103.5h-12l-38 -13v-19z" />
    <glyph glyph-name="periodcentered" unicode="&#xb7;" horiz-adv-x="226" 
d="M52.5 269q-6.5 10 -6.5 23t7.5 24.5t19.5 19.5q25 18 51.5 18t39.5 -16.5t13 -42t-18 -42.5t-37.5 -17t-31.5 4t-21.5 11.5t-16 17.5z" />
    <glyph glyph-name="cedilla" unicode="&#xb8;" horiz-adv-x="192" 
d="M80 6q8 10 20 10t12 -16t-7 -29.5t-7 -23.5t1 -12l63 -62q6 -7 6 -27.5t-5.5 -37.5t-16.5 -32q-24 -34 -56 -34q-47 0 -64 28q-7 11 -7 22.5t6 11.5q9 0 20.5 -8.5t17.5 -12.5t16 -4t20 7t17 18q14 23 14 40.5t-9 25t-21 12.5t-23 9.5t-15 12.5v25q0 51 18 77z" />
    <glyph glyph-name="uni00B9" unicode="&#xb9;" horiz-adv-x="334" 
d="M308 383q-24 -12 -38 -12q-102 -16 -218 -16q0 35 13 39q6 1 13.5 -0.5t14 2t16.5 13t10 12.5v151q-12 -9 -20.5 -23t-17.5 -27q-23 -31 -50 -31v18q8 8 34 45.5t28 41t5.5 11t8 15.5t8 15.5t4.5 9.5q12 20 34 23.5t36.5 3.5t23.5 0.5t16 -1.5q16 -5 16 -28t-6.5 -47.5
t-6.5 -50.5v-13l13 -126q63 13 63 -19v-6zM151 404l43 4q3 1 8 6t5 7v226q-10 3 -23 -3.5t-15 -8.5q-5 -11 -8.5 -28.5t-3.5 -21.5z" />
    <glyph glyph-name="ordmasculine" unicode="&#xba;" horiz-adv-x="482" 
d="M145 205l-34 -1q-9 0 -15.5 3t-6.5 15t8.5 15.5t22.5 5t50.5 4t77.5 5.5t77.5 6t49.5 3.5t26.5 -2.5t13.5 -20q0 -15 -29 -20q-7 -1 -10 -1zM231 304l-61 1q-41 9 -96 66q-16 17 -29 34q-10 16 -11.5 31t-1.5 34q0 79 73 144q30 26 62 40.5t52 14.5q46 0 78.5 -10
t49.5 -24.5t35 -33t32 -39.5q32 -48 32 -92.5t-20.5 -75.5t-51.5 -51q-62 -39 -143 -39zM75 472l-1 -7q0 -27 8 -35l75 -75q8 -7 16.5 -7t15.5 0.5t12 0.5q-43 54 -54 127q-3 19 -3 33q0 29 3 40q4 14 23 50q-16 0 -32 -13t-26 -27t-17.5 -25.5t-12.5 -21.5q-7 -17 -7 -40z
M352 578q13 -55 13 -105.5t-39 -104.5h13q43 28 56 51t13 53t-16.5 59t-39.5 49v-2zM194 537.5q-6 -17.5 -6 -31t6 -34.5t16 -42q26 -51 54 -51q26 0 44 37q11 22 18 58q0 80 -29 116q-13 16 -31.5 16t-32 -10.5t-23.5 -25.5t-16 -32.5z" />
    <glyph glyph-name="guillemotright" unicode="&#xbb;" horiz-adv-x="424" 
d="M36 515q0 7 12 7q21 0 25 -7l161 -179l-117 -162h-33q0 11 1.5 23.5t12.5 20.5l69 105q0 12 -6 18l-125 143v31zM215 515q0 7 12 7q19 0 25 -7l160 -179l-117 -162h-33q0 33 15 44l68 105q0 13 -6 18l-124 143v31z" />
    <glyph glyph-name="onequarter" unicode="&#xbc;" horiz-adv-x="832" 
d="M533 37l-46 -1h-15v26q4 1 13 2.5t19 4t19 4t13 3.5q25 8 25 11v83h-126q-6 0 -10 9.5t-4 16.5l1 5q12 12 38 25q17 29 79.5 110t68.5 88t14.5 14t18 15t19 15t13.5 10q4 1 15 4t14 3q0 -131 -16 -221q-1 -4 4.5 -14t8.5 -12q3 -1 7 -1h10l21 1l25 14q7 0 10 -7.5
t3 -12.5l-1 -6q-21 -12 -39.5 -17.5t-32.5 -12.5q-29 -17 -29 -65v-18q9 -26 13 -26h117q0 -28 -47 -35q-12 -1 -19 -2t-32 -2.5t-55 -4t-59 -4t-38 -2t-20 -0.5zM649 672l-1 -6q-2 -3 -11 -17t-52 -71.5t-118.5 -171t-112.5 -175.5t-46 -79.5t-19 -37.5q-18 -36 -30 -64
q-11 3 -12.5 10t-1.5 15v7q0 2 2 6.5t8.5 19.5t14.5 31q24 47 63 109t70.5 111.5l63 99t57.5 89.5q58 89 62 93l50 50q13 -5 13 -19zM662 369l-1 35v11q-19 -11 -26 -27t-11 -32t-8 -38.5t-8 -44.5q-10 -55 -10 -60.5t1 -19.5t3 -30q5 -37 9 -50q6 -13 18 -13l7 1
q26 95 26 257v11zM497 213q16 -4 36 -4t28 4q0 1 2 7t4 14t3.5 16.5t2.5 13.5v63q-2 -1 -6.5 -6t-6.5 -8l-9 -13q-7 -11 -15 -23q-25 -35 -31 -48t-8 -16zM309 352q-45 -13 -61 -13h-40l-87 -12q-3 -1 -17 -1h-32t-15 1l-12 25q43 14 63 25q1 7 2.5 25t4 38t4 38t2.5 25
l-1 9q-16 0 -35 -8q-37 -17 -53 -17v28q4 3 15 10t23 15t22.5 15.5t15.5 10.5l13 13q0 2 5 12.5t7 12.5h12q21 -1 30 13.5t16 27.5q18 34 36 34q16 0 19 -13q15 -59 14 -118.5t-3.5 -96t-2.5 -74.5h55v-25zM222 501l-1 53v12q0 5 -5 19t-8 19l-50 -64l-12 -151
q-2 -10 16 -13q7 -1 13.5 -0.5t9 0.5t8 -0.5t11.5 0.5q13 2 17 13v17l1 54v41z" />
    <glyph glyph-name="onehalf" unicode="&#xbd;" horiz-adv-x="819" 
d="M612 648q2 2 16 12.5t21.5 16.5t10.5 8q8 4 15 4v-28q0 -1 -19.5 -25.5t-34.5 -44t-30.5 -39t-30 -37t-20.5 -25.5q-17 -25 -29 -31l-238 -414l-76 -76h-15q0 9 14 31q24 39 26 43.5t6 11.5t8 15l8 15q3 7 4 10zM631 -7l-31 1q-2 1 -9.5 4.5t-16 8t-16 8t-10.5 4.5
t-13.5 3t-22.5 4t-23 4t-15 2l-1 13q0 17 9.5 21.5t16 7t13 8.5t23 22t34.5 34q44 44 58 59q25 28 25 88q0 10 -2.5 23t-15 13t-23.5 -5.5t-21 -13.5q-22 -19 -26.5 -27.5t-10.5 -21t-12 -26.5q-15 -36 -16 -41t-9 -5t-12.5 9t-4.5 16.5t1.5 18.5t3.5 23q5 28 6.5 32.5
t8 11.5t15.5 16l16 16q25 25 63 36.5t63.5 11.5t44.5 -6.5t34 -19.5q34 -28 34 -69q0 -22 -10.5 -43t-15.5 -26.5t-19 -19.5l-30 -30q-16 -16 -31 -30.5t-19 -18.5t-11.5 -9t-16 -11.5t-16 -12t-8.5 -6.5q-3 -5 -3 -21.5t3 -16.5q2 -5 18.5 -9t22 -4t18.5 7.5t27 17.5
q23 17 40 38q14 -7 14 -19l-1 -3v-3q-49 -64 -120 -64zM679 337q0 -80 -2 -94q-5 -33 -15 -47q-6 -11 -32 -47.5t-30 -41.5q55 23 100 69q52 55 52 107q0 31 -22.5 42.5t-50.5 11.5zM235 686q14 -9 26 -38q0 -69 6 -131t8 -72.5t4 -22.5q5 -30 7 -38q3 0 10 -2t15 -4
q31 -8 37 -19q-28 -21 -61 -22t-51.5 -2.5t-32.5 -3t-30 -4t-30.5 -4t-18.5 -2t-13.5 -2.5t-20.5 -4q-28 -5 -31 -7h-6q-8 0 -14 5.5t-6 15t10.5 15.5t25 10t29.5 7.5t24 9.5q1 6 2.5 20.5t4 30.5t4 30t2.5 19l-3 74q-13 0 -29 -9q-29 -15 -40.5 -15t-18.5 1.5t-10 12.5
l12 12q12 9 35.5 25.5t36 25.5t17.5 12q-3 10 3.5 23t8 14.5t9 3.5t16.5 4t16 3.5t10.5 3t18 10.5t18.5 14zM222 610l-12 -6q-10 -5 -17.5 -11t-7.5 -8v-217q13 0 25 14.5t12 26.5v201z" />
    <glyph glyph-name="threequarters" unicode="&#xbe;" horiz-adv-x="889" 
d="M187 15q0 3 42.5 56.5t85 108t89 115t88.5 115.5q133 172 140.5 184.5t11 19.5t7 16.5t8.5 16.5q11 15 37 15q0 -43 -17 -66l-402 -515q-23 -19 -38.5 -44t-37.5 -44q-14 7 -14 19v3zM616 69l-4 75h-147q-13 0 -13 18v4q0 5 18 28t20 26q19 19 45.5 46.5t56 56.5t58.5 57
l51 52q51 51 53 51h13q4 0 8 -39t4 -48l-12 -89l4 -107h58q15 0 15 -13q0 -12 -29 -16q-7 -1 -10.5 -2t-10.5 -2.5t-15 -4t-15 -4t-10 -2.5v-113l75 13h8q7 0 10 -2t8 -11q-19 -30 -101 -38h-138l-62 -12l-62 -3q0 30 30 37q13 3 29 4t29 3q33 6 36 35zM742 358l1 38
q0 4 -0.5 18.5t-0.5 18.5q-32 -27 -43.5 -63t-18 -68.5t-12 -62.5t-9.5 -61q-9 -70 -9 -122h67q1 10 2.5 37t3.5 57t4 57t2 38v12zM503 181q68 -12 90 -12h11q7 2 16 12.5t9 12.5l25 138h-13l-7 -7q-8 -7 -18 -17l-20 -20q-26 -26 -57.5 -63.5t-35.5 -43.5zM138 295l-14 -1
q-11 0 -25.5 10t-24.5 16t-18.5 10.5t-14.5 9.5q-12 12 -12 35q25 0 38 -11q24 -19 40 -19h6q9 18 22.5 62.5t14.5 48.5q3 6 -2 21h-59q1 6 3 11.5t3.5 11t4 8t8 4.5t12.5 4q16 5 18 5q26 11 38.5 36t12.5 54l-1 6v4q-6 6 -20 9.5t-18 4t-16 0.5h-47.5t-24.5 -1q12 12 13 12
q36 15 75 15t63 -1.5t51 0.5l63 12h20q11 0 21 -2.5t10 -16.5l-1 -7l-75 -87q-10 5 -18.5 -3t-8.5 -14q0 -13 30 -30q32 -17 40.5 -33.5t8.5 -39t-2 -38.5t-8 -29q-10 -26 -42 -52q-3 -2 -13 -7l-12 -6zM264 496l-26 1h-22q-14 0 -53 -88q-16 -36 -16 -81q34 0 66.5 1.5
t58.5 11.5q56 22 56 95v14q0 8 -1 9.5t-10.5 11.5t-12.5 11.5t-7 1.5h-8l-12 -1q-2 1 -6.5 7t-6.5 6zM238 621q-12 -2 -12 -33v-29q64 47 101 87z" />
    <glyph glyph-name="questiondown" unicode="&#xbf;" horiz-adv-x="527" 
d="M381 634q0 -75 -69 -75q-31 0 -53 22t-22 54.5t25.5 52.5t62.5 20q30 0 45 -24q11 -18 11 -50zM343 642l1 4q0 7 -3 13.5t-20 6.5q-47 0 -47 -34q0 -30 26 -30h4q1 0 2 1l37 37v2zM201 510l152 6q14 0 21 -11t7 -22l-1 -11l-124 -143l-55 -160q-2 -4 -2 -30
q0 -47 26 -101q9 -6 16.5 -14.5t14.5 -16.5q18 -19 35 -19q63 0 115 68q49 64 49 131l-1 37q-10 38 -63 38q-48 0 -48 -82q2 -6 19 -49q0 -12 -4 -15.5t-15 -3.5h-13q-13 26 -22.5 53t-20.5 53v6q0 39 34 62q29 19 64 19t54.5 -10t31.5 -27q22 -31 22 -80t-17 -91.5
t-46.5 -76t-69.5 -54.5t-82 -21t-85 11t-79 34q-82 52 -82 133q0 36 12.5 81.5t19.5 57.5zM162.5 86.5q-7.5 23.5 -7.5 48t2 34.5q31 167 137 291h-23t-18 -1q-21 -3 -22 -5l-154 -298v-74q0 -35 49 -62q42 -22 75 -25q0 1 -6.5 9.5t-6.5 15.5q-18 43 -25.5 66.5z" />
    <glyph glyph-name="Agrave" unicode="&#xc0;" horiz-adv-x="847" 
d="M371 8q0 -13 -7 -13h-308q-9 0 -13.5 7.5t-4.5 18.5t12 20q12 1 27.5 2t28.5 2q33 2 36 7l103 274l1 7q0 38 -81 45q-18 1 -28 1q-40 0 -69.5 -27.5t-29.5 -70.5q0 -29 28 -29q20 0 25.5 9t5.5 24v24q3 9 7 11t12.5 2t14.5 -5t9 -12q8 -15 8 -29t-6.5 -26t-16.5 -22
q-24 -22 -45 -22q-39 0 -60.5 19.5t-21.5 53t10 59.5t28 45q39 41 94 41q38 0 68 -6.5t64 -29.5l2 -1q1 0 5 3t4 5l81 211v3q0 2 -2.5 5.5t-4.5 3.5h-136q-7 0 -7 8.5t4.5 22.5t13.5 14l435 9q8 0 12 -8.5t4 -24.5t-10 -16h-91l73 -217q2 -11 5 -15t23 -4t50.5 9.5t64.5 9.5
q17 0 17 -19q0 -12 -9 -18.5t-20 -7.5l-91 -12q-12 0 -12 -11l102 -295l54 -14q12 -1 12 -13.5t-6 -19.5q-7 1 -13 1h-11l-189 -5q-11 0 -14 4t-3 18t14 19.5t25.5 8.5t21 2.5t20.5 -1.5q22 -2 35 -2v12l-88 273h-11q-4 0 -43.5 -35.5t-49.5 -45t-13.5 -18.5t-18.5 -9
t-23.5 9t-16 20t-16 20t-16 9t-7.5 -0.5t-1 -0.5h-1l-79 -218q-2 -2 -2 -9.5t5.5 -9.5t12.5 -4.5t12.5 -7.5t5.5 -18zM192 64v-10q0 -4 1 -8.5t12 -4.5h74q4 0 10 9.5t13 18.5l194 532v17h-97l-206 -549q-1 0 -1 -5zM439 338l-1 -6q0 -8 2.5 -10t9 -6.5t15 -10.5l17 -12
t20.5 -13l103 85q12 6 12 7.5t-1 3.5v2l-76 216zM523 725l1 -5q0 -12 -5 -15t-16 -3h-7q-2 0 -4 1l-188 60q-1 0 -1 1v2q0 11 8 17t13 5.5t6 -0.5h5l188 -60v-3z" />
    <glyph glyph-name="Aacute" unicode="&#xc1;" horiz-adv-x="847" 
d="M371 8q0 -13 -7 -13h-308q-9 0 -13.5 7.5t-4.5 18.5t12 20q12 1 27.5 2t28.5 2q33 2 36 7l103 274l1 7q0 38 -81 45q-18 1 -28 1q-40 0 -69.5 -27.5t-29.5 -70.5q0 -29 28 -29q20 0 25.5 9t5.5 24v24q3 9 7 11t12.5 2t14.5 -5t9 -12q8 -15 8 -29t-6.5 -26t-16.5 -22
q-24 -22 -45 -22q-39 0 -60.5 19.5t-21.5 53t10 59.5t28 45q39 41 94 41q38 0 68 -6.5t64 -29.5l2 -1q1 0 5 3t4 5l81 211v3q0 2 -2.5 5.5t-4.5 3.5h-136q-7 0 -7 8.5t4.5 22.5t13.5 14l435 9q8 0 12 -8.5t4 -24.5t-10 -16h-91l73 -217q2 -11 5 -15t23 -4t50.5 9.5t64.5 9.5
q17 0 17 -19q0 -12 -9 -18.5t-20 -7.5l-91 -12q-12 0 -12 -11l102 -295l54 -14q12 -1 12 -13.5t-6 -19.5q-7 1 -13 1h-11l-189 -5q-11 0 -14 4t-3 18t14 19.5t25.5 8.5t21 2.5t20.5 -1.5q22 -2 35 -2v12l-88 273h-11q-4 0 -43.5 -35.5t-49.5 -45t-13.5 -18.5t-18.5 -9
t-23.5 9t-16 20t-16 20t-16 9t-7.5 -0.5t-1 -0.5h-1l-79 -218q-2 -2 -2 -9.5t5.5 -9.5t12.5 -4.5t12.5 -7.5t5.5 -18zM192 64v-10q0 -4 1 -8.5t12 -4.5h74q4 0 10 9.5t13 18.5l194 532v17h-97l-206 -549q-1 0 -1 -5zM439 338l-1 -6q0 -8 2.5 -10t9 -6.5t15 -10.5l17 -12
t20.5 -13l103 85q12 6 12 7.5t-1 3.5v2l-76 216zM610 788l4 1q10 0 18 -6t8 -12t-0.5 -6t-0.5 -1v-1l-188 -60q-2 -1 -4 -1h-7q-11 0 -16 3t-5 15v5q0 2 1 3l188 60h2z" />
    <glyph glyph-name="Acircumflex" unicode="&#xc2;" horiz-adv-x="847" 
d="M371 8q0 -13 -7 -13h-308q-9 0 -13.5 7.5t-4.5 18.5t12 20q12 1 27.5 2t28.5 2q33 2 36 7l103 274l1 7q0 38 -81 45q-18 1 -28 1q-40 0 -69.5 -27.5t-29.5 -70.5q0 -29 28 -29q20 0 25.5 9t5.5 24v24q3 9 7 11t12.5 2t14.5 -5t9 -12q8 -15 8 -29t-6.5 -26t-16.5 -22
q-24 -22 -45 -22q-39 0 -60.5 19.5t-21.5 53t10 59.5t28 45q39 41 94 41q38 0 68 -6.5t64 -29.5l2 -1q1 0 5 3t4 5l81 211v3q0 2 -2.5 5.5t-4.5 3.5h-136q-7 0 -7 8.5t4.5 22.5t13.5 14l435 9q8 0 12 -8.5t4 -24.5t-10 -16h-91l73 -217q2 -11 5 -15t23 -4t50.5 9.5t64.5 9.5
q17 0 17 -19q0 -12 -9 -18.5t-20 -7.5l-91 -12q-12 0 -12 -11l102 -295l54 -14q12 -1 12 -13.5t-6 -19.5q-7 1 -13 1h-11l-189 -5q-11 0 -14 4t-3 18t14 19.5t25.5 8.5t21 2.5t20.5 -1.5q22 -2 35 -2v12l-88 273h-11q-4 0 -43.5 -35.5t-49.5 -45t-13.5 -18.5t-18.5 -9
t-23.5 9t-16 20t-16 20t-16 9t-7.5 -0.5t-1 -0.5h-1l-79 -218q-2 -2 -2 -9.5t5.5 -9.5t12.5 -4.5t12.5 -7.5t5.5 -18zM192 64v-10q0 -4 1 -8.5t12 -4.5h74q4 0 10 9.5t13 18.5l194 532v17h-97l-206 -549q-1 0 -1 -5zM439 338l-1 -6q0 -8 2.5 -10t9 -6.5t15 -10.5l17 -12
t20.5 -13l103 85q12 6 12 7.5t-1 3.5v2l-76 216zM464 751q-130 -56 -170 -56q-12 0 -20.5 1.5t-14.5 12.5q5 26 15 32t19.5 9t22.5 9l129 48h3l5 1q28 -3 42 -13l131 -64q2 -2 7 -11t5 -15q0 -12 -25 -12l-130 52q-4 4 -8.5 5t-6.5 1.5t-2 0t-1 -0.5h-1z" />
    <glyph glyph-name="Atilde" unicode="&#xc3;" horiz-adv-x="847" 
d="M371 8q0 -13 -7 -13h-308q-9 0 -13.5 7.5t-4.5 18.5t12 20q12 1 27.5 2t28.5 2q33 2 36 7l103 274l1 7q0 38 -81 45q-18 1 -28 1q-40 0 -69.5 -27.5t-29.5 -70.5q0 -29 28 -29q20 0 25.5 9t5.5 24v24q3 9 7 11t12.5 2t14.5 -5t9 -12q8 -15 8 -29t-6.5 -26t-16.5 -22
q-24 -22 -45 -22q-39 0 -60.5 19.5t-21.5 53t10 59.5t28 45q39 41 94 41q38 0 68 -6.5t64 -29.5l2 -1q1 0 5 3t4 5l81 211v3q0 2 -2.5 5.5t-4.5 3.5h-136q-7 0 -7 8.5t4.5 22.5t13.5 14l435 9q8 0 12 -8.5t4 -24.5t-10 -16h-91l73 -217q2 -11 5 -15t23 -4t50.5 9.5t64.5 9.5
q17 0 17 -19q0 -12 -9 -18.5t-20 -7.5l-91 -12q-12 0 -12 -11l102 -295l54 -14q12 -1 12 -13.5t-6 -19.5q-7 1 -13 1h-11l-189 -5q-11 0 -14 4t-3 18t14 19.5t25.5 8.5t21 2.5t20.5 -1.5q22 -2 35 -2v12l-88 273h-11q-4 0 -43.5 -35.5t-49.5 -45t-13.5 -18.5t-18.5 -9
t-23.5 9t-16 20t-16 20t-16 9t-7.5 -0.5t-1 -0.5h-1l-79 -218q-2 -2 -2 -9.5t5.5 -9.5t12.5 -4.5t12.5 -7.5t5.5 -18zM192 64v-10q0 -4 1 -8.5t12 -4.5h74q4 0 10 9.5t13 18.5l194 532v17h-97l-206 -549q-1 0 -1 -5zM439 338l-1 -6q0 -8 2.5 -10t9 -6.5t15 -10.5l17 -12
t20.5 -13l103 85q12 6 12 7.5t-1 3.5v2l-76 216zM204 699q-22 0 -22 25.5t17 39t41 28.5q58 39 119 39q30 0 82.5 -18.5t77.5 -27t39 -8.5q47 0 78 16t56 54q12 0 16.5 -4.5t8.5 -14.5q-9 -47 -59 -72q-43 -22 -97 -22q-21 0 -72 18q-95 34 -130.5 34t-60 -13.5t-41.5 -30
t-29 -30t-24 -13.5z" />
    <glyph glyph-name="Adieresis" unicode="&#xc4;" horiz-adv-x="847" 
d="M371 8q0 -13 -7 -13h-308q-9 0 -13.5 7.5t-4.5 18.5t12 20q12 1 27.5 2t28.5 2q33 2 36 7l103 274l1 7q0 38 -81 45q-18 1 -28 1q-40 0 -69.5 -27.5t-29.5 -70.5q0 -29 28 -29q20 0 25.5 9t5.5 24v24q3 9 7 11t12.5 2t14.5 -5t9 -12q8 -15 8 -29t-6.5 -26t-16.5 -22
q-24 -22 -45 -22q-39 0 -60.5 19.5t-21.5 53t10 59.5t28 45q39 41 94 41q38 0 68 -6.5t64 -29.5l2 -1q1 0 5 3t4 5l81 211v3q0 2 -2.5 5.5t-4.5 3.5h-136q-7 0 -7 8.5t4.5 22.5t13.5 14l435 9q8 0 12 -8.5t4 -24.5t-10 -16h-91l73 -217q2 -11 5 -15t23 -4t50.5 9.5t64.5 9.5
q17 0 17 -19q0 -12 -9 -18.5t-20 -7.5l-91 -12q-12 0 -12 -11l102 -295l54 -14q12 -1 12 -13.5t-6 -19.5q-7 1 -13 1h-11l-189 -5q-11 0 -14 4t-3 18t14 19.5t25.5 8.5t21 2.5t20.5 -1.5q22 -2 35 -2v12l-88 273h-11q-4 0 -43.5 -35.5t-49.5 -45t-13.5 -18.5t-18.5 -9
t-23.5 9t-16 20t-16 20t-16 9t-7.5 -0.5t-1 -0.5h-1l-79 -218q-2 -2 -2 -9.5t5.5 -9.5t12.5 -4.5t12.5 -7.5t5.5 -18zM192 64v-10q0 -4 1 -8.5t12 -4.5h74q4 0 10 9.5t13 18.5l194 532v17h-97l-206 -549q-1 0 -1 -5zM439 338l-1 -6q0 -8 2.5 -10t9 -6.5t15 -10.5l17 -12
t20.5 -13l103 85q12 6 12 7.5t-1 3.5v2l-76 216zM336 749q-5 8 -5 18.5t6 20.5t16 16q21 14 42.5 14t31.5 -13.5t10 -34t-14.5 -34t-30.5 -13.5t-25.5 3t-17.5 9t-13 14zM551 735q-18 12 -18 27.5t6 25.5t16 16q19 14 41 14t32.5 -13.5t10.5 -34t-15 -34t-35 -13.5t-38 12z
" />
    <glyph glyph-name="Aring" unicode="&#xc5;" horiz-adv-x="847" 
d="M371 8q0 -13 -7 -13h-308q-9 0 -13.5 7.5t-4.5 18.5t12 20q12 1 27.5 2t28.5 2q33 2 36 7l103 274l1 7q0 38 -81 45q-18 1 -28 1q-40 0 -69.5 -27.5t-29.5 -70.5q0 -29 28 -29q20 0 25.5 9t5.5 24v24q3 9 7 11t12.5 2t14.5 -5t9 -12q8 -15 8 -29t-6.5 -26t-16.5 -22
q-24 -22 -45 -22q-39 0 -60.5 19.5t-21.5 53t10 59.5t28 45q39 41 94 41q38 0 68 -6.5t64 -29.5l2 -1q1 0 5 3t4 5l81 211v3q0 2 -2.5 5.5t-4.5 3.5h-136q-7 0 -7 8.5t4.5 22.5t13.5 14l435 9q8 0 12 -8.5t4 -24.5t-10 -16h-91l73 -217q2 -11 5 -15t23 -4t50.5 9.5t64.5 9.5
q17 0 17 -19q0 -12 -9 -18.5t-20 -7.5l-91 -12q-12 0 -12 -11l102 -295l54 -14q12 -1 12 -13.5t-6 -19.5q-7 1 -13 1h-11l-189 -5q-11 0 -14 4t-3 18t14 19.5t25.5 8.5t21 2.5t20.5 -1.5q22 -2 35 -2v12l-88 273h-11q-4 0 -43.5 -35.5t-49.5 -45t-13.5 -18.5t-18.5 -9
t-23.5 9t-16 20t-16 20t-16 9t-7.5 -0.5t-1 -0.5h-1l-79 -218q-2 -2 -2 -9.5t5.5 -9.5t12.5 -4.5t12.5 -7.5t5.5 -18zM192 64v-10q0 -4 1 -8.5t12 -4.5h74q4 0 10 9.5t13 18.5l194 532v17h-97l-206 -549q-1 0 -1 -5zM439 338l-1 -6q0 -8 2.5 -10t9 -6.5t15 -10.5l17 -12
t20.5 -13l103 85q12 6 12 7.5t-1 3.5v2l-76 216zM380 916l34 2q38 0 61 -15q41 -28 41 -66q0 -35 -31 -67q-31 -34 -64 -34q-23 0 -29 7l-56 68q-7 9 -7 30.5t14.5 43.5t36.5 31zM384 865q-6 -9 -6 -21t3 -22t8 -19q12 -22 27 -22t24.5 5.5t16.5 13.5q16 18 16 40.5t-15 28
t-41.5 5.5t-32.5 -9z" />
    <glyph glyph-name="AE" unicode="&#xc6;" horiz-adv-x="906" 
d="M430 -3q-14 0 -14 24v4q0 2 1 4l13 62v10l1 47v42l-1 78v21q-17 -12 -33 -21.5t-36 -9.5l-11 1l-67 78l-6 1q-17 0 -33 -32q-22 -30 -84 -141t-66 -118q43 -17 43 -47h-137q-14 0 -14 23v5q0 1 1 2q39 13 108 125q16 26 28 42t30 42t35 51q41 59 41 63v15q0 6 -27.5 10.5
t-37.5 4.5h-54q-3 1 -8 7t-5 8q13 32 85 32l34 -1l54 -15q1 0 6 5.5t9.5 13t22 35t36.5 58.5q51 82 59 96h-80v46q15 0 52.5 -1t80.5 -2q115 -3 134 -4l80 -16h33q40 0 80 8t80 8q22 0 22 -39l-2 -22q-21 -53 -40 -78q-4 -2 -14 -2q-11 0 -13 1.5t-5.5 8.5t-8 15t-8.5 15
l-4 9q-3 3 -7 8t-9 11q-11 14 -11 12h-160v-246q22 0 40 12q35 21 57 21q0 -2 -0.5 -9.5t-1.5 -15.5q-1 -23 -1.5 -26t-2.5 -10l-4 -14q-5 -19 -7 -23h-6q-13 0 -23.5 8.5t-25.5 8.5q-25 0 -25 -29v-18q0 -5 4.5 -43.5t6.5 -57t2.5 -20.5t0.5 -6l-1 -20q0 -5 1 -6
q7 -51 39 -60q14 -5 33 -4t31 1h22l36 1h12q13 7 18 23.5t10 32.5t14 28.5t29 12.5q0 -11 -1.5 -27t-2 -25.5t-1 -12t-2 -9t-4 -14t-4.5 -14.5q-3 -11 -6 -17.5t-5 -11.5t-6 -13h-399zM577 168l-14 230v140q0 4 -2 15t-4 23q-3 18 -8 38l-53 -14q0 -3 -4 -54t-7 -91.5
t-6 -81.5q-7 -101 -9 -144l-4 -186q34 0 111 16v109zM310 398l-1 -8q0 -8 19 -30q35 -43 48 -39q6 0 22 9q22 13 32 23q2 21 6 66q5 76 6.5 91t1.5 22l1 30v10q-12 0 -16.5 -4.5t-11.5 -14t-20 -26.5t-25.5 -34.5t-23.5 -30.5q-12 -17 -17 -25.5t-9.5 -16t-7.5 -14t-4 -8.5z
M829 607q-5 0 -5 -8t5 -8t5 8t-5 8z" />
    <glyph glyph-name="Ccedilla" unicode="&#xc7;" horiz-adv-x="652" 
d="M332 6l49 -1q90 0 143 30q47 26 54 57q8 33 17 43t18 10t16.5 -5.5t7.5 -20t-8.5 -36.5t-22.5 -41q-28 -42 -67 -60q-68 -32 -160 -32q-116 0 -189 64q-97 86 -110 279h-50q-8 0 -8 12t5 18t12 9.5t15.5 5.5t15.5 4q7 93 38 170q24 60 47 81t57 37.5t70 27.5
q67 21 131 21l113 -26q6 11 18.5 18t29.5 7q27 0 27 -47l-31 -134q0 -2 -17 -6q-21 0 -27 13q-39 110 -105 122q-17 3 -30 3q-62 0 -62 -46q0 -6 1 -10v3q1 -5 1 -18v-104q0 -220 -6 -311.5t-6 -114t13 -22.5zM284 427q0 139 4 190q-17 0 -58 -29q-40 -26 -58 -62t-27 -72
q-14 -57 -14 -133t9.5 -122t27.5 -81q34 -64 99 -98q17 99 17 388v19zM551 553q8 35 8 68q-10 -1 -18.5 -2l-17 -2t-14.5 -3zM338 6q8 10 20 10t12 -16t-7 -29.5t-7 -23.5t1 -12l63 -62q6 -7 6 -27.5t-5.5 -37.5t-16.5 -32q-24 -34 -56 -34q-47 0 -64 28q-7 11 -7 22.5
t6 11.5q9 0 20.5 -8.5t17.5 -12.5t16 -4t20 7t17 18q14 23 14 40.5t-9 25t-21 12.5t-23 9.5t-15 12.5v25q0 51 18 77z" />
    <glyph glyph-name="Egrave" unicode="&#xc8;" horiz-adv-x="634" 
d="M528 -9l-31 -1h-27q-69 0 -279 -5l-29 -1h-39t-58 2.5t-26 17.5t14 20l85 -2q0 72 -5.5 138t-5.5 138q-5 9 -17.5 13t-17 8.5t-4.5 15.5t5 13.5t11.5 3t13 1.5t9.5 8v14l1 45v15l1 83q0 31 -6 85q-4 -1 -18 -1h-47h-24q-7 1 -7 9q0 23 6.5 32.5t25.5 9.5l120 1
q52 0 104 -4t97.5 -4t84 2t74.5 16q8 4 13.5 9t12.5 5t13 -5.5t6 -13.5l-1 -4v-2q-10 -17 -16 -27.5t-11 -15.5q-7 -10 -16.5 -10t-64.5 2t-163 -3q-11 -119 -11 -237q44 0 68.5 10t35.5 14.5t22 4.5t17 -7t6 -30t-10.5 -35.5t-41 -12.5t-35.5 19l-62 -4l-1 -13
q-5 -65 -5 -82v-28q0 -13 0.5 -31t1 -38.5t1.5 -38.5t1.5 -30.5t1.5 -13.5l6 -12l50 -1l64 -1q125 0 164 33q7 6 12 6q36 0 36 -34l-2 -14q-2 -13 -4 -13l-13 -13l-10 -1q-50 -5 -76 -5zM165 598l-2 -119v-108q0 -132 7 -218q8 -118 13 -118l6 -6l76 -1q0 27 -1.5 50
t-3.5 46q-4 71 -4 121.5t4 118t4 138.5l-1 60v37l-98 5v-6zM418 725l1 -5q0 -12 -5 -15t-16 -3h-7q-2 0 -4 1l-188 60q-1 0 -1 1v2q0 11 8 17t13 5.5t6 -0.5h5l188 -60v-3z" />
    <glyph glyph-name="Eacute" unicode="&#xc9;" horiz-adv-x="634" 
d="M528 -9l-31 -1h-27q-69 0 -279 -5l-29 -1h-39t-58 2.5t-26 17.5t14 20l85 -2q0 72 -5.5 138t-5.5 138q-5 9 -17.5 13t-17 8.5t-4.5 15.5t5 13.5t11.5 3t13 1.5t9.5 8v14l1 45v15l1 83q0 31 -6 85q-4 -1 -18 -1h-47h-24q-7 1 -7 9q0 23 6.5 32.5t25.5 9.5l120 1
q52 0 104 -4t97.5 -4t84 2t74.5 16q8 4 13.5 9t12.5 5t13 -5.5t6 -13.5l-1 -4v-2q-10 -17 -16 -27.5t-11 -15.5q-7 -10 -16.5 -10t-64.5 2t-163 -3q-11 -119 -11 -237q44 0 68.5 10t35.5 14.5t22 4.5t17 -7t6 -30t-10.5 -35.5t-41 -12.5t-35.5 19l-62 -4l-1 -13
q-5 -65 -5 -82v-28q0 -13 0.5 -31t1 -38.5t1.5 -38.5t1.5 -30.5t1.5 -13.5l6 -12l50 -1l64 -1q125 0 164 33q7 6 12 6q36 0 36 -34l-2 -14q-2 -13 -4 -13l-13 -13l-10 -1q-50 -5 -76 -5zM165 598l-2 -119v-108q0 -132 7 -218q8 -118 13 -118l6 -6l76 -1q0 27 -1.5 50
t-3.5 46q-4 71 -4 121.5t4 118t4 138.5l-1 60v37l-98 5v-6zM407 788l4 1q10 0 18 -6t8 -12t-0.5 -6t-0.5 -1v-1l-188 -60q-2 -1 -4 -1h-7q-11 0 -16 3t-5 15v5q0 2 1 3l188 60h2z" />
    <glyph glyph-name="Ecircumflex" unicode="&#xca;" horiz-adv-x="634" 
d="M528 -9l-31 -1h-27q-69 0 -279 -5l-29 -1h-39t-58 2.5t-26 17.5t14 20l85 -2q0 72 -5.5 138t-5.5 138q-5 9 -17.5 13t-17 8.5t-4.5 15.5t5 13.5t11.5 3t13 1.5t9.5 8v14l1 45v15l1 83q0 31 -6 85q-4 -1 -18 -1h-47h-24q-7 1 -7 9q0 23 6.5 32.5t25.5 9.5l120 1
q52 0 104 -4t97.5 -4t84 2t74.5 16q8 4 13.5 9t12.5 5t13 -5.5t6 -13.5l-1 -4v-2q-10 -17 -16 -27.5t-11 -15.5q-7 -10 -16.5 -10t-64.5 2t-163 -3q-11 -119 -11 -237q44 0 68.5 10t35.5 14.5t22 4.5t17 -7t6 -30t-10.5 -35.5t-41 -12.5t-35.5 19l-62 -4l-1 -13
q-5 -65 -5 -82v-28q0 -13 0.5 -31t1 -38.5t1.5 -38.5t1.5 -30.5t1.5 -13.5l6 -12l50 -1l64 -1q125 0 164 33q7 6 12 6q36 0 36 -34l-2 -14q-2 -13 -4 -13l-13 -13l-10 -1q-50 -5 -76 -5zM165 598l-2 -119v-108q0 -132 7 -218q8 -118 13 -118l6 -6l76 -1q0 27 -1.5 50
t-3.5 46q-4 71 -4 121.5t4 118t4 138.5l-1 60v37l-98 5v-6zM314 751q-130 -56 -170 -56q-12 0 -20.5 1.5t-14.5 12.5q5 26 15 32t19.5 9t22.5 9l129 48h3l5 1q28 -3 42 -13l131 -64q2 -2 7 -11t5 -15q0 -12 -25 -12l-130 52q-4 4 -8.5 5t-6.5 1.5t-2 0t-1 -0.5h-1z" />
    <glyph glyph-name="Edieresis" unicode="&#xcb;" horiz-adv-x="634" 
d="M528 -9l-31 -1h-27q-69 0 -279 -5l-29 -1h-39t-58 2.5t-26 17.5t14 20l85 -2q0 72 -5.5 138t-5.5 138q-5 9 -17.5 13t-17 8.5t-4.5 15.5t5 13.5t11.5 3t13 1.5t9.5 8v14l1 45v15l1 83q0 31 -6 85q-4 -1 -18 -1h-47h-24q-7 1 -7 9q0 23 6.5 32.5t25.5 9.5l120 1
q52 0 104 -4t97.5 -4t84 2t74.5 16q8 4 13.5 9t12.5 5t13 -5.5t6 -13.5l-1 -4v-2q-10 -17 -16 -27.5t-11 -15.5q-7 -10 -16.5 -10t-64.5 2t-163 -3q-11 -119 -11 -237q44 0 68.5 10t35.5 14.5t22 4.5t17 -7t6 -30t-10.5 -35.5t-41 -12.5t-35.5 19l-62 -4l-1 -13
q-5 -65 -5 -82v-28q0 -13 0.5 -31t1 -38.5t1.5 -38.5t1.5 -30.5t1.5 -13.5l6 -12l50 -1l64 -1q125 0 164 33q7 6 12 6q36 0 36 -34l-2 -14q-2 -13 -4 -13l-13 -13l-10 -1q-50 -5 -76 -5zM165 598l-2 -119v-108q0 -132 7 -218q8 -118 13 -118l6 -6l76 -1q0 27 -1.5 50
t-3.5 46q-4 71 -4 121.5t4 118t4 138.5l-1 60v37l-98 5v-6zM159 749q-5 8 -5 18.5t6 20.5t16 16q21 14 42.5 14t31.5 -13.5t10 -34t-14.5 -34t-30.5 -13.5t-25.5 3t-17.5 9t-13 14zM374 735q-18 12 -18 27.5t6 25.5t16 16q19 14 41 14t32.5 -13.5t10.5 -34t-15 -34
t-35 -13.5t-38 12z" />
    <glyph glyph-name="Igrave" unicode="&#xcc;" horiz-adv-x="456" 
d="M324 -34l-50 -2h-19q-29 0 -45 2q-37 6 -58 6h-84q-17 0 -24.5 5t-8.5 21t13 18t31 0.5t33 -1.5t21 9l2 140l2 108q0 11 -1 15q-6 -2 -13 -2t-16 12.5t-9 22.5t6 13.5t13 5.5t13 4t6 7q-3 30 -3.5 65.5t-1.5 72t-1.5 72.5t-3.5 67q-7 7 -9 7h-38q-13 0 -26 0.5t-20 9
t-7 16.5t0.5 12t6.5 7l99 5q18 -2 35 -2l178 4h14l43 -1h14q7 -3 7 -20.5t-10 -24t-37 -6.5l-48 2q0 -96 -4.5 -196t-4.5 -222.5t11 -205.5l68 -5q21 0 22 -23q-4 -9 -13 -11zM287 521q0 115 -22 115h-37q-34 0 -52 -2q-6 -2 -6 -11q0 -34 0.5 -92.5t1 -126t1.5 -137.5
t3 -127q3 -128 6 -128h92l6 6l1 25v9l-1 22v6zM344 742l1 -5q0 -12 -5 -15t-16 -3h-7q-2 0 -4 1l-188 60q-1 0 -1 1v2q0 11 8 17t13 5.5t6 -0.5h5l188 -60v-3z" />
    <glyph glyph-name="Iacute" unicode="&#xcd;" horiz-adv-x="457" 
d="M324 -34l-50 -2h-19q-29 0 -45 2q-37 6 -58 6h-84q-17 0 -24.5 5t-8.5 21t13 18t31 0.5t33 -1.5t21 9l2 140l2 108q0 11 -1 15q-6 -2 -13 -2t-16 12.5t-9 22.5t6 13.5t13 5.5t13 4t6 7q-3 30 -3.5 65.5t-1.5 72t-1.5 72.5t-3.5 67q-7 7 -9 7h-38q-13 0 -26 0.5t-20 9
t-7 16.5t0.5 12t6.5 7l99 5q18 -2 35 -2l178 4h14l43 -1h14q7 -3 7 -20.5t-10 -24t-37 -6.5l-48 2q0 -96 -4.5 -196t-4.5 -222.5t11 -205.5l68 -5q21 0 22 -23q-4 -9 -13 -11zM287 521q0 115 -22 115h-37q-34 0 -52 -2q-6 -2 -6 -11q0 -34 0.5 -92.5t1 -126t1.5 -137.5
t3 -127q3 -128 6 -128h92l6 6l1 25v9l-1 22v6zM315 805l4 1q10 0 18 -6t8 -12t-0.5 -6t-0.5 -1v-1l-188 -60q-2 -1 -4 -1h-7q-11 0 -16 3t-5 15v5q0 2 1 3l188 60h2z" />
    <glyph glyph-name="Icircumflex" unicode="&#xce;" horiz-adv-x="457" 
d="M324 -34l-50 -2h-19q-29 0 -45 2q-37 6 -58 6h-84q-17 0 -24.5 5t-8.5 21t13 18t31 0.5t33 -1.5t21 9l2 140l2 108q0 11 -1 15q-6 -2 -13 -2t-16 12.5t-9 22.5t6 13.5t13 5.5t13 4t6 7q-3 30 -3.5 65.5t-1.5 72t-1.5 72.5t-3.5 67q-7 7 -9 7h-38q-13 0 -26 0.5t-20 9
t-7 16.5t0.5 12t6.5 7l99 5q18 -2 35 -2l178 4h14l43 -1h14q7 -3 7 -20.5t-10 -24t-37 -6.5l-48 2q0 -96 -4.5 -196t-4.5 -222.5t11 -205.5l68 -5q21 0 22 -23q-4 -9 -13 -11zM287 521q0 115 -22 115h-37q-34 0 -52 -2q-6 -2 -6 -11q0 -34 0.5 -92.5t1 -126t1.5 -137.5
t3 -127q3 -128 6 -128h92l6 6l1 25v9l-1 22v6zM250 768q-130 -56 -170 -56q-12 0 -20.5 1.5t-14.5 12.5q5 26 15 32t19.5 9t22.5 9l129 48h3l5 1q28 -3 42 -13l131 -64q2 -2 7 -11t5 -15q0 -12 -25 -12l-130 52q-4 4 -8.5 5t-6.5 1.5t-2 0t-1 -0.5h-1z" />
    <glyph glyph-name="Idieresis" unicode="&#xcf;" horiz-adv-x="456" 
d="M324 -34l-50 -2h-19q-29 0 -45 2q-37 6 -58 6h-84q-17 0 -24.5 5t-8.5 21t13 18t31 0.5t33 -1.5t21 9l2 140l2 108q0 11 -1 15q-6 -2 -13 -2t-16 12.5t-9 22.5t6 13.5t13 5.5t13 4t6 7q-3 30 -3.5 65.5t-1.5 72t-1.5 72.5t-3.5 67q-7 7 -9 7h-38q-13 0 -26 0.5t-20 9
t-7 16.5t0.5 12t6.5 7l99 5q18 -2 35 -2l178 4h14l43 -1h14q7 -3 7 -20.5t-10 -24t-37 -6.5l-48 2q0 -96 -4.5 -196t-4.5 -222.5t11 -205.5l68 -5q21 0 22 -23q-4 -9 -13 -11zM287 521q0 115 -22 115h-37q-34 0 -52 -2q-6 -2 -6 -11q0 -34 0.5 -92.5t1 -126t1.5 -137.5
t3 -127q3 -128 6 -128h92l6 6l1 25v9l-1 22v6zM89 749q-5 8 -5 18.5t6 20.5t16 16q21 14 42.5 14t31.5 -13.5t10 -34t-14.5 -34t-30.5 -13.5t-25.5 3t-17.5 9t-13 14zM304 735q-18 12 -18 27.5t6 25.5t16 16q19 14 41 14t32.5 -13.5t10.5 -34t-15 -34t-35 -13.5t-38 12z" />
    <glyph glyph-name="Eth" unicode="&#xd0;" horiz-adv-x="776" 
d="M176 1l-133 4l-14 16q19 51 102 51q1 10 3 34t4.5 51t4.5 51t3 33l-2 52h-101q-2 0 -7.5 6t-7 11.5t-2.5 15.5q-2 25 -4 43h124v245q-9 2 -32.5 24t-26.5 26.5t-6.5 18.5t-3.5 19l25 -3q2 -1 10.5 -6.5t17.5 -11.5q18 -11 30 -17q1 0 7 1t8.5 -1t13.5 -8t15 -9h306
q46 0 117 -50q6 -5 20.5 -16.5t31 -25t30.5 -26t20 -17.5l1 -42v-42q0 -22 0.5 -39t-0.5 -32q-2 -33 -16 -64q0 -2 -6.5 -8.5t-8 -8.5t0 -9t0 -10.5t-5.5 -13.5t-8.5 -21t-9.5 -20l-5 -11q-21 -33 -39 -58t-20 -27q-10 -10 -116 -68q-86 -44 -242 -38q-41 1 -78 1z
M444.5 333q-5.5 -6 -11.5 -7t-39.5 -1t-43.5 2l-15 -237l15 -36l15 4q15 4 36 10q58 15 80 22q44 12 82 44q74 61 111 186q6 21 9 34t6 24t5 21.5t4 19t2 10.5t-2 9.5t-4 15.5t-5 15t-4 10q-59 96 -166 113q-33 6 -51 6h-28l-34 -1h-13q-9 -8 -18.5 -24t-11 -30.5t-2 -42
t-1.5 -55.5t-2 -60h89q2 -8 4 -15.5t2 -14.5t-1.5 -11.5t-7 -10.5zM306 275l1 35h-118v-238h88q2 0 7.5 13t7.5 21zM324 521l-3 58l-132 20v-224q23 0 28.5 1t18 3.5t26.5 4.5q32 6 44 11q5 5 10 17.5t5 15.5z" />
    <glyph glyph-name="Ntilde" unicode="&#xd1;" horiz-adv-x="816" 
d="M232.5 43q10.5 -5 10.5 -23t-13 -18l-161 2q-12 0 -15 10.5t-3.5 21t6.5 15t16.5 7t19 6.5t13.5 16q22 135 32 373q2 63 2 92v41q0 12 -2 24q-61 0 -70 13q-11 17 -11 40q108 10 205 14.5t116 4.5q70 0 70 -25q0 -11 -21 -22t-21 -19.5t13.5 -33t32.5 -53.5
q40 -64 65 -96q2 2 7 2q31 0 49 18q3 -6 3 -17.5t-4 -17t-10 -12.5q-13 -15 -13 -29t2 -14q4 -12 22 -48l31 -61q12 -25 23.5 -47t20 -39t11.5 -22q9 40 9 122.5t-3 142t-7 107.5q-8 110 -14 110l-94 -8q0 29 10 40t18.5 12t21 2.5t26 3t24.5 2.5q40 6 76 6q54 0 57 -9
l2 -23q-10 -1 -25.5 -5.5t-26.5 -6.5q-3 -2 -14 -8.5t-14 -8.5q-1 -8 -2 -27t-3 -40q-3 -51 -3 -65v-16q3 -244 8 -317t5 -84q-4 -67 -210 -76q-20 0 -29.5 7.5t-9.5 26t2 22.5l-123 210l-64 -5q0 4 0.5 9.5t5 16t14.5 17.5t10 24.5t-13.5 48t-32.5 63.5q-38 70 -75 112
q-5 -8 -5 -25v-18q0 -48 -6 -143q-13 -184 -13 -225q0 -79 6 -86q4 -5 16 -5t25.5 -1t24 -6zM230 627q-33 0 -33 -17q0 -7 8.5 -18.5t21.5 -28.5q43 -56 52.5 -73.5t23 -43t32.5 -62.5t40.5 -79t41.5 -81q51 -100 61 -121.5t18 -30.5q21 -23 52 -23q1 0 12.5 2.5t26.5 5.5
q37 7 50 14q0 45 -85 216q-24 47 -58.5 107t-128.5 191q-30 38 -87 41q-18 1 -29 1h-19zM171 699q-22 0 -22 25.5t17 39t41 28.5q58 39 119 39q30 0 82.5 -18.5t77.5 -27t39 -8.5q47 0 78 16t56 54q12 0 16.5 -4.5t8.5 -14.5q-9 -47 -59 -72q-43 -22 -97 -22q-21 0 -72 18
q-95 34 -130.5 34t-60 -13.5t-41.5 -30t-29 -30t-24 -13.5z" />
    <glyph glyph-name="Ograve" unicode="&#xd2;" horiz-adv-x="780" 
d="M512.5 -2q-69.5 -27 -145 -27t-133.5 26t-101.5 68.5t-68 97.5t-24.5 105.5t7.5 98t24.5 93.5q58 166 192 216q52 20 114 20q194 0 287 -110q74 -88 74 -223q0 -181 -107 -287q-50 -51 -119.5 -78zM243 356q-3 -39 -3 -70t7.5 -66.5t20.5 -71.5q24 -71 69 -135
q6 -14 69 -5q74 11 90 66q11 42 21.5 71.5t18.5 55.5q18 59 18 101t-3 75t-10 69.5t-18.5 73.5t-28.5 66q-40 67 -95 67q-58 0 -98 -69q-46 -78 -58 -228zM274 28l1 4q-85 165 -85 272q0 114 79 326q-127 -23 -165 -225q-11 -62 -11 -103t10.5 -85t32.5 -85q54 -95 138 -104
zM508 642q94 -113 94 -305q0 -73 -54 -231q-13 -38 -22 -66q83 46 125 132.5t42 205.5q0 81 -55 158q-51 72 -130 106zM465 751l1 -5q0 -12 -5 -15t-16 -3h-7q-2 0 -4 1l-188 60q-1 0 -1 1v2q0 11 8 17t13 5.5t6 -0.5h5l188 -60v-3z" />
    <glyph glyph-name="Oacute" unicode="&#xd3;" horiz-adv-x="780" 
d="M512.5 -2q-69.5 -27 -145 -27t-133.5 26t-101.5 68.5t-68 97.5t-24.5 105.5t7.5 98t24.5 93.5q58 166 192 216q52 20 114 20q194 0 287 -110q74 -88 74 -223q0 -181 -107 -287q-50 -51 -119.5 -78zM243 356q-3 -39 -3 -70t7.5 -66.5t20.5 -71.5q24 -71 69 -135
q6 -14 69 -5q74 11 90 66q11 42 21.5 71.5t18.5 55.5q18 59 18 101t-3 75t-10 69.5t-18.5 73.5t-28.5 66q-40 67 -95 67q-58 0 -98 -69q-46 -78 -58 -228zM274 28l1 4q-85 165 -85 272q0 114 79 326q-127 -23 -165 -225q-11 -62 -11 -103t10.5 -85t32.5 -85q54 -95 138 -104
zM508 642q94 -113 94 -305q0 -73 -54 -231q-13 -38 -22 -66q83 46 125 132.5t42 205.5q0 81 -55 158q-51 72 -130 106zM481 814l4 1q10 0 18 -6t8 -12t-0.5 -6t-0.5 -1v-1l-188 -60q-2 -1 -4 -1h-7q-11 0 -16 3t-5 15v5q0 2 1 3l188 60h2z" />
    <glyph glyph-name="Ocircumflex" unicode="&#xd4;" horiz-adv-x="780" 
d="M512.5 -2q-69.5 -27 -145 -27t-133.5 26t-101.5 68.5t-68 97.5t-24.5 105.5t7.5 98t24.5 93.5q58 166 192 216q52 20 114 20q194 0 287 -110q74 -88 74 -223q0 -181 -107 -287q-50 -51 -119.5 -78zM243 356q-3 -39 -3 -70t7.5 -66.5t20.5 -71.5q24 -71 69 -135
q6 -14 69 -5q74 11 90 66q11 42 21.5 71.5t18.5 55.5q18 59 18 101t-3 75t-10 69.5t-18.5 73.5t-28.5 66q-40 67 -95 67q-58 0 -98 -69q-46 -78 -58 -228zM274 28l1 4q-85 165 -85 272q0 114 79 326q-127 -23 -165 -225q-11 -62 -11 -103t10.5 -85t32.5 -85q54 -95 138 -104
zM508 642q94 -113 94 -305q0 -73 -54 -231q-13 -38 -22 -66q83 46 125 132.5t42 205.5q0 81 -55 158q-51 72 -130 106zM388 777q-130 -56 -170 -56q-12 0 -20.5 1.5t-14.5 12.5q5 26 15 32t19.5 9t22.5 9l129 48h3l5 1q28 -3 42 -13l131 -64q2 -2 7 -11t5 -15q0 -12 -25 -12
l-130 52q-4 4 -8.5 5t-6.5 1.5t-2 0t-1 -0.5h-1z" />
    <glyph glyph-name="Otilde" unicode="&#xd5;" horiz-adv-x="780" 
d="M512.5 -2q-69.5 -27 -145 -27t-133.5 26t-101.5 68.5t-68 97.5t-24.5 105.5t7.5 98t24.5 93.5q58 166 192 216q52 20 114 20q194 0 287 -110q74 -88 74 -223q0 -181 -107 -287q-50 -51 -119.5 -78zM243 356q-3 -39 -3 -70t7.5 -66.5t20.5 -71.5q24 -71 69 -135
q6 -14 69 -5q74 11 90 66q11 42 21.5 71.5t18.5 55.5q18 59 18 101t-3 75t-10 69.5t-18.5 73.5t-28.5 66q-40 67 -95 67q-58 0 -98 -69q-46 -78 -58 -228zM274 28l1 4q-85 165 -85 272q0 114 79 326q-127 -23 -165 -225q-11 -62 -11 -103t10.5 -85t32.5 -85q54 -95 138 -104
zM508 642q94 -113 94 -305q0 -73 -54 -231q-13 -38 -22 -66q83 46 125 132.5t42 205.5q0 81 -55 158q-51 72 -130 106zM137 708q-22 0 -22 25.5t17 39t41 28.5q58 39 119 39q30 0 82.5 -18.5t77.5 -27t39 -8.5q47 0 78 16t56 54q12 0 16.5 -4.5t8.5 -14.5q-9 -47 -59 -72
q-43 -22 -97 -22q-21 0 -72 18q-95 34 -130.5 34t-60 -13.5t-41.5 -30t-29 -30t-24 -13.5z" />
    <glyph glyph-name="Odieresis" unicode="&#xd6;" horiz-adv-x="780" 
d="M512.5 -2q-69.5 -27 -145 -27t-133.5 26t-101.5 68.5t-68 97.5t-24.5 105.5t7.5 98t24.5 93.5q58 166 192 216q52 20 114 20q194 0 287 -110q74 -88 74 -223q0 -181 -107 -287q-50 -51 -119.5 -78zM243 356q-3 -39 -3 -70t7.5 -66.5t20.5 -71.5q24 -71 69 -135
q6 -14 69 -5q74 11 90 66q11 42 21.5 71.5t18.5 55.5q18 59 18 101t-3 75t-10 69.5t-18.5 73.5t-28.5 66q-40 67 -95 67q-58 0 -98 -69q-46 -78 -58 -228zM274 28l1 4q-85 165 -85 272q0 114 79 326q-127 -23 -165 -225q-11 -62 -11 -103t10.5 -85t32.5 -85q54 -95 138 -104
zM508 642q94 -113 94 -305q0 -73 -54 -231q-13 -38 -22 -66q83 46 125 132.5t42 205.5q0 81 -55 158q-51 72 -130 106zM234 758q-5 8 -5 18.5t6 20.5t16 16q21 14 42.5 14t31.5 -13.5t10 -34t-14.5 -34t-30.5 -13.5t-25.5 3t-17.5 9t-13 14zM449 744q-18 12 -18 27.5t6 25.5
t16 16q19 14 41 14t32.5 -13.5t10.5 -34t-15 -34t-35 -13.5t-38 12z" />
    <glyph glyph-name="multiply" unicode="&#xd7;" horiz-adv-x="446" 
d="M228 245h-4q-1 0 -5 0.5t-6.5 -2.5t-8.5 -10t-24 -29t-40 -48q-58 -68 -65 -77t-12.5 -11.5t-22.5 -2.5v29l156 195l-143 195q-2 2 2.5 7t9 5t14 -5t11.5 -7l126 -163l151 163h16q0 -30 -16 -50q-37 -49 -113 -138l-1 -7q0 -18 14 -33t22.5 -22.5t13 -12t11.5 -13.5
t15 -19q16 -20 25 -32q-5 -13 -19 -13h-3q-1 0 -3 1zM354 132q0 5 9 10t14 5q0 -12 7 -21q12 -16 12 -35q-14 0 -28 12.5t-14 28.5z" />
    <glyph glyph-name="Oslash" unicode="&#xd8;" horiz-adv-x="831" 
d="M837 633l-2 -12l-124 -100q0 -32 4 -62t4 -49v-28l-1 -34v-7l-50 -162q-2 -6 -16 -26l-21 -31q-41 -58 -100 -84t-105 -26t-85 5t-76 17q-85 27 -123 84l-124 -106h-11q-14 0 -18 3.5t-4 17.5v7q0 2 1 4l124 118q1 0 1 4v5q0 27 -9 57q-18 55 -18 82q0 68 14 99l80 180
q24 39 88 75q68 37 127 37q18 0 18 -9l-2 -21l84 6h11l23 -1h5q39 -10 61.5 -19.5t24.5 -11.5l69 -81l124 93h4l4 1q14 0 16 -6t2 -19zM401 48l25 1q47 0 110 39q64 41 82 86l57 148v163q-12 0 -19 -7l-372 -304l50 -100q12 -26 67 -26zM129 354l-2 -32v-10q0 -105 38 -168
q15 -25 38 -39q6 -3 16.5 -8.5t21.5 -10.5q26 -12 30 -12h15l-58 137q-2 17 -3 26.5t-2 18.5t-1 11l62 291q6 35 39 55l26 16t22 22q-35 0 -70.5 -19t-50 -33.5t-23 -24t-15.5 -18.5q-18 -22 -21 -29zM504 632l-5 1q-75 0 -104 -31q-7 -8 -18.5 -21.5t-22.5 -26.5
q-27 -30 -27 -33l-62 -230v-67l385 309v2l1 4q0 8 -15 26q-26 33 -36 37l-93 30h-3z" />
    <glyph glyph-name="Ugrave" unicode="&#xd9;" horiz-adv-x="741" 
d="M599 659q0 25 29 25q7 0 13.5 -8t8 -28t4.5 -44t4 -46q4 -51 4 -117.5t-4.5 -137.5t-21.5 -125q-32 -108 -130 -178q-11 -8 -58.5 -20t-56.5 -12t-33 2.5t-49 7.5q-60 12 -78.5 32t-31.5 34t-21.5 26.5t-14.5 27.5t-12 40q-10 40 -32 158l-29 13q3 14 8 20.5t17 10.5
q3 7 9 37.5t6 32.5l-6 69l5 147q-26 0 -37 -16.5t-17 -36t-11 -36t-18 -16.5t-20.5 9t-7.5 33t15 49.5t39 41.5q47 29 118 29l108 -7q25 0 47.5 4t39.5 4t17 -13t-10 -21.5t-24 -14.5q-23 -10 -48 -14q-6 -8 -9.5 -45t-3.5 -48l3 -193l50 5q11 0 11 -20t-18 -24.5t-40 -5.5
v-19l38 -252q1 -7 45.5 -7t83.5 21t65.5 54.5t42 76t24.5 86.5q13 69 13 155l-1 55q0 31 -8.5 77.5t-12.5 71.5t-4 50zM167 576l4 -56l-3 -123q0 -138 18.5 -210t45 -113t70.5 -53l-25 303l-6 303q0 1 -23.5 3t-34.5 3t-12 1q-21 0 -27.5 -18t-6.5 -40zM486 751l1 -5
q0 -12 -5 -15t-16 -3h-7q-2 0 -4 1l-188 60q-1 0 -1 1v2q0 11 8 17t13 5.5t6 -0.5h5l188 -60v-3z" />
    <glyph glyph-name="Uacute" unicode="&#xda;" horiz-adv-x="741" 
d="M599 659q0 25 29 25q7 0 13.5 -8t8 -28t4.5 -44t4 -46q4 -51 4 -117.5t-4.5 -137.5t-21.5 -125q-32 -108 -130 -178q-11 -8 -58.5 -20t-56.5 -12t-33 2.5t-49 7.5q-60 12 -78.5 32t-31.5 34t-21.5 26.5t-14.5 27.5t-12 40q-10 40 -32 158l-29 13q3 14 8 20.5t17 10.5
q3 7 9 37.5t6 32.5l-6 69l5 147q-26 0 -37 -16.5t-17 -36t-11 -36t-18 -16.5t-20.5 9t-7.5 33t15 49.5t39 41.5q47 29 118 29l108 -7q25 0 47.5 4t39.5 4t17 -13t-10 -21.5t-24 -14.5q-23 -10 -48 -14q-6 -8 -9.5 -45t-3.5 -48l3 -193l50 5q11 0 11 -20t-18 -24.5t-40 -5.5
v-19l38 -252q1 -7 45.5 -7t83.5 21t65.5 54.5t42 76t24.5 86.5q13 69 13 155l-1 55q0 31 -8.5 77.5t-12.5 71.5t-4 50zM167 576l4 -56l-3 -123q0 -138 18.5 -210t45 -113t70.5 -53l-25 303l-6 303q0 1 -23.5 3t-34.5 3t-12 1q-21 0 -27.5 -18t-6.5 -40zM493 805l4 1
q10 0 18 -6t8 -12t-0.5 -6t-0.5 -1v-1l-188 -60q-2 -1 -4 -1h-7q-11 0 -16 3t-5 15v5q0 2 1 3l188 60h2z" />
    <glyph glyph-name="Ucircumflex" unicode="&#xdb;" horiz-adv-x="741" 
d="M599 659q0 25 29 25q7 0 13.5 -8t8 -28t4.5 -44t4 -46q4 -51 4 -117.5t-4.5 -137.5t-21.5 -125q-32 -108 -130 -178q-11 -8 -58.5 -20t-56.5 -12t-33 2.5t-49 7.5q-60 12 -78.5 32t-31.5 34t-21.5 26.5t-14.5 27.5t-12 40q-10 40 -32 158l-29 13q3 14 8 20.5t17 10.5
q3 7 9 37.5t6 32.5l-6 69l5 147q-26 0 -37 -16.5t-17 -36t-11 -36t-18 -16.5t-20.5 9t-7.5 33t15 49.5t39 41.5q47 29 118 29l108 -7q25 0 47.5 4t39.5 4t17 -13t-10 -21.5t-24 -14.5q-23 -10 -48 -14q-6 -8 -9.5 -45t-3.5 -48l3 -193l50 5q11 0 11 -20t-18 -24.5t-40 -5.5
v-19l38 -252q1 -7 45.5 -7t83.5 21t65.5 54.5t42 76t24.5 86.5q13 69 13 155l-1 55q0 31 -8.5 77.5t-12.5 71.5t-4 50zM167 576l4 -56l-3 -123q0 -138 18.5 -210t45 -113t70.5 -53l-25 303l-6 303q0 1 -23.5 3t-34.5 3t-12 1q-21 0 -27.5 -18t-6.5 -40zM392 786
q-130 -56 -170 -56q-12 0 -20.5 1.5t-14.5 12.5q5 26 15 32t19.5 9t22.5 9l129 48h3l5 1q28 -3 42 -13l131 -64q2 -2 7 -11t5 -15q0 -12 -25 -12l-130 52q-4 4 -8.5 5t-6.5 1.5t-2 0t-1 -0.5h-1z" />
    <glyph glyph-name="Udieresis" unicode="&#xdc;" horiz-adv-x="741" 
d="M599 659q0 25 29 25q7 0 13.5 -8t8 -28t4.5 -44t4 -46q4 -51 4 -117.5t-4.5 -137.5t-21.5 -125q-32 -108 -130 -178q-11 -8 -58.5 -20t-56.5 -12t-33 2.5t-49 7.5q-60 12 -78.5 32t-31.5 34t-21.5 26.5t-14.5 27.5t-12 40q-10 40 -32 158l-29 13q3 14 8 20.5t17 10.5
q3 7 9 37.5t6 32.5l-6 69l5 147q-26 0 -37 -16.5t-17 -36t-11 -36t-18 -16.5t-20.5 9t-7.5 33t15 49.5t39 41.5q47 29 118 29l108 -7q25 0 47.5 4t39.5 4t17 -13t-10 -21.5t-24 -14.5q-23 -10 -48 -14q-6 -8 -9.5 -45t-3.5 -48l3 -193l50 5q11 0 11 -20t-18 -24.5t-40 -5.5
v-19l38 -252q1 -7 45.5 -7t83.5 21t65.5 54.5t42 76t24.5 86.5q13 69 13 155l-1 55q0 31 -8.5 77.5t-12.5 71.5t-4 50zM167 576l4 -56l-3 -123q0 -138 18.5 -210t45 -113t70.5 -53l-25 303l-6 303q0 1 -23.5 3t-34.5 3t-12 1q-21 0 -27.5 -18t-6.5 -40zM219 766
q-5 8 -5 18.5t6 20.5t16 16q21 14 42.5 14t31.5 -13.5t10 -34t-14.5 -34t-30.5 -13.5t-25.5 3t-17.5 9t-13 14zM434 752q-18 12 -18 27.5t6 25.5t16 16q19 14 41 14t32.5 -13.5t10.5 -34t-15 -34t-35 -13.5t-38 12z" />
    <glyph glyph-name="Yacute" unicode="&#xdd;" horiz-adv-x="709" 
d="M388 164q-21 -50 -27 -73.5t-6 -29.5t3 -15h129l15 -22q-26 -48 -500 -48q0 31 7 43t12 12h122l-6 34v4q6 22 17.5 42.5t22.5 40.5q27 51 27 81t-7.5 36.5t-17 7t-17 0.5t-7.5 7.5t5 11.5t12 7q14 6 29 8q-26 45 -58 131l-43 146v15q-59 0 -80 19q-9 8 -9 24l1 16l146 14
q60 0 60 -38l-1 -4v-3l-59 -28q-1 -2 -1 -3v-3q3 -24 21 -90.5t30 -102.5q26 -79 38 -79h14l144 284q-2 6 -2 28.5t5.5 34t24.5 11.5l82 -2l225 6q0 -30 -39 -41q-22 -7 -47 -7q-8 -32 -45 -59l15 -14q-5 -4 -17 -16.5t-18 -18.5l-9 -9v-14l-100 -168l-1 -9q0 -7 4.5 -9.5
t10.5 -4t10.5 -4t4.5 -13t-9 -16.5t-21 -9.5t-24.5 -7.5t-18.5 -14q-26 -39 -47 -89zM557 644l-50 -5q-18 -9 -37.5 -31t-22.5 -28l-267 -526v-16q16 0 67 7.5t51 8.5l310 585zM446 805l4 1q10 0 18 -6t8 -12t-0.5 -6t-0.5 -1v-1l-188 -60q-2 -1 -4 -1h-7q-11 0 -16 3t-5 15
v5q0 2 1 3l188 60h2z" />
    <glyph glyph-name="Thorn" unicode="&#xde;" horiz-adv-x="703" 
d="M392 34q6 0 6 -16v-11q0 -11 -6 -13l-63 -13h-235q-10 0 -14.5 8.5t-4.5 16.5q0 22 12 22h75v120h-86q-7 0 -16 8q-16 14 -16 21t19 15q5 -1 15 -1h22q37 0 47.5 5.5t10.5 19.5l-2 32q0 85 -4 132t-8 48q-17 2 -38.5 1.5t-39.5 2.5q-44 7 -44 47q30 0 60 -4t61 -4l1 31
l-7 111h-12l-44 -6q-8 0 -16.5 8.5t-8.5 19t9 15t21 5.5t24.5 1.5t19.5 5.5t8 9t2 6q2 5 12 5t14 -2t7 -4q9 -6 15 -6l179 7q18 0 18 -12.5t-2 -18.5t-6.5 -9.5t-11.5 -5.5t-17 -5q-6 -50 -6 -76t0.5 -34t5.5 -20q21 3 55 3q51 0 168 -40q81 -27 109 -95q10 -22 10 -52.5
t-12 -65t-44 -54.5q-26 -15 -55.5 -26.5t-32.5 -11.5l-186 -11l-12 -6q-3 -3 -4 -18t-1.5 -22t-0.5 -11v-15q0 -10 0.5 -19t1.5 -18h48zM304 68l2 333q0 170 -7 206l-6 19q-2 2 -9 2h-59t-44 -8v-36q0 -106 4.5 -196t6 -128.5t4 -80t4.5 -75.5q6 -79 11 -79h88zM596 315
q0 -40 -24.5 -71t-55.5 -52q48 0 90 35q46 37 46 78t-24 69t-57 41q0 -1 -0.5 -1t-0.5 -1v-1q0 -2 9.5 -14.5t12 -22.5t3.5 -21t1 -22v-17zM349 454q0 -63 -4 -124t-4 -123q85 0 127.5 18.5t63.5 44t21 67.5q0 28 -7 34l-68 63q-25 23 -99 20h-30z" />
    <glyph glyph-name="germandbls" unicode="&#xdf;" horiz-adv-x="614" 
d="M349 -63.5q10 -4.5 10 -20t-8 -15.5h-204q-14 0 -25 -7q-19 -13 -33.5 -13t-25 4.5t-28.5 15.5q-1 2 -1 7v5q0 24 15.5 30t34.5 6.5t34.5 1t15.5 11.5q0 54 -7 114t-9.5 95t-4.5 51t-7 30q-10 32 -30 32q-36 0 -59 -20q-8 21 -8 33q0 35 14 35h80l6 6v37q0 197 131 274
l17 9q15 7 35 14t22 7h112q20 0 62 -35q43 -35 43 -51v-62q0 -7 -19 -43.5t-23.5 -43t-12 -15t-14.5 -17.5q-19 -20 -19 -25q0 -7 13.5 -15t36.5 -28.5t43 -45.5q46 -61 46 -111t-7 -78q-14 -60 -50 -72l-161 -56q-1 -1 -2 -1h-2q-11 0 -16.5 13.5t-5.5 22t14.5 13.5
t37 10.5t48 13.5t48.5 21q51 31 51 92q0 55 -34 106t-84 73q-17 13 -21 20t-4 19q0 22 7 36q14 15 28.5 30t26.5 32q27 38 27 74t-22.5 61.5t-59.5 25.5q-36 0 -63 -17q-9 -6 -12 -14l-31 -75v-6q-19 -138 -19 -191.5t1.5 -95.5t3.5 -88q4 -105 14 -175q0 -20 10 -26.5
t22 -10t22 -8zM153 432l-2 -70v-39l2 -65q1 -19 4 -48.5t6 -63t6.5 -67.5t6.5 -61q5 -62 8 -62h63q0 67 -5 148q-9 146 -9 183v55l1 77v25q0 13 6 31q3 34 14 66t11 64l-19 -6q-3 0 -18 -15l-25 -25q-18 -18 -25.5 -36.5t-12 -35t-7.5 -31.5t-5 -24z" />
    <glyph glyph-name="agrave" unicode="&#xe0;" horiz-adv-x="539" 
d="M325 35q-68 -82 -172 -82q-59 0 -99 43q-35 39 -35 75.5t17.5 63t49.5 45.5q70 43 212 63q15 2 23 7q14 10 14 62q0 56 -36 72q-14 7 -34 7t-29 -7t-14 -16q-6 -13 -6 -28.5t4.5 -19.5t4.5 -14.5t-6 -16t-15 -7.5q-13 -4 -38 -4q-18 0 -45 -9t-31 -9q-9 0 -13.5 11
t-4.5 20.5t7 25.5t17 33q23 37 40 50q31 23 57 37.5t53.5 14.5t47.5 -2t40 -8q71 -19 98 -67q25 -44 25 -106q0 -27 -7 -55t-7 -54t4.5 -43.5t12.5 -33.5q17 -37 38 -37q6 0 11.5 4t10.5 4q21 0 21 -21q0 -20 -18 -35q-36 -30 -69 -30t-47 4t-25 11t-19 14.5t-16 15.5
t-14.5 15t-7.5 7zM169 3q-25 57 -25 91t8.5 54.5t22.5 40.5q-57 -27 -77 -41q-43 -32 -43 -69q0 -34 33 -59q29 -21 61 -21q11 0 20 4zM196 153q-11 -18 -11 -34t1 -31.5t4 -31.5q9 -39 26 -41q25 0 43 14q32 25 34 50l12 125q-78 0 -109 -51zM354 383q26 -40 26 -85
q0 -30 -12 -60.5t-17.5 -48.5t-5.5 -43t5.5 -49t19.5 -43q30 -41 88 -41q-54 62 -54 162q0 26 6 49q11 41 11 62.5t-5.5 36.5t-15.5 28q-20 28 -46 32zM182 341l1 44q-25 -2 -47 -31q-22 -31 -22 -56q8 8 33 8h31q5 0 8 -1q-4 11 -4 36zM381 592l1 -5q0 -12 -5 -15t-16 -3
h-7q-2 0 -4 1l-188 60q-1 0 -1 1v2q0 11 8 17t13 5.5t6 -0.5h5l188 -60v-3z" />
    <glyph glyph-name="aacute" unicode="&#xe1;" horiz-adv-x="539" 
d="M325 35q-68 -82 -172 -82q-59 0 -99 43q-35 39 -35 75.5t17.5 63t49.5 45.5q70 43 212 63q15 2 23 7q14 10 14 62q0 56 -36 72q-14 7 -34 7t-29 -7t-14 -16q-6 -13 -6 -28.5t4.5 -19.5t4.5 -14.5t-6 -16t-15 -7.5q-13 -4 -38 -4q-18 0 -45 -9t-31 -9q-9 0 -13.5 11
t-4.5 20.5t7 25.5t17 33q23 37 40 50q31 23 57 37.5t53.5 14.5t47.5 -2t40 -8q71 -19 98 -67q25 -44 25 -106q0 -27 -7 -55t-7 -54t4.5 -43.5t12.5 -33.5q17 -37 38 -37q6 0 11.5 4t10.5 4q21 0 21 -21q0 -20 -18 -35q-36 -30 -69 -30t-47 4t-25 11t-19 14.5t-16 15.5
t-14.5 15t-7.5 7zM169 3q-25 57 -25 91t8.5 54.5t22.5 40.5q-57 -27 -77 -41q-43 -32 -43 -69q0 -34 33 -59q29 -21 61 -21q11 0 20 4zM196 153q-11 -18 -11 -34t1 -31.5t4 -31.5q9 -39 26 -41q25 0 43 14q32 25 34 50l12 125q-78 0 -109 -51zM354 383q26 -40 26 -85
q0 -30 -12 -60.5t-17.5 -48.5t-5.5 -43t5.5 -49t19.5 -43q30 -41 88 -41q-54 62 -54 162q0 26 6 49q11 41 11 62.5t-5.5 36.5t-15.5 28q-20 28 -46 32zM182 341l1 44q-25 -2 -47 -31q-22 -31 -22 -56q8 8 33 8h31q5 0 8 -1q-4 11 -4 36zM352 655l4 1q10 0 18 -6t8 -12
t-0.5 -6t-0.5 -1v-1l-188 -60q-2 -1 -4 -1h-7q-11 0 -16 3t-5 15v5q0 2 1 3l188 60h2z" />
    <glyph glyph-name="acircumflex" unicode="&#xe2;" horiz-adv-x="539" 
d="M325 35q-68 -82 -172 -82q-59 0 -99 43q-35 39 -35 75.5t17.5 63t49.5 45.5q70 43 212 63q15 2 23 7q14 10 14 62q0 56 -36 72q-14 7 -34 7t-29 -7t-14 -16q-6 -13 -6 -28.5t4.5 -19.5t4.5 -14.5t-6 -16t-15 -7.5q-13 -4 -38 -4q-18 0 -45 -9t-31 -9q-9 0 -13.5 11
t-4.5 20.5t7 25.5t17 33q23 37 40 50q31 23 57 37.5t53.5 14.5t47.5 -2t40 -8q71 -19 98 -67q25 -44 25 -106q0 -27 -7 -55t-7 -54t4.5 -43.5t12.5 -33.5q17 -37 38 -37q6 0 11.5 4t10.5 4q21 0 21 -21q0 -20 -18 -35q-36 -30 -69 -30t-47 4t-25 11t-19 14.5t-16 15.5
t-14.5 15t-7.5 7zM169 3q-25 57 -25 91t8.5 54.5t22.5 40.5q-57 -27 -77 -41q-43 -32 -43 -69q0 -34 33 -59q29 -21 61 -21q11 0 20 4zM196 153q-11 -18 -11 -34t1 -31.5t4 -31.5q9 -39 26 -41q25 0 43 14q32 25 34 50l12 125q-78 0 -109 -51zM354 383q26 -40 26 -85
q0 -30 -12 -60.5t-17.5 -48.5t-5.5 -43t5.5 -49t19.5 -43q30 -41 88 -41q-54 62 -54 162q0 26 6 49q11 41 11 62.5t-5.5 36.5t-15.5 28q-20 28 -46 32zM182 341l1 44q-25 -2 -47 -31q-22 -31 -22 -56q8 8 33 8h31q5 0 8 -1q-4 11 -4 36zM286 627q-130 -56 -170 -56
q-12 0 -20.5 1.5t-14.5 12.5q5 26 15 32t19.5 9t22.5 9l129 48h3l5 1q28 -3 42 -13l131 -64q2 -2 7 -11t5 -15q0 -12 -25 -12l-130 52q-4 4 -8.5 5t-6.5 1.5t-2 0t-1 -0.5h-1z" />
    <glyph glyph-name="atilde" unicode="&#xe3;" horiz-adv-x="539" 
d="M325 35q-68 -82 -172 -82q-59 0 -99 43q-35 39 -35 75.5t17.5 63t49.5 45.5q70 43 212 63q15 2 23 7q14 10 14 62q0 56 -36 72q-14 7 -34 7t-29 -7t-14 -16q-6 -13 -6 -28.5t4.5 -19.5t4.5 -14.5t-6 -16t-15 -7.5q-13 -4 -38 -4q-18 0 -45 -9t-31 -9q-9 0 -13.5 11
t-4.5 20.5t7 25.5t17 33q23 37 40 50q31 23 57 37.5t53.5 14.5t47.5 -2t40 -8q71 -19 98 -67q25 -44 25 -106q0 -27 -7 -55t-7 -54t4.5 -43.5t12.5 -33.5q17 -37 38 -37q6 0 11.5 4t10.5 4q21 0 21 -21q0 -20 -18 -35q-36 -30 -69 -30t-47 4t-25 11t-19 14.5t-16 15.5
t-14.5 15t-7.5 7zM169 3q-25 57 -25 91t8.5 54.5t22.5 40.5q-57 -27 -77 -41q-43 -32 -43 -69q0 -34 33 -59q29 -21 61 -21q11 0 20 4zM196 153q-11 -18 -11 -34t1 -31.5t4 -31.5q9 -39 26 -41q25 0 43 14q32 25 34 50l12 125q-78 0 -109 -51zM354 383q26 -40 26 -85
q0 -30 -12 -60.5t-17.5 -48.5t-5.5 -43t5.5 -49t19.5 -43q30 -41 88 -41q-54 62 -54 162q0 26 6 49q11 41 11 62.5t-5.5 36.5t-15.5 28q-20 28 -46 32zM182 341l1 44q-25 -2 -47 -31q-22 -31 -22 -56q8 8 33 8h31q5 0 8 -1q-4 11 -4 36zM28 548q-22 0 -22 25.5t17 39
t41 28.5q58 39 119 39q30 0 82.5 -18.5t77.5 -27t39 -8.5q47 0 78 16t56 54q12 0 16.5 -4.5t8.5 -14.5q-9 -47 -59 -72q-43 -22 -97 -22q-21 0 -72 18q-95 34 -130.5 34t-60 -13.5t-41.5 -30t-29 -30t-24 -13.5z" />
    <glyph glyph-name="adieresis" unicode="&#xe4;" horiz-adv-x="539" 
d="M325 35q-68 -82 -172 -82q-59 0 -99 43q-35 39 -35 75.5t17.5 63t49.5 45.5q70 43 212 63q15 2 23 7q14 10 14 62q0 56 -36 72q-14 7 -34 7t-29 -7t-14 -16q-6 -13 -6 -28.5t4.5 -19.5t4.5 -14.5t-6 -16t-15 -7.5q-13 -4 -38 -4q-18 0 -45 -9t-31 -9q-9 0 -13.5 11
t-4.5 20.5t7 25.5t17 33q23 37 40 50q31 23 57 37.5t53.5 14.5t47.5 -2t40 -8q71 -19 98 -67q25 -44 25 -106q0 -27 -7 -55t-7 -54t4.5 -43.5t12.5 -33.5q17 -37 38 -37q6 0 11.5 4t10.5 4q21 0 21 -21q0 -20 -18 -35q-36 -30 -69 -30t-47 4t-25 11t-19 14.5t-16 15.5
t-14.5 15t-7.5 7zM169 3q-25 57 -25 91t8.5 54.5t22.5 40.5q-57 -27 -77 -41q-43 -32 -43 -69q0 -34 33 -59q29 -21 61 -21q11 0 20 4zM196 153q-11 -18 -11 -34t1 -31.5t4 -31.5q9 -39 26 -41q25 0 43 14q32 25 34 50l12 125q-78 0 -109 -51zM354 383q26 -40 26 -85
q0 -30 -12 -60.5t-17.5 -48.5t-5.5 -43t5.5 -49t19.5 -43q30 -41 88 -41q-54 62 -54 162q0 26 6 49q11 41 11 62.5t-5.5 36.5t-15.5 28q-20 28 -46 32zM182 341l1 44q-25 -2 -47 -31q-22 -31 -22 -56q8 8 33 8h31q5 0 8 -1q-4 11 -4 36zM125 634q-5 8 -5 18.5t6 20.5t16 16
q21 14 42.5 14t31.5 -13.5t10 -34t-14.5 -34t-30.5 -13.5t-25.5 3t-17.5 9t-13 14zM340 620q-18 12 -18 27.5t6 25.5t16 16q19 14 41 14t32.5 -13.5t10.5 -34t-15 -34t-35 -13.5t-38 12z" />
    <glyph glyph-name="aring" unicode="&#xe5;" horiz-adv-x="539" 
d="M325 35q-68 -82 -172 -82q-59 0 -99 43q-35 39 -35 75.5t17.5 63t49.5 45.5q70 43 212 63q15 2 23 7q14 10 14 62q0 56 -36 72q-14 7 -34 7t-29 -7t-14 -16q-6 -13 -6 -28.5t4.5 -19.5t4.5 -14.5t-6 -16t-15 -7.5q-13 -4 -38 -4q-18 0 -45 -9t-31 -9q-9 0 -13.5 11
t-4.5 20.5t7 25.5t17 33q23 37 40 50q31 23 57 37.5t53.5 14.5t47.5 -2t40 -8q71 -19 98 -67q25 -44 25 -106q0 -27 -7 -55t-7 -54t4.5 -43.5t12.5 -33.5q17 -37 38 -37q6 0 11.5 4t10.5 4q21 0 21 -21q0 -20 -18 -35q-36 -30 -69 -30t-47 4t-25 11t-19 14.5t-16 15.5
t-14.5 15t-7.5 7zM169 3q-25 57 -25 91t8.5 54.5t22.5 40.5q-57 -27 -77 -41q-43 -32 -43 -69q0 -34 33 -59q29 -21 61 -21q11 0 20 4zM196 153q-11 -18 -11 -34t1 -31.5t4 -31.5q9 -39 26 -41q25 0 43 14q32 25 34 50l12 125q-78 0 -109 -51zM354 383q26 -40 26 -85
q0 -30 -12 -60.5t-17.5 -48.5t-5.5 -43t5.5 -49t19.5 -43q30 -41 88 -41q-54 62 -54 162q0 26 6 49q11 41 11 62.5t-5.5 36.5t-15.5 28q-20 28 -46 32zM182 341l1 44q-25 -2 -47 -31q-22 -31 -22 -56q8 8 33 8h31q5 0 8 -1q-4 11 -4 36zM229 711l34 2q38 0 61 -15
q41 -28 41 -66q0 -35 -31 -67q-31 -34 -64 -34q-23 0 -29 7l-56 68q-7 9 -7 30.5t14.5 43.5t36.5 31zM233 660q-6 -9 -6 -21t3 -22t8 -19q12 -22 27 -22t24.5 5.5t16.5 13.5q16 18 16 40.5t-15 28t-41.5 5.5t-32.5 -9z" />
    <glyph glyph-name="ae" unicode="&#xe6;" horiz-adv-x="726" 
d="M505 -65l-10 1q-7 1 -21.5 4.5t-29.5 7.5q-39 8 -42 11q-39 19 -75 87q-11 -9 -19.5 -20.5t-17.5 -21.5q-20 -26 -39.5 -33.5t-31 -11t-21.5 -5.5q-15 -2 -33 -2q-29 0 -49.5 9.5t-37 21.5t-24.5 25q-14 22 -14 66q0 23 4 32q7 14 29 40q5 11 20.5 14t36 10.5t43.5 16.5
t44 9q35 0 98 6q17 2 21 17t4 36v91q-26 34 -45 46q-30 19 -73 25q-2 0 -7 -5q-18 -38 -23 -81.5t-7 -84.5l-6 -6l-15 -2q-16 -1 -36 -4q-46 -5 -72 -5t-26 22q0 11 12 57.5t17.5 60t17 33t27.5 32.5q31 28 94 28q8 0 12 -1.5t20 -6.5t38.5 -12.5t43.5 -17.5q43 -21 65 -62
q12 32 50 55.5t74 23.5q8 0 36 -10.5t44 -16t30 -12t25 -14.5q21 -18 42 -64q5 -10 10 -26t5 -21.5t-5.5 -22t-12.5 -34.5q-17 -41 -26 -46h-43q-25 0 -43 6q-10 1 -23 1.5t-26 1.5q-32 2 -50 13l-1 -19q0 -16 3.5 -25.5t3.5 -22.5l-1 -27l1 -11q0 -26 12 -53.5t25 -43
t31.5 -15.5t28 11t14.5 28t7 36t4 36q5 39 17 39q9 0 24 -9l16 -8q19 -12 31 -26t13 -16q-7 -35 -7 -36l1 -11q0 -20 -41 -45q-69 -43 -141 -43zM365 52q0 -3 12 -23q38 -53 105 -55q0 13 -14 29.5t-23 42.5q-2 9 -5.5 33t-7.5 51q-11 71 -12 82q0 52 8 78q10 31 36 84
q0 9 7 13.5t7 15.5q-51 -23 -63 -41q-15 -24 -22 -59t-10 -46q-12 -24 -13 -40q-2 -30 -5 -37v-128zM203 157l-6 1q-15 -8 -35.5 -14t-39.5 -15q-43 -21 -43 -63q0 -31 25.5 -53t61.5 -22l-12 23q-1 6 -1 11q-1 5 -1 9v8q0 64 51 115zM306.5 104.5q8.5 20.5 8.5 37t-11 16.5
q-42 0 -77 -40q-32 -36 -32 -74q0 -21 2 -25q1 -2 11.5 -9.5t14.5 -7.5t24 12q11 0 31 35t28.5 55.5zM626 77q0 -30 -13 -69q1 0 4.5 -0.5t10 6.5t10.5 16q11 21 11 29.5t-7.5 13t-15.5 4.5zM601 285q0 -38 -7 -62q2 -4 8 -7.5t13 -3.5t13.5 9.5t11.5 22.5q10 28 10 49
t-8.5 34t-18 25t-21 25t-23.5 13q-1 0 -1 -0.5t-1 -0.5h-2q26 -45 26 -98v-6zM544 229q4 30 13 45q0 48 -23 88q-8 12 -15.5 12t-11.5 -6q-20 -34 -32 -64t-12 -68q0 -12 7.5 -15t20.5 -3t28.5 0.5t30.5 0.5q-2 1 -4 5t-2 5zM166 417q-35 0 -60 -50q-27 -54 -27 -99h61z" />
    <glyph glyph-name="ccedilla" unicode="&#xe7;" horiz-adv-x="547" 
d="M338.5 415.5q25.5 -5.5 62.5 -5.5t71 27q13 0 24.5 -8.5t11.5 -9.5v-114q0 -10 -12 -17t-22.5 -7t-25 14.5t-34.5 32.5q-53 46 -110 46q-21 0 -37.5 -22t-26.5 -47t-14 -49q-7 -33 -7 -73.5t7.5 -70t19.5 -52.5q29 -54 67 -54q70 0 133 61q6 7 9 15.5t7 15.5q9 18 28 18
t25 -10t6 -20q-9 -18 -29.5 -39t-42 -36t-45.5 -24q-43 -16 -104.5 -16t-109 11t-82.5 38q-75 56 -75 184q0 88 63 148q70 69 187 69q30 0 55.5 -5.5zM214 20q-42 26 -42 160q0 59 11 113t16 69q-50 -17 -70 -43q-40 -50 -40 -140q0 -59 31 -107q35 -53 85 -53h4q2 0 3 0.5
t2 0.5zM462 337q6 7 6 18q0 14 -6 32l-44 -22zM248 6q8 10 20 10t12 -16t-7 -29.5t-7 -23.5t1 -12l63 -62q6 -7 6 -27.5t-5.5 -37.5t-16.5 -32q-24 -34 -56 -34q-47 0 -64 28q-7 11 -7 22.5t6 11.5q9 0 20.5 -8.5t17.5 -12.5t16 -4t20 7t17 18q14 23 14 40.5t-9 25t-21 12.5
t-23 9.5t-15 12.5v25q0 51 18 77z" />
    <glyph glyph-name="egrave" unicode="&#xe8;" horiz-adv-x="552" 
d="M247 129l-1 -13q0 -44 22 -77q8 -11 14 -14.5t16 -3.5h14q70 0 130 33q11 6 22.5 18.5l23 25t21.5 22t18 9.5t12 -9t4 -13q1 -10 -24.5 -38t-57 -46t-67.5 -29q-69 -23 -138 -23t-117 34t-86 86q-19 26 -22 55.5t-3 67t31 81.5t76 79.5t96.5 57.5t85.5 22t66 -5.5
t59 -18.5q66 -33 66 -96q0 -84 -90 -144q-76 -52 -171 -61zM223 29q-35 93 -35 156.5t18 114t41 95.5q-55 -16 -109 -75q-60 -66 -60 -129q0 -96 91 -139q26 -13 54 -23zM234 203q0 -10 10 -17t28 -7q33 0 74 59q37 56 37 100q0 24 -11 39q-20 27 -42.5 27t-40 -21.5
t-29.5 -52.5q-26 -66 -26 -127zM410 397q18 -27 18 -62.5t-22.5 -72t-51.5 -71.5q60 34 79 56q34 39 34 79q0 16 -11 35q-21 36 -46 36zM397 637l1 -5q0 -12 -5 -15t-16 -3h-7q-2 0 -4 1l-188 60q-1 0 -1 1v2q0 11 8 17t13 5.5t6 -0.5h5l188 -60v-3z" />
    <glyph glyph-name="eacute" unicode="&#xe9;" horiz-adv-x="552" 
d="M247 129l-1 -13q0 -44 22 -77q8 -11 14 -14.5t16 -3.5h14q70 0 130 33q11 6 22.5 18.5l23 25t21.5 22t18 9.5t12 -9t4 -13q1 -10 -24.5 -38t-57 -46t-67.5 -29q-69 -23 -138 -23t-117 34t-86 86q-19 26 -22 55.5t-3 67t31 81.5t76 79.5t96.5 57.5t85.5 22t66 -5.5
t59 -18.5q66 -33 66 -96q0 -84 -90 -144q-76 -52 -171 -61zM223 29q-35 93 -35 156.5t18 114t41 95.5q-55 -16 -109 -75q-60 -66 -60 -129q0 -96 91 -139q26 -13 54 -23zM234 203q0 -10 10 -17t28 -7q33 0 74 59q37 56 37 100q0 24 -11 39q-20 27 -42.5 27t-40 -21.5
t-29.5 -52.5q-26 -66 -26 -127zM410 397q18 -27 18 -62.5t-22.5 -72t-51.5 -71.5q60 34 79 56q34 39 34 79q0 16 -11 35q-21 36 -46 36zM368 691l4 1q10 0 18 -6t8 -12t-0.5 -6t-0.5 -1v-1l-188 -60q-2 -1 -4 -1h-7q-11 0 -16 3t-5 15v5q0 2 1 3l188 60h2z" />
    <glyph glyph-name="ecircumflex" unicode="&#xea;" horiz-adv-x="552" 
d="M247 129l-1 -13q0 -44 22 -77q8 -11 14 -14.5t16 -3.5h14q70 0 130 33q11 6 22.5 18.5l23 25t21.5 22t18 9.5t12 -9t4 -13q1 -10 -24.5 -38t-57 -46t-67.5 -29q-69 -23 -138 -23t-117 34t-86 86q-19 26 -22 55.5t-3 67t31 81.5t76 79.5t96.5 57.5t85.5 22t66 -5.5
t59 -18.5q66 -33 66 -96q0 -84 -90 -144q-76 -52 -171 -61zM223 29q-35 93 -35 156.5t18 114t41 95.5q-55 -16 -109 -75q-60 -66 -60 -129q0 -96 91 -139q26 -13 54 -23zM234 203q0 -10 10 -17t28 -7q33 0 74 59q37 56 37 100q0 24 -11 39q-20 27 -42.5 27t-40 -21.5
t-29.5 -52.5q-26 -66 -26 -127zM410 397q18 -27 18 -62.5t-22.5 -72t-51.5 -71.5q60 34 79 56q34 39 34 79q0 16 -11 35q-21 36 -46 36zM303 636q-130 -56 -170 -56q-12 0 -20.5 1.5t-14.5 12.5q5 26 15 32t19.5 9t22.5 9l129 48h3l5 1q28 -3 42 -13l131 -64q2 -2 7 -11
t5 -15q0 -12 -25 -12l-130 52q-4 4 -8.5 5t-6.5 1.5t-2 0t-1 -0.5h-1z" />
    <glyph glyph-name="edieresis" unicode="&#xeb;" horiz-adv-x="552" 
d="M247 129l-1 -13q0 -44 22 -77q8 -11 14 -14.5t16 -3.5h14q70 0 130 33q11 6 22.5 18.5l23 25t21.5 22t18 9.5t12 -9t4 -13q1 -10 -24.5 -38t-57 -46t-67.5 -29q-69 -23 -138 -23t-117 34t-86 86q-19 26 -22 55.5t-3 67t31 81.5t76 79.5t96.5 57.5t85.5 22t66 -5.5
t59 -18.5q66 -33 66 -96q0 -84 -90 -144q-76 -52 -171 -61zM223 29q-35 93 -35 156.5t18 114t41 95.5q-55 -16 -109 -75q-60 -66 -60 -129q0 -96 91 -139q26 -13 54 -23zM234 203q0 -10 10 -17t28 -7q33 0 74 59q37 56 37 100q0 24 -11 39q-20 27 -42.5 27t-40 -21.5
t-29.5 -52.5q-26 -66 -26 -127zM410 397q18 -27 18 -62.5t-22.5 -72t-51.5 -71.5q60 34 79 56q34 39 34 79q0 16 -11 35q-21 36 -46 36zM140 616q-5 8 -5 18.5t6 20.5t16 16q21 14 42.5 14t31.5 -13.5t10 -34t-14.5 -34t-30.5 -13.5t-25.5 3t-17.5 9t-13 14zM355 602
q-18 12 -18 27.5t6 25.5t16 16q19 14 41 14t32.5 -13.5t10.5 -34t-15 -34t-35 -13.5t-38 12z" />
    <glyph glyph-name="igrave" unicode="&#xec;" horiz-adv-x="399" 
d="M211 -8q-53 0 -137 -14q-25 0 -25 26q0 19 10.5 24t24.5 5.5t27.5 1.5t18.5 11v10l1 31v10q0 120 -20 207q-12 18 -29 21t-32.5 3.5t-27 4t-11.5 17.5t14.5 22t34 14t38 10.5t42 13t63.5 23.5t68 15t31.5 -5.5t3.5 -25.5t-6 -32l-1 -173q0 -57 3 -74q4 -21 22 -78
q4 -14 15.5 -21.5t23.5 -12.5t21.5 -10t9.5 -17q0 -21 -39 -21l-12 1q-42 13 -132 13zM249 391q-18 -6 -36 -6t-28 -3t-21 -6q-26 -8 -34 -16q28 -17 34 -98q10 -130 10 -208l12 -13h100q-3 7 -7 21.5l-8 29t-7 25.5l-3 10v13q-6 90 -6 150v82zM315 619l1 -5q0 -12 -5 -15
t-16 -3h-7q-2 0 -4 1l-188 60q-1 0 -1 1v2q0 11 8 17t13 5.5t6 -0.5h5l188 -60v-3z" />
    <glyph glyph-name="iacute" unicode="&#xed;" horiz-adv-x="399" 
d="M211 -8q-53 0 -137 -14q-25 0 -25 26q0 19 10.5 24t24.5 5.5t27.5 1.5t18.5 11v10l1 31v10q0 120 -20 207q-12 18 -29 21t-32.5 3.5t-27 4t-11.5 17.5t14.5 22t34 14t38 10.5t42 13t63.5 23.5t68 15t31.5 -5.5t3.5 -25.5t-6 -32l-1 -173q0 -57 3 -74q4 -21 22 -78
q4 -14 15.5 -21.5t23.5 -12.5t21.5 -10t9.5 -17q0 -21 -39 -21l-12 1q-42 13 -132 13zM249 391q-18 -6 -36 -6t-28 -3t-21 -6q-26 -8 -34 -16q28 -17 34 -98q10 -130 10 -208l12 -13h100q-3 7 -7 21.5l-8 29t-7 25.5l-3 10v13q-6 90 -6 150v82zM286 673l4 1q10 0 18 -6
t8 -12t-0.5 -6t-0.5 -1v-1l-188 -60q-2 -1 -4 -1h-7q-11 0 -16 3t-5 15v5q0 2 1 3l188 60h2z" />
    <glyph glyph-name="icircumflex" unicode="&#xee;" horiz-adv-x="399" 
d="M211 -8q-53 0 -137 -14q-25 0 -25 26q0 19 10.5 24t24.5 5.5t27.5 1.5t18.5 11v10l1 31v10q0 120 -20 207q-12 18 -29 21t-32.5 3.5t-27 4t-11.5 17.5t14.5 22t34 14t38 10.5t42 13t63.5 23.5t68 15t31.5 -5.5t3.5 -25.5t-6 -32l-1 -173q0 -57 3 -74q4 -21 22 -78
q4 -14 15.5 -21.5t23.5 -12.5t21.5 -10t9.5 -17q0 -21 -39 -21l-12 1q-42 13 -132 13zM249 391q-18 -6 -36 -6t-28 -3t-21 -6q-26 -8 -34 -16q28 -17 34 -98q10 -130 10 -208l12 -13h100q-3 7 -7 21.5l-8 29t-7 25.5l-3 10v13q-6 90 -6 150v82zM220 618q-130 -56 -170 -56
q-12 0 -20.5 1.5t-14.5 12.5q5 26 15 32t19.5 9t22.5 9l129 48h3l5 1q28 -3 42 -13l131 -64q2 -2 7 -11t5 -15q0 -12 -25 -12l-130 52q-4 4 -8.5 5t-6.5 1.5t-2 0t-1 -0.5h-1z" />
    <glyph glyph-name="idieresis" unicode="&#xef;" horiz-adv-x="399" 
d="M211 -8q-53 0 -137 -14q-25 0 -25 26q0 19 10.5 24t24.5 5.5t27.5 1.5t18.5 11v10l1 31v10q0 120 -20 207q-12 18 -29 21t-32.5 3.5t-27 4t-11.5 17.5t14.5 22t34 14t38 10.5t42 13t63.5 23.5t68 15t31.5 -5.5t3.5 -25.5t-6 -32l-1 -173q0 -57 3 -74q4 -21 22 -78
q4 -14 15.5 -21.5t23.5 -12.5t21.5 -10t9.5 -17q0 -21 -39 -21l-12 1q-42 13 -132 13zM249 391q-18 -6 -36 -6t-28 -3t-21 -6q-26 -8 -34 -16q28 -17 34 -98q10 -130 10 -208l12 -13h100q-3 7 -7 21.5l-8 29t-7 25.5l-3 10v13q-6 90 -6 150v82zM60 607q-5 8 -5 18.5t6 20.5
t16 16q21 14 42.5 14t31.5 -13.5t10 -34t-14.5 -34t-30.5 -13.5t-25.5 3t-17.5 9t-13 14zM275 593q-18 12 -18 27.5t6 25.5t16 16q19 14 41 14t32.5 -13.5t10.5 -34t-15 -34t-35 -13.5t-38 12z" />
    <glyph glyph-name="eth" unicode="&#xf0;" 
d="M215 472q-22 0 -22 22q0 21 36 36q15 7 30.5 12.5t25.5 9.5q-8 17 -19 34.5t-24 38t-14 33.5q-2 25 22 25q76 0 142 -79q47 29 57 29q21 0 23 -23q0 -13 -11 -17l-42 -25q75 -119 103 -284q7 -41 7 -71t-2.5 -66.5t-19 -67.5t-38 -53.5t-47.5 -35.5q-46 -21 -121 -21
t-131 25t-107 86q-21 32 -26.5 68t-5.5 58q0 36 25 86q17 32 31 43t43 33q72 53 151 53q32 0 64 -7q-27 73 -38 96l-51 -24q-31 -14 -41 -14zM233 198q0 -8 0.5 -21.5t3 -40t9.5 -50.5q15 -59 46 -59q37 0 51 19t17.5 44t6 39.5t4.5 28.5q5 35 5 57.5t-3 47.5t-10 49
q-17 60 -40 60q-71 0 -86 -102q-4 -28 -4 -46v-26zM318 629q-24 13 -34.5 13t-10.5 -6t7 -16q69 -93 99 -185.5t30 -199.5q0 -85 -10.5 -129.5t-20.5 -60.5q0 -10 2.5 -14t16.5 -3.5t31.5 15.5t29.5 39q27 51 27 100.5t-4 91t-13 84.5q-19 93 -52 147t-53 80.5t-45 43.5z
M221 29q-27 89 -27 193t26 146q-14 -1 -38 -17.5t-48 -40.5q-59 -61 -59 -107q0 -58 49 -119q22 -27 48.5 -44.5t50.5 -17.5q-1 0 -1 1v3q-1 2 -1 3z" />
    <glyph glyph-name="ntilde" unicode="&#xf1;" horiz-adv-x="631" 
d="M51 -20q-28 4 -28 35q2 14 8 17t16 3l8 -1q28 0 35 24q6 16 6 58.5t7 95t7 96t-3 76.5l-47 -2h-9q-9 2 -20 6t-11 12t6.5 15t8.5 11q6 -1 11 -1h22t29 1t18.5 1.5t13 1.5t26.5 1q28 0 78 22q12 -2 20.5 -7.5t12.5 -7.5l-5 -49q2 -2 7 -2q8 0 29 16q47 21 75 31.5t44 10.5
t31.5 -5t31.5 -15q37 -21 51 -54q23 -57 23 -95q0 -16 -5 -42q-8 -49 -8 -73q0 -38 5 -53.5t9 -27.5q9 -31 14 -33q5 -5 13 -6.5t15 -3.5q19 -5 19 -19t-47 -22q-84 -14 -121 13q-71 52 -71 212q0 134 -52 134q-26 0 -48 -26q-22 -25 -24 -48l-20 -198q0 -35 20 -48.5
t53 -16.5q7 -1 7 -10q0 -19 -36 -19q-13 0 -31 5q-36 10 -67.5 10t-126.5 -23zM141 364l1 -60q0 -9 -2 -32.5t-4 -53.5q-6 -88 -6 -116t1 -40t5 -18q4 -7 35 -7q15 0 21 3t6 14.5t-4 31.5q2 17 4.5 42.5t5.5 54t6.5 58.5t5.5 56q6 57 6 74v4q0 9 -1.5 19t-11.5 10
q-21 0 -41.5 -7.5t-22.5 -10.5zM404 403q-26 0 -28 -16q0 -7 5 -11.5t11 -11.5q16 -19 20 -48t3 -70.5t3.5 -84.5t19 -80t50.5 -55q10 0 20 10t10 21l-16 83l7 137q0 64 -33 105q-15 21 -72 21zM91 557q-22 0 -22 25.5t17 39t41 28.5q58 39 119 39q30 0 82.5 -18.5t77.5 -27
t39 -8.5q47 0 78 16t56 54q12 0 16.5 -4.5t8.5 -14.5q-9 -47 -59 -72q-43 -22 -97 -22q-21 0 -72 18q-95 34 -130.5 34t-60 -13.5t-41.5 -30t-29 -30t-24 -13.5z" />
    <glyph glyph-name="ograve" unicode="&#xf2;" 
d="M57 82q-20 29 -23 61t-3 74t29 81.5t74 67.5q94 60 202 60q94 0 158 -93q27 -40 41.5 -87.5t14.5 -96.5t-30 -95q-40 -62 -114 -80q-24 -5 -61.5 -11t-44.5 -6q-74 0 -135 27t-108 98zM225 364q-20 0 -46.5 -16.5t-50.5 -41.5q-57 -61 -57 -118q0 -48 29 -81
q77 -89 114 -89q-10 40 -23 82.5t-13 69.5t3 49.5t9 48.5q14 64 35 96zM223 183q0 -23 2.5 -50t9.5 -52q17 -61 49 -61q35 0 54 24t28 58q12 46 12 144q0 42 -10 73q-19 58 -36 58q-63 0 -90 -71q-19 -52 -19 -123zM394 363q25 -68 25 -148q0 -68 -34 -170q-1 -2 -1 -4
q0 -9 19 -9t38.5 13.5t32.5 35.5q26 44 26 106t-29 104t-77 72zM400 619l1 -5q0 -12 -5 -15t-16 -3h-7q-2 0 -4 1l-188 60q-1 0 -1 1v2q0 11 8 17t13 5.5t6 -0.5h5l188 -60v-3z" />
    <glyph glyph-name="oacute" unicode="&#xf3;" 
d="M57 82q-20 29 -23 61t-3 74t29 81.5t74 67.5q94 60 202 60q94 0 158 -93q27 -40 41.5 -87.5t14.5 -96.5t-30 -95q-40 -62 -114 -80q-24 -5 -61.5 -11t-44.5 -6q-74 0 -135 27t-108 98zM225 364q-20 0 -46.5 -16.5t-50.5 -41.5q-57 -61 -57 -118q0 -48 29 -81
q77 -89 114 -89q-10 40 -23 82.5t-13 69.5t3 49.5t9 48.5q14 64 35 96zM223 183q0 -23 2.5 -50t9.5 -52q17 -61 49 -61q35 0 54 24t28 58q12 46 12 144q0 42 -10 73q-19 58 -36 58q-63 0 -90 -71q-19 -52 -19 -123zM394 363q25 -68 25 -148q0 -68 -34 -170q-1 -2 -1 -4
q0 -9 19 -9t38.5 13.5t32.5 35.5q26 44 26 106t-29 104t-77 72zM371 691l4 1q10 0 18 -6t8 -12t-0.5 -6t-0.5 -1v-1l-188 -60q-2 -1 -4 -1h-7q-11 0 -16 3t-5 15v5q0 2 1 3l188 60h2z" />
    <glyph glyph-name="ocircumflex" unicode="&#xf4;" 
d="M57 82q-20 29 -23 61t-3 74t29 81.5t74 67.5q94 60 202 60q94 0 158 -93q27 -40 41.5 -87.5t14.5 -96.5t-30 -95q-40 -62 -114 -80q-24 -5 -61.5 -11t-44.5 -6q-74 0 -135 27t-108 98zM225 364q-20 0 -46.5 -16.5t-50.5 -41.5q-57 -61 -57 -118q0 -48 29 -81
q77 -89 114 -89q-10 40 -23 82.5t-13 69.5t3 49.5t9 48.5q14 64 35 96zM223 183q0 -23 2.5 -50t9.5 -52q17 -61 49 -61q35 0 54 24t28 58q12 46 12 144q0 42 -10 73q-19 58 -36 58q-63 0 -90 -71q-19 -52 -19 -123zM394 363q25 -68 25 -148q0 -68 -34 -170q-1 -2 -1 -4
q0 -9 19 -9t38.5 13.5t32.5 35.5q26 44 26 106t-29 104t-77 72zM306 600q-130 -56 -170 -56q-12 0 -20.5 1.5t-14.5 12.5q5 26 15 32t19.5 9t22.5 9l129 48h3l5 1q28 -3 42 -13l131 -64q2 -2 7 -11t5 -15q0 -12 -25 -12l-130 52q-4 4 -8.5 5t-6.5 1.5t-2 0t-1 -0.5h-1z" />
    <glyph glyph-name="otilde" unicode="&#xf5;" 
d="M57 82q-20 29 -23 61t-3 74t29 81.5t74 67.5q94 60 202 60q94 0 158 -93q27 -40 41.5 -87.5t14.5 -96.5t-30 -95q-40 -62 -114 -80q-24 -5 -61.5 -11t-44.5 -6q-74 0 -135 27t-108 98zM225 364q-20 0 -46.5 -16.5t-50.5 -41.5q-57 -61 -57 -118q0 -48 29 -81
q77 -89 114 -89q-10 40 -23 82.5t-13 69.5t3 49.5t9 48.5q14 64 35 96zM223 183q0 -23 2.5 -50t9.5 -52q17 -61 49 -61q35 0 54 24t28 58q12 46 12 144q0 42 -10 73q-19 58 -36 58q-63 0 -90 -71q-19 -52 -19 -123zM394 363q25 -68 25 -148q0 -68 -34 -170q-1 -2 -1 -4
q0 -9 19 -9t38.5 13.5t32.5 35.5q26 44 26 106t-29 104t-77 72zM49 521q-22 0 -22 25.5t17 39t41 28.5q58 39 119 39q30 0 82.5 -18.5t77.5 -27t39 -8.5q47 0 78 16t56 54q12 0 16.5 -4.5t8.5 -14.5q-9 -47 -59 -72q-43 -22 -97 -22q-21 0 -72 18q-95 34 -130.5 34
t-60 -13.5t-41.5 -30t-29 -30t-24 -13.5z" />
    <glyph glyph-name="odieresis" unicode="&#xf6;" 
d="M57 82q-20 29 -23 61t-3 74t29 81.5t74 67.5q94 60 202 60q94 0 158 -93q27 -40 41.5 -87.5t14.5 -96.5t-30 -95q-40 -62 -114 -80q-24 -5 -61.5 -11t-44.5 -6q-74 0 -135 27t-108 98zM225 364q-20 0 -46.5 -16.5t-50.5 -41.5q-57 -61 -57 -118q0 -48 29 -81
q77 -89 114 -89q-10 40 -23 82.5t-13 69.5t3 49.5t9 48.5q14 64 35 96zM223 183q0 -23 2.5 -50t9.5 -52q17 -61 49 -61q35 0 54 24t28 58q12 46 12 144q0 42 -10 73q-19 58 -36 58q-63 0 -90 -71q-19 -52 -19 -123zM394 363q25 -68 25 -148q0 -68 -34 -170q-1 -2 -1 -4
q0 -9 19 -9t38.5 13.5t32.5 35.5q26 44 26 106t-29 104t-77 72zM143 607q-5 8 -5 18.5t6 20.5t16 16q21 14 42.5 14t31.5 -13.5t10 -34t-14.5 -34t-30.5 -13.5t-25.5 3t-17.5 9t-13 14zM358 593q-18 12 -18 27.5t6 25.5t16 16q19 14 41 14t32.5 -13.5t10.5 -34t-15 -34
t-35 -13.5t-38 12z" />
    <glyph glyph-name="divide" unicode="&#xf7;" horiz-adv-x="508" 
d="M257 170q4 0 13.5 -5t12.5 -9v-5q0 -29 -17.5 -37.5t-30.5 -8.5h-25q-12 0 -15 1q5 26 18.5 45t43.5 19zM94 307l-40 -2q0 20 15 28q32 5 82.5 12.5t87 13t70 10.5t60 8.5t39.5 5.5l49 3q0 -3 -4 -14t-6.5 -13.5t-9.5 -6.5t-15 -8q-22 -11 -26 -11.5t-20 -0.5h-36l-57 1
q-56 -7 -189 -26zM195 471q18 25 39.5 33t52.5 8q0 -28 -17 -41.5t-34.5 -13.5t-28 1t-12.5 13z" />
    <glyph glyph-name="oslash" unicode="&#xf8;" horiz-adv-x="582" 
d="M167 -13q-87 -87 -117 -87t-30 13.5t89 112.5q-23 18 -52 56q-19 32 -22.5 65.5t-3.5 56t0.5 29.5t9.5 26t18 35t17 27q10 13 45 37q87 60 191 66q19 1 32 14q13 0 17.5 -6.5t18.5 -13.5q39 -21 50 -28q56 47 87 47q11 0 24 -3.5t13 -8.5q0 -7 -67 -88q40 -46 49 -75
q14 -45 14 -115q0 -48 -12 -65q-8 -8 -25 -24.5t-29 -30.5t-20 -23q-21 -22 -32 -22q-8 -2 -26.5 -5.5t-39.5 -7.5q-54 -10 -66 -12q-73 0 -133 30zM193 189q0 129 32 174q-8 0 -28.5 -10t-42.5 -27q-55 -39 -72 -81q-5 -11 -9.5 -19t-4.5 -18t2 -23.5t6 -28.5
q12 -37 24 -49q18 -23 42 -45l54 59q-3 36 -3 68zM407 151q-13 -57 -13 -89q0 -12 12 -12q50 0 82 36q31 34 31 78.5t-11.5 73t-44.5 63.5l-4 3l-52 -58v-95zM363 329q-14 48 -31 48q-61 0 -86 -73q-15 -45 -15 -126v-17q10 13 15.5 23t15.5 24q26 38 80 97zM242 67
q13 -47 42 -47q37 0 52.5 17t19.5 42.5t7 39.5t5 28q6 41 7 64zM213 19v6l-3 8l-11 -12q7 -3 15 -3q-1 0 -1 1zM397 362q-2 0 -3 1l1 -4z" />
    <glyph glyph-name="ugrave" unicode="&#xf9;" horiz-adv-x="645" 
d="M551 -33q-98 0 -151 120q-9 -39 -72 -75q-135 -76 -218 23q-41 49 -41 108v167q0 12 -6 19.5t-13 15t-13 16t-6 22.5q0 29 98 29h39q37 0 51 -2l37 -13q0 -36 -6 -104q-13 -131 -13 -165v-11q0 -29 5 -38q9 -19 34 -19q17 0 31 9.5t25 17.5q2 3 15 21q25 31 25 35v254
q0 31 110 33h51t28.5 -4.5t7.5 -15t-1 -14t-6 -5.5q-3 -22 -7.5 -40.5t-8.5 -36.5q-9 -40 -9 -79q0 -155 58 -194q20 -13 34.5 -18t14.5 -6q0 -15 -34 -33q-34 -17 -59 -17zM431 379q-13 0 -13 -83q0 -108 10.5 -158t24.5 -68q43 -53 88 -53q2 0 7.5 0.5t7.5 0.5
q-63 53 -63 210q0 29 9 63q17 63 17 95zM123 370q-11 -46 -11 -103.5t1 -85.5t6 -51t15 -45q27 -55 73 -55q-20 57 -20.5 66t-0.5 22t2.5 34.5t5.5 47.5q8 71 8 92t-0.5 29.5t-1.5 17.5q-2 45 -2 24l-6 7h-69zM425 610l1 -5q0 -12 -5 -15t-16 -3h-7q-2 0 -4 1l-188 60
q-1 0 -1 1v2q0 11 8 17t13 5.5t6 -0.5h5l188 -60v-3z" />
    <glyph glyph-name="uacute" unicode="&#xfa;" horiz-adv-x="645" 
d="M551 -33q-98 0 -151 120q-9 -39 -72 -75q-135 -76 -218 23q-41 49 -41 108v167q0 12 -6 19.5t-13 15t-13 16t-6 22.5q0 29 98 29h39q37 0 51 -2l37 -13q0 -36 -6 -104q-13 -131 -13 -165v-11q0 -29 5 -38q9 -19 34 -19q17 0 31 9.5t25 17.5q2 3 15 21q25 31 25 35v254
q0 31 110 33h51t28.5 -4.5t7.5 -15t-1 -14t-6 -5.5q-3 -22 -7.5 -40.5t-8.5 -36.5q-9 -40 -9 -79q0 -155 58 -194q20 -13 34.5 -18t14.5 -6q0 -15 -34 -33q-34 -17 -59 -17zM431 379q-13 0 -13 -83q0 -108 10.5 -158t24.5 -68q43 -53 88 -53q2 0 7.5 0.5t7.5 0.5
q-63 53 -63 210q0 29 9 63q17 63 17 95zM123 370q-11 -46 -11 -103.5t1 -85.5t6 -51t15 -45q27 -55 73 -55q-20 57 -20.5 66t-0.5 22t2.5 34.5t5.5 47.5q8 71 8 92t-0.5 29.5t-1.5 17.5q-2 45 -2 24l-6 7h-69zM396 673l4 1q10 0 18 -6t8 -12t-0.5 -6t-0.5 -1v-1l-188 -60
q-2 -1 -4 -1h-7q-11 0 -16 3t-5 15v5q0 2 1 3l188 60h2z" />
    <glyph glyph-name="ucircumflex" unicode="&#xfb;" horiz-adv-x="645" 
d="M551 -33q-98 0 -151 120q-9 -39 -72 -75q-135 -76 -218 23q-41 49 -41 108v167q0 12 -6 19.5t-13 15t-13 16t-6 22.5q0 29 98 29h39q37 0 51 -2l37 -13q0 -36 -6 -104q-13 -131 -13 -165v-11q0 -29 5 -38q9 -19 34 -19q17 0 31 9.5t25 17.5q2 3 15 21q25 31 25 35v254
q0 31 110 33h51t28.5 -4.5t7.5 -15t-1 -14t-6 -5.5q-3 -22 -7.5 -40.5t-8.5 -36.5q-9 -40 -9 -79q0 -155 58 -194q20 -13 34.5 -18t14.5 -6q0 -15 -34 -33q-34 -17 -59 -17zM431 379q-13 0 -13 -83q0 -108 10.5 -158t24.5 -68q43 -53 88 -53q2 0 7.5 0.5t7.5 0.5
q-63 53 -63 210q0 29 9 63q17 63 17 95zM123 370q-11 -46 -11 -103.5t1 -85.5t6 -51t15 -45q27 -55 73 -55q-20 57 -20.5 66t-0.5 22t2.5 34.5t5.5 47.5q8 71 8 92t-0.5 29.5t-1.5 17.5q-2 45 -2 24l-6 7h-69zM331 636q-130 -56 -170 -56q-12 0 -20.5 1.5t-14.5 12.5
q5 26 15 32t19.5 9t22.5 9l129 48h3l5 1q28 -3 42 -13l131 -64q2 -2 7 -11t5 -15q0 -12 -25 -12l-130 52q-4 4 -8.5 5t-6.5 1.5t-2 0t-1 -0.5h-1z" />
    <glyph glyph-name="udieresis" unicode="&#xfc;" horiz-adv-x="645" 
d="M551 -33q-98 0 -151 120q-9 -39 -72 -75q-135 -76 -218 23q-41 49 -41 108v167q0 12 -6 19.5t-13 15t-13 16t-6 22.5q0 29 98 29h39q37 0 51 -2l37 -13q0 -36 -6 -104q-13 -131 -13 -165v-11q0 -29 5 -38q9 -19 34 -19q17 0 31 9.5t25 17.5q2 3 15 21q25 31 25 35v254
q0 31 110 33h51t28.5 -4.5t7.5 -15t-1 -14t-6 -5.5q-3 -22 -7.5 -40.5t-8.5 -36.5q-9 -40 -9 -79q0 -155 58 -194q20 -13 34.5 -18t14.5 -6q0 -15 -34 -33q-34 -17 -59 -17zM431 379q-13 0 -13 -83q0 -108 10.5 -158t24.5 -68q43 -53 88 -53q2 0 7.5 0.5t7.5 0.5
q-63 53 -63 210q0 29 9 63q17 63 17 95zM123 370q-11 -46 -11 -103.5t1 -85.5t6 -51t15 -45q27 -55 73 -55q-20 57 -20.5 66t-0.5 22t2.5 34.5t5.5 47.5q8 71 8 92t-0.5 29.5t-1.5 17.5q-2 45 -2 24l-6 7h-69zM167 616q-5 8 -5 18.5t6 20.5t16 16q21 14 42.5 14t31.5 -13.5
t10 -34t-14.5 -34t-30.5 -13.5t-25.5 3t-17.5 9t-13 14zM382 602q-18 12 -18 27.5t6 25.5t16 16q19 14 41 14t32.5 -13.5t10.5 -34t-15 -34t-35 -13.5t-38 12z" />
    <glyph glyph-name="yacute" unicode="&#xfd;" horiz-adv-x="615" 
d="M433 363q-42 0 -42 21q0 1 4 9.5t8 9.5l194 12q3 0 14 -9l11 -10q0 -22 -56 -24q-14 0 -25 -1q-13 -89 -41.5 -171t-47.5 -136t-32.5 -86t-30.5 -65.5t-36.5 -66.5t-40.5 -59q-45 -58 -81 -58q-62 0 -139 87q-39 46 -53.5 74t-14.5 37t6 14.5t15 8.5q12 4 34 4t35 -2
t24 -12q25 -24 25 -99q21 -27 30 -36q20 -18 41 -18q23 0 59 61q35 59 35 97t-11.5 65.5t-29 54.5t-38 54.5t-45 68t-59 79.5t-86.5 61q-7 3 -17.5 5t-20.5 5q-25 9 -25 26.5t14 26t36 13t49 6.5t40 3.5t18 1.5t12.5 -1t16 -2t19.5 -5.5t28.5 -23t34.5 -41.5q33 -41 58 -83
l62 -101q13 -18 32 -55h6q4 9 23 71t46 179l-1 15zM116 353q17 -20 37.5 -34.5t37.5 -34.5q50 -60 86.5 -120.5t54.5 -92.5t21.5 -40t7.5 -17q10 -21 14.5 -21t8.5 7t7 16q6 18 6 30q-26 44 -51.5 95t-54.5 93q-14 17 -29.5 38.5t-32.5 41.5q-40 45 -68 45q-29 0 -45 -6z
M414 673l4 1q10 0 18 -6t8 -12t-0.5 -6t-0.5 -1v-1l-188 -60q-2 -1 -4 -1h-7q-11 0 -16 3t-5 15v5q0 2 1 3l188 60h2z" />
    <glyph glyph-name="thorn" unicode="&#xfe;" horiz-adv-x="710" 
d="M392 -118q6 0 6 -16v-11q0 -11 -6 -13l-63 -13h-235q-10 0 -14.5 9t-4.5 16q0 22 12 22h75v120h-86q-7 0 -16 8q-16 14 -16 21t19 15q5 -1 15 -1h22q37 0 47.5 5.5t10.5 19.5l-2 32q0 85 -4 132t-8 48q-17 2 -38.5 1.5t-39.5 2.5q-44 7 -44 47l121 -7l1 30l-7 112h-12
l-44 -7q-8 0 -16.5 9t-8.5 19t9 14.5t21 5.5t24.5 2t19.5 6t8 8.5t2 5.5q2 5 12 5t14 -2t7 -4q9 -6 15 -6l179 7q18 0 18 -12.5t-2 -18.5t-6.5 -9.5t-11.5 -5.5t-17 -5q-6 -50 -6 -76t0.5 -33.5t5.5 -20.5q21 3 55 3q51 0 168 -40q81 -27 109 -95q10 -22 10 -52.5t-12 -65
t-44 -54.5q-21 -12 -53 -24.5t-35 -12.5l-186 -12l-12 -6q-3 -3 -4 -18t-1.5 -22t-0.5 -11v-15q0 -10 0.5 -19t1.5 -18h48zM304 -84l2 333q0 161 -7 206l-6 19q-2 2 -9 2h-59t-44 -8v-36q0 -100 4.5 -193t6 -131.5t4 -80t4.5 -75.5q6 -79 11 -79h88zM596 163
q0 -39 -24.5 -70.5t-55.5 -52.5q48 0 90 35q46 37 46 78t-24 69t-57 41q0 -1 -1 -3q0 -2 9.5 -14.5t12 -22.5t3.5 -21t1 -22v-17zM349 302q0 -62 -4 -123.5t-4 -123.5q85 0 127.5 18.5t63.5 44t21 67.5q0 28 -7 35l-68 62q-25 23 -99 20h-30z" />
    <glyph glyph-name="ydieresis" unicode="&#xff;" horiz-adv-x="615" 
d="M433 363q-42 0 -42 21q0 1 4 9.5t8 9.5l194 12q3 0 14 -9l11 -10q0 -22 -56 -24q-14 0 -25 -1q-13 -89 -41.5 -171t-47.5 -136t-32.5 -86t-30.5 -65.5t-36.5 -66.5t-40.5 -59q-45 -58 -81 -58q-62 0 -139 87q-39 46 -53.5 74t-14.5 37t6 14.5t15 8.5q12 4 34 4t35 -2
t24 -12q25 -24 25 -99q21 -27 30 -36q20 -18 41 -18q23 0 59 61q35 59 35 97t-11.5 65.5t-29 54.5t-38 54.5t-45 68t-59 79.5t-86.5 61q-7 3 -17.5 5t-20.5 5q-25 9 -25 26.5t14 26t36 13t49 6.5t40 3.5t18 1.5t12.5 -1t16 -2t19.5 -5.5t28.5 -23t34.5 -41.5q33 -41 58 -83
l62 -101q13 -18 32 -55h6q4 9 23 71t46 179l-1 15zM116 353q17 -20 37.5 -34.5t37.5 -34.5q50 -60 86.5 -120.5t54.5 -92.5t21.5 -40t7.5 -17q10 -21 14.5 -21t8.5 7t7 16q6 18 6 30q-26 44 -51.5 95t-54.5 93q-14 17 -29.5 38.5t-32.5 41.5q-40 45 -68 45q-29 0 -45 -6z
M185 729q-5 8 -5 18.5t6 20.5t16 16q21 14 42.5 14t31.5 -13.5t10 -34t-14.5 -34t-30.5 -13.5t-25.5 3t-17.5 9t-13 14zM400 715q-18 12 -18 27.5t6 25.5t16 16q19 14 41 14t32.5 -13.5t10.5 -34t-15 -34t-35 -13.5t-38 12z" />
    <glyph glyph-name="dotlessi" unicode="&#x131;" horiz-adv-x="398" 
d="M211 -8q-53 0 -137 -14q-25 0 -25 26q0 19 10.5 24t24.5 5.5t27.5 1.5t18.5 11v10l1 31v10q0 120 -20 207q-12 18 -29 21t-32.5 3.5t-27 4t-11.5 17.5t14.5 22t34 14t38 10.5t42 13t63.5 23.5t68 15t31.5 -5.5t3.5 -25.5t-6 -32l-1 -173q0 -57 3 -74q4 -21 22 -78
q4 -14 15.5 -21.5t23.5 -12.5t21.5 -10t9.5 -17q0 -21 -39 -21l-12 1q-42 13 -132 13zM249 391q-18 -6 -36 -6t-28 -3t-21 -6q-26 -8 -34 -16q28 -17 34 -98q10 -130 10 -208l12 -13h100q-3 7 -7 21.5l-8 29t-7 25.5l-3 10v13q-6 90 -6 150v82z" />
    <glyph glyph-name="OE" unicode="&#x152;" horiz-adv-x="821" 
d="M712 73l-30 -1q-46 -6 -92 -14q-89 -15 -98.5 -17t-18 -6.5t-17.5 -9.5q-24 -13 -28 -18h-199q-11 7 -21 13q-100 55 -134 116q-28 52 -28 150q0 186 113 299q37 37 85 61q20 11 30 14t27 3l14 -1q48 -12 78 -22t37.5 -11.5t30.5 -4t47.5 -4.5t46 -4t27.5 -2t16.5 2
t21.5 4q28 5 34 9t22 24q31 41 34 42q10 8 17 8q0 -21 -13 -59q-24 -71 -32 -71h-184l85 -188l14 -1q17 0 28.5 9t22 19.5t21.5 19.5t28 9l-1 -23q-3 -32 -8.5 -64.5t-6 -35.5t-6 -8.5t-7.5 -5.5q-21 28 -28 32h-13l-44 -16q0 -39 -14 -165q0 -7 -14 -49l35 -1h42
q78 0 121 33q10 9 14.5 19t8.5 19q9 21 36 21q0 -22 -14 -64q-25 -78 -37 -78q-9 0 -16 6q-14 12 -33 12zM329 596q0 5 -22.5 5t-39.5 -23t-27 -56q-20 -59 -28 -156l-4 -48q-6 -51 -6 -61.5t1.5 -30t4 -40.5t4.5 -39.5t3 -24.5q2 0 14 -22.5t15 -27.5q5 -5 8 -9t6 -7h113
q3 0 15 14q20 22 28.5 38t14.5 42t9 54q5 48 5 106q0 143 -58 222q-18 27 -36 45t-20 19zM442 565q0 1 -4 1h-7q-2 0 -3 -1q28 -73 35 -117q9 -66 9 -116v-70l-1 -74v-17l-14 -65l-1 -16q0 -2 0.5 -8.5t0.5 -9.5q4 5 14.5 16.5t21.5 24.5q30 36 35.5 44t8.5 21.5t4 28
t1 27.5v26q0 99 -14.5 153.5t-34.5 89.5t-51 62zM202 549l-7 1q-9 0 -12.5 -4t-16.5 -26.5t-29.5 -52t-27.5 -60.5q-22 -62 -22 -127t18.5 -104t54.5 -70q5 -5 11 -5q0 112 5 225.5t26 222.5z" />
    <glyph glyph-name="oe" unicode="&#x153;" horiz-adv-x="786" 
d="M616 -23h-25q-20 0 -35 5l-25 7q-10 3 -22 6q-36 9 -46.5 17t-20.5 15q-21 16 -28 25q-19 -2 -29.5 -14t-33 -26.5t-50.5 -28t-54 -13.5q-41 0 -66 9q-140 37 -150 166q3 81 13 94q61 112 153 161q33 17 71 23q50 0 106 -51l26 -26q11 0 27.5 12.5t36 27t40.5 27
t41.5 12.5t39 -7.5t41.5 -15t45 -31.5t39 -51.5t29 -55t20 -44.5q-9 -38 -42 -41q-18 0 -63 -8.5t-63 -11.5q-8 -3 -16 -3.5t-15 -3.5q-14 -7 -14 -28l2 -26q6 -25 9.5 -40.5t8.5 -23.5q7 -14 33 -14t44 3.5t30 9.5t22 13t26 15h2l4 1q11 0 19.5 -6.5t8.5 -20t-18.5 -24.5
t-40.5 -18q-49 -15 -61.5 -15.5t-18.5 -0.5zM513 171l-1 7q2 9 2 20v64q0 49 7.5 69t14.5 33.5t7 16.5q-34 -2 -81 -51q-41 -43 -56 -78q-14 -45 -13 -67t12 -47.5t29 -47.5q40 -48 88 -58q-2 0 -4.5 17.5t-4 27t-1.5 13.5l-1 19q0 54 2 62zM208 23l10 1q-1 17 -9 26.5
t-19 29.5q-23 40 -23 93t17 105.5t52 86.5q-29 -3 -70 -37q-12 -10 -20 -19q-39 -41 -55.5 -71t-16.5 -67v-9q0 -50 22 -82q14 -22 49.5 -39.5t62.5 -17.5zM198 172l1 -4v-6q13 -58 24 -78q24 -40 67 -54q19 2 44 18q46 29 46 49q-1 0 -6.5 13t-9.5 19q-9 25 -9 47.5t1 35
t3 23.5q4 22 9.5 36.5t6 19t3.5 9.5q0 15 -14 31q-27 28 -44 28q-26 0 -56 -30q-34 -30 -48 -71q-7 -23 -18 -84v-2zM616 369q-64 -7 -64 -136v-15q0 -7 1 -13l76 6q9 2 9 29.5t-3 42.5t-7 29q-11 37 -12 57zM681 296l-5 -76q10 1 24.5 4t14.5 13q-23 59 -30 59h-4zM675 311
q-1 3 -4.5 2t-3.5 -6q2 -5 5.5 -5t3.5 3t-1 6z" />
    <glyph glyph-name="Scaron" unicode="&#x160;" horiz-adv-x="620" 
d="M571 478q0 -16 -37 -16q-6 0 -20 12.5t-34.5 31.5t-45 40.5t-50.5 40.5q-60 44 -98 44q-88 0 -120 -45q-12 -17 -12 -37.5t11 -38t38 -37.5q58 -43 189 -88q2 2 8 10.5t13 18.5q18 24 25 24t11.5 -5.5t4.5 -10.5t-2.5 -11t-6.5 -13q-11 -19 -12 -24q73 -51 99 -89
q31 -45 31 -114q0 -87 -72 -148q-74 -63 -187 -63q-56 0 -110.5 18.5t-88.5 62.5l-2 1q-2 0 -6 -2.5t-4 -4.5l-14 -68q-1 -7 -11.5 -7t-14 2.5t-8.5 10.5l-1 40q0 48 8 140q5 14 22 14t29 -15.5t23 -36.5l22 -42t26 -32q9 -9 40 -21q66 -27 110 -27q53 0 86 35q31 33 31 85
q0 33 -55 75q-53 40 -92 40q-7 0 -20 -8q-23 -15 -29 -15q1 5 1 9v7q0 14 -4 22q-112 57 -143 97q-18 24 -23 51t-5 61q0 89 34 147q24 41 67.5 58.5t82 17.5t62.5 -5t46 -14q31 -13 91 -51h8l53 63l12 1q25 0 29 -14q15 -126 15 -177zM111 522l-1 -60v-18q0 -38 24 -82
q35 -62 245 -127q56 -18 75.5 -48t19.5 -67t-14 -77q21 0 40 37q23 44 23 101t-28 91t-71 58.5t-94 43.5t-96.5 41t-79.5 51t-43 73v-17zM481.5 576.5q-4.5 -4.5 -4.5 -7.5t7 -12.5t15 -19.5q21 -26 25 -26h8l-2 11q-2 11 -4 26q-6 30 -11 51q-4 -3 -10.5 -6.5t-12.5 -7.5
t-10.5 -8.5zM127.5 837q-1.5 4 -1.5 16t4.5 14.5t21.5 2.5l154 -93l156 112q5 5 15.5 5t16 -6t5.5 -14v-4l-31 -37l-149 -106h-25l-155 100q-10 6 -11.5 10z" />
    <glyph glyph-name="scaron" unicode="&#x161;" horiz-adv-x="490" 
d="M281 397q-83 0 -83 -25q0 -31 19 -55t47 -45.5t61.5 -41.5t61.5 -42q66 -52 66 -109q0 -70 -78 -96q-48 -16 -119.5 -16t-118 11t-75 14.5t-34 11.5t-5.5 19.5t5 21t12 18.5q20 26 24 37.5t6 21t6 16.5q8 18 25.5 18t30 -23t29 -50.5t40 -50.5t62.5 -23q67 0 67 37
q0 31 -70 84q-31 23 -66.5 48t-65.5 50q-71 58 -71 98t20.5 62t50.5 34q41 18 126 24l50 1l76 1q44 0 53 -6q13 -10 13 -38t-0.5 -49t-2.5 -37q-4 -33 -20 -33q-22 0 -39 17.5t-32.5 38.5t-32 38.5t-38.5 17.5zM84 35q14 -16 78 -21q-12 28 -34.5 54t-28.5 30
q-9 -12 -12 -37t-3 -26zM99 329q0 -18 20 -39t50 -44.5t65 -49t65 -52.5q70 -65 70 -114q7 3 16 6.5t17 8.5q19 12 19 32t-20.5 41.5t-51 45t-66 48.5t-65.5 52q-72 63 -72 114q-47 -7 -47 -49zM406 329l4 42q0 17 -8.5 26t-25.5 9q-22 0 -36 -2q44 -44 66 -75zM67.5 696
q-1.5 4 -1.5 16t4.5 14.5t21.5 2.5l154 -93l156 112q5 5 15.5 5t16 -6t5.5 -14v-4l-31 -37l-149 -106h-25l-155 100q-10 6 -11.5 10z" />
    <glyph glyph-name="Ydieresis" unicode="&#x178;" horiz-adv-x="709" 
d="M388 164q-21 -50 -27 -73.5t-6 -29.5t3 -15h129l15 -22q-26 -48 -500 -48q0 31 7 43t12 12h122l-6 34v4q6 22 17.5 42.5t22.5 40.5q27 51 27 81t-7.5 36.5t-17 7t-17 0.5t-7.5 7.5t5 11.5t12 7q14 6 29 8q-26 45 -58 131l-43 146v15q-59 0 -80 19q-9 8 -9 24l1 16l146 14
q60 0 60 -38l-1 -4v-3l-59 -28q-1 -2 -1 -3v-3q3 -24 21 -90.5t30 -102.5q26 -79 38 -79h14l144 284q-2 6 -2 28.5t5.5 34t24.5 11.5l82 -2l225 6q0 -30 -39 -41q-22 -7 -47 -7q-8 -32 -45 -59l15 -14q-5 -4 -17 -16.5t-18 -18.5l-9 -9v-14l-100 -168l-1 -9q0 -7 4.5 -9.5
t10.5 -4t10.5 -4t4.5 -13t-9 -16.5t-21 -9.5t-24.5 -7.5t-18.5 -14q-26 -39 -47 -89zM557 644l-50 -5q-18 -9 -37.5 -31t-22.5 -28l-267 -526v-16q16 0 67 7.5t51 8.5l310 585zM216 749q-5 8 -5 18.5t6 20.5t16 16q21 14 42.5 14t31.5 -13.5t10 -34t-14.5 -34t-30.5 -13.5
t-25.5 3t-17.5 9t-13 14zM431 735q-18 12 -18 27.5t6 25.5t16 16q19 14 41 14t32.5 -13.5t10.5 -34t-15 -34t-35 -13.5t-38 12z" />
    <glyph glyph-name="Zcaron" unicode="&#x17d;" horiz-adv-x="769" 
d="M719 79q0 12 14 12q29 0 29 -28q0 -40 -25 -69q-26 -30 -66 -30q-11 0 -21 3l-314 67l-175 -42q-20 -14 -37 -23t-32 -9q-31 0 -31 19l1 7l105 253q25 36 25 44q-20 -7 -43.5 -7t-27.5 5t-4 14.5t2.5 19t16.5 12.5l99 19l180 247q-15 31 -93 31q-150 0 -212 -65
q-25 -26 -25 -68q0 -24 19 -47q8 -8 14 -14.5t6 -13.5t-6 -11.5t-17 -4.5t-24 9t-22 23q-19 30 -19 59q0 51 29.5 85.5t72.5 54.5q80 37 180 37h16l204 -44q42 0 76.5 6.5t72.5 6.5h25l-6 -25l-204 -266q-1 -1 -1 -2v-2q0 -9 12.5 -10.5t28 -2.5t28 -3.5t12.5 -13.5
q0 -17 -18 -20.5t-36 -3.5h-35q-17 0 -22 1l-13 -12l-93 -192q0 -1 -1 -2q0 -2 34 -10q74 -18 79 -13l143 -44l18 -1q83 0 83 39zM123 29l181 50q7 1 16 26q18 48 26 54l261 410v11h-143l-68 -74l-273 -452v-25zM216.5 810q-1.5 4 -1.5 16t4.5 14.5t21.5 2.5l154 -93
l156 112q5 5 15.5 5t16 -6t5.5 -14v-4l-31 -37l-149 -106h-25l-155 100q-10 6 -11.5 10z" />
    <glyph glyph-name="zcaron" unicode="&#x17e;" 
d="M284 61q0 -4 29 -10q47 0 83 13.5t65 32.5t43.5 33.5t31.5 14.5t20 -4.5t3 -14t-2.5 -20.5t-6.5 -26q-5 -21 -12 -43t-7.5 -30t-2.5 -15q-6 -16 -19 -16q-12 0 -19 7q-88 25 -131 25t-79 -4.5t-73 -10.5q-138 -22 -169 -12q-9 3 -8.5 18t11 32t25.5 35t31.5 35t23.5 25
t13.5 15.5t13.5 16.5q18 23 22 27q15 24 28.5 49.5t27.5 51.5q31 59 63 91q-92 0 -142 -21q-47 -21 -67 -46q-11 -12 -22.5 -12t-18.5 9t-7 24t5 35.5t13 38.5q19 42 33.5 42t28 -4t39 -5t70.5 -2t91 -2q166 -4 174.5 -5.5t15.5 -4.5q15 -7 15 -26q-1 -5 -1 -11
q-4 -5 -14.5 -16.5t-21.5 -24.5q-45 -54 -77 -102t-50.5 -76t-33.5 -51q-35 -54 -35 -56zM190 42l13 -1q17 0 24 5.5t30 37t55 84t53 83t31.5 47.5t20.5 33q24 38 24 40v6l-95 6q-26 -17 -49.5 -48.5t-35.5 -50t-20.5 -35t-18.5 -35.5q-28 -52 -32 -57q-29 -39 -57.5 -72
t-42.5 -59q2 -1 6 -1h8q21 0 43 7t43 10zM509 77l-83 -36q8 -12 47 -12l21 1q4 0 15 47zM186 396l-67 11q-12 0 -20.5 -10t-9.5 -27q19 0 55.5 11t41.5 15zM111.5 660q-1.5 4 -1.5 16t4.5 14.5t21.5 2.5l154 -93l156 112q5 5 15.5 5t16 -6t5.5 -14v-4l-31 -37l-149 -106h-25
l-155 100q-10 6 -11.5 10z" />
    <glyph glyph-name="florin" unicode="&#x192;" horiz-adv-x="548" 
d="M500 331q6 0 6 -20t-12 -20h-88l-80 -204q-16 -42 -52.5 -68t-80.5 -26q-19 0 -37 11.5t-28.5 14.5t-31.5 5.5t-42 7.5q-51 13 -51 46q0 22 19 22q18 0 38 -11q38 -21 58 -21q34 0 47 25l81 143l12 43q-9 3 -23.5 2.5t-28.5 1t-24.5 6t-10.5 22.5t12 18h81q18 0 23 43
q1 10 1 15h-86q-13 0 -13 22t77 23q19 1 35 2l6 6q28 100 100 170q80 78 180 78l43 -6q25 -15 53.5 -34t37 -25t12 -9.5t3.5 -16t-6 -14.5t-13 -2h-9q-6 0 -10 2l-75 49h-2l-3 1q-21 0 -60 -45q-54 -59 -86 -128q-9 -18 -9 -26v-6q19 2 35 4.5t34 2.5q24 0 24 -23
q0 -6 -9.5 -13t-15.5 -9l-93 -11q-13 -3 -13 -20l4 -28h71zM183 46q0 -1 2 -5t4 -4q36 0 64.5 25t41.5 56l174 428l67 86h-12q-7 0 -29 -13.5t-27 -18t-19 -18t-29 -28.5q-37 -40 -38 -46l-124 -341l-75 -118v-3z" />
    <glyph glyph-name="circumflex" unicode="&#x2c6;" horiz-adv-x="409" 
d="M217 731q-130 -56 -170 -56q-12 0 -20.5 1.5t-14.5 12.5q5 26 15 32t19.5 9t22.5 9l129 48h3l5 1q28 -3 42 -13l131 -64q2 -2 7 -11t5 -15q0 -12 -25 -12l-130 52q-4 4 -8.5 5t-6.5 1.5t-2 0t-1 -0.5h-1z" />
    <glyph glyph-name="caron" unicode="&#x2c7;" horiz-adv-x="415" 
d="M19.5 764q-1.5 4 -1.5 16t4.5 14.5t21.5 2.5l154 -93l156 112q5 5 15.5 5t16 -6t5.5 -14v-4l-31 -37l-149 -106h-25l-155 100q-10 6 -11.5 10z" />
    <glyph glyph-name="breve" unicode="&#x2d8;" horiz-adv-x="478" 
d="M454 812q0 -39 -25 -68.5t-61 -49.5q-74 -39 -145.5 -39t-119.5 25.5t-84 81.5q-1 1 -1 2v7q0 15 7 23q36 0 57 -26q9 -11 17.5 -24t26.5 -26q24 -18 79.5 -18t99.5 13t74 49q3 4 7.5 15.5t10.5 23.5q15 30 36 30t21 -19z" />
    <glyph glyph-name="ring" unicode="&#x2da;" horiz-adv-x="236" 
d="M75 896l34 2q38 0 61 -15q41 -28 41 -66q0 -35 -31 -67q-31 -34 -64 -34q-23 0 -29 7l-56 68q-7 9 -7 30.5t14.5 43.5t36.5 31zM79 845q-6 -9 -6 -21t3 -22t8 -19q12 -22 27 -22t24.5 5.5t16.5 13.5q16 18 16 40.5t-15 28t-41.5 5.5t-32.5 -9z" />
    <glyph glyph-name="ogonek" unicode="&#x2db;" horiz-adv-x="198" 
d="M180 43q-46 -56 -98 -56q-28 0 -48 27q-16 23 -16 55l1 18l55 62q1 3 2 13t4 22q9 28 25 28q11 0 12.5 -6.5t1.5 -28t-9 -40.5t-19.5 -31.5t-19.5 -22.5t-9 -27q0 -32 29 -32h5q2 0 3 1l63 30h2l4 1q12 0 12 -13z" />
    <glyph glyph-name="tilde" unicode="&#x2dc;" horiz-adv-x="608" 
d="M58 679q-22 0 -22 25.5t17 39t41 28.5q58 39 119 39q30 0 82.5 -18.5t77.5 -27t39 -8.5q47 0 78 16t56 54q12 0 16.5 -4.5t8.5 -14.5q-9 -47 -59 -72q-43 -22 -97 -22q-21 0 -72 18q-95 34 -130.5 34t-60 -13.5t-41.5 -30t-29 -30t-24 -13.5z" />
    <glyph glyph-name="uni2000" unicode="&#x2000;" horiz-adv-x="459" 
 />
    <glyph glyph-name="uni2001" unicode="&#x2001;" horiz-adv-x="918" 
 />
    <glyph glyph-name="uni2002" unicode="&#x2002;" horiz-adv-x="459" 
 />
    <glyph glyph-name="uni2003" unicode="&#x2003;" horiz-adv-x="918" 
 />
    <glyph glyph-name="uni2004" unicode="&#x2004;" horiz-adv-x="306" 
 />
    <glyph glyph-name="uni2005" unicode="&#x2005;" horiz-adv-x="229" 
 />
    <glyph glyph-name="uni2006" unicode="&#x2006;" horiz-adv-x="153" 
 />
    <glyph glyph-name="uni2007" unicode="&#x2007;" horiz-adv-x="153" 
 />
    <glyph glyph-name="uni2008" unicode="&#x2008;" horiz-adv-x="114" 
 />
    <glyph glyph-name="uni2009" unicode="&#x2009;" horiz-adv-x="183" 
 />
    <glyph glyph-name="uni200A" unicode="&#x200a;" horiz-adv-x="51" 
 />
    <glyph glyph-name="uni2010" unicode="&#x2010;" horiz-adv-x="510" 
d="M428 232q-120 -8 -186 -8h-127q-60 0 -60 23q0 17 26 29l194 -6l144 6q14 0 24 -3t10 -16q0 -25 -25 -25z" />
    <glyph glyph-name="uni2011" unicode="&#x2011;" horiz-adv-x="510" 
d="M428 232q-120 -8 -186 -8h-127q-60 0 -60 23q0 17 26 29l194 -6l144 6q14 0 24 -3t10 -16q0 -25 -25 -25z" />
    <glyph glyph-name="figuredash" unicode="&#x2012;" horiz-adv-x="510" 
d="M428 232q-120 -8 -186 -8h-127q-60 0 -60 23q0 17 26 29l194 -6l144 6q14 0 24 -3t10 -16q0 -25 -25 -25z" />
    <glyph glyph-name="endash" unicode="&#x2013;" horiz-adv-x="581" 
d="M126 224q-71 0 -71 23q0 17 26 29l194 -6l216 6q14 0 23.5 -3t9.5 -16q0 -25 -25 -25q-119 -8 -373 -8z" />
    <glyph glyph-name="emdash" unicode="&#x2014;" horiz-adv-x="653" 
d="M571 232q-120 -8 -258 -8h-198q-60 0 -60 23q0 17 26 29l266 -6l215 6q14 0 24 -3t10 -16q0 -25 -25 -25z" />
    <glyph glyph-name="quoteleft" unicode="&#x2018;" horiz-adv-x="206" 
d="M132 619l-1 -12q0 -29 25 -50q10 -8 18 -14.5t8 -16.5t-20 -10t-39.5 10.5t-38.5 25.5q-30 24 -59 58q-8 10 -8 40t16.5 50.5t48.5 20.5q23 0 38 -11q28 -19 28 -43z" />
    <glyph glyph-name="quoteright" unicode="&#x2019;" horiz-adv-x="205" 
d="M74 619l-16 48q0 34 43 50q11 4 22 4q33 0 49.5 -20.5t16.5 -54.5q0 -26 -9 -37t-24.5 -27t-33.5 -30q-46 -36 -72 -36t-26 10t8 16.5t18 14.5q25 21 25 50z" />
    <glyph glyph-name="quotesinglbase" unicode="&#x201a;" horiz-adv-x="214" 
d="M58 -33l-16 48q0 34 43 50q11 4 22 4q33 0 49 -20.5t16 -54.5q0 -26 -9 -36.5t-24.5 -26.5t-33.5 -31q-43 -36 -70 -36t-27 10t8 17t18 15q25 20 25 49z" />
    <glyph glyph-name="quotedblleft" unicode="&#x201c;" horiz-adv-x="420" 
d="M132 619l-1 -12q0 -29 25 -50q10 -8 18 -14.5t8 -16.5t-20 -10t-39.5 10.5t-38.5 25.5q-30 24 -59 58q-8 10 -8 40t16.5 50.5t48.5 20.5q23 0 38 -11q28 -19 28 -43zM346 619l-1 -12q0 -29 25 -50q10 -8 18 -14.5t8 -16.5t-20 -10t-39.5 10.5t-37.5 25.5q-31 25 -59 58
q-8 10 -8 40t16 50.5t49 20.5q22 0 37 -11q28 -19 28 -43z" />
    <glyph glyph-name="quotedblright" unicode="&#x201d;" horiz-adv-x="419" 
d="M74 619l-16 48q0 34 43 50q11 4 22 4q33 0 49.5 -20.5t16.5 -54.5q0 -26 -9 -37t-24.5 -27t-33.5 -30q-46 -36 -72 -36t-26 10t8 16.5t18 14.5q25 21 25 50zM289 619l-16 48q0 25 21.5 39.5t48.5 14.5t43.5 -20.5t16.5 -54.5q0 -26 -9 -37t-24.5 -27t-33.5 -30
q-46 -36 -71.5 -36t-25.5 10t8 16.5t17 14.5t17 19t8 31v12z" />
    <glyph glyph-name="quotedblbase" unicode="&#x201e;" horiz-adv-x="455" 
d="M58 -33l-16 48q0 34 43 50q11 4 22 4q33 0 49 -20.5t16 -54.5q0 -26 -9 -36.5t-24.5 -26.5t-33.5 -31q-43 -36 -70 -36t-27 10t8 17t18 15q25 20 25 49zM299 -33l-16 48q0 34 43 50q11 4 22 4q33 0 49 -20.5t16 -54.5q0 -26 -9 -36.5t-24.5 -26.5t-33.5 -31
q-43 -36 -70 -36t-27 10t8 17t17 15q26 20 26 49z" />
    <glyph glyph-name="dagger" unicode="&#x2020;" horiz-adv-x="356" 
d="M139 367q-52 -12 -59 -13q-45 0 -45 27q0 18 19.5 23.5t43.5 8t43.5 6t19.5 15.5q0 9 -7 25l-2 107q0 67 23 67q6 0 15.5 -6t9.5 -13v-155q0 -30 30 -35q13 -2 28 -1.5t28 -0.5q30 -2 30 -27.5t-13 -25.5h-100v-344q0 -7 -11 -7t-16.5 1.5t-8.5 11.5q-1 18 -3 91t-3 108
t-1 49l2 43q0 45 -23 45z" />
    <glyph glyph-name="daggerdbl" unicode="&#x2021;" horiz-adv-x="417" 
d="M237 160l1 -46v-15q0 -5 -1 -17t-1 -26q-2 -32 -3 -39q-2 -11 -12 -11q-13 0 -20 18q-5 13 -5 28l7 108q0 14 -7 14h-125q-25 0 -25 25q0 13 9 21.5t27.5 8.5t36 -3.5t42 -3.5t30 8t5.5 24v16q0 61 -4.5 98t-8.5 41l-6 6h-131q-5 8 -7 13.5t-4 10t-2 5.5t6 11t7 10h125
q12 0 12 12l-7 115q0 50 18 53q5 1 12 1q26 0 26 -22l-7 -137q0 -16 11 -16l12 1h28q37 2 68 6q8 0 19.5 -7t11.5 -17.5t-11 -16.5t-27.5 -9t-36 -4t-36.5 -2q-38 -2 -38 -7v-53q0 -46 2 -72t4 -54q25 -7 56 -7l56 7q14 0 26 -10t12 -26q0 -26 -48 -26l-54 1l-43 1v-16z" />
    <glyph glyph-name="bullet" unicode="&#x2022;" horiz-adv-x="278" 
d="M42 246q0 20 11 36.5t28 28.5q35 25 74 25t58 -24.5t19 -61t-26 -61t-67 -24.5q-33 0 -65 23t-32 58z" />
    <glyph glyph-name="ellipsis" unicode="&#x2026;" horiz-adv-x="801" 
d="M46 10q-6 10 -6 23.5t7.5 25t19.5 19.5q25 18 52 18t39.5 -17t12.5 -42.5t-17.5 -42.5t-46.5 -17q-39 0 -61 33zM339.5 10q-6.5 10 -6.5 23.5t7.5 25t19.5 19.5q25 18 51.5 18t39.5 -17t13 -42.5t-18 -42.5t-37.5 -17t-31.5 4t-21.5 11.5t-16 17.5zM632 10q-6 10 -6 23.5
t7.5 25t19.5 19.5q25 18 51.5 18t39.5 -17t13 -42.5t-18 -42.5t-37.5 -17t-31.5 4t-22 11.5t-16 17.5z" />
    <glyph glyph-name="uni202F" unicode="&#x202f;" horiz-adv-x="183" 
 />
    <glyph glyph-name="perthousand" unicode="&#x2030;" horiz-adv-x="1123" 
d="M248 -24l72 7q0 -16 -7.5 -30.5t-26.5 -14.5h-175q-6 0 -12 6t-6 13q0 20 18 25q4 1 16 2.5t25 3.5t24.5 4t16.5 2l322 540l-69 12q-6 1 -6 11.5t8.5 17t16.5 8.5q4 -1 15 -1h42.5t25.5 0.5t19 7t16 6.5t10.5 -3.5t14.5 -3.5l49 7q8 0 17 -4.5t9 -14.5q0 -24 -31 -24
q-8 0 -14 -1.5t-16.5 -3.5t-20.5 -4q-24 -3 -24 -4l-19 -19l-329 -533q-1 -1 -1 -2q0 -5 7.5 -7.5t12.5 -2.5zM599 287q165 0 165 -122q0 -18 -5.5 -39t-18 -51t-32.5 -51q-41 -43 -118 -43q-55 0 -94 41q-38 40 -38 98q0 64 39 113q43 54 102 54zM663 146q0 103 -42 103
q-29 0 -43 -44q-8 -28 -8 -69v-31q8 -36 19 -58t13 -22h6q4 0 19 13.5t23 23.5q13 18 13 84zM558 62l-19 56q-2 10 -2 32q0 39 2 49q-14 -9 -14 -20t-3 -21t-7.5 -10t-8.5 -1q-11 -2 -11 -28.5t19.5 -51t43.5 -36.5l1 15l-1 10v6zM689 139q0 -26 -3.5 -48t-3.5 -47
q36 28 47 88q3 17 3 29t-3.5 25t-10.5 25q-16 28 -37 28q0 -26 4 -50t4 -50zM37 381l-1 26v9q0 100 75 167q24 13 72 13q31 0 74 -45q41 -43 41 -67v-74l-50 -93q-15 -31 -64 -42q-13 -3 -29 -3t-34 9.5t-34 24.5q-28 25 -50 66v9zM79.5 442.5q-1.5 -10.5 -1.5 -28t1.5 -25
t6.5 -15t12 -16t12.5 -15.5t7.5 -8h6q2 0 6 31q-7 52 -7 68v76q0 17 1 24l-6 -6q-27 -50 -32 -62.5t-6.5 -23zM186 546q-32 0 -32 -100q0 -16 0.5 -28.5t1.5 -25.5q0 -15 5 -57q22 34 26 64q7 43 7 87t-8 60zM229 521q2 -10 2 -26.5t-4 -37t-9 -41.5q-14 -52 -14 -83
q23 0 38 46q13 37 13 61.5t-3.5 47t-22.5 33.5zM954 -31q-69 0 -122 100v8l-1 26v9q0 52 17.5 92t57.5 75q26 13 72 13q31 0 74 -44q41 -43 41 -68v-74l-50 -93q-18 -31 -65 -41q-13 -3 -24 -3zM874.5 138.5q-1.5 -10.5 -1.5 -26.5t1.5 -25t6.5 -16.5t11.5 -15.5t12.5 -15
t7 -9h7q1 0 3 12.5t3 18.5q-7 52 -7 69v75q0 17 1 24q-1 -1 -3.5 -3t-9 -13.5t-14 -26.5t-12 -26.5t-6 -22zM987 146.5q1 21.5 1 49.5t-7 47q-22 0 -29 -39q-3 -17 -3 -34v-27q0 -16 0.5 -28.5t1 -25.5t1.5 -27l4 -31q21 36 25.5 65t5.5 50.5zM1024 218q2 -10 2 -26.5
t-4 -37.5t-10 -42q-13 -50 -13 -83q23 0 39 46q12 37 12 61.5t-3.5 47.5t-22.5 34z" />
    <glyph glyph-name="guilsinglleft" unicode="&#x2039;" horiz-adv-x="245" 
d="M172 515q6 7 21.5 7t15.5 -7v-31l-124 -143q-6 -5 -6 -18l68 -105q15 -11 15 -44h-33l-117 162z" />
    <glyph glyph-name="guilsinglright" unicode="&#x203a;" horiz-adv-x="246" 
d="M36 515q0 7 12 7q21 0 25 -7l161 -179l-117 -162h-33q0 11 1.5 23.5t12.5 20.5l69 105q0 12 -6 18l-125 143v31z" />
    <glyph glyph-name="uni205F" unicode="&#x205f;" horiz-adv-x="229" 
 />
    <glyph glyph-name="Euro" unicode="&#x20ac;" horiz-adv-x="721" 
d="M400 5l-32 1h-11q-2 2 -9 6.5t-23 13t-49 28t-61 44.5q-65 60 -69 128h-105q-4 0 -12 16q0 25 18 25h93v74h-86q-11 0 -13 4.5t-2 10.5q0 29 78 29h36q29 133 119 211q94 81 223 81q105 0 161 -45q23 -18 23 -43.5t-25 -25.5h-5q-1 0 -8.5 11.5t-23 24.5t-33.5 19
q-25 10 -81 10l-53 -2q-47 -31 -76 -96q-28 -60 -28 -119l114 4q14 0 18 -4.5t4 -14.5q0 -16 -23.5 -21t-51.5 -6.5t-51.5 -3.5t-23.5 -11v-62l6 -1q8 2 37.5 5.5t44 5.5t22.5 2t18 -1.5t10 -13.5t-10 -19.5t-23 -8.5l-117 -19l-7 -13l50 -173q5 -14 44 -14t74.5 6t64.5 21
q63 32 91 104l11 1q11 0 15.5 -2.5t4.5 -13.5q0 -16 -21.5 -44t-46 -51.5t-51.5 -36.5q-46 -21 -139 -21h-10zM178 291q0 -60 31 -125q16 -33 42 -60.5t62 -37.5v12l-36 124q1 5 1 9v9.5t-1 10t-3 7.5q-3 9 -3 17q0 16 12 28l68 298v13q-41 -14 -84 -64q-43 -52 -53 -92z
" />
    <glyph glyph-name="trademark" unicode="&#x2122;" horiz-adv-x="653" 
d="M45 643q0 19 14 19h217q0 -20 -16.5 -27t-36 -8.5t-35.5 -3t-16 -11.5v-151l-13 -13l-12 13q0 7 -2 24.5t-4 38.5q-4 45 -7 63q0 13 -12 37l-32 -1l-31 1q-14 4 -14 19zM348 649q0 13 19 13q14 0 47 -44q14 -17 26.5 -33.5t20.5 -22.5q11 7 29.5 27t20 22t5.5 9.5t8 16.5
t8 16l4 9l13 2q13 0 17.5 -5.5t7 -16.5t5.5 -32.5t7 -47.5t8 -51t5.5 -32.5t1.5 -17.5v-13h-39q-5 30 -10.5 63.5t-15.5 62.5q-4 -6 -22 -20q-27 -24 -34 -27q-11 -6 -27.5 -6t-16.5 3q-2 1 -6 12t-6 13t-8.5 7.5t-13.5 11.5q-19 16 -23 19v-126q0 -6 -12.5 -10.5
t-18.5 -4.5v203z" />
    <glyph glyph-name="uni2639" unicode="&#x2639;" horiz-adv-x="701" 
d="M272 -121l-47 1q-15 4 -50 19t-64.5 36t-46.5 47q-28 45 -28 148v31l1 21q0 16 17 60.5t19 50t5.5 10.5t7.5 11q14 21 38 46l36 34q14 15 28 24l18 12q8 6 61.5 17.5t57.5 11.5t12.5 -1t18.5 -3q23 -5 32.5 -9t29 -13t39.5 -19q47 -24 56.5 -31t29.5 -26t43 -41
q73 -70 78 -86q2 -8 0.5 -22t0 -21t7.5 -17.5t6 -12.5v-19q0 -56 -38 -107q-1 -2 -6 -12.5t-6 -12.5l-20 -20q-14 -14 -28 -28.5t-26 -25.5t-14 -13t-10 -5.5t-18 -7.5l-20 -8t-24 -8t-32 -7t-35.5 -4t-37 -0.5t-34.5 0.5h-57zM406 409l-32 1h-15q-43 0 -84 -4
q-48 -6 -91 -50q-10 -11 -22 -23q-18 -19 -37 -37q-52 -58 -52 -176v-24q0 -64 21 -86q16 -14 27 -25.5t17.5 -17t19 -14t26.5 -15.5q33 -18 43.5 -19t21.5 -1l53 -1h93t80 12.5t67.5 34t52.5 49.5q47 60 47 134q0 69 -72 145q-64 69 -146 112q-9 5 -10 5h-8zM490 38
q0 -20 -27 -20h-6q-6 0 -18 13q-21 23 -25 25q-32 26 -81 26q-62 0 -89 -18q-6 -3 -12 -8q-20 -13 -25 -13h-7q-25 0 -25 13q0 8 9 21t14.5 16.5t13.5 7.5t16.5 8t14.5 7.5t7 3.5h10l42 1h36l42 -1h8q24 -3 47 -23q34 -27 54 -53v-5q0 -1 1 -1zM477 256l1 -4q0 -11 -8.5 -16
t-17.5 -5q-27 0 -27 28q0 10 2 12.5t11.5 7.5t12.5 4q8 -3 26 -25v-2zM292 283q0 -37 -16.5 -37t-24.5 11.5t-8 25.5h49z" />
    <glyph glyph-name="smileface" unicode="&#x263a;" horiz-adv-x="696" 
d="M258 -7l-26 1q-10 0 -34.5 11t-28.5 14t-15 13.5t-23 22.5q-31 31 -37 40q-32 44 -41.5 93.5t-9.5 99.5t12.5 89.5t28 64t25 38.5t20 28t18.5 25.5t10 13.5q13 10 41.5 23.5t33.5 14.5l24 1h41t54 -3t57 -9q47 -12 83 -26.5t45 -19.5t11 -6q55 -48 75 -81
q39 -62 39 -123.5t-22.5 -123.5t-65.5 -112q-2 -2 -17 -12q-118 -77 -259 -77h-39zM307 549l-49 -2q-3 0 -24 -11l-33 -16q-12 -6 -19 -10q-2 -4 -12 -14q-35 -47 -62 -98.5t-27 -109t14.5 -104.5t42.5 -81q62 -73 169 -73q125 0 223 72q44 31 65 72q28 53 28 59l2 51v32
l-2 55q-6 18 -13 25q-50 75 -63 88q-2 1 -11 6t-21 11l-24 12t-18.5 9t-18.5 7l-24 8q-30 10 -34 10l-54 2h-35zM356 169l40 1q1 0 6 3q11 7 19.5 13t14.5 10.5t12 13t11 17.5q12 21 25 31q11 -3 12.5 -10t1.5 -16.5t-8 -26.5t-20 -33q-27 -40 -48 -40h-151q-22 0 -44 28
q-20 25 -20 49t19 24q16 0 38 -41q11 -21 48 -22q12 -1 24 -1h20zM227.5 359q-7.5 7 -7.5 19.5t16.5 22t29.5 9.5t15.5 -11.5t2.5 -25.5q0 -27 -33 -27h-6q-10 6 -17.5 13zM459 346h-12q-10 6 -18 13t-8 16t5 15t12 10q15 10 30 10q31 0 31 -33q0 -18 -2 -18q0 -3 -38 -13z
M598 529q5 0 5 -6.5t-5 -6.5t-5 6.5t5 6.5z" />
    <glyph glyph-name="uni2661" unicode="&#x2661;" horiz-adv-x="876" 
d="M83 -44l3 1q11 0 32 -13l50 50l2 6q-2 7 -10 17t-16.5 21t-15.5 20q-26 31 -30.5 60t-4.5 60t6 67.5t22 67.5q37 72 110 72q24 0 48 -9q43 -18 65 -18l13 1q35 46 77 67t100 21q40 0 87 -27q20 -11 25 -11q6 0 21 16.5t16.5 20t5.5 15t8 24t7 23.5q6 17 12 22l11 12
q14 14 20 18q12 -12 12.5 -13.5t2 -11t3.5 -20.5t3.5 -20t5 -14t14.5 -6.5t21.5 -3t18.5 -5.5t8 -18q0 -30 -34 -30l-55 3q-14 0 -28 -14l-25 -25t-10 -11.5t4 -7t8 -11.5q13 -17 13 -19q14 -28 14 -48v-33q0 -78 -26 -107q-6 -6 -22 -22.5t-34 -34.5q-29 -28 -57 -57
q-4 -2 -14 -9l-17 -11q-10 -7 -28 -22.5t-34 -29t-29 -25.5t-17 -15q-7 -7 -11.5 -16t-9.5 -17q-12 -19 -30 -19h-7q-4 0 -10.5 7t-12.5 14l-12 12q-23 22 -115 62q-16 7 -19 7h-12l-63 -63q4 -5 4 -19t-4 -19q-7 -2 -13.5 -4.5t-13 -4.5t-16 -5t-20 -6t-20.5 -4
q-23 -4 -46 -4q0 46 16 66q3 3 10 10.5t15.5 15.5t15.5 15t10 9h2zM276.5 330q-6.5 3 -8 4t-31 1t-49 -16.5t-32.5 -40.5q-26 -48 -26 -92.5t16 -73.5t40 -53q37 -37 108 -78q6 -3 20 -10.5t30 -15.5q42 -21 51 -24q34 30 70 58.5t72 56.5q83 66 134 124q3 3 8 12.5t5 11.5
v9l1 34v30l-1 33v8q-1 9 -10.5 23.5t-21.5 14.5h-6l-151 -137v49q5 5 18 17.5t27 26.5q69 69 69 82l-13 12h-138q-9 0 -63 -63q-12 -13 -18 -33q-12 -41 -20 -54q-14 6 -17 23q-7 31 -21 39q-4 3 -12 7l-16 8t-14.5 7z" />
    <glyph glyph-name="heart" unicode="&#x2665;" horiz-adv-x="694" 
d="M546 447l35 -1q41 -15 66 -64q23 -44 23 -90q0 -61 -20 -107q-8 -17 -19 -28l-274 -274l-229 148q-1 1 -5.5 6t-6.5 7q-39 54 -64.5 109t-25.5 123v14l1 35v8q0 3 3 10l8 15q12 23 23.5 35.5t21.5 22.5q29 29 36.5 32t13.5 5t11.5 4t8.5 2l51 2h28l35 -2l62 -63l12 -1
q14 0 27 11l22 18q32 26 91 24q13 -1 23 -1h42zM304 358q-26 64 -94 64t-108 -50q-38 -47 -38 -117q0 -123 118 -213q34 -26 64 -43.5t50.5 -31t45.5 -13.5q8 0 12 2q27 22 97 82t84 73t32.5 32.5t32.5 40.5q31 48 31 99q0 10 -6 28l-10.5 31.5t-12.5 28.5t-18 23
q-20 16 -66 16q-83 0 -136 -48q-18 -17 -24 -32t-12 -32l-11 -34q-6 -18 -11.5 -34t-6.5 -23l-13 -1q-26 0 -26 20q0 23 10 49q17 48 17 72l-1 6v5z" />
    <glyph glyph-name="uni2698" unicode="&#x2698;" horiz-adv-x="683" 
d="M287 -82l4 -43q-27 0 -40 14t-21 33.5t-16.5 39.5t-21 27.5t-24 13.5t-23.5 12q-28 14 -36 16t-23 -0.5t-29.5 -2.5t-24.5 5t-10 20t4.5 21t12 8t17.5 2h19q30 0 36.5 -2.5t22.5 -9t34 -14.5q46 -21 56 -27l13 76l-1 16q-9 0 -20.5 -1.5t-23.5 -1.5q-36 -2 -47 19
q-7 15 -13 26.5t-9.5 20t-6.5 15.5t-4.5 13.5t-1.5 13.5v18q0 31 14 66q19 49 44 64q29 17 31 20q9 20 10 42.5t3.5 34t9 20.5t14.5 17.5t16 16.5q20 20 22 20l37 3q30 0 44.5 -9t24 -22.5t18.5 -29.5t27 -30q29 28 56.5 40t57 12t48.5 -8.5t34 -23.5q32 -32 32 -75
q0 -17 -1.5 -36t-10.5 -31.5t-18.5 -23.5t-20.5 -21q-25 -21 -51 -21q3 -4 9 -15l11 -23q6 -12 11 -23t7 -15l1 -18q0 -49 -39 -85q-40 -36 -87 -36q-109 0 -165 76q-29 -64 -37 -113h12l63 12h6q37 0 51 -19q6 -7 6 -18q-4 -1 -15 -2.5t-23 -3.5q-39 -6 -50 -11.5
t-19 -11.5q-19 -14 -19 -28v-7zM438 284l-8 -1h-5q-41 -14 -59 -39.5t-18 -68.5l1 -30q5 -19 45 -36q36 -15 50 -15t27.5 4.5t28.5 11.5q33 18 39 35q1 10 1 16l1 23l-2 36q-1 1 -5.5 6.5t-10.5 11.5q-46 46 -85 46zM153 276.5q-5 -19.5 -5 -34t2.5 -28.5t8.5 -26
q15 -31 40 -31q3 0 30.5 10.5t41 24t23.5 30.5q11 19 30 74q-14 22 -40.5 36.5t-50 14.5t-39 -10t-26 -25.5t-15.5 -35zM438 396q-4 -2 -4 -24t4 -25.5t14 -9.5t22 -12q31 -15 36.5 -16t12.5 0t15 3q20 5 26 9q11 7 29 26.5t20 22.5t4 8.5t4 11.5q5 15 5 22.5t-7 18.5
t-18 20q-26 21 -45 21t-30.5 -1t-21.5 -9t-20 -18t-19.5 -20t-17.5 -18t-9 -10zM312 383l37 -12q5 1 14.5 10.5t10.5 12.5q3 11 3 28t-0.5 23l-1 12t-1 11.5t-5.5 11t-11 11.5q-19 19 -27 19.5t-13 0.5q-17 0 -19 -2q-25 -12 -37.5 -37t-12.5 -44.5t6.5 -26t16 -9.5
t20.5 -4.5t20 -4.5z" />
    <glyph glyph-name="uni269C" unicode="&#x269c;" horiz-adv-x="632" 
d="M27 176l-1 28v28q0 25 -0.5 44t15.5 39t34.5 35t46 15t48 -11.5t34.5 -30.5q27 -39 27 -90t-16 -95.5t-62 -75.5q-3 -2 -14.5 -4.5t-14.5 -2.5q0 16 2.5 19t8 10.5t11.5 15.5q17 22 19 26q14 23 14.5 46t0.5 45t-1 39t-7 30q-12 29 -52 29q-59 0 -52 -91q1 -21 1 -36h26
q0 3 4.5 13t3.5 12q-2 2 -13 6.5t-13 6.5l-1 12q0 27 27 27q12 0 12 -2q11 -7 23.5 -21t14 -15.5t1.5 -8.5v-9q0 -32 -16.5 -45.5t-55 -13.5t-55.5 26zM304 62q-28 10 -38 25l1 93v130l-1 92l-12 76v6q0 31 13 57t21.5 41.5t12.5 25.5t5.5 19t3.5 19.5t4 20t2 12.5
q6 14 15.5 14t9.5 -2q15 -21 14 -36t-2 -25.5t0.5 -20t5 -24.5t8 -32t8 -32t4.5 -18l1 -13l-1 -12q-2 -9 -9.5 -42t-16 -71.5t-16 -71.5t-9 -42t-3.5 -32t-4 -49q-5 -67 -5 -83zM442 75q-6 -13 -18.5 -13t-22 6t-16.5 16q-12 15 -19 42l-2 75l1 44l1 32q1 2 5.5 12t10.5 22
q13 26 23 41q16 26 42.5 32.5t54.5 6.5t28 -2q1 0 16 -14t22.5 -22.5t11.5 -12.5t8 -10l8 -12l7 -10q3 -5 3 -6v-48q0 -23 1 -41.5t-13.5 -36t-33.5 -34.5t-42 -17q-44 0 -67 27.5t-23 68.5q0 24 22 41q20 16 40 16t31 -11.5t11 -20.5q0 -18 -2 -20.5t-11.5 -7.5t-13.5 -5
t-13.5 5t-11.5 8q-1 -2 -1 -9v-10q0 -15 9.5 -29.5t28.5 -14.5q2 0 12 5t14.5 8t14 13t10.5 12l1 35q0 19 -1 40t-12 38q-3 3 -8.5 9t-11.5 12q-15 15 -17 16.5t-9 1.5h-10q-55 0 -80 -56q-17 -40 -17 -103v-15l2 -41q0 -12 10.5 -25t14.5 -19q10 -15 12 -19z" />
    <glyph glyph-name="uni2766" unicode="&#x2766;" horiz-adv-x="664" 
d="M327 -6l-13 -1q-25 0 -62.5 12.5t-75.5 29.5t-70 41q-70 55 -70 138q0 66 36 116q39 55 100 55l29 -1q21 -11 40.5 -29t22.5 -22l38 113q0 2 -9.5 7t-13.5 5.5t-11 0.5h-42q-17 3 -44.5 13t-31.5 12.5t-13 11t-19 18.5q-21 19 -31 33v13q0 5 1.5 15t12.5 10q1 0 11 -5
t12.5 -7t7.5 -7l12 -12q7 -7 12 -12.5t7.5 -7.5t10 -6t16.5 -8q21 -10 23 -10l64 -3l62 3q23 52 37 64t26 12q25 0 25 -20v-6q-24 -36 -38 -50q37 12 75.5 18.5t45.5 6.5l30 1h36q65 0 65 -40q0 -12 -16.5 -12t-27 6.5t-25.5 6.5l-19 -1q-58 -10 -118 -22.5t-71 -14.5
q-2 -1 -6.5 -6t-6 -7.5t-5.5 -9.5q-7 -15 -12.5 -26t-6.5 -14h12q28 0 54.5 7t53.5 7q97 0 131 -102v-12q0 -33 -43 -70q-11 -10 -27.5 -24.5t-47.5 -36.5t-60 -47q-68 -60 -73 -124zM543 302q0 19 -2 19.5t-6.5 5.5t-10.5 11l-12 12t-15 13.5t-20.5 8t-37.5 0.5t-58.5 -11
t-53.5 -40q-6 -7 -9.5 -20t-7.5 -25q-10 -31 -27 -31q-24 0 -32.5 14t-16 31.5t-20 31.5t-42.5 14t-46 -11t-25 -29q-15 -30 -15 -66.5t0.5 -52t14.5 -32.5q73 -90 185 -90l16 2q1 1 6.5 8.5t12 16t11.5 16t9 12t17 18t27 27.5q34 34 39.5 38t16.5 11.5t23 15.5q38 24 52 38
l18 18q9 9 9 26zM62 214q-5 0 -5 -6.5t5 -6.5t5 6.5t-5 6.5z" />
    <glyph glyph-name="uniE000" unicode="&#xe000;" horiz-adv-x="425" 
d="M0 425h425v-425h-425v425z" />
    <glyph glyph-name="uniE0B5" unicode="&#xe0b5;" horiz-adv-x="737" 
d="M274 138l-2 25q-2 5 -11.5 14t-13 10.5t-12.5 4t-19 4.5q-27 5 -32 5v42q21 0 45 -1t46.5 -19t34.5 -37t12 -50.5t-15 -50t-34 -34.5t-36 -15t-40 1q-78 0 -121.5 34t-43.5 116v30q0 44 20 85q4 10 6 12q51 59 109.5 93t137.5 34q38 0 74.5 -6.5t74.5 -6.5h6
q12 50 25.5 75.5t38 32t46.5 6.5t38.5 -2.5t28.5 -9.5q26 -17 26 -57q0 -42 -25 -54q-17 -8 -69 -8q0 35 27 45q11 3 20 5t9 11.5t-9.5 18.5t-13.5 11t-12 2h-19.5t-11 -1.5t-7.5 -6.5t-12 -11q-16 -15 -17 -20l-2 -30l2 -32q1 -2 11 -11.5t19.5 -17.5t36.5 -27t54 -41
q68 -54 68 -86q0 -13 -12 -19q-15 13 -32 29t-35 30q-41 32 -81 32l-29 -3q-18 -9 -33.5 -28t-16.5 -23q-2 0 -2 -18v-26l2 -31q2 -14 29 -14h8q12 0 26 2t14 20l-1 5q-2 2 -7.5 5.5t-11.5 7.5q-16 11 -20 12q7 11 20 18.5t22.5 7.5t17.5 -6.5t15 -15.5q15 -19 15 -35
t-8 -27t-20 -18q-22 -13 -52 -13t-46.5 8.5t-25.5 23.5q-14 25 -14 72t10.5 67t40.5 44q11 7 25 12q-13 9 -42 22.5t-32.5 15t-9 4t-11.5 4t-11 3t-6 1.5l-51 2h-18q-88 0 -131 -17q-28 -11 -44 -26t-26 -25q-24 -24 -32.5 -34t-13.5 -23.5t-8 -27.5q-4 -20 -4 -51.5
t9.5 -51.5t26.5 -33q33 -28 85 -28q57 0 76 34q7 12 7 30z" />
    <glyph glyph-name="uniE0B6" unicode="&#xe0b6;" horiz-adv-x="737" 
d="M217 435l-2 30q-5 16 -38 38q0 1 -7 1h-20.5t-13.5 -2t-13 -11t-9 -18.5t8.5 -11.5t19.5 -5q27 -10 27 -45q-52 0 -66 7q-28 13 -28 55q0 58 55 67q16 2 38 2t46 -6q31 -8 45 -48q13 -35 19 -60h6q38 0 74.5 6.5t74.5 6.5q80 0 138 -34t109 -93q2 -2 6.5 -11.5t8.5 -20
t6.5 -22t3.5 -21.5t1 -22v-30q0 -82 -43 -116t-122 -34q-23 0 -40 -1t-36 15t-34 34.5t-15 50t12 50.5t34.5 37t46.5 19t46 1v-42q-25 0 -64 -13q-4 -2 -13.5 -11t-11.5 -14l-2 -25q0 -64 83 -64q52 0 85 28q36 29 36 79q0 79 -26 108q-8 10 -25 27l-25 26q-45 44 -138 48
q-23 1 -38 1h-25l-51 -2q-1 0 -5.5 -1.5t-10.5 -3t-12 -4t-9.5 -4t-14.5 -6.5t-23 -11q-31 -15 -37 -20q14 -5 25 -12q30 -24 41 -44t11 -50.5t-3 -51.5t-12 -37q-19 -32 -70 -32q-50 0 -73 31q-8 11 -8 22t4 21t11 19q15 22 28 22t26 -7.5t20 -18.5q-2 -1 -7.5 -4.5
t-12.5 -7.5q-16 -10 -19 -13v-5q0 -22 27 -22h21q26 0 28 14l2 31v10q0 34 -2 34q-4 15 -38 42q-8 7 -12 9l-29 3q-52 0 -116 -62q-16 -16 -31 -29q-13 7 -13 22.5t20.5 38.5t47.5 44.5t54 40.5t37 27q26 21 30 29z" />
    <glyph glyph-name="uniE0B7" unicode="&#xe0b7;" horiz-adv-x="712" 
d="M392 108l23 -1q7 -2 21.5 -18t15.5 -18q3 -3 3 -27q0 -39 -62 -39q-72 0 -96 43q-9 16 -9 46t17 50t35 30q34 21 37 21l25 1h50t68 -5t71 -34q3 -3 10.5 -10t16.5 -15q18 -17 23 -25v-2l1 -4q0 -8 -6 -14t-14 -6l-6 1q-26 16 -45.5 29.5t-38.5 24.5q-42 22 -99 22
q-18 0 -29.5 -0.5t-21 -8.5t-17.5 -15.5t-16 -15.5l-15 -14q-9 -10 -9 -21.5t6.5 -21t16.5 -15.5q21 -15 42 -15q25 0 25 19q0 15 -10 17t-21.5 2t-21.5 2t-10 17q0 20 27 20h13zM43 233q-19 0 -19 25l1 13q84 20 165.5 22.5t167.5 2.5h170q6 0 22 -2t34 -4q63 -7 73.5 -11
t10.5 -14q0 -23 -29 -21q-7 1 -41.5 1t-96 6.5t-124.5 6.5h-25l-302 -25h-7zM604 264q-5 0 -5 -6t5 -6t5 6t-5 6zM629 434l6 1q8 0 14 -6t6 -15.5t-8.5 -15.5t-30.5 -24q-50 -42 -128 -42q-49 0 -69 5q-34 9 -67 34q-17 12 -14 28q1 6 1 17v30q0 1 3 8l8 15q4 8 8 15.5
t6 11.5q13 21 34.5 24t50 3t48 -12t19.5 -53q0 -14 -16 -32q-29 -30 -44 -30q-30 0 -30 19q0 6 2 6q2 4 13 14q22 20 24 23t-2.5 8.5t-4.5 8.5q-4 0 -15 5.5t-15 3.5q-21 -10 -36 -34t-15 -47v-7q22 -15 63 -25l36 -1q23 0 40 1.5t29 7.5t23 13.5t23.5 16t23.5 16t14 9.5z
" />
    <glyph glyph-name="uniE0B8" unicode="&#xe0b8;" horiz-adv-x="712" 
d="M284 421q2 0 2 -7.5t-8.5 -12.5t-17.5 -5t-20 6.5t-21 16.5q-23 23 -23 39q0 41 19 53t48 12t50 -3q24 -3 41 -36q18 -33 18.5 -35.5t0.5 -14.5v-18q0 -11 1 -17t0 -11q-2 -6 -16.5 -18t-30 -20t-31.5 -12q-23 -6 -69 -6t-78 12t-53.5 30t-30 24t-8.5 15.5t6 15.5t14 6
l6 -1q3 -2 14 -9.5t23.5 -16t23.5 -16t23 -13.5q18 -9 69 -9l36 1l12 4q39 13 51 21v7q0 23 -15 47t-36 34q-4 2 -15 -3.5t-15 -5.5q0 -3 -4.5 -8.5t-3 -7.5t7 -7.5t12.5 -11.5q16 -15 18 -19zM108 264q-5 0 -5 -6t5 -6t5 6t-5 6zM687 271l1 -13q0 -25 -19 -25h-7
q-13 0 -64.5 5t-86.5 7.5t-66 5.5t-54.5 4.5t-30.5 2.5h-25q-63 0 -124.5 -6.5t-96 -6.5t-41.5 -0.5t-13 1.5q-16 3 -16 16t7.5 16t17 4.5t25.5 3.5t34 4t34 4t22 2h170q86 0 167.5 -2.5t165.5 -22.5zM309 196l26 -1q3 0 29 -15.5t43 -35.5t17 -50t-9 -46t-24 -26
q-28 -17 -62.5 -17t-53 8t-18.5 38q0 17 2 19.5t7 8t11 11.5q15 15 20 17h9l14 1h13q27 0 27 -20q0 -15 -10 -17t-21.5 -2t-21.5 -2t-10 -17q0 -19 25 -19q20 0 36 11q29 18 29 40q0 11 -2 13t-8 8.5t-14 14.5t-16 15.5t-17.5 15.5t-21 8.5t-37.5 0.5t-49 -6t-42 -16.5
t-38.5 -24t-45.5 -29.5l-7 -1q-8 0 -13.5 6t-5.5 14v4q0 4 24 26.5t27 25.5q34 29 71 34t62 5h55z" />
    <glyph glyph-name="uniE0B9" unicode="&#xe0b9;" horiz-adv-x="561" 
d="M261 24l-24 1q-1 0 -10 5l-21 10q-12 6 -24.5 12t-25.5 13t-35 28.5t-41 46.5q-44 58 -44 96.5t11.5 72.5t30.5 65q36 57 97 104q66 51 165 51q120 0 174 -101l2 -51v-29l-2 -46q0 -6 -11 -26q-33 -61 -83 -84q-40 -17 -75 -17t-57 3.5t-42 11.5q-42 19 -59 62
q-2 7 -7 21t-5 16q0 50 48 89q46 37 97 37h18q6 -2 20 -9l21 -10q20 -10 21.5 -25.5t1.5 -22.5v-14q0 -8 -12 -20l-18 -18q-6 -6 -9 -7q-8 4 -10.5 7.5t-2.5 13t7 17.5t7 17.5t-5.5 15.5t-14.5 10q-16 8 -32 8t-34 -7.5t-33 -20.5q-35 -29 -35 -62q0 -22 1.5 -24t7.5 -8.5
t14.5 -14.5t16.5 -16t17.5 -16t21.5 -8h30q67 0 95 25q6 5 16 15l20 20l18 18q8 8 8.5 9.5t1.5 10.5l4 21q5 30 7 44l1 14q0 51 -45 84q-42 30 -91 30t-89.5 -14.5t-74.5 -39.5q-65 -49 -104 -136q-8 -21 -10 -30t-2 -35.5t20.5 -61.5t52 -62.5t69 -45t71.5 -17.5
q80 0 163 54q24 16 52 34h12v-12q0 -6 -27.5 -32t-34.5 -32q-35 -27 -75 -32.5t-65 -5.5h-51z" />
    <glyph glyph-name="uniE0BA" unicode="&#xe0ba;" horiz-adv-x="597" 
d="M242 10l-76 2q-139 54 -139 173q0 55 37 113q36 56 90 80q30 13 59 13h75l40 -1h14q65 -20 65 -107v-37q0 -16 -8.5 -26t-17.5 -19l-33 -33t-18 -17q-17 -14 -34 -14h-39q-63 0 -83 37q-8 13 -8 33q0 71 91 71q43 0 56 -18q6 -9 6 -21t-2 -12q-3 -5 -37 -14h-13l-13 13
q-10 10 -12 13q-10 -7 -18 -14t-8 -15.5t5 -14.5t12 -11q15 -9 32.5 -9t39.5 10t39 27q37 37 37 84q0 17 -13.5 32.5t-25.5 23.5l-54 2h-32l-52 -2q-54 -4 -97 -61q-41 -54 -41 -109q0 -37 16.5 -60.5t46.5 -45.5q4 -4 19 -12l22 -10q7 -4 8 -4h9l35 -1h16q42 0 81 6
t67.5 28.5t53 46t44.5 51.5q47 64 47 121q0 2 -3 20l-6 27q-2 10 -8.5 31t-7.5 23q-41 52 -90.5 82.5t-116.5 30.5q-38 0 -74.5 -7t-74.5 -7q0 22 38 38q22 10 54 14h56q94 0 174 -78q23 -23 47 -49.5t31 -58t7 -60t-1.5 -52t-11.5 -43.5q-65 -114 -151 -163
q-25 -14 -50 -26t-26 -12l-31 -1z" />
    <glyph glyph-name="uniE0BB" unicode="&#xe0bb;" horiz-adv-x="821" 
d="M531.5 31q-2.5 1 -12 3t-20 4t-20 4t-25.5 5.5t-40.5 18t-48 31t-47.5 33t-54.5 28.5t-72.5 24t-78.5 30t-61.5 46t-25 82q0 95 103 182l12 1q28 0 63 -27q33 31 68.5 54t82.5 23q40 0 69 -23q32 -25 32 -65v-26l-25 -63q20 -13 43 -18.5t44 -18.5q24 28 51.5 52t62 24
t63.5 -13t51 -34q50 -48 50 -111q0 -45 -39 -95q-4 -7 -44 -54q-69 -81 -77 -91t-10.5 -16.5t-5.5 -12.5q-8 -15 -18 -14.5t-39 18.5t-31.5 19zM644 397l-25 -1q-1 0 -5 -3l-11 -7q-6 -4 -12.5 -8t-13.5 -10t-12.5 -18.5t-9.5 -25.5q-11 -34 -24 -41q-6 13 -26.5 30.5
t-27.5 22.5q-16 10 -50 10t-51 -9t-28 -24q-19 -28 -19 -72.5t24.5 -82t64.5 -51.5q11 -4 35.5 -11.5t50.5 -15.5q46 -14 77 -23l13 -1l12 1q111 126 133 160l8 12q10 15 10 17q2 0 2 30q0 51 -31 86t-84 35zM70.5 365.5q-5.5 -17.5 -5.5 -39.5t20.5 -43t50.5 -35
q58 -28 114 -28q34 0 38 64q1 15 5 30q6 20 49 57q2 2 12.5 6.5t12.5 6.5q15 20 26.5 39.5t12.5 22.5v30q0 35 -5 40q-7 7 -42 7t-58 -14t-38.5 -31.5t-26 -31.5t-21.5 -14t-18 6.5t-14 14t-14.5 14t-20 6.5t-19 -1t-13 -12.5t-15.5 -27t-17 -32.5t-13.5 -34.5z" />
    <glyph glyph-name="uniE0BC" unicode="&#xe0bc;" horiz-adv-x="884" 
d="M860 585l2 -13l-2 -12q-24 0 -51.5 -7t-33 -10t-11.5 -7q-18 -12 -18 -18v-6q0 -23 7 -43t7 -42l-1 -3v-3q-2 -4 -5.5 -12t-7.5 -16q-10 -20 -13 -23.5t-19.5 -22t-35.5 -39.5q-50 -54 -54 -59t-7.5 -12.5t-8 -16t-8 -16t-4 -9t-10 -1.5t-13.5 2.5t-7 5.5q-9 7 -15 7
l-3 -1h-2l-189 -189q-4 -2 -7 -2h-4q-18 0 -34 10.5t-32.5 22.5t-34.5 22.5t-30 10.5h-17q-8 0 -30.5 -24t-24.5 -26.5t-0.5 -13.5t0.5 -13t-5.5 -6t-6.5 -6q-17 -7 -42 -16.5t-48 -9.5h-7q-5 0 -11 11t-6 15q3 7 14 24q21 32 27 42.5t21.5 15t32 8t32 10.5t24.5 26q1 1 1 5
v6q0 19 -13.5 39t-19.5 31.5t-6 29t7 43t21 47.5q30 50 79 50h7q3 0 10.5 -2t16 -4t15 -3.5t8 -2t5 -3t7.5 -4.5q10 -6 13 -6q4 4 10.5 14.5t10 16t4.5 7.5q2 1 7.5 6t5.5 6v7q0 14 -9 30q-17 29 -17 44.5t9 36.5t22 40q34 45 62 45q26 0 48 -12l34 -19q20 -10 29.5 -7.5
t16 4.5t12 4.5t7.5 2.5l18 1l26 1q21 0 51 -7.5t41.5 -7.5t16.5 1.5t9 9t9 20t11 26.5t11.5 26.5t7.5 18.5l12 1l8 -1h5q2 -2 7 -11q5 -11 5 -19l-1 -17q0 -3 1.5 -4.5t9 -5t16.5 -7.5t16 -7zM344 70q22 25 54.5 50.5t62.5 54t51.5 61t21.5 73.5q0 76 -90 76q-48 0 -76 -45
q-10 -17 -17 -31t-18.5 -14t-21 4t-19.5 9q-25 14 -42 14q-38 0 -54 -25t-16 -55q0 -55 38 -85l15 7q11 6 23 12q30 17 38 20h6q8 0 14 -6t6 -13t-8 -14.5t-19 -15t-21.5 -14.5t-14.5 -13zM709 409l3 33q0 51 -20.5 72.5t-71.5 21.5q-21 0 -36 -9.5t-22 -14t-14 -4.5
q-14 0 -16 1.5t-9 7t-15 11.5q-22 17 -25.5 18.5t-10.5 4t-15 4.5q-20 5 -29 5t-18.5 -8t-15.5 -19q-13 -21 -13 -40v-30q0 -11 14 -17q39 -18 74 -29t60 -28t37 -46.5t5 -84.5z" />
    <glyph glyph-name="leaf" unicode="&#x1f33f;" horiz-adv-x="741" 
d="M332 -104l-88 3q-5 0 -16 2t-23 4q-27 4 -32.5 5.5t-10 6.5t-6.5 7.5t-7.5 9.5t-11.5 15.5t-11.5 15.5t-7.5 10h-6q-20 0 -42 -25q-9 -10 -16.5 -18t-17.5 -8q-20 0 -20 25l1 13q18 7 53 48q8 10 10 14t2 17l-1 56v16q5 70 37 113l35 35t15 15.5t4 10.5q8 23 13.5 40
t7 22t3 12.5t4 15.5t4 15.5t2.5 10.5t6 14l12 23q48 97 114 138q19 13 38.5 13t31 -10.5t16.5 -26.5q5 -18 5 -64h16q22 18 70 39.5t56 23.5l62 4l64 -4q11 -3 11.5 -12.5t0.5 -28.5t-12.5 -48.5t-32.5 -55.5q-40 -56 -93 -81q-2 -1 -7.5 -2.5t-12 -4t-11.5 -4.5
q-8 -2 -8 -4v-3q0 -19 25.5 -49t25.5 -47q0 -2 -5 -6.5t-7 -5t-11 -0.5l-40 1q-11 0 -28 -7t-34 -13q-43 -17 -51 -19l-35 -2h-11q-30 0 -47 8.5t-30.5 19t-29 19t-31.5 8.5q-39 0 -42 -3q-16 -5 -28 -29q-19 -36 -21 -49.5t-4 -24t-4 -22.5t-4 -23t-2 -15l13 -1l12 1
q34 7 66 17t67 10q0 -28 -32 -40q-13 -5 -28.5 -8t-29.5 -7q-31 -8 -31 -27.5t16.5 -37t29 -19.5t30 -4t38 -4t38.5 -4t25 -2v-28zM468 290l-21 1q-87 0 -203 -27q19 -6 37 -22q47 -42 55 -42h7q35 0 74 14q74 27 90 50l-25 25q-8 0 -14 1zM357 528q-4 0 -36 -33.5
t-41 -43.5t-18 -26.5t-16 -34.5q-14 -40 -14 -69v-7q7 7 25 24.5t38 37.5l38 38q18 18 28 30.5t18 36.5t8 47h-30zM662 519q-14 0 -56 -7t-47 -8.5t-22.5 -11t-40.5 -21.5q-66 -36 -79.5 -46.5t-23.5 -18.5q-25 -21 -36 -29q-15 -13 -23 -22t-8 -29q83 0 220 38q3 2 13 6.5
t13 7.5l50 50t28 30q12 14 12 61zM406 383l1 19q26 14 53.5 30t56.5 30q66 32 121 32q0 -17 -1 -31.5t-11.5 -20t-27.5 -14.5t-37.5 -19t-39 -19t-24 -12t-14.5 -6.5t-19.5 -7.5t-19.5 -7.5t-11.5 -4.5t-3.5 -1h-3q-14 0 -17 11t-3 21z" />
    <glyph glyph-name="NULL" horiz-adv-x="212" 
 />
    </font>
</defs>
</svg>
