<?xml version="1.0" standalone="no"?>
<!DOCTYPE svg PUBLIC "-//W3C//DTD SVG 1.1//EN" "http://www.w3.org/Graphics/SVG/1.1/DTD/svg11.dtd" >
<svg xmlns="http://www.w3.org/2000/svg" xmlns:xlink="http://www.w3.org/1999/xlink" version="1.1">
<metadata>
Created by FontForge 20161013 at Tue May  1 00:56:20 2012
 By ,,,
Copyright (c) 2007, Denis Moyogo Jacquerye &#60;moyogo@gmail.com&#62;, with Reserved Font Name Molengo
</metadata>
<defs>
<font id="Molengo-Regular" horiz-adv-x="0" >
  <font-face 
    font-family="Molengo"
    font-weight="400"
    font-stretch="normal"
    units-per-em="2048"
    panose-1="2 0 0 0 0 0 0 0 0 0"
    ascent="1638"
    descent="-410"
    x-height="938"
    cap-height="1391"
    bbox="-354 -522 1960 1928"
    underline-thickness="90"
    underline-position="-376"
    unicode-range="U+000C-2C6D"
  />
<missing-glyph horiz-adv-x="886" 
d="M68 0v1365h682v-1365h-682zM136 68h546v1229h-546v-1229z" />
    <glyph glyph-name=".notdef" horiz-adv-x="886" 
d="M68 0v1365h682v-1365h-682zM136 68h546v1229h-546v-1229z" />
    <glyph glyph-name=".null" 
 />
    <glyph glyph-name=".null" 
 />
    <glyph glyph-name="nonmarkingreturn" horiz-adv-x="682" 
 />
    <glyph glyph-name="space" unicode=" " horiz-adv-x="582" 
 />
    <glyph glyph-name="exclam" unicode="!" horiz-adv-x="454" 
d="M107 1392h240l-64 -932h-92zM109 103q0 50 34.5 85.5t83.5 35.5t83.5 -35.5t34.5 -85.5t-34.5 -85.5t-83.5 -35.5t-83.5 35.5t-34.5 85.5z" />
    <glyph glyph-name="quotedbl" unicode="&#x22;" horiz-adv-x="575" 
d="M64 980zM216 1428l-48 -448h-104v448h152zM513 1428l-48 -448h-104v448h152z" />
    <glyph glyph-name="numbersign" unicode="#" horiz-adv-x="1181" 
d="M524 1475h128l-98 -464h296l98 464h128l-98 -465h209v-109h-232l-77 -362h209v-109h-232l-91 -430h-128l91 431h-296l-91 -431h-128l91 432h-219v109h242l77 362h-219v109h242zM454 540h296l77 362h-296z" />
    <glyph glyph-name="dollar" unicode="$" horiz-adv-x="966" 
d="M429 683v357q-63 -16 -102.5 -60t-39.5 -108t37 -108.5t105 -80.5zM429 1174v164h117v-165q149 -14 237 -74l-36 -128q-88 60 -201 73v-415q1 -1 20 -9t36.5 -15.5t50 -23t50 -26.5t44 -29t41.5 -34t33 -38t27 -45q22 -56 22 -113q0 -121 -88.5 -209.5t-235.5 -102.5
v-164h-117v164q-161 10 -279 78q-25 14 -54 29l58 120q108 -70 166.5 -82.5t108.5 -15.5v414q-132 59 -168.5 89t-61.5 56t-39 54q-34 65 -34 141q0 122 83 207t220 100zM546 473v-356q79 14 121 59t42 105q0 109 -163 192z" />
    <glyph glyph-name="percent" unicode="%" horiz-adv-x="1566" 
d="M1117 1391h128l-787 -1391h-128zM263 1375q55 17 111.5 17t111.5 -17t106.5 -53t83.5 -102.5t32 -154.5t-32 -154.5t-84 -102.5q-100 -69 -217 -69q-118 0 -219 69q-51 36 -83 102.5t-32 154.5t32 154.5t83.5 102.5t106.5 53zM375 846q66 0 109 36q81 65 81 183
q0 160 -127 207q-31 12 -63 12q-67 0 -110 -36q-81 -65 -81 -183q0 -161 128 -207q31 -12 63 -12zM1041 618q55 17 111.5 17t111.5 -17t106.5 -53t83.5 -102.5t32 -154.5t-32 -154.5t-84 -101.5q-100 -70 -217 -70q-118 0 -219 70q-51 35 -83 101.5t-32 154.5t32 154.5
t83.5 102.5t106.5 53zM1153 89q66 0 109 35q81 66 81 184q0 160 -127 208q-31 11 -63 11q-67 0 -110 -35q-81 -66 -81 -184q0 -161 128 -208q31 -11 63 -11z" />
    <glyph glyph-name="ampersand" unicode="&#x26;" horiz-adv-x="1466" 
d="M452 714q-98 -47 -156.5 -139.5t-58.5 -204.5t87 -185.5t197 -73.5t208.5 39.5t146.5 104.5zM372 828q-76 113 -76 254.5t95 222.5t225 81q196 0 328 -90l-40 -140q-26 23 -110.5 62t-148 39t-101.5 -32q-64 -54 -64 -168t86 -229q145 -193 406 -454q58 88 112 253.5
t72 292.5l106 -68q-13 -123 -79 -297.5t-131 -268.5l267 -286h-211l-148 160q-30 -24 -55.5 -49t-61.5 -48t-76 -41q-89 -40 -204.5 -40t-196 23.5t-146.5 69t-105 122.5t-39 177t44.5 191.5t107 151.5t144.5 111z" />
    <glyph glyph-name="quotesingle" unicode="'" horiz-adv-x="264" 
d="M216 1428l-48 -448h-104v448h152z" />
    <glyph glyph-name="parenleft" unicode="(" horiz-adv-x="634" 
d="M271 492q0 -385 183 -756q54 -110 127 -229h-110q-214 307 -291 547q-70 222 -70 438q0 350 182 696q73 138 179 289h110q-232 -378 -288 -713q-22 -132 -22 -272z" />
    <glyph glyph-name="parenright" unicode=")" horiz-adv-x="634" 
d="M363 492q0 385 -183 756q-54 110 -127 229h110q212 -303 291 -550q70 -223 70 -435q0 -354 -182 -696q-73 -137 -179 -289h-110q232 378 288 713q22 132 22 272z" />
    <glyph glyph-name="asterisk" unicode="*" horiz-adv-x="849" 
d="M454 953l149 -249l-126 -59l-79 285l-190 -219l-95 102l247 162l-267 113l68 122l230 -184l25 289l137 -27l-104 -276l283 66l16 -139z" />
    <glyph glyph-name="plus" unicode="+" horiz-adv-x="1130" 
d="M620 558h449v-109h-449v-449h-110v449h-449v109h449v450h110v-450z" />
    <glyph glyph-name="comma" unicode="," horiz-adv-x="450" 
d="M205 -27q0 18 -49 41q-18 9 -33.5 34t-15.5 65t31.5 75.5t79.5 35.5t75.5 -17.5t38.5 -45.5q19 -48 19 -109q0 -159 -194 -346l-82 72q130 124 130 195z" />
    <glyph glyph-name="hyphen" unicode="-" horiz-adv-x="765" 
d="M690 449h-629v109h629v-109z" />
    <glyph glyph-name="period" unicode="." horiz-adv-x="450" 
d="M107 103q0 50 34.5 85.5t83.5 35.5t83.5 -35.5t34.5 -85.5t-34.5 -85.5t-83.5 -35.5t-83.5 35.5t-34.5 85.5z" />
    <glyph glyph-name="slash" unicode="/" horiz-adv-x="645" 
d="M493 1475h128l-469 -1475h-128z" />
    <glyph glyph-name="zero" unicode="0" horiz-adv-x="1231" 
d="M616 111q110 0 208 56q113 64 160 195q26 72 26 162q0 176 -92 282q-82 90 -199 120q-52 12 -103 12q-182 0 -302 -132q-92 -103 -92 -282q0 -90 26 -162q45 -130 160 -195q96 -56 208 -56zM616 1067q158 0 295 -73q160 -85 224 -256q36 -96 36 -214t-36 -214
q-64 -170 -224 -255q-137 -73 -295 -73t-295 73q-160 85 -224 256q-36 95 -36 213.5t36 213.5q64 171 224 256q137 73 295 73z" />
    <glyph glyph-name="one" unicode="1" horiz-adv-x="581" 
d="M436 1049v-1049h-161v906l-188 -96l-53 115l241 124h161z" />
    <glyph glyph-name="two" unicode="2" horiz-adv-x="919" 
d="M547 893q-50 45 -158.5 45t-238.5 -84l-60 105q49 40 131.5 74t178.5 34q163 0 260.5 -72t97.5 -215q0 -157 -196 -364q-31 -34 -84 -88l-196 -200h520v-128h-712v128l196 200q55 57 102 104q157 160 193 264q15 44 15 97.5t-49 99.5z" />
    <glyph glyph-name="three" unicode="3" horiz-adv-x="841" 
d="M717 747q0 -185 -181 -285q128 -49 189 -136q63 -96 63 -245q0 -179 -122 -303q-126 -128 -319.5 -128t-310.5 92l65 104q100 -67 230.5 -67t212 87.5t81.5 222.5t-91 213t-218 78h-82v128h54q92 0 174 52q41 26 66.5 75t25.5 105q0 106 -70 156q-66 43 -151.5 43
t-188.5 -45l-42 112q51 26 121 43.5t140 17.5t137 -20q119 -35 173 -127q44 -73 44 -173z" />
    <glyph glyph-name="four" unicode="4" horiz-adv-x="995" 
d="M591 259v563l-359 -563h359zM62 236l529 831h161v-808h217v-128h-217v-387h-161v387h-529v105z" />
    <glyph glyph-name="five" unicode="5" horiz-adv-x="835" 
d="M120 1049h596v-128h-434l-18 -361q247 -18 373 -144q48 -48 79.5 -129t31.5 -185q0 -205 -124.5 -328.5t-347.5 -123.5q-48 0 -115.5 13.5t-112.5 38.5l56 123q71 -40 172 -40q153 0 232 90t79 227q0 216 -203 297q-102 41 -236 41h-63z" />
    <glyph glyph-name="six" unicode="6" horiz-adv-x="1013" 
d="M700.5 184q76.5 73 80.5 203v17q0 129 -74.5 203t-198.5 74q-157 0 -272 -109q-5 -32 -5 -94.5t21 -136.5t52.5 -116t73.5 -69q69 -45 157.5 -45t165 73zM525 -18q-132 0 -241 65q-132 78 -184 247q-30 94 -30 192t10 169t35 147t63.5 142t99.5 127.5t139 108.5
q171 102 423 125l15 -129q-244 -22 -400 -138t-202 -325q42 45 121 71t162 26q175 0 290.5 -109.5t115.5 -289t-111 -304.5t-306 -125z" />
    <glyph glyph-name="seven" unicode="7" horiz-adv-x="787" 
d="M379 636l165 285h-509v128h736l-164 -285q-132 -229 -214.5 -500t-107.5 -521h-161q21 218 99 487t156 406z" />
    <glyph glyph-name="eight" unicode="8" horiz-adv-x="952" 
d="M658 935q15 37 15 79.5t-21.5 76.5t-54.5 51q-63 34 -125 34t-110 -25q-92 -47 -92 -139q0 -90 64 -152q53 -51 149 -103q141 99 175 178zM436 605q-98 -56 -151.5 -125.5t-53.5 -158t72 -149.5t171.5 -61t174.5 54t75 147q0 116 -113 193q-57 39 -100.5 61t-74.5 39z
M316 672q-154 101 -192 230q-15 54 -15 129t53 141q107 133 310 133q202 0 308 -133q54 -66 54 -137t-19 -120.5t-53 -89.5q-57 -67 -159 -131q163 -90 225 -184q57 -87 57 -206q0 -130 -95 -222q-104 -100 -318 -100q-301 0 -380 201q-22 56 -22 110t7.5 92t19.5 67.5
t32 57.5t38.5 48t46.5 42q50 39 102 72z" />
    <glyph glyph-name="nine" unicode="9" horiz-adv-x="1013" 
d="M311.5 865q-76.5 -73 -80.5 -203v-17q0 -129 74.5 -203t198.5 -74q157 0 272 109q5 32 5 94.5t-21 136.5t-52.5 116t-73.5 69q-69 45 -157.5 45t-165 -73zM487 1067q132 0 241 -65q132 -78 184 -246q30 -95 30 -193t-10 -169t-35 -147t-63.5 -142t-99.5 -127.5
t-139 -107.5q-171 -103 -423 -126l-15 129q244 22 400 138t202 325q-42 -45 -121 -71t-162 -26q-175 0 -290.5 109.5t-115.5 289t111 304.5t306 125z" />
    <glyph glyph-name="colon" unicode=":" horiz-adv-x="450" 
d="M107 0zM107 754q0 50 34.5 85.5t83.5 35.5t83.5 -35.5t34.5 -85.5t-34.5 -85.5t-83.5 -35.5t-83.5 35.5t-34.5 85.5zM107 103q0 50 34.5 85.5t83.5 35.5t83.5 -35.5t34.5 -85.5t-34.5 -85.5t-83.5 -35.5t-83.5 35.5t-34.5 85.5z" />
    <glyph glyph-name="semicolon" unicode=";" horiz-adv-x="450" 
d="M75 0zM205 -27q0 18 -49 41q-18 9 -33.5 34t-15.5 65t31.5 75.5t79.5 35.5t75.5 -17.5t38.5 -45.5q19 -48 19 -109q0 -159 -194 -346l-82 72q130 124 130 195zM107 754q0 50 34.5 85.5t83.5 35.5t83.5 -35.5t34.5 -85.5t-34.5 -85.5t-83.5 -35.5t-83.5 35.5t-34.5 85.5z
" />
    <glyph glyph-name="less" unicode="&#x3c;" horiz-adv-x="967" 
d="M0 525l800 630l79 -84l-692 -546l692 -546l-79 -84z" />
    <glyph glyph-name="equal" unicode="=" horiz-adv-x="1052" 
d="M991 630h-930v108h930v-108zM991 294h-930v108h930v-108z" />
    <glyph glyph-name="greater" unicode="&#x3e;" horiz-adv-x="967" 
d="M967 525l-800 -630l-79 84l692 546l-692 546l79 84z" />
    <glyph glyph-name="question" unicode="?" horiz-adv-x="864" 
d="M302 103q0 50 34.5 85.5t83.5 35.5t83.5 -35.5t34.5 -85.5t-34.5 -85.5t-83.5 -35.5t-83.5 35.5t-34.5 85.5zM368 388q-53 99 -53 173t29.5 139t72 122.5t85.5 114.5q101 136 101 243q0 62 -59 108.5t-170 46.5t-216 -63l-50 108q99 63 173 73.5t139 10.5
q136 0 240 -79.5t104 -204.5q0 -127 -102 -274q-42 -61 -84 -118q-102 -138 -102 -215t26 -165z" />
    <glyph glyph-name="at" unicode="@" horiz-adv-x="1994" 
d="M1892.5 854.5q37.5 -118.5 37.5 -231t-23.5 -205t-69.5 -170.5t-109 -137q-133 -126 -319 -126q-205 0 -243 111q-6 20 -10 48q-115 -162 -308 -162q-130 0 -210 76q-85 79 -85 247q0 347 261 543q146 109 310 109q99 0 172 -23.5t146 -74.5l-91 -467q-24 -122 -24 -185
t26 -87.5t99.5 -24.5t154.5 74t130.5 190.5t49.5 248.5t-51 260t-143 224t-229.5 152t-280.5 56t-265 -41t-226.5 -120t-185.5 -185t-127 -244.5t-46 -299t60.5 -310t165.5 -255.5t253.5 -167.5t317.5 -61.5q304 0 549 190q33 25 86 69l90 -70q-121 -129 -308.5 -213
t-384 -84t-336 37t-240.5 103t-178.5 153.5t-123.5 192.5q-94 211 -94 442q0 324 189 574q191 254 473 349q145 49 303 49t299.5 -42.5t245.5 -117t179.5 -175t113 -219zM1268 791q-51 37 -127 37t-135.5 -19.5t-101.5 -51.5t-76 -76t-54.5 -90t-34.5 -97
q-25 -90 -25 -186.5t47 -147t108.5 -50.5t103 14t77.5 42q61 49 121 125z" />
    <glyph glyph-name="A" unicode="A" horiz-adv-x="1328" 
d="M933 404h-548l-150 -404h-168l522 1391h150l522 -1391h-178zM881 544l-222 600l-223 -600h445z" />
    <glyph glyph-name="B" unicode="B" horiz-adv-x="1116" 
d="M361 1252v-457h66q167 0 255.5 63t88.5 182q0 147 -145 204q-67 26 -137.5 26t-127.5 -18zM883 390q0 265 -462 265h-60v-515q54 -18 138 -18q188 0 286 69.5t98 198.5zM992 172q-144 -190 -500 -190q-176 0 -312 31v1359q166 37 344 37t308.5 -87t130.5 -228t-69 -227
t-177 -115q263 -35 329 -214q22 -56 22 -125q0 -142 -76 -241z" />
    <glyph glyph-name="C" unicode="C" horiz-adv-x="1255" 
d="M740 122q175 0 338 123l88 -119q-106 -77 -175 -103q-110 -41 -302 -41t-339 90t-224 251.5t-77 372.5t77 372t224 251t343 90q187 0 262.5 -28t113.5 -50.5t97 -65.5l-88 -119q-163 123 -338 123h-12q-112 0 -210 -48q-181 -88 -253 -312q-34 -103 -34 -214t33.5 -213.5
t93.5 -183.5q133 -176 370 -176h12z" />
    <glyph glyph-name="D" unicode="D" horiz-adv-x="1375" 
d="M1101 163q-218 -181 -553 -181q-181 0 -368 31v1359q211 37 347 37q400 0 640 -265q75 -85 119 -202t44 -267.5t-62.5 -287.5t-166.5 -224zM361 1252l-1 -1112q92 -18 198 -18q223 0 397 143q84 68 135.5 178.5t51.5 232.5q0 327 -270 499q-151 95 -326 95
q-107 0 -185 -18z" />
    <glyph glyph-name="E" unicode="E" horiz-adv-x="1077" 
d="M361 644v-504h614v-140h-795v1391h795v-139h-614v-468h418v-140h-418z" />
    <glyph glyph-name="F" unicode="F" horiz-adv-x="999" 
d="M361 644v-644h-181v1391h795v-139h-614v-468h418v-140h-418z" />
    <glyph glyph-name="G" unicode="G" horiz-adv-x="1435" 
d="M49 696q0 211 87 372q86 161 250 251t384 90q189 0 275 -30.5t126.5 -52t104.5 -62.5l-70 -133q-214 138 -432 138q-122 0 -224 -48q-195 -91 -272 -310q-37 -103 -37 -203q0 -297 184 -468q122 -118 305 -118h12q162 0 329 75v329h-297v139l478 1l-1 -540
q-213 -144 -520 -144t-494.5 197t-187.5 517z" />
    <glyph glyph-name="H" unicode="H" horiz-adv-x="1364" 
d="M1184 1390v-1390h-181v664h-642v-664h-181v1391h181v-587h642v586h181z" />
    <glyph glyph-name="I" unicode="I" horiz-adv-x="541" 
d="M361 1391v-1391h-181v1391h181z" />
    <glyph glyph-name="J" unicode="J" horiz-adv-x="541" 
d="M361 1391v-1251q-2 -66 -2 -107.5t-7.5 -100t-20 -99t-36.5 -90.5t-57 -87q-80 -90 -201 -151l-78 99q117 90 169 195.5t52 269.5v1322h181z" />
    <glyph glyph-name="K" unicode="K" horiz-adv-x="1115" 
d="M361 0h-181v1391h181v-698l510 698h188l-504 -690l548 -701h-211l-531 679v-679z" />
    <glyph glyph-name="L" unicode="L" horiz-adv-x="1010" 
d="M180 0v1391h181v-1251h614v-140h-795z" />
    <glyph glyph-name="M" unicode="M" horiz-adv-x="1774" 
d="M893 249l430 1143h168l173 -1392h-178l-124 1039l-381 -1039h-165l-417 1087l-130 -1087h-160l173 1392h178z" />
    <glyph glyph-name="N" unicode="N" horiz-adv-x="1385" 
d="M1205 1391v-1391h-181l-663 1042v-1042h-181v1391h181l663 -1043v1043h181z" />
    <glyph glyph-name="O" unicode="O" horiz-adv-x="1444" 
d="M435 1355.5q130 53.5 275 53.5q395 0 580 -290q109 -176 109 -416q0 -243 -113 -421q-120 -192 -324 -262q-109 -38 -254.5 -38t-276.5 55.5t-215 152.5q-171 201 -171 513q0 308 176 505q84 94 214 147.5zM992 1193q-112 78 -265.5 78t-266.5 -75q-223 -149 -223 -493
q0 -349 221 -502q112 -78 247 -78q249 0 380 174q125 167 125 406q0 337 -218 490z" />
    <glyph glyph-name="P" unicode="P" horiz-adv-x="1083" 
d="M180 1372q194 37 322.5 37t220 -23.5t149 -62.5t94.5 -93q69 -100 69 -234q0 -183 -140 -301.5t-364 -118.5h-170v-576h-181v1372zM361 1252v-536h66q222 0 319 65.5t97 204t-81 211.5q-82 73 -242 73q-86 0 -159 -18z" />
    <glyph glyph-name="Q" unicode="Q" horiz-adv-x="1449" 
d="M91 984q94 268 344 372q130 53 275 53q395 0 580 -290q109 -176 109 -416q0 -309 -182 -513q-91 -102 -217 -156q28 -15 84.5 -49.5t91.5 -54.5q96 -55 196 -72l-53 -130q-115 19 -246 101q-149 92 -218 119.5t-134 33.5q-388 3 -566 294q-110 175 -110 427q0 152 46 281
zM992 1193q-112 78 -265.5 78t-266.5 -75q-223 -149 -223 -493q0 -349 221 -502q112 -78 247 -78q249 0 380 174q125 167 125 406q0 337 -218 490z" />
    <glyph glyph-name="R" unicode="R" horiz-adv-x="1045" 
d="M1079 0h-201l-517 628v-628h-181v1372q187 37 320 37q232 0 363 -106.5t131 -271.5t-118 -274t-317 -126zM491 1270q-80 0 -130 -18v-484h25q416 0 416 256q0 109 -93 178q-94 68 -218 68z" />
    <glyph glyph-name="S" unicode="S" horiz-adv-x="1007" 
d="M157 253q28 -20 51.5 -39t53.5 -35.5t62 -28.5q70 -28 157 -28q146 0 201 71q47 61 47 120.5t-12 93.5q-23 59 -92 111q-29 20 -69 43l-164 81q-92 50 -140 97t-72 87q-53 89 -53 231t103 247t268 105q105 0 188.5 -27t132.5 -65l-38 -138q-119 92 -270 92
q-95 0 -148.5 -63t-53.5 -162q0 -45 15 -82q25 -66 104 -118q31 -22 86 -46l157 -80q42 -23 74.5 -45.5t64.5 -54.5q101 -101 101 -260.5t-109 -268.5t-284 -109q-192 0 -316 68q-67 36 -106 63z" />
    <glyph glyph-name="T" unicode="T" horiz-adv-x="1183" 
d="M57 1391h1069v-139h-444v-1252h-181v1252h-444v139z" />
    <glyph glyph-name="U" unicode="U" horiz-adv-x="1310" 
d="M681 -18q-501 0 -501 456v953h181v-905q0 -187 86 -275t227 -88q285 0 285 390v878h171v-922q0 -221 -118 -354t-331 -133z" />
    <glyph glyph-name="V" unicode="V" horiz-adv-x="1328" 
d="M669 248l424 1143h168l-522 -1391h-150l-522 1391h178z" />
    <glyph glyph-name="W" unicode="W" horiz-adv-x="2027" 
d="M1792 1391h168l-461 -1391h-150l-336 1014l-336 -1014h-150l-460 1391h178l362 -1143l363 1143h97l362 -1143z" />
    <glyph glyph-name="X" unicode="X" horiz-adv-x="1288" 
d="M108 1392h211l343 -538l340 537h188l-434 -685l448 -705h-212l-359 565l-361 -571h-188l455 719z" />
    <glyph glyph-name="Y" unicode="Y" horiz-adv-x="1241" 
d="M1014 1391h168l-471 -773v-618h-181v619l-471 772h178l389 -637z" />
    <glyph glyph-name="Z" unicode="Z" horiz-adv-x="1259" 
d="M87 1391h1029l-796 -1252h796v-140l-1066 1l796 1252h-759v139z" />
    <glyph glyph-name="bracketleft" unicode="[" horiz-adv-x="581" 
d="M100 -490v1965h422v-128h-261v-1709h261v-128h-422z" />
    <glyph glyph-name="backslash" unicode="\" horiz-adv-x="645" 
d="M152 1475l469 -1475h-128l-469 1475h128z" />
    <glyph glyph-name="bracketright" unicode="]" horiz-adv-x="581" 
d="M522 -490h-422v128h261v1709h-261v128h422v-1965z" />
    <glyph glyph-name="asciicircum" unicode="^" horiz-adv-x="1085" 
d="M600 1409l415 -581l-100 -33l-375 515l-375 -515l-100 33l415 581h120z" />
    <glyph glyph-name="underscore" unicode="_" horiz-adv-x="1048" 
d="M983 -297h-918v109h918v-109z" />
    <glyph glyph-name="grave" unicode="`" horiz-adv-x="491" 
d="M10 1475h188l162 -375h-111z" />
    <glyph glyph-name="a" unicode="a" horiz-adv-x="894" 
d="M605 422q-368 0 -368 -183q0 -49 30.5 -91t69.5 -42h39q220 0 235 231v85h-6zM145 893q180 63 295 63t201 -57t115 -169q16 -63 16 -257v-313q0 -88 14 -160h-162q-13 41 -13 93v7q-25 -30 -55 -52q-94 -69 -200 -69q-178 0 -245 127q-35 63 -35 129q0 175 205 253
q123 47 312 47h18v101q0 110 -42 150q-49 46 -163 46t-253 -64z" />
    <glyph glyph-name="b" unicode="b" horiz-adv-x="1059" 
d="M594 828q-163 0 -269 -180v-500q58 -37 155 -37q262 0 337 232q21 68 21 153.5t-22 153.5q-36 118 -135 161q-41 17 -87 17zM457 928.5q67 27.5 147 27.5q162 0 274 -110q56 -55 88.5 -148.5t32.5 -201.5q0 -285 -213 -432q-121 -82 -260 -82q-203 0 -362 98v1395h161
v-647q65 73 132 100.5z" />
    <glyph glyph-name="c" unicode="c" horiz-adv-x="888" 
d="M549 111q117 0 225 79l62 -108q-79 -58 -141 -79t-187 -21q-206 0 -326.5 133t-120.5 354t120.5 354t326.5 133q125 0 187 -21t141 -79l-62 -108q-108 79 -225 79h-6q-146 0 -233.5 -105t-87.5 -253t87.5 -253t233.5 -105h6z" />
    <glyph glyph-name="d" unicode="d" horiz-adv-x="1063" 
d="M465 -18q-116 0 -210 64t-144 166.5t-50 219.5q0 233 135.5 378.5t336.5 145.5q84 0 201 -32v551h165v-1475h-165v110q-113 -128 -269 -128zM734 784q-83 44 -164 44q-140 0 -242 -106q-106 -113 -106 -269t74.5 -249t183.5 -93q74 0 141 50.5t113 128.5v494z" />
    <glyph glyph-name="e" unicode="e" horiz-adv-x="939" 
d="M500 828q-139 0 -208 -84q-48 -58 -63 -164h485q-9 109 -65 179q-57 69 -149 69zM838 55q-108 -73 -292 -73q-233 0 -359 133t-126 354q0 288 187 417q104 70 232 70q198 0 300 -134q86 -115 92 -302l-24 -60h-626q2 -166 89 -257.5t232 -91.5q110 0 252 59z" />
    <glyph glyph-name="f" unicode="f" horiz-adv-x="675" 
d="M222 1020q0 444 351 444q110 0 181 -34q23 -12 53 -31.5t39 -24.5l-44 -127q-41 36 -102.5 62.5t-130.5 26.5t-127.5 -72t-58.5 -157v-169h229v-128h-229v-810h-161v810h-166v128h166v82z" />
    <glyph glyph-name="g" unicode="g" horiz-adv-x="980" 
d="M492 827q-158 0 -202 -147q-12 -38 -12 -78q0 -83 51 -135.5t163 -52.5q158 0 202 136q12 35 12 70q0 73 -47 136q-55 71 -167 71zM805 810q62 -88 62 -189q0 -164 -122 -261q-93 -75 -253 -75q-86 0 -154 18q-59 -45 -59 -102q0 -79 257 -79q296 0 377 -143
q25 -44 25 -100q0 -123 -69 -208q-132 -163 -445 -163q-159 0 -258.5 64t-99.5 187q0 125 102 208q30 24 74 51q-124 42 -124 152q0 41 28 92t85 91q-111 80 -114 245v6q0 129 81 233q42 54 118 86.5t161.5 32.5t146.5 -18h314v-128h-133zM396 -6q-97 -54 -130 -99
q-39 -52 -39 -110t35 -91q60 -57 192 -57q182 0 274 90q49 48 49 117q0 71 -56 103q-60 32 -116 38q-76 8 -131.5 8t-77.5 1z" />
    <glyph glyph-name="h" unicode="h" horiz-adv-x="1121" 
d="M796 507q0 321 -230 321q-59 0 -108 -32q-75 -48 -118 -158q-15 -38 -15 -60v-578h-161v1475h161v-709q90 190 293 190q82 0 147.5 -36.5t102.5 -78.5q89 -99 89 -278v-563h-161v507z" />
    <glyph glyph-name="i" unicode="i" horiz-adv-x="547" 
d="M56 0zM383 938v-938h-161v810h-166v128h327zM184 1309q0 50 34.5 85.5t83.5 35.5t83.5 -35.5t34.5 -85.5t-34.5 -85.5t-83.5 -35.5t-83.5 35.5t-34.5 85.5z" />
    <glyph glyph-name="j" unicode="j" horiz-adv-x="547" 
d="M10 0zM383 938v-827q0 -206 -40 -315q-62 -168 -243 -288l-90 72q109 106 150 190q62 127 62 341v699h-166v128h327zM184 1309q0 50 34.5 85.5t83.5 35.5t83.5 -35.5t34.5 -85.5t-34.5 -85.5t-83.5 -35.5t-83.5 35.5t-34.5 85.5z" />
    <glyph glyph-name="k" unicode="k" horiz-adv-x="935" 
d="M325 0h-161v1475h161v-851l319 314h200l-386 -376l455 -562h-199l-389 479v-479z" />
    <glyph glyph-name="l" unicode="l" horiz-adv-x="593" 
d="M372 -18q-208 0 -208 264v1229h161v-1219q0 -77 30.5 -110.5t56.5 -33.5t114 8l13 -117q-100 -21 -167 -21z" />
    <glyph glyph-name="m" unicode="m" horiz-adv-x="1645" 
d="M747 469q0 359 -214 359q-58 0 -105 -43t-72 -105q-31 -63 -31 -131v-549h-161v938h161v-149q31 73 91.5 120t150.5 47q226 0 300 -225q79 225 278 225q165 0 250.5 -123t85.5 -364v-468l-156 -1v469q0 359 -214 359q-58 0 -105 -43t-72 -105q-31 -63 -31 -131v-549h-156
v469z" />
    <glyph glyph-name="n" unicode="n" horiz-adv-x="1121" 
d="M796 507q0 321 -230 321q-59 0 -108 -32q-75 -48 -118 -158q-15 -38 -15 -60v-578h-161v938h161v-172q90 190 293 190q82 0 147.5 -36.5t102.5 -78.5q89 -99 89 -278v-563h-161v507z" />
    <glyph glyph-name="o" unicode="o" horiz-adv-x="1012" 
d="M222 469q0 -97 24.5 -169.5t66 -112t90 -58t103.5 -18.5q112 0 193 77q89 85 89 281q0 195 -89 282q-82 76 -193 76q-113 0 -193 -76q-91 -87 -91 -282zM61 469q0 303 195 422q108 65 250 65q141 0 251 -65q58 -36 101 -90q93 -122 93 -332q0 -304 -194 -421
q-108 -66 -251 -66q-144 0 -250 66q-59 35 -102 90q-93 119 -93 331z" />
    <glyph glyph-name="p" unicode="p" horiz-adv-x="1063" 
d="M329 154q80 -44 163 -44q142 0 243 107q106 111 106 267.5t-74 249.5q-75 93 -184 93q-74 0 -141 -50.5t-113 -128.5v-494zM598 956q116 0 210 -64t144 -166.5t50 -219.5q0 -233 -135.5 -378.5t-336.5 -145.5q-84 0 -201 32v-506h-165v1430h165v-110q113 128 269 128z
" />
    <glyph glyph-name="q" unicode="q" horiz-adv-x="1060" 
d="M603 9.5q-67 -27.5 -147 -27.5q-162 0 -274 110q-56 55 -88.5 148.5t-32.5 201.5q0 287 214 432q119 82 259 82q203 0 362 -98v-1350h-161v602q-65 -73 -132 -100.5zM464 110q164 0 271 180v500q-58 37 -155 37q-264 0 -336 -232q-22 -68 -22 -153t21.5 -153.5
t57.5 -106.5q70 -72 163 -72z" />
    <glyph glyph-name="r" unicode="r" horiz-adv-x="830" 
d="M164 0v938h161v-172q36 78 102.5 134t151 56t139 -29.5t72.5 -62.5l-68 -102q-14 18 -27 30q-37 36 -109 36t-130 -46q-58 -47 -92 -114t-39 -134v-534h-161z" />
    <glyph glyph-name="s" unicode="s" horiz-adv-x="782" 
d="M382 111q173 0 173 149q0 90 -165 144l-98 34q-105 37 -155.5 105.5t-50.5 162t87 172t223 78.5q90 0 160 -23.5t108 -53.5l-57 -120q-31 25 -88 47t-122.5 22t-107.5 -39t-42 -87t32 -80t129 -66l98 -34q107 -37 159 -97q51 -61 51 -176t-88 -191t-240 -76
q-81 0 -155.5 16.5t-166.5 69.5l58 124q77 -46 131 -63.5t127 -17.5z" />
    <glyph glyph-name="t" unicode="t" horiz-adv-x="669" 
d="M412 -18q-238 0 -238 264v564h-166v128h166v190l161 60v-250h229v-128h-229v-554q0 -77 39 -110.5t87 -33.5q93 0 145 16l20 -113q-92 -33 -214 -33z" />
    <glyph glyph-name="u" unicode="u" horiz-adv-x="1121" 
d="M796 172q-90 -190 -293 -190q-82 0 -147.5 36.5t-103 78.5t-62.5 114q-26 72 -26 164v563h161v-507q0 -321 230 -321q59 0 108 32q75 48 118 158q15 38 15 60v578h161v-938h-161v172z" />
    <glyph glyph-name="v" unicode="v" horiz-adv-x="984" 
d="M801 938h162l-417 -938h-106l-419 938h173l304 -672z" />
    <glyph glyph-name="w" unicode="w" horiz-adv-x="1512" 
d="M1329 938h162l-367 -938h-104l-264 671l-262 -671h-104l-369 938h173l253 -672l252 672h125l253 -672z" />
    <glyph glyph-name="x" unicode="x" horiz-adv-x="945" 
d="M61 938h186l235 -346l244 343h172l-336 -461l321 -474h-186l-234 345l-245 -345h-172l337 463z" />
    <glyph glyph-name="y" unicode="y" horiz-adv-x="1027" 
d="M57 -322q53 -45 89 -45q61 0 107 54q63 71 134 224q19 41 46 100l-409 927h173l323 -731l324 731h162l-414 -920q-168 -386 -288 -472q-60 -42 -147 -42t-158 76z" />
    <glyph glyph-name="z" unicode="z" horiz-adv-x="972" 
d="M111 938h778l-549 -810h565v-128h-838l549 810h-505v128z" />
    <glyph glyph-name="braceleft" unicode="{" horiz-adv-x="667" 
d="M214 492q67 -22 106 -55q87 -72 87 -263q0 -60 -12 -186t-12 -154t4.5 -57.5t18.5 -69.5q30 -81 140 -148l-26 -81q-298 81 -298 370q0 76 12 183.5t12 161t-20 109.5t-50 86q-60 59 -123 59v90q63 0 123 59q70 69 70 214q0 35 -12 142.5t-12 183.5q0 289 298 370l26 -81
q-110 -67 -140 -148q-23 -65 -23 -110t12 -171t12 -206.5t-23.5 -145t-63 -97.5t-106.5 -55z" />
    <glyph glyph-name="bar" unicode="|" horiz-adv-x="310" 
d="M210 1477v-1965h-110v1965h110z" />
    <glyph glyph-name="braceright" unicode="}" horiz-adv-x="667" 
d="M453 492q-67 22 -107 55q-86 72 -86 263q0 60 12 186t12 154t-4.5 57.5t-19.5 69.5q-29 81 -139 148l26 81q298 -81 298 -370q0 -76 -12 -183.5t-12 -161t20 -109.5t51 -86q59 -59 122 -59v-90q-63 0 -122 -59q-71 -69 -71 -214q0 -35 12 -142.5t12 -183.5
q0 -289 -298 -370l-26 81q110 67 139 148q24 65 24 110t-12 171t-12 206.5t23.5 145t63 97.5t106.5 55z" />
    <glyph glyph-name="asciitilde" unicode="~" horiz-adv-x="1144" 
d="M167 423l-108 66q146 206 316 206q62 0 137.5 -26t147.5 -52t125 -26q108 0 193 108l108 -66q-146 -206 -316 -206q-62 0 -137.5 26t-147.5 52t-125 26q-108 0 -193 -108z" />
    <glyph glyph-name="uni00A0" unicode="&#xa0;" horiz-adv-x="582" 
 />
    <glyph glyph-name="exclamdown" unicode="&#xa1;" horiz-adv-x="442" 
d="M339 946q0 -50 -34.5 -85.5t-83.5 -35.5t-83.5 35.5t-34.5 85.5t34.5 85.5t83.5 35.5t83.5 -35.5t34.5 -85.5zM341 -343h-240l64 932h92z" />
    <glyph glyph-name="sterling" unicode="&#xa3;" horiz-adv-x="1052" 
d="M361 867q0 -81 55 -195h369v-109h-318q22 -58 22 -131.5t-36.5 -137.5t-116.5 -141q122 47 238 47q204 0 402 -107l-80 -111q-176 89 -326 89q-141 0 -268 -45q-36 -13 -113 -44l-60 129q79 59 139 139.5t60 159.5t-29 153h-143v109h94q-50 109 -50 197q0 133 97.5 221
t254.5 88q194 0 305 -77l-36 -128q-112 76 -257 76q-84 0 -143 -48t-60 -127v-7z" />
    <glyph glyph-name="currency" unicode="&#xa4;" horiz-adv-x="1130" 
d="M454 504q0 -46 32.5 -78.5t78.5 -32.5t78.5 32.5t32.5 78.5t-32.5 78.5t-78.5 32.5t-78.5 -32.5t-32.5 -78.5zM375 390q-32 52 -32 113.5t31 113.5l-204 204l78 78l204 -204q52 31 113.5 31t113.5 -32l204 205l77 -78l-204 -204q31 -52 31 -113t-31 -113l204 -204
l-78 -78l-204 204q-52 -31 -113 -31t-113 31l-204 -204l-78 77z" />
    <glyph glyph-name="brokenbar" unicode="&#xa6;" horiz-adv-x="310" 
d="M210 298v-786h-110v786h110zM210 1477v-786h-110v786h110z" />
    <glyph glyph-name="dieresis" unicode="&#xa8;" horiz-adv-x="944" 
d="M118 1188zM118 1309q0 50 34.5 85.5t83.5 35.5t83.5 -35.5t34.5 -85.5t-34.5 -85.5t-83.5 -35.5t-83.5 35.5t-34.5 85.5zM590 1309q0 50 34.5 85.5t83.5 35.5t83.5 -35.5t34.5 -85.5t-34.5 -85.5t-83.5 -35.5t-83.5 35.5t-34.5 85.5z" />
    <glyph glyph-name="guillemotleft" unicode="&#xab;" horiz-adv-x="978" 
d="M646 525l227 -257l-33 -100l-352 357l352 357l33 -100zM187 525l280 -257l-33 -100l-416 357l416 357l33 -100z" />
    <glyph glyph-name="paragraph" unicode="&#xb6;" horiz-adv-x="960" 
d="M662 940v-940h-110v940h-110v-940h-110v468q-66 0 -127.5 41t-99.5 110.5t-38 144.5q0 114 80.5 199.5t184.5 85.5h442v-109h-112z" />
    <glyph glyph-name="guillemotright" unicode="&#xbb;" horiz-adv-x="978" 
d="M332 525l-227 257l33 100l352 -357l-352 -357l-33 100zM791 525l-280 257l33 100l416 -357l-416 -357l-33 100z" />
    <glyph glyph-name="questiondown" unicode="&#xbf;" horiz-adv-x="863" 
d="M503 584q53 -99 53 -173t-29.5 -139t-72 -122.5t-84.5 -114.5q-102 -136 -102 -243q0 -62 59 -108.5t170 -46.5t216 63l50 -108q-99 -63 -173 -73.5t-150 -10.5t-154 34t-128.5 100t-50.5 141.5t29.5 148t72 134t85.5 118.5q101 138 101 214t-26 166zM569 869
q0 -50 -34.5 -85.5t-83.5 -35.5t-83.5 35.5t-34.5 85.5t34.5 85.5t83.5 35.5t83.5 -35.5t34.5 -85.5z" />
    <glyph glyph-name="Agrave" unicode="&#xc0;" horiz-adv-x="1328" 
d="M67 0zM933 404h-548l-150 -404h-168l522 1391h150l522 -1391h-178zM881 544l-222 600l-223 -600h445zM415 1928h188l143 -331l-92 -44z" />
    <glyph glyph-name="Aacute" unicode="&#xc1;" horiz-adv-x="1328" 
d="M67 0zM933 404h-548l-150 -404h-168l522 1391h150l522 -1391h-178zM881 544l-222 600l-223 -600h445zM913 1928l-239 -375l-92 44l143 331h188z" />
    <glyph glyph-name="Acircumflex" unicode="&#xc2;" horiz-adv-x="1328" 
d="M67 0zM933 404h-548l-150 -404h-168l522 1391h150l522 -1391h-178zM881 544l-222 600l-223 -600h445zM664 1802l-234 -249l-75 49l215 300h188l215 -300l-75 -49z" />
    <glyph glyph-name="Atilde" unicode="&#xc3;" horiz-adv-x="1328" 
d="M67 0zM933 404h-548l-150 -404h-168l522 1391h150l522 -1391h-178zM881 544l-222 600l-223 -600h445zM392 1560l-70 60q71 139 174 171q25 8 57.5 8t108 -44t109.5 -44t75 24t69 74l70 -60q-70 -137 -173 -172q-26 -8 -58.5 -8t-108 45t-109 45t-75 -24.5t-69.5 -74.5z
" />
    <glyph glyph-name="Adieresis" unicode="&#xc4;" horiz-adv-x="1328" 
d="M67 0zM933 404h-548l-150 -404h-168l522 1391h150l522 -1391h-178zM881 544l-222 600l-223 -600h445zM310 1641zM310 1762q0 50 34.5 85.5t83.5 35.5t83.5 -35.5t34.5 -85.5t-34.5 -85.5t-83.5 -35.5t-83.5 35.5t-34.5 85.5zM782 1762q0 50 34.5 85.5t83.5 35.5
t83.5 -35.5t34.5 -85.5t-34.5 -85.5t-83.5 -35.5t-83.5 35.5t-34.5 85.5z" />
    <glyph glyph-name="Aring" unicode="&#xc5;" horiz-adv-x="1328" 
d="M67 0zM933 404h-548l-150 -404h-168l522 1391h150l522 -1391h-178zM881 544l-222 600l-223 -600h445zM597 1740.5q-28 -27.5 -28 -67t28 -67t67 -27.5t67 27.5t28 67t-28 67t-67 27.5t-67 -27.5zM484 1673q0 74 53 127t127 53t127 -53t53 -127t-53 -127t-127 -53t-127 53
t-53 127z" />
    <glyph glyph-name="AE" unicode="&#xc6;" horiz-adv-x="1818" 
d="M1102 644v-505l614 1v-140h-795v404h-432l-234 -404h-188l804 1391h845v-139h-614v-468h418v-140h-418zM921 544v608l-352 -609z" />
    <glyph glyph-name="Ccedilla" unicode="&#xc7;" horiz-adv-x="1255" 
d="M740 122q175 0 338 123l88 -119q-106 -77 -175 -103q-110 -41 -298 -41h-14q-16 -44 -16 -88q50 -13 86 -64t36 -125.5t-42.5 -119t-128.5 -79.5l-79 75q62 26 95.5 55t33.5 79t-33.5 81.5t-91.5 31.5q0 93 40 162q-126 19 -229 82q-147 90 -224 251.5t-77 372.5t77 372
t224 251t343 90q187 0 262.5 -28t113.5 -50.5t97 -65.5l-88 -119q-163 123 -338 123h-12q-112 0 -206 -48q-176 -91 -247 -312q-34 -103 -34 -214t33.5 -213.5t94 -183t154 -128.5t205.5 -48h12z" />
    <glyph glyph-name="Egrave" unicode="&#xc8;" horiz-adv-x="1077" 
d="M180 0zM361 644v-504h614v-140h-795v1391h795v-139h-614v-468h418v-140h-418zM319 1928h188l143 -331l-92 -44z" />
    <glyph glyph-name="Eacute" unicode="&#xc9;" horiz-adv-x="1077" 
d="M180 0zM361 644v-504h614v-140h-795v1391h795v-139h-614v-468h418v-140h-418zM817 1928l-239 -375l-92 44l143 331h188z" />
    <glyph glyph-name="Ecircumflex" unicode="&#xca;" horiz-adv-x="1077" 
d="M180 0zM361 644v-504h614v-140h-795v1391h795v-139h-614v-468h418v-140h-418zM568 1802l-234 -249l-75 49l215 300h188l215 -300l-75 -49z" />
    <glyph glyph-name="Edieresis" unicode="&#xcb;" horiz-adv-x="1077" 
d="M180 0zM361 644v-504h614v-140h-795v1391h795v-139h-614v-468h418v-140h-418zM214 1641zM214 1762q0 50 34.5 85.5t83.5 35.5t83.5 -35.5t34.5 -85.5t-34.5 -85.5t-83.5 -35.5t-83.5 35.5t-34.5 85.5zM686 1762q0 50 34.5 85.5t83.5 35.5t83.5 -35.5t34.5 -85.5
t-34.5 -85.5t-83.5 -35.5t-83.5 35.5t-34.5 85.5z" />
    <glyph glyph-name="Igrave" unicode="&#xcc;" horiz-adv-x="541" 
d="M21 0zM361 1391v-1391h-181v1391h181zM21 1928h188l143 -331l-92 -44z" />
    <glyph glyph-name="Iacute" unicode="&#xcd;" horiz-adv-x="541" 
d="M180 0zM361 1391v-1391h-181v1391h181zM519 1928l-239 -375l-92 44l143 331h188z" />
    <glyph glyph-name="Icircumflex" unicode="&#xce;" horiz-adv-x="541" 
d="M0 0zM361 1391v-1391h-181v1391h181zM270 1802l-234 -249l-75 49l215 300h188l215 -300l-75 -49z" />
    <glyph glyph-name="Idieresis" unicode="&#xcf;" horiz-adv-x="541" 
d="M0 0zM361 1391v-1391h-181v1391h181zM-84 1641zM-84 1762q0 50 34.5 85.5t83.5 35.5t83.5 -35.5t34.5 -85.5t-34.5 -85.5t-83.5 -35.5t-83.5 35.5t-34.5 85.5zM388 1762q0 50 34.5 85.5t83.5 35.5t83.5 -35.5t34.5 -85.5t-34.5 -85.5t-83.5 -35.5t-83.5 35.5t-34.5 85.5z
" />
    <glyph glyph-name="Eth" unicode="&#xd0;" horiz-adv-x="1375" 
d="M863 29q-133 -47 -314.5 -47t-368.5 31v643h-119v139h119v577q211 37 347 37t250 -30t214 -90.5t175.5 -145t119.5 -201.5t44 -267.5t-62.5 -287.5t-167 -224t-237.5 -134zM360 655v-515q92 -18 198.5 -18t209.5 37t187 105.5t135.5 179t51.5 233t-36.5 218.5
t-96.5 163.5t-137 116.5q-151 95 -326 95q-107 0 -185 -18v-457h143v-140h-144z" />
    <glyph glyph-name="Ntilde" unicode="&#xd1;" horiz-adv-x="1385" 
d="M180 0zM1205 1391v-1391h-181l-663 1042v-1042h-181v1391h181l663 -1043v1043h181zM420 1560l-70 60q71 139 174 171q25 8 57.5 8t108 -44t109.5 -44t75 24t69 74l70 -60q-70 -137 -173 -172q-26 -8 -58.5 -8t-108 45t-109 45t-75 -24.5t-69.5 -74.5z" />
    <glyph glyph-name="Ograve" unicode="&#xd2;" horiz-adv-x="1444" 
d="M45 0zM435 1355.5q130 53.5 275 53.5q395 0 580 -290q109 -176 109 -416q0 -243 -113 -421q-120 -192 -324 -262q-109 -38 -254.5 -38t-276.5 55.5t-215 152.5q-171 201 -171 513q0 308 176 505q84 94 214 147.5zM992 1193q-112 78 -265.5 78t-266.5 -75
q-223 -149 -223 -493q0 -349 221 -502q112 -78 247 -78q249 0 380 174q125 167 125 406q0 337 -218 490zM478 1928h188l143 -331l-92 -44z" />
    <glyph glyph-name="Oacute" unicode="&#xd3;" horiz-adv-x="1444" 
d="M45 0zM435 1355.5q130 53.5 275 53.5q395 0 580 -290q109 -176 109 -416q0 -243 -113 -421q-120 -192 -324 -262q-109 -38 -254.5 -38t-276.5 55.5t-215 152.5q-171 201 -171 513q0 308 176 505q84 94 214 147.5zM992 1193q-112 78 -265.5 78t-266.5 -75
q-223 -149 -223 -493q0 -349 221 -502q112 -78 247 -78q249 0 380 174q125 167 125 406q0 337 -218 490zM976 1928l-239 -375l-92 44l143 331h188z" />
    <glyph glyph-name="Ocircumflex" unicode="&#xd4;" horiz-adv-x="1444" 
d="M45 0zM435 1355.5q130 53.5 275 53.5q395 0 580 -290q109 -176 109 -416q0 -243 -113 -421q-120 -192 -324 -262q-109 -38 -254.5 -38t-276.5 55.5t-215 152.5q-171 201 -171 513q0 308 176 505q84 94 214 147.5zM992 1193q-112 78 -265.5 78t-266.5 -75
q-223 -149 -223 -493q0 -349 221 -502q112 -78 247 -78q249 0 380 174q125 167 125 406q0 337 -218 490zM727 1802l-234 -249l-75 49l215 300h188l215 -300l-75 -49z" />
    <glyph glyph-name="Otilde" unicode="&#xd5;" horiz-adv-x="1444" 
d="M45 0zM435 1355.5q130 53.5 275 53.5q395 0 580 -290q109 -176 109 -416q0 -243 -113 -421q-120 -192 -324 -262q-109 -38 -254.5 -38t-276.5 55.5t-215 152.5q-171 201 -171 513q0 308 176 505q84 94 214 147.5zM992 1193q-112 78 -265.5 78t-266.5 -75
q-223 -149 -223 -493q0 -349 221 -502q112 -78 247 -78q249 0 380 174q125 167 125 406q0 337 -218 490zM455 1560l-70 60q71 139 174 171q25 8 57.5 8t108 -44t109.5 -44t75 24t69 74l70 -60q-70 -137 -173 -172q-26 -8 -58.5 -8t-108 45t-109 45t-75 -24.5t-69.5 -74.5z
" />
    <glyph glyph-name="Odieresis" unicode="&#xd6;" horiz-adv-x="1444" 
d="M45 0zM435 1355.5q130 53.5 275 53.5q395 0 580 -290q109 -176 109 -416q0 -243 -113 -421q-120 -192 -324 -262q-109 -38 -254.5 -38t-276.5 55.5t-215 152.5q-171 201 -171 513q0 308 176 505q84 94 214 147.5zM992 1193q-112 78 -265.5 78t-266.5 -75
q-223 -149 -223 -493q0 -349 221 -502q112 -78 247 -78q249 0 380 174q125 167 125 406q0 337 -218 490zM373 1641zM373 1762q0 50 34.5 85.5t83.5 35.5t83.5 -35.5t34.5 -85.5t-34.5 -85.5t-83.5 -35.5t-83.5 35.5t-34.5 85.5zM845 1762q0 50 34.5 85.5t83.5 35.5
t83.5 -35.5t34.5 -85.5t-34.5 -85.5t-83.5 -35.5t-83.5 35.5t-34.5 85.5z" />
    <glyph glyph-name="multiply" unicode="&#xd7;" horiz-adv-x="1130" 
d="M566 581l317 318l77 -78l-317 -317l317 -317l-78 -78l-317 317l-317 -317l-78 77l318 317l-318 318l78 78z" />
    <glyph glyph-name="Oslash" unicode="&#xd8;" horiz-adv-x="1444" 
d="M1003 1186q-116 85 -273 85t-270 -75q-223 -149 -223 -493q0 -202 80 -347zM1210 1221q189 -195 189 -518q0 -369 -249 -579q-169 -142 -425 -142t-428 133l-95 -115l-100 96l96 116q-153 192 -153 491q0 308 175 505q85 94 215 147.5t292 53.5q218 0 376 -101l69 83
l100 -96zM1100 1087l-697 -843q127 -121 324 -121q113 0 205.5 47t152.5 127q125 167 125 401.5t-110 388.5z" />
    <glyph glyph-name="Ugrave" unicode="&#xd9;" horiz-adv-x="1310" 
d="M180 0zM681 -18q-501 0 -501 456v953h181v-905q0 -187 86 -275t227 -88q285 0 285 390v878h171v-922q0 -221 -118 -354t-331 -133zM406 1911h188l143 -331l-92 -44z" />
    <glyph glyph-name="Uacute" unicode="&#xda;" horiz-adv-x="1310" 
d="M180 0zM681 -18q-501 0 -501 456v953h181v-905q0 -187 86 -275t227 -88q285 0 285 390v878h171v-922q0 -221 -118 -354t-331 -133zM904 1911l-239 -375l-92 44l143 331h188z" />
    <glyph glyph-name="Ucircumflex" unicode="&#xdb;" horiz-adv-x="1310" 
d="M180 0zM681 -18q-501 0 -501 456v953h181v-905q0 -187 86 -275t227 -88q285 0 285 390v878h171v-922q0 -221 -118 -354t-331 -133zM655 1785l-234 -249l-75 49l215 300h188l215 -300l-75 -49z" />
    <glyph glyph-name="Udieresis" unicode="&#xdc;" horiz-adv-x="1310" 
d="M180 0zM681 -18q-501 0 -501 456v953h181v-905q0 -187 86 -275t227 -88q285 0 285 390v878h171v-922q0 -221 -118 -354t-331 -133zM301 1624zM301 1745q0 50 34.5 85.5t83.5 35.5t83.5 -35.5t34.5 -85.5t-34.5 -85.5t-83.5 -35.5t-83.5 35.5t-34.5 85.5zM773 1745
q0 50 34.5 85.5t83.5 35.5t83.5 -35.5t34.5 -85.5t-34.5 -85.5t-83.5 -35.5t-83.5 35.5t-34.5 85.5z" />
    <glyph glyph-name="Yacute" unicode="&#xdd;" horiz-adv-x="1241" 
d="M59 0zM1014 1391h168l-471 -773v-618h-181v619l-471 772h178l389 -637zM869 1928l-239 -375l-92 44l143 331h188z" />
    <glyph glyph-name="Thorn" unicode="&#xde;" horiz-adv-x="1083" 
d="M746 481.5q97 65.5 97 214t-97 214.5t-319 66h-66v-560h66q222 0 319 65.5zM361 276v-276h-181v1391h181v-275h170q148 0 263 -54.5t178 -150t63 -216t-63 -216t-178 -149.5t-263 -54h-170z" />
    <glyph glyph-name="germandbls" unicode="&#xdf;" horiz-adv-x="1162" 
d="M505 1336q-89 0 -134.5 -67t-45.5 -187v-1082h-161v1044q0 420 339 420q225 0 313 -102q81 -94 81 -276q0 -101 -57 -162q-46 -50 -96 -81t-75 -51q-57 -44 -57 -96.5t33.5 -83.5t128.5 -63l78 -27q107 -37 158.5 -97.5t51.5 -175.5t-88 -191t-240 -76q-81 0 -155.5 16.5
t-166.5 69.5l58 124q77 -46 131 -63.5t127 -17.5q173 0 173 149q0 90 -165 144l-78 27q-105 37 -155.5 108.5t-50.5 138t15.5 106t40.5 65t55.5 47t60.5 41t56 41.5q56 47 56 120q0 238 -231 238z" />
    <glyph glyph-name="agrave" unicode="&#xe0;" horiz-adv-x="894" 
d="M76 0zM605 422q-368 0 -368 -183q0 -49 30.5 -91t69.5 -42h39q220 0 235 231v85h-6zM145 893q180 63 295 63t201 -57t115 -169q16 -63 16 -257v-313q0 -88 14 -160h-162q-13 41 -13 93v7q-25 -30 -55 -52q-94 -69 -200 -69q-178 0 -245 127q-35 63 -35 129q0 175 205 253
q123 47 312 47h18v101q0 110 -42 150q-49 46 -163 46t-253 -64zM190 1475h188l143 -331l-92 -44z" />
    <glyph glyph-name="aacute" unicode="&#xe1;" horiz-adv-x="894" 
d="M76 0zM605 422q-368 0 -368 -183q0 -49 30.5 -91t69.5 -42h39q220 0 235 231v85h-6zM145 893q180 63 295 63t201 -57t115 -169q16 -63 16 -257v-313q0 -88 14 -160h-162q-13 41 -13 93v7q-25 -30 -55 -52q-94 -69 -200 -69q-178 0 -245 127q-35 63 -35 129q0 175 205 253
q123 47 312 47h18v101q0 110 -42 150q-49 46 -163 46t-253 -64zM688 1475l-239 -375l-92 44l143 331h188z" />
    <glyph glyph-name="acircumflex" unicode="&#xe2;" horiz-adv-x="894" 
d="M76 0zM605 422q-368 0 -368 -183q0 -49 30.5 -91t69.5 -42h39q220 0 235 231v85h-6zM145 893q180 63 295 63t201 -57t115 -169q16 -63 16 -257v-313q0 -88 14 -160h-162q-13 41 -13 93v7q-25 -30 -55 -52q-94 -69 -200 -69q-178 0 -245 127q-35 63 -35 129q0 175 205 253
q123 47 312 47h18v101q0 110 -42 150q-49 46 -163 46t-253 -64zM439 1349l-234 -249l-75 49l215 300h188l215 -300l-75 -49z" />
    <glyph glyph-name="atilde" unicode="&#xe3;" horiz-adv-x="894" 
d="M76 0zM605 422q-368 0 -368 -183q0 -49 30.5 -91t69.5 -42h39q220 0 235 231v85h-6zM145 893q180 63 295 63t201 -57t115 -169q16 -63 16 -257v-313q0 -88 14 -160h-162q-13 41 -13 93v7q-25 -30 -55 -52q-94 -69 -200 -69q-178 0 -245 127q-35 63 -35 129q0 175 205 253
q123 47 312 47h18v101q0 110 -42 150q-49 46 -163 46t-253 -64zM167 1107l-70 60q71 139 174 171q25 8 57.5 8t108 -44t109.5 -44t75 24t69 74l70 -60q-70 -137 -173 -172q-26 -8 -58.5 -8t-108 45t-109 45t-75 -24.5t-69.5 -74.5z" />
    <glyph glyph-name="adieresis" unicode="&#xe4;" horiz-adv-x="894" 
d="M76 0zM605 422q-368 0 -368 -183q0 -49 30.5 -91t69.5 -42h39q220 0 235 231v85h-6zM145 893q180 63 295 63t201 -57t115 -169q16 -63 16 -257v-313q0 -88 14 -160h-162q-13 41 -13 93v7q-25 -30 -55 -52q-94 -69 -200 -69q-178 0 -245 127q-35 63 -35 129q0 175 205 253
q123 47 312 47h18v101q0 110 -42 150q-49 46 -163 46t-253 -64zM85 1188zM85 1309q0 50 34.5 85.5t83.5 35.5t83.5 -35.5t34.5 -85.5t-34.5 -85.5t-83.5 -35.5t-83.5 35.5t-34.5 85.5zM557 1309q0 50 34.5 85.5t83.5 35.5t83.5 -35.5t34.5 -85.5t-34.5 -85.5t-83.5 -35.5
t-83.5 35.5t-34.5 85.5z" />
    <glyph glyph-name="aring" unicode="&#xe5;" horiz-adv-x="894" 
d="M76 0zM605 422q-368 0 -368 -183q0 -49 30.5 -91t69.5 -42h39q220 0 235 231v85h-6zM145 893q180 63 295 63t201 -57t115 -169q16 -63 16 -257v-313q0 -88 14 -160h-162q-13 41 -13 93v7q-25 -30 -55 -52q-94 -69 -200 -69q-178 0 -245 127q-35 63 -35 129q0 175 205 253
q123 47 312 47h18v101q0 110 -42 150q-49 46 -163 46t-253 -64zM372 1287.5q-28 -27.5 -28 -67t28 -67t67 -27.5t67 27.5t28 67t-28 67t-67 27.5t-67 -27.5zM259 1220q0 74 53 127t127 53t127 -53t53 -127t-53 -127t-127 -53t-127 53t-53 127z" />
    <glyph glyph-name="ae" unicode="&#xe6;" horiz-adv-x="1444" 
d="M430 828q-130 0 -280 -76l-33 114q92 46 172 68t175 22q177 0 263 -134q120 134 305 134q198 0 300 -134q86 -115 92 -302l-24 -60h-626q2 -169 89.5 -259t230.5 -90q110 0 252 59l44 -115q-108 -73 -292 -73q-270 0 -399 180q-56 -81 -151.5 -130.5t-216.5 -49.5
t-192 54.5t-71 163.5q0 70 32 110t55 62.5t61.5 46t69 40.5t80 38.5t80.5 34t85 34t81 32.5l1 57q-8 173 -183 173zM612 481q-55 -23 -109.5 -44t-105.5 -47t-89 -52q-86 -58 -86 -128q0 -39 26 -63q38 -36 107 -36t121 24t80 58q56 70 56 119v169zM781 580h485
q-9 109 -65.5 178.5t-160.5 69.5q-223 0 -259 -248z" />
    <glyph glyph-name="ccedilla" unicode="&#xe7;" horiz-adv-x="888" 
d="M549 111q117 0 225 79l62 -108q-79 -58 -137.5 -78t-163.5 -22q-16 -44 -16 -88q50 -13 86 -64t36 -125.5t-42.5 -119t-128.5 -79.5l-79 75q62 26 95.5 55t33.5 79t-33.5 81.5t-91.5 31.5q0 90 38 159q-154 20 -251 128q-121 133 -121 354t120.5 354t326.5 133
q125 0 187 -21t141 -79l-62 -108q-108 79 -225 79h-6q-146 0 -233.5 -105t-87.5 -253t87.5 -253t233.5 -105h6z" />
    <glyph glyph-name="egrave" unicode="&#xe8;" horiz-adv-x="939" 
d="M61 0zM500 828q-139 0 -208 -84q-48 -58 -63 -164h485q-9 109 -65 179q-57 69 -149 69zM838 55q-108 -73 -292 -73q-233 0 -359 133t-126 354q0 288 187 417q104 70 232 70q198 0 300 -134q86 -115 92 -302l-24 -60h-626q2 -166 89 -257.5t232 -91.5q110 0 252 59z
M246 1475h188l143 -331l-92 -44z" />
    <glyph glyph-name="eacute" unicode="&#xe9;" horiz-adv-x="939" 
d="M61 0zM500 828q-139 0 -208 -84q-48 -58 -63 -164h485q-9 109 -65 179q-57 69 -149 69zM838 55q-108 -73 -292 -73q-233 0 -359 133t-126 354q0 288 187 417q104 70 232 70q198 0 300 -134q86 -115 92 -302l-24 -60h-626q2 -166 89 -257.5t232 -91.5q110 0 252 59z
M744 1475l-239 -375l-92 44l143 331h188z" />
    <glyph glyph-name="ecircumflex" unicode="&#xea;" horiz-adv-x="939" 
d="M61 0zM500 828q-139 0 -208 -84q-48 -58 -63 -164h485q-9 109 -65 179q-57 69 -149 69zM838 55q-108 -73 -292 -73q-233 0 -359 133t-126 354q0 288 187 417q104 70 232 70q198 0 300 -134q86 -115 92 -302l-24 -60h-626q2 -166 89 -257.5t232 -91.5q110 0 252 59z
M495 1349l-234 -249l-75 49l215 300h188l215 -300l-75 -49z" />
    <glyph glyph-name="edieresis" unicode="&#xeb;" horiz-adv-x="939" 
d="M61 0zM500 828q-139 0 -208 -84q-48 -58 -63 -164h485q-9 109 -65 179q-57 69 -149 69zM838 55q-108 -73 -292 -73q-233 0 -359 133t-126 354q0 288 187 417q104 70 232 70q198 0 300 -134q86 -115 92 -302l-24 -60h-626q2 -166 89 -257.5t232 -91.5q110 0 252 59z
M141 1188zM141 1309q0 50 34.5 85.5t83.5 35.5t83.5 -35.5t34.5 -85.5t-34.5 -85.5t-83.5 -35.5t-83.5 35.5t-34.5 85.5zM613 1309q0 50 34.5 85.5t83.5 35.5t83.5 -35.5t34.5 -85.5t-34.5 -85.5t-83.5 -35.5t-83.5 35.5t-34.5 85.5z" />
    <glyph glyph-name="igrave" unicode="&#xec;" horiz-adv-x="547" 
d="M53 0zM383 938v-938h-161v810h-166v128h327zM53 1475h188l143 -331l-92 -44z" />
    <glyph glyph-name="iacute" unicode="&#xed;" horiz-adv-x="547" 
d="M56 0zM383 938v-938h-161v810h-166v128h327zM551 1475l-239 -375l-92 44l143 331h188z" />
    <glyph glyph-name="icircumflex" unicode="&#xee;" horiz-adv-x="547" 
d="M0 0zM383 938v-938h-161v810h-166v128h327zM302 1349l-234 -249l-75 49l215 300h188l215 -300l-75 -49z" />
    <glyph glyph-name="idieresis" unicode="&#xef;" horiz-adv-x="547" 
d="M0 0zM383 938v-938h-161v810h-166v128h327zM-52 1188zM-52 1309q0 50 34.5 85.5t83.5 35.5t83.5 -35.5t34.5 -85.5t-34.5 -85.5t-83.5 -35.5t-83.5 35.5t-34.5 85.5zM420 1309q0 50 34.5 85.5t83.5 35.5t83.5 -35.5t34.5 -85.5t-34.5 -85.5t-83.5 -35.5t-83.5 35.5
t-34.5 85.5z" />
    <glyph glyph-name="eth" unicode="&#xf0;" horiz-adv-x="1012" 
d="M222 469q0 -271 180 -339q49 -19 98.5 -19t88.5 12t76.5 42t63.5 76q59 104 59 287q0 114 -24 224q-101 76 -228 76t-220.5 -96t-93.5 -263zM707 931q-45 106 -110 197l-189 -113l-56 93l175 105q-100 106 -191 137l80 125q138 -55 250 -178l157 94l56 -93l-144 -87
q105 -148 160.5 -332t55.5 -323.5t-25.5 -237.5t-68 -160t-101.5 -102q-106 -74 -250 -74q-230 0 -352 156q-93 119 -93 329.5t136.5 349.5t342.5 139q97 0 167 -25z" />
    <glyph glyph-name="ntilde" unicode="&#xf1;" horiz-adv-x="1121" 
d="M164 0zM796 507q0 321 -230 321q-59 0 -108 -32q-75 -48 -118 -158q-15 -38 -15 -60v-578h-161v938h161v-172q90 190 293 190q82 0 147.5 -36.5t102.5 -78.5q89 -99 89 -278v-563h-161v507zM283 1107l-70 60q71 139 174 171q25 8 57.5 8t108 -44t109.5 -44t75 24t69 74
l70 -60q-70 -137 -173 -172q-26 -8 -58.5 -8t-108 45t-109 45t-75 -24.5t-69.5 -74.5z" />
    <glyph glyph-name="ograve" unicode="&#xf2;" horiz-adv-x="1012" 
d="M61 0zM222 469q0 -97 24.5 -169.5t66 -112t90 -58t103.5 -18.5q112 0 193 77q89 85 89 281q0 195 -89 282q-82 76 -193 76q-113 0 -193 -76q-91 -87 -91 -282zM61 469q0 303 195 422q108 65 250 65q141 0 251 -65q58 -36 101 -90q93 -122 93 -332q0 -304 -194 -421
q-108 -66 -251 -66q-144 0 -250 66q-59 35 -102 90q-93 119 -93 331zM257 1475h188l143 -331l-92 -44z" />
    <glyph glyph-name="oacute" unicode="&#xf3;" horiz-adv-x="1012" 
d="M61 0zM222 469q0 -97 24.5 -169.5t66 -112t90 -58t103.5 -18.5q112 0 193 77q89 85 89 281q0 195 -89 282q-82 76 -193 76q-113 0 -193 -76q-91 -87 -91 -282zM61 469q0 303 195 422q108 65 250 65q141 0 251 -65q58 -36 101 -90q93 -122 93 -332q0 -304 -194 -421
q-108 -66 -251 -66q-144 0 -250 66q-59 35 -102 90q-93 119 -93 331zM755 1475l-239 -375l-92 44l143 331h188z" />
    <glyph glyph-name="ocircumflex" unicode="&#xf4;" horiz-adv-x="1012" 
d="M61 0zM222 469q0 -97 24.5 -169.5t66 -112t90 -58t103.5 -18.5q112 0 193 77q89 85 89 281q0 195 -89 282q-82 76 -193 76q-113 0 -193 -76q-91 -87 -91 -282zM61 469q0 303 195 422q108 65 250 65q141 0 251 -65q58 -36 101 -90q93 -122 93 -332q0 -304 -194 -421
q-108 -66 -251 -66q-144 0 -250 66q-59 35 -102 90q-93 119 -93 331zM506 1349l-234 -249l-75 49l215 300h188l215 -300l-75 -49z" />
    <glyph glyph-name="otilde" unicode="&#xf5;" horiz-adv-x="1012" 
d="M61 0zM222 469q0 -97 24.5 -169.5t66 -112t90 -58t103.5 -18.5q112 0 193 77q89 85 89 281q0 195 -89 282q-82 76 -193 76q-113 0 -193 -76q-91 -87 -91 -282zM61 469q0 303 195 422q108 65 250 65q141 0 251 -65q58 -36 101 -90q93 -122 93 -332q0 -304 -194 -421
q-108 -66 -251 -66q-144 0 -250 66q-59 35 -102 90q-93 119 -93 331zM234 1107l-70 60q71 139 174 171q25 8 57.5 8t108 -44t109.5 -44t75 24t69 74l70 -60q-70 -137 -173 -172q-26 -8 -58.5 -8t-108 45t-109 45t-75 -24.5t-69.5 -74.5z" />
    <glyph glyph-name="odieresis" unicode="&#xf6;" horiz-adv-x="1012" 
d="M61 0zM222 469q0 -97 24.5 -169.5t66 -112t90 -58t103.5 -18.5q112 0 193 77q89 85 89 281q0 195 -89 282q-82 76 -193 76q-113 0 -193 -76q-91 -87 -91 -282zM61 469q0 303 195 422q108 65 250 65q141 0 251 -65q58 -36 101 -90q93 -122 93 -332q0 -304 -194 -421
q-108 -66 -251 -66q-144 0 -250 66q-59 35 -102 90q-93 119 -93 331zM152 1188zM152 1309q0 50 34.5 85.5t83.5 35.5t83.5 -35.5t34.5 -85.5t-34.5 -85.5t-83.5 -35.5t-83.5 35.5t-34.5 85.5zM624 1309q0 50 34.5 85.5t83.5 35.5t83.5 -35.5t34.5 -85.5t-34.5 -85.5
t-83.5 -35.5t-83.5 35.5t-34.5 85.5z" />
    <glyph glyph-name="divide" unicode="&#xf7;" horiz-adv-x="1130" 
d="M1069 449h-1008v109h1008v-109zM447 829q0 50 34.5 85.5t83.5 35.5t83.5 -35.5t34.5 -85.5t-34.5 -85.5t-83.5 -35.5t-83.5 35.5t-34.5 85.5zM447 178q0 50 34.5 85.5t83.5 35.5t83.5 -35.5t34.5 -85.5t-34.5 -85.5t-83.5 -35.5t-83.5 35.5t-34.5 85.5z" />
    <glyph glyph-name="oslash" unicode="&#xf8;" horiz-adv-x="1012" 
d="M61 469q0 303 195 421q107 66 265.5 66t272.5 -92l66 74l67 -68l-67 -74q91 -123 91 -327q0 -303 -195 -421q-107 -66 -265.5 -66t-272.5 92l-66 -74l-67 68l67 74q-91 123 -91 327zM751 672l-435 -488q74 -73 190 -73q112 0 192 77q90 85 90 281q0 121 -37 203zM696 753
q-74 74 -190 74q-113 0 -194 -77q-90 -86 -90 -281q0 -121 38 -204z" />
    <glyph glyph-name="ugrave" unicode="&#xf9;" horiz-adv-x="1121" 
d="M164 0zM796 172q-90 -190 -293 -190q-82 0 -147.5 36.5t-103 78.5t-62.5 114q-26 72 -26 164v563h161v-507q0 -321 230 -321q59 0 108 32q75 48 118 158q15 38 15 60v578h161v-938h-161v172zM306 1475h188l143 -331l-92 -44z" />
    <glyph glyph-name="uacute" unicode="&#xfa;" horiz-adv-x="1121" 
d="M164 0zM796 172q-90 -190 -293 -190q-82 0 -147.5 36.5t-103 78.5t-62.5 114q-26 72 -26 164v563h161v-507q0 -321 230 -321q59 0 108 32q75 48 118 158q15 38 15 60v578h161v-938h-161v172zM804 1475l-239 -375l-92 44l143 331h188z" />
    <glyph glyph-name="ucircumflex" unicode="&#xfb;" horiz-adv-x="1121" 
d="M164 0zM796 172q-90 -190 -293 -190q-82 0 -147.5 36.5t-103 78.5t-62.5 114q-26 72 -26 164v563h161v-507q0 -321 230 -321q59 0 108 32q75 48 118 158q15 38 15 60v578h161v-938h-161v172zM555 1349l-234 -249l-75 49l215 300h188l215 -300l-75 -49z" />
    <glyph glyph-name="udieresis" unicode="&#xfc;" horiz-adv-x="1121" 
d="M164 0zM796 172q-90 -190 -293 -190q-82 0 -147.5 36.5t-103 78.5t-62.5 114q-26 72 -26 164v563h161v-507q0 -321 230 -321q59 0 108 32q75 48 118 158q15 38 15 60v578h161v-938h-161v172zM201 1188zM201 1309q0 50 34.5 85.5t83.5 35.5t83.5 -35.5t34.5 -85.5
t-34.5 -85.5t-83.5 -35.5t-83.5 35.5t-34.5 85.5zM673 1309q0 50 34.5 85.5t83.5 35.5t83.5 -35.5t34.5 -85.5t-34.5 -85.5t-83.5 -35.5t-83.5 35.5t-34.5 85.5z" />
    <glyph glyph-name="yacute" unicode="&#xfd;" horiz-adv-x="1027" 
d="M0 0zM57 -322q53 -45 89 -45q61 0 107 54q63 71 134 224q19 41 46 100l-409 927h173l323 -731l324 731h162l-414 -920q-168 -386 -288 -472q-60 -42 -147 -42t-158 76zM764 1475l-239 -375l-92 44l143 331h188z" />
    <glyph glyph-name="thorn" unicode="&#xfe;" horiz-adv-x="1063" 
d="M329 154q80 -44 163 -44t139.5 28.5t103.5 78t76.5 124.5t29.5 161q0 139 -74.5 232t-183.5 93q-74 0 -141 -50.5t-113 -128.5v-494zM598 956q116 0 210 -64t144 -166.5t50 -219.5q0 -233 -135.5 -378.5t-336.5 -145.5q-84 0 -201 32v-506h-165v1967h165v-647
q113 128 269 128z" />
    <glyph glyph-name="ydieresis" unicode="&#xff;" horiz-adv-x="1027" 
d="M0 0zM57 -322q53 -45 89 -45q61 0 107 54q63 71 134 224q19 41 46 100l-409 927h173l323 -731l324 731h162l-414 -920q-168 -386 -288 -472q-60 -42 -147 -42t-158 76zM161 1188zM161 1309q0 50 34.5 85.5t83.5 35.5t83.5 -35.5t34.5 -85.5t-34.5 -85.5t-83.5 -35.5
t-83.5 35.5t-34.5 85.5zM633 1309q0 50 34.5 85.5t83.5 35.5t83.5 -35.5t34.5 -85.5t-34.5 -85.5t-83.5 -35.5t-83.5 35.5t-34.5 85.5z" />
    <glyph glyph-name="Amacron" unicode="&#x100;" horiz-adv-x="1328" 
d="M67 0zM933 404h-548l-150 -404h-168l522 1391h150l522 -1391h-178zM881 544l-222 600l-223 -600h445zM978 1703h-628v109h628v-109z" />
    <glyph glyph-name="amacron" unicode="&#x101;" horiz-adv-x="894" 
d="M76 0zM605 422q-368 0 -368 -183q0 -49 30.5 -91t69.5 -42h39q220 0 235 231v85h-6zM145 893q180 63 295 63t201 -57t115 -169q16 -63 16 -257v-313q0 -88 14 -160h-162q-13 41 -13 93v7q-25 -30 -55 -52q-94 -69 -200 -69q-178 0 -245 127q-35 63 -35 129q0 175 205 253
q123 47 312 47h18v101q0 110 -42 150q-49 46 -163 46t-253 -64zM753 1250h-628v109h628v-109z" />
    <glyph glyph-name="Abreve" unicode="&#x102;" horiz-adv-x="1328" 
d="M67 0zM933 404h-548l-150 -404h-168l522 1391h150l522 -1391h-178zM881 544l-222 600l-223 -600h445zM664 1583q-220 0 -297 198q-13 34 -25 77l88 35q65 -188 234 -188t234 188l88 -35q-43 -153 -122 -215q-77 -60 -200 -60z" />
    <glyph glyph-name="abreve" unicode="&#x103;" horiz-adv-x="894" 
d="M76 0zM605 422q-368 0 -368 -183q0 -49 30.5 -91t69.5 -42h39q220 0 235 231v85h-6zM145 893q180 63 295 63t201 -57t115 -169q16 -63 16 -257v-313q0 -88 14 -160h-162q-13 41 -13 93v7q-25 -30 -55 -52q-94 -69 -200 -69q-178 0 -245 127q-35 63 -35 129q0 175 205 253
q123 47 312 47h18v101q0 110 -42 150q-49 46 -163 46t-253 -64zM439 1130q-220 0 -297 198q-13 34 -25 77l88 35q65 -188 234 -188t234 188l88 -35q-43 -153 -122 -215q-77 -60 -200 -60z" />
    <glyph glyph-name="Cacute" unicode="&#x106;" horiz-adv-x="1255" 
d="M49 0zM740 122q175 0 338 123l88 -119q-106 -77 -175 -103q-110 -41 -302 -41t-339 90t-224 251.5t-77 372.5t77 372t224 251t343 90q187 0 262.5 -28t113.5 -50.5t97 -65.5l-88 -119q-163 123 -338 123h-12q-112 0 -210 -48q-181 -88 -253 -312q-34 -103 -34 -214
t33.5 -213.5t93.5 -183.5q133 -176 370 -176h12zM909 1928l-239 -375l-92 44l143 331h188z" />
    <glyph glyph-name="cacute" unicode="&#x107;" horiz-adv-x="888" 
d="M61 0zM549 111q117 0 225 79l62 -108q-79 -58 -141 -79t-187 -21q-206 0 -326.5 133t-120.5 354t120.5 354t326.5 133q125 0 187 -21t141 -79l-62 -108q-108 79 -225 79h-6q-146 0 -233.5 -105t-87.5 -253t87.5 -253t233.5 -105h6zM735 1475l-239 -375l-92 44l143 331
h188z" />
    <glyph glyph-name="Ccaron" unicode="&#x10c;" horiz-adv-x="1255" 
d="M49 0zM740 122q175 0 338 123l88 -119q-106 -77 -175 -103q-110 -41 -302 -41t-339 90t-224 251.5t-77 372.5t77 372t224 251t343 90q187 0 262.5 -28t113.5 -50.5t97 -65.5l-88 -119q-163 123 -338 123h-12q-112 0 -210 -48q-181 -88 -253 -312q-34 -103 -34 -214
t33.5 -213.5t93.5 -183.5q133 -176 370 -176h12zM660 1653l234 249l75 -49l-215 -300h-188l-215 300l75 49z" />
    <glyph glyph-name="ccaron" unicode="&#x10d;" horiz-adv-x="888" 
d="M61 0zM549 111q117 0 225 79l62 -108q-79 -58 -141 -79t-187 -21q-206 0 -326.5 133t-120.5 354t120.5 354t326.5 133q125 0 187 -21t141 -79l-62 -108q-108 79 -225 79h-6q-146 0 -233.5 -105t-87.5 -253t87.5 -253t233.5 -105h6zM486 1200l234 249l75 -49l-215 -300
h-188l-215 300l75 49z" />
    <glyph glyph-name="dcroat" unicode="&#x111;" horiz-adv-x="1124" 
d="M734 784q-83 44 -164.5 44t-138 -28.5t-103.5 -78t-76.5 -124.5t-29.5 -161q0 -139 74.5 -232t183.5 -93q74 0 141 50.5t113 128.5v494zM465 -18q-116 0 -210 64t-144 166.5t-50 219.5q0 233 135.5 378.5t336.5 145.5q84 0 201 -32v219h-229v109h229v223h165v-224h164
v-109h-164v-1142h-165v110q-113 -128 -269 -128z" />
    <glyph glyph-name="Emacron" unicode="&#x112;" horiz-adv-x="1077" 
d="M180 0zM361 644v-504h614v-140h-795v1391h795v-139h-614v-468h418v-140h-418zM882 1703h-628v109h628v-109z" />
    <glyph glyph-name="emacron" unicode="&#x113;" horiz-adv-x="939" 
d="M61 0zM500 828q-139 0 -208 -84q-48 -58 -63 -164h485q-9 109 -65 179q-57 69 -149 69zM838 55q-108 -73 -292 -73q-233 0 -359 133t-126 354q0 288 187 417q104 70 232 70q198 0 300 -134q86 -115 92 -302l-24 -60h-626q2 -166 89 -257.5t232 -91.5q110 0 252 59z
M809 1250h-628v109h628v-109z" />
    <glyph glyph-name="Edotaccent" unicode="&#x116;" horiz-adv-x="1077" 
d="M180 0zM361 644v-504h614v-140h-795v1391h795v-139h-614v-468h418v-140h-418zM450 1762q0 50 34.5 85.5t83.5 35.5t83.5 -35.5t34.5 -85.5t-34.5 -85.5t-83.5 -35.5t-83.5 35.5t-34.5 85.5z" />
    <glyph glyph-name="edotaccent" unicode="&#x117;" horiz-adv-x="939" 
d="M61 0zM500 828q-139 0 -208 -84q-48 -58 -63 -164h485q-9 109 -65 179q-57 69 -149 69zM838 55q-108 -73 -292 -73q-233 0 -359 133t-126 354q0 288 187 417q104 70 232 70q198 0 300 -134q86 -115 92 -302l-24 -60h-626q2 -166 89 -257.5t232 -91.5q110 0 252 59z
M377 1309q0 50 34.5 85.5t83.5 35.5t83.5 -35.5t34.5 -85.5t-34.5 -85.5t-83.5 -35.5t-83.5 35.5t-34.5 85.5z" />
    <glyph glyph-name="Ecaron" unicode="&#x11a;" horiz-adv-x="1077" 
d="M180 0zM361 644v-504h614v-140h-795v1391h795v-139h-614v-468h418v-140h-418zM568 1653l234 249l75 -49l-215 -300h-188l-215 300l75 49z" />
    <glyph glyph-name="ecaron" unicode="&#x11b;" horiz-adv-x="939" 
d="M61 0zM500 828q-139 0 -208 -84q-48 -58 -63 -164h485q-9 109 -65 179q-57 69 -149 69zM838 55q-108 -73 -292 -73q-233 0 -359 133t-126 354q0 288 187 417q104 70 232 70q198 0 300 -134q86 -115 92 -302l-24 -60h-626q2 -166 89 -257.5t232 -91.5q110 0 252 59z
M495 1200l234 249l75 -49l-215 -300h-188l-215 300l75 49z" />
    <glyph glyph-name="Gcircumflex" unicode="&#x11c;" horiz-adv-x="1435" 
d="M49 0zM49 696q0 211 87 372q86 161 250 251t384 90q189 0 275 -30.5t126.5 -52t104.5 -62.5l-70 -133q-214 138 -432 138q-122 0 -224 -48q-195 -91 -272 -310q-37 -103 -37 -203q0 -297 184 -468q122 -118 305 -118h12q162 0 329 75v329h-297v139l478 1l-1 -540
q-213 -144 -520 -144t-494.5 197t-187.5 517zM740 1802l-234 -249l-75 49l215 300h188l215 -300l-75 -49z" />
    <glyph glyph-name="gcircumflex" unicode="&#x11d;" horiz-adv-x="980" 
d="M66 0zM492 827q-158 0 -202 -147q-12 -38 -12 -78q0 -83 51 -135.5t163 -52.5q158 0 202 136q12 35 12 70q0 73 -47 136q-55 71 -167 71zM805 810q62 -88 62 -189q0 -164 -122 -261q-93 -75 -253 -75q-86 0 -154 18q-59 -45 -59 -102q0 -79 257 -79q296 0 377 -143
q25 -44 25 -100q0 -123 -69 -208q-132 -163 -445 -163q-159 0 -258.5 64t-99.5 187q0 125 102 208q30 24 74 51q-124 42 -124 152q0 41 28 92t85 91q-111 80 -114 245v6q0 129 81 233q42 54 118 86.5t161.5 32.5t146.5 -18h314v-128h-133zM396 -6q-97 -54 -130 -99
q-39 -52 -39 -110t35 -91q60 -57 192 -57q182 0 274 90q49 48 49 117q0 71 -56 103q-60 32 -116 38q-76 8 -131.5 8t-77.5 1zM516 1349l-234 -249l-75 49l215 300h188l215 -300l-75 -49z" />
    <glyph glyph-name="Itilde" unicode="&#x128;" horiz-adv-x="541" 
d="M0 0zM361 1391v-1391h-181v1391h181zM-2 1560l-70 60q71 139 174 171q25 8 57.5 8t108 -44t109.5 -44t75 24t69 74l70 -60q-70 -137 -173 -172q-26 -8 -58.5 -8t-108 45t-109 45t-75 -24.5t-69.5 -74.5z" />
    <glyph glyph-name="itilde" unicode="&#x129;" horiz-adv-x="547" 
d="M0 0zM383 938v-938h-161v810h-166v128h327zM30 1107l-70 60q71 139 174 171q25 8 57.5 8t108 -44t109.5 -44t75 24t69 74l70 -60q-70 -137 -173 -172q-26 -8 -58.5 -8t-108 45t-109 45t-75 -24.5t-69.5 -74.5z" />
    <glyph glyph-name="Idotaccent" unicode="&#x130;" horiz-adv-x="541" 
d="M152 0zM361 1391v-1391h-181v1391h181zM152 1762q0 50 34.5 85.5t83.5 35.5t83.5 -35.5t34.5 -85.5t-34.5 -85.5t-83.5 -35.5t-83.5 35.5t-34.5 85.5z" />
    <glyph glyph-name="dotlessi" unicode="&#x131;" horiz-adv-x="547" 
d="M383 938v-938h-161v810h-166v128h327z" />
    <glyph glyph-name="Eng" unicode="&#x14a;" horiz-adv-x="1490" 
d="M1127 684q0 301 -99 444t-275 143q-196 0 -331 -153q-63 -72 -63 -106l2 -1012h-181v1391h181v-172q93 126 277 173q64 17 124 17t106.5 -6.5t102 -26.5t102 -52t91.5 -87.5t76 -128.5q70 -161 70 -415v-665q0 -407 -370 -493q-114 -27 -309 -27l-31 138q301 8 399 73
q61 41 80.5 84t27.5 74t13 81q7 82 7 208v518z" />
    <glyph glyph-name="eng" unicode="&#x14b;" horiz-adv-x="1121" 
d="M796 507q0 321 -230 321q-59 0 -108 -31.5t-76 -75.5q-57 -93 -57 -143v-578h-161v938h161v-172q90 190 293 190q82 0 147.5 -36.5t102.5 -78.5q89 -99 89 -278v-535q0 -289 -131 -416q-108 -104 -286 -104l-13 128q126 16 170 56q52 48 68 108q31 116 31 268v439z" />
    <glyph glyph-name="Omacron" unicode="&#x14c;" horiz-adv-x="1444" 
d="M45 0zM435 1355.5q130 53.5 275 53.5q395 0 580 -290q109 -176 109 -416q0 -243 -113 -421q-120 -192 -324 -262q-109 -38 -254.5 -38t-276.5 55.5t-215 152.5q-171 201 -171 513q0 308 176 505q84 94 214 147.5zM992 1193q-112 78 -265.5 78t-266.5 -75
q-223 -149 -223 -493q0 -349 221 -502q112 -78 247 -78q249 0 380 174q125 167 125 406q0 337 -218 490zM1041 1703h-628v109h628v-109z" />
    <glyph glyph-name="omacron" unicode="&#x14d;" horiz-adv-x="1012" 
d="M61 0zM222 469q0 -97 24.5 -169.5t66 -112t90 -58t103.5 -18.5q112 0 193 77q89 85 89 281q0 195 -89 282q-82 76 -193 76q-113 0 -193 -76q-91 -87 -91 -282zM61 469q0 303 195 422q108 65 250 65q141 0 251 -65q58 -36 101 -90q93 -122 93 -332q0 -304 -194 -421
q-108 -66 -251 -66q-144 0 -250 66q-59 35 -102 90q-93 119 -93 331zM820 1250h-628v109h628v-109z" />
    <glyph glyph-name="Obreve" unicode="&#x14e;" horiz-adv-x="1444" 
 />
    <glyph glyph-name="obreve" unicode="&#x14f;" horiz-adv-x="1012" 
 />
    <glyph glyph-name="OE" unicode="&#x152;" horiz-adv-x="1832" 
d="M655 1271q-120 0 -219 -75q-199 -150 -199 -493q0 -250 109 -412q53 -79 137 -123.5t202.5 -44.5t218.5 81q197 161 197 499q0 239 -109 400q-113 168 -337 168zM1288 644v-505l498 1v-140h-679v171q-168 -189 -434 -189q-152 0 -272.5 55.5t-197.5 152.5
q-158 201 -158 513q0 204 71.5 362.5t215 251t341.5 92.5q270 0 434 -178v160h679v-139h-498v-468h302v-140h-302z" />
    <glyph glyph-name="oe" unicode="&#x153;" horiz-adv-x="1666" 
d="M956 580h485q-9 109 -65.5 178.5t-161.5 69.5q-222 0 -258 -248zM222 469q0 -271 180 -339q49 -19 104 -19q112 0 192 77q90 85 90 281q0 271 -179 339q-48 19 -103 19q-113 0 -194 -77q-90 -86 -90 -281zM875 163q-116 -181 -369 -181q-230 0 -352 156q-93 119 -93 331
q0 303 195 421q107 66 250 66q248 0 365 -175q59 88 149 131.5t174.5 43.5t143.5 -18t98.5 -47t70 -69.5t47 -79.5t27.5 -84q16 -62 18 -138l-24 -60h-624q0 -19 -1 -29q10 -155 97 -237.5t223 -82.5q110 0 252 59l43 -115q-108 -73 -292 -73q-271 0 -398 181z" />
    <glyph glyph-name="Scaron" unicode="&#x160;" horiz-adv-x="1007" 
d="M96 0zM157 253q28 -20 51.5 -39t53.5 -35.5t62 -28.5q70 -28 157 -28q146 0 201 71q47 61 47 120.5t-12 93.5q-23 59 -92 111q-29 20 -69 43l-164 81q-92 50 -140 97t-72 87q-53 89 -53 231t103 247t268 105q105 0 188.5 -27t132.5 -65l-38 -138q-119 92 -270 92
q-95 0 -148.5 -63t-53.5 -162q0 -45 15 -82q25 -66 104 -118q31 -22 86 -46l157 -80q42 -23 74.5 -45.5t64.5 -54.5q101 -101 101 -260.5t-109 -268.5t-284 -109q-192 0 -316 68q-67 36 -106 63zM504 1653l234 249l75 -49l-215 -300h-188l-215 300l75 49z" />
    <glyph glyph-name="scaron" unicode="&#x161;" horiz-adv-x="782" 
d="M66 0zM382 111q173 0 173 149q0 90 -165 144l-98 34q-105 37 -155.5 105.5t-50.5 162t87 172t223 78.5q90 0 160 -23.5t108 -53.5l-57 -120q-31 25 -88 47t-122.5 22t-107.5 -39t-42 -87t32 -80t129 -66l98 -34q107 -37 159 -97q51 -61 51 -176t-88 -191t-240 -76
q-81 0 -155.5 16.5t-166.5 69.5l58 124q77 -46 131 -63.5t127 -17.5zM400 1200l234 249l75 -49l-215 -300h-188l-215 300l75 49z" />
    <glyph glyph-name="Utilde" unicode="&#x168;" horiz-adv-x="1310" 
d="M180 0zM681 -18q-501 0 -501 456v953h181v-905q0 -187 86 -275t227 -88q285 0 285 390v878h171v-922q0 -221 -118 -354t-331 -133zM383 1543l-70 60q71 139 174 171q25 8 57.5 8t108 -44t109.5 -44t75 24t69 74l70 -60q-70 -137 -173 -172q-26 -8 -58.5 -8t-108 45
t-109 45t-75 -24.5t-69.5 -74.5z" />
    <glyph glyph-name="utilde" unicode="&#x169;" horiz-adv-x="1121" 
d="M164 0zM796 172q-90 -190 -293 -190q-82 0 -147.5 36.5t-103 78.5t-62.5 114q-26 72 -26 164v563h161v-507q0 -321 230 -321q59 0 108 32q75 48 118 158q15 38 15 60v578h161v-938h-161v172zM283 1107l-70 60q71 139 174 171q25 8 57.5 8t108 -44t109.5 -44t75 24t69 74
l70 -60q-70 -137 -173 -172q-26 -8 -58.5 -8t-108 45t-109 45t-75 -24.5t-69.5 -74.5z" />
    <glyph glyph-name="Umacron" unicode="&#x16a;" horiz-adv-x="1310" 
d="M180 0zM681 -18q-501 0 -501 456v953h181v-905q0 -187 86 -275t227 -88q285 0 285 390v878h171v-922q0 -221 -118 -354t-331 -133zM969 1686h-628v109h628v-109z" />
    <glyph glyph-name="umacron" unicode="&#x16b;" horiz-adv-x="1121" 
d="M164 0zM796 172q-90 -190 -293 -190q-82 0 -147.5 36.5t-103 78.5t-62.5 114q-26 72 -26 164v563h161v-507q0 -321 230 -321q59 0 108 32q75 48 118 158q15 38 15 60v578h161v-938h-161v172zM869 1250h-628v109h628v-109z" />
    <glyph glyph-name="Uhungarumlaut" unicode="&#x170;" horiz-adv-x="1310" 
d="M180 0zM681 -18q-501 0 -501 456v953h181v-905q0 -187 86 -275t227 -88q285 0 285 390v878h171v-922q0 -221 -118 -354t-331 -133zM677 1911l-239 -375l-92 44l143 331h188zM1037 1911l-239 -375l-92 44l143 331h188z" />
    <glyph glyph-name="uhungarumlaut" unicode="&#x171;" horiz-adv-x="1121" 
d="M164 0zM796 172q-90 -190 -293 -190q-82 0 -147.5 36.5t-103 78.5t-62.5 114q-26 72 -26 164v563h161v-507q0 -321 230 -321q59 0 108 32q75 48 118 158q15 38 15 60v578h161v-938h-161v172zM577 1475l-239 -375l-92 44l143 331h188zM937 1475l-239 -375l-92 44l143 331
h188z" />
    <glyph glyph-name="Wcircumflex" unicode="&#x174;" horiz-adv-x="2027" 
d="M67 0zM1792 1391h168l-461 -1391h-150l-336 1014l-336 -1014h-150l-460 1391h178l362 -1143l363 1143h97l362 -1143zM1013 1802l-234 -249l-75 49l215 300h188l215 -300l-75 -49z" />
    <glyph glyph-name="wcircumflex" unicode="&#x175;" horiz-adv-x="1512" 
d="M21 0zM1329 938h162l-367 -938h-104l-264 671l-262 -671h-104l-369 938h173l253 -672l252 672h125l253 -672zM756 1349l-234 -249l-75 49l215 300h188l215 -300l-75 -49z" />
    <glyph glyph-name="longs" unicode="&#x17f;" horiz-adv-x="675" 
d="M383 0h-161v810h-166v128h166v82q0 444 351 444q110 0 181 -34q23 -12 53 -31.5t39 -24.5l-44 -127q-41 36 -102.5 62.5t-130.5 26.5t-127.5 -70.5t-58.5 -158.5v-1107z" />
    <glyph glyph-name="uni0181" unicode="&#x181;" horiz-adv-x="1116" 
d="M793 27.5q-124 -45.5 -300.5 -45.5t-312.5 31v1189q-202 -77 -202 -184q0 -65 22 -122l-174 -26q-33 62 -33 160t68.5 175.5t178.5 120.5q215 83 438.5 83t354 -87t130.5 -228t-69 -227t-177 -115q262 -35 329 -214q22 -56 22 -125q0 -142 -75.5 -241t-199.5 -144.5z
M361 1252v-457h66q167 0 255.5 63t88.5 182q0 147 -145 204q-67 26 -136.5 26t-128.5 -18zM361 140q54 -18 138 -18q188 0 286 69.5t98 198.5q0 265 -462 265h-60v-515z" />
    <glyph glyph-name="uni0186" unicode="&#x186;" horiz-adv-x="1255" 
d="M515 1269q-175 0 -338 -123l-88 119q106 77 175 103q110 41 302 41t339 -90t224 -251.5t77 -372.5q0 -321 -176.5 -517t-480.5 -196q-351 0 -488 294l115 64q43 -98 134 -158t233 -60q234 0 352.5 153t118.5 421q0 227 -128 396q-60 81 -153.5 129t-205.5 48h-12z" />
    <glyph glyph-name="uni018A" unicode="&#x18a;" horiz-adv-x="1375" 
d="M387 1402q78 7 177 7t213 -30t214 -90.5t175.5 -145t119.5 -201.5t44 -267.5t-62.5 -287.5t-167.5 -224q-217 -181 -516 -181q-217 0 -404 31v1197q-202 -69 -202 -192q0 -66 22 -122l-174 -26q-33 62 -33 146.5t35 146t96 102t135 70t162 45t166 22.5zM361 1252
l-1 -1112q92 -18 198.5 -18t209.5 37t187 105.5t135.5 179t51.5 233t-36.5 218.5t-96.5 163.5t-137 116.5q-151 95 -326 95q-107 0 -185 -18z" />
    <glyph glyph-name="uni018E" unicode="&#x18e;" horiz-adv-x="1077" 
d="M716 747v505l-614 -1v140h795v-1391h-795v139h614v469l-418 -1v140h418z" />
    <glyph glyph-name="uni018F" unicode="&#x18f;" horiz-adv-x="1333" 
d="M646 -18q-264 0 -431 156q-175 163 -175 489l88 93h964q-10 273 -179 434q-120 115 -298 115q-116 0 -208.5 -37t-184.5 -100l-88 119q101 72 212.5 115t271.5 43t290 -57t211 -156q165 -202 165 -517.5t-166.5 -506t-471.5 -190.5zM1087 580h-865q0 -260 188 -386
q107 -72 215 -72t178 22.5t119 62.5t84 99q65 107 81 274z" />
    <glyph glyph-name="uni0190" unicode="&#x190;" horiz-adv-x="1001" 
d="M564 122q65 0 141.5 31.5t128.5 78.5l78 -121q-157 -129 -364 -129q-112 0 -207 36t-159 97q-133 128 -133 311q0 226 247 338q-77 28 -144.5 103t-67.5 165.5t29.5 157t75.5 106.5t109 66q112 47 232.5 47t217 -36t136.5 -69l-78 -116q-49 34 -119 57.5t-134.5 23.5
t-117.5 -17t-82 -42t-47 -59q-30 -54 -30 -115t30.5 -107t76.5 -71q91 -48 175 -48h142v-140h-157q-147 0 -224.5 -72t-77.5 -189t89 -202t234 -85z" />
    <glyph glyph-name="uni0191" unicode="&#x191;" horiz-adv-x="999" 
d="M180 1391h795v-139h-614v-469l418 1v-140h-418v-616q0 -239 -83 -358q-55 -78 -106.5 -104t-81.5 -35.5t-72 -14.5q-56 -8 -132 -8l-45 138q193 8 257 73q67 69 77 239q5 82 5 208v1225z" />
    <glyph glyph-name="florin" unicode="&#x192;" horiz-adv-x="675" 
d="M383 30q0 -290 -133 -415q-110 -103 -288 -103l-13 128q125 16 169 56q52 48 68 108q32 120 32 268l4 738h-166v128h166v82q0 444 351 444q110 0 181 -34q23 -12 53 -31.5t39 -24.5l-44 -127q-41 36 -102.5 62.5t-130.5 26.5t-127.5 -72t-58.5 -157v-169h229v-128h-229
v-780z" />
    <glyph glyph-name="uni0194" unicode="&#x194;" horiz-adv-x="1241" 
d="M704 169q47 -106 83 -185q81 -176 81 -277t-72 -150t-176 -49q-92 0 -145 32q-97 59 -97 170q0 56 34.5 150t126.5 302l-480 1229h173l391 -1013l397 1032h162zM621 -50q-55 -157 -55 -209.5t16.5 -72.5t37.5 -20q60 0 60 91q0 55 -59 211z" />
    <glyph glyph-name="uni0196" unicode="&#x196;" horiz-adv-x="696" 
d="M668 13q-88 -31 -182 -31t-138 15t-84 50q-84 75 -84 266v1079h181v-1058q0 -211 135 -211q68 0 150 17z" />
    <glyph glyph-name="uni0197" unicode="&#x197;" horiz-adv-x="663" 
d="M241 664h-180v139h180v588h181v-587h180v-140h-180v-664h-181v664z" />
    <glyph glyph-name="uni0198" unicode="&#x198;" horiz-adv-x="1161" 
d="M1103 1h-211l-531 678v-679h-181v1391h181v-698l276 378q119 161 171.5 217t85.5 78q68 43 125 43q151 0 227 -81q70 -70 86 -209l-161 -24q-11 82 -43 128t-96 46q-58 0 -149 -118q-10 -14 -34 -47t-27 -38l-267 -365z" />
    <glyph glyph-name="uni0199" unicode="&#x199;" horiz-adv-x="936" 
d="M325 0h-161v1020q0 444 351 444q110 0 181 -34q23 -12 53 -31.5t39 -24.5l-44 -127q-41 36 -102.5 62.5t-130.5 26.5t-127.5 -70.5t-58.5 -158.5v-483l319 314h200l-385 -376l455 -562h-200l-389 479v-479z" />
    <glyph glyph-name="uni019D" unicode="&#x19d;" horiz-adv-x="1385" 
d="M180 1391h181l663 -1043v1043h181v-1391h-181l-663 1042v-1014q0 -239 -83 -358q-55 -78 -106.5 -104t-81.5 -35.5t-72 -14.5q-56 -8 -132 -8l-45 138q193 8 257 73q67 69 77 239q5 82 5 208v1225z" />
    <glyph glyph-name="uni019F" unicode="&#x19f;" horiz-adv-x="1444" 
d="M435 1355.5q130 53.5 275.5 53.5t255 -36t189 -101t135.5 -154q109 -174 109 -415q0 -369 -249 -579q-169 -142 -423 -142q-165 0 -296 55.5t-215 152.5q-171 201 -171 513q0 308 175 505q85 94 215 147.5zM1209 664h-971q10 -237 132 -385q128 -156 357 -156
q108 0 197.5 43t149.5 118q125 155 135 380zM1204 804q-24 201 -144 332q-125 135 -333 135q-138 0 -243 -61q-208 -119 -241 -407z" />
    <glyph glyph-name="uni01A9" unicode="&#x1a9;" horiz-adv-x="1040" 
d="M55 1l528 695l-528 696h883v-139h-589l421 -557l-420 -556l588 1v-140h-883z" />
    <glyph glyph-name="uni01B2" unicode="&#x1b2;" horiz-adv-x="1325" 
d="M681 -18q-501 0 -501 456v953h181v-905q0 -282 199 -346q54 -17 121.5 -17t137 28t131.5 81.5t101.5 145t39.5 201t-23.5 203t-72.5 178.5q-90 158 -262 324l141 125q172 -180 242 -284.5t100 -179.5q64 -164 64 -352t-78.5 -325.5t-214.5 -211.5t-306 -74z" />
    <glyph glyph-name="uni01B3" unicode="&#x1b3;" horiz-adv-x="1307" 
d="M985 1068l-274 -450v-618h-181v619l-471 772h178l389 -637l191 314q160 260 264 313q55 28 125 28q238 0 272 -290l-161 -24q-18 137 -63 162q-22 12 -48.5 12t-47 -8.5t-36 -18.5t-35 -31.5t-30 -33.5t-29 -40.5t-22.5 -35t-21 -33.5z" />
    <glyph glyph-name="uni01B4" unicode="&#x1b4;" horiz-adv-x="1130" 
d="M57 -322q53 -45 88.5 -45t59.5 13t48 40.5t45 58t46 77.5q28 56 89 189l-409 927h173l323 -731l188 429q109 244 208 292q56 28 143 28q145 0 211 -152q25 -57 31 -132l-161 -30q-3 53 -35.5 113.5t-77.5 60.5q-38 0 -63 -27.5t-40 -50t-27 -46.5q-26 -52 -44 -94
l-261 -580q-175 -389 -290 -471q-59 -43 -145.5 -43t-157.5 76z" />
    <glyph glyph-name="uni01B5" unicode="&#x1b5;" horiz-adv-x="1259" 
d="M654 664l-334 -525h796v-140l-1066 1l422 664h-257v139h346l286 449h-760v139h1029l-373 -587h265v-140h-354z" />
    <glyph glyph-name="uni01B6" unicode="&#x1b6;" horiz-adv-x="972" 
d="M111 938h778l-258 -380h232v-109h-306l-217 -321h565v-128h-838l304 449h-243v109h317l171 252h-505v128z" />
    <glyph glyph-name="uni01CD" unicode="&#x1cd;" horiz-adv-x="1328" 
d="M67 0zM933 404h-548l-150 -404h-168l522 1391h150l522 -1391h-178zM881 544l-222 600l-223 -600h445zM664 1653l234 249l75 -49l-215 -300h-188l-215 300l75 49z" />
    <glyph glyph-name="uni01CE" unicode="&#x1ce;" horiz-adv-x="894" 
d="M76 0zM605 422q-368 0 -368 -183q0 -49 30.5 -91t69.5 -42h39q220 0 235 231v85h-6zM145 893q180 63 295 63t201 -57t115 -169q16 -63 16 -257v-313q0 -88 14 -160h-162q-13 41 -13 93v7q-25 -30 -55 -52q-94 -69 -200 -69q-178 0 -245 127q-35 63 -35 129q0 175 205 253
q123 47 312 47h18v101q0 110 -42 150q-49 46 -163 46t-253 -64zM439 1200l234 249l75 -49l-215 -300h-188l-215 300l75 49z" />
    <glyph glyph-name="uni01CF" unicode="&#x1cf;" horiz-adv-x="541" 
d="M0 0zM361 1391v-1391h-181v1391h181zM270 1653l234 249l75 -49l-215 -300h-188l-215 300l75 49z" />
    <glyph glyph-name="uni01D0" unicode="&#x1d0;" horiz-adv-x="547" 
d="M0 0zM383 938v-938h-161v810h-166v128h327zM302 1200l234 249l75 -49l-215 -300h-188l-215 300l75 49z" />
    <glyph glyph-name="uni01D1" unicode="&#x1d1;" horiz-adv-x="1444" 
d="M45 0zM435 1355.5q130 53.5 275 53.5q395 0 580 -290q109 -176 109 -416q0 -243 -113 -421q-120 -192 -324 -262q-109 -38 -254.5 -38t-276.5 55.5t-215 152.5q-171 201 -171 513q0 308 176 505q84 94 214 147.5zM992 1193q-112 78 -265.5 78t-266.5 -75
q-223 -149 -223 -493q0 -349 221 -502q112 -78 247 -78q249 0 380 174q125 167 125 406q0 337 -218 490zM727 1653l234 249l75 -49l-215 -300h-188l-215 300l75 49z" />
    <glyph glyph-name="uni01D2" unicode="&#x1d2;" horiz-adv-x="1012" 
d="M61 0zM222 469q0 -97 24.5 -169.5t66 -112t90 -58t103.5 -18.5q112 0 193 77q89 85 89 281q0 195 -89 282q-82 76 -193 76q-113 0 -193 -76q-91 -87 -91 -282zM61 469q0 303 195 422q108 65 250 65q141 0 251 -65q58 -36 101 -90q93 -122 93 -332q0 -304 -194 -421
q-108 -66 -251 -66q-144 0 -250 66q-59 35 -102 90q-93 119 -93 331zM506 1200l234 249l75 -49l-215 -300h-188l-215 300l75 49z" />
    <glyph glyph-name="uni01D3" unicode="&#x1d3;" horiz-adv-x="1310" 
d="M180 0zM681 -18q-501 0 -501 456v953h181v-905q0 -187 86 -275t227 -88q285 0 285 390v878h171v-922q0 -221 -118 -354t-331 -133zM655 1636l234 249l75 -49l-215 -300h-188l-215 300l75 49z" />
    <glyph glyph-name="uni01D4" unicode="&#x1d4;" horiz-adv-x="1121" 
d="M164 0zM796 172q-90 -190 -293 -190q-82 0 -147.5 36.5t-103 78.5t-62.5 114q-26 72 -26 164v563h161v-507q0 -321 230 -321q59 0 108 32q75 48 118 158q15 38 15 60v578h161v-938h-161v172zM555 1200l234 249l75 -49l-215 -300h-188l-215 300l75 49z" />
    <glyph glyph-name="uni01DD" unicode="&#x1dd;" horiz-adv-x="939" 
d="M433 110q139 0 208 84q48 58 63 164h-485q9 -109 65.5 -178.5t148.5 -69.5zM95 883q108 73 292 73q233 0 359 -133t126 -354q0 -289 -187 -417q-103 -70 -232 -70q-198 0 -299 134q-87 115 -93 302l24 60h626q-2 166 -89 257.5t-232 91.5q-110 0 -252 -59z" />
    <glyph glyph-name="uni0228" unicode="&#x228;" horiz-adv-x="1077" 
d="M493 0h-313v1391h795v-139h-614v-468h418v-140h-418v-504h614v-140h-380q-24 -54 -24 -106q50 -13 86 -64t36 -125.5t-42.5 -119t-128.5 -79.5l-79 75q62 26 95.5 55t33.5 79t-33.5 81.5t-91.5 31.5q0 99 46 172z" />
    <glyph glyph-name="uni0229" unicode="&#x229;" horiz-adv-x="939" 
d="M500 828q-139 0 -208 -84q-48 -58 -63 -164h485q-9 109 -65.5 178.5t-148.5 69.5zM838 55q-108 -73 -292 -73q-16 0 -31 1q-17 -45 -17 -89q50 -13 86 -64t36 -125.5t-42.5 -119t-128.5 -79.5l-79 75q62 26 95.5 55t33.5 79t-33.5 81.5t-91.5 31.5q0 95 42 166
q-141 28 -229 121q-126 133 -126 354q0 289 187 417q103 70 232 70q198 0 300 -134q86 -115 92 -302l-24 -60h-626q2 -166 89 -257.5t232 -91.5q110 0 252 59z" />
    <glyph glyph-name="uni022A" unicode="&#x22a;" horiz-adv-x="1444" 
 />
    <glyph glyph-name="uni022F" unicode="&#x22f;" horiz-adv-x="1012" 
 />
    <glyph glyph-name="uni0237" unicode="&#x237;" horiz-adv-x="547" 
d="M383 938v-827q0 -206 -40 -315q-62 -168 -243 -288l-90 72q109 106 150 190q62 127 62 341v699h-166v128h327z" />
    <glyph glyph-name="uni0244" unicode="&#x244;" horiz-adv-x="1432" 
d="M422 486q0 -282 198 -346q55 -17 122 -17q133 0 205.5 95.5t72.5 294.5v151h-598v-178zM241 664h-180v139h180v588h181v-588l598 1v587h171v-587h180v-140h-180v-195q0 -221 -118 -354t-331 -133q-501 0 -501 456v226z" />
    <glyph glyph-name="uni0245" unicode="&#x245;" horiz-adv-x="1328" 
d="M659 1143l-424 -1143h-168l522 1391h150l522 -1391h-178z" />
    <glyph glyph-name="uni0251" unicode="&#x251;" horiz-adv-x="1016" 
d="M735 156q-55 -82 -67.5 -92.5t-31 -27.5t-35 -23.5t-39.5 -15.5q-38 -15 -112 -15t-143 27.5t-125 82.5q-121 119 -121 364q0 272 213 418q121 82 260 82q203 0 362 -98v-649q0 -83 7 -121.5t26 -87.5h-161q-19 27 -26 56.5t-7 99.5zM464 110q164 0 271 180v500
q-58 37 -154.5 37t-164 -30t-109.5 -82q-85 -105 -85 -267q0 -253 156 -320q40 -18 86 -18z" />
    <glyph glyph-name="uni0253" unicode="&#x253;" horiz-adv-x="1059" 
d="M594 828q-163 -1 -269 -180v-500q58 -37 154.5 -37t164 30t109.5 82q85 105 85 267q0 253 -157 320q-41 18 -87 18zM325 828q65 73 132 100.5t147 27.5t149 -27.5t125 -82.5q121 -119 121 -364q0 -272 -213 -418q-121 -82 -260 -82q-203 0 -362 98v940q0 444 351 444
q110 0 181 -34q23 -12 53 -31.5t39 -24.5l-44 -127q-41 36 -102.5 62.5t-130.5 26.5t-127.5 -72t-58.5 -157v-279z" />
    <glyph glyph-name="uni0254" unicode="&#x254;" horiz-adv-x="921" 
d="M372 827q-117 0 -225 -79l-62 108q146 100 307 100q215 0 341.5 -135.5t126.5 -354t-120.5 -351.5t-326.5 -133q-258 0 -352 238l112 62q68 -171 238 -171q143 0 215.5 102.5t72.5 253t-87.5 255.5t-233.5 105h-6z" />
    <glyph glyph-name="uni0256" unicode="&#x256;" horiz-adv-x="1063" 
d="M899 68q0 -236 59 -326q39 -59 81 -76q53 -20 129 -30l-13 -128q-125 0 -210 45q-36 19 -77.5 58t-69.5 92q-64 124 -64 323v84q-113 -128 -269 -128q-116 0 -210 64t-144 166.5t-50 219.5q0 233 135.5 378.5t336.5 145.5q84 0 201 -32v551h165v-1407zM734 784
q-83 44 -164.5 44t-138 -28.5t-103.5 -78t-76.5 -124.5t-29.5 -161q0 -139 74.5 -232t183.5 -93q74 0 141 50.5t113 128.5v494z" />
    <glyph glyph-name="uni0257" unicode="&#x257;" horiz-adv-x="1063" 
d="M734 924v92q0 298 132 398q65 50 140 50t128 -24q78 -34 112 -91l-84 -95q-60 82 -138 82q-54 0 -89.5 -68.5t-35.5 -200.5v-1067h-165v110q-113 -128 -269 -128q-116 0 -210 64t-144 166.5t-50 219.5q0 233 135.5 378.5t336.5 145.5q84 0 201 -32zM734 784
q-83 44 -164.5 44t-138 -28.5t-103.5 -78t-76.5 -124.5t-29.5 -161q0 -139 74.5 -232t183.5 -93q74 0 141 50.5t113 128.5v494z" />
    <glyph glyph-name="uni0259" unicode="&#x259;" horiz-adv-x="939" 
d="M61 0zM433 110q139 0 208 84q48 58 63 164h-485q9 -109 65.5 -178.5t148.5 -69.5zM95 883q108 73 292 73q233 0 359 -133t126 -354q0 -289 -187 -417q-103 -70 -232 -70q-198 0 -299 134q-87 115 -93 302l24 60h626q-2 166 -89 257.5t-232 91.5q-110 0 -252 -59z" />
    <glyph glyph-name="uni025B" unicode="&#x25b;" horiz-adv-x="822" 
d="M680 768q-104 60 -214 60q-103 0 -163 -50q-37 -30 -37 -85.5t61 -91.5t175 -36h86l-16 -120h-100q-121 0 -185.5 -42t-64.5 -109.5t38 -109.5q66 -73 180 -73q64 0 120 19t80.5 36.5t57.5 46.5l64 -102q-46 -54 -129.5 -91.5t-189 -37.5t-189.5 32.5t-138.5 100
t-54.5 158t46.5 148.5t114.5 84q-122 52 -122 197q0 75 52 134q104 120 298 120q104 0 181 -22.5t110 -49.5z" />
    <glyph glyph-name="uni0261" unicode="&#x261;" horiz-adv-x="1060" 
d="M603 9.5q-67 -27.5 -147 -27.5t-149 27.5t-125 82.5q-121 119 -121 364q0 272 213 418q121 82 260 82q203 0 362 -98v-830q0 -276 -98.5 -398t-325.5 -122q-109 0 -201 29.5t-151 69.5l56 112q48 -34 135 -58.5t175.5 -24.5t144.5 39t80 130.5t24 262.5v42
q-65 -73 -132 -100.5zM464 110q164 0 271 180v500q-58 37 -154.5 37t-164 -30t-109.5 -82q-85 -105 -85 -267q0 -254 155 -320q41 -18 87 -18z" />
    <glyph glyph-name="uni0263" unicode="&#x263;" horiz-adv-x="1040" 
d="M516 -42q-54 -134 -54 -211t13 -95.5t43.5 -18.5t44 18t13.5 73q0 94 -60 234zM365 -437.5q-64 54.5 -64 159t137 414.5l-354 802h173l267 -606l270 606h162l-353 -784q70 -161 102 -264t32 -186t-63.5 -139.5t-154 -56.5t-154.5 54.5z" />
    <glyph glyph-name="uni0268" unicode="&#x268;" horiz-adv-x="605" 
d="M56 0zM222 558v252h-166v128h327v-380h161v-109h-161v-449h-161v449h-161v109h161zM184 1309q0 50 34.5 85.5t83.5 35.5t83.5 -35.5t34.5 -85.5t-34.5 -85.5t-83.5 -35.5t-83.5 35.5t-34.5 85.5z" />
    <glyph glyph-name="uni0269" unicode="&#x269;" horiz-adv-x="593" 
d="M371 -18q-208 0 -208 264v692h161v-682q0 -77 30.5 -110.5t56.5 -33.5t114 8l13 -117q-100 -21 -167 -21z" />
    <glyph glyph-name="uni0272" unicode="&#x272;" horiz-adv-x="1121" 
d="M796 507q0 321 -230 321q-59 0 -108 -31.5t-76 -75.5q-57 -93 -57 -143v-552q0 -290 -133 -415q-110 -103 -288 -103l-13 128q127 16 171 56q54 49 70 108q32 120 32 268v870h161v-172q90 190 293 190q82 0 147.5 -36.5t102.5 -78.5q89 -99 89 -278v-563h-161v507z" />
    <glyph glyph-name="uni0283" unicode="&#x283;" horiz-adv-x="572" 
d="M131 688q-22 61 -47 168t-25 164q0 444 351 444q110 0 180 -34q24 -12 54 -31.5t39 -24.5l-44 -127q-41 36 -102.5 62.5t-130 26.5t-127.5 -75t-59 -204q0 -49 23 -149.5t43 -153.5l141 -458q86 -239 86 -342q0 -444 -351 -444q-110 0 -180 34q-24 12 -54 31.5t-39 24.5
l44 127q41 -36 102.5 -62.5t124.5 -26.5q88 0 140 80.5t52 198.5q0 47 -28 147t-52 166z" />
    <glyph glyph-name="uni0289" unicode="&#x289;" horiz-adv-x="1237" 
d="M383 431q0 -321 230 -321q59 0 108 31.5t76 75.5q57 93 57 143v89h-471v-18zM1015 558h161v-109h-161v-449h-161v172q-90 -190 -293 -190q-82 0 -147.5 36.5t-103.5 78.5q-88 99 -88 278v74h-161v109h161v380h161v-380h471v380h161v-380z" />
    <glyph glyph-name="uni028B" unicode="&#x28b;" horiz-adv-x="1121" 
d="M516 111q272 0 272 378q0 143 -104 288q-20 27 -56 73l131 106q192 -251 192 -467q0 -217 -105 -357q-111 -150 -339 -150q-155 0 -249 103t-94 281v572h161v-572q0 -102 50 -178.5t141 -76.5z" />
    <glyph glyph-name="uni028C" unicode="&#x28c;" horiz-adv-x="984" 
d="M486 672l-303 -672h-162l417 938h106l419 -938h-173z" />
    <glyph glyph-name="uni02BB" unicode="&#x2bb;" horiz-adv-x="450" 
d="M221 1142q0 -18 49 -42q18 -8 33.5 -33t15.5 -65t-31.5 -75.5t-79.5 -35.5t-75.5 17.5t-38.5 45.5q-19 48 -19 109q0 159 194 346l82 -72q-130 -124 -130 -195z" />
    <glyph glyph-name="afii57929" unicode="&#x2bc;" horiz-adv-x="450" 
d="M205 1158q0 18 -49 42q-18 8 -33.5 33t-15.5 65t31.5 75.5t79.5 35.5t75.5 -17.5t38.5 -45.5q19 -48 19 -109q0 -159 -194 -346l-82 72q130 124 130 195z" />
    <glyph glyph-name="afii64937" unicode="&#x2bd;" horiz-adv-x="450" 
d="M221 1158q0 -71 130 -195l-82 -72q-116 112 -155 198.5t-39 164.5q0 155 126 155q55 0 86.5 -35.5t31.5 -75.5t-15.5 -65t-33.5 -33q-49 -24 -49 -42z" />
    <glyph glyph-name="uni02DE" unicode="&#x2de;" horiz-adv-x="576" 
d="M166 931q0 -58 31.5 -91.5t81.5 -33.5t79 33.5t55 95.5l75 -79q-35 -86 -79.5 -128.5t-119 -42.5t-125.5 36t-64 86q-70 0 -142 -42v93q83 73 208 73z" />
    <glyph glyph-name="gravecomb" unicode="&#x300;" 
d="M-249 1475h188l143 -331l-92 -44z" />
    <glyph glyph-name="acutecomb" unicode="&#x301;" 
d="M249 1475l-239 -375l-92 44l143 331h188z" />
    <glyph glyph-name="uni0302" unicode="&#x302;" 
d="M0 1349l-234 -249l-75 49l215 300h188l215 -300l-75 -49z" />
    <glyph glyph-name="tildecomb" unicode="&#x303;" 
d="M-272 1107l-70 60q71 139 174 171q25 8 57.5 8t108 -44t109.5 -44t75 24t69 74l70 -60q-70 -137 -173 -172q-26 -8 -58.5 -8t-108 45t-109 45t-75 -24.5t-69.5 -74.5z" />
    <glyph glyph-name="uni0304" unicode="&#x304;" 
d="M314 1250h-628v109h628v-109z" />
    <glyph glyph-name="uni0306" unicode="&#x306;" 
d="M0 1130q-220 0 -297 198q-13 34 -25 77l88 35q65 -188 234 -188t234 188l88 -35q-43 -153 -122 -215q-77 -60 -200 -60z" />
    <glyph glyph-name="uni0307" unicode="&#x307;" 
d="M-118 1309q0 50 34.5 85.5t83.5 35.5t83.5 -35.5t34.5 -85.5t-34.5 -85.5t-83.5 -35.5t-83.5 35.5t-34.5 85.5z" />
    <glyph glyph-name="uni0308" unicode="&#x308;" 
d="M-354 1309q0 50 34.5 85.5t83.5 35.5t83.5 -35.5t34.5 -85.5t-34.5 -85.5t-83.5 -35.5t-83.5 35.5t-34.5 85.5zM118 1309q0 50 34.5 85.5t83.5 35.5t83.5 -35.5t34.5 -85.5t-34.5 -85.5t-83.5 -35.5t-83.5 35.5t-34.5 85.5z" />
    <glyph glyph-name="hookabovecomb" unicode="&#x309;" 
d="M-24 1020q-32 42 -32 79t11.5 57.5t27.5 33.5t32 24q39 27 39 54.5t-15 45.5t-41 18q-53 0 -79 -37l-69 55q20 32 61.5 61t105.5 29t106 -46.5t42 -115.5q0 -57 -43 -90q-18 -13 -36 -25q-44 -28 -44 -63q0 -23 8 -46t11 -34h-85z" />
    <glyph glyph-name="uni030A" unicode="&#x30a;" 
d="M-67 1287.5q-28 -27.5 -28 -67t28 -67t67 -27.5t67 27.5t28 67t-28 67t-67 27.5t-67 -27.5zM-180 1220q0 74 53 127t127 53t127 -53t53 -127t-53 -127t-127 -53t-127 53t-53 127z" />
    <glyph glyph-name="uni030B" unicode="&#x30b;" 
d="M22 1475l-239 -375l-92 44l143 331h188zM382 1475l-239 -375l-92 44l143 331h188z" />
    <glyph glyph-name="uni030C" unicode="&#x30c;" 
d="M0 1200l234 249l75 -49l-215 -300h-188l-215 300l75 49z" />
    <glyph glyph-name="uni030D" unicode="&#x30d;" 
d="M-54 1101v360h108v-360h-108z" />
    <glyph glyph-name="uni030E" unicode="&#x30e;" 
d="M108 1101v360h108v-360h-108zM-216 1101v360h108v-360h-108z" />
    <glyph glyph-name="uni0310" unicode="&#x310;" 
d="M269 1158q0 18 -49 42q-18 8 -33.5 33t-15.5 65t31.5 75.5t79.5 35.5t75.5 -17.5t38.5 -45.5q19 -48 19 -115.5t-39 -140.5q-113 -213 -398 -330l-68 90q282 109 359 308z" />
    <glyph glyph-name="uni0311" unicode="&#x311;" 
d="M0 1440q220 0 297 -198q13 -34 25 -77l-88 -35q-65 188 -234 188t-234 -188l-88 35q43 153 122 215q77 60 200 60z" />
    <glyph glyph-name="uni0312" unicode="&#x312;" 
d="M34 1254q0 -9 32 -24q60 -29 60 -85.5t-33.5 -83.5t-86 -27t-88.5 44t-36 104.5t32.5 119.5t123.5 128l82 -72q-86 -68 -86 -104z" />
    <glyph glyph-name="uni0313" unicode="&#x313;" 
d="M0 1034zM-26 1210q0 9 -32 24q-60 29 -60 85.5t33.5 83.5t86 27t88.5 -44t36 -104.5t-32.5 -119.5t-123.5 -128l-82 72q86 68 86 104z" />
    <glyph glyph-name="uni0314" unicode="&#x314;" 
d="M34 1210q0 -36 86 -104l-82 -72q-91 69 -123.5 128t-32.5 119.5t36 104.5t88.5 44t86 -27t33.5 -67.5t-14.5 -63.5t-31.5 -31q-46 -22 -46 -31z" />
    <glyph glyph-name="uni0315" unicode="&#x315;" 
d="M-26 1210q0 9 -32 24q-60 29 -60 85.5t33.5 83.5t86 27t88.5 -44t36 -104.5t-32.5 -119.5t-123.5 -128l-82 72q86 68 86 104z" />
    <glyph glyph-name="dotbelowcomb" unicode="&#x323;" 
d="M-118 -183q0 50 34.5 85.5t83.5 35.5t83.5 -35.5t34.5 -85.5t-34.5 -85.5t-83.5 -35.5t-83.5 35.5t-34.5 85.5z" />
    <glyph glyph-name="uni0324" unicode="&#x324;" 
d="M0 -62zM-354 -183q0 50 34.5 85.5t83.5 35.5t83.5 -35.5t34.5 -85.5t-34.5 -85.5t-83.5 -35.5t-83.5 35.5t-34.5 85.5zM118 -183q0 50 34.5 85.5t83.5 35.5t83.5 -35.5t34.5 -85.5t-34.5 -85.5t-83.5 -35.5t-83.5 35.5t-34.5 85.5z" />
    <glyph glyph-name="uni0325" unicode="&#x325;" 
d="M-67 -174.5q-28 -27.5 -28 -67t28 -67t67 -27.5t67 27.5t28 67t-28 67t-67 27.5t-67 -27.5zM-180 -242q0 74 53 127t127 53t127 -53t53 -127t-53 -127t-127 -53t-127 53t-53 127z" />
    <glyph glyph-name="uni0326" unicode="&#x326;" 
d="M-26 -282q0 9 -32 24q-60 29 -60 85.5t33.5 83.5t86 27t88.5 -44t36 -104.5t-32.5 -119.5t-123.5 -128l-82 72q86 68 86 104z" />
    <glyph glyph-name="uni0327" unicode="&#x327;" 
d="M-48 36h93q-42 -72 -42 -142q50 -13 86 -64t36 -125.5t-42.5 -119t-128.5 -79.5l-79 75q62 26 95.5 55t33.5 79t-33.5 81.5t-91.5 31.5q0 125 73 208z" />
    <glyph glyph-name="uni0328" unicode="&#x328;" 
d="M48 36q-113 -149 -113 -230q0 -54 26.5 -76t65.5 -22t61 11l15 -93q-34 -16 -77 -16q-93 0 -145.5 56.5t-52.5 120.5t29 117t98 132h93z" />
    <glyph glyph-name="uni0329" unicode="&#x329;" 
d="M-54 -422v360h108v-360h-108z" />
    <glyph glyph-name="uni032C" unicode="&#x32c;" 
d="M0 -358l234 249l75 -49l-215 -300h-188l-215 300l75 49z" />
    <glyph glyph-name="uni032D" unicode="&#x32d;" 
d="M0 -209l-234 -249l-75 49l215 300h188l215 -300l-75 -49z" />
    <glyph glyph-name="uni0331" unicode="&#x331;" 
d="M-314 -109h628v-109h-628v109z" />
    <glyph glyph-name="uni1E04" unicode="&#x1e04;" horiz-adv-x="1116" 
d="M180 0zM361 1252v-457h66q167 0 255.5 63t88.5 182q0 147 -145 204q-67 26 -137.5 26t-127.5 -18zM883 390q0 265 -462 265h-60v-515q54 -18 138 -18q188 0 286 69.5t98 198.5zM992 172q-144 -190 -500 -190q-176 0 -312 31v1359q166 37 344 37t308.5 -87t130.5 -228
t-69 -227t-177 -115q263 -35 329 -214q22 -56 22 -125q0 -142 -76 -241zM422 -183q0 50 34.5 85.5t83.5 35.5t83.5 -35.5t34.5 -85.5t-34.5 -85.5t-83.5 -35.5t-83.5 35.5t-34.5 85.5z" />
    <glyph glyph-name="uni1E05" unicode="&#x1e05;" horiz-adv-x="1059" 
d="M164 0zM594 828q-163 0 -269 -180v-500q58 -37 155 -37q262 0 337 232q21 68 21 153.5t-22 153.5q-36 118 -135 161q-41 17 -87 17zM457 928.5q67 27.5 147 27.5q162 0 274 -110q56 -55 88.5 -148.5t32.5 -201.5q0 -285 -213 -432q-121 -82 -260 -82q-203 0 -362 98v1395
h161v-647q65 73 132 100.5zM437 -183q0 50 34.5 85.5t83.5 35.5t83.5 -35.5t34.5 -85.5t-34.5 -85.5t-83.5 -35.5t-83.5 35.5t-34.5 85.5z" />
    <glyph glyph-name="uni1E0C" unicode="&#x1e0c;" horiz-adv-x="1375" 
d="M180 0zM1101 163q-218 -181 -553 -181q-181 0 -368 31v1359q211 37 347 37q400 0 640 -265q75 -85 119 -202t44 -267.5t-62.5 -287.5t-166.5 -224zM361 1252l-1 -1112q92 -18 198 -18q223 0 397 143q84 68 135.5 178.5t51.5 232.5q0 327 -270 499q-151 95 -326 95
q-107 0 -185 -18zM502 -183q0 50 34.5 85.5t83.5 35.5t83.5 -35.5t34.5 -85.5t-34.5 -85.5t-83.5 -35.5t-83.5 35.5t-34.5 85.5z" />
    <glyph glyph-name="uni1E0D" unicode="&#x1e0d;" horiz-adv-x="1063" 
d="M61 0zM465 -18q-116 0 -210 64t-144 166.5t-50 219.5q0 233 135.5 378.5t336.5 145.5q84 0 201 -32v551h165v-1475h-165v110q-113 -128 -269 -128zM734 784q-83 44 -164 44q-140 0 -242 -106q-106 -113 -106 -269t74.5 -249t183.5 -93q74 0 141 50.5t113 128.5v494z
M364 -183q0 50 34.5 85.5t83.5 35.5t83.5 -35.5t34.5 -85.5t-34.5 -85.5t-83.5 -35.5t-83.5 35.5t-34.5 85.5z" />
    <glyph glyph-name="uni1E0E" unicode="&#x1e0e;" horiz-adv-x="1375" 
d="M180 0zM1101 163q-218 -181 -553 -181q-181 0 -368 31v1359q211 37 347 37q400 0 640 -265q75 -85 119 -202t44 -267.5t-62.5 -287.5t-166.5 -224zM361 1252l-1 -1112q92 -18 198 -18q223 0 397 143q84 68 135.5 178.5t51.5 232.5q0 327 -270 499q-151 95 -326 95
q-107 0 -185 -18zM306 -109h628v-109h-628v109z" />
    <glyph glyph-name="uni1E0F" unicode="&#x1e0f;" horiz-adv-x="1063" 
d="M61 0zM465 -18q-116 0 -210 64t-144 166.5t-50 219.5q0 233 135.5 378.5t336.5 145.5q84 0 201 -32v551h165v-1475h-165v110q-113 -128 -269 -128zM734 784q-83 44 -164 44q-140 0 -242 -106q-106 -113 -106 -269t74.5 -249t183.5 -93q74 0 141 50.5t113 128.5v494z
M168 -109h628v-109h-628v109z" />
    <glyph glyph-name="uni1E12" unicode="&#x1e12;" horiz-adv-x="1375" 
d="M180 0zM1101 163q-218 -181 -553 -181q-181 0 -368 31v1359q211 37 347 37q400 0 640 -265q75 -85 119 -202t44 -267.5t-62.5 -287.5t-166.5 -224zM361 1252l-1 -1112q92 -18 198 -18q223 0 397 143q84 68 135.5 178.5t51.5 232.5q0 327 -270 499q-151 95 -326 95
q-107 0 -185 -18zM620 -209l-234 -249l-75 49l215 300h188l215 -300l-75 -49z" />
    <glyph glyph-name="uni1E13" unicode="&#x1e13;" horiz-adv-x="1063" 
d="M61 0zM465 -18q-116 0 -210 64t-144 166.5t-50 219.5q0 233 135.5 378.5t336.5 145.5q84 0 201 -32v551h165v-1475h-165v110q-113 -128 -269 -128zM734 784q-83 44 -164 44q-140 0 -242 -106q-106 -113 -106 -269t74.5 -249t183.5 -93q74 0 141 50.5t113 128.5v494z
M482 -209l-234 -249l-75 49l215 300h188l215 -300l-75 -49z" />
    <glyph glyph-name="uni1E18" unicode="&#x1e18;" horiz-adv-x="1077" 
d="M180 0zM361 644v-504h614v-140h-795v1391h795v-139h-614v-468h418v-140h-418zM450 -183q0 50 34.5 85.5t83.5 35.5t83.5 -35.5t34.5 -85.5t-34.5 -85.5t-83.5 -35.5t-83.5 35.5t-34.5 85.5z" />
    <glyph glyph-name="uni1E19" unicode="&#x1e19;" horiz-adv-x="939" 
d="M61 0zM500 828q-139 0 -208 -84q-48 -58 -63 -164h485q-9 109 -65 179q-57 69 -149 69zM838 55q-108 -73 -292 -73q-233 0 -359 133t-126 354q0 288 187 417q104 70 232 70q198 0 300 -134q86 -115 92 -302l-24 -60h-626q2 -166 89 -257.5t232 -91.5q110 0 252 59z
M377 -183q0 50 34.5 85.5t83.5 35.5t83.5 -35.5t34.5 -85.5t-34.5 -85.5t-83.5 -35.5t-83.5 35.5t-34.5 85.5z" />
    <glyph glyph-name="uni1E24" unicode="&#x1e24;" horiz-adv-x="1364" 
d="M180 0zM1184 1390v-1390h-181v664h-642v-664h-181v1391h181v-587h642v586h181zM564 -183q0 50 34.5 85.5t83.5 35.5t83.5 -35.5t34.5 -85.5t-34.5 -85.5t-83.5 -35.5t-83.5 35.5t-34.5 85.5z" />
    <glyph glyph-name="uni1E25" unicode="&#x1e25;" horiz-adv-x="1121" 
d="M164 0zM796 507q0 321 -230 321q-59 0 -108 -32q-75 -48 -118 -158q-15 -38 -15 -60v-578h-161v1475h161v-709q90 190 293 190q82 0 147.5 -36.5t102.5 -78.5q89 -99 89 -278v-563h-161v507zM437 -183q0 50 34.5 85.5t83.5 35.5t83.5 -35.5t34.5 -85.5t-34.5 -85.5
t-83.5 -35.5t-83.5 35.5t-34.5 85.5z" />
    <glyph glyph-name="uni1E36" unicode="&#x1e36;" horiz-adv-x="1010" 
d="M180 0zM180 0v1391h181v-1251h614v-140h-795zM462 -183q0 50 34.5 85.5t83.5 35.5t83.5 -35.5t34.5 -85.5t-34.5 -85.5t-83.5 -35.5t-83.5 35.5t-34.5 85.5z" />
    <glyph glyph-name="uni1E37" unicode="&#x1e37;" horiz-adv-x="593" 
d="M164 0zM372 -18q-208 0 -208 264v1229h161v-1219q0 -77 30.5 -110.5t56.5 -33.5t114 8l13 -117q-100 -21 -167 -21zM226 -183q0 50 34.5 85.5t83.5 35.5t83.5 -35.5t34.5 -85.5t-34.5 -85.5t-83.5 -35.5t-83.5 35.5t-34.5 85.5z" />
    <glyph glyph-name="uni1E3C" unicode="&#x1e3c;" horiz-adv-x="1010" 
d="M180 0zM180 0v1391h181v-1251h614v-140h-795zM580 -209l-234 -249l-75 49l215 300h188l215 -300l-75 -49z" />
    <glyph glyph-name="uni1E3D" unicode="&#x1e3d;" horiz-adv-x="593" 
d="M35 0zM372 -18q-208 0 -208 264v1229h161v-1219q0 -77 30.5 -110.5t56.5 -33.5t114 8l13 -117q-100 -21 -167 -21zM344 -209l-234 -249l-75 49l215 300h188l215 -300l-75 -49z" />
    <glyph glyph-name="uni1E44" unicode="&#x1e44;" horiz-adv-x="1385" 
d="M180 0zM1205 1391v-1391h-181l-663 1042v-1042h-181v1391h181l663 -1043v1043h181zM574 1762q0 50 34.5 85.5t83.5 35.5t83.5 -35.5t34.5 -85.5t-34.5 -85.5t-83.5 -35.5t-83.5 35.5t-34.5 85.5z" />
    <glyph glyph-name="uni1E45" unicode="&#x1e45;" horiz-adv-x="1121" 
d="M164 0zM796 507q0 321 -230 321q-59 0 -108 -32q-75 -48 -118 -158q-15 -38 -15 -60v-578h-161v938h161v-172q90 190 293 190q82 0 147.5 -36.5t102.5 -78.5q89 -99 89 -278v-563h-161v507zM437 1309q0 50 34.5 85.5t83.5 35.5t83.5 -35.5t34.5 -85.5t-34.5 -85.5
t-83.5 -35.5t-83.5 35.5t-34.5 85.5z" />
    <glyph glyph-name="uni1E46" unicode="&#x1e46;" horiz-adv-x="1385" 
d="M180 0zM1205 1391v-1391h-181l-663 1042v-1042h-181v1391h181l663 -1043v1043h181zM574 -183q0 50 34.5 85.5t83.5 35.5t83.5 -35.5t34.5 -85.5t-34.5 -85.5t-83.5 -35.5t-83.5 35.5t-34.5 85.5z" />
    <glyph glyph-name="uni1E47" unicode="&#x1e47;" horiz-adv-x="1121" 
d="M164 0zM796 507q0 321 -230 321q-59 0 -108 -32q-75 -48 -118 -158q-15 -38 -15 -60v-578h-161v938h161v-172q90 190 293 190q82 0 147.5 -36.5t102.5 -78.5q89 -99 89 -278v-563h-161v507zM437 -183q0 50 34.5 85.5t83.5 35.5t83.5 -35.5t34.5 -85.5t-34.5 -85.5
t-83.5 -35.5t-83.5 35.5t-34.5 85.5z" />
    <glyph glyph-name="uni1E4A" unicode="&#x1e4a;" horiz-adv-x="1385" 
d="M180 0zM1205 1391v-1391h-181l-663 1042v-1042h-181v1391h181l663 -1043v1043h181zM692 -209l-234 -249l-75 49l215 300h188l215 -300l-75 -49z" />
    <glyph glyph-name="uni1E4B" unicode="&#x1e4b;" horiz-adv-x="1121" 
d="M164 0zM796 507q0 321 -230 321q-59 0 -108 -32q-75 -48 -118 -158q-15 -38 -15 -60v-578h-161v938h161v-172q90 190 293 190q82 0 147.5 -36.5t102.5 -78.5q89 -99 89 -278v-563h-161v507zM555 -209l-234 -249l-75 49l215 300h188l215 -300l-75 -49z" />
    <glyph glyph-name="uni1E54" unicode="&#x1e54;" horiz-adv-x="1083" 
d="M180 0zM180 1372q194 37 322.5 37t220 -23.5t149 -62.5t94.5 -93q69 -100 69 -234q0 -183 -140 -301.5t-364 -118.5h-170v-576h-181v1372zM361 1252v-536h66q222 0 319 65.5t97 204t-81 211.5q-82 73 -242 73q-86 0 -159 -18zM789 1928l-239 -375l-92 44l143 331h188z
" />
    <glyph glyph-name="uni1E55" unicode="&#x1e55;" horiz-adv-x="1063" 
d="M164 0zM329 154q80 -44 163 -44q142 0 243 107q106 111 106 267.5t-74 249.5q-75 93 -184 93q-74 0 -141 -50.5t-113 -128.5v-494zM598 956q116 0 210 -64t144 -166.5t50 -219.5q0 -233 -135.5 -378.5t-336.5 -145.5q-84 0 -201 32v-506h-165v1430h165v-110
q113 128 269 128zM804 1475l-239 -375l-92 44l143 331h188z" />
    <glyph glyph-name="uni1E62" unicode="&#x1e62;" horiz-adv-x="1007" 
d="M96 0zM157 253q28 -20 51.5 -39t53.5 -35.5t62 -28.5q70 -28 157 -28q146 0 201 71q47 61 47 120.5t-12 93.5q-23 59 -92 111q-29 20 -69 43l-164 81q-92 50 -140 97t-72 87q-53 89 -53 231t103 247t268 105q105 0 188.5 -27t132.5 -65l-38 -138q-119 92 -270 92
q-95 0 -148.5 -63t-53.5 -162q0 -45 15 -82q25 -66 104 -118q31 -22 86 -46l157 -80q42 -23 74.5 -45.5t64.5 -54.5q101 -101 101 -260.5t-109 -268.5t-284 -109q-192 0 -316 68q-67 36 -106 63zM386 -183q0 50 34.5 85.5t83.5 35.5t83.5 -35.5t34.5 -85.5t-34.5 -85.5
t-83.5 -35.5t-83.5 35.5t-34.5 85.5z" />
    <glyph glyph-name="uni1E63" unicode="&#x1e63;" horiz-adv-x="782" 
d="M66 0zM382 111q173 0 173 149q0 90 -165 144l-98 34q-105 37 -155.5 105.5t-50.5 162t87 172t223 78.5q90 0 160 -23.5t108 -53.5l-57 -120q-31 25 -88 47t-122.5 22t-107.5 -39t-42 -87t32 -80t129 -66l98 -34q107 -37 159 -97q51 -61 51 -176t-88 -191t-240 -76
q-81 0 -155.5 16.5t-166.5 69.5l58 124q77 -46 131 -63.5t127 -17.5zM282 -183q0 50 34.5 85.5t83.5 35.5t83.5 -35.5t34.5 -85.5t-34.5 -85.5t-83.5 -35.5t-83.5 35.5t-34.5 85.5z" />
    <glyph glyph-name="uni1E6C" unicode="&#x1e6c;" horiz-adv-x="1183" 
d="M57 0zM57 1391h1069v-139h-444v-1252h-181v1252h-444v139zM473 -183q0 50 34.5 85.5t83.5 35.5t83.5 -35.5t34.5 -85.5t-34.5 -85.5t-83.5 -35.5t-83.5 35.5t-34.5 85.5z" />
    <glyph glyph-name="uni1E6D" unicode="&#x1e6d;" horiz-adv-x="669" 
d="M8 0zM412 -18q-238 0 -238 264v564h-166v128h166v190l161 60v-250h229v-128h-229v-554q0 -77 39 -110.5t87 -33.5q93 0 145 16l20 -113q-92 -33 -214 -33zM254 -183q0 50 34.5 85.5t83.5 35.5t83.5 -35.5t34.5 -85.5t-34.5 -85.5t-83.5 -35.5t-83.5 35.5t-34.5 85.5z" />
    <glyph glyph-name="uni1E6E" unicode="&#x1e6e;" horiz-adv-x="1183" 
d="M57 0zM57 1391h1069v-139h-444v-1252h-181v1252h-444v139zM277 -109h628v-109h-628v109z" />
    <glyph glyph-name="uni1E6F" unicode="&#x1e6f;" horiz-adv-x="669" 
d="M8 0zM412 -18q-238 0 -238 264v564h-166v128h166v190l161 60v-250h229v-128h-229v-554q0 -77 39 -110.5t87 -33.5q93 0 145 16l20 -113q-92 -33 -214 -33zM58 -109h628v-109h-628v109z" />
    <glyph glyph-name="uni1E70" unicode="&#x1e70;" horiz-adv-x="1183" 
d="M57 0zM57 1391h1069v-139h-444v-1252h-181v1252h-444v139zM591 -209l-234 -249l-75 49l215 300h188l215 -300l-75 -49z" />
    <glyph glyph-name="uni1E71" unicode="&#x1e71;" horiz-adv-x="669" 
d="M8 0zM412 -18q-238 0 -238 264v564h-166v128h166v190l161 60v-250h229v-128h-229v-554q0 -77 39 -110.5t87 -33.5q93 0 145 16l20 -113q-92 -33 -214 -33zM372 -209l-234 -249l-75 49l215 300h188l215 -300l-75 -49z" />
    <glyph glyph-name="uni1E76" unicode="&#x1e76;" horiz-adv-x="1310" 
d="M180 0zM681 -18q-501 0 -501 456v953h181v-905q0 -187 86 -275t227 -88q285 0 285 390v878h171v-922q0 -221 -118 -354t-331 -133zM655 -209l-234 -249l-75 49l215 300h188l215 -300l-75 -49z" />
    <glyph glyph-name="uni1E77" unicode="&#x1e77;" horiz-adv-x="1121" 
d="M164 0zM796 172q-90 -190 -293 -190q-82 0 -147.5 36.5t-103 78.5t-62.5 114q-26 72 -26 164v563h161v-507q0 -321 230 -321q59 0 108 32q75 48 118 158q15 38 15 60v578h161v-938h-161v172zM555 -209l-234 -249l-75 49l215 300h188l215 -300l-75 -49z" />
    <glyph glyph-name="Wdieresis" unicode="&#x1e84;" horiz-adv-x="2027" 
d="M67 0zM1792 1391h168l-461 -1391h-150l-336 1014l-336 -1014h-150l-460 1391h178l362 -1143l363 1143h97l362 -1143zM659 1641zM659 1762q0 50 34.5 85.5t83.5 35.5t83.5 -35.5t34.5 -85.5t-34.5 -85.5t-83.5 -35.5t-83.5 35.5t-34.5 85.5zM1131 1762q0 50 34.5 85.5
t83.5 35.5t83.5 -35.5t34.5 -85.5t-34.5 -85.5t-83.5 -35.5t-83.5 35.5t-34.5 85.5z" />
    <glyph glyph-name="wdieresis" unicode="&#x1e85;" horiz-adv-x="1512" 
d="M21 0zM1329 938h162l-367 -938h-104l-264 671l-262 -671h-104l-369 938h173l253 -672l252 672h125l253 -672zM402 1188zM402 1309q0 50 34.5 85.5t83.5 35.5t83.5 -35.5t34.5 -85.5t-34.5 -85.5t-83.5 -35.5t-83.5 35.5t-34.5 85.5zM874 1309q0 50 34.5 85.5t83.5 35.5
t83.5 -35.5t34.5 -85.5t-34.5 -85.5t-83.5 -35.5t-83.5 35.5t-34.5 85.5z" />
    <glyph glyph-name="uni1E92" unicode="&#x1e92;" horiz-adv-x="1259" 
d="M50 0zM87 1391h1029l-796 -1252h796v-140l-1066 1l796 1252h-759v139zM483 -183q0 50 34.5 85.5t83.5 35.5t83.5 -35.5t34.5 -85.5t-34.5 -85.5t-83.5 -35.5t-83.5 35.5t-34.5 85.5z" />
    <glyph glyph-name="uni1E93" unicode="&#x1e93;" horiz-adv-x="972" 
d="M67 0zM111 938h778l-549 -810h565v-128h-838l549 810h-505v128zM390 -183q0 50 34.5 85.5t83.5 35.5t83.5 -35.5t34.5 -85.5t-34.5 -85.5t-83.5 -35.5t-83.5 35.5t-34.5 85.5z" />
    <glyph glyph-name="uni1EA0" unicode="&#x1ea0;" horiz-adv-x="1328" 
d="M67 0zM933 404h-548l-150 -404h-168l522 1391h150l522 -1391h-178zM881 544l-222 600l-223 -600h445zM546 -183q0 50 34.5 85.5t83.5 35.5t83.5 -35.5t34.5 -85.5t-34.5 -85.5t-83.5 -35.5t-83.5 35.5t-34.5 85.5z" />
    <glyph glyph-name="uni1EA1" unicode="&#x1ea1;" horiz-adv-x="894" 
d="M76 0zM605 422q-368 0 -368 -183q0 -49 30.5 -91t69.5 -42h39q220 0 235 231v85h-6zM145 893q180 63 295 63t201 -57t115 -169q16 -63 16 -257v-313q0 -88 14 -160h-162q-13 41 -13 93v7q-25 -30 -55 -52q-94 -69 -200 -69q-178 0 -245 127q-35 63 -35 129q0 175 205 253
q123 47 312 47h18v101q0 110 -42 150q-49 46 -163 46t-253 -64zM321 -183q0 50 34.5 85.5t83.5 35.5t83.5 -35.5t34.5 -85.5t-34.5 -85.5t-83.5 -35.5t-83.5 35.5t-34.5 85.5z" />
    <glyph glyph-name="uni1EB8" unicode="&#x1eb8;" horiz-adv-x="1077" 
d="M180 0zM361 644v-504h614v-140h-795v1391h795v-139h-614v-468h418v-140h-418zM450 -183q0 50 34.5 85.5t83.5 35.5t83.5 -35.5t34.5 -85.5t-34.5 -85.5t-83.5 -35.5t-83.5 35.5t-34.5 85.5z" />
    <glyph glyph-name="uni1EB9" unicode="&#x1eb9;" horiz-adv-x="939" 
d="M61 0zM500 828q-139 0 -208 -84q-48 -58 -63 -164h485q-9 109 -65 179q-57 69 -149 69zM838 55q-108 -73 -292 -73q-233 0 -359 133t-126 354q0 288 187 417q104 70 232 70q198 0 300 -134q86 -115 92 -302l-24 -60h-626q2 -166 89 -257.5t232 -91.5q110 0 252 59z
M377 -183q0 50 34.5 85.5t83.5 35.5t83.5 -35.5t34.5 -85.5t-34.5 -85.5t-83.5 -35.5t-83.5 35.5t-34.5 85.5z" />
    <glyph glyph-name="uni1EBC" unicode="&#x1ebc;" horiz-adv-x="1077" 
d="M180 0zM361 644v-504h614v-140h-795v1391h795v-139h-614v-468h418v-140h-418zM296 1560l-70 60q71 139 174 171q25 8 57.5 8t108 -44t109.5 -44t75 24t69 74l70 -60q-70 -137 -173 -172q-26 -8 -58.5 -8t-108 45t-109 45t-75 -24.5t-69.5 -74.5z" />
    <glyph glyph-name="uni1EBD" unicode="&#x1ebd;" horiz-adv-x="939" 
d="M61 0zM500 828q-139 0 -208 -84q-48 -58 -63 -164h485q-9 109 -65 179q-57 69 -149 69zM838 55q-108 -73 -292 -73q-233 0 -359 133t-126 354q0 288 187 417q104 70 232 70q198 0 300 -134q86 -115 92 -302l-24 -60h-626q2 -166 89 -257.5t232 -91.5q110 0 252 59z
M223 1107l-70 60q71 139 174 171q25 8 57.5 8t108 -44t109.5 -44t75 24t69 74l70 -60q-70 -137 -173 -172q-26 -8 -58.5 -8t-108 45t-109 45t-75 -24.5t-69.5 -74.5z" />
    <glyph glyph-name="uni1ECA" unicode="&#x1eca;" horiz-adv-x="541" 
d="M152 0zM361 1391v-1391h-181v1391h181zM152 -183q0 50 34.5 85.5t83.5 35.5t83.5 -35.5t34.5 -85.5t-34.5 -85.5t-83.5 -35.5t-83.5 35.5t-34.5 85.5z" />
    <glyph glyph-name="uni1ECB" unicode="&#x1ecb;" horiz-adv-x="547" 
d="M56 0zM56 -4zM383 934v-938h-161v810h-166v128h327zM184 1305q0 50 34.5 85.5t83.5 35.5t83.5 -35.5t34.5 -85.5t-34.5 -85.5t-83.5 -35.5t-83.5 35.5t-34.5 85.5zM184 -187q0 50 34.5 85.5t83.5 35.5t83.5 -35.5t34.5 -85.5t-34.5 -85.5t-83.5 -35.5t-83.5 35.5
t-34.5 85.5z" />
    <glyph glyph-name="uni1ECC" unicode="&#x1ecc;" horiz-adv-x="1444" 
d="M45 0zM435 1355.5q130 53.5 275 53.5q395 0 580 -290q109 -176 109 -416q0 -243 -113 -421q-120 -192 -324 -262q-109 -38 -254.5 -38t-276.5 55.5t-215 152.5q-171 201 -171 513q0 308 176 505q84 94 214 147.5zM992 1193q-112 78 -265.5 78t-266.5 -75
q-223 -149 -223 -493q0 -349 221 -502q112 -78 247 -78q249 0 380 174q125 167 125 406q0 337 -218 490zM609 -183q0 50 34.5 85.5t83.5 35.5t83.5 -35.5t34.5 -85.5t-34.5 -85.5t-83.5 -35.5t-83.5 35.5t-34.5 85.5z" />
    <glyph glyph-name="uni1ECD" unicode="&#x1ecd;" horiz-adv-x="1012" 
d="M61 0zM222 469q0 -97 24.5 -169.5t66 -112t90 -58t103.5 -18.5q112 0 193 77q89 85 89 281q0 195 -89 282q-82 76 -193 76q-113 0 -193 -76q-91 -87 -91 -282zM61 469q0 303 195 422q108 65 250 65q141 0 251 -65q58 -36 101 -90q93 -122 93 -332q0 -304 -194 -421
q-108 -66 -251 -66q-144 0 -250 66q-59 35 -102 90q-93 119 -93 331zM388 -183q0 50 34.5 85.5t83.5 35.5t83.5 -35.5t34.5 -85.5t-34.5 -85.5t-83.5 -35.5t-83.5 35.5t-34.5 85.5z" />
    <glyph glyph-name="uni1EE4" unicode="&#x1ee4;" horiz-adv-x="1310" 
d="M180 0zM681 -18q-501 0 -501 456v953h181v-905q0 -187 86 -275t227 -88q285 0 285 390v878h171v-922q0 -221 -118 -354t-331 -133zM537 -183q0 50 34.5 85.5t83.5 35.5t83.5 -35.5t34.5 -85.5t-34.5 -85.5t-83.5 -35.5t-83.5 35.5t-34.5 85.5z" />
    <glyph glyph-name="uni1EE5" unicode="&#x1ee5;" horiz-adv-x="1121" 
d="M164 0zM796 172q-90 -190 -293 -190q-82 0 -147.5 36.5t-103 78.5t-62.5 114q-26 72 -26 164v563h161v-507q0 -321 230 -321q59 0 108 32q75 48 118 158q15 38 15 60v578h161v-938h-161v172zM437 -183q0 50 34.5 85.5t83.5 35.5t83.5 -35.5t34.5 -85.5t-34.5 -85.5
t-83.5 -35.5t-83.5 35.5t-34.5 85.5z" />
    <glyph glyph-name="uni1EF8" unicode="&#x1ef8;" horiz-adv-x="1241" 
d="M59 0zM1014 1391h168l-471 -773v-618h-181v619l-471 772h178l389 -637zM348 1560l-70 60q71 139 174 171q25 8 57.5 8t108 -44t109.5 -44t75 24t69 74l70 -60q-70 -137 -173 -172q-26 -8 -58.5 -8t-108 45t-109 45t-75 -24.5t-69.5 -74.5z" />
    <glyph glyph-name="uni1EF9" unicode="&#x1ef9;" horiz-adv-x="1027" 
d="M0 0zM57 -322q53 -45 89 -45q61 0 107 54q63 71 134 224q19 41 46 100l-409 927h173l323 -731l324 731h162l-414 -920q-168 -386 -288 -472q-60 -42 -147 -42t-158 76zM243 1107l-70 60q71 139 174 171q25 8 57.5 8t108 -44t109.5 -44t75 24t69 74l70 -60
q-70 -137 -173 -172q-26 -8 -58.5 -8t-108 45t-109 45t-75 -24.5t-69.5 -74.5z" />
    <glyph glyph-name="uni2010" unicode="&#x2010;" horiz-adv-x="595" 
d="M534 449h-473v109h473v-109z" />
    <glyph glyph-name="uni2011" unicode="&#x2011;" horiz-adv-x="595" 
d="M61 449zM534 449h-473v109h473v-109z" />
    <glyph glyph-name="endash" unicode="&#x2013;" horiz-adv-x="765" 
d="M61 449zM690 449h-629v109h629v-109z" />
    <glyph glyph-name="emdash" unicode="&#x2014;" horiz-adv-x="1556" 
d="M1488 449h-1420v109h1420v-109z" />
    <glyph glyph-name="quoteleft" unicode="&#x2018;" horiz-adv-x="450" 
d="M221 1142q0 -18 49 -42q18 -8 33.5 -33t15.5 -65t-31.5 -75.5t-79.5 -35.5t-75.5 17.5t-38.5 45.5q-19 48 -19 109q0 159 194 346l82 -72q-130 -124 -130 -195z" />
    <glyph glyph-name="quoteright" unicode="&#x2019;" horiz-adv-x="450" 
d="M205 1158q0 18 -49 42q-18 8 -33.5 33t-15.5 65t31.5 75.5t79.5 35.5t75.5 -17.5t38.5 -45.5q19 -48 19 -109q0 -159 -194 -346l-82 72q130 124 130 195z" />
    <glyph glyph-name="quotesinglbase" unicode="&#x201a;" horiz-adv-x="450" 
d="M75 0zM205 -4q0 18 -49 42q-18 8 -33.5 33t-15.5 65t31.5 75.5t79.5 35.5t75.5 -17.5t38.5 -45.5q19 -48 19 -109q0 -159 -194 -346l-82 72q130 124 130 195z" />
    <glyph glyph-name="quotereversed" unicode="&#x201b;" horiz-adv-x="450" 
d="M221 1158q0 -71 130 -195l-82 -72q-116 112 -155 198.5t-39 164.5q0 155 126 155q55 0 86.5 -35.5t31.5 -75.5t-15.5 -65t-33.5 -33q-49 -24 -49 -42z" />
    <glyph glyph-name="quotedblleft" unicode="&#x201c;" horiz-adv-x="821" 
d="M75 891zM221 1142q0 -18 49 -42q18 -8 33.5 -33t15.5 -65t-31.5 -75.5t-79.5 -35.5t-75.5 17.5t-38.5 45.5q-19 48 -19 109q0 159 194 346l82 -72q-130 -124 -130 -195zM596 1142q0 -18 49 -42q18 -8 33.5 -33t15.5 -65t-31.5 -75.5t-79.5 -35.5t-75.5 17.5t-38.5 45.5
q-19 48 -19 109q0 159 194 346l82 -72q-130 -124 -130 -195z" />
    <glyph glyph-name="quotedblright" unicode="&#x201d;" horiz-adv-x="821" 
d="M75 891zM205 1158q0 18 -49 42q-18 8 -33.5 33t-15.5 65t31.5 75.5t79.5 35.5t75.5 -17.5t38.5 -45.5q19 -48 19 -109q0 -159 -194 -346l-82 72q130 124 130 195zM580 1158q0 18 -49 42q-18 8 -33.5 33t-15.5 65t31.5 75.5t79.5 35.5t75.5 -17.5t38.5 -45.5
q19 -48 19 -109q0 -159 -194 -346l-82 72q130 124 130 195z" />
    <glyph glyph-name="quotedblbase" unicode="&#x201e;" horiz-adv-x="821" 
d="M75 0zM580 -4q0 18 -49 42q-18 8 -33.5 33t-15.5 65t31.5 75.5t79.5 35.5t75.5 -17.5t38.5 -45.5q19 -48 19 -109q0 -159 -194 -346l-82 72q130 124 130 195zM205 -4q0 18 -49 42q-18 8 -33.5 33t-15.5 65t31.5 75.5t79.5 35.5t75.5 -17.5t38.5 -45.5q19 -48 19 -109
q0 -159 -194 -346l-82 72q130 124 130 195z" />
    <glyph glyph-name="uni201F" unicode="&#x201f;" horiz-adv-x="821" 
d="M75 891zM221 1158q0 -71 130 -195l-82 -72q-116 112 -155 198.5t-39 164.5q0 155 126 155q55 0 86.5 -35.5t31.5 -75.5t-15.5 -65t-33.5 -33q-49 -24 -49 -42zM596 1158q0 -71 130 -195l-82 -72q-116 112 -155 198.5t-39 164.5q0 155 126 155q55 0 86.5 -35.5t31.5 -75.5
t-15.5 -65t-33.5 -33q-49 -24 -49 -42z" />
    <glyph glyph-name="bullet" unicode="&#x2022;" horiz-adv-x="466" 
d="M63 504q0 72 50 123t120 51t120 -51t50 -123t-50 -123t-120 -51t-120 51t-50 123z" />
    <glyph glyph-name="guilsinglleft" unicode="&#x2039;" horiz-adv-x="572" 
d="M187 525l280 -257l-33 -100l-416 357l416 357l33 -100z" />
    <glyph glyph-name="guilsinglright" unicode="&#x203a;" horiz-adv-x="572" 
d="M385 525l-280 257l33 100l416 -357l-416 -357l-33 100z" />
    <glyph glyph-name="uni20A6" unicode="&#x20a6;" horiz-adv-x="1305" 
d="M944 350v126h-78zM361 1296l307 -498h276v498h181v-498h127v-109h-127v-104h127v-109h-127v-476h-181l-294 476h-289v-476h-181v476h-127v109h127v104h-127v109h127v498h181zM361 945v-147h91zM361 689v-104h222l-64 104h-158zM944 689h-209l64 -104h145v104z" />
    <glyph glyph-name="Euro" unicode="&#x20ac;" horiz-adv-x="1398" 
d="M1326 115q-177 -133 -471 -133q-220 0 -383 120q-172 126 -218 374h-193v109h181q-2 28 -2 54.5t1 49.5h-127v109h141q31 152 119 267t218.5 177.5t284.5 62.5q256 0 399 -99q20 -14 50 -36l-88 -106q-128 112 -323 112t-325 -100.5t-172 -277.5h584v-109h-600
q-1 -23 -1 -49.5t2 -54.5h545v-109h-531q55 -263 281 -338q82 -27 185 -27q183 0 365 106z" />
    <glyph glyph-name="uni20B5" unicode="&#x20b5;" horiz-adv-x="1146" 
d="M654 1176q134 0 239.5 -37.5t168.5 -84.5l-80 -109q-26 26 -118 64t-186 38q-23 0 -46 -2v-933q14 -1 28 -1q165 0 331 96l71 -104q-159 -121 -428 -121h-2v-162h-117v173q-201 38 -320 195t-119 380.5t122.5 384t316.5 207.5v178h117v-162h22zM515 132v886
q-126 -48 -202 -163t-76 -278t71.5 -283t206.5 -162z" />
    <glyph glyph-name="uni2C6D" unicode="&#x2c6d;" horiz-adv-x="1319" 
d="M958 1209q-84 60 -206.5 60t-203 -31t-137.5 -86.5t-97 -131.5q-77 -151 -77 -355q0 -334 152 -469q82 -73 200 -73q218 0 369 288v798zM958 170q-167 -188 -374 -188q-105 0 -179 24.5t-140.5 78.5t-114.5 133q-105 174 -105 458q0 139 37.5 260t99.5 206t142 146
q158 121 341 121q266 0 474 -144v-1265h-181v170z" />
    <glyph glyph-name="uni0268.dotless" horiz-adv-x="605" 
d="M222 558v252h-166v128h327v-380h161v-109h-161v-449h-161v449h-161v109h161z" />
    <glyph glyph-name="glyph371" horiz-adv-x="1121" 
d="M796 172q-90 -190 -293 -190q-82 0 -147.5 36.5t-103 78.5t-62.5 114q-26 72 -26 164v563h161v-507q0 -321 230 -321q59 0 108 32q76 48 118 158q15 38 15 60v578h161v-938h-161v172z" />
    <glyph glyph-name=".ttfautohint" horiz-adv-x="1121" 
d="M0 0z" />
    </font>
</defs>
</svg>
