<?xml version="1.0" standalone="no"?>
<!DOCTYPE svg PUBLIC "-//W3C//DTD SVG 1.1//EN" "http://www.w3.org/Graphics/SVG/1.1/DTD/svg11.dtd" >
<svg xmlns="http://www.w3.org/2000/svg" xmlns:xlink="http://www.w3.org/1999/xlink" version="1.1">
<metadata>
Created by FontForge 20161013 at Thu Apr 28 14:57:29 2011
 By ,,,
Copyright (c) 2011 by vernon adams. All rights reserved.
</metadata>
<defs>
<font id="Monofett" horiz-adv-x="1184" >
  <font-face 
    font-family="Monofett"
    font-weight="400"
    font-stretch="normal"
    units-per-em="2048"
    panose-1="2 0 5 6 2 0 0 2 0 3"
    ascent="1638"
    descent="-410"
    x-height="1370"
    cap-height="1370"
    bbox="-4 -315 1315 2007"
    underline-thickness="41"
    underline-position="-312"
    unicode-range="U+000D-FFFFF"
  />
<missing-glyph horiz-adv-x="2048" 
 />
    <glyph glyph-name=".notdef" horiz-adv-x="2048" 
 />
    <glyph glyph-name="glyph1" horiz-adv-x="0" 
 />
    <glyph glyph-name="uni000D" unicode="&#xd;" horiz-adv-x="295" 
 />
    <glyph glyph-name="space" unicode=" " horiz-adv-x="295" 
 />
    <glyph glyph-name="exclam" unicode="!" horiz-adv-x="869" 
d="M438 1370q99 -2 179.5 -32.5t137.5 -82t87.5 -120t30.5 -146.5v-608q0 -78 -31 -147.5t-89 -121.5t-139.5 -82t-183.5 -30q-100 0 -180 30.5t-136.5 83t-87 121.5t-30.5 146v608q0 78 31 147.5t88.5 121.5t139.5 82t183 30zM371 1280l41 -653h59l41 653h-141zM389 438
h123l-16 107h-107v-107z" />
    <glyph glyph-name="quotedbl" unicode="&#x22;" horiz-adv-x="869" 
d="M438 1370q99 -2 179.5 -32.5t137.5 -82t87.5 -120t30.5 -146.5v-608q0 -78 -31 -147.5t-89 -121.5t-139.5 -82t-183.5 -30q-100 0 -180 30.5t-136.5 83t-87 121.5t-30.5 146v608q0 78 31 147.5t88.5 121.5t139.5 82t183 30zM324 1280v-256h100v256h-100zM473 1280v-256
h101v256h-101z" />
    <glyph glyph-name="numbersign" unicode="#" horiz-adv-x="989" 
d="M551 1370q101 0 183 -30t139.5 -82t88.5 -121.5t31 -147.5v-608q0 -78 -31 -147.5t-88.5 -121.5t-139.5 -82t-183 -30h-113q-101 0 -183 30t-139.5 82t-88.5 121.5t-31 147.5v608q0 78 31 147.5t88.5 121.5t139.5 82t183 30h113zM674 1055l12 129h-104l-15 -129h-90
l15 129h-107l-14 -129h-66l-10 -105h66l-23 -221h-66l-12 -106h66l-13 -129h105l14 129h90l-12 -129h104l15 129h63l11 106h-64l23 221h65l10 105h-63zM535 729h-93l25 221h90z" />
    <glyph glyph-name="dollar" unicode="$" 
d="M498 559l-62 10l-16 78l-109 -10l19 -109l63 -63l103 -12h69v-119h82v119h58l102 12l63 63l15 86v103l-15 86l-63 63l-104 11h-56v215h62l61 -13l19 -75l104 10l-16 106l-66 64l-100 14h-64v82h-82v-82h-71l-101 -14l-65 -64l-13 -84v-104l13 -84l65 -64l101 -12h71v-213
h-67zM496 877l-62 12q-5 17 -7 30.5t-7 28.5v72l14 59l66 13h65v-215h-69zM647 772h56l61 -10q3 -16 7 -28.5t7 -26.5v-82q-2 -13 -6.5 -28t-7.5 -28l-66 -10h-51v213zM746 1370q101 0 183 -30t139.5 -82t88.5 -121.5t31 -147.5v-608q0 -78 -31 -147.5t-88.5 -121.5
t-139.5 -82t-183 -30h-308q-101 0 -183 30t-139.5 82t-88.5 121.5t-31 147.5v608q0 78 31 147.5t88.5 121.5t139.5 82t183 30h308z" />
    <glyph glyph-name="percent" unicode="%" 
d="M653 1231l-208 -713l100 -24l211 706zM514 1096l-8 57l-61 64l-76 10h-43l-70 -15l-65 -57l-11 -59v-72l9 -57l63 -64l74 -10h45l67 14l66 58l10 59v72zM399 1006l-36 -9h-31l-37 9l-10 32v43l10 33q12 3 20 4t19 4h29l36 -8l11 -33v-43zM1030 696l-12 60l-66 57l-69 14
h-43l-74 -10l-63 -63l-9 -58v-71l11 -60l65 -57l68 -14h45l74 10l63 63l10 58v71zM914 606l-37 -8h-31l-37 8l-10 33v43l10 33l37 8h29l39 -8l10 -33v-43zM746 1370q101 0 183 -30t139.5 -82t88.5 -121.5t31 -147.5v-608q0 -78 -31 -147.5t-88.5 -121.5t-139.5 -82t-183 -30
h-308q-101 0 -183 30t-139.5 82t-88.5 121.5t-31 147.5v608q0 78 31 147.5t88.5 121.5t139.5 82t183 30h308z" />
    <glyph glyph-name="ampersand" unicode="&#x26;" 
d="M746 1370q101 0 183 -30t139.5 -82t88.5 -121.5t31 -147.5v-608q0 -78 -31 -147.5t-88.5 -121.5t-139.5 -82t-183 -30h-308q-101 0 -183 30t-139.5 82t-88.5 121.5t-31 147.5v608q0 78 31 147.5t88.5 121.5t139.5 82t183 30h308zM801 1026v-98h-246l-65 10l-15 59v111
l10 55l70 11h166l70 -11l39 103l-103 14h-178l-102 -14l-64 -64l-14 -84v-137l35 -63l65 -44l-65 -45l-35 -63v-152l14 -86l66 -63l100 -12h178l103 12l63 63l14 86v207l84 107h-84v98h-106zM801 625l-14 -56l-66 -10h-166l-65 10l-15 60v127l10 55l70 10h246v-196z" />
    <glyph glyph-name="quotesingle" unicode="'" horiz-adv-x="869" 
d="M438 1370q99 -2 179.5 -32.5t137.5 -82t87.5 -120t30.5 -146.5v-608q0 -78 -31 -147.5t-89 -121.5t-139.5 -82t-183.5 -30q-100 0 -180 30.5t-136.5 83t-87 121.5t-30.5 146v608q0 78 31 147.5t88.5 121.5t139.5 82t183 30zM391 1280v-256h101v256h-101z" />
    <glyph glyph-name="parenleft" unicode="(" horiz-adv-x="991" 
d="M633 430h-117l-65 10l-15 60v606q5 15 7.5 29.5t7.5 29.5l65 11h117v106h-123l-100 -12l-66 -66l-12 -84v-635l12 -86l66 -63l100 -12h123v106zM553 1370q101 0 183 -30t139.5 -82t88.5 -121.5t31 -147.5v-608q0 -78 -31 -147.5t-88.5 -121.5t-139.5 -82t-183 -30h-115
q-101 0 -183 30t-139.5 82t-88.5 121.5t-31 147.5v608q0 78 31 147.5t88.5 121.5t139.5 82t183 30h115z" />
    <glyph glyph-name="parenright" unicode=")" horiz-adv-x="991" 
d="M358 430v-106h123l100 12l66 63l12 86v635l-12 84l-66 66l-100 12h-123v-106h117l65 -11q5 -15 7.5 -29.5t7.5 -29.5v-606l-15 -60l-65 -10h-117zM438 1370h115q101 0 183 -30t139.5 -82t88.5 -121.5t31 -147.5v-608q0 -78 -31 -147.5t-88.5 -121.5t-139.5 -82t-183 -30
h-115q-101 0 -183 30t-139.5 82t-88.5 121.5t-31 147.5v608q0 78 31 147.5t88.5 121.5t139.5 82t183 30z" />
    <glyph glyph-name="asterisk" unicode="*" horiz-adv-x="877" 
d="M727 1096h-153l79 133l-92 53l-82 -133l-80 133l-94 -53l78 -133h-149v-107h151l-80 -133l94 -53q17 29 39.5 65t40.5 68l82 -133l92 53l-77 133h151v107zM438 0q-101 0 -183 30t-139.5 82t-88.5 121.5t-31 147.5v608q0 78 31 147.5t88.5 121.5t139.5 82t183 30
q102 0 183.5 -30t139.5 -82t89 -121.5t31 -147.5v-608q0 -78 -31 -147.5t-89 -121.5t-139.5 -82t-183.5 -30z" />
    <glyph glyph-name="plus" unicode="+" horiz-adv-x="877" 
d="M694 1085h-196v197h-105v-197h-194v-106h194v-195h105v195h196v106zM438 0q-101 0 -183 30t-139.5 82t-88.5 121.5t-31 147.5v608q0 78 31 147.5t88.5 121.5t139.5 82t183 30q102 0 183.5 -30t139.5 -82t89 -121.5t31 -147.5v-608q0 -78 -31 -147.5t-89 -121.5
t-139.5 -82t-183.5 -30z" />
    <glyph glyph-name="comma" unicode="," horiz-adv-x="877" 
d="M438 0q-101 0 -183 30t-139.5 82t-88.5 121.5t-31 147.5v608q0 78 31 147.5t88.5 121.5t139.5 82t183 30q102 0 183.5 -30t139.5 -82t89 -121.5t31 -147.5v-608q0 -78 -31 -147.5t-89 -121.5t-139.5 -82t-183.5 -30zM463 324l61 129v129h-151v-129h65l-39 -101z" />
    <glyph glyph-name="hyphen" unicode="-" horiz-adv-x="877" 
d="M627 918v108h-377v-108h377zM438 0q-101 0 -183 30t-139.5 82t-88.5 121.5t-31 147.5v608q0 78 31 147.5t88.5 121.5t139.5 82t183 30q102 0 183.5 -30t139.5 -82t89 -121.5t31 -147.5v-608q0 -78 -31 -147.5t-89 -121.5t-139.5 -82t-183.5 -30z" />
    <glyph glyph-name="period" unicode="." horiz-adv-x="877" 
d="M504 453v129h-131v-129h131zM438 0q-101 0 -183 30t-139.5 82t-88.5 121.5t-31 147.5v608q0 78 31 147.5t88.5 121.5t139.5 82t183 30q102 0 183.5 -30t139.5 -82t89 -121.5t31 -147.5v-608q0 -78 -31 -147.5t-89 -121.5t-139.5 -82t-183.5 -30z" />
    <glyph glyph-name="slash" unicode="/" horiz-adv-x="877" 
d="M438 1370q102 0 183.5 -30t139.5 -82t89 -121.5t31 -147.5v-608q0 -78 -31 -147.5t-89 -121.5t-139.5 -82t-183.5 -30q-101 0 -183 30t-139.5 82t-88.5 121.5t-31 147.5v608q0 78 31 147.5t88.5 121.5t139.5 82t183 30zM453 1249l-138 -823h109l137 823h-108z" />
    <glyph glyph-name="zero" unicode="0" 
d="M746 1370q101 0 183 -30t139.5 -82t88.5 -121.5t31 -147.5v-608q0 -78 -31 -147.5t-88.5 -121.5t-139.5 -82t-183 -30h-308q-101 0 -183 30t-139.5 82t-88.5 121.5t-31 147.5v608q0 78 31 147.5t88.5 121.5t139.5 82t183 30h308zM946 1118l-14 84l-64 64l-102 14h-268
l-103 -14l-63 -64l-12 -84v-504l12 -86l65 -63l101 -12h268l102 12l64 63l14 86v504zM825 569l-65 -10h-256l-66 10l-14 60v479l10 55l70 11h256l70 -11l10 -59v-479z" />
    <glyph glyph-name="one" unicode="1" 
d="M674 1282h-90l-146 -51v-107l129 45v-714h107v827zM746 1370q101 0 183 -30t139.5 -82t88.5 -121.5t31 -147.5v-608q0 -78 -31 -147.5t-88.5 -121.5t-139.5 -82t-183 -30h-308q-101 0 -183 30t-139.5 82t-88.5 121.5t-31 147.5v608q0 78 31 147.5t88.5 121.5t139.5 82
t183 30h308z" />
    <glyph glyph-name="two" unicode="2" 
d="M746 1370q101 0 183 -30t139.5 -82t88.5 -121.5t31 -147.5v-608q0 -78 -31 -147.5t-88.5 -121.5t-139.5 -82t-183 -30h-308q-101 0 -183 30t-139.5 82t-88.5 121.5t-31 147.5v608q0 78 31 147.5t88.5 121.5t139.5 82t183 30h308zM922 1118l-15 84l-63 64l-103 14h-241
l-103 -14l-63 -64l-16 -106l106 -11l12 78l70 11h229l70 -11l10 -59v-125q-5 -16 -7 -30t-7 -29l-66 -17h-239l-117 -33l-45 -45l-12 -84v-225l63 -63h502v104h-461v172q3 12 4 27.5t4 29.5l72 17h240l116 33l45 43l15 86v153z" />
    <glyph glyph-name="three" unicode="3" 
d="M746 1370q101 0 183 -30t139.5 -82t88.5 -121.5t31 -147.5v-608q0 -78 -31 -147.5t-88.5 -121.5t-139.5 -82t-183 -30h-308q-101 0 -183 30t-139.5 82t-88.5 121.5t-31 147.5v608q0 78 31 147.5t88.5 121.5t139.5 82t183 30h308zM911 762l-14 84q-5 3 -12 10l-12 12
l24 25l14 84v139l-14 84l-63 64l-103 14h-266l-102 -14l-64 -64l-18 -106l108 -11l13 78l69 10h254l70 -10l10 -59v-121q-2 -12 -6.5 -27.5t-7.5 -27.5l-66 -11h-278v-94h280l68 -8l10 -59v-131q-2 -13 -6.5 -28t-7.5 -28l-66 -10h-258l-61 10l-17 78l-108 -10l18 -109
l64 -63l102 -12h266l103 12l63 63l14 86v150z" />
    <glyph glyph-name="four" unicode="4" 
d="M746 1370q101 0 183 -30t139.5 -82t88.5 -121.5t31 -147.5v-608q0 -78 -31 -147.5t-88.5 -121.5t-139.5 -82t-183 -30h-308q-101 0 -183 30t-139.5 82t-88.5 121.5t-31 147.5v608q0 78 31 147.5t88.5 121.5t139.5 82t183 30h308zM541 647h170v-194h106v194h154v107h-154
v526h-106v-528h-164l-70 10l-10 59v459h-106v-473l14 -84l63 -64z" />
    <glyph glyph-name="five" unicode="5" 
d="M746 1370q101 0 183 -30t139.5 -82t88.5 -121.5t31 -147.5v-608q0 -78 -31 -147.5t-88.5 -121.5t-139.5 -82t-183 -30h-308q-101 0 -183 30t-139.5 82t-88.5 121.5t-31 147.5v608q0 78 31 147.5t88.5 121.5t139.5 82t183 30h308zM936 797l-14 84l-64 63l-100 14h-246
l-74 -12v230h457v104h-500l-63 -63v-377h102l84 12h234l67 -10l11 -60v-159q-2 -13 -7 -27t-8 -27l-59 -12h-242l-63 12l-11 47l-114 -12l22 -78l64 -61l100 -12h246l100 12l64 63l14 84v185z" />
    <glyph glyph-name="six" unicode="6" 
d="M746 1370q101 0 183 -30t139.5 -82t88.5 -121.5t31 -147.5v-608q0 -78 -31 -147.5t-88.5 -121.5t-139.5 -82t-183 -30h-308q-101 0 -183 30t-139.5 82t-88.5 121.5t-31 147.5v608q0 78 31 147.5t88.5 121.5t139.5 82t183 30h308zM961 799l-15 84l-63 63l-103 15h-268
l-74 -13v160l11 55h67h258l105 -12l20 104l-117 25h-270l-102 -14l-64 -64l-14 -84v-506l14 -84l64 -63l102 -12h268l101 12l65 63l15 84v187zM840 569l-66 -12h-260l-61 12q-2 12 -7.5 31.5t-7.5 28.5v159l11 56l69 10h256l70 -10l10 -60v-155z" />
    <glyph glyph-name="seven" unicode="7" 
d="M852 1194v86h-432v-106h311l-262 -721h123zM746 1370q101 0 183 -30t139.5 -82t88.5 -121.5t31 -147.5v-608q0 -78 -31 -147.5t-88.5 -121.5t-139.5 -82t-183 -30h-308q-101 0 -183 30t-139.5 82t-88.5 121.5t-31 147.5v608q0 78 31 147.5t88.5 121.5t139.5 82t183 30
h308z" />
    <glyph glyph-name="eight" unicode="8" 
d="M746 1370q101 0 183 -30t139.5 -82t88.5 -121.5t31 -147.5v-608q0 -78 -31 -147.5t-88.5 -121.5t-139.5 -82t-183 -30h-308q-101 0 -183 30t-139.5 82t-88.5 121.5t-31 147.5v608q0 78 31 147.5t88.5 121.5t139.5 82t183 30h308zM762 1280h-268l-103 -14l-63 -64l-15 -84
v-137l15 -84l24 -23l-24 -24l-15 -84v-152l15 -86l65 -63l101 -12h268l100 12l66 63l14 86v152l-14 84l-25 24l25 23l14 84v137l-14 84l-64 64zM756 559h-256l-66 10l-14 60v127l10 55l70 10h256l69 -10l11 -55v-127l-15 -60zM756 928h-256l-66 10l-14 59v111l10 55l70 11
h256l69 -11l11 -55v-111l-15 -59z" />
    <glyph glyph-name="nine" unicode="9" 
d="M746 1370q101 0 183 -30t139.5 -82t88.5 -121.5t31 -147.5v-608q0 -78 -31 -147.5t-88.5 -121.5t-139.5 -82t-183 -30h-308q-101 0 -183 30t-139.5 82t-88.5 121.5t-31 147.5v608q0 78 31 147.5t88.5 121.5t139.5 82t183 30h308zM301 934l14 -84l64 -64l102 -14h269
l73 12v-159l-10 -56h-67h-258l-105 13l-20 -105l116 -24h271l102 14l64 63l14 84v506l-14 84l-64 64l-102 12h-269l-100 -12l-66 -64l-14 -84v-186zM422 1163l66 13h260l61 -13l14 -53v-166l-10 -55l-69 -10h-256l-70 10l-10 59v156z" />
    <glyph glyph-name="colon" unicode=":" horiz-adv-x="877" 
d="M504 453v129h-131v-129h131zM438 0q-101 0 -183 30t-139.5 82t-88.5 121.5t-31 147.5v608q0 78 31 147.5t88.5 121.5t139.5 82t183 30q102 0 183.5 -30t139.5 -82t89 -121.5t31 -147.5v-608q0 -78 -31 -147.5t-89 -121.5t-139.5 -82t-183.5 -30zM504 741v129h-131v-129
h131z" />
    <glyph glyph-name="semicolon" unicode=";" horiz-adv-x="877" 
d="M438 0q-101 0 -183 30t-139.5 82t-88.5 121.5t-31 147.5v608q0 78 31 147.5t88.5 121.5t139.5 82t183 30q102 0 183.5 -30t139.5 -82t89 -121.5t31 -147.5v-608q0 -78 -31 -147.5t-89 -121.5t-139.5 -82t-183.5 -30zM463 324l61 129v129h-151v-129h65l-39 -101zM520 741
v129h-131v-129h131z" />
    <glyph glyph-name="less" unicode="&#x3c;" horiz-adv-x="989" 
d="M488 1559h28q109 0 197.5 -32t150.5 -87.5t95.5 -129t33.5 -157.5v-649q0 -92 -36 -167.5t-102.5 -129t-161 -82.5t-212.5 -29q-111 0 -200.5 31.5t-152.5 86.5t-97.5 129.5t-34.5 160.5v649q0 84 33 157.5t94 129t148.5 87.5t195.5 32h21zM596 408l47 45l-299 344
l299 344l-47 47l-326 -377v-27z" />
    <glyph glyph-name="equal" unicode="=" horiz-adv-x="989" 
d="M469 96q-109 0 -196.5 32t-149 87.5t-94.5 130t-33 158.5v649q0 84 33.5 157.5t95.5 129t150 87.5t198 32h49q108 0 195.5 -32t148.5 -87.5t94 -129t33 -157.5v-649q0 -86 -34 -160.5t-97 -129.5t-152 -86.5t-200 -31.5h-41zM709 768h-391v-68h391v68zM709 963h-391v-64
h391v64z" />
    <glyph glyph-name="greater" unicode="&#x3e;" horiz-adv-x="989" 
d="M469 96q-109 0 -196.5 32t-149 87.5t-94.5 130t-33 158.5v649q0 84 33.5 157.5t95.5 129t150 87.5t198 32h49q108 0 195.5 -32t148.5 -87.5t94 -129t33 -157.5v-649q0 -86 -34 -160.5t-97 -129.5t-152 -86.5t-200 -31.5h-41zM719 784v27l-326 377l-47 -47l299 -344
l-299 -344l47 -45z" />
    <glyph glyph-name="question" unicode="?" 
d="M572 565v-102h106v102h-106zM582 818v-196h86v165h85l99 14l57 57l15 82v176l-15 82l-57 57l-98 15h-205l-98 -15l-57 -57l-17 -93l87 -8q3 16 5.5 37.5t5.5 38.5l276 11l76 -11l11 -67v-156l-11 -67l-203 -11zM746 1370q101 0 183 -30t139.5 -82t88.5 -121.5t31 -147.5
v-608q0 -78 -31 -147.5t-88.5 -121.5t-139.5 -82t-183 -30h-308q-101 0 -183 30t-139.5 82t-88.5 121.5t-31 147.5v608q0 78 31 147.5t88.5 121.5t139.5 82t183 30h308z" />
    <glyph glyph-name="at" unicode="@" 
d="M746 1370q101 0 183 -30t139.5 -82t88.5 -121.5t31 -147.5v-608q0 -78 -31 -147.5t-88.5 -121.5t-139.5 -82t-183 -30h-308q-101 0 -183 30t-139.5 82t-88.5 121.5t-31 147.5v608q0 78 31 147.5t88.5 121.5t139.5 82t183 30h308zM490 764l100 12h43l104 -10v-107
l-108 -12h-39l-92 12l-17 56zM832 915l-17 93l-69 69l-109 13h-82l-119 -25l19 -72l102 21h78l86 -15l16 -57v-94l-100 12h-55l-109 -14l-69 -70l-18 -45v-35l18 -47l69 -69l109 -13h55l117 29l49 -100h190l41 69l15 94q-1 10 -1.5 25t-0.5 41v65.5v98.5q0 39 -4 84t-17 90
t-38 86.5t-67.5 74t-105 51.5t-149.5 19q-135 0 -223 -20t-141.5 -54t-79 -78.5t-34.5 -93.5q-8 -43 -8 -87v-15q2 -15 2 -99q0 -82 2.5 -151.5t13.5 -126t33 -99t61.5 -71.5t98.5 -44l264 -15l7 90q-53 -3 -96 -3q-107 0 -167 19t-89 65.5t-35.5 125.5t-6.5 199v110
q0 48 10.5 94t50.5 82.5t119.5 59t217.5 22.5q97 0 155 -26.5t89 -69t41 -95t10 -104.5v-284l-17 -60h-96l-16 60v290z" />
    <glyph glyph-name="A" unicode="A" 
d="M746 1370q101 0 183 -30t139.5 -82t88.5 -121.5t31 -147.5v-608q0 -78 -31 -147.5t-88.5 -121.5t-139.5 -82t-183 -30h-308q-101 0 -183 30t-139.5 82t-88.5 121.5t-31 147.5v608q0 78 31 147.5t88.5 121.5t139.5 82t183 30h308zM838 453h114l-79 745l-62 62l-133 20
h-107l-133 -20l-61 -62l-82 -745h119l16 213l10 92h369l10 -92zM768 1159q7 -81 16 -153t17 -152h-352l30 305q28 3 48.5 7t48.5 8h98z" />
    <glyph glyph-name="B" unicode="B" 
d="M746 1370q101 0 183 -30t139.5 -82t88.5 -121.5t31 -147.5v-608q0 -78 -31 -147.5t-88.5 -121.5t-139.5 -82t-183 -30h-308q-101 0 -183 30t-139.5 82t-88.5 121.5t-31 147.5v608q0 78 31 147.5t88.5 121.5t139.5 82t183 30h308zM907 770l-19 74l-80 35l80 30l19 76v133
l-14 84l-63 64l-103 14h-420v-827h420l103 12l63 63l14 84v158zM787 569l-66 -10h-307v264h309l68 -8l10 -59v-133zM787 940l-66 -12h-307v246h307l70 -11l-4 -59l14 -111z" />
    <glyph glyph-name="C" unicode="C" 
d="M733 1280h-241l-103 -12l-63 -64l-15 -84v-508l15 -84l65 -63l101 -12h241l117 14l-25 108l-94 -16h-233l-66 10l-14 60v481l10 55l70 11h229l103 -17l20 107zM746 1370q101 0 183 -30t139.5 -82t88.5 -121.5t31 -147.5v-608q0 -78 -31 -147.5t-88.5 -121.5t-139.5 -82
t-183 -30h-308q-101 0 -183 30t-139.5 82t-88.5 121.5t-31 147.5v608q0 78 31 147.5t88.5 121.5t139.5 82t183 30h308z" />
    <glyph glyph-name="D" unicode="D" 
d="M746 1370q101 0 183 -30t139.5 -82t88.5 -121.5t31 -147.5v-608q0 -78 -31 -147.5t-88.5 -121.5t-139.5 -82t-183 -30h-308q-101 0 -183 30t-139.5 82t-88.5 121.5t-31 147.5v608q0 78 31 147.5t88.5 121.5t139.5 82t183 30h308zM954 1118l-14 84l-63 64l-103 14h-446
v-827h446l103 12l63 63l14 86v504zM834 569l-66 -10h-336v615h336l70 -11l10 -59v-479z" />
    <glyph glyph-name="E" unicode="E" 
d="M905 559h-399v254h334v105h-334v256h385v106h-489v-827h503v106zM746 1370q101 0 183 -30t139.5 -82t88.5 -121.5t31 -147.5v-608q0 -78 -31 -147.5t-88.5 -121.5t-139.5 -82t-183 -30h-308q-101 0 -183 30t-139.5 82t-88.5 121.5t-31 147.5v608q0 78 31 147.5
t88.5 121.5t139.5 82t183 30h308z" />
    <glyph glyph-name="F" unicode="F" 
d="M838 936h-334v238h391v106h-498v-827h107v378h334v105zM746 1370q101 0 183 -30t139.5 -82t88.5 -121.5t31 -147.5v-608q0 -78 -31 -147.5t-88.5 -121.5t-139.5 -82t-183 -30h-308q-101 0 -183 30t-139.5 82t-88.5 121.5t-31 147.5v608q0 78 31 147.5t88.5 121.5
t139.5 82t183 30h308z" />
    <glyph glyph-name="G" unicode="G" 
d="M524 1176h260l103 -17l20 107l-116 14h-269l-102 -16l-64 -64l-14 -84v-502l14 -86l66 -63l100 -12h250l101 12l65 63l14 86v263h-290v-107h184v-141q-5 -16 -7 -30t-7 -30l-66 -10h-242l-61 10l-14 64v473l10 55zM746 1370q101 0 183 -30t139.5 -82t88.5 -121.5
t31 -147.5v-608q0 -78 -31 -147.5t-88.5 -121.5t-139.5 -82t-183 -30h-308q-101 0 -183 30t-139.5 82t-88.5 121.5t-31 147.5v608q0 78 31 147.5t88.5 121.5t139.5 82t183 30h308z" />
    <glyph glyph-name="H" unicode="H" 
d="M954 1280h-104v-350h-416v350h-106v-827h106v372h416v-372h104v827zM746 1370q101 0 183 -30t139.5 -82t88.5 -121.5t31 -147.5v-608q0 -78 -31 -147.5t-88.5 -121.5t-139.5 -82t-183 -30h-308q-101 0 -183 30t-139.5 82t-88.5 121.5t-31 147.5v608q0 78 31 147.5
t88.5 121.5t139.5 82t183 30h308z" />
    <glyph glyph-name="I" unicode="I" 
d="M358 559v-106h578v106h-235v615h235v106h-578v-106h236v-615h-236zM746 1370q101 0 183 -30t139.5 -82t88.5 -121.5t31 -147.5v-608q0 -78 -31 -147.5t-88.5 -121.5t-139.5 -82t-183 -30h-308q-101 0 -183 30t-139.5 82t-88.5 121.5t-31 147.5v608q0 78 31 147.5
t88.5 121.5t139.5 82t183 30h308z" />
    <glyph glyph-name="J" unicode="J" 
d="M746 1370q101 0 183 -30t139.5 -82t88.5 -121.5t31 -147.5v-608q0 -78 -31 -147.5t-88.5 -121.5t-139.5 -82t-183 -30h-308q-101 0 -183 30t-139.5 82t-88.5 121.5t-31 147.5v608q0 78 31 147.5t88.5 121.5t139.5 82t183 30h308zM682 1280v-649l-14 -60l-66 -12h-149
v-106h155l101 14l78 61v752h-105z" />
    <glyph glyph-name="K" unicode="K" 
d="M654 885l344 340l-72 84l-412 -408v379h-106v-827h106v313q17 14 29.5 25.5t28.5 25.5l327 -383l86 74zM746 1370q101 0 183 -30t139.5 -82t88.5 -121.5t31 -147.5v-608q0 -78 -31 -147.5t-88.5 -121.5t-139.5 -82t-183 -30h-308q-101 0 -183 30t-139.5 82t-88.5 121.5
t-31 147.5v608q0 78 31 147.5t88.5 121.5t139.5 82t183 30h308z" />
    <glyph glyph-name="L" unicode="L" 
d="M862 559h-307v721h-106v-827h413v106zM746 1370q101 0 183 -30t139.5 -82t88.5 -121.5t31 -147.5v-608q0 -78 -31 -147.5t-88.5 -121.5t-139.5 -82t-183 -30h-308q-101 0 -183 30t-139.5 82t-88.5 121.5t-31 147.5v608q0 78 31 147.5t88.5 121.5t139.5 82t183 30h308z
" />
    <glyph glyph-name="M" unicode="M" 
d="M746 1370q101 0 183 -30t139.5 -82t88.5 -121.5t31 -147.5v-608q0 -78 -31 -147.5t-88.5 -121.5t-139.5 -82t-183 -30h-308q-101 0 -183 30t-139.5 82t-88.5 121.5t-31 147.5v608q0 78 31 147.5t88.5 121.5t139.5 82t183 30h308zM590 1264l-55 16h-131l-84 -14l-64 -64
v-749h107v712q14 3 25 4t24 5h114q11 -4 21.5 -5t21.5 -4v-424h107v424l43 9h115q12 -4 24 -5t25 -4v-712h106v749l-63 64l-84 14h-131l-54 -16l-34 -69z" />
    <glyph glyph-name="N" unicode="N" 
d="M932 1120l-14 84l-64 64l-102 12h-250l-180 -25v-802h106v710l78 13h240l69 -11l10 -59v-653h107v667zM746 1370q101 0 183 -30t139.5 -82t88.5 -121.5t31 -147.5v-608q0 -78 -31 -147.5t-88.5 -121.5t-139.5 -82t-183 -30h-308q-101 0 -183 30t-139.5 82t-88.5 121.5
t-31 147.5v608q0 78 31 147.5t88.5 121.5t139.5 82t183 30h308z" />
    <glyph glyph-name="O" unicode="O" 
d="M746 1370q101 0 183 -30t139.5 -82t88.5 -121.5t31 -147.5v-608q0 -78 -31 -147.5t-88.5 -121.5t-139.5 -82t-183 -30h-308q-101 0 -183 30t-139.5 82t-88.5 121.5t-31 147.5v608q0 78 31 147.5t88.5 121.5t139.5 82t183 30h308zM952 1118l-14 84l-63 64l-103 14h-268
l-102 -14l-64 -64l-12 -84v-504l12 -86l66 -63l100 -12h268l103 12l63 63l14 86v504zM832 569l-66 -10h-256l-65 10l-15 60v479l10 55l70 11h256l70 -11l10 -59v-479z" />
    <glyph glyph-name="P" unicode="P" 
d="M746 1370q101 0 183 -30t139.5 -82t88.5 -121.5t31 -147.5v-608q0 -78 -31 -147.5t-88.5 -121.5t-139.5 -82t-183 -30h-308q-101 0 -183 30t-139.5 82t-88.5 121.5t-31 147.5v608q0 78 31 147.5t88.5 121.5t139.5 82t183 30h308zM930 1118l-14 84l-64 64l-102 14h-373
v-827h104v295h269l102 12l64 63l14 86v209zM809 864l-65 -10h-263v320h263l69 -11l10 -59v-184z" />
    <glyph glyph-name="Q" unicode="Q" 
d="M746 1370q101 0 183 -30t139.5 -82t88.5 -121.5t31 -147.5v-608q0 -78 -31 -147.5t-88.5 -121.5t-139.5 -82t-183 -30h-308q-101 0 -183 30t-139.5 82t-88.5 121.5t-31 147.5v608q0 78 31 147.5t88.5 121.5t139.5 82t183 30h308zM954 1118l-14 84l-63 64l-103 14h-268
l-102 -14l-64 -64l-12 -84v-504l12 -86l66 -63l100 -12h178l78 -154l94 45l-55 113l76 8l63 63l14 86v504zM834 569l-66 -10h-20l-60 117l-92 -51l31 -66h-115l-65 10l-15 60v479l10 55l70 11h256l70 -11l10 -59v-479z" />
    <glyph glyph-name="R" unicode="R" 
d="M746 1370q101 0 183 -30t139.5 -82t88.5 -121.5t31 -147.5v-608q0 -78 -31 -147.5t-88.5 -121.5t-139.5 -82t-183 -30h-308q-101 0 -183 30t-139.5 82t-88.5 121.5t-31 147.5v608q0 78 31 147.5t88.5 121.5t139.5 82t183 30h308zM797 700v-247h106v258l-35 92l-114 41
l110 53l31 90v111l-12 84l-66 84l-100 14h-373v-827h107v333h260l71 -32zM711 1174l71 -31l7 -58v-106l-15 -55l-63 -31h-260v281h260z" />
    <glyph glyph-name="S" unicode="S" 
d="M746 1370q101 0 183 -30t139.5 -82t88.5 -121.5t31 -147.5v-608q0 -78 -31 -147.5t-88.5 -121.5t-139.5 -82t-183 -30h-308q-101 0 -183 30t-139.5 82t-88.5 121.5t-31 147.5v608q0 78 31 147.5t88.5 121.5t139.5 82t183 30h308zM934 766l-14 86l-64 63l-104 11h-224
l-61 12q-5 17 -7 30.5t-7 28.5v105l14 59l66 13h254l94 -19l24 109l-116 16h-263l-100 -14l-65 -64l-13 -84v-137l13 -84l65 -63l100 -13h226l61 -10q3 -15 7 -28t7 -27v-131q-2 -13 -6.5 -28t-7.5 -28l-65 -10h-248l-98 16l-25 -108l117 -14h260l102 12l64 63l14 86v152z
" />
    <glyph glyph-name="T" unicode="T" 
d="M936 1280h-578v-106h236v-721h107v721h235v106zM746 1370q101 0 183 -30t139.5 -82t88.5 -121.5t31 -147.5v-608q0 -78 -31 -147.5t-88.5 -121.5t-139.5 -82t-183 -30h-308q-101 0 -183 30t-139.5 82t-88.5 121.5t-31 147.5v608q0 78 31 147.5t88.5 121.5t139.5 82
t183 30h308z" />
    <glyph glyph-name="U" unicode="U" 
d="M746 1370q101 0 183 -30t139.5 -82t88.5 -121.5t31 -147.5v-608q0 -78 -31 -147.5t-88.5 -121.5t-139.5 -82t-183 -30h-308q-101 0 -183 30t-139.5 82t-88.5 121.5t-31 147.5v608q0 78 31 147.5t88.5 121.5t139.5 82t183 30h308zM946 1280h-106v-655q-2 -13 -6.5 -28
t-8.5 -28l-65 -10h-256l-66 10l-14 60v651h-104v-666l12 -86l65 -63l101 -12h268l102 12l64 63l14 86v666z" />
    <glyph glyph-name="V" unicode="V" 
d="M629 446l67 19l60 59l196 736l-116 20l-181 -715l-22 -8l-27 6l-180 717l-117 -20l197 -736l59 -59zM746 1370q101 0 183 -30t139.5 -82t88.5 -121.5t31 -147.5v-608q0 -78 -31 -147.5t-88.5 -121.5t-139.5 -82t-183 -30h-308q-101 0 -183 30t-139.5 82t-88.5 121.5
t-31 147.5v608q0 78 31 147.5t88.5 121.5t139.5 82t183 30h308z" />
    <glyph glyph-name="W" unicode="W" 
d="M668 1247h-99l-118 -682l-23 -8l-26 6l-68 717l-115 -20l80 -734l62 -61l65 -16l66 16l61 61l66 441l65 -441l62 -61l65 -16l66 16l61 61l80 734l-115 20l-67 -717l-27 -6l-22 8zM438 0q-101 0 -183 30t-139.5 82t-88.5 121.5t-31 147.5v608q0 78 31 147.5t88.5 121.5
t139.5 82t183 30h308q101 0 183 -30t139.5 -82t88.5 -121.5t31 -147.5v-608q0 -78 -31 -147.5t-88.5 -121.5t-139.5 -82t-183 -30h-308z" />
    <glyph glyph-name="X" unicode="X" 
d="M746 1370q101 0 183 -30t139.5 -82t88.5 -121.5t31 -147.5v-608q0 -78 -31 -147.5t-88.5 -121.5t-139.5 -82t-183 -30h-308q-101 0 -183 30t-139.5 82t-88.5 121.5t-31 147.5v608q0 78 31 147.5t88.5 121.5t139.5 82t183 30h308zM868 1282l-227 -360l-221 360l-96 -41
l233 -377l-231 -375l94 -38l221 348l227 -348l95 38l-232 375l236 381z" />
    <glyph glyph-name="Y" unicode="Y" 
d="M459 1280h-125l250 -594v-233h106v231l254 596h-125l-182 -449zM746 1370q101 0 183 -30t139.5 -82t88.5 -121.5t31 -147.5v-608q0 -78 -31 -147.5t-88.5 -121.5t-139.5 -82t-183 -30h-308q-101 0 -183 30t-139.5 82t-88.5 121.5t-31 147.5v608q0 78 31 147.5t88.5 121.5
t139.5 82t183 30h308z" />
    <glyph glyph-name="Z" unicode="Z" 
d="M885 557h-377l354 635l-41 88h-428v-106h338l-354 -635l33 -86h475v104zM746 1370q101 0 183 -30t139.5 -82t88.5 -121.5t31 -147.5v-608q0 -78 -31 -147.5t-88.5 -121.5t-139.5 -82t-183 -30h-308q-101 0 -183 30t-139.5 82t-88.5 121.5t-31 147.5v608q0 78 31 147.5
t88.5 121.5t139.5 82t183 30h308z" />
    <glyph glyph-name="bracketleft" unicode="[" horiz-adv-x="993" 
d="M591 459h-65v741h65v105h-172v-951h172v105zM555 1370q101 0 183 -30t139.5 -82t88.5 -121.5t31 -147.5v-608q0 -78 -31 -147.5t-88.5 -121.5t-139.5 -82t-183 -30h-117q-101 0 -183 30t-139.5 82t-88.5 121.5t-31 147.5v608q0 78 31 147.5t88.5 121.5t139.5 82t183 30
h117z" />
    <glyph glyph-name="backslash" unicode="\" horiz-adv-x="1057" 
d="M424 1280l137 -827h109l-137 827h-109zM619 1370q101 0 183 -30t139.5 -82t88.5 -121.5t31 -147.5v-608q0 -78 -31 -147.5t-88.5 -121.5t-139.5 -82t-183 -30h-181q-101 0 -183 30t-139.5 82t-88.5 121.5t-31 147.5v608q0 78 31 147.5t88.5 121.5t139.5 82t183 30h181z
" />
    <glyph glyph-name="bracketright" unicode="]" horiz-adv-x="993" 
d="M402 354h172v951h-172v-105h65v-741h-65v-105zM555 1370q101 0 183 -30t139.5 -82t88.5 -121.5t31 -147.5v-608q0 -78 -31 -147.5t-88.5 -121.5t-139.5 -82t-183 -30h-117q-101 0 -183 30t-139.5 82t-88.5 121.5t-31 147.5v608q0 78 31 147.5t88.5 121.5t139.5 82t183 30
h117z" />
    <glyph glyph-name="asciicircum" unicode="^" horiz-adv-x="729" 
d="M483 487q-40 11 -66.5 23.5t-49.5 34.5q-28 -29 -62.5 -41t-91.5 -17h-41q-176 47 -176 187q0 40 17 94.5t41.5 114.5t52 120.5t49.5 112.5q18 23 34 39t33.5 27t38.5 19.5t49 16.5h74q42 -4 71.5 -11.5t52 -22t41 -38.5t38.5 -61q34 -85 69 -169t70 -169q6 -35 6 -63
q0 -179 -209 -197h-41zM365 950l135 -266h41l-139 338h-74l-139 -338h40z" />
    <glyph glyph-name="underscore" unicode="_" horiz-adv-x="877" 
d="M209 453v-109h459v109h-459zM438 1370q102 0 183.5 -30t139.5 -82t89 -121.5t31 -147.5v-608q0 -78 -31 -147.5t-89 -121.5t-139.5 -82t-183.5 -30q-101 0 -183 30t-139.5 82t-88.5 121.5t-31 147.5v608q0 78 31 147.5t88.5 121.5t139.5 82t183 30z" />
    <glyph glyph-name="grave" unicode="`" horiz-adv-x="631" 
d="M240 23q-11 11 -21 26t-22 35l-158 270q-23 38 -33 71.5t-10 61.5q0 49 25 86.5t66 63t94.5 38.5t109.5 13q42 0 80.5 -6t70 -19t54.5 -35t35 -53q34 -107 54.5 -176t31.5 -111.5t14.5 -63.5t3.5 -31q0 -30 -10 -56.5t-27 -48.5t-39 -38.5t-45 -26.5h-274zM367 180h69
l-100 334h-121z" />
    <glyph glyph-name="a" unicode="a" 
d="M869 454v228v438v84l-68 64l-100 12h-228l-117 -14l25 -109l94 19h223l60 -13l14 -53v-233l-71 12h-228l-100 -15l-64 -63l-14 -82v-117l14 -84l64 -63l100 -12h219l78 12zM772 569l-78 -10h-215l-63 10l-14 60v86l8 57l69 10h217l76 -8v-151v-54zM746 1370
q101 0 183 -30t139.5 -82t88.5 -121.5t31 -147.5v-608q0 -78 -31 -147.5t-88.5 -121.5t-139.5 -82t-183 -30h-308q-101 0 -183 30t-139.5 82t-88.5 121.5t-31 147.5v608q0 78 31 147.5t88.5 121.5t139.5 82t183 30h308z" />
    <glyph glyph-name="b" unicode="b" 
d="M746 1370q101 0 183 -30t139.5 -82t88.5 -121.5t31 -147.5v-608q0 -78 -31 -147.5t-88.5 -121.5t-139.5 -82t-183 -30h-308q-101 0 -183 30t-139.5 82t-88.5 121.5t-31 147.5v608q0 78 31 147.5t88.5 121.5t139.5 82t183 30h308zM907 770l-19 74l-80 35l80 30l19 76v133
l-14 84l-63 64l-103 14h-420v-827h420l103 12l63 63l14 84v158zM787 569l-66 -10h-307v264h309l68 -8l10 -59v-133zM787 940l-66 -12h-307v246h307l70 -11l-4 -59l14 -111z" />
    <glyph glyph-name="c" unicode="c" 
d="M733 1280h-241l-103 -12l-63 -64l-15 -84v-508l15 -84l65 -63l101 -12h241l117 14l-25 108l-94 -16h-233l-66 10l-14 60v481l10 55l70 11h229l103 -17l20 107zM746 1370q101 0 183 -30t139.5 -82t88.5 -121.5t31 -147.5v-608q0 -78 -31 -147.5t-88.5 -121.5t-139.5 -82
t-183 -30h-308q-101 0 -183 30t-139.5 82t-88.5 121.5t-31 147.5v608q0 78 31 147.5t88.5 121.5t139.5 82t183 30h308z" />
    <glyph glyph-name="d" unicode="d" 
d="M746 1370q101 0 183 -30t139.5 -82t88.5 -121.5t31 -147.5v-608q0 -78 -31 -147.5t-88.5 -121.5t-139.5 -82t-183 -30h-308q-101 0 -183 30t-139.5 82t-88.5 121.5t-31 147.5v608q0 78 31 147.5t88.5 121.5t139.5 82t183 30h308zM954 1118l-14 84l-63 64l-103 14h-446
v-827h446l103 12l63 63l14 86v504zM834 569l-66 -10h-336v615h336l70 -11l10 -59v-479z" />
    <glyph glyph-name="e" unicode="e" 
d="M746 1370q101 0 183 -30t139.5 -82t88.5 -121.5t31 -147.5v-608q0 -78 -31 -147.5t-88.5 -121.5t-139.5 -82t-183 -30h-308q-101 0 -183 30t-139.5 82t-88.5 121.5t-31 147.5v608q0 78 31 147.5t88.5 121.5t139.5 82t183 30h308zM877 1120l-15 84l-63 64l-101 12h-217
l-100 -12l-63 -64l-15 -84v-475l15 -84l63 -63l100 -13h252l117 15l-25 108l-94 -16h-243l-64 10l-14 60v206h467v252zM410 973v135l8 57l70 11h204l68 -11l10 -59v-133h-360z" />
    <glyph glyph-name="f" unicode="f" 
d="M838 936h-334v238h391v106h-498v-827h107v378h334v105zM746 1370q101 0 183 -30t139.5 -82t88.5 -121.5t31 -147.5v-608q0 -78 -31 -147.5t-88.5 -121.5t-139.5 -82t-183 -30h-308q-101 0 -183 30t-139.5 82t-88.5 121.5t-31 147.5v608q0 78 31 147.5t88.5 121.5
t139.5 82t183 30h308z" />
    <glyph glyph-name="g" unicode="g" 
d="M524 1176h260l103 -17l20 107l-116 14h-269l-102 -16l-64 -64l-14 -84v-502l14 -86l66 -63l100 -12h250l101 12l65 63l14 86v263h-290v-107h184v-141q-5 -16 -7 -30t-7 -30l-66 -10h-242l-61 10l-14 64v473l10 55zM746 1370q101 0 183 -30t139.5 -82t88.5 -121.5
t31 -147.5v-608q0 -78 -31 -147.5t-88.5 -121.5t-139.5 -82t-183 -30h-308q-101 0 -183 30t-139.5 82t-88.5 121.5t-31 147.5v608q0 78 31 147.5t88.5 121.5t139.5 82t183 30h308z" />
    <glyph glyph-name="h" unicode="h" 
d="M954 1280h-104v-350h-416v350h-106v-827h106v372h416v-372h104v827zM746 1370q101 0 183 -30t139.5 -82t88.5 -121.5t31 -147.5v-608q0 -78 -31 -147.5t-88.5 -121.5t-139.5 -82t-183 -30h-308q-101 0 -183 30t-139.5 82t-88.5 121.5t-31 147.5v608q0 78 31 147.5
t88.5 121.5t139.5 82t183 30h308z" />
    <glyph glyph-name="i" unicode="i" 
d="M358 559v-106h578v106h-235v615h235v106h-578v-106h236v-615h-236zM746 1370q101 0 183 -30t139.5 -82t88.5 -121.5t31 -147.5v-608q0 -78 -31 -147.5t-88.5 -121.5t-139.5 -82t-183 -30h-308q-101 0 -183 30t-139.5 82t-88.5 121.5t-31 147.5v608q0 78 31 147.5
t88.5 121.5t139.5 82t183 30h308z" />
    <glyph glyph-name="j" unicode="j" 
d="M746 1370q101 0 183 -30t139.5 -82t88.5 -121.5t31 -147.5v-608q0 -78 -31 -147.5t-88.5 -121.5t-139.5 -82t-183 -30h-308q-101 0 -183 30t-139.5 82t-88.5 121.5t-31 147.5v608q0 78 31 147.5t88.5 121.5t139.5 82t183 30h308zM682 1280v-649l-14 -60l-66 -12h-149
v-106h155l101 14l78 61v752h-105z" />
    <glyph glyph-name="k" unicode="k" 
d="M654 885l344 340l-72 84l-412 -408v379h-106v-827h106v313q17 14 29.5 25.5t28.5 25.5l327 -383l86 74zM746 1370q101 0 183 -30t139.5 -82t88.5 -121.5t31 -147.5v-608q0 -78 -31 -147.5t-88.5 -121.5t-139.5 -82t-183 -30h-308q-101 0 -183 30t-139.5 82t-88.5 121.5
t-31 147.5v608q0 78 31 147.5t88.5 121.5t139.5 82t183 30h308z" />
    <glyph glyph-name="l" unicode="l" 
d="M862 559h-307v721h-106v-827h413v106zM746 1370q101 0 183 -30t139.5 -82t88.5 -121.5t31 -147.5v-608q0 -78 -31 -147.5t-88.5 -121.5t-139.5 -82t-183 -30h-308q-101 0 -183 30t-139.5 82t-88.5 121.5t-31 147.5v608q0 78 31 147.5t88.5 121.5t139.5 82t183 30h308z
" />
    <glyph glyph-name="m" unicode="m" 
d="M746 1370q101 0 183 -30t139.5 -82t88.5 -121.5t31 -147.5v-608q0 -78 -31 -147.5t-88.5 -121.5t-139.5 -82t-183 -30h-308q-101 0 -183 30t-139.5 82t-88.5 121.5t-31 147.5v608q0 78 31 147.5t88.5 121.5t139.5 82t183 30h308zM590 1264l-55 16h-131l-84 -14l-64 -64
v-749h107v712q14 3 25 4t24 5h114q11 -4 21.5 -5t21.5 -4v-424h107v424l43 9h115q12 -4 24 -5t25 -4v-712h106v749l-63 64l-84 14h-131l-54 -16l-34 -69z" />
    <glyph glyph-name="n" unicode="n" 
d="M932 1120l-14 84l-64 64l-102 12h-250l-180 -25v-802h106v710l78 13h240l69 -11l10 -59v-653h107v667zM746 1370q101 0 183 -30t139.5 -82t88.5 -121.5t31 -147.5v-608q0 -78 -31 -147.5t-88.5 -121.5t-139.5 -82t-183 -30h-308q-101 0 -183 30t-139.5 82t-88.5 121.5
t-31 147.5v608q0 78 31 147.5t88.5 121.5t139.5 82t183 30h308z" />
    <glyph glyph-name="o" unicode="o" 
d="M746 1370q101 0 183 -30t139.5 -82t88.5 -121.5t31 -147.5v-608q0 -78 -31 -147.5t-88.5 -121.5t-139.5 -82t-183 -30h-308q-101 0 -183 30t-139.5 82t-88.5 121.5t-31 147.5v608q0 78 31 147.5t88.5 121.5t139.5 82t183 30h308zM952 1118l-14 84l-63 64l-103 14h-268
l-102 -14l-64 -64l-12 -84v-504l12 -86l66 -63l100 -12h268l103 12l63 63l14 86v504zM832 569l-66 -10h-256l-65 10l-15 60v479l10 55l70 11h256l70 -11l10 -59v-479z" />
    <glyph glyph-name="p" unicode="p" 
d="M746 1370q101 0 183 -30t139.5 -82t88.5 -121.5t31 -147.5v-608q0 -78 -31 -147.5t-88.5 -121.5t-139.5 -82t-183 -30h-308q-101 0 -183 30t-139.5 82t-88.5 121.5t-31 147.5v608q0 78 31 147.5t88.5 121.5t139.5 82t183 30h308zM930 1118l-14 84l-64 64l-102 14h-373
v-827h104v295h269l102 12l64 63l14 86v209zM809 864l-65 -10h-263v320h263l69 -11l10 -59v-184z" />
    <glyph glyph-name="q" unicode="q" 
d="M746 1370q101 0 183 -30t139.5 -82t88.5 -121.5t31 -147.5v-608q0 -78 -31 -147.5t-88.5 -121.5t-139.5 -82t-183 -30h-308q-101 0 -183 30t-139.5 82t-88.5 121.5t-31 147.5v608q0 78 31 147.5t88.5 121.5t139.5 82t183 30h308zM954 1118l-14 84l-63 64l-103 14h-268
l-102 -14l-64 -64l-12 -84v-504l12 -86l66 -63l100 -12h178l78 -154l94 45l-55 113l76 8l63 63l14 86v504zM834 569l-66 -10h-20l-60 117l-92 -51l31 -66h-115l-65 10l-15 60v479l10 55l70 11h256l70 -11l10 -59v-479z" />
    <glyph glyph-name="r" unicode="r" 
d="M746 1370q101 0 183 -30t139.5 -82t88.5 -121.5t31 -147.5v-608q0 -78 -31 -147.5t-88.5 -121.5t-139.5 -82t-183 -30h-308q-101 0 -183 30t-139.5 82t-88.5 121.5t-31 147.5v608q0 78 31 147.5t88.5 121.5t139.5 82t183 30h308zM797 700v-247h106v258l-35 92l-114 41
l110 53l31 90v111l-12 84l-66 84l-100 14h-373v-827h107v333h260l71 -32zM711 1174l71 -31l7 -58v-106l-15 -55l-63 -31h-260v281h260z" />
    <glyph glyph-name="s" unicode="s" 
d="M746 1370q101 0 183 -30t139.5 -82t88.5 -121.5t31 -147.5v-608q0 -78 -31 -147.5t-88.5 -121.5t-139.5 -82t-183 -30h-308q-101 0 -183 30t-139.5 82t-88.5 121.5t-31 147.5v608q0 78 31 147.5t88.5 121.5t139.5 82t183 30h308zM934 766l-14 86l-64 63l-104 11h-224
l-61 12q-5 17 -7 30.5t-7 28.5v105l14 59l66 13h254l94 -19l24 109l-116 16h-263l-100 -14l-65 -64l-13 -84v-137l13 -84l65 -63l100 -13h226l61 -10q3 -15 7 -28t7 -27v-131q-2 -13 -6.5 -28t-7.5 -28l-65 -10h-248l-98 16l-25 -108l117 -14h260l102 12l64 63l14 86v152z
" />
    <glyph glyph-name="t" unicode="t" 
d="M936 1280h-578v-106h236v-721h107v721h235v106zM746 1370q101 0 183 -30t139.5 -82t88.5 -121.5t31 -147.5v-608q0 -78 -31 -147.5t-88.5 -121.5t-139.5 -82t-183 -30h-308q-101 0 -183 30t-139.5 82t-88.5 121.5t-31 147.5v608q0 78 31 147.5t88.5 121.5t139.5 82
t183 30h308z" />
    <glyph glyph-name="u" unicode="u" 
d="M746 1370q101 0 183 -30t139.5 -82t88.5 -121.5t31 -147.5v-608q0 -78 -31 -147.5t-88.5 -121.5t-139.5 -82t-183 -30h-308q-101 0 -183 30t-139.5 82t-88.5 121.5t-31 147.5v608q0 78 31 147.5t88.5 121.5t139.5 82t183 30h308zM946 1280h-106v-655q-2 -13 -6.5 -28
t-8.5 -28l-65 -10h-256l-66 10l-14 60v651h-104v-666l12 -86l65 -63l101 -12h268l102 12l64 63l14 86v666z" />
    <glyph glyph-name="v" unicode="v" 
d="M629 446l67 19l60 59l196 736l-116 20l-181 -715l-22 -8l-27 6l-180 717l-117 -20l197 -736l59 -59zM746 1370q101 0 183 -30t139.5 -82t88.5 -121.5t31 -147.5v-608q0 -78 -31 -147.5t-88.5 -121.5t-139.5 -82t-183 -30h-308q-101 0 -183 30t-139.5 82t-88.5 121.5
t-31 147.5v608q0 78 31 147.5t88.5 121.5t139.5 82t183 30h308z" />
    <glyph glyph-name="w" unicode="w" 
d="M668 1247h-99l-118 -682l-23 -8l-26 6l-68 717l-115 -20l80 -734l62 -61l65 -16l66 16l61 61l66 441l65 -441l62 -61l65 -16l66 16l61 61l80 734l-115 20l-67 -717l-27 -6l-22 8zM438 0q-101 0 -183 30t-139.5 82t-88.5 121.5t-31 147.5v608q0 78 31 147.5t88.5 121.5
t139.5 82t183 30h308q101 0 183 -30t139.5 -82t88.5 -121.5t31 -147.5v-608q0 -78 -31 -147.5t-88.5 -121.5t-139.5 -82t-183 -30h-308z" />
    <glyph glyph-name="x" unicode="x" 
d="M746 1370q101 0 183 -30t139.5 -82t88.5 -121.5t31 -147.5v-608q0 -78 -31 -147.5t-88.5 -121.5t-139.5 -82t-183 -30h-308q-101 0 -183 30t-139.5 82t-88.5 121.5t-31 147.5v608q0 78 31 147.5t88.5 121.5t139.5 82t183 30h308zM868 1282l-227 -360l-221 360l-96 -41
l233 -377l-231 -375l94 -38l221 348l227 -348l95 38l-232 375l236 381z" />
    <glyph glyph-name="y" unicode="y" 
d="M459 1280h-125l250 -594v-233h106v231l254 596h-125l-182 -449zM746 1370q101 0 183 -30t139.5 -82t88.5 -121.5t31 -147.5v-608q0 -78 -31 -147.5t-88.5 -121.5t-139.5 -82t-183 -30h-308q-101 0 -183 30t-139.5 82t-88.5 121.5t-31 147.5v608q0 78 31 147.5t88.5 121.5
t139.5 82t183 30h308z" />
    <glyph glyph-name="z" unicode="z" 
d="M885 557h-377l354 635l-41 88h-428v-106h338l-354 -635l33 -86h475v104zM746 1370q101 0 183 -30t139.5 -82t88.5 -121.5t31 -147.5v-608q0 -78 -31 -147.5t-88.5 -121.5t-139.5 -82t-183 -30h-308q-101 0 -183 30t-139.5 82t-88.5 121.5t-31 147.5v608q0 78 31 147.5
t88.5 121.5t139.5 82t183 30h308z" />
    <glyph glyph-name="braceleft" unicode="{" horiz-adv-x="993" 
d="M555 1370q101 0 183 -30t139.5 -82t88.5 -121.5t31 -147.5v-608q0 -78 -31 -147.5t-88.5 -121.5t-139.5 -82t-183 -30h-117q-101 0 -183 30t-139.5 82t-88.5 121.5t-31 147.5v608q0 78 31 147.5t88.5 121.5t139.5 82t183 30h117zM361 705v-193l14 -86l65 -64l101 -12h123
v107h-117l-66 10l-14 59v195l-14 84l-23 22l23 23l12 86v190l16 60l66 10h117v107h-123l-101 -13l-65 -65l-12 -84v-191l-19 -59l-63 -10h-117v-107h117l65 -10z" />
    <glyph glyph-name="bar" unicode="|" horiz-adv-x="993" 
d="M454 1370v-992h85v992h16q101 0 183 -30t139.5 -82t88.5 -121.5t31 -147.5v-608q0 -78 -31 -147.5t-88.5 -121.5t-139.5 -82t-183 -30h-117q-101 0 -183 30t-139.5 82t-88.5 121.5t-31 147.5v608q0 78 31 147.5t88.5 121.5t139.5 82t183 30h16z" />
    <glyph glyph-name="braceright" unicode="}" horiz-adv-x="993" 
d="M555 1370q101 0 183 -30t139.5 -82t88.5 -121.5t31 -147.5v-608q0 -78 -31 -147.5t-88.5 -121.5t-139.5 -82t-183 -30h-117q-101 0 -183 30t-139.5 82t-88.5 121.5t-31 147.5v608q0 78 31 147.5t88.5 121.5t139.5 82t183 30h117zM647 764l65 10h117v107h-117l-63 10
l-19 59v191l-12 84l-65 65l-101 13h-123v-107h117l66 -10l16 -60v-190l12 -86l23 -23l-23 -22l-14 -84v-195l-14 -59l-66 -10h-117v-107h123l101 12l65 64l14 86v193z" />
    <glyph glyph-name="asciitilde" unicode="~" 
d="M801 1063q0 -36 -5 -55.5t-12.5 -28.5t-16 -10.5t-15.5 -1.5q-3 0 -35 11.5t-78.5 26t-100.5 26t-102 11.5q-25 0 -47 -5.5t-38.5 -19t-26 -35.5t-9.5 -54q0 -29 9 -66h90q0 31 4 49t10.5 26.5t14 10.5t14.5 2q19 0 56 -13t82.5 -29t94 -29t90.5 -13q27 0 48.5 8
t35.5 27.5t21.5 51t7.5 79.5v15t-2 16h-90zM746 1370q101 0 183 -30t139.5 -82t88.5 -121.5t31 -147.5v-608q0 -78 -31 -147.5t-88.5 -121.5t-139.5 -82t-183 -30h-308q-101 0 -183 30t-139.5 82t-88.5 121.5t-31 147.5v608q0 78 31 147.5t88.5 121.5t139.5 82t183 30h308z
" />
    <glyph glyph-name="uni00A0" unicode="&#xa0;" horiz-adv-x="311" 
 />
    <glyph glyph-name="exclamdown" unicode="&#xa1;" horiz-adv-x="869" 
d="M438 1370q99 -2 179.5 -32.5t137.5 -82t87.5 -120t30.5 -146.5v-608q0 -78 -31 -147.5t-89 -121.5t-139.5 -82t-183.5 -30q-100 0 -180 30.5t-136.5 83t-87 121.5t-30.5 146v608q0 78 31 147.5t88.5 121.5t139.5 82t183 30zM492 438v654h-80v-654h80zM389 1174h107v106
h-107v-106z" />
    <glyph glyph-name="cent" unicode="&#xa2;" 
d="M746 1370q101 0 183 -30t139.5 -82t88.5 -121.5t31 -147.5v-608q0 -78 -31 -147.5t-88.5 -121.5t-139.5 -82t-183 -30h-308q-101 0 -183 30t-139.5 82t-88.5 121.5t-31 147.5v608q0 78 31 147.5t88.5 121.5t139.5 82t183 30h308zM660 1075h49l102 -16l21 106l-117 15h-55
v143h-80v-143h-37l-103 -13l-63 -63l-14 -84v-371l14 -84l65 -63l101 -13h37v-139h80v139h55l117 15l-25 108l-94 -16h-53v479zM549 596h-66q-5 25 -7 39.5t-7 30.5v344l10 55l70 10h31v-479h-31z" />
    <glyph glyph-name="sterling" unicode="&#xa3;" 
d="M746 1370q101 0 183 -30t139.5 -82t88.5 -121.5t31 -147.5v-608q0 -78 -31 -147.5t-88.5 -121.5t-139.5 -82t-183 -30h-308q-101 0 -183 30t-139.5 82t-88.5 121.5t-31 147.5v608q0 78 31 147.5t88.5 121.5t139.5 82t183 30h308zM428 809v-356h414v106h-307v250h256v78
h-256v274l75 15h56l73 -13v-123h107v152l-78 76l-104 14l-158 -14l-78 -76v-305h-72v-78h72z" />
    <glyph glyph-name="currency" unicode="&#xa4;" 
d="M873 1057l-13 67l80 86l-63 64l-76 -82v2l-96 12h-150l-94 -12l-74 80l-63 -64l73 -82l-8 -71v-238l10 -80l-75 -80l65 -65l78 84l88 -10h150l90 10l80 -84l65 65l-82 84l15 76v238zM768 770l-61 -10h-154l-61 10l-15 55v230l11 51l65 10h154l65 -10l8 -55v-230z
M746 1370q101 0 183 -30t139.5 -82t88.5 -121.5t31 -147.5v-608q0 -78 -31 -147.5t-88.5 -121.5t-139.5 -82t-183 -30h-308q-101 0 -183 30t-139.5 82t-88.5 121.5t-31 147.5v608q0 78 31 147.5t88.5 121.5t139.5 82t183 30h308z" />
    <glyph glyph-name="yen" unicode="&#xa5;" 
d="M746 1370q101 0 183 -30t139.5 -82t88.5 -121.5t31 -147.5v-608q0 -78 -31 -147.5t-88.5 -121.5t-139.5 -82t-183 -30h-308q-101 0 -183 30t-139.5 82t-88.5 121.5t-31 147.5v608q0 78 31 147.5t88.5 121.5t139.5 82t183 30h308zM549 688v-26h-147v-84h147v-123h106v123
h148v84h-148q0 14 -1 18t-1 6l2 2h148v84h-111l217 506h-125l-182 -447l-178 447h-125l213 -506h-110v-84h147z" />
    <glyph glyph-name="brokenbar" unicode="&#xa6;" horiz-adv-x="993" 
d="M553 934v346h-107v-346h107zM553 453v366h-107v-366h107zM555 1370q101 0 183 -30t139.5 -82t88.5 -121.5t31 -147.5v-608q0 -78 -31 -147.5t-88.5 -121.5t-139.5 -82t-183 -30h-117q-101 0 -183 30t-139.5 82t-88.5 121.5t-31 147.5v608q0 78 31 147.5t88.5 121.5
t139.5 82t183 30h117z" />
    <glyph glyph-name="section" unicode="&#xa7;" 
d="M428 811l15 -84l57 -57l99 -10h100l70 -13l18 -66v-61l-17 -65l-69 -13h-259l-85 16l-22 -86l106 -15h261l97 14l59 57l12 82v82l-12 82l-59 57h-9.5t-9.5 1l21 79v35l-15 84l-57 57l-99 10h-102l-69 13l-17 65v31l17 65l69 13h259l85 -16l21 85l-104 17h-263l-96 -15
l-59 -57l-12 -82v-51l12 -82l59 -57l16 -3l-18 -77v-35zM602 743l-73 11l-15 67v17q3 19 7 38l8 38h100l71 -12l15 -64v-25q-3 -17 -7 -35t-8 -35h-98zM746 1370q101 0 183 -30t139.5 -82t88.5 -121.5t31 -147.5v-608q0 -78 -31 -147.5t-88.5 -121.5t-139.5 -82t-183 -30
h-308q-101 0 -183 30t-139.5 82t-88.5 121.5t-31 147.5v608q0 78 31 147.5t88.5 121.5t139.5 82t183 30h308z" />
    <glyph glyph-name="dieresis" unicode="&#xa8;" horiz-adv-x="795" 
d="M586 207v129h-131v-129h131zM129 41q-66 43 -99.5 107.5t-33.5 142.5q0 60 28 114t80.5 95.5t126.5 65.5t166 24t166.5 -24t127 -65.5t80.5 -95.5t28 -114q0 -79 -34.5 -143t-100.5 -107h-535zM324 207v129h-131v-129h131z" />
    <glyph glyph-name="copyright" unicode="&#xa9;" 
d="M746 1370q101 0 183 -30t139.5 -82t88.5 -121.5t31 -147.5v-608q0 -78 -31 -147.5t-88.5 -121.5t-139.5 -82t-183 -30h-308q-101 0 -183 30t-139.5 82t-88.5 121.5t-31 147.5v608q0 78 31 147.5t88.5 121.5t139.5 82t183 30h308zM211 811q0 84 32 157.5t87 129t129 87.5
t158 32t157.5 -32t128.5 -87.5t87 -129t32 -157.5t-32 -157.5t-87 -128.5t-128.5 -87t-157.5 -32t-158 32t-129 87t-87 128.5t-32 157.5zM143 811q0 -98 37 -184.5t101.5 -150.5t150.5 -101t185 -37q98 0 184.5 37t150.5 101t101 150.5t37 184.5t-37 184.5t-101 150.5
t-150.5 101t-184.5 37q-99 0 -185 -37t-150.5 -101t-101.5 -150.5t-37 -184.5zM721 1108h-170l-72 -8l-43 -45l-10 -60v-354l10 -59l45 -45l70 -9h170l82 11l-16 75l-68 -12h-162l-47 8l-10 41v338l8 39l49 6h160l72 -10l14 74z" />
    <glyph glyph-name="ordfeminine" unicode="&#xaa;" 
d="M746 1370q101 0 183 -30t139.5 -82t88.5 -121.5t31 -147.5v-608q0 -78 -31 -147.5t-88.5 -121.5t-139.5 -82t-183 -30h-308q-101 0 -183 30t-139.5 82t-88.5 121.5t-31 147.5v608q0 78 31 147.5t88.5 121.5t139.5 82t183 30h308zM879 1120l-15 84l-63 64l-100 12h-154
l-117 -14l25 -109q8 1 20 3.5t25 5.5t26 5.5t23 4.5h149l60 -13l14 -53v-147l-71 12h-154l-100 -14l-64 -64l-14 -82v-59l14 -84l64 -64l100 -12h154l100 12l63 64l15 84v364zM758 713l-64 -11h-141l-63 11q-1 6 -3 14t-4.5 17t-4.5 16.5t-3 11.5v29q3 12 4 27.5t4 29.5
l70 10h143q19 -3 38.5 -4t37.5 -4v-94z" />
    <glyph glyph-name="guillemotleft" unicode="&#xab;" 
d="M807 408l47 45l-258 344l258 344l-47 47l-285 -377v-27zM561 408l47 45l-237 344l237 344l-47 47l-264 -377v-27zM746 1370q101 0 183 -30t139.5 -82t88.5 -121.5t31 -147.5v-608q0 -78 -31 -147.5t-88.5 -121.5t-139.5 -82t-183 -30h-308q-101 0 -183 30t-139.5 82
t-88.5 121.5t-31 147.5v608q0 78 31 147.5t88.5 121.5t139.5 82t183 30h308z" />
    <glyph glyph-name="uni00AD" unicode="&#xad;" horiz-adv-x="877" 
d="M627 918v108h-377v-108h377zM438 0q-101 0 -183 30t-139.5 82t-88.5 121.5t-31 147.5v608q0 78 31 147.5t88.5 121.5t139.5 82t183 30q102 0 183.5 -30t139.5 -82t89 -121.5t31 -147.5v-608q0 -78 -31 -147.5t-89 -121.5t-139.5 -82t-183.5 -30z" />
    <glyph glyph-name="registered" unicode="&#xae;" 
d="M746 1370q101 0 183 -30t139.5 -82t88.5 -121.5t31 -147.5v-608q0 -78 -31 -147.5t-88.5 -121.5t-139.5 -82t-183 -30h-308q-101 0 -183 30t-139.5 82t-88.5 121.5t-31 147.5v608q0 78 31 147.5t88.5 121.5t139.5 82t183 30h308zM211 811q0 84 32 157.5t87 129t129 87.5
t158 32t157.5 -32t128.5 -87.5t87 -129t32 -157.5t-32 -157.5t-87 -128.5t-128.5 -87t-157.5 -32t-158 32t-129 87t-87 128.5t-32 157.5zM143 811q0 -98 37 -184.5t101.5 -150.5t150.5 -101t185 -37q98 0 184.5 37t150.5 101t101 150.5t37 184.5t-37 184.5t-101 150.5
t-150.5 101t-184.5 37q-99 0 -185 -37t-150.5 -101t-101.5 -150.5t-37 -184.5zM752 705v-175h73v181l-24 65l-80 29l78 37l20 63v78l-8 57l-45 60l-72 10h-260v-580h74v234h182l51 -23zM690 1036l51 -22l5 -41v-74l-11 -39l-45 -20h-182v196h182z" />
    <glyph glyph-name="macron" unicode="&#xaf;" horiz-adv-x="877" 
d="M612 209v108h-376v-108h376zM170 0q-85 51 -129.5 119.5t-44.5 159.5q0 65 31 123t88.5 101.5t139.5 69t183 25.5q102 0 183.5 -25.5t139.5 -69t89 -101.5t31 -123q0 -91 -45 -159.5t-129 -119.5h-537z" />
    <glyph glyph-name="degree" unicode="&#xb0;" horiz-adv-x="877" 
d="M438 0q-101 0 -183 30t-139.5 82t-88.5 121.5t-31 147.5v608q0 78 31 147.5t88.5 121.5t139.5 82t183 30q102 0 183.5 -30t139.5 -82t89 -121.5t31 -147.5v-608q0 -78 -31 -147.5t-89 -121.5t-139.5 -82t-183.5 -30zM404 1266l-78 -15l-58 -57l-12 -94l12 -105l58 -57
l78 -12h71l78 12l59 59l11 93l-11 104l-59 57l-78 15h-71zM524 1161l11 -65l-11 -66l-59 -14h-53l-56 10l-10 70l10 69l60 11h53z" />
    <glyph glyph-name="plusminus" unicode="&#xb1;" horiz-adv-x="877" 
d="M627 596v109h-377v-109h377zM694 1085h-196v197h-105v-197h-194v-106h194v-195h105v195h196v106zM438 0q-101 0 -183 30t-139.5 82t-88.5 121.5t-31 147.5v608q0 78 31 147.5t88.5 121.5t139.5 82t183 30q102 0 183.5 -30t139.5 -82t89 -121.5t31 -147.5v-608
q0 -78 -31 -147.5t-89 -121.5t-139.5 -82t-183.5 -30z" />
    <glyph glyph-name="uni00B2" unicode="&#xb2;" 
d="M746 1370q101 0 183 -30t139.5 -82t88.5 -121.5t31 -147.5v-608q0 -78 -31 -147.5t-88.5 -121.5t-139.5 -82t-183 -30h-308q-101 0 -183 30t-139.5 82t-88.5 121.5t-31 147.5v608q0 78 31 147.5t88.5 121.5t139.5 82t183 30h308zM718 1114l-15 -41l-135 -16l-116 -33
l-45 -45l-13 -82v-92l64 -64h323v105h-282v39l8 55l141 16l117 33l45 43l14 68v28l-14 74l-64 64l-102 14h-72l-102 -14l-63 -64l-17 -86l107 -10l12 57l70 11h59l70 -11z" />
    <glyph glyph-name="uni00B3" unicode="&#xb3;" 
d="M746 1370q101 0 183 -30t139.5 -82t88.5 -121.5t31 -147.5v-608q0 -78 -31 -147.5t-88.5 -121.5t-139.5 -82t-183 -30h-308q-101 0 -183 30t-139.5 82t-88.5 121.5t-31 147.5v608q0 78 31 147.5t88.5 121.5t139.5 82t183 30h308zM768 1073l-65 -10h-132v-88h134l67 -8
l10 -56l-14 -53l-65 -10h-111l-61 10l-17 55l-108 -10l18 -86l64 -63l102 -13h119l102 13l64 63l14 84v19l-14 79l-25 23l25 25l14 73v19l-14 63l-64 64l-102 14h-119l-102 -14l-64 -64l-18 -67l108 -11l12 39l70 11h107l69 -11l10 -39z" />
    <glyph glyph-name="acute" unicode="&#xb4;" horiz-adv-x="631" 
d="M117 23q-23 10 -45 26.5t-39 38.5t-27 48.5t-10 56.5q0 10 3 31t14 63.5t31.5 111.5t55.5 176q12 31 35 53t54.5 35t70 19t80.5 6q56 0 109 -13t94.5 -38.5t66.5 -63t25 -86.5q-1 -28 -10.5 -61.5t-32.5 -71.5l-158 -270q-12 -20 -22 -35t-21 -26h-274zM416 514h-121
l-100 -334h69z" />
    <glyph glyph-name="uni00B5" unicode="&#xb5;" 
d="M746 1370q101 0 183 -30t139.5 -82t88.5 -121.5t31 -147.5v-608q0 -78 -31 -147.5t-88.5 -121.5t-139.5 -82t-183 -30h-308q-101 0 -183 30t-139.5 82t-88.5 121.5t-31 147.5v608q0 78 31 147.5t88.5 121.5t139.5 82t183 30h308zM920 1278h-107v-651q-2 -13 -6.5 -28
t-7.5 -28l-66 -10h-256l-65 10l-15 60v647h-104v-956h104v145l74 -12h268l103 12l63 63l15 86v662z" />
    <glyph glyph-name="paragraph" unicode="&#xb6;" 
d="M318 983l14 -82l51 -51l96 -12h156v-363h63v717h97v-717h63v785h-379l-96 -15l-51 -51l-14 -80v-131zM746 1370q101 0 183 -30t139.5 -82t88.5 -121.5t31 -147.5v-608q0 -78 -31 -147.5t-88.5 -121.5t-139.5 -82t-183 -30h-308q-101 0 -183 30t-139.5 82t-88.5 121.5
t-31 147.5v608q0 78 31 147.5t88.5 121.5t139.5 82t183 30h308z" />
    <glyph glyph-name="periodcentered" unicode="&#xb7;" horiz-adv-x="877" 
d="M504 897v129h-131v-129h131zM438 0q-101 0 -183 30t-139.5 82t-88.5 121.5t-31 147.5v608q0 78 31 147.5t88.5 121.5t139.5 82t183 30q102 0 183.5 -30t139.5 -82t89 -121.5t31 -147.5v-608q0 -78 -31 -147.5t-89 -121.5t-139.5 -82t-183.5 -30z" />
    <glyph glyph-name="cedilla" unicode="&#xb8;" horiz-adv-x="207" 
d="M100 -215l111 -10v-90l-143 12l-60 59l-12 78v19l12 57l58 57h71v39h70v-117l-111 -10l-10 -35z" />
    <glyph glyph-name="uni00B9" unicode="&#xb9;" 
d="M674 1282h-90l-146 -51v-107l129 45v-428h107v541zM746 1370q101 0 183 -30t139.5 -82t88.5 -121.5t31 -147.5v-608q0 -78 -31 -147.5t-88.5 -121.5t-139.5 -82t-183 -30h-308q-101 0 -183 30t-139.5 82t-88.5 121.5t-31 147.5v608q0 78 31 147.5t88.5 121.5t139.5 82
t183 30h308z" />
    <glyph glyph-name="ordmasculine" unicode="&#xba;" 
d="M746 1370q101 0 183 -30t139.5 -82t88.5 -121.5t31 -147.5v-608q0 -78 -31 -147.5t-88.5 -121.5t-139.5 -82t-183 -30h-308q-101 0 -183 30t-139.5 82t-88.5 121.5t-31 147.5v608q0 78 31 147.5t88.5 121.5t139.5 82t183 30h308zM930 1118l-14 84l-64 64l-102 14h-207
l-103 -14l-63 -64l-12 -84v-360l12 -86l65 -64l101 -12h207l102 12l64 64l14 86v360zM809 713l-65 -11h-195l-66 11l-14 59v336l10 55l70 11h195l69 -11l10 -59v-336z" />
    <glyph glyph-name="guillemotright" unicode="&#xbb;" 
d="M662 784v27l-285 377l-47 -47l258 -344l-258 -344l47 -45zM887 784v27l-264 377l-47 -47l237 -344l-237 -344l47 -45zM746 1370q101 0 183 -30t139.5 -82t88.5 -121.5t31 -147.5v-608q0 -78 -31 -147.5t-88.5 -121.5t-139.5 -82t-183 -30h-308q-101 0 -183 30t-139.5 82
t-88.5 121.5t-31 147.5v608q0 78 31 147.5t88.5 121.5t139.5 82t183 30h308z" />
    <glyph glyph-name="onequarter" unicode="&#xbc;" 
d="M574 1280l-201 -827h108l201 827h-108zM389 1282h-90l-145 -51v-107l129 45v-428h106v541zM746 1370q101 0 183 -30t139.5 -82t88.5 -121.5t31 -147.5v-608q0 -78 -31 -147.5t-88.5 -121.5t-139.5 -82t-183 -30h-308q-101 0 -183 30t-139.5 82t-88.5 121.5t-31 147.5v608
q0 78 31 147.5t88.5 121.5t139.5 82t183 30h308zM820 510h72v-154h106v154h124v107h-124v313h-106v-315h-66l-70 10l-10 59v246h-106v-260l14 -84l63 -64z" />
    <glyph glyph-name="onehalf" unicode="&#xbd;" 
d="M971 827l-14 -41l-136 -16l-116 -33l-45 -45l-13 -82v-92l64 -63h323v104h-282v39l8 55l141 17l117 32l45 43l14 68v29l-14 73l-63 64l-103 14h-72l-102 -14l-63 -64l-17 -86l107 -10l12 58l70 10h59l70 -10zM574 1280l-201 -827h108l201 827h-108zM389 1282h-90
l-145 -51v-107l129 45v-428h106v541zM746 1370q101 0 183 -30t139.5 -82t88.5 -121.5t31 -147.5v-608q0 -78 -31 -147.5t-88.5 -121.5t-139.5 -82t-183 -30h-308q-101 0 -183 30t-139.5 82t-88.5 121.5t-31 147.5v608q0 78 31 147.5t88.5 121.5t139.5 82t183 30h308z" />
    <glyph glyph-name="threequarters" unicode="&#xbe;" 
d="M574 1280l-201 -827h108l201 827h-108zM389 1282h-90l-145 -51v-107l129 45v-428h106v541zM746 1370q101 0 183 -30t139.5 -82t88.5 -121.5t31 -147.5v-608q0 -78 -31 -147.5t-88.5 -121.5t-139.5 -82t-183 -30h-308q-101 0 -183 30t-139.5 82t-88.5 121.5t-31 147.5v608
q0 78 31 147.5t88.5 121.5t139.5 82t183 30h308zM991 782l-65 -10h-131v-88h133l67 -8l11 -55l-15 -54l-65 -10h-111l-61 10l-17 56l-108 -11l18 -86l64 -63l102 -12h119l102 12l64 63l14 84v19l-14 80l-25 22l25 25l14 73v19l-14 63l-64 64l-102 14h-119l-102 -14l-64 -64
l-18 -67l108 -10l13 38l69 11h107l69 -11l11 -38z" />
    <glyph glyph-name="questiondown" unicode="&#xbf;" 
d="M721 1182v102h-106v-102h106zM438 0q-101 0 -183 30t-139.5 82t-88.5 121.5t-31 147.5v608q0 78 31 147.5t88.5 121.5t139.5 82t183 30h308q101 0 183 -30t139.5 -82t88.5 -121.5t31 -147.5v-608q0 -78 -31 -147.5t-88.5 -121.5t-139.5 -82t-183 -30h-308zM711 929v196
h-86v-165h-85l-99 -14l-57 -57l-15 -82v-176l15 -82l57 -57l98 -15h205l98 15l57 57l17 93l-87 8q-3 -16 -5.5 -37.5t-5.5 -38.5l-276 -11l-76 11l-11 67v156l11 67l203 11z" />
    <glyph glyph-name="Agrave" unicode="&#xc0;" 
d="M746 1370q101 0 183 -30t139.5 -82t88.5 -121.5t31 -147.5v-608q0 -78 -31 -147.5t-88.5 -121.5t-139.5 -82t-183 -30h-308q-101 0 -183 30t-139.5 82t-88.5 121.5t-31 147.5v608q0 78 31 147.5t88.5 121.5t139.5 82t183 30h308zM838 453h114l-79 745l-62 62l-133 20
h-107l-133 -20l-61 -62l-82 -745h119l16 213l10 92h369l10 -92zM768 1159q7 -81 16 -153t17 -152h-352l30 305q28 3 48.5 7t48.5 8h98zM433 1293q-11 11 -21 26t-22 35l-158 270q-23 38 -33 71.5t-10 61.5q0 49 25 86.5t66 63t94.5 38.5t109.5 13q42 0 80.5 -6t70 -19
t54.5 -35t35 -53q34 -107 54.5 -176t31.5 -111.5t14.5 -63.5t3.5 -31q0 -30 -10 -56.5t-27 -48.5t-39 -38.5t-45 -26.5h-274zM560 1450h69l-100 334h-121z" />
    <glyph glyph-name="Aacute" unicode="&#xc1;" 
d="M746 1370q101 0 183 -30t139.5 -82t88.5 -121.5t31 -147.5v-608q0 -78 -31 -147.5t-88.5 -121.5t-139.5 -82t-183 -30h-308q-101 0 -183 30t-139.5 82t-88.5 121.5t-31 147.5v608q0 78 31 147.5t88.5 121.5t139.5 82t183 30h308zM838 453h114l-79 745l-62 62l-133 20
h-107l-133 -20l-61 -62l-82 -745h119l16 213l10 92h369l10 -92zM768 1159q7 -81 16 -153t17 -152h-352l30 305q28 3 48.5 7t48.5 8h98zM488 1293q-23 10 -45 26.5t-39 38.5t-27 48.5t-10 56.5q0 10 3 31t14 63.5t31.5 111.5t55.5 176q12 31 35 53t54.5 35t70 19t80.5 6
q56 0 109 -13t94.5 -38.5t66.5 -63t25 -86.5q-1 -28 -10.5 -61.5t-32.5 -71.5l-158 -270q-12 -20 -22 -35t-21 -26h-274zM787 1784h-121l-100 -334h69z" />
    <glyph glyph-name="Acircumflex" unicode="&#xc2;" 
d="M746 1370q101 0 183 -30t139.5 -82t88.5 -121.5t31 -147.5v-608q0 -78 -31 -147.5t-88.5 -121.5t-139.5 -82t-183 -30h-308q-101 0 -183 30t-139.5 82t-88.5 121.5t-31 147.5v608q0 78 31 147.5t88.5 121.5t139.5 82t183 30h308zM838 453h114l-79 745l-62 62l-133 20
h-107l-133 -20l-61 -62l-82 -745h119l16 213l10 92h369l10 -92zM768 1159q7 -81 16 -153t17 -152h-352l30 305q28 3 48.5 7t48.5 8h98zM311 1311q-31 26 -46 64.5t-15 80.5q0 36 14.5 88t38 111.5t52 122.5t55.5 121q29 51 79 76.5t134 25.5q42 0 75 -7t59 -22.5t46.5 -41
t38.5 -62.5q40 -86 72 -162q13 -33 26.5 -67.5t23.5 -66t16.5 -59t6.5 -46.5q0 -102 -69 -156h-607zM619 1759l94 -292h82l-131 338h-90l-131 -338h81z" />
    <glyph glyph-name="Atilde" unicode="&#xc3;" 
d="M746 1370q101 0 183 -30t139.5 -82t88.5 -121.5t31 -147.5v-608q0 -78 -31 -147.5t-88.5 -121.5t-139.5 -82t-183 -30h-308q-101 0 -183 30t-139.5 82t-88.5 121.5t-31 147.5v608q0 78 31 147.5t88.5 121.5t139.5 82t183 30h308zM838 453h114l-79 745l-62 62l-133 20
h-107l-133 -20l-61 -62l-82 -745h119l16 213l10 92h369l10 -92zM768 1159q7 -81 16 -153t17 -152h-352l30 305q28 3 48.5 7t48.5 8h98zM313 1311q-66 54 -99.5 124t-33.5 155q0 78 31 147t88.5 121t139.5 82t183 30q102 0 183.5 -30t139.5 -82t89 -121t31 -147
q0 -82 -34 -153.5t-97 -125.5h-621zM745 1430q28 0 45 13.5t25.5 33.5t11 43t2.5 41v33h-90q-14 -45 -24.5 -60.5t-24.5 -15.5q-12 0 -28.5 10t-42 22.5t-62 22.5t-88.5 10q-29 0 -46 -16t-25.5 -38.5t-10.5 -45.5t-2 -37v-12h90q8 38 18.5 52.5t24.5 14.5q15 0 34.5 -11
t46.5 -24.5t63 -24.5t83 -11z" />
    <glyph glyph-name="Adieresis" unicode="&#xc4;" 
d="M746 1370q101 0 183 -30t139.5 -82t88.5 -121.5t31 -147.5v-608q0 -78 -31 -147.5t-88.5 -121.5t-139.5 -82t-183 -30h-308q-101 0 -183 30t-139.5 82t-88.5 121.5t-31 147.5v608q0 78 31 147.5t88.5 121.5t139.5 82t183 30h308zM838 453h114l-79 745l-62 62l-133 20
h-107l-133 -20l-61 -62l-82 -745h119l16 213l10 92h369l10 -92zM768 1159q7 -81 16 -153t17 -152h-352l30 305q28 3 48.5 7t48.5 8h98zM811 1479v129h-131v-129h131zM354 1313q-66 43 -99.5 107.5t-33.5 142.5q0 60 28 114t80.5 95.5t126.5 65.5t166 24t166.5 -24t127 -65.5
t80.5 -95.5t28 -114q0 -79 -34.5 -143t-100.5 -107h-535zM549 1479v129h-131v-129h131z" />
    <glyph glyph-name="Aring" unicode="&#xc5;" 
d="M746 1370q101 0 183 -30t139.5 -82t88.5 -121.5t31 -147.5v-608q0 -78 -31 -147.5t-88.5 -121.5t-139.5 -82t-183 -30h-308q-101 0 -183 30t-139.5 82t-88.5 121.5t-31 147.5v608q0 78 31 147.5t88.5 121.5t139.5 82t183 30h308zM838 453h114l-79 745l-62 62l-133 20
h-107l-133 -20l-61 -62l-82 -745h119l16 213l10 92h369l10 -92zM768 1159q7 -81 16 -153t17 -152h-352l30 305q28 3 48.5 7t48.5 8h98zM320 1311q-45 51 -66.5 117.5t-21.5 138.5q0 78 26.5 147.5t76 121.5t120 82t158.5 30q87 0 157.5 -30t120 -82t76.5 -121.5t27 -147.5
q0 -75 -23 -140t-65 -116h-586zM578 1766l-74 -15l-53 -53l-12 -88l12 -98l53 -54l74 -12h68l71 12l58 56l8 86l-8 98l-58 53l-71 15h-68zM695 1671l10 -65l-10 -66l-60 -14h-53l-55 10l-10 70l10 70l59 10h54z" />
    <glyph glyph-name="AE" unicode="&#xc6;" 
d="M746 1370q101 0 183 -30t139.5 -82t88.5 -121.5t31 -147.5v-608q0 -78 -31 -147.5t-88.5 -121.5t-139.5 -82t-183 -30h-308q-101 0 -183 30t-139.5 82t-88.5 121.5t-31 147.5v608q0 78 31 147.5t88.5 121.5t139.5 82t183 30h308zM944 563h-262v256h262v105h-262v252h262
v106h-420l-133 -20l-61 -62l-82 -741h106l17 131h205v-131h368v104zM383 696l49 465q28 3 48.5 7t47.5 8h48v-480h-193z" />
    <glyph glyph-name="Ccedilla" unicode="&#xc7;" 
d="M746 1370q101 0 183 -30t139.5 -82t88.5 -121.5t31 -147.5v-608q0 -78 -31 -147.5t-88.5 -121.5t-139.5 -82t-183 -30h-308q-101 0 -183 30t-139.5 82t-88.5 121.5t-31 147.5v608q0 78 31 147.5t88.5 121.5t139.5 82t183 30h308zM733 1280h-241l-103 -12l-63 -64l-15 -84
v-508l15 -84l65 -63l101 -12h100v-35h-71l-58 -61l-12 -57v-19l12 -78l60 -59l143 -12v90l-111 10l-14 59l10 35l111 10v117h71l117 14l-25 108l-94 -16h-233l-66 10l-14 60v481l10 55l70 11h229l103 -17l20 107z" />
    <glyph glyph-name="Egrave" unicode="&#xc8;" 
d="M905 559h-399v254h334v105h-334v256h385v106h-489v-827h503v106zM746 1370q101 0 183 -30t139.5 -82t88.5 -121.5t31 -147.5v-608q0 -78 -31 -147.5t-88.5 -121.5t-139.5 -82t-183 -30h-308q-101 0 -183 30t-139.5 82t-88.5 121.5t-31 147.5v608q0 78 31 147.5
t88.5 121.5t139.5 82t183 30h308zM453 1293q-11 11 -21 26t-22 35l-158 270q-23 38 -33 71.5t-10 61.5q0 49 25 86.5t66 63t94.5 38.5t109.5 13q42 0 80.5 -6t70 -19t54.5 -35t35 -53q34 -107 54.5 -176t31.5 -111.5t14.5 -63.5t3.5 -31q0 -30 -10 -56.5t-27 -48.5
t-39 -38.5t-45 -26.5h-274zM580 1450h69l-100 334h-121z" />
    <glyph glyph-name="Eacute" unicode="&#xc9;" 
d="M905 559h-399v254h334v105h-334v256h385v106h-489v-827h503v106zM746 1370q101 0 183 -30t139.5 -82t88.5 -121.5t31 -147.5v-608q0 -78 -31 -147.5t-88.5 -121.5t-139.5 -82t-183 -30h-308q-101 0 -183 30t-139.5 82t-88.5 121.5t-31 147.5v608q0 78 31 147.5
t88.5 121.5t139.5 82t183 30h308zM508 1293q-23 10 -45 26.5t-39 38.5t-27 48.5t-10 56.5q0 10 3 31t14 63.5t31.5 111.5t55.5 176q12 31 35 53t54.5 35t70 19t80.5 6q56 0 109 -13t94.5 -38.5t66.5 -63t25 -86.5q-1 -28 -10.5 -61.5t-32.5 -71.5l-158 -270q-12 -20 -22 -35
t-21 -26h-274zM807 1784h-121l-100 -334h69z" />
    <glyph glyph-name="Ecircumflex" unicode="&#xca;" 
d="M905 559h-399v254h334v105h-334v256h385v106h-489v-827h503v106zM746 1370q101 0 183 -30t139.5 -82t88.5 -121.5t31 -147.5v-608q0 -78 -31 -147.5t-88.5 -121.5t-139.5 -82t-183 -30h-308q-101 0 -183 30t-139.5 82t-88.5 121.5t-31 147.5v608q0 78 31 147.5
t88.5 121.5t139.5 82t183 30h308zM331 1311q-31 26 -46 64.5t-15 80.5q0 36 14.5 88t38 111.5t52 122.5t55.5 121q29 51 79 76.5t134 25.5q42 0 75 -7t59 -22.5t46.5 -41t38.5 -62.5q40 -86 72 -162q13 -33 26.5 -67.5t23.5 -66t16.5 -59t6.5 -46.5q0 -102 -69 -156h-607z
M639 1759l94 -292h82l-131 338h-90l-131 -338h81z" />
    <glyph glyph-name="Edieresis" unicode="&#xcb;" 
d="M905 559h-399v254h334v105h-334v256h385v106h-489v-827h503v106zM746 1370q101 0 183 -30t139.5 -82t88.5 -121.5t31 -147.5v-608q0 -78 -31 -147.5t-88.5 -121.5t-139.5 -82t-183 -30h-308q-101 0 -183 30t-139.5 82t-88.5 121.5t-31 147.5v608q0 78 31 147.5
t88.5 121.5t139.5 82t183 30h308zM832 1479v129h-131v-129h131zM375 1313q-66 43 -99.5 107.5t-33.5 142.5q0 60 28 114t80.5 95.5t126.5 65.5t166 24t166.5 -24t127 -65.5t80.5 -95.5t28 -114q0 -79 -34.5 -143t-100.5 -107h-535zM570 1479v129h-131v-129h131z" />
    <glyph glyph-name="Igrave" unicode="&#xcc;" 
d="M358 559v-106h578v106h-235v615h235v106h-578v-106h236v-615h-236zM746 1370q101 0 183 -30t139.5 -82t88.5 -121.5t31 -147.5v-608q0 -78 -31 -147.5t-88.5 -121.5t-139.5 -82t-183 -30h-308q-101 0 -183 30t-139.5 82t-88.5 121.5t-31 147.5v608q0 78 31 147.5
t88.5 121.5t139.5 82t183 30h308zM461 1293q-11 11 -21 26t-22 35l-158 270q-23 38 -33 71.5t-10 61.5q0 49 25 86.5t66 63t94.5 38.5t109.5 13q42 0 80.5 -6t70 -19t54.5 -35t35 -53q34 -107 54.5 -176t31.5 -111.5t14.5 -63.5t3.5 -31q0 -30 -10 -56.5t-27 -48.5
t-39 -38.5t-45 -26.5h-274zM588 1450h69l-100 334h-121z" />
    <glyph glyph-name="Iacute" unicode="&#xcd;" 
d="M358 559v-106h578v106h-235v615h235v106h-578v-106h236v-615h-236zM746 1370q101 0 183 -30t139.5 -82t88.5 -121.5t31 -147.5v-608q0 -78 -31 -147.5t-88.5 -121.5t-139.5 -82t-183 -30h-308q-101 0 -183 30t-139.5 82t-88.5 121.5t-31 147.5v608q0 78 31 147.5
t88.5 121.5t139.5 82t183 30h308zM516 1293q-23 10 -45 26.5t-39 38.5t-27 48.5t-10 56.5q0 10 3 31t14 63.5t31.5 111.5t55.5 176q12 31 35 53t54.5 35t70 19t80.5 6q56 0 109 -13t94.5 -38.5t66.5 -63t25 -86.5q-1 -28 -10.5 -61.5t-32.5 -71.5l-158 -270q-12 -20 -22 -35
t-21 -26h-274zM815 1784h-121l-100 -334h69z" />
    <glyph glyph-name="Icircumflex" unicode="&#xce;" 
d="M358 559v-106h578v106h-235v615h235v106h-578v-106h236v-615h-236zM746 1370q101 0 183 -30t139.5 -82t88.5 -121.5t31 -147.5v-608q0 -78 -31 -147.5t-88.5 -121.5t-139.5 -82t-183 -30h-308q-101 0 -183 30t-139.5 82t-88.5 121.5t-31 147.5v608q0 78 31 147.5
t88.5 121.5t139.5 82t183 30h308zM340 1311q-31 26 -46 64.5t-15 80.5q0 36 14.5 88t38 111.5t52 122.5t55.5 121q29 51 79 76.5t134 25.5q42 0 75 -7t59 -22.5t46.5 -41t38.5 -62.5q40 -86 72 -162q13 -33 26.5 -67.5t23.5 -66t16.5 -59t6.5 -46.5q0 -102 -69 -156h-607z
M648 1759l94 -292h82l-131 338h-90l-131 -338h81z" />
    <glyph glyph-name="Idieresis" unicode="&#xcf;" 
d="M358 559v-106h578v106h-235v615h235v106h-578v-106h236v-615h-236zM746 1370q101 0 183 -30t139.5 -82t88.5 -121.5t31 -147.5v-608q0 -78 -31 -147.5t-88.5 -121.5t-139.5 -82t-183 -30h-308q-101 0 -183 30t-139.5 82t-88.5 121.5t-31 147.5v608q0 78 31 147.5
t88.5 121.5t139.5 82t183 30h308zM840 1479v129h-131v-129h131zM383 1313q-66 43 -99.5 107.5t-33.5 142.5q0 60 28 114t80.5 95.5t126.5 65.5t166 24t166.5 -24t127 -65.5t80.5 -95.5t28 -114q0 -79 -34.5 -143t-100.5 -107h-535zM578 1479v129h-131v-129h131z" />
    <glyph glyph-name="Eth" unicode="&#xd0;" 
d="M954 1118l-14 84l-63 64l-103 14h-446v-373h-72v-65h72v-389h446l103 12l63 63l14 86v504zM834 569l-66 -10h-336v283h84v65h-84v267h336l70 -11l10 -59v-479zM746 1370q101 0 183 -30t139.5 -82t88.5 -121.5t31 -147.5v-608q0 -78 -31 -147.5t-88.5 -121.5t-139.5 -82
t-183 -30h-308q-101 0 -183 30t-139.5 82t-88.5 121.5t-31 147.5v608q0 78 31 147.5t88.5 121.5t139.5 82t183 30h308z" />
    <glyph glyph-name="Ntilde" unicode="&#xd1;" 
d="M932 1120l-14 84l-64 64l-102 12h-250l-180 -25v-802h106v710l78 13h240l69 -11l10 -59v-653h107v667zM746 1370q101 0 183 -30t139.5 -82t88.5 -121.5t31 -147.5v-608q0 -78 -31 -147.5t-88.5 -121.5t-139.5 -82t-183 -30h-308q-101 0 -183 30t-139.5 82t-88.5 121.5
t-31 147.5v608q0 78 31 147.5t88.5 121.5t139.5 82t183 30h308zM293 1308q-66 54 -99.5 124t-33.5 155q0 78 31 147t88.5 121t139.5 82t183 30q102 0 183.5 -30t139.5 -82t89 -121t31 -147q0 -82 -34 -153.5t-97 -125.5h-621zM725 1427q28 0 45 13.5t25.5 33.5t11 43t2.5 41
v33h-90q-14 -45 -24.5 -60.5t-24.5 -15.5q-12 0 -28.5 10t-42 22.5t-62 22.5t-88.5 10q-29 0 -46 -16t-25.5 -38.5t-10.5 -45.5t-2 -37v-12h90q8 38 18.5 52.5t24.5 14.5q15 0 34.5 -11t46.5 -24.5t63 -24.5t83 -11z" />
    <glyph glyph-name="Ograve" unicode="&#xd2;" 
d="M746 1370q101 0 183 -30t139.5 -82t88.5 -121.5t31 -147.5v-608q0 -78 -31 -147.5t-88.5 -121.5t-139.5 -82t-183 -30h-308q-101 0 -183 30t-139.5 82t-88.5 121.5t-31 147.5v608q0 78 31 147.5t88.5 121.5t139.5 82t183 30h308zM952 1118l-14 84l-63 64l-103 14h-268
l-102 -14l-64 -64l-12 -84v-504l12 -86l66 -63l100 -12h268l103 12l63 63l14 86v504zM832 569l-66 -10h-256l-65 10l-15 60v479l10 55l70 11h256l70 -11l10 -59v-479zM447 1293q-11 11 -21 26t-22 35l-158 270q-23 38 -33 71.5t-10 61.5q0 49 25 86.5t66 63t94.5 38.5
t109.5 13q42 0 80.5 -6t70 -19t54.5 -35t35 -53q34 -107 54.5 -176t31.5 -111.5t14.5 -63.5t3.5 -31q0 -30 -10 -56.5t-27 -48.5t-39 -38.5t-45 -26.5h-274zM574 1450h69l-100 334h-121z" />
    <glyph glyph-name="Oacute" unicode="&#xd3;" 
d="M746 1370q101 0 183 -30t139.5 -82t88.5 -121.5t31 -147.5v-608q0 -78 -31 -147.5t-88.5 -121.5t-139.5 -82t-183 -30h-308q-101 0 -183 30t-139.5 82t-88.5 121.5t-31 147.5v608q0 78 31 147.5t88.5 121.5t139.5 82t183 30h308zM952 1118l-14 84l-63 64l-103 14h-268
l-102 -14l-64 -64l-12 -84v-504l12 -86l66 -63l100 -12h268l103 12l63 63l14 86v504zM832 569l-66 -10h-256l-65 10l-15 60v479l10 55l70 11h256l70 -11l10 -59v-479zM502 1293q-23 10 -45 26.5t-39 38.5t-27 48.5t-10 56.5q0 10 3 31t14 63.5t31.5 111.5t55.5 176
q12 31 35 53t54.5 35t70 19t80.5 6q56 0 109 -13t94.5 -38.5t66.5 -63t25 -86.5q-1 -28 -10.5 -61.5t-32.5 -71.5l-158 -270q-12 -20 -22 -35t-21 -26h-274zM801 1784h-121l-100 -334h69z" />
    <glyph glyph-name="Ocircumflex" unicode="&#xd4;" 
d="M746 1370q101 0 183 -30t139.5 -82t88.5 -121.5t31 -147.5v-608q0 -78 -31 -147.5t-88.5 -121.5t-139.5 -82t-183 -30h-308q-101 0 -183 30t-139.5 82t-88.5 121.5t-31 147.5v608q0 78 31 147.5t88.5 121.5t139.5 82t183 30h308zM952 1118l-14 84l-63 64l-103 14h-268
l-102 -14l-64 -64l-12 -84v-504l12 -86l66 -63l100 -12h268l103 12l63 63l14 86v504zM832 569l-66 -10h-256l-65 10l-15 60v479l10 55l70 11h256l70 -11l10 -59v-479zM325 1311q-31 26 -46 64.5t-15 80.5q0 36 14.5 88t38 111.5t52 122.5t55.5 121q29 51 79 76.5t134 25.5
q42 0 75 -7t59 -22.5t46.5 -41t38.5 -62.5q40 -86 72 -162q13 -33 26.5 -67.5t23.5 -66t16.5 -59t6.5 -46.5q0 -102 -69 -156h-607zM633 1759l94 -292h82l-131 338h-90l-131 -338h81z" />
    <glyph glyph-name="Otilde" unicode="&#xd5;" 
d="M746 1370q101 0 183 -30t139.5 -82t88.5 -121.5t31 -147.5v-608q0 -78 -31 -147.5t-88.5 -121.5t-139.5 -82t-183 -30h-308q-101 0 -183 30t-139.5 82t-88.5 121.5t-31 147.5v608q0 78 31 147.5t88.5 121.5t139.5 82t183 30h308zM952 1118l-14 84l-63 64l-103 14h-268
l-102 -14l-64 -64l-12 -84v-504l12 -86l66 -63l100 -12h268l103 12l63 63l14 86v504zM832 569l-66 -10h-256l-65 10l-15 60v479l10 55l70 11h256l70 -11l10 -59v-479zM328 1311q-66 54 -99.5 124t-33.5 155q0 78 31 147t88.5 121t139.5 82t183 30q102 0 183.5 -30t139.5 -82
t89 -121t31 -147q0 -82 -34 -153.5t-97 -125.5h-621zM760 1430q28 0 45 13.5t25.5 33.5t11 43t2.5 41v33h-90q-14 -45 -24.5 -60.5t-24.5 -15.5q-12 0 -28.5 10t-42 22.5t-62 22.5t-88.5 10q-29 0 -46 -16t-25.5 -38.5t-10.5 -45.5t-2 -37v-12h90q8 38 18.5 52.5t24.5 14.5
q15 0 34.5 -11t46.5 -24.5t63 -24.5t83 -11z" />
    <glyph glyph-name="Odieresis" unicode="&#xd6;" 
d="M746 1370q101 0 183 -30t139.5 -82t88.5 -121.5t31 -147.5v-608q0 -78 -31 -147.5t-88.5 -121.5t-139.5 -82t-183 -30h-308q-101 0 -183 30t-139.5 82t-88.5 121.5t-31 147.5v608q0 78 31 147.5t88.5 121.5t139.5 82t183 30h308zM952 1118l-14 84l-63 64l-103 14h-268
l-102 -14l-64 -64l-12 -84v-504l12 -86l66 -63l100 -12h268l103 12l63 63l14 86v504zM832 569l-66 -10h-256l-65 10l-15 60v479l10 55l70 11h256l70 -11l10 -59v-479zM826 1479v129h-131v-129h131zM369 1313q-66 43 -99.5 107.5t-33.5 142.5q0 60 28 114t80.5 95.5
t126.5 65.5t166 24t166.5 -24t127 -65.5t80.5 -95.5t28 -114q0 -79 -34.5 -143t-100.5 -107h-535zM564 1479v129h-131v-129h131z" />
    <glyph glyph-name="multiply" unicode="&#xd7;" 
d="M746 1370q101 0 183 -30t139.5 -82t88.5 -121.5t31 -147.5v-608q0 -78 -31 -147.5t-88.5 -121.5t-139.5 -82t-183 -30h-308q-101 0 -183 30t-139.5 82t-88.5 121.5t-31 147.5v608q0 78 31 147.5t88.5 121.5t139.5 82t183 30h308zM831 739l-139 140l139 139l-59 59
l-139 -139l-137 137l-59 -61l137 -137l-137 -138l57 -59l139 138l139 -140z" />
    <glyph glyph-name="Oslash" unicode="&#xd8;" 
d="M941 1120l-14 83l-63 64l-103 14h-268l-103 -14l-63 -64l-14 -83v-500l14 -86l65 -64l101 -12h268l103 12l63 64l14 86v500zM419 1109l10 56l70 10h258q3 0 8 -1t8 -1l-354 -533v469zM821 575l-66 -10h-260q-3 0 -5.5 1t-4.5 1l350 542v-479zM746 1370q101 0 183 -30
t139.5 -82t88.5 -121.5t31 -147.5v-608q0 -78 -31 -147.5t-88.5 -121.5t-139.5 -82t-183 -30h-308q-101 0 -183 30t-139.5 82t-88.5 121.5t-31 147.5v608q0 78 31 147.5t88.5 121.5t139.5 82t183 30h308z" />
    <glyph glyph-name="Ugrave" unicode="&#xd9;" 
d="M746 1370q101 0 183 -30t139.5 -82t88.5 -121.5t31 -147.5v-608q0 -78 -31 -147.5t-88.5 -121.5t-139.5 -82t-183 -30h-308q-101 0 -183 30t-139.5 82t-88.5 121.5t-31 147.5v608q0 78 31 147.5t88.5 121.5t139.5 82t183 30h308zM946 1280h-106v-655q-2 -13 -6.5 -28
t-8.5 -28l-65 -10h-256l-66 10l-14 60v651h-104v-666l12 -86l65 -63l101 -12h268l102 12l64 63l14 86v666zM453 1293q-11 11 -21 26t-22 35l-158 270q-23 38 -33 71.5t-10 61.5q0 49 25 86.5t66 63t94.5 38.5t109.5 13q42 0 80.5 -6t70 -19t54.5 -35t35 -53
q34 -107 54.5 -176t31.5 -111.5t14.5 -63.5t3.5 -31q0 -30 -10 -56.5t-27 -48.5t-39 -38.5t-45 -26.5h-274zM580 1450h69l-100 334h-121z" />
    <glyph glyph-name="Uacute" unicode="&#xda;" 
d="M746 1370q101 0 183 -30t139.5 -82t88.5 -121.5t31 -147.5v-608q0 -78 -31 -147.5t-88.5 -121.5t-139.5 -82t-183 -30h-308q-101 0 -183 30t-139.5 82t-88.5 121.5t-31 147.5v608q0 78 31 147.5t88.5 121.5t139.5 82t183 30h308zM946 1280h-106v-655q-2 -13 -6.5 -28
t-8.5 -28l-65 -10h-256l-66 10l-14 60v651h-104v-666l12 -86l65 -63l101 -12h268l102 12l64 63l14 86v666zM508 1293q-23 10 -45 26.5t-39 38.5t-27 48.5t-10 56.5q0 10 3 31t14 63.5t31.5 111.5t55.5 176q12 31 35 53t54.5 35t70 19t80.5 6q56 0 109 -13t94.5 -38.5
t66.5 -63t25 -86.5q-1 -28 -10.5 -61.5t-32.5 -71.5l-158 -270q-12 -20 -22 -35t-21 -26h-274zM807 1784h-121l-100 -334h69z" />
    <glyph glyph-name="Ucircumflex" unicode="&#xdb;" 
d="M746 1370q101 0 183 -30t139.5 -82t88.5 -121.5t31 -147.5v-608q0 -78 -31 -147.5t-88.5 -121.5t-139.5 -82t-183 -30h-308q-101 0 -183 30t-139.5 82t-88.5 121.5t-31 147.5v608q0 78 31 147.5t88.5 121.5t139.5 82t183 30h308zM946 1280h-106v-655q-2 -13 -6.5 -28
t-8.5 -28l-65 -10h-256l-66 10l-14 60v651h-104v-666l12 -86l65 -63l101 -12h268l102 12l64 63l14 86v666zM331 1311q-31 26 -46 64.5t-15 80.5q0 36 14.5 88t38 111.5t52 122.5t55.5 121q29 51 79 76.5t134 25.5q42 0 75 -7t59 -22.5t46.5 -41t38.5 -62.5q40 -86 72 -162
q13 -33 26.5 -67.5t23.5 -66t16.5 -59t6.5 -46.5q0 -102 -69 -156h-607zM639 1759l94 -292h82l-131 338h-90l-131 -338h81z" />
    <glyph glyph-name="Udieresis" unicode="&#xdc;" 
d="M746 1370q101 0 183 -30t139.5 -82t88.5 -121.5t31 -147.5v-608q0 -78 -31 -147.5t-88.5 -121.5t-139.5 -82t-183 -30h-308q-101 0 -183 30t-139.5 82t-88.5 121.5t-31 147.5v608q0 78 31 147.5t88.5 121.5t139.5 82t183 30h308zM946 1280h-106v-655q-2 -13 -6.5 -28
t-8.5 -28l-65 -10h-256l-66 10l-14 60v651h-104v-666l12 -86l65 -63l101 -12h268l102 12l64 63l14 86v666zM832 1479v129h-131v-129h131zM375 1313q-66 43 -99.5 107.5t-33.5 142.5q0 60 28 114t80.5 95.5t126.5 65.5t166 24t166.5 -24t127 -65.5t80.5 -95.5t28 -114
q0 -79 -34.5 -143t-100.5 -107h-535zM570 1479v129h-131v-129h131z" />
    <glyph glyph-name="Yacute" unicode="&#xdd;" 
d="M459 1280h-125l250 -594v-233h106v231l254 596h-125l-182 -449zM746 1370q101 0 183 -30t139.5 -82t88.5 -121.5t31 -147.5v-608q0 -78 -31 -147.5t-88.5 -121.5t-139.5 -82t-183 -30h-308q-101 0 -183 30t-139.5 82t-88.5 121.5t-31 147.5v608q0 78 31 147.5t88.5 121.5
t139.5 82t183 30h308zM504 1293q-23 10 -45 26.5t-39 38.5t-27 48.5t-10 56.5q0 10 3 31t14 63.5t31.5 111.5t55.5 176q12 31 35 53t54.5 35t70 19t80.5 6q56 0 109 -13t94.5 -38.5t66.5 -63t25 -86.5q-1 -28 -10.5 -61.5t-32.5 -71.5l-158 -270q-12 -20 -22 -35t-21 -26
h-274zM803 1784h-121l-100 -334h69z" />
    <glyph glyph-name="Thorn" unicode="&#xde;" 
d="M930 973l-14 84l-64 63l-102 15h-269v176h-104v-858h104v231h269l102 12l64 64l14 86v127zM809 801l-65 -10h-263v237h263l69 -10l10 -60v-102zM746 1370q101 0 183 -30t139.5 -82t88.5 -121.5t31 -147.5v-608q0 -78 -31 -147.5t-88.5 -121.5t-139.5 -82t-183 -30h-308
q-101 0 -183 30t-139.5 82t-88.5 121.5t-31 147.5v608q0 78 31 147.5t88.5 121.5t139.5 82t183 30h308z" />
    <glyph glyph-name="germandbls" unicode="&#xdf;" 
d="M946 766l-35 100q-5 1 -17 6.5t-26 12t-26.5 12.5t-18.5 8l29 29l47 88v98l-14 84l-66 64l-100 12h-221l-101 -14l-63 -64l-14 -84v-665h106v655q2 12 6.5 26.5t7.5 26.5l60 13h217l61 -11l15 -53v-96q-2 -13 -7 -27t-8 -26l-65 -13h-37v-106h84l65 -15l15 -55v-147
q-3 -16 -7 -28t-8 -28l-63 -10h-211v-106h217l100 12l66 63l12 86v152zM746 1370q101 0 183 -30t139.5 -82t88.5 -121.5t31 -147.5v-608q0 -78 -31 -147.5t-88.5 -121.5t-139.5 -82t-183 -30h-308q-101 0 -183 30t-139.5 82t-88.5 121.5t-31 147.5v608q0 78 31 147.5
t88.5 121.5t139.5 82t183 30h308z" />
    <glyph glyph-name="agrave" unicode="&#xe0;" 
d="M869 454v228v438v84l-68 64l-100 12h-228l-117 -14l25 -109l94 19h223l60 -13l14 -53v-233l-71 12h-228l-100 -15l-64 -63l-14 -82v-117l14 -84l64 -63l100 -12h219l78 12zM772 569l-78 -10h-215l-63 10l-14 60v86l8 57l69 10h217l76 -8v-151v-54zM746 1370
q101 0 183 -30t139.5 -82t88.5 -121.5t31 -147.5v-608q0 -78 -31 -147.5t-88.5 -121.5t-139.5 -82t-183 -30h-308q-101 0 -183 30t-139.5 82t-88.5 121.5t-31 147.5v608q0 78 31 147.5t88.5 121.5t139.5 82t183 30h308zM451 1293q-11 11 -21 26t-22 35l-158 270
q-23 38 -33 71.5t-10 61.5q0 49 25 86.5t66 63t94.5 38.5t109.5 13q42 0 80.5 -6t70 -19t54.5 -35t35 -53q34 -107 54.5 -176t31.5 -111.5t14.5 -63.5t3.5 -31q0 -30 -10 -56.5t-27 -48.5t-39 -38.5t-45 -26.5h-274zM578 1450h69l-100 334h-121z" />
    <glyph glyph-name="aacute" unicode="&#xe1;" 
d="M869 454v228v438v84l-68 64l-100 12h-228l-117 -14l25 -109l94 19h223l60 -13l14 -53v-233l-71 12h-228l-100 -15l-64 -63l-14 -82v-117l14 -84l64 -63l100 -12h219l78 12zM772 569l-78 -10h-215l-63 10l-14 60v86l8 57l69 10h217l76 -8v-151v-54zM746 1370
q101 0 183 -30t139.5 -82t88.5 -121.5t31 -147.5v-608q0 -78 -31 -147.5t-88.5 -121.5t-139.5 -82t-183 -30h-308q-101 0 -183 30t-139.5 82t-88.5 121.5t-31 147.5v608q0 78 31 147.5t88.5 121.5t139.5 82t183 30h308zM506 1293q-23 10 -45 26.5t-39 38.5t-27 48.5
t-10 56.5q0 10 3 31t14 63.5t31.5 111.5t55.5 176q12 31 35 53t54.5 35t70 19t80.5 6q56 0 109 -13t94.5 -38.5t66.5 -63t25 -86.5q-1 -28 -10.5 -61.5t-32.5 -71.5l-158 -270q-12 -20 -22 -35t-21 -26h-274zM805 1784h-121l-100 -334h69z" />
    <glyph glyph-name="acircumflex" unicode="&#xe2;" 
d="M869 454v228v438v84l-68 64l-100 12h-228l-117 -14l25 -109l94 19h223l60 -13l14 -53v-233l-71 12h-228l-100 -15l-64 -63l-14 -82v-117l14 -84l64 -63l100 -12h219l78 12zM772 569l-78 -10h-215l-63 10l-14 60v86l8 57l69 10h217l76 -8v-151v-54zM746 1370
q101 0 183 -30t139.5 -82t88.5 -121.5t31 -147.5v-608q0 -78 -31 -147.5t-88.5 -121.5t-139.5 -82t-183 -30h-308q-101 0 -183 30t-139.5 82t-88.5 121.5t-31 147.5v608q0 78 31 147.5t88.5 121.5t139.5 82t183 30h308zM329 1311q-31 26 -46 64.5t-15 80.5q0 36 14.5 88
t38 111.5t52 122.5t55.5 121q29 51 79 76.5t134 25.5q42 0 75 -7t59 -22.5t46.5 -41t38.5 -62.5q40 -86 72 -162q13 -33 26.5 -67.5t23.5 -66t16.5 -59t6.5 -46.5q0 -102 -69 -156h-607zM637 1759l94 -292h82l-131 338h-90l-131 -338h81z" />
    <glyph glyph-name="atilde" unicode="&#xe3;" 
d="M869 454v228v438v84l-68 64l-100 12h-228l-117 -14l25 -109l94 19h223l60 -13l14 -53v-233l-71 12h-228l-100 -15l-64 -63l-14 -82v-117l14 -84l64 -63l100 -12h219l78 12zM772 569l-78 -10h-215l-63 10l-14 60v86l8 57l69 10h217l76 -8v-151v-54zM746 1370
q101 0 183 -30t139.5 -82t88.5 -121.5t31 -147.5v-608q0 -78 -31 -147.5t-88.5 -121.5t-139.5 -82t-183 -30h-308q-101 0 -183 30t-139.5 82t-88.5 121.5t-31 147.5v608q0 78 31 147.5t88.5 121.5t139.5 82t183 30h308zM332 1311q-66 54 -99.5 124t-33.5 155q0 78 31 147
t88.5 121t139.5 82t183 30q102 0 183.5 -30t139.5 -82t89 -121t31 -147q0 -82 -34 -153.5t-97 -125.5h-621zM764 1430q28 0 45 13.5t25.5 33.5t11 43t2.5 41v33h-90q-14 -45 -24.5 -60.5t-24.5 -15.5q-12 0 -28.5 10t-42 22.5t-62 22.5t-88.5 10q-29 0 -46 -16t-25.5 -38.5
t-10.5 -45.5t-2 -37v-12h90q8 38 18.5 52.5t24.5 14.5q15 0 34.5 -11t46.5 -24.5t63 -24.5t83 -11z" />
    <glyph glyph-name="adieresis" unicode="&#xe4;" 
d="M869 454v228v438v84l-68 64l-100 12h-228l-117 -14l25 -109l94 19h223l60 -13l14 -53v-233l-71 12h-228l-100 -15l-64 -63l-14 -82v-117l14 -84l64 -63l100 -12h219l78 12zM772 569l-78 -10h-215l-63 10l-14 60v86l8 57l69 10h217l76 -8v-151v-54zM746 1370
q101 0 183 -30t139.5 -82t88.5 -121.5t31 -147.5v-608q0 -78 -31 -147.5t-88.5 -121.5t-139.5 -82t-183 -30h-308q-101 0 -183 30t-139.5 82t-88.5 121.5t-31 147.5v608q0 78 31 147.5t88.5 121.5t139.5 82t183 30h308zM830 1479v129h-131v-129h131zM373 1313
q-66 43 -99.5 107.5t-33.5 142.5q0 60 28 114t80.5 95.5t126.5 65.5t166 24t166.5 -24t127 -65.5t80.5 -95.5t28 -114q0 -79 -34.5 -143t-100.5 -107h-535zM568 1479v129h-131v-129h131z" />
    <glyph glyph-name="aring" unicode="&#xe5;" 
d="M869 454v228v438v84l-68 64l-100 12h-228l-117 -14l25 -109l94 19h223l60 -13l14 -53v-233l-71 12h-228l-100 -15l-64 -63l-14 -82v-117l14 -84l64 -63l100 -12h219l78 12zM772 569l-78 -10h-215l-63 10l-14 60v86l8 57l69 10h217l76 -8v-151v-54zM746 1370
q101 0 183 -30t139.5 -82t88.5 -121.5t31 -147.5v-608q0 -78 -31 -147.5t-88.5 -121.5t-139.5 -82t-183 -30h-308q-101 0 -183 30t-139.5 82t-88.5 121.5t-31 147.5v608q0 78 31 147.5t88.5 121.5t139.5 82t183 30h308zM338 1311q-45 51 -66.5 117.5t-21.5 138.5
q0 78 26.5 147.5t76 121.5t120 82t158.5 30q87 0 157.5 -30t120 -82t76.5 -121.5t27 -147.5q0 -75 -23 -140t-65 -116h-586zM596 1766l-74 -15l-53 -53l-12 -88l12 -98l53 -54l74 -12h68l71 12l58 56l8 86l-8 98l-58 53l-71 15h-68zM713 1671l10 -65l-10 -66l-60 -14h-53
l-55 10l-10 70l10 70l59 10h54z" />
    <glyph glyph-name="ae" unicode="&#xe6;" 
d="M746 1370q101 0 183 -30t139.5 -82t88.5 -121.5t31 -147.5v-608q0 -78 -31 -147.5t-88.5 -121.5t-139.5 -82t-183 -30h-308q-101 0 -183 30t-139.5 82t-88.5 121.5t-31 147.5v608q0 78 31 147.5t88.5 121.5t139.5 82t183 30h308zM944 563h-262v256h262v105h-262v252h262
v106h-420l-133 -20l-61 -62l-82 -741h106l17 131h205v-131h368v104zM383 696l49 465q28 3 48.5 7t47.5 8h48v-480h-193z" />
    <glyph glyph-name="ccedilla" unicode="&#xe7;" 
d="M746 1370q101 0 183 -30t139.5 -82t88.5 -121.5t31 -147.5v-608q0 -78 -31 -147.5t-88.5 -121.5t-139.5 -82t-183 -30h-308q-101 0 -183 30t-139.5 82t-88.5 121.5t-31 147.5v608q0 78 31 147.5t88.5 121.5t139.5 82t183 30h308zM733 1280h-184l-160 -12l-63 -64l-15 -84
v-508l15 -84l65 -63l101 -12h94v-35h-71l-58 -61l-12 -57v-19l12 -78l60 -59l143 -12v90l-111 10l-14 59l10 35l111 10v117h77l117 14l-25 108l-94 -16h-233l-66 10l-14 60v481l10 55l70 11h229l103 -17l20 107z" />
    <glyph glyph-name="egrave" unicode="&#xe8;" 
d="M746 1370q101 0 183 -30t139.5 -82t88.5 -121.5t31 -147.5v-608q0 -78 -31 -147.5t-88.5 -121.5t-139.5 -82t-183 -30h-308q-101 0 -183 30t-139.5 82t-88.5 121.5t-31 147.5v608q0 78 31 147.5t88.5 121.5t139.5 82t183 30h308zM877 1120l-15 84l-63 64l-101 12h-217
l-100 -12l-63 -64l-15 -84v-475l15 -84l63 -63l100 -13h252l117 15l-25 108l-94 -16h-243l-64 10l-14 60v206h467v252zM410 973v135l8 57l70 11h204l68 -11l10 -59v-133h-360zM444 1315q-11 11 -21 26t-22 35l-158 270q-23 38 -33 71.5t-10 61.5q0 49 25 86.5t66 63
t94.5 38.5t109.5 13q42 0 80.5 -6t70 -19t54.5 -35t35 -53q34 -107 54.5 -176t31.5 -111.5t14.5 -63.5t3.5 -31q0 -30 -10 -56.5t-27 -48.5t-39 -38.5t-45 -26.5h-274zM571 1472h69l-100 334h-121z" />
    <glyph glyph-name="eacute" unicode="&#xe9;" 
d="M746 1370q101 0 183 -30t139.5 -82t88.5 -121.5t31 -147.5v-608q0 -78 -31 -147.5t-88.5 -121.5t-139.5 -82t-183 -30h-308q-101 0 -183 30t-139.5 82t-88.5 121.5t-31 147.5v608q0 78 31 147.5t88.5 121.5t139.5 82t183 30h308zM877 1120l-15 84l-63 64l-101 12h-217
l-100 -12l-63 -64l-15 -84v-475l15 -84l63 -63l100 -13h252l117 15l-25 108l-94 -16h-243l-64 10l-14 60v206h467v252zM410 973v135l8 57l70 11h204l68 -11l10 -59v-133h-360zM479 1318q-23 10 -45 26.5t-39 38.5t-27 48.5t-10 56.5q0 10 3 31t14 63.5t31.5 111.5t55.5 176
q12 31 35 53t54.5 35t70 19t80.5 6q56 0 109 -13t94.5 -38.5t66.5 -63t25 -86.5q-1 -28 -10.5 -61.5t-32.5 -71.5l-158 -270q-12 -20 -22 -35t-21 -26h-274zM778 1809h-121l-100 -334h69z" />
    <glyph glyph-name="ecircumflex" unicode="&#xea;" 
d="M746 1370q101 0 183 -30t139.5 -82t88.5 -121.5t31 -147.5v-608q0 -78 -31 -147.5t-88.5 -121.5t-139.5 -82t-183 -30h-308q-101 0 -183 30t-139.5 82t-88.5 121.5t-31 147.5v608q0 78 31 147.5t88.5 121.5t139.5 82t183 30h308zM877 1120l-15 84l-63 64l-101 12h-217
l-100 -12l-63 -64l-15 -84v-475l15 -84l63 -63l100 -13h252l117 15l-25 108l-94 -16h-243l-64 10l-14 60v206h467v252zM410 973v135l8 57l70 11h204l68 -11l10 -59v-133h-360zM286 1309q-31 26 -46 64.5t-15 80.5q0 36 14.5 88t38 111.5t52 122.5t55.5 121q29 51 79 76.5
t134 25.5q42 0 75 -7t59 -22.5t46.5 -41t38.5 -62.5q40 -86 72 -162q13 -33 26.5 -67.5t23.5 -66t16.5 -59t6.5 -46.5q0 -102 -69 -156h-607zM594 1757l94 -292h82l-131 338h-90l-131 -338h81z" />
    <glyph glyph-name="edieresis" unicode="&#xeb;" 
d="M746 1370q101 0 183 -30t139.5 -82t88.5 -121.5t31 -147.5v-608q0 -78 -31 -147.5t-88.5 -121.5t-139.5 -82t-183 -30h-308q-101 0 -183 30t-139.5 82t-88.5 121.5t-31 147.5v608q0 78 31 147.5t88.5 121.5t139.5 82t183 30h308zM877 1120l-15 84l-63 64l-101 12h-217
l-100 -12l-63 -64l-15 -84v-475l15 -84l63 -63l100 -13h252l117 15l-25 108l-94 -16h-243l-64 10l-14 60v206h467v252zM410 973v135l8 57l70 11h204l68 -11l10 -59v-133h-360zM775 1485v129h-131v-129h131zM318 1319q-66 43 -99.5 107.5t-33.5 142.5q0 60 28 114t80.5 95.5
t126.5 65.5t166 24t166.5 -24t127 -65.5t80.5 -95.5t28 -114q0 -79 -34.5 -143t-100.5 -107h-535zM513 1485v129h-131v-129h131z" />
    <glyph glyph-name="igrave" unicode="&#xec;" 
d="M358 559v-106h578v106h-235v615h235v106h-578v-106h236v-615h-236zM746 1370q101 0 183 -30t139.5 -82t88.5 -121.5t31 -147.5v-608q0 -78 -31 -147.5t-88.5 -121.5t-139.5 -82t-183 -30h-308q-101 0 -183 30t-139.5 82t-88.5 121.5t-31 147.5v608q0 78 31 147.5
t88.5 121.5t139.5 82t183 30h308zM455 1293q-11 11 -21 26t-22 35l-158 270q-23 38 -33 71.5t-10 61.5q0 49 25 86.5t66 63t94.5 38.5t109.5 13q42 0 80.5 -6t70 -19t54.5 -35t35 -53q34 -107 54.5 -176t31.5 -111.5t14.5 -63.5t3.5 -31q0 -30 -10 -56.5t-27 -48.5
t-39 -38.5t-45 -26.5h-274zM582 1450h69l-100 334h-121z" />
    <glyph glyph-name="iacute" unicode="&#xed;" 
d="M358 559v-106h578v106h-235v615h235v106h-578v-106h236v-615h-236zM746 1370q101 0 183 -30t139.5 -82t88.5 -121.5t31 -147.5v-608q0 -78 -31 -147.5t-88.5 -121.5t-139.5 -82t-183 -30h-308q-101 0 -183 30t-139.5 82t-88.5 121.5t-31 147.5v608q0 78 31 147.5
t88.5 121.5t139.5 82t183 30h308zM510 1293q-23 10 -45 26.5t-39 38.5t-27 48.5t-10 56.5q0 10 3 31t14 63.5t31.5 111.5t55.5 176q12 31 35 53t54.5 35t70 19t80.5 6q56 0 109 -13t94.5 -38.5t66.5 -63t25 -86.5q-1 -28 -10.5 -61.5t-32.5 -71.5l-158 -270q-12 -20 -22 -35
t-21 -26h-274zM809 1784h-121l-100 -334h69z" />
    <glyph glyph-name="icircumflex" unicode="&#xee;" 
d="M358 559v-106h578v106h-235v615h235v106h-578v-106h236v-615h-236zM746 1370q101 0 183 -30t139.5 -82t88.5 -121.5t31 -147.5v-608q0 -78 -31 -147.5t-88.5 -121.5t-139.5 -82t-183 -30h-308q-101 0 -183 30t-139.5 82t-88.5 121.5t-31 147.5v608q0 78 31 147.5
t88.5 121.5t139.5 82t183 30h308zM333 1311q-31 26 -46 64.5t-15 80.5q0 36 14.5 88t38 111.5t52 122.5t55.5 121q29 51 79 76.5t134 25.5q42 0 75 -7t59 -22.5t46.5 -41t38.5 -62.5q40 -86 72 -162q13 -33 26.5 -67.5t23.5 -66t16.5 -59t6.5 -46.5q0 -102 -69 -156h-607z
M641 1759l94 -292h82l-131 338h-90l-131 -338h81z" />
    <glyph glyph-name="idieresis" unicode="&#xef;" 
d="M358 559v-106h578v106h-235v615h235v106h-578v-106h236v-615h-236zM746 1370q101 0 183 -30t139.5 -82t88.5 -121.5t31 -147.5v-608q0 -78 -31 -147.5t-88.5 -121.5t-139.5 -82t-183 -30h-308q-101 0 -183 30t-139.5 82t-88.5 121.5t-31 147.5v608q0 78 31 147.5
t88.5 121.5t139.5 82t183 30h308zM834 1479v129h-131v-129h131zM377 1313q-66 43 -99.5 107.5t-33.5 142.5q0 60 28 114t80.5 95.5t126.5 65.5t166 24t166.5 -24t127 -65.5t80.5 -95.5t28 -114q0 -79 -34.5 -143t-100.5 -107h-535zM572 1479v129h-131v-129h131z" />
    <glyph glyph-name="eth" unicode="&#xf0;" 
d="M954 1118l-14 84l-63 64l-103 14h-446v-373h-72v-65h72v-389h446l103 12l63 63l14 86v504zM834 569l-66 -10h-336v283h84v65h-84v267h336l70 -11l10 -59v-479zM746 1370q101 0 183 -30t139.5 -82t88.5 -121.5t31 -147.5v-608q0 -78 -31 -147.5t-88.5 -121.5t-139.5 -82
t-183 -30h-308q-101 0 -183 30t-139.5 82t-88.5 121.5t-31 147.5v608q0 78 31 147.5t88.5 121.5t139.5 82t183 30h308z" />
    <glyph glyph-name="ntilde" unicode="&#xf1;" 
d="M932 1120l-14 84l-64 64l-102 12h-250l-180 -25v-802h106v710l78 13h240l69 -11l10 -59v-653h107v667zM746 1370q101 0 183 -30t139.5 -82t88.5 -121.5t31 -147.5v-608q0 -78 -31 -147.5t-88.5 -121.5t-139.5 -82t-183 -30h-308q-101 0 -183 30t-139.5 82t-88.5 121.5
t-31 147.5v608q0 78 31 147.5t88.5 121.5t139.5 82t183 30h308zM291 1314q-66 54 -99.5 124t-33.5 155q0 78 31 147t88.5 121t139.5 82t183 30q102 0 183.5 -30t139.5 -82t89 -121t31 -147q0 -82 -34 -153.5t-97 -125.5h-621zM723 1433q28 0 45 13.5t25.5 33.5t11 43t2.5 41
v33h-90q-14 -45 -24.5 -60.5t-24.5 -15.5q-12 0 -28.5 10t-42 22.5t-62 22.5t-88.5 10q-29 0 -46 -16t-25.5 -38.5t-10.5 -45.5t-2 -37v-12h90q8 38 18.5 52.5t24.5 14.5q15 0 34.5 -11t46.5 -24.5t63 -24.5t83 -11z" />
    <glyph glyph-name="oacute" unicode="&#xf3;" 
d="M746 1370q101 0 183 -30t139.5 -82t88.5 -121.5t31 -147.5v-608q0 -78 -31 -147.5t-88.5 -121.5t-139.5 -82t-183 -30h-308q-101 0 -183 30t-139.5 82t-88.5 121.5t-31 147.5v608q0 78 31 147.5t88.5 121.5t139.5 82t183 30h308zM952 1118l-14 84l-63 64l-103 14h-268
l-102 -14l-64 -64l-12 -84v-504l12 -86l66 -63l100 -12h268l103 12l63 63l14 86v504zM832 569l-66 -10h-256l-65 10l-15 60v479l10 55l70 11h256l70 -11l10 -59v-479zM482 1301q-23 10 -45 26.5t-39 38.5t-27 48.5t-10 56.5q0 10 3 31t14 63.5t31.5 111.5t55.5 176
q12 31 35 53t54.5 35t70 19t80.5 6q56 0 109 -13t94.5 -38.5t66.5 -63t25 -86.5q-1 -28 -10.5 -61.5t-32.5 -71.5l-158 -270q-12 -20 -22 -35t-21 -26h-274zM781 1792h-121l-100 -334h69z" />
    <glyph glyph-name="ocircumflex" unicode="&#xf4;" 
d="M746 1370q101 0 183 -30t139.5 -82t88.5 -121.5t31 -147.5v-608q0 -78 -31 -147.5t-88.5 -121.5t-139.5 -82t-183 -30h-308q-101 0 -183 30t-139.5 82t-88.5 121.5t-31 147.5v608q0 78 31 147.5t88.5 121.5t139.5 82t183 30h308zM952 1118l-14 84l-63 64l-103 14h-268
l-102 -14l-64 -64l-12 -84v-504l12 -86l66 -63l100 -12h268l103 12l63 63l14 86v504zM832 569l-66 -10h-256l-65 10l-15 60v479l10 55l70 11h256l70 -11l10 -59v-479zM330 1306q-31 26 -46 64.5t-15 80.5q0 36 14.5 88t38 111.5t52 122.5t55.5 121q29 51 79 76.5t134 25.5
q42 0 75 -7t59 -22.5t46.5 -41t38.5 -62.5q40 -86 72 -162q13 -33 26.5 -67.5t23.5 -66t16.5 -59t6.5 -46.5q0 -102 -69 -156h-607zM638 1754l94 -292h82l-131 338h-90l-131 -338h81z" />
    <glyph glyph-name="otilde" unicode="&#xf5;" 
d="M746 1370q101 0 183 -30t139.5 -82t88.5 -121.5t31 -147.5v-608q0 -78 -31 -147.5t-88.5 -121.5t-139.5 -82t-183 -30h-308q-101 0 -183 30t-139.5 82t-88.5 121.5t-31 147.5v608q0 78 31 147.5t88.5 121.5t139.5 82t183 30h308zM952 1118l-14 84l-63 64l-103 14h-268
l-102 -14l-64 -64l-12 -84v-504l12 -86l66 -63l100 -12h268l103 12l63 63l14 86v504zM832 569l-66 -10h-256l-65 10l-15 60v479l10 55l70 11h256l70 -11l10 -59v-479zM320 1305q-66 54 -99.5 124t-33.5 155q0 78 31 147t88.5 121t139.5 82t183 30q102 0 183.5 -30t139.5 -82
t89 -121t31 -147q0 -82 -34 -153.5t-97 -125.5h-621zM752 1424q28 0 45 13.5t25.5 33.5t11 43t2.5 41v33h-90q-14 -45 -24.5 -60.5t-24.5 -15.5q-12 0 -28.5 10t-42 22.5t-62 22.5t-88.5 10q-29 0 -46 -16t-25.5 -38.5t-10.5 -45.5t-2 -37v-12h90q8 38 18.5 52.5t24.5 14.5
q15 0 34.5 -11t46.5 -24.5t63 -24.5t83 -11z" />
    <glyph glyph-name="odieresis" unicode="&#xf6;" 
d="M746 1370q101 0 183 -30t139.5 -82t88.5 -121.5t31 -147.5v-608q0 -78 -31 -147.5t-88.5 -121.5t-139.5 -82t-183 -30h-308q-101 0 -183 30t-139.5 82t-88.5 121.5t-31 147.5v608q0 78 31 147.5t88.5 121.5t139.5 82t183 30h308zM952 1118l-14 84l-63 64l-103 14h-268
l-102 -14l-64 -64l-12 -84v-504l12 -86l66 -63l100 -12h268l103 12l63 63l14 86v504zM832 569l-66 -10h-256l-65 10l-15 60v479l10 55l70 11h256l70 -11l10 -59v-479zM832 1469v129h-131v-129h131zM375 1303q-66 43 -99.5 107.5t-33.5 142.5q0 60 28 114t80.5 95.5
t126.5 65.5t166 24t166.5 -24t127 -65.5t80.5 -95.5t28 -114q0 -79 -34.5 -143t-100.5 -107h-535zM570 1469v129h-131v-129h131z" />
    <glyph glyph-name="divide" unicode="&#xf7;" horiz-adv-x="877" 
d="M504 739v129h-131v-129h131zM504 1069v129h-131v-129h131zM627 918v108h-377v-108h377zM438 0q-101 0 -183 30t-139.5 82t-88.5 121.5t-31 147.5v608q0 78 31 147.5t88.5 121.5t139.5 82t183 30q102 0 183.5 -30t139.5 -82t89 -121.5t31 -147.5v-608q0 -78 -31 -147.5
t-89 -121.5t-139.5 -82t-183.5 -30z" />
    <glyph glyph-name="oslash" unicode="&#xf8;" 
d="M941 1120l-14 83l-63 64l-103 14h-268l-103 -14l-63 -64l-14 -83v-500l14 -86l65 -64l101 -12h268l103 12l63 64l14 86v500zM419 1109l10 56l70 10h258q3 0 8 -1t8 -1l-354 -533v469zM821 575l-66 -10h-260q-3 0 -5.5 1t-4.5 1l350 542v-479zM746 1370q101 0 183 -30
t139.5 -82t88.5 -121.5t31 -147.5v-608q0 -78 -31 -147.5t-88.5 -121.5t-139.5 -82t-183 -30h-308q-101 0 -183 30t-139.5 82t-88.5 121.5t-31 147.5v608q0 78 31 147.5t88.5 121.5t139.5 82t183 30h308z" />
    <glyph glyph-name="ugrave" unicode="&#xf9;" 
d="M746 1370q101 0 183 -30t139.5 -82t88.5 -121.5t31 -147.5v-608q0 -78 -31 -147.5t-88.5 -121.5t-139.5 -82t-183 -30h-308q-101 0 -183 30t-139.5 82t-88.5 121.5t-31 147.5v608q0 78 31 147.5t88.5 121.5t139.5 82t183 30h308zM946 1280h-106v-655q-2 -13 -6.5 -28
t-8.5 -28l-65 -10h-256l-66 10l-14 60v651h-104v-666l12 -86l65 -63l101 -12h268l102 12l64 63l14 86v666zM455 1293q-11 11 -21 26t-22 35l-158 270q-23 38 -33 71.5t-10 61.5q0 49 25 86.5t66 63t94.5 38.5t109.5 13q42 0 80.5 -6t70 -19t54.5 -35t35 -53
q34 -107 54.5 -176t31.5 -111.5t14.5 -63.5t3.5 -31q0 -30 -10 -56.5t-27 -48.5t-39 -38.5t-45 -26.5h-274zM582 1450h69l-100 334h-121z" />
    <glyph glyph-name="uacute" unicode="&#xfa;" 
d="M746 1370q101 0 183 -30t139.5 -82t88.5 -121.5t31 -147.5v-608q0 -78 -31 -147.5t-88.5 -121.5t-139.5 -82t-183 -30h-308q-101 0 -183 30t-139.5 82t-88.5 121.5t-31 147.5v608q0 78 31 147.5t88.5 121.5t139.5 82t183 30h308zM946 1280h-106v-655q-2 -13 -6.5 -28
t-8.5 -28l-65 -10h-256l-66 10l-14 60v651h-104v-666l12 -86l65 -63l101 -12h268l102 12l64 63l14 86v666zM510 1293q-23 10 -45 26.5t-39 38.5t-27 48.5t-10 56.5q0 10 3 31t14 63.5t31.5 111.5t55.5 176q12 31 35 53t54.5 35t70 19t80.5 6q56 0 109 -13t94.5 -38.5
t66.5 -63t25 -86.5q-1 -28 -10.5 -61.5t-32.5 -71.5l-158 -270q-12 -20 -22 -35t-21 -26h-274zM809 1784h-121l-100 -334h69z" />
    <glyph glyph-name="ucircumflex" unicode="&#xfb;" 
d="M746 1370q101 0 183 -30t139.5 -82t88.5 -121.5t31 -147.5v-608q0 -78 -31 -147.5t-88.5 -121.5t-139.5 -82t-183 -30h-308q-101 0 -183 30t-139.5 82t-88.5 121.5t-31 147.5v608q0 78 31 147.5t88.5 121.5t139.5 82t183 30h308zM946 1280h-106v-655q-2 -13 -6.5 -28
t-8.5 -28l-65 -10h-256l-66 10l-14 60v651h-104v-666l12 -86l65 -63l101 -12h268l102 12l64 63l14 86v666zM333 1311q-31 26 -46 64.5t-15 80.5q0 36 14.5 88t38 111.5t52 122.5t55.5 121q29 51 79 76.5t134 25.5q42 0 75 -7t59 -22.5t46.5 -41t38.5 -62.5q40 -86 72 -162
q13 -33 26.5 -67.5t23.5 -66t16.5 -59t6.5 -46.5q0 -102 -69 -156h-607zM641 1759l94 -292h82l-131 338h-90l-131 -338h81z" />
    <glyph glyph-name="udieresis" unicode="&#xfc;" 
d="M746 1370q101 0 183 -30t139.5 -82t88.5 -121.5t31 -147.5v-608q0 -78 -31 -147.5t-88.5 -121.5t-139.5 -82t-183 -30h-308q-101 0 -183 30t-139.5 82t-88.5 121.5t-31 147.5v608q0 78 31 147.5t88.5 121.5t139.5 82t183 30h308zM946 1280h-106v-655q-2 -13 -6.5 -28
t-8.5 -28l-65 -10h-256l-66 10l-14 60v651h-104v-666l12 -86l65 -63l101 -12h268l102 12l64 63l14 86v666zM834 1479v129h-131v-129h131zM377 1313q-66 43 -99.5 107.5t-33.5 142.5q0 60 28 114t80.5 95.5t126.5 65.5t166 24t166.5 -24t127 -65.5t80.5 -95.5t28 -114
q0 -79 -34.5 -143t-100.5 -107h-535zM572 1479v129h-131v-129h131z" />
    <glyph glyph-name="yacute" unicode="&#xfd;" 
d="M459 1280h-125l250 -594v-233h106v231l254 596h-125l-182 -449zM746 1370q101 0 183 -30t139.5 -82t88.5 -121.5t31 -147.5v-608q0 -78 -31 -147.5t-88.5 -121.5t-139.5 -82t-183 -30h-308q-101 0 -183 30t-139.5 82t-88.5 121.5t-31 147.5v608q0 78 31 147.5t88.5 121.5
t139.5 82t183 30h308zM504 1293q-23 10 -45 26.5t-39 38.5t-27 48.5t-10 56.5q0 10 3 31t14 63.5t31.5 111.5t55.5 176q12 31 35 53t54.5 35t70 19t80.5 6q56 0 109 -13t94.5 -38.5t66.5 -63t25 -86.5q-1 -28 -10.5 -61.5t-32.5 -71.5l-158 -270q-12 -20 -22 -35t-21 -26
h-274zM803 1784h-121l-100 -334h69z" />
    <glyph glyph-name="thorn" unicode="&#xfe;" 
d="M930 973l-14 84l-64 63l-102 15h-269v176h-104v-858h104v231h269l102 12l64 64l14 86v127zM809 801l-65 -10h-263v237h263l69 -10l10 -60v-102zM746 1370q101 0 183 -30t139.5 -82t88.5 -121.5t31 -147.5v-608q0 -78 -31 -147.5t-88.5 -121.5t-139.5 -82t-183 -30h-308
q-101 0 -183 30t-139.5 82t-88.5 121.5t-31 147.5v608q0 78 31 147.5t88.5 121.5t139.5 82t183 30h308z" />
    <glyph glyph-name="ydieresis" unicode="&#xff;" 
d="M459 1280h-125l250 -594v-233h106v231l254 596h-125l-182 -449zM746 1370q101 0 183 -30t139.5 -82t88.5 -121.5t31 -147.5v-608q0 -78 -31 -147.5t-88.5 -121.5t-139.5 -82t-183 -30h-308q-101 0 -183 30t-139.5 82t-88.5 121.5t-31 147.5v608q0 78 31 147.5t88.5 121.5
t139.5 82t183 30h308zM828 1479v129h-131v-129h131zM371 1313q-66 43 -99.5 107.5t-33.5 142.5q0 60 28 114t80.5 95.5t126.5 65.5t166 24t166.5 -24t127 -65.5t80.5 -95.5t28 -114q0 -79 -34.5 -143t-100.5 -107h-535zM566 1479v129h-131v-129h131z" />
    <glyph glyph-name="Amacron" unicode="&#x100;" 
d="M746 1370q101 0 183 -30t139.5 -82t88.5 -121.5t31 -147.5v-608q0 -78 -31 -147.5t-88.5 -121.5t-139.5 -82t-183 -30h-308q-101 0 -183 30t-139.5 82t-88.5 121.5t-31 147.5v608q0 78 31 147.5t88.5 121.5t139.5 82t183 30h308zM838 453h114l-79 745l-62 62l-133 20
h-107l-133 -20l-61 -62l-82 -745h119l16 213l10 92h369l10 -92zM768 1159q7 -81 16 -153t17 -152h-352l30 305q28 3 48.5 7t48.5 8h98zM796 1479v108h-376v-108h376zM354 1270q-85 51 -129.5 119.5t-44.5 159.5q0 65 31 123t88.5 101.5t139.5 69t183 25.5q102 0 183.5 -25.5
t139.5 -69t89 -101.5t31 -123q0 -91 -45 -159.5t-129 -119.5h-537z" />
    <glyph glyph-name="amacron" unicode="&#x101;" 
d="M869 454v228v438v84l-68 64l-100 12h-228l-117 -14l25 -109l94 19h223l60 -13l14 -53v-233l-71 12h-228l-100 -15l-64 -63l-14 -82v-117l14 -84l64 -63l100 -12h219l78 12zM772 569l-78 -10h-215l-63 10l-14 60v86l8 57l69 10h217l76 -8v-151v-54zM746 1370
q101 0 183 -30t139.5 -82t88.5 -121.5t31 -147.5v-608q0 -78 -31 -147.5t-88.5 -121.5t-139.5 -82t-183 -30h-308q-101 0 -183 30t-139.5 82t-88.5 121.5t-31 147.5v608q0 78 31 147.5t88.5 121.5t139.5 82t183 30h308zM815 1479v108h-376v-108h376zM373 1270
q-85 51 -129.5 119.5t-44.5 159.5q0 65 31 123t88.5 101.5t139.5 69t183 25.5q102 0 183.5 -25.5t139.5 -69t89 -101.5t31 -123q0 -91 -45 -159.5t-129 -119.5h-537z" />
    <glyph glyph-name="Abreve" unicode="&#x102;" 
d="M746 1370q101 0 183 -30t139.5 -82t88.5 -121.5t31 -147.5v-608q0 -78 -31 -147.5t-88.5 -121.5t-139.5 -82t-183 -30h-308q-101 0 -183 30t-139.5 82t-88.5 121.5t-31 147.5v608q0 78 31 147.5t88.5 121.5t139.5 82t183 30h308zM838 453h114l-79 745l-62 62l-133 20
h-107l-133 -20l-61 -62l-82 -745h119l16 213l10 92h369l10 -92zM768 1159q7 -81 16 -153t17 -152h-352l30 305q28 3 48.5 7t48.5 8h98zM354 1311q-85 51 -129.5 119.5t-44.5 159.5q0 65 31 123t88.5 101.5t139.5 69t183 25.5q102 0 183.5 -25.5t139.5 -69t89 -101.5t31 -123
q0 -91 -45 -159.5t-129 -119.5h-537zM452 1510l58 -58l78 -12h71l78 12l59 60l13 98h-90l-11 -66l-59 -14h-53l-56 10l-10 70h-90z" />
    <glyph glyph-name="abreve" unicode="&#x103;" 
d="M869 454v228v438v84l-68 64l-100 12h-228l-117 -14l25 -109l94 19h223l60 -13l14 -53v-233l-71 12h-228l-100 -15l-64 -63l-14 -82v-117l14 -84l64 -63l100 -12h219l78 12zM772 569l-78 -10h-215l-63 10l-14 60v86l8 57l69 10h217l76 -8v-151v-54zM746 1370
q101 0 183 -30t139.5 -82t88.5 -121.5t31 -147.5v-608q0 -78 -31 -147.5t-88.5 -121.5t-139.5 -82t-183 -30h-308q-101 0 -183 30t-139.5 82t-88.5 121.5t-31 147.5v608q0 78 31 147.5t88.5 121.5t139.5 82t183 30h308zM373 1311q-85 51 -129.5 119.5t-44.5 159.5
q0 65 31 123t88.5 101.5t139.5 69t183 25.5q102 0 183.5 -25.5t139.5 -69t89 -101.5t31 -123q0 -91 -45 -159.5t-129 -119.5h-537zM471 1510l58 -58l78 -12h71l78 12l59 60l13 98h-90l-11 -66l-59 -14h-53l-56 10l-10 70h-90z" />
    <glyph glyph-name="Aogonek" unicode="&#x104;" 
d="M768 1159q7 -81 16 -153t17 -152h-352l30 305q28 3 48.5 7t48.5 8h98zM746 1370q101 0 183 -30t139.5 -82t88.5 -121.5t31 -147.5v-608q0 -78 -31 -147.5t-88.5 -121.5t-139.5 -82t-183 -30h-308q-101 0 -183 30t-139.5 82t-88.5 121.5t-31 147.5v608q0 78 31 147.5
t88.5 121.5t139.5 82t183 30h308zM821 291l11 35l110 127h10l-79 745l-62 62l-133 20h-107l-133 -20l-61 -62l-82 -745h119l16 213l10 92h369l10 -92l19 -213h35l-72 -39l-57 -58l-13 -75l13 -78l59 -60l143 -12v90l-110 10z" />
    <glyph glyph-name="aogonek" unicode="&#x105;" 
d="M746 1370q101 0 183 -30t139.5 -82t88.5 -121.5t31 -147.5v-608q0 -78 -31 -147.5t-88.5 -121.5t-139.5 -82t-183 -30h-308q-101 0 -183 30t-139.5 82t-88.5 121.5t-31 147.5v608q0 78 31 147.5t88.5 121.5t139.5 82t183 30h308zM771 569l-77 -10h-215l-63 10l-14 60v86
l8 57l69 10h217l76 -8v-151zM879 465v217v438l-15 84l-63 64l-100 12h-228l-117 -14l25 -109l94 19h223l60 -13l14 -53v-233l-71 12h-228l-100 -15l-64 -63l-14 -82v-117l14 -84l64 -63l100 -12h158l-71 -39l-58 -57l-12 -76l12 -78l60 -59l143 -13v91l-111 10l-14 59l10 35
l111 127h-9z" />
    <glyph glyph-name="Cacute" unicode="&#x106;" 
d="M733 1280h-241l-103 -12l-63 -64l-15 -84v-508l15 -84l65 -63l101 -12h241l117 14l-25 108l-94 -16h-233l-66 10l-14 60v481l10 55l70 11h229l103 -17l20 107zM746 1370q101 0 183 -30t139.5 -82t88.5 -121.5t31 -147.5v-608q0 -78 -31 -147.5t-88.5 -121.5t-139.5 -82
t-183 -30h-308q-101 0 -183 30t-139.5 82t-88.5 121.5t-31 147.5v608q0 78 31 147.5t88.5 121.5t139.5 82t183 30h308zM516 1293q-23 10 -45 26.5t-39 38.5t-27 48.5t-10 56.5q0 10 3 31t14 63.5t31.5 111.5t55.5 176q12 31 35 53t54.5 35t70 19t80.5 6q56 0 109 -13
t94.5 -38.5t66.5 -63t25 -86.5q-1 -28 -10.5 -61.5t-32.5 -71.5l-158 -270q-12 -20 -22 -35t-21 -26h-274zM815 1784h-121l-100 -334h69z" />
    <glyph glyph-name="cacute" unicode="&#x107;" 
d="M733 1280h-241l-103 -12l-63 -64l-15 -84v-508l15 -84l65 -63l101 -12h241l117 14l-25 108l-94 -16h-233l-66 10l-14 60v481l10 55l70 11h229l103 -17l20 107zM746 1370q101 0 183 -30t139.5 -82t88.5 -121.5t31 -147.5v-608q0 -78 -31 -147.5t-88.5 -121.5t-139.5 -82
t-183 -30h-308q-101 0 -183 30t-139.5 82t-88.5 121.5t-31 147.5v608q0 78 31 147.5t88.5 121.5t139.5 82t183 30h308zM508 1293q-23 10 -45 26.5t-39 38.5t-27 48.5t-10 56.5q0 10 3 31t14 63.5t31.5 111.5t55.5 176q12 31 35 53t54.5 35t70 19t80.5 6q56 0 109 -13
t94.5 -38.5t66.5 -63t25 -86.5q-1 -28 -10.5 -61.5t-32.5 -71.5l-158 -270q-12 -20 -22 -35t-21 -26h-274zM807 1784h-121l-100 -334h69z" />
    <glyph glyph-name="Ccircumflex" unicode="&#x108;" 
d="M733 1280h-241l-103 -12l-63 -64l-15 -84v-508l15 -84l65 -63l101 -12h241l117 14l-25 108l-94 -16h-233l-66 10l-14 60v481l10 55l70 11h229l103 -17l20 107zM746 1370q101 0 183 -30t139.5 -82t88.5 -121.5t31 -147.5v-608q0 -78 -31 -147.5t-88.5 -121.5t-139.5 -82
t-183 -30h-308q-101 0 -183 30t-139.5 82t-88.5 121.5t-31 147.5v608q0 78 31 147.5t88.5 121.5t139.5 82t183 30h308zM315 1311q-31 26 -46 64.5t-15 80.5q0 36 14.5 88t38 111.5t52 122.5t55.5 121q29 51 79 76.5t134 25.5q42 0 75 -7t59 -22.5t46.5 -41t38.5 -62.5
q40 -86 72 -162q13 -33 26.5 -67.5t23.5 -66t16.5 -59t6.5 -46.5q0 -102 -69 -156h-607zM623 1759l94 -292h82l-131 338h-90l-131 -338h81z" />
    <glyph glyph-name="ccircumflex" unicode="&#x109;" 
d="M733 1280h-241l-103 -12l-63 -64l-15 -84v-508l15 -84l65 -63l101 -12h241l117 14l-25 108l-94 -16h-233l-66 10l-14 60v481l10 55l70 11h229l103 -17l20 107zM746 1370q101 0 183 -30t139.5 -82t88.5 -121.5t31 -147.5v-608q0 -78 -31 -147.5t-88.5 -121.5t-139.5 -82
t-183 -30h-308q-101 0 -183 30t-139.5 82t-88.5 121.5t-31 147.5v608q0 78 31 147.5t88.5 121.5t139.5 82t183 30h308zM311 1311q-31 26 -46 64.5t-15 80.5q0 36 14.5 88t38 111.5t52 122.5t55.5 121q29 51 79 76.5t134 25.5q42 0 75 -7t59 -22.5t46.5 -41t38.5 -62.5
q40 -86 72 -162q13 -33 26.5 -67.5t23.5 -66t16.5 -59t6.5 -46.5q0 -102 -69 -156h-607zM619 1759l94 -292h82l-131 338h-90l-131 -338h81z" />
    <glyph glyph-name="Cdotaccent" unicode="&#x10a;" 
d="M733 1280h-241l-103 -12l-63 -64l-15 -84v-508l15 -84l65 -63l101 -12h241l117 14l-25 108l-94 -16h-233l-66 10l-14 60v481l10 55l70 11h229l103 -17l20 107zM746 1370q101 0 183 -30t139.5 -82t88.5 -121.5t31 -147.5v-608q0 -78 -31 -147.5t-88.5 -121.5t-139.5 -82
t-183 -30h-308q-101 0 -183 30t-139.5 82t-88.5 121.5t-31 147.5v608q0 78 31 147.5t88.5 121.5t139.5 82t183 30h308zM637 1462v129h-131v-129h131zM229 1290q-23 22 -41 53.5t-30 66.5t-18.5 71.5t-6.5 69.5q0 65 31 123t88.5 101.5t139.5 69t183 25.5q102 0 183.5 -25.5
t139.5 -69t89 -101.5t31 -123q0 -78 -24 -142.5t-70 -118.5h-695z" />
    <glyph glyph-name="cdotaccent" unicode="&#x10b;" 
d="M733 1280h-241l-103 -12l-63 -64l-15 -84v-508l15 -84l65 -63l101 -12h241l117 14l-25 108l-94 -16h-233l-66 10l-14 60v481l10 55l70 11h229l103 -17l20 107zM746 1370q101 0 183 -30t139.5 -82t88.5 -121.5t31 -147.5v-608q0 -78 -31 -147.5t-88.5 -121.5t-139.5 -82
t-183 -30h-308q-101 0 -183 30t-139.5 82t-88.5 121.5t-31 147.5v608q0 78 31 147.5t88.5 121.5t139.5 82t183 30h308zM656 1462v129h-131v-129h131zM248 1290q-23 22 -41 53.5t-30 66.5t-18.5 71.5t-6.5 69.5q0 65 31 123t88.5 101.5t139.5 69t183 25.5q102 0 183.5 -25.5
t139.5 -69t89 -101.5t31 -123q0 -78 -24 -142.5t-70 -118.5h-695z" />
    <glyph glyph-name="Ccaron" unicode="&#x10c;" 
d="M733 1280h-241l-103 -12l-63 -64l-15 -84v-508l15 -84l65 -63l101 -12h241l117 14l-25 108l-94 -16h-233l-66 10l-14 60v481l10 55l70 11h229l103 -17l20 107zM746 1370q101 0 183 -30t139.5 -82t88.5 -121.5t31 -147.5v-608q0 -78 -31 -147.5t-88.5 -121.5t-139.5 -82
t-183 -30h-308q-101 0 -183 30t-139.5 82t-88.5 121.5t-31 147.5v608q0 78 31 147.5t88.5 121.5t139.5 82t183 30h308zM582 1882q31 28 68 44t91 16q55 0 94.5 -16t64.5 -43t36.5 -63.5t11.5 -76.5q0 -41 -11.5 -97t-28.5 -116t-37.5 -118t-38.5 -101h-502
q-21 58 -42.5 121.5t-38.5 122.5t-27.5 110.5t-10.5 87.5t12 69.5t40 59.5t72 42t109 16q50 0 81 -16t57 -42zM485 1764h-81l131 -338h90l131 338h-82l-94 -293z" />
    <glyph glyph-name="ccaron" unicode="&#x10d;" 
d="M733 1280h-241l-103 -12l-63 -64l-15 -84v-508l15 -84l65 -63l101 -12h241l117 14l-25 108l-94 -16h-233l-66 10l-14 60v481l10 55l70 11h229l103 -17l20 107zM746 1370q101 0 183 -30t139.5 -82t88.5 -121.5t31 -147.5v-608q0 -78 -31 -147.5t-88.5 -121.5t-139.5 -82
t-183 -30h-308q-101 0 -183 30t-139.5 82t-88.5 121.5t-31 147.5v608q0 78 31 147.5t88.5 121.5t139.5 82t183 30h308zM600 1882q31 28 68 44t91 16q55 0 94.5 -16t64.5 -43t36.5 -63.5t11.5 -76.5q0 -41 -11.5 -97t-28.5 -116t-37.5 -118t-38.5 -101h-502
q-21 58 -42.5 121.5t-38.5 122.5t-27.5 110.5t-10.5 87.5t12 69.5t40 59.5t72 42t109 16q50 0 81 -16t57 -42zM503 1764h-81l131 -338h90l131 338h-82l-94 -293z" />
    <glyph glyph-name="Dcaron" unicode="&#x10e;" 
d="M746 1370q101 0 183 -30t139.5 -82t88.5 -121.5t31 -147.5v-608q0 -78 -31 -147.5t-88.5 -121.5t-139.5 -82t-183 -30h-308q-101 0 -183 30t-139.5 82t-88.5 121.5t-31 147.5v608q0 78 31 147.5t88.5 121.5t139.5 82t183 30h308zM954 1118l-14 84l-63 64l-103 14h-446
v-827h446l103 12l63 63l14 86v504zM834 569l-66 -10h-336v615h336l70 -11l10 -59v-479zM594 1908q31 28 68 44t91 16q55 0 94.5 -16t64.5 -43t36.5 -63.5t11.5 -76.5q0 -41 -11.5 -97t-28.5 -116t-37.5 -118t-38.5 -101h-502q-21 58 -42.5 121.5t-38.5 122.5t-27.5 110.5
t-10.5 87.5t12 69.5t40 59.5t72 42t109 16q50 0 81 -16t57 -42zM497 1790h-81l131 -338h90l131 338h-82l-94 -293z" />
    <glyph glyph-name="dcaron" unicode="&#x10f;" 
d="M746 1370q101 0 183 -30t139.5 -82t88.5 -121.5t31 -147.5v-608q0 -78 -31 -147.5t-88.5 -121.5t-139.5 -82t-183 -30h-308q-101 0 -183 30t-139.5 82t-88.5 121.5t-31 147.5v608q0 78 31 147.5t88.5 121.5t139.5 82t183 30h308zM827 1118l-14 84l-63 64l-103 14h-401
v-827h401l103 12l63 63l14 86v504zM707 569l-66 -10h-291v615h291l70 -11l10 -59v-479zM940 1022l62 129v129h-152v-129h66l-39 -100z" />
    <glyph glyph-name="Dcroat" unicode="&#x110;" 
d="M954 1118l-14 84l-63 64l-103 14h-446v-326h-125v-108h125v-393h446l103 12l63 63l14 86v504zM834 569l-66 -10h-336v287h148v108h-148v220h336l70 -11l10 -59v-479zM746 1370q101 0 183 -30t139.5 -82t88.5 -121.5t31 -147.5v-608q0 -78 -31 -147.5t-88.5 -121.5
t-139.5 -82t-183 -30h-308q-101 0 -183 30t-139.5 82t-88.5 121.5t-31 147.5v608q0 78 31 147.5t88.5 121.5t139.5 82t183 30h308z" />
    <glyph glyph-name="dcroat" unicode="&#x111;" 
d="M954 1118l-14 84l-63 64l-103 14h-446v-326h-125v-108h125v-393h446l103 12l63 63l14 86v504zM834 569l-66 -10h-336v287h148v108h-148v220h336l70 -11l10 -59v-479zM746 1370q101 0 183 -30t139.5 -82t88.5 -121.5t31 -147.5v-608q0 -78 -31 -147.5t-88.5 -121.5
t-139.5 -82t-183 -30h-308q-101 0 -183 30t-139.5 82t-88.5 121.5t-31 147.5v608q0 78 31 147.5t88.5 121.5t139.5 82t183 30h308z" />
    <glyph glyph-name="Emacron" unicode="&#x112;" 
d="M905 559h-399v254h334v105h-334v256h385v106h-489v-827h503v106zM746 1370q101 0 183 -30t139.5 -82t88.5 -121.5t31 -147.5v-608q0 -78 -31 -147.5t-88.5 -121.5t-139.5 -82t-183 -30h-308q-101 0 -183 30t-139.5 82t-88.5 121.5t-31 147.5v608q0 78 31 147.5
t88.5 121.5t139.5 82t183 30h308zM817 1479v108h-376v-108h376zM375 1270q-85 51 -129.5 119.5t-44.5 159.5q0 65 31 123t88.5 101.5t139.5 69t183 25.5q102 0 183.5 -25.5t139.5 -69t89 -101.5t31 -123q0 -91 -45 -159.5t-129 -119.5h-537z" />
    <glyph glyph-name="emacron" unicode="&#x113;" 
d="M746 1370q101 0 183 -30t139.5 -82t88.5 -121.5t31 -147.5v-608q0 -78 -31 -147.5t-88.5 -121.5t-139.5 -82t-183 -30h-308q-101 0 -183 30t-139.5 82t-88.5 121.5t-31 147.5v608q0 78 31 147.5t88.5 121.5t139.5 82t183 30h308zM877 1120l-15 84l-63 64l-101 12h-217
l-100 -12l-63 -64l-15 -84v-475l15 -84l63 -63l100 -13h252l117 15l-25 108l-94 -16h-243l-64 10l-14 60v206h467v252zM410 973v135l8 57l70 11h204l68 -11l10 -59v-133h-360zM766 1464v108h-376v-108h376zM324 1255q-85 51 -129.5 119.5t-44.5 159.5q0 65 31 123
t88.5 101.5t139.5 69t183 25.5q102 0 183.5 -25.5t139.5 -69t89 -101.5t31 -123q0 -91 -45 -159.5t-129 -119.5h-537z" />
    <glyph glyph-name="Ebreve" unicode="&#x114;" 
d="M905 559h-399v254h334v105h-334v256h385v106h-489v-827h503v106zM746 1370q101 0 183 -30t139.5 -82t88.5 -121.5t31 -147.5v-608q0 -78 -31 -147.5t-88.5 -121.5t-139.5 -82t-183 -30h-308q-101 0 -183 30t-139.5 82t-88.5 121.5t-31 147.5v608q0 78 31 147.5
t88.5 121.5t139.5 82t183 30h308zM375 1311q-85 51 -129.5 119.5t-44.5 159.5q0 65 31 123t88.5 101.5t139.5 69t183 25.5q102 0 183.5 -25.5t139.5 -69t89 -101.5t31 -123q0 -91 -45 -159.5t-129 -119.5h-537zM473 1510l58 -58l78 -12h71l78 12l59 60l13 98h-90l-11 -66
l-59 -14h-53l-56 10l-10 70h-90z" />
    <glyph glyph-name="ebreve" unicode="&#x115;" 
d="M746 1370q101 0 183 -30t139.5 -82t88.5 -121.5t31 -147.5v-608q0 -78 -31 -147.5t-88.5 -121.5t-139.5 -82t-183 -30h-308q-101 0 -183 30t-139.5 82t-88.5 121.5t-31 147.5v608q0 78 31 147.5t88.5 121.5t139.5 82t183 30h308zM877 1120l-15 84l-63 64l-101 12h-217
l-100 -12l-63 -64l-15 -84v-475l15 -84l63 -63l100 -13h252l117 15l-25 108l-94 -16h-243l-64 10l-14 60v206h467v252zM410 973v135l8 57l70 11h204l68 -11l10 -59v-133h-360zM324 1300q-85 51 -129.5 119.5t-44.5 159.5q0 65 31 123t88.5 101.5t139.5 69t183 25.5
q102 0 183.5 -25.5t139.5 -69t89 -101.5t31 -123q0 -91 -45 -159.5t-129 -119.5h-537zM422 1499l58 -58l78 -12h71l78 12l59 60l13 98h-90l-11 -66l-59 -14h-53l-56 10l-10 70h-90z" />
    <glyph glyph-name="Edotaccent" unicode="&#x116;" 
d="M905 559h-399v254h334v105h-334v256h385v106h-489v-827h503v106zM746 1370q101 0 183 -30t139.5 -82t88.5 -121.5t31 -147.5v-608q0 -78 -31 -147.5t-88.5 -121.5t-139.5 -82t-183 -30h-308q-101 0 -183 30t-139.5 82t-88.5 121.5t-31 147.5v608q0 78 31 147.5
t88.5 121.5t139.5 82t183 30h308zM705 1503v129h-131v-129h131zM297 1331q-23 22 -41 53.5t-30 66.5t-18.5 71.5t-6.5 69.5q0 65 31 123t88.5 101.5t139.5 69t183 25.5q102 0 183.5 -25.5t139.5 -69t89 -101.5t31 -123q0 -78 -24 -142.5t-70 -118.5h-695z" />
    <glyph glyph-name="edotaccent" unicode="&#x117;" 
d="M746 1370q101 0 183 -30t139.5 -82t88.5 -121.5t31 -147.5v-608q0 -78 -31 -147.5t-88.5 -121.5t-139.5 -82t-183 -30h-308q-101 0 -183 30t-139.5 82t-88.5 121.5t-31 147.5v608q0 78 31 147.5t88.5 121.5t139.5 82t183 30h308zM877 1120l-15 84l-63 64l-101 12h-217
l-100 -12l-63 -64l-15 -84v-475l15 -84l63 -63l100 -13h252l117 15l-25 108l-94 -16h-243l-64 10l-14 60v206h467v252zM410 973v135l8 57l70 11h204l68 -11l10 -59v-133h-360zM654 1490v129h-131v-129h131zM246 1318q-23 22 -41 53.5t-30 66.5t-18.5 71.5t-6.5 69.5
q0 65 31 123t88.5 101.5t139.5 69t183 25.5q102 0 183.5 -25.5t139.5 -69t89 -101.5t31 -123q0 -78 -24 -142.5t-70 -118.5h-695z" />
    <glyph glyph-name="Eogonek" unicode="&#x118;" 
d="M746 1370q101 0 183 -30t139.5 -82t88.5 -121.5t31 -147.5v-608q0 -78 -31 -147.5t-88.5 -121.5t-139.5 -82t-183 -30h-308q-101 0 -183 30t-139.5 82t-88.5 121.5t-31 147.5v608q0 78 31 147.5t88.5 121.5t139.5 82t183 30h308zM905 559h-399v254h334v105h-334v256h385
v106h-489v-827h425l-71 -39l-58 -58l-12 -75l12 -78l60 -60l143 -12v90l-110 10l-15 60l11 35l110 127h8v106z" />
    <glyph glyph-name="eogonek" unicode="&#x119;" 
d="M410 973v135l8 57l70 11h204l68 -11l10 -59v-133h-360zM877 1120l-15 84l-63 64l-101 12h-217l-100 -12l-63 -64l-15 -84v-475l15 -84l63 -63l100 -13h191l-72 -39l-57 -57l-12 -76l12 -77l59 -60l144 -12v90l-111 10l-14 60l10 34l110 127h-8l117 15l-25 108l-94 -16
h-243l-64 10l-14 60v206h467v252zM746 1370q101 0 183 -30t139.5 -82t88.5 -121.5t31 -147.5v-608q0 -78 -31 -147.5t-88.5 -121.5t-139.5 -82t-183 -30h-308q-101 0 -183 30t-139.5 82t-88.5 121.5t-31 147.5v608q0 78 31 147.5t88.5 121.5t139.5 82t183 30h308z" />
    <glyph glyph-name="Ecaron" unicode="&#x11a;" 
d="M905 559h-399v254h334v105h-334v256h385v106h-489v-827h503v106zM746 1370q101 0 183 -30t139.5 -82t88.5 -121.5t31 -147.5v-608q0 -78 -31 -147.5t-88.5 -121.5t-139.5 -82t-183 -30h-308q-101 0 -183 30t-139.5 82t-88.5 121.5t-31 147.5v608q0 78 31 147.5
t88.5 121.5t139.5 82t183 30h308zM650 1882q31 28 68 44t91 16q55 0 94.5 -16t64.5 -43t36.5 -63.5t11.5 -76.5q0 -41 -11.5 -97t-28.5 -116t-37.5 -118t-38.5 -101h-502q-21 58 -42.5 121.5t-38.5 122.5t-27.5 110.5t-10.5 87.5t12 69.5t40 59.5t72 42t109 16q50 0 81 -16
t57 -42zM553 1764h-81l131 -338h90l131 338h-82l-94 -293z" />
    <glyph glyph-name="ecaron" unicode="&#x11b;" 
d="M746 1370q101 0 183 -30t139.5 -82t88.5 -121.5t31 -147.5v-608q0 -78 -31 -147.5t-88.5 -121.5t-139.5 -82t-183 -30h-308q-101 0 -183 30t-139.5 82t-88.5 121.5t-31 147.5v608q0 78 31 147.5t88.5 121.5t139.5 82t183 30h308zM877 1120l-15 84l-63 64l-101 12h-217
l-100 -12l-63 -64l-15 -84v-475l15 -84l63 -63l100 -13h252l117 15l-25 108l-94 -16h-243l-64 10l-14 60v206h467v252zM410 973v135l8 57l70 11h204l68 -11l10 -59v-133h-360zM594 1888q31 28 68 44t91 16q55 0 94.5 -16t64.5 -43t36.5 -63.5t11.5 -76.5q0 -41 -11.5 -97
t-28.5 -116t-37.5 -118t-38.5 -101h-502q-21 58 -42.5 121.5t-38.5 122.5t-27.5 110.5t-10.5 87.5t12 69.5t40 59.5t72 42t109 16q50 0 81 -16t57 -42zM497 1770h-81l131 -338h90l131 338h-82l-94 -293z" />
    <glyph glyph-name="Gcircumflex" unicode="&#x11c;" 
d="M524 1176h260l103 -17l20 107l-116 14h-269l-102 -16l-64 -64l-14 -84v-502l14 -86l66 -63l100 -12h250l101 12l65 63l14 86v263h-290v-107h184v-141q-5 -16 -7 -30t-7 -30l-66 -10h-242l-61 10l-14 64v473l10 55zM746 1370q101 0 183 -30t139.5 -82t88.5 -121.5
t31 -147.5v-608q0 -78 -31 -147.5t-88.5 -121.5t-139.5 -82t-183 -30h-308q-101 0 -183 30t-139.5 82t-88.5 121.5t-31 147.5v608q0 78 31 147.5t88.5 121.5t139.5 82t183 30h308zM305 1305q-31 26 -46 64.5t-15 80.5q0 36 14.5 88t38 111.5t52 122.5t55.5 121
q29 51 79 76.5t134 25.5q42 0 75 -7t59 -22.5t46.5 -41t38.5 -62.5q40 -86 72 -162q13 -33 26.5 -67.5t23.5 -66t16.5 -59t6.5 -46.5q0 -102 -69 -156h-607zM613 1753l94 -292h82l-131 338h-90l-131 -338h81z" />
    <glyph glyph-name="gcircumflex" unicode="&#x11d;" 
d="M524 1176h260l103 -17l20 107l-116 14h-269l-102 -16l-64 -64l-14 -84v-502l14 -86l66 -63l100 -12h250l101 12l65 63l14 86v263h-290v-107h184v-141q-5 -16 -7 -30t-7 -30l-66 -10h-242l-61 10l-14 64v473l10 55zM746 1370q101 0 183 -30t139.5 -82t88.5 -121.5
t31 -147.5v-608q0 -78 -31 -147.5t-88.5 -121.5t-139.5 -82t-183 -30h-308q-101 0 -183 30t-139.5 82t-88.5 121.5t-31 147.5v608q0 78 31 147.5t88.5 121.5t139.5 82t183 30h308zM305 1303q-31 26 -46 64.5t-15 80.5q0 36 14.5 88t38 111.5t52 122.5t55.5 121
q29 51 79 76.5t134 25.5q42 0 75 -7t59 -22.5t46.5 -41t38.5 -62.5q40 -86 72 -162q13 -33 26.5 -67.5t23.5 -66t16.5 -59t6.5 -46.5q0 -102 -69 -156h-607zM613 1751l94 -292h82l-131 338h-90l-131 -338h81z" />
    <glyph glyph-name="Gbreve" unicode="&#x11e;" 
d="M524 1176h260l103 -17l20 107l-116 14h-269l-102 -16l-64 -64l-14 -84v-502l14 -86l66 -63l100 -12h250l101 12l65 63l14 86v263h-290v-107h184v-141q-5 -16 -7 -30t-7 -30l-66 -10h-242l-61 10l-14 64v473l10 55zM746 1370q101 0 183 -30t139.5 -82t88.5 -121.5
t31 -147.5v-608q0 -78 -31 -147.5t-88.5 -121.5t-139.5 -82t-183 -30h-308q-101 0 -183 30t-139.5 82t-88.5 121.5t-31 147.5v608q0 78 31 147.5t88.5 121.5t139.5 82t183 30h308zM344 1313q-85 51 -129.5 119.5t-44.5 159.5q0 65 31 123t88.5 101.5t139.5 69t183 25.5
q102 0 183.5 -25.5t139.5 -69t89 -101.5t31 -123q0 -91 -45 -159.5t-129 -119.5h-537zM442 1512l58 -58l78 -12h71l78 12l59 60l13 98h-90l-11 -66l-59 -14h-53l-56 10l-10 70h-90z" />
    <glyph glyph-name="gbreve" unicode="&#x11f;" 
d="M524 1176h260l103 -17l20 107l-116 14h-269l-102 -16l-64 -64l-14 -84v-502l14 -86l66 -63l100 -12h250l101 12l65 63l14 86v263h-290v-107h184v-141q-5 -16 -7 -30t-7 -30l-66 -10h-242l-61 10l-14 64v473l10 55zM746 1370q101 0 183 -30t139.5 -82t88.5 -121.5
t31 -147.5v-608q0 -78 -31 -147.5t-88.5 -121.5t-139.5 -82t-183 -30h-308q-101 0 -183 30t-139.5 82t-88.5 121.5t-31 147.5v608q0 78 31 147.5t88.5 121.5t139.5 82t183 30h308zM324 1309q-85 51 -129.5 119.5t-44.5 159.5q0 65 31 123t88.5 101.5t139.5 69t183 25.5
q102 0 183.5 -25.5t139.5 -69t89 -101.5t31 -123q0 -91 -45 -159.5t-129 -119.5h-537zM422 1508l58 -58l78 -12h71l78 12l59 60l13 98h-90l-11 -66l-59 -14h-53l-56 10l-10 70h-90z" />
    <glyph glyph-name="Gdotaccent" unicode="&#x120;" 
d="M524 1176h260l103 -17l20 107l-116 14h-269l-102 -16l-64 -64l-14 -84v-502l14 -86l66 -63l100 -12h250l101 12l65 63l14 86v263h-290v-107h184v-141q-5 -16 -7 -30t-7 -30l-66 -10h-242l-61 10l-14 64v473l10 55zM746 1370q101 0 183 -30t139.5 -82t88.5 -121.5
t31 -147.5v-608q0 -78 -31 -147.5t-88.5 -121.5t-139.5 -82t-183 -30h-308q-101 0 -183 30t-139.5 82t-88.5 121.5t-31 147.5v608q0 78 31 147.5t88.5 121.5t139.5 82t183 30h308zM654 1493v129h-131v-129h131zM246 1321q-23 22 -41 53.5t-30 66.5t-18.5 71.5t-6.5 69.5
q0 65 31 123t88.5 101.5t139.5 69t183 25.5q102 0 183.5 -25.5t139.5 -69t89 -101.5t31 -123q0 -78 -24 -142.5t-70 -118.5h-695z" />
    <glyph glyph-name="gdotaccent" unicode="&#x121;" 
d="M524 1176h260l103 -17l20 107l-116 14h-269l-102 -16l-64 -64l-14 -84v-502l14 -86l66 -63l100 -12h250l101 12l65 63l14 86v263h-290v-107h184v-141q-5 -16 -7 -30t-7 -30l-66 -10h-242l-61 10l-14 64v473l10 55zM746 1370q101 0 183 -30t139.5 -82t88.5 -121.5
t31 -147.5v-608q0 -78 -31 -147.5t-88.5 -121.5t-139.5 -82t-183 -30h-308q-101 0 -183 30t-139.5 82t-88.5 121.5t-31 147.5v608q0 78 31 147.5t88.5 121.5t139.5 82t183 30h308zM654 1501v129h-131v-129h131zM246 1329q-23 22 -41 53.5t-30 66.5t-18.5 71.5t-6.5 69.5
q0 65 31 123t88.5 101.5t139.5 69t183 25.5q102 0 183.5 -25.5t139.5 -69t89 -101.5t31 -123q0 -78 -24 -142.5t-70 -118.5h-695z" />
    <glyph glyph-name="Gcommaaccent" unicode="&#x122;" 
d="M666 119l61 129v129h-151v-129h65l-39 -101zM524 1176h260l103 -17l20 107l-116 14h-269l-102 -16l-64 -64l-14 -84v-502l14 -86l66 -63l100 -12h250l101 12l65 63l14 86v263h-290v-107h184v-141q-5 -16 -7 -30t-7 -30l-66 -10h-242l-61 10l-14 64v473l10 55zM746 1370
q101 0 183 -30t139.5 -82t88.5 -121.5t31 -147.5v-608q0 -78 -31 -147.5t-88.5 -121.5t-139.5 -82t-183 -30h-308q-101 0 -183 30t-139.5 82t-88.5 121.5t-31 147.5v608q0 78 31 147.5t88.5 121.5t139.5 82t183 30h308z" />
    <glyph glyph-name="gcommaaccent" unicode="&#x123;" 
d="M666 119l61 129v129h-151v-129h65l-39 -101zM524 1176h260l103 -17l20 107l-116 14h-269l-102 -16l-64 -64l-14 -84v-502l14 -86l66 -63l100 -12h250l101 12l65 63l14 86v263h-290v-107h184v-141q-5 -16 -7 -30t-7 -30l-66 -10h-242l-61 10l-14 64v473l10 55zM746 1370
q101 0 183 -30t139.5 -82t88.5 -121.5t31 -147.5v-608q0 -78 -31 -147.5t-88.5 -121.5t-139.5 -82t-183 -30h-308q-101 0 -183 30t-139.5 82t-88.5 121.5t-31 147.5v608q0 78 31 147.5t88.5 121.5t139.5 82t183 30h308z" />
    <glyph glyph-name="Hcircumflex" unicode="&#x124;" 
d="M954 1280h-104v-350h-416v350h-106v-827h106v372h416v-372h104v827zM746 1370q101 0 183 -30t139.5 -82t88.5 -121.5t31 -147.5v-608q0 -78 -31 -147.5t-88.5 -121.5t-139.5 -82t-183 -30h-308q-101 0 -183 30t-139.5 82t-88.5 121.5t-31 147.5v608q0 78 31 147.5
t88.5 121.5t139.5 82t183 30h308zM309 1305q-31 26 -46 64.5t-15 80.5q0 36 14.5 88t38 111.5t52 122.5t55.5 121q29 51 79 76.5t134 25.5q42 0 75 -7t59 -22.5t46.5 -41t38.5 -62.5q40 -86 72 -162q13 -33 26.5 -67.5t23.5 -66t16.5 -59t6.5 -46.5q0 -102 -69 -156h-607z
M617 1753l94 -292h82l-131 338h-90l-131 -338h81z" />
    <glyph glyph-name="hcircumflex" unicode="&#x125;" 
d="M954 1280h-104v-350h-416v350h-106v-827h106v372h416v-372h104v827zM746 1370q101 0 183 -30t139.5 -82t88.5 -121.5t31 -147.5v-608q0 -78 -31 -147.5t-88.5 -121.5t-139.5 -82t-183 -30h-308q-101 0 -183 30t-139.5 82t-88.5 121.5t-31 147.5v608q0 78 31 147.5
t88.5 121.5t139.5 82t183 30h308zM317 1317q-31 26 -46 64.5t-15 80.5q0 36 14.5 88t38 111.5t52 122.5t55.5 121q29 51 79 76.5t134 25.5q42 0 75 -7t59 -22.5t46.5 -41t38.5 -62.5q40 -86 72 -162q13 -33 26.5 -67.5t23.5 -66t16.5 -59t6.5 -46.5q0 -102 -69 -156h-607z
M625 1765l94 -292h82l-131 338h-90l-131 -338h81z" />
    <glyph glyph-name="Hbar" unicode="&#x126;" 
d="M954 1280h-104v-350h-416v350h-106v-827h106v372h416v-372h104v827zM746 1370q101 0 183 -30t139.5 -82t88.5 -121.5t31 -147.5v-608q0 -78 -31 -147.5t-88.5 -121.5t-139.5 -82t-183 -30h-308q-101 0 -183 30t-139.5 82t-88.5 121.5t-31 147.5v608q0 78 31 147.5
t88.5 121.5t139.5 82t183 30h308zM786 1522v108h-376v-108h376zM344 1313q-85 51 -129.5 119.5t-44.5 159.5q0 65 31 123t88.5 101.5t139.5 69t183 25.5q102 0 183.5 -25.5t139.5 -69t89 -101.5t31 -123q0 -91 -45 -159.5t-129 -119.5h-537z" />
    <glyph glyph-name="hbar" unicode="&#x127;" 
d="M954 1054h52v92h-52v134h-104v-134h-416v134h-106v-134h-44v-92h44v-601h106v372h416v-372h104v601zM434 930v124h416v-124h-416zM746 1370q101 0 183 -30t139.5 -82t88.5 -121.5t31 -147.5v-608q0 -78 -31 -147.5t-88.5 -121.5t-139.5 -82t-183 -30h-308q-101 0 -183 30
t-139.5 82t-88.5 121.5t-31 147.5v608q0 78 31 147.5t88.5 121.5t139.5 82t183 30h308z" />
    <glyph glyph-name="Itilde" unicode="&#x128;" 
d="M358 559v-106h578v106h-235v615h235v106h-578v-106h236v-615h-236zM746 1370q101 0 183 -30t139.5 -82t88.5 -121.5t31 -147.5v-608q0 -78 -31 -147.5t-88.5 -121.5t-139.5 -82t-183 -30h-308q-101 0 -183 30t-139.5 82t-88.5 121.5t-31 147.5v608q0 78 31 147.5
t88.5 121.5t139.5 82t183 30h308zM342 1311q-66 54 -99.5 124t-33.5 155q0 78 31 147t88.5 121t139.5 82t183 30q102 0 183.5 -30t139.5 -82t89 -121t31 -147q0 -82 -34 -153.5t-97 -125.5h-621zM774 1430q28 0 45 13.5t25.5 33.5t11 43t2.5 41v33h-90q-14 -45 -24.5 -60.5
t-24.5 -15.5q-12 0 -28.5 10t-42 22.5t-62 22.5t-88.5 10q-29 0 -46 -16t-25.5 -38.5t-10.5 -45.5t-2 -37v-12h90q8 38 18.5 52.5t24.5 14.5q15 0 34.5 -11t46.5 -24.5t63 -24.5t83 -11z" />
    <glyph glyph-name="itilde" unicode="&#x129;" 
d="M358 559v-106h578v106h-235v615h235v106h-578v-106h236v-615h-236zM746 1370q101 0 183 -30t139.5 -82t88.5 -121.5t31 -147.5v-608q0 -78 -31 -147.5t-88.5 -121.5t-139.5 -82t-183 -30h-308q-101 0 -183 30t-139.5 82t-88.5 121.5t-31 147.5v608q0 78 31 147.5
t88.5 121.5t139.5 82t183 30h308zM336 1311q-66 54 -99.5 124t-33.5 155q0 78 31 147t88.5 121t139.5 82t183 30q102 0 183.5 -30t139.5 -82t89 -121t31 -147q0 -82 -34 -153.5t-97 -125.5h-621zM768 1430q28 0 45 13.5t25.5 33.5t11 43t2.5 41v33h-90q-14 -45 -24.5 -60.5
t-24.5 -15.5q-12 0 -28.5 10t-42 22.5t-62 22.5t-88.5 10q-29 0 -46 -16t-25.5 -38.5t-10.5 -45.5t-2 -37v-12h90q8 38 18.5 52.5t24.5 14.5q15 0 34.5 -11t46.5 -24.5t63 -24.5t83 -11z" />
    <glyph glyph-name="Imacron" unicode="&#x12a;" 
d="M358 559v-106h578v106h-235v615h235v106h-578v-106h236v-615h-236zM746 1370q101 0 183 -30t139.5 -82t88.5 -121.5t31 -147.5v-608q0 -78 -31 -147.5t-88.5 -121.5t-139.5 -82t-183 -30h-308q-101 0 -183 30t-139.5 82t-88.5 121.5t-31 147.5v608q0 78 31 147.5
t88.5 121.5t139.5 82t183 30h308zM812 1503v108h-376v-108h376zM370 1294q-85 51 -129.5 119.5t-44.5 159.5q0 65 31 123t88.5 101.5t139.5 69t183 25.5q102 0 183.5 -25.5t139.5 -69t89 -101.5t31 -123q0 -91 -45 -159.5t-129 -119.5h-537z" />
    <glyph glyph-name="imacron" unicode="&#x12b;" 
d="M358 559v-106h578v106h-235v615h235v106h-578v-106h236v-615h-236zM746 1370q101 0 183 -30t139.5 -82t88.5 -121.5t31 -147.5v-608q0 -78 -31 -147.5t-88.5 -121.5t-139.5 -82t-183 -30h-308q-101 0 -183 30t-139.5 82t-88.5 121.5t-31 147.5v608q0 78 31 147.5
t88.5 121.5t139.5 82t183 30h308zM808 1504v108h-376v-108h376zM366 1295q-85 51 -129.5 119.5t-44.5 159.5q0 65 31 123t88.5 101.5t139.5 69t183 25.5q102 0 183.5 -25.5t139.5 -69t89 -101.5t31 -123q0 -91 -45 -159.5t-129 -119.5h-537z" />
    <glyph glyph-name="Ibreve" unicode="&#x12c;" 
d="M358 559v-106h578v106h-235v615h235v106h-578v-106h236v-615h-236zM746 1370q101 0 183 -30t139.5 -82t88.5 -121.5t31 -147.5v-608q0 -78 -31 -147.5t-88.5 -121.5t-139.5 -82t-183 -30h-308q-101 0 -183 30t-139.5 82t-88.5 121.5t-31 147.5v608q0 78 31 147.5
t88.5 121.5t139.5 82t183 30h308zM383 1311q-85 51 -129.5 119.5t-44.5 159.5q0 65 31 123t88.5 101.5t139.5 69t183 25.5q102 0 183.5 -25.5t139.5 -69t89 -101.5t31 -123q0 -91 -45 -159.5t-129 -119.5h-537zM481 1510l58 -58l78 -12h71l78 12l59 60l13 98h-90l-11 -66
l-59 -14h-53l-56 10l-10 70h-90z" />
    <glyph glyph-name="ibreve" unicode="&#x12d;" 
d="M358 559v-106h578v106h-235v615h235v106h-578v-106h236v-615h-236zM746 1370q101 0 183 -30t139.5 -82t88.5 -121.5t31 -147.5v-608q0 -78 -31 -147.5t-88.5 -121.5t-139.5 -82t-183 -30h-308q-101 0 -183 30t-139.5 82t-88.5 121.5t-31 147.5v608q0 78 31 147.5
t88.5 121.5t139.5 82t183 30h308zM377 1311q-85 51 -129.5 119.5t-44.5 159.5q0 65 31 123t88.5 101.5t139.5 69t183 25.5q102 0 183.5 -25.5t139.5 -69t89 -101.5t31 -123q0 -91 -45 -159.5t-129 -119.5h-537zM475 1510l58 -58l78 -12h71l78 12l59 60l13 98h-90l-11 -66
l-59 -14h-53l-56 10l-10 70h-90z" />
    <glyph glyph-name="Iogonek" unicode="&#x12e;" 
d="M746 1370q101 0 183 -30t139.5 -82t88.5 -121.5t31 -147.5v-608q0 -78 -31 -147.5t-88.5 -121.5t-139.5 -82t-183 -30h-308q-101 0 -183 30t-139.5 82t-88.5 121.5t-31 147.5v608q0 78 31 147.5t88.5 121.5t139.5 82t183 30h308zM358 559v-106h504l-71 -39l-58 -58
l-12 -75l12 -78l60 -60l143 -12v90l-111 10l-14 60l10 35l111 127h4v106h-235v615h235v106h-578v-106h236v-615h-236z" />
    <glyph glyph-name="iogonek" unicode="&#x12f;" 
d="M746 1370q101 0 183 -30t139.5 -82t88.5 -121.5t31 -147.5v-608q0 -78 -31 -147.5t-88.5 -121.5t-139.5 -82t-183 -30h-308q-101 0 -183 30t-139.5 82t-88.5 121.5t-31 147.5v608q0 78 31 147.5t88.5 121.5t139.5 82t183 30h308zM358 559v-106h506l-71 -39l-58 -58
l-12 -75l12 -78l60 -60l143 -12v90l-111 10l-14 60l10 35l111 127h2v106h-235v615h235v106h-578v-106h236v-615h-236z" />
    <glyph glyph-name="Idotaccent" unicode="&#x130;" 
d="M358 559v-106h578v106h-235v615h235v106h-578v-106h236v-615h-236zM746 1370q101 0 183 -30t139.5 -82t88.5 -121.5t31 -147.5v-608q0 -78 -31 -147.5t-88.5 -121.5t-139.5 -82t-183 -30h-308q-101 0 -183 30t-139.5 82t-88.5 121.5t-31 147.5v608q0 78 31 147.5
t88.5 121.5t139.5 82t183 30h308zM675 1476v129h-131v-129h131zM267 1304q-23 22 -41 53.5t-30 66.5t-18.5 71.5t-6.5 69.5q0 65 31 123t88.5 101.5t139.5 69t183 25.5q102 0 183.5 -25.5t139.5 -69t89 -101.5t31 -123q0 -78 -24 -142.5t-70 -118.5h-695z" />
    <glyph glyph-name="dotlessi" unicode="&#x131;" 
d="M358 559v-106h578v106h-235v615h235v106h-578v-106h236v-615h-236zM746 1370q101 0 183 -30t139.5 -82t88.5 -121.5t31 -147.5v-608q0 -78 -31 -147.5t-88.5 -121.5t-139.5 -82t-183 -30h-308q-101 0 -183 30t-139.5 82t-88.5 121.5t-31 147.5v608q0 78 31 147.5
t88.5 121.5t139.5 82t183 30h308z" />
    <glyph glyph-name="IJ" unicode="&#x132;" 
d="M180 559v-106h414v106h-154v615h154v106h-414v-106h154v-615h-154zM746 1370q101 0 183 -30t139.5 -82t88.5 -121.5t31 -147.5v-608q0 -78 -31 -147.5t-88.5 -121.5t-139.5 -82t-183 -30h-308q-101 0 -183 30t-139.5 82t-88.5 121.5t-31 147.5v608q0 78 31 147.5
t88.5 121.5t139.5 82t183 30h308zM887 1280v-649l-14 -60l-66 -12h-149v-106h155l101 14l77 61v752h-104z" />
    <glyph glyph-name="ij" unicode="&#x133;" 
d="M180 559v-106h414v106h-154v615h154v106h-414v-106h154v-615h-154zM746 1370q101 0 183 -30t139.5 -82t88.5 -121.5t31 -147.5v-608q0 -78 -31 -147.5t-88.5 -121.5t-139.5 -82t-183 -30h-308q-101 0 -183 30t-139.5 82t-88.5 121.5t-31 147.5v608q0 78 31 147.5
t88.5 121.5t139.5 82t183 30h308zM887 1280v-649l-14 -60l-66 -12h-149v-106h155l101 14l77 61v752h-104z" />
    <glyph glyph-name="Jcircumflex" unicode="&#x134;" 
d="M746 1370q101 0 183 -30t139.5 -82t88.5 -121.5t31 -147.5v-608q0 -78 -31 -147.5t-88.5 -121.5t-139.5 -82t-183 -30h-308q-101 0 -183 30t-139.5 82t-88.5 121.5t-31 147.5v608q0 78 31 147.5t88.5 121.5t139.5 82t183 30h308zM682 1280v-649l-14 -60l-66 -12h-149
v-106h155l101 14l78 61v752h-105zM325 1305q-31 26 -46 64.5t-15 80.5q0 36 14.5 88t38 111.5t52 122.5t55.5 121q29 51 79 76.5t134 25.5q42 0 75 -7t59 -22.5t46.5 -41t38.5 -62.5q40 -86 72 -162q13 -33 26.5 -67.5t23.5 -66t16.5 -59t6.5 -46.5q0 -102 -69 -156h-607z
M633 1753l94 -292h82l-131 338h-90l-131 -338h81z" />
    <glyph glyph-name="jcircumflex" unicode="&#x135;" 
d="M746 1370q101 0 183 -30t139.5 -82t88.5 -121.5t31 -147.5v-608q0 -78 -31 -147.5t-88.5 -121.5t-139.5 -82t-183 -30h-308q-101 0 -183 30t-139.5 82t-88.5 121.5t-31 147.5v608q0 78 31 147.5t88.5 121.5t139.5 82t183 30h308zM682 1280v-649l-14 -60l-66 -12h-149
v-106h155l101 14l78 61v752h-105zM325 1315q-31 26 -46 64.5t-15 80.5q0 36 14.5 88t38 111.5t52 122.5t55.5 121q29 51 79 76.5t134 25.5q42 0 75 -7t59 -22.5t46.5 -41t38.5 -62.5q40 -86 72 -162q13 -33 26.5 -67.5t23.5 -66t16.5 -59t6.5 -46.5q0 -102 -69 -156h-607z
M633 1763l94 -292h82l-131 338h-90l-131 -338h81z" />
    <glyph glyph-name="Kcommaaccent" unicode="&#x136;" 
d="M666 119l61 129v129h-151v-129h65l-39 -101zM654 885l344 340l-72 84l-412 -408v379h-106v-827h106v313q17 14 29.5 25.5t28.5 25.5l327 -383l86 74zM746 1370q101 0 183 -30t139.5 -82t88.5 -121.5t31 -147.5v-608q0 -78 -31 -147.5t-88.5 -121.5t-139.5 -82t-183 -30
h-308q-101 0 -183 30t-139.5 82t-88.5 121.5t-31 147.5v608q0 78 31 147.5t88.5 121.5t139.5 82t183 30h308z" />
    <glyph glyph-name="kcommaaccent" unicode="&#x137;" 
d="M666 119l61 129v129h-151v-129h65l-39 -101zM654 885l344 340l-72 84l-412 -408v379h-106v-827h106v313q17 14 29.5 25.5t28.5 25.5l327 -383l86 74zM746 1370q101 0 183 -30t139.5 -82t88.5 -121.5t31 -147.5v-608q0 -78 -31 -147.5t-88.5 -121.5t-139.5 -82t-183 -30
h-308q-101 0 -183 30t-139.5 82t-88.5 121.5t-31 147.5v608q0 78 31 147.5t88.5 121.5t139.5 82t183 30h308z" />
    <glyph glyph-name="kgreenlandic" unicode="&#x138;" 
d="M654 885l344 340l-72 84l-412 -408v379h-106v-827h106v313q17 14 29.5 25.5t28.5 25.5l327 -383l86 74zM746 1370q101 0 183 -30t139.5 -82t88.5 -121.5t31 -147.5v-608q0 -78 -31 -147.5t-88.5 -121.5t-139.5 -82t-183 -30h-308q-101 0 -183 30t-139.5 82t-88.5 121.5
t-31 147.5v608q0 78 31 147.5t88.5 121.5t139.5 82t183 30h308z" />
    <glyph glyph-name="Lacute" unicode="&#x139;" 
d="M862 559h-307v721h-106v-827h413v106zM746 1370q101 0 183 -30t139.5 -82t88.5 -121.5t31 -147.5v-608q0 -78 -31 -147.5t-88.5 -121.5t-139.5 -82t-183 -30h-308q-101 0 -183 30t-139.5 82t-88.5 121.5t-31 147.5v608q0 78 31 147.5t88.5 121.5t139.5 82t183 30h308z
M393 1319q-23 10 -45 26.5t-39 38.5t-27 48.5t-10 56.5q0 10 3 31t14 63.5t31.5 111.5t55.5 176q12 31 35 53t54.5 35t70 19t80.5 6q56 0 109 -13t94.5 -38.5t66.5 -63t25 -86.5q-1 -28 -10.5 -61.5t-32.5 -71.5l-158 -270q-12 -20 -22 -35t-21 -26h-274zM692 1810h-121
l-100 -334h69z" />
    <glyph glyph-name="lacute" unicode="&#x13a;" 
d="M862 559h-307v721h-106v-827h413v106zM746 1370q101 0 183 -30t139.5 -82t88.5 -121.5t31 -147.5v-608q0 -78 -31 -147.5t-88.5 -121.5t-139.5 -82t-183 -30h-308q-101 0 -183 30t-139.5 82t-88.5 121.5t-31 147.5v608q0 78 31 147.5t88.5 121.5t139.5 82t183 30h308z
M393 1319q-23 10 -45 26.5t-39 38.5t-27 48.5t-10 56.5q0 10 3 31t14 63.5t31.5 111.5t55.5 176q12 31 35 53t54.5 35t70 19t80.5 6q56 0 109 -13t94.5 -38.5t66.5 -63t25 -86.5q-1 -28 -10.5 -61.5t-32.5 -71.5l-158 -270q-12 -20 -22 -35t-21 -26h-274zM692 1810h-121
l-100 -334h69z" />
    <glyph glyph-name="Lcommaaccent" unicode="&#x13b;" 
d="M666 119l61 129v129h-151v-129h65l-39 -101zM862 559h-307v721h-106v-827h413v106zM746 1370q101 0 183 -30t139.5 -82t88.5 -121.5t31 -147.5v-608q0 -78 -31 -147.5t-88.5 -121.5t-139.5 -82t-183 -30h-308q-101 0 -183 30t-139.5 82t-88.5 121.5t-31 147.5v608
q0 78 31 147.5t88.5 121.5t139.5 82t183 30h308z" />
    <glyph glyph-name="lcommaaccent" unicode="&#x13c;" 
d="M666 119l61 129v129h-151v-129h65l-39 -101zM862 559h-307v721h-106v-827h413v106zM746 1370q101 0 183 -30t139.5 -82t88.5 -121.5t31 -147.5v-608q0 -78 -31 -147.5t-88.5 -121.5t-139.5 -82t-183 -30h-308q-101 0 -183 30t-139.5 82t-88.5 121.5t-31 147.5v608
q0 78 31 147.5t88.5 121.5t139.5 82t183 30h308z" />
    <glyph glyph-name="Lcaron" unicode="&#x13d;" 
d="M780 1022l62 129v129h-152v-129h66l-39 -100zM862 559h-307v721h-106v-827h413v106zM746 1370q101 0 183 -30t139.5 -82t88.5 -121.5t31 -147.5v-608q0 -78 -31 -147.5t-88.5 -121.5t-139.5 -82t-183 -30h-308q-101 0 -183 30t-139.5 82t-88.5 121.5t-31 147.5v608
q0 78 31 147.5t88.5 121.5t139.5 82t183 30h308z" />
    <glyph glyph-name="lcaron" unicode="&#x13e;" 
d="M780 1022l62 129v129h-152v-129h66l-39 -100zM862 559h-307v721h-106v-827h413v106zM746 1370q101 0 183 -30t139.5 -82t88.5 -121.5t31 -147.5v-608q0 -78 -31 -147.5t-88.5 -121.5t-139.5 -82t-183 -30h-308q-101 0 -183 30t-139.5 82t-88.5 121.5t-31 147.5v608
q0 78 31 147.5t88.5 121.5t139.5 82t183 30h308z" />
    <glyph glyph-name="Ldot" unicode="&#x13f;" 
d="M778 897v129h-131v-129h131zM862 559h-307v721h-106v-827h413v106zM746 1370q101 0 183 -30t139.5 -82t88.5 -121.5t31 -147.5v-608q0 -78 -31 -147.5t-88.5 -121.5t-139.5 -82t-183 -30h-308q-101 0 -183 30t-139.5 82t-88.5 121.5t-31 147.5v608q0 78 31 147.5
t88.5 121.5t139.5 82t183 30h308z" />
    <glyph glyph-name="ldot" unicode="&#x140;" 
d="M778 897v129h-131v-129h131zM862 559h-307v721h-106v-827h413v106zM746 1370q101 0 183 -30t139.5 -82t88.5 -121.5t31 -147.5v-608q0 -78 -31 -147.5t-88.5 -121.5t-139.5 -82t-183 -30h-308q-101 0 -183 30t-139.5 82t-88.5 121.5t-31 147.5v608q0 78 31 147.5
t88.5 121.5t139.5 82t183 30h308z" />
    <glyph glyph-name="Lslash" unicode="&#x141;" 
d="M862 559h-307v336l125 72l-33 57l-92 -53v309h-106v-371l-125 -69l32 -58l93 52v-381h413v106zM746 1370q101 0 183 -30t139.5 -82t88.5 -121.5t31 -147.5v-608q0 -78 -31 -147.5t-88.5 -121.5t-139.5 -82t-183 -30h-308q-101 0 -183 30t-139.5 82t-88.5 121.5t-31 147.5
v608q0 78 31 147.5t88.5 121.5t139.5 82t183 30h308z" />
    <glyph glyph-name="lslash" unicode="&#x142;" 
d="M862 559h-307v336l125 72l-33 57l-92 -53v309h-106v-371l-125 -69l32 -58l93 52v-381h413v106zM746 1370q101 0 183 -30t139.5 -82t88.5 -121.5t31 -147.5v-608q0 -78 -31 -147.5t-88.5 -121.5t-139.5 -82t-183 -30h-308q-101 0 -183 30t-139.5 82t-88.5 121.5t-31 147.5
v608q0 78 31 147.5t88.5 121.5t139.5 82t183 30h308z" />
    <glyph glyph-name="Nacute" unicode="&#x143;" 
d="M932 1120l-14 84l-64 64l-102 12h-250l-180 -25v-802h106v710l78 13h240l69 -11l10 -59v-653h107v667zM746 1370q101 0 183 -30t139.5 -82t88.5 -121.5t31 -147.5v-608q0 -78 -31 -147.5t-88.5 -121.5t-139.5 -82t-183 -30h-308q-101 0 -183 30t-139.5 82t-88.5 121.5
t-31 147.5v608q0 78 31 147.5t88.5 121.5t139.5 82t183 30h308zM479 1309q-23 10 -45 26.5t-39 38.5t-27 48.5t-10 56.5q0 10 3 31t14 63.5t31.5 111.5t55.5 176q12 31 35 53t54.5 35t70 19t80.5 6q56 0 109 -13t94.5 -38.5t66.5 -63t25 -86.5q-1 -28 -10.5 -61.5
t-32.5 -71.5l-158 -270q-12 -20 -22 -35t-21 -26h-274zM778 1800h-121l-100 -334h69z" />
    <glyph glyph-name="nacute" unicode="&#x144;" 
d="M932 1120l-14 84l-64 64l-102 12h-250l-180 -25v-802h106v710l78 13h240l69 -11l10 -59v-653h107v667zM746 1370q101 0 183 -30t139.5 -82t88.5 -121.5t31 -147.5v-608q0 -78 -31 -147.5t-88.5 -121.5t-139.5 -82t-183 -30h-308q-101 0 -183 30t-139.5 82t-88.5 121.5
t-31 147.5v608q0 78 31 147.5t88.5 121.5t139.5 82t183 30h308zM479 1309q-23 10 -45 26.5t-39 38.5t-27 48.5t-10 56.5q0 10 3 31t14 63.5t31.5 111.5t55.5 176q12 31 35 53t54.5 35t70 19t80.5 6q56 0 109 -13t94.5 -38.5t66.5 -63t25 -86.5q-1 -28 -10.5 -61.5
t-32.5 -71.5l-158 -270q-12 -20 -22 -35t-21 -26h-274zM778 1800h-121l-100 -334h69z" />
    <glyph glyph-name="Ncommaaccent" unicode="&#x145;" 
d="M666 119l61 129v129h-151v-129h65l-39 -101zM932 1120l-14 84l-64 64l-102 12h-250l-180 -25v-802h106v710l78 13h240l69 -11l10 -59v-653h107v667zM746 1370q101 0 183 -30t139.5 -82t88.5 -121.5t31 -147.5v-608q0 -78 -31 -147.5t-88.5 -121.5t-139.5 -82t-183 -30
h-308q-101 0 -183 30t-139.5 82t-88.5 121.5t-31 147.5v608q0 78 31 147.5t88.5 121.5t139.5 82t183 30h308z" />
    <glyph glyph-name="ncommaaccent" unicode="&#x146;" 
d="M666 119l61 129v129h-151v-129h65l-39 -101zM932 1120l-14 84l-64 64l-102 12h-250l-180 -25v-802h106v710l78 13h240l69 -11l10 -59v-653h107v667zM746 1370q101 0 183 -30t139.5 -82t88.5 -121.5t31 -147.5v-608q0 -78 -31 -147.5t-88.5 -121.5t-139.5 -82t-183 -30
h-308q-101 0 -183 30t-139.5 82t-88.5 121.5t-31 147.5v608q0 78 31 147.5t88.5 121.5t139.5 82t183 30h308z" />
    <glyph glyph-name="Ncaron" unicode="&#x147;" 
d="M932 1120l-14 84l-64 64l-102 12h-250l-180 -25v-802h106v710l78 13h240l69 -11l10 -59v-653h107v667zM746 1370q101 0 183 -30t139.5 -82t88.5 -121.5t31 -147.5v-608q0 -78 -31 -147.5t-88.5 -121.5t-139.5 -82t-183 -30h-308q-101 0 -183 30t-139.5 82t-88.5 121.5
t-31 147.5v608q0 78 31 147.5t88.5 121.5t139.5 82t183 30h308zM594 1872q31 28 68 44t91 16q55 0 94.5 -16t64.5 -43t36.5 -63.5t11.5 -76.5q0 -41 -11.5 -97t-28.5 -116t-37.5 -118t-38.5 -101h-502q-21 58 -42.5 121.5t-38.5 122.5t-27.5 110.5t-10.5 87.5t12 69.5
t40 59.5t72 42t109 16q50 0 81 -16t57 -42zM497 1754h-81l131 -338h90l131 338h-82l-94 -293z" />
    <glyph glyph-name="ncaron" unicode="&#x148;" 
d="M932 1120l-14 84l-64 64l-102 12h-250l-180 -25v-802h106v710l78 13h240l69 -11l10 -59v-653h107v667zM746 1370q101 0 183 -30t139.5 -82t88.5 -121.5t31 -147.5v-608q0 -78 -31 -147.5t-88.5 -121.5t-139.5 -82t-183 -30h-308q-101 0 -183 30t-139.5 82t-88.5 121.5
t-31 147.5v608q0 78 31 147.5t88.5 121.5t139.5 82t183 30h308zM594 1872q31 28 68 44t91 16q55 0 94.5 -16t64.5 -43t36.5 -63.5t11.5 -76.5q0 -41 -11.5 -97t-28.5 -116t-37.5 -118t-38.5 -101h-502q-21 58 -42.5 121.5t-38.5 122.5t-27.5 110.5t-10.5 87.5t12 69.5
t40 59.5t72 42t109 16q50 0 81 -16t57 -42zM497 1754h-81l131 -338h90l131 338h-82l-94 -293z" />
    <glyph glyph-name="napostrophe" unicode="&#x149;" 
d="M195 929l61 129v129h-151v-129h65l-39 -101zM932 1120l-14 84l-64 64l-102 12h-250l-180 -25v-802h106v710l78 13h240l69 -11l10 -59v-653h107v667zM746 1370q101 0 183 -30t139.5 -82t88.5 -121.5t31 -147.5v-608q0 -78 -31 -147.5t-88.5 -121.5t-139.5 -82t-183 -30
h-308q-101 0 -183 30t-139.5 82t-88.5 121.5t-31 147.5v608q0 78 31 147.5t88.5 121.5t139.5 82t183 30h308z" />
    <glyph glyph-name="Eng" unicode="&#x14a;" 
d="M918 1204l-64 64l-102 12h-250l-180 -25v-802h106v710l78 13h240l69 -11l10 -59v-768l-12 -59l-65 -13h-150v-106h156l100 14l78 62v884zM746 1370q101 0 183 -30t139.5 -82t88.5 -121.5t31 -147.5v-608q0 -78 -31 -147.5t-88.5 -121.5t-139.5 -82t-183 -30h-308
q-101 0 -183 30t-139.5 82t-88.5 121.5t-31 147.5v608q0 78 31 147.5t88.5 121.5t139.5 82t183 30h308z" />
    <glyph glyph-name="eng" unicode="&#x14b;" 
d="M918 1204l-64 64l-102 12h-250l-180 -25v-802h106v710l78 13h240l69 -11l10 -59v-768l-12 -59l-65 -13h-150v-106h156l100 14l78 62v884zM746 1370q101 0 183 -30t139.5 -82t88.5 -121.5t31 -147.5v-608q0 -78 -31 -147.5t-88.5 -121.5t-139.5 -82t-183 -30h-308
q-101 0 -183 30t-139.5 82t-88.5 121.5t-31 147.5v608q0 78 31 147.5t88.5 121.5t139.5 82t183 30h308z" />
    <glyph glyph-name="Omacron" unicode="&#x14c;" 
d="M746 1370q101 0 183 -30t139.5 -82t88.5 -121.5t31 -147.5v-608q0 -78 -31 -147.5t-88.5 -121.5t-139.5 -82t-183 -30h-308q-101 0 -183 30t-139.5 82t-88.5 121.5t-31 147.5v608q0 78 31 147.5t88.5 121.5t139.5 82t183 30h308zM952 1118l-14 84l-63 64l-103 14h-268
l-102 -14l-64 -64l-12 -84v-504l12 -86l66 -63l100 -12h268l103 12l63 63l14 86v504zM832 569l-66 -10h-256l-65 10l-15 60v479l10 55l70 11h256l70 -11l10 -59v-479zM811 1514v108h-376v-108h376zM369 1305q-85 51 -129.5 119.5t-44.5 159.5q0 65 31 123t88.5 101.5
t139.5 69t183 25.5q102 0 183.5 -25.5t139.5 -69t89 -101.5t31 -123q0 -91 -45 -159.5t-129 -119.5h-537z" />
    <glyph glyph-name="omacron" unicode="&#x14d;" 
d="M746 1370q101 0 183 -30t139.5 -82t88.5 -121.5t31 -147.5v-608q0 -78 -31 -147.5t-88.5 -121.5t-139.5 -82t-183 -30h-308q-101 0 -183 30t-139.5 82t-88.5 121.5t-31 147.5v608q0 78 31 147.5t88.5 121.5t139.5 82t183 30h308zM952 1118l-14 84l-63 64l-103 14h-268
l-102 -14l-64 -64l-12 -84v-504l12 -86l66 -63l100 -12h268l103 12l63 63l14 86v504zM832 569l-66 -10h-256l-65 10l-15 60v479l10 55l70 11h256l70 -11l10 -59v-479zM811 1514v108h-376v-108h376zM369 1305q-85 51 -129.5 119.5t-44.5 159.5q0 65 31 123t88.5 101.5
t139.5 69t183 25.5q102 0 183.5 -25.5t139.5 -69t89 -101.5t31 -123q0 -91 -45 -159.5t-129 -119.5h-537z" />
    <glyph glyph-name="Obreve" unicode="&#x14e;" 
d="M746 1370q101 0 183 -30t139.5 -82t88.5 -121.5t31 -147.5v-608q0 -78 -31 -147.5t-88.5 -121.5t-139.5 -82t-183 -30h-308q-101 0 -183 30t-139.5 82t-88.5 121.5t-31 147.5v608q0 78 31 147.5t88.5 121.5t139.5 82t183 30h308zM952 1118l-14 84l-63 64l-103 14h-268
l-102 -14l-64 -64l-12 -84v-504l12 -86l66 -63l100 -12h268l103 12l63 63l14 86v504zM832 569l-66 -10h-256l-65 10l-15 60v479l10 55l70 11h256l70 -11l10 -59v-479zM369 1311q-85 51 -129.5 119.5t-44.5 159.5q0 65 31 123t88.5 101.5t139.5 69t183 25.5
q102 0 183.5 -25.5t139.5 -69t89 -101.5t31 -123q0 -91 -45 -159.5t-129 -119.5h-537zM467 1510l58 -58l78 -12h71l78 12l59 60l13 98h-90l-11 -66l-59 -14h-53l-56 10l-10 70h-90z" />
    <glyph glyph-name="obreve" unicode="&#x14f;" 
d="M746 1370q101 0 183 -30t139.5 -82t88.5 -121.5t31 -147.5v-608q0 -78 -31 -147.5t-88.5 -121.5t-139.5 -82t-183 -30h-308q-101 0 -183 30t-139.5 82t-88.5 121.5t-31 147.5v608q0 78 31 147.5t88.5 121.5t139.5 82t183 30h308zM952 1118l-14 84l-63 64l-103 14h-268
l-102 -14l-64 -64l-12 -84v-504l12 -86l66 -63l100 -12h268l103 12l63 63l14 86v504zM832 569l-66 -10h-256l-65 10l-15 60v479l10 55l70 11h256l70 -11l10 -59v-479zM369 1311q-85 51 -129.5 119.5t-44.5 159.5q0 65 31 123t88.5 101.5t139.5 69t183 25.5
q102 0 183.5 -25.5t139.5 -69t89 -101.5t31 -123q0 -91 -45 -159.5t-129 -119.5h-537zM467 1510l58 -58l78 -12h71l78 12l59 60l13 98h-90l-11 -66l-59 -14h-53l-56 10l-10 70h-90z" />
    <glyph glyph-name="Ohungarumlaut" unicode="&#x150;" 
d="M746 1370q101 0 183 -30t139.5 -82t88.5 -121.5t31 -147.5v-608q0 -78 -31 -147.5t-88.5 -121.5t-139.5 -82t-183 -30h-308q-101 0 -183 30t-139.5 82t-88.5 121.5t-31 147.5v608q0 78 31 147.5t88.5 121.5t139.5 82t183 30h308zM952 1118l-14 84l-63 64l-103 14h-268
l-102 -14l-64 -64l-12 -84v-504l12 -86l66 -63l100 -12h268l103 12l63 63l14 86v504zM832 569l-66 -10h-256l-65 10l-15 60v479l10 55l70 11h256l70 -11l10 -59v-479zM367 1311q-25 26 -36 59t-11 76q0 29 6 64l180 333q20 37 38.5 61t41 39t52 22.5t71.5 11.5h92l17 -33
q23 14 52 21t71 12h92l155 -291l-252 -375h-569zM785 1780h-92l-180 -334h51zM1016 1780h-92l-180 -334h51z" />
    <glyph glyph-name="ohungarumlaut" unicode="&#x151;" 
d="M746 1370q101 0 183 -30t139.5 -82t88.5 -121.5t31 -147.5v-608q0 -78 -31 -147.5t-88.5 -121.5t-139.5 -82t-183 -30h-308q-101 0 -183 30t-139.5 82t-88.5 121.5t-31 147.5v608q0 78 31 147.5t88.5 121.5t139.5 82t183 30h308zM952 1118l-14 84l-63 64l-103 14h-268
l-102 -14l-64 -64l-12 -84v-504l12 -86l66 -63l100 -12h268l103 12l63 63l14 86v504zM832 569l-66 -10h-256l-65 10l-15 60v479l10 55l70 11h256l70 -11l10 -59v-479zM367 1311q-25 26 -36 59t-11 76q0 29 6 64l180 333q20 37 38.5 61t41 39t52 22.5t71.5 11.5h92l17 -33
q23 14 52 21t71 12h92l155 -291l-252 -375h-569zM785 1780h-92l-180 -334h51zM1016 1780h-92l-180 -334h51z" />
    <glyph glyph-name="OE" unicode="&#x152;" 
d="M983 559h-285v254h238v105h-240v256h273v106h-316v-47l-32 33l-103 14h-112l-103 -14l-63 -64l-13 -84v-504l13 -86l65 -63l101 -12h112l103 12l32 33v-45h330v106zM578 569l-66 -10h-100l-66 10l-14 60v479l10 55l70 11h100l70 -11l10 -59v-479zM746 1370q101 0 183 -30
t139.5 -82t88.5 -121.5t31 -147.5v-608q0 -78 -31 -147.5t-88.5 -121.5t-139.5 -82t-183 -30h-308q-101 0 -183 30t-139.5 82t-88.5 121.5t-31 147.5v608q0 78 31 147.5t88.5 121.5t139.5 82t183 30h308z" />
    <glyph glyph-name="oe" unicode="&#x153;" 
d="M983 559h-285v254h238v105h-240v256h273v106h-316v-47l-32 33l-103 14h-112l-103 -14l-63 -64l-13 -84v-504l13 -86l65 -63l101 -12h112l103 12l32 33v-45h330v106zM578 569l-66 -10h-100l-66 10l-14 60v479l10 55l70 11h100l70 -11l10 -59v-479zM746 1370q101 0 183 -30
t139.5 -82t88.5 -121.5t31 -147.5v-608q0 -78 -31 -147.5t-88.5 -121.5t-139.5 -82t-183 -30h-308q-101 0 -183 30t-139.5 82t-88.5 121.5t-31 147.5v608q0 78 31 147.5t88.5 121.5t139.5 82t183 30h308z" />
    <glyph glyph-name="Racute" unicode="&#x154;" 
d="M746 1370q101 0 183 -30t139.5 -82t88.5 -121.5t31 -147.5v-608q0 -78 -31 -147.5t-88.5 -121.5t-139.5 -82t-183 -30h-308q-101 0 -183 30t-139.5 82t-88.5 121.5t-31 147.5v608q0 78 31 147.5t88.5 121.5t139.5 82t183 30h308zM797 700v-247h106v258l-35 92l-114 41
l110 53l31 90v111l-12 84l-66 84l-100 14h-373v-827h107v333h260l71 -32zM711 1174l71 -31l7 -58v-106l-15 -55l-63 -31h-260v281h260zM479 1297q-23 10 -45 26.5t-39 38.5t-27 48.5t-10 56.5q0 10 3 31t14 63.5t31.5 111.5t55.5 176q12 31 35 53t54.5 35t70 19t80.5 6
q56 0 109 -13t94.5 -38.5t66.5 -63t25 -86.5q-1 -28 -10.5 -61.5t-32.5 -71.5l-158 -270q-12 -20 -22 -35t-21 -26h-274zM778 1788h-121l-100 -334h69z" />
    <glyph glyph-name="racute" unicode="&#x155;" 
d="M746 1370q101 0 183 -30t139.5 -82t88.5 -121.5t31 -147.5v-608q0 -78 -31 -147.5t-88.5 -121.5t-139.5 -82t-183 -30h-308q-101 0 -183 30t-139.5 82t-88.5 121.5t-31 147.5v608q0 78 31 147.5t88.5 121.5t139.5 82t183 30h308zM797 700v-247h106v258l-35 92l-114 41
l110 53l31 90v111l-12 84l-66 84l-100 14h-373v-827h107v333h260l71 -32zM711 1174l71 -31l7 -58v-106l-15 -55l-63 -31h-260v281h260zM479 1297q-23 10 -45 26.5t-39 38.5t-27 48.5t-10 56.5q0 10 3 31t14 63.5t31.5 111.5t55.5 176q12 31 35 53t54.5 35t70 19t80.5 6
q56 0 109 -13t94.5 -38.5t66.5 -63t25 -86.5q-1 -28 -10.5 -61.5t-32.5 -71.5l-158 -270q-12 -20 -22 -35t-21 -26h-274zM778 1788h-121l-100 -334h69z" />
    <glyph glyph-name="Rcommaaccent" unicode="&#x156;" 
d="M666 119l61 129v129h-151v-129h65l-39 -101zM746 1370q101 0 183 -30t139.5 -82t88.5 -121.5t31 -147.5v-608q0 -78 -31 -147.5t-88.5 -121.5t-139.5 -82t-183 -30h-308q-101 0 -183 30t-139.5 82t-88.5 121.5t-31 147.5v608q0 78 31 147.5t88.5 121.5t139.5 82t183 30
h308zM797 700v-247h106v258l-35 92l-114 41l110 53l31 90v111l-12 84l-66 84l-100 14h-373v-827h107v333h260l71 -32zM711 1174l71 -31l7 -58v-106l-15 -55l-63 -31h-260v281h260z" />
    <glyph glyph-name="rcommaaccent" unicode="&#x157;" 
d="M666 119l61 129v129h-151v-129h65l-39 -101zM746 1370q101 0 183 -30t139.5 -82t88.5 -121.5t31 -147.5v-608q0 -78 -31 -147.5t-88.5 -121.5t-139.5 -82t-183 -30h-308q-101 0 -183 30t-139.5 82t-88.5 121.5t-31 147.5v608q0 78 31 147.5t88.5 121.5t139.5 82t183 30
h308zM797 700v-247h106v258l-35 92l-114 41l110 53l31 90v111l-12 84l-66 84l-100 14h-373v-827h107v333h260l71 -32zM711 1174l71 -31l7 -58v-106l-15 -55l-63 -31h-260v281h260z" />
    <glyph glyph-name="Rcaron" unicode="&#x158;" 
d="M746 1370q101 0 183 -30t139.5 -82t88.5 -121.5t31 -147.5v-608q0 -78 -31 -147.5t-88.5 -121.5t-139.5 -82t-183 -30h-308q-101 0 -183 30t-139.5 82t-88.5 121.5t-31 147.5v608q0 78 31 147.5t88.5 121.5t139.5 82t183 30h308zM797 700v-247h106v258l-35 92l-114 41
l110 53l31 90v111l-12 84l-66 84l-100 14h-373v-827h107v333h260l71 -32zM711 1174l71 -31l7 -58v-106l-15 -55l-63 -31h-260v281h260zM594 1874q31 28 68 44t91 16q55 0 94.5 -16t64.5 -43t36.5 -63.5t11.5 -76.5q0 -41 -11.5 -97t-28.5 -116t-37.5 -118t-38.5 -101h-502
q-21 58 -42.5 121.5t-38.5 122.5t-27.5 110.5t-10.5 87.5t12 69.5t40 59.5t72 42t109 16q50 0 81 -16t57 -42zM497 1756h-81l131 -338h90l131 338h-82l-94 -293z" />
    <glyph glyph-name="rcaron" unicode="&#x159;" 
d="M746 1370q101 0 183 -30t139.5 -82t88.5 -121.5t31 -147.5v-608q0 -78 -31 -147.5t-88.5 -121.5t-139.5 -82t-183 -30h-308q-101 0 -183 30t-139.5 82t-88.5 121.5t-31 147.5v608q0 78 31 147.5t88.5 121.5t139.5 82t183 30h308zM797 700v-247h106v258l-35 92l-114 41
l110 53l31 90v111l-12 84l-66 84l-100 14h-373v-827h107v333h260l71 -32zM711 1174l71 -31l7 -58v-106l-15 -55l-63 -31h-260v281h260zM594 1874q31 28 68 44t91 16q55 0 94.5 -16t64.5 -43t36.5 -63.5t11.5 -76.5q0 -41 -11.5 -97t-28.5 -116t-37.5 -118t-38.5 -101h-502
q-21 58 -42.5 121.5t-38.5 122.5t-27.5 110.5t-10.5 87.5t12 69.5t40 59.5t72 42t109 16q50 0 81 -16t57 -42zM497 1756h-81l131 -338h90l131 338h-82l-94 -293z" />
    <glyph glyph-name="Sacute" unicode="&#x15a;" 
d="M746 1370q101 0 183 -30t139.5 -82t88.5 -121.5t31 -147.5v-608q0 -78 -31 -147.5t-88.5 -121.5t-139.5 -82t-183 -30h-308q-101 0 -183 30t-139.5 82t-88.5 121.5t-31 147.5v608q0 78 31 147.5t88.5 121.5t139.5 82t183 30h308zM934 766l-14 86l-64 63l-104 11h-224
l-61 12q-5 17 -7 30.5t-7 28.5v105l14 59l66 13h254l94 -19l24 109l-116 16h-263l-100 -14l-65 -64l-13 -84v-137l13 -84l65 -63l100 -13h226l61 -10q3 -15 7 -28t7 -27v-131q-2 -13 -6.5 -28t-7.5 -28l-65 -10h-248l-98 16l-25 -108l117 -14h260l102 12l64 63l14 86v152z
M518 1293q-23 10 -45 26.5t-39 38.5t-27 48.5t-10 56.5q0 10 3 31t14 63.5t31.5 111.5t55.5 176q12 31 35 53t54.5 35t70 19t80.5 6q56 0 109 -13t94.5 -38.5t66.5 -63t25 -86.5q-1 -28 -10.5 -61.5t-32.5 -71.5l-158 -270q-12 -20 -22 -35t-21 -26h-274zM817 1784h-121
l-100 -334h69z" />
    <glyph glyph-name="sacute" unicode="&#x15b;" 
d="M746 1370q101 0 183 -30t139.5 -82t88.5 -121.5t31 -147.5v-608q0 -78 -31 -147.5t-88.5 -121.5t-139.5 -82t-183 -30h-308q-101 0 -183 30t-139.5 82t-88.5 121.5t-31 147.5v608q0 78 31 147.5t88.5 121.5t139.5 82t183 30h308zM934 766l-14 86l-64 63l-104 11h-224
l-61 12q-5 17 -7 30.5t-7 28.5v105l14 59l66 13h254l94 -19l24 109l-116 16h-263l-100 -14l-65 -64l-13 -84v-137l13 -84l65 -63l100 -13h226l61 -10q3 -15 7 -28t7 -27v-131q-2 -13 -6.5 -28t-7.5 -28l-65 -10h-248l-98 16l-25 -108l117 -14h260l102 12l64 63l14 86v152z
M518 1293q-23 10 -45 26.5t-39 38.5t-27 48.5t-10 56.5q0 10 3 31t14 63.5t31.5 111.5t55.5 176q12 31 35 53t54.5 35t70 19t80.5 6q56 0 109 -13t94.5 -38.5t66.5 -63t25 -86.5q-1 -28 -10.5 -61.5t-32.5 -71.5l-158 -270q-12 -20 -22 -35t-21 -26h-274zM817 1784h-121
l-100 -334h69z" />
    <glyph glyph-name="Scircumflex" unicode="&#x15c;" 
d="M746 1370q101 0 183 -30t139.5 -82t88.5 -121.5t31 -147.5v-608q0 -78 -31 -147.5t-88.5 -121.5t-139.5 -82t-183 -30h-308q-101 0 -183 30t-139.5 82t-88.5 121.5t-31 147.5v608q0 78 31 147.5t88.5 121.5t139.5 82t183 30h308zM934 766l-14 86l-64 63l-104 11h-224
l-61 12q-5 17 -7 30.5t-7 28.5v105l14 59l66 13h254l94 -19l24 109l-116 16h-263l-100 -14l-65 -64l-13 -84v-137l13 -84l65 -63l100 -13h226l61 -10q3 -15 7 -28t7 -27v-131q-2 -13 -6.5 -28t-7.5 -28l-65 -10h-248l-98 16l-25 -108l117 -14h260l102 12l64 63l14 86v152z
M342 1311q-31 26 -46 64.5t-15 80.5q0 36 14.5 88t38 111.5t52 122.5t55.5 121q29 51 79 76.5t134 25.5q42 0 75 -7t59 -22.5t46.5 -41t38.5 -62.5q40 -86 72 -162q13 -33 26.5 -67.5t23.5 -66t16.5 -59t6.5 -46.5q0 -102 -69 -156h-607zM650 1759l94 -292h82l-131 338h-90
l-131 -338h81z" />
    <glyph glyph-name="scircumflex" unicode="&#x15d;" 
d="M746 1370q101 0 183 -30t139.5 -82t88.5 -121.5t31 -147.5v-608q0 -78 -31 -147.5t-88.5 -121.5t-139.5 -82t-183 -30h-308q-101 0 -183 30t-139.5 82t-88.5 121.5t-31 147.5v608q0 78 31 147.5t88.5 121.5t139.5 82t183 30h308zM934 766l-14 86l-64 63l-104 11h-224
l-61 12q-5 17 -7 30.5t-7 28.5v105l14 59l66 13h254l94 -19l24 109l-116 16h-263l-100 -14l-65 -64l-13 -84v-137l13 -84l65 -63l100 -13h226l61 -10q3 -15 7 -28t7 -27v-131q-2 -13 -6.5 -28t-7.5 -28l-65 -10h-248l-98 16l-25 -108l117 -14h260l102 12l64 63l14 86v152z
M342 1311q-31 26 -46 64.5t-15 80.5q0 36 14.5 88t38 111.5t52 122.5t55.5 121q29 51 79 76.5t134 25.5q42 0 75 -7t59 -22.5t46.5 -41t38.5 -62.5q40 -86 72 -162q13 -33 26.5 -67.5t23.5 -66t16.5 -59t6.5 -46.5q0 -102 -69 -156h-607zM650 1759l94 -292h82l-131 338h-90
l-131 -338h81z" />
    <glyph glyph-name="Scedilla" unicode="&#x15e;" 
d="M934 766l-14 86l-64 63l-104 11h-224l-61 12q-5 17 -7 30.5t-7 28.5v105l14 59l66 13h254l94 -19l24 109l-116 16h-263l-100 -14l-65 -64l-13 -84v-137l13 -84l65 -63l100 -13h226l61 -10q3 -15 7 -28t7 -27v-131q-2 -13 -6.5 -28t-7.5 -28l-65 -10h-248l-98 16l-25 -108
l117 -14h129v-35h-72l-57 -62l-13 -57v-18l13 -78l59 -60l143 -12v90l-110 10l-15 60l11 35l110 10v117h62l102 12l64 63l14 86v152zM746 1370q101 0 183 -30t139.5 -82t88.5 -121.5t31 -147.5v-608q0 -78 -31 -147.5t-88.5 -121.5t-139.5 -82t-183 -30h-308q-101 0 -183 30
t-139.5 82t-88.5 121.5t-31 147.5v608q0 78 31 147.5t88.5 121.5t139.5 82t183 30h308z" />
    <glyph glyph-name="scedilla" unicode="&#x15f;" 
d="M934 766l-14 86l-64 63l-104 11h-224l-61 12q-5 17 -7 30.5t-7 28.5v105l14 59l66 13h254l94 -19l24 109l-116 16h-263l-100 -14l-65 -64l-13 -84v-137l13 -84l65 -63l100 -13h226l61 -10q3 -15 7 -28t7 -27v-131q-2 -13 -6.5 -28t-7.5 -28l-65 -10h-248l-98 16l-25 -108
l117 -14h129v-35h-72l-57 -62l-13 -57v-18l13 -78l59 -60l143 -12v90l-110 10l-15 60l11 35l110 10v117h62l102 12l64 63l14 86v152zM746 1370q101 0 183 -30t139.5 -82t88.5 -121.5t31 -147.5v-608q0 -78 -31 -147.5t-88.5 -121.5t-139.5 -82t-183 -30h-308q-101 0 -183 30
t-139.5 82t-88.5 121.5t-31 147.5v608q0 78 31 147.5t88.5 121.5t139.5 82t183 30h308z" />
    <glyph glyph-name="Scaron" unicode="&#x160;" 
d="M746 1370q101 0 183 -30t139.5 -82t88.5 -121.5t31 -147.5v-608q0 -78 -31 -147.5t-88.5 -121.5t-139.5 -82t-183 -30h-308q-101 0 -183 30t-139.5 82t-88.5 121.5t-31 147.5v608q0 78 31 147.5t88.5 121.5t139.5 82t183 30h308zM934 766l-14 86l-64 63l-104 11h-224
l-61 12q-5 17 -7 30.5t-7 28.5v105l14 59l66 13h254l94 -19l24 109l-116 16h-263l-100 -14l-65 -64l-13 -84v-137l13 -84l65 -63l100 -13h226l61 -10q3 -15 7 -28t7 -27v-131q-2 -13 -6.5 -28t-7.5 -28l-65 -10h-248l-98 16l-25 -108l117 -14h260l102 12l64 63l14 86v152z
M660 1882q31 28 68 44t91 16q55 0 94.5 -16t64.5 -43t36.5 -63.5t11.5 -76.5q0 -41 -11.5 -97t-28.5 -116t-37.5 -118t-38.5 -101h-502q-21 58 -42.5 121.5t-38.5 122.5t-27.5 110.5t-10.5 87.5t12 69.5t40 59.5t72 42t109 16q50 0 81 -16t57 -42zM563 1764h-81l131 -338h90
l131 338h-82l-94 -293z" />
    <glyph glyph-name="scaron" unicode="&#x161;" 
d="M746 1370q101 0 183 -30t139.5 -82t88.5 -121.5t31 -147.5v-608q0 -78 -31 -147.5t-88.5 -121.5t-139.5 -82t-183 -30h-308q-101 0 -183 30t-139.5 82t-88.5 121.5t-31 147.5v608q0 78 31 147.5t88.5 121.5t139.5 82t183 30h308zM934 766l-14 86l-64 63l-104 11h-224
l-61 12q-5 17 -7 30.5t-7 28.5v105l14 59l66 13h254l94 -19l24 109l-116 16h-263l-100 -14l-65 -64l-13 -84v-137l13 -84l65 -63l100 -13h226l61 -10q3 -15 7 -28t7 -27v-131q-2 -13 -6.5 -28t-7.5 -28l-65 -10h-248l-98 16l-25 -108l117 -14h260l102 12l64 63l14 86v152z
M660 1882q31 28 68 44t91 16q55 0 94.5 -16t64.5 -43t36.5 -63.5t11.5 -76.5q0 -41 -11.5 -97t-28.5 -116t-37.5 -118t-38.5 -101h-502q-21 58 -42.5 121.5t-38.5 122.5t-27.5 110.5t-10.5 87.5t12 69.5t40 59.5t72 42t109 16q50 0 81 -16t57 -42zM563 1764h-81l131 -338h90
l131 338h-82l-94 -293z" />
    <glyph glyph-name="Tcommaaccent" unicode="&#x162;" 
d="M666 119l61 129v129h-151v-129h65l-39 -101zM936 1280h-578v-106h236v-721h107v721h235v106zM746 1370q101 0 183 -30t139.5 -82t88.5 -121.5t31 -147.5v-608q0 -78 -31 -147.5t-88.5 -121.5t-139.5 -82t-183 -30h-308q-101 0 -183 30t-139.5 82t-88.5 121.5t-31 147.5
v608q0 78 31 147.5t88.5 121.5t139.5 82t183 30h308z" />
    <glyph glyph-name="tcommaaccent" unicode="&#x163;" 
d="M666 119l61 129v129h-151v-129h65l-39 -101zM936 1280h-578v-106h236v-721h107v721h235v106zM746 1370q101 0 183 -30t139.5 -82t88.5 -121.5t31 -147.5v-608q0 -78 -31 -147.5t-88.5 -121.5t-139.5 -82t-183 -30h-308q-101 0 -183 30t-139.5 82t-88.5 121.5t-31 147.5
v608q0 78 31 147.5t88.5 121.5t139.5 82t183 30h308z" />
    <glyph glyph-name="Tcaron" unicode="&#x164;" 
d="M936 1280h-578v-106h236v-721h107v721h235v106zM746 1370q101 0 183 -30t139.5 -82t88.5 -121.5t31 -147.5v-608q0 -78 -31 -147.5t-88.5 -121.5t-139.5 -82t-183 -30h-308q-101 0 -183 30t-139.5 82t-88.5 121.5t-31 147.5v608q0 78 31 147.5t88.5 121.5t139.5 82
t183 30h308zM633 1878q31 28 68 44t91 16q55 0 94.5 -16t64.5 -43t36.5 -63.5t11.5 -76.5q0 -41 -11.5 -97t-28.5 -116t-37.5 -118t-38.5 -101h-502q-21 58 -42.5 121.5t-38.5 122.5t-27.5 110.5t-10.5 87.5t12 69.5t40 59.5t72 42t109 16q50 0 81 -16t57 -42zM536 1760h-81
l131 -338h90l131 338h-82l-94 -293z" />
    <glyph glyph-name="tcaron" unicode="&#x165;" 
d="M873 856l61 129v129h-152v-129h66l-39 -100zM936 1280h-578v-106h236v-721h107v721h235v106zM746 1370q101 0 183 -30t139.5 -82t88.5 -121.5t31 -147.5v-608q0 -78 -31 -147.5t-88.5 -121.5t-139.5 -82t-183 -30h-308q-101 0 -183 30t-139.5 82t-88.5 121.5t-31 147.5
v608q0 78 31 147.5t88.5 121.5t139.5 82t183 30h308z" />
    <glyph glyph-name="Tbar" unicode="&#x166;" 
d="M936 1280h-578v-106h236v-277h-139v-92h139v-352h107v352h131v92h-131v277h235v106zM746 1370q101 0 183 -30t139.5 -82t88.5 -121.5t31 -147.5v-608q0 -78 -31 -147.5t-88.5 -121.5t-139.5 -82t-183 -30h-308q-101 0 -183 30t-139.5 82t-88.5 121.5t-31 147.5v608
q0 78 31 147.5t88.5 121.5t139.5 82t183 30h308z" />
    <glyph glyph-name="tbar" unicode="&#x167;" 
d="M936 1280h-578v-106h236v-277h-139v-92h139v-352h107v352h131v92h-131v277h235v106zM746 1370q101 0 183 -30t139.5 -82t88.5 -121.5t31 -147.5v-608q0 -78 -31 -147.5t-88.5 -121.5t-139.5 -82t-183 -30h-308q-101 0 -183 30t-139.5 82t-88.5 121.5t-31 147.5v608
q0 78 31 147.5t88.5 121.5t139.5 82t183 30h308z" />
    <glyph glyph-name="Utilde" unicode="&#x168;" 
d="M746 1370q101 0 183 -30t139.5 -82t88.5 -121.5t31 -147.5v-608q0 -78 -31 -147.5t-88.5 -121.5t-139.5 -82t-183 -30h-308q-101 0 -183 30t-139.5 82t-88.5 121.5t-31 147.5v608q0 78 31 147.5t88.5 121.5t139.5 82t183 30h308zM946 1280h-106v-655q-2 -13 -6.5 -28
t-8.5 -28l-65 -10h-256l-66 10l-14 60v651h-104v-666l12 -86l65 -63l101 -12h268l102 12l64 63l14 86v666zM334 1311q-66 54 -99.5 124t-33.5 155q0 78 31 147t88.5 121t139.5 82t183 30q102 0 183.5 -30t139.5 -82t89 -121t31 -147q0 -82 -34 -153.5t-97 -125.5h-621z
M766 1430q28 0 45 13.5t25.5 33.5t11 43t2.5 41v33h-90q-14 -45 -24.5 -60.5t-24.5 -15.5q-12 0 -28.5 10t-42 22.5t-62 22.5t-88.5 10q-29 0 -46 -16t-25.5 -38.5t-10.5 -45.5t-2 -37v-12h90q8 38 18.5 52.5t24.5 14.5q15 0 34.5 -11t46.5 -24.5t63 -24.5t83 -11z" />
    <glyph glyph-name="utilde" unicode="&#x169;" 
d="M746 1370q101 0 183 -30t139.5 -82t88.5 -121.5t31 -147.5v-608q0 -78 -31 -147.5t-88.5 -121.5t-139.5 -82t-183 -30h-308q-101 0 -183 30t-139.5 82t-88.5 121.5t-31 147.5v608q0 78 31 147.5t88.5 121.5t139.5 82t183 30h308zM946 1280h-106v-655q-2 -13 -6.5 -28
t-8.5 -28l-65 -10h-256l-66 10l-14 60v651h-104v-666l12 -86l65 -63l101 -12h268l102 12l64 63l14 86v666zM336 1311q-66 54 -99.5 124t-33.5 155q0 78 31 147t88.5 121t139.5 82t183 30q102 0 183.5 -30t139.5 -82t89 -121t31 -147q0 -82 -34 -153.5t-97 -125.5h-621z
M768 1430q28 0 45 13.5t25.5 33.5t11 43t2.5 41v33h-90q-14 -45 -24.5 -60.5t-24.5 -15.5q-12 0 -28.5 10t-42 22.5t-62 22.5t-88.5 10q-29 0 -46 -16t-25.5 -38.5t-10.5 -45.5t-2 -37v-12h90q8 38 18.5 52.5t24.5 14.5q15 0 34.5 -11t46.5 -24.5t63 -24.5t83 -11z" />
    <glyph glyph-name="Umacron" unicode="&#x16a;" 
d="M746 1370q101 0 183 -30t139.5 -82t88.5 -121.5t31 -147.5v-608q0 -78 -31 -147.5t-88.5 -121.5t-139.5 -82t-183 -30h-308q-101 0 -183 30t-139.5 82t-88.5 121.5t-31 147.5v608q0 78 31 147.5t88.5 121.5t139.5 82t183 30h308zM946 1280h-106v-655q-2 -13 -6.5 -28
t-8.5 -28l-65 -10h-256l-66 10l-14 60v651h-104v-666l12 -86l65 -63l101 -12h268l102 12l64 63l14 86v666zM817 1505v108h-376v-108h376zM375 1296q-85 51 -129.5 119.5t-44.5 159.5q0 65 31 123t88.5 101.5t139.5 69t183 25.5q102 0 183.5 -25.5t139.5 -69t89 -101.5
t31 -123q0 -91 -45 -159.5t-129 -119.5h-537z" />
    <glyph glyph-name="umacron" unicode="&#x16b;" 
d="M746 1370q101 0 183 -30t139.5 -82t88.5 -121.5t31 -147.5v-608q0 -78 -31 -147.5t-88.5 -121.5t-139.5 -82t-183 -30h-308q-101 0 -183 30t-139.5 82t-88.5 121.5t-31 147.5v608q0 78 31 147.5t88.5 121.5t139.5 82t183 30h308zM946 1280h-106v-655q-2 -13 -6.5 -28
t-8.5 -28l-65 -10h-256l-66 10l-14 60v651h-104v-666l12 -86l65 -63l101 -12h268l102 12l64 63l14 86v666zM817 1505v108h-376v-108h376zM375 1296q-85 51 -129.5 119.5t-44.5 159.5q0 65 31 123t88.5 101.5t139.5 69t183 25.5q102 0 183.5 -25.5t139.5 -69t89 -101.5
t31 -123q0 -91 -45 -159.5t-129 -119.5h-537z" />
    <glyph glyph-name="Ubreve" unicode="&#x16c;" 
d="M746 1370q101 0 183 -30t139.5 -82t88.5 -121.5t31 -147.5v-608q0 -78 -31 -147.5t-88.5 -121.5t-139.5 -82t-183 -30h-308q-101 0 -183 30t-139.5 82t-88.5 121.5t-31 147.5v608q0 78 31 147.5t88.5 121.5t139.5 82t183 30h308zM946 1280h-106v-655q-2 -13 -6.5 -28
t-8.5 -28l-65 -10h-256l-66 10l-14 60v651h-104v-666l12 -86l65 -63l101 -12h268l102 12l64 63l14 86v666zM375 1311q-85 51 -129.5 119.5t-44.5 159.5q0 65 31 123t88.5 101.5t139.5 69t183 25.5q102 0 183.5 -25.5t139.5 -69t89 -101.5t31 -123q0 -91 -45 -159.5
t-129 -119.5h-537zM473 1510l58 -58l78 -12h71l78 12l59 60l13 98h-90l-11 -66l-59 -14h-53l-56 10l-10 70h-90z" />
    <glyph glyph-name="ubreve" unicode="&#x16d;" 
d="M746 1370q101 0 183 -30t139.5 -82t88.5 -121.5t31 -147.5v-608q0 -78 -31 -147.5t-88.5 -121.5t-139.5 -82t-183 -30h-308q-101 0 -183 30t-139.5 82t-88.5 121.5t-31 147.5v608q0 78 31 147.5t88.5 121.5t139.5 82t183 30h308zM946 1280h-106v-655q-2 -13 -6.5 -28
t-8.5 -28l-65 -10h-256l-66 10l-14 60v651h-104v-666l12 -86l65 -63l101 -12h268l102 12l64 63l14 86v666zM377 1311q-85 51 -129.5 119.5t-44.5 159.5q0 65 31 123t88.5 101.5t139.5 69t183 25.5q102 0 183.5 -25.5t139.5 -69t89 -101.5t31 -123q0 -91 -45 -159.5
t-129 -119.5h-537zM475 1510l58 -58l78 -12h71l78 12l59 60l13 98h-90l-11 -66l-59 -14h-53l-56 10l-10 70h-90z" />
    <glyph glyph-name="Uring" unicode="&#x16e;" 
d="M746 1370q101 0 183 -30t139.5 -82t88.5 -121.5t31 -147.5v-608q0 -78 -31 -147.5t-88.5 -121.5t-139.5 -82t-183 -30h-308q-101 0 -183 30t-139.5 82t-88.5 121.5t-31 147.5v608q0 78 31 147.5t88.5 121.5t139.5 82t183 30h308zM946 1280h-106v-655q-2 -13 -6.5 -28
t-8.5 -28l-65 -10h-256l-66 10l-14 60v651h-104v-666l12 -86l65 -63l101 -12h268l102 12l64 63l14 86v666zM340 1311q-45 51 -66.5 117.5t-21.5 138.5q0 78 26.5 147.5t76 121.5t120 82t158.5 30q87 0 157.5 -30t120 -82t76.5 -121.5t27 -147.5q0 -75 -23 -140t-65 -116
h-586zM598 1766l-74 -15l-53 -53l-12 -88l12 -98l53 -54l74 -12h68l71 12l58 56l8 86l-8 98l-58 53l-71 15h-68zM715 1671l10 -65l-10 -66l-60 -14h-53l-55 10l-10 70l10 70l59 10h54z" />
    <glyph glyph-name="uring" unicode="&#x16f;" 
d="M746 1370q101 0 183 -30t139.5 -82t88.5 -121.5t31 -147.5v-608q0 -78 -31 -147.5t-88.5 -121.5t-139.5 -82t-183 -30h-308q-101 0 -183 30t-139.5 82t-88.5 121.5t-31 147.5v608q0 78 31 147.5t88.5 121.5t139.5 82t183 30h308zM946 1280h-106v-655q-2 -13 -6.5 -28
t-8.5 -28l-65 -10h-256l-66 10l-14 60v651h-104v-666l12 -86l65 -63l101 -12h268l102 12l64 63l14 86v666zM342 1311q-45 51 -66.5 117.5t-21.5 138.5q0 78 26.5 147.5t76 121.5t120 82t158.5 30q87 0 157.5 -30t120 -82t76.5 -121.5t27 -147.5q0 -75 -23 -140t-65 -116
h-586zM600 1766l-74 -15l-53 -53l-12 -88l12 -98l53 -54l74 -12h68l71 12l58 56l8 86l-8 98l-58 53l-71 15h-68zM717 1671l10 -65l-10 -66l-60 -14h-53l-55 10l-10 70l10 70l59 10h54z" />
    <glyph glyph-name="Uhungarumlaut" unicode="&#x170;" horiz-adv-x="1190" 
d="M746 1370q101 0 183 -30t139.5 -82t88.5 -121.5t31 -147.5v-608q0 -78 -31 -147.5t-88.5 -121.5t-139.5 -82t-183 -30h-308q-101 0 -183 30t-139.5 82t-88.5 121.5t-31 147.5v608q0 78 31 147.5t88.5 121.5t139.5 82t183 30h308zM946 1280h-106v-655q-2 -13 -6.5 -28
t-8.5 -28l-65 -10h-256l-66 10l-14 60v651h-104v-666l12 -86l65 -63l101 -12h268l102 12l64 63l14 86v666zM373 1311q-25 26 -36 59t-11 76q0 29 6 64l180 333q20 37 38.5 61t41 39t52 22.5t71.5 11.5h92l17 -33q23 14 52 21t71 12h92l155 -291l-252 -375h-569zM791 1780
h-92l-180 -334h51zM1022 1780h-92l-180 -334h51z" />
    <glyph glyph-name="uhungarumlaut" unicode="&#x171;" horiz-adv-x="1192" 
d="M746 1370q101 0 183 -30t139.5 -82t88.5 -121.5t31 -147.5v-608q0 -78 -31 -147.5t-88.5 -121.5t-139.5 -82t-183 -30h-308q-101 0 -183 30t-139.5 82t-88.5 121.5t-31 147.5v608q0 78 31 147.5t88.5 121.5t139.5 82t183 30h308zM946 1280h-106v-655q-2 -13 -6.5 -28
t-8.5 -28l-65 -10h-256l-66 10l-14 60v651h-104v-666l12 -86l65 -63l101 -12h268l102 12l64 63l14 86v666zM375 1311q-25 26 -36 59t-11 76q0 29 6 64l180 333q20 37 38.5 61t41 39t52 22.5t71.5 11.5h92l17 -33q23 14 52 21t71 12h92l155 -291l-252 -375h-569zM793 1780
h-92l-180 -334h51zM1024 1780h-92l-180 -334h51z" />
    <glyph glyph-name="Uogonek" unicode="&#x172;" 
d="M946 1280h-106v-655q-2 -13 -6.5 -28t-8.5 -28l-65 -10h-256l-66 10l-14 60v651h-104v-666l12 -86l65 -63l101 -12h186l-72 -39l-57 -58l-12 -75l12 -78l59 -60l144 -12v90l-111 10l-14 60l10 35l111 127h12l102 12l64 63l14 86v666zM746 1370q101 0 183 -30t139.5 -82
t88.5 -121.5t31 -147.5v-608q0 -78 -31 -147.5t-88.5 -121.5t-139.5 -82t-183 -30h-308q-101 0 -183 30t-139.5 82t-88.5 121.5t-31 147.5v608q0 78 31 147.5t88.5 121.5t139.5 82t183 30h308z" />
    <glyph glyph-name="uogonek" unicode="&#x173;" 
d="M746 1370q101 0 183 -30t139.5 -82t88.5 -121.5t31 -147.5v-608q0 -78 -31 -147.5t-88.5 -121.5t-139.5 -82t-183 -30h-308q-101 0 -183 30t-139.5 82t-88.5 121.5t-31 147.5v608q0 78 31 147.5t88.5 121.5t139.5 82t183 30h308zM946 1280h-106v-655q-2 -15 -15 -56
l-65 -10h-256l-66 10l-14 60v651h-104v-666l12 -86l65 -63l101 -12h186l-72 -39l-57 -58l-12 -75l12 -78l59 -60l144 -12v90l-111 10l-14 60l10 35l111 127h12l102 12l64 63l14 86v666z" />
    <glyph glyph-name="Wcircumflex" unicode="&#x174;" 
d="M668 1247h-99l-118 -682l-23 -8l-26 6l-68 717l-115 -20l80 -734l62 -61l65 -16l66 16l61 61l66 441l65 -441l62 -61l65 -16l66 16l61 61l80 734l-115 20l-67 -717l-27 -6l-22 8zM438 0q-101 0 -183 30t-139.5 82t-88.5 121.5t-31 147.5v608q0 78 31 147.5t88.5 121.5
t139.5 82t183 30h308q101 0 183 -30t139.5 -82t88.5 -121.5t31 -147.5v-608q0 -78 -31 -147.5t-88.5 -121.5t-139.5 -82t-183 -30h-308zM307 1303q-31 26 -46 64.5t-15 80.5q0 36 14.5 88t38 111.5t52 122.5t55.5 121q29 51 79 76.5t134 25.5q42 0 75 -7t59 -22.5t46.5 -41
t38.5 -62.5q40 -86 72 -162q13 -33 26.5 -67.5t23.5 -66t16.5 -59t6.5 -46.5q0 -102 -69 -156h-607zM615 1751l94 -292h82l-131 338h-90l-131 -338h81z" />
    <glyph glyph-name="wcircumflex" unicode="&#x175;" 
d="M668 1247h-99l-118 -682l-23 -8l-26 6l-68 717l-115 -20l80 -734l62 -61l65 -16l66 16l61 61l66 441l65 -441l62 -61l65 -16l66 16l61 61l80 734l-115 20l-67 -717l-27 -6l-22 8zM438 0q-101 0 -183 30t-139.5 82t-88.5 121.5t-31 147.5v608q0 78 31 147.5t88.5 121.5
t139.5 82t183 30h308q101 0 183 -30t139.5 -82t88.5 -121.5t31 -147.5v-608q0 -78 -31 -147.5t-88.5 -121.5t-139.5 -82t-183 -30h-308zM307 1303q-31 26 -46 64.5t-15 80.5q0 36 14.5 88t38 111.5t52 122.5t55.5 121q29 51 79 76.5t134 25.5q42 0 75 -7t59 -22.5t46.5 -41
t38.5 -62.5q40 -86 72 -162q13 -33 26.5 -67.5t23.5 -66t16.5 -59t6.5 -46.5q0 -102 -69 -156h-607zM615 1751l94 -292h82l-131 338h-90l-131 -338h81z" />
    <glyph glyph-name="Ycircumflex" unicode="&#x176;" 
d="M459 1280h-125l250 -594v-233h106v231l254 596h-125l-182 -449zM746 1370q101 0 183 -30t139.5 -82t88.5 -121.5t31 -147.5v-608q0 -78 -31 -147.5t-88.5 -121.5t-139.5 -82t-183 -30h-308q-101 0 -183 30t-139.5 82t-88.5 121.5t-31 147.5v608q0 78 31 147.5t88.5 121.5
t139.5 82t183 30h308zM327 1311q-31 26 -46 64.5t-15 80.5q0 36 14.5 88t38 111.5t52 122.5t55.5 121q29 51 79 76.5t134 25.5q42 0 75 -7t59 -22.5t46.5 -41t38.5 -62.5q40 -86 72 -162q13 -33 26.5 -67.5t23.5 -66t16.5 -59t6.5 -46.5q0 -102 -69 -156h-607zM635 1759
l94 -292h82l-131 338h-90l-131 -338h81z" />
    <glyph glyph-name="ycircumflex" unicode="&#x177;" 
d="M459 1280h-125l250 -594v-233h106v231l254 596h-125l-182 -449zM746 1370q101 0 183 -30t139.5 -82t88.5 -121.5t31 -147.5v-608q0 -78 -31 -147.5t-88.5 -121.5t-139.5 -82t-183 -30h-308q-101 0 -183 30t-139.5 82t-88.5 121.5t-31 147.5v608q0 78 31 147.5t88.5 121.5
t139.5 82t183 30h308zM327 1311q-31 26 -46 64.5t-15 80.5q0 36 14.5 88t38 111.5t52 122.5t55.5 121q29 51 79 76.5t134 25.5q42 0 75 -7t59 -22.5t46.5 -41t38.5 -62.5q40 -86 72 -162q13 -33 26.5 -67.5t23.5 -66t16.5 -59t6.5 -46.5q0 -102 -69 -156h-607zM635 1759
l94 -292h82l-131 338h-90l-131 -338h81z" />
    <glyph glyph-name="Ydieresis" unicode="&#x178;" 
d="M459 1280h-125l250 -594v-233h106v231l254 596h-125l-182 -449zM746 1370q101 0 183 -30t139.5 -82t88.5 -121.5t31 -147.5v-608q0 -78 -31 -147.5t-88.5 -121.5t-139.5 -82t-183 -30h-308q-101 0 -183 30t-139.5 82t-88.5 121.5t-31 147.5v608q0 78 31 147.5t88.5 121.5
t139.5 82t183 30h308zM828 1479v129h-131v-129h131zM371 1313q-66 43 -99.5 107.5t-33.5 142.5q0 60 28 114t80.5 95.5t126.5 65.5t166 24t166.5 -24t127 -65.5t80.5 -95.5t28 -114q0 -79 -34.5 -143t-100.5 -107h-535zM566 1479v129h-131v-129h131z" />
    <glyph glyph-name="Zacute" unicode="&#x179;" 
d="M885 557h-377l354 635l-41 88h-428v-106h338l-354 -635l33 -86h475v104zM746 1370q101 0 183 -30t139.5 -82t88.5 -121.5t31 -147.5v-608q0 -78 -31 -147.5t-88.5 -121.5t-139.5 -82t-183 -30h-308q-101 0 -183 30t-139.5 82t-88.5 121.5t-31 147.5v608q0 78 31 147.5
t88.5 121.5t139.5 82t183 30h308zM434 1305q-23 10 -45 26.5t-39 38.5t-27 48.5t-10 56.5q0 10 3 31t14 63.5t31.5 111.5t55.5 176q12 31 35 53t54.5 35t70 19t80.5 6q56 0 109 -13t94.5 -38.5t66.5 -63t25 -86.5q-1 -28 -10.5 -61.5t-32.5 -71.5l-158 -270q-12 -20 -22 -35
t-21 -26h-274zM733 1796h-121l-100 -334h69z" />
    <glyph glyph-name="zacute" unicode="&#x17a;" 
d="M885 557h-377l354 635l-41 88h-428v-106h338l-354 -635l33 -86h475v104zM746 1370q101 0 183 -30t139.5 -82t88.5 -121.5t31 -147.5v-608q0 -78 -31 -147.5t-88.5 -121.5t-139.5 -82t-183 -30h-308q-101 0 -183 30t-139.5 82t-88.5 121.5t-31 147.5v608q0 78 31 147.5
t88.5 121.5t139.5 82t183 30h308zM434 1305q-23 10 -45 26.5t-39 38.5t-27 48.5t-10 56.5q0 10 3 31t14 63.5t31.5 111.5t55.5 176q12 31 35 53t54.5 35t70 19t80.5 6q56 0 109 -13t94.5 -38.5t66.5 -63t25 -86.5q-1 -28 -10.5 -61.5t-32.5 -71.5l-158 -270q-12 -20 -22 -35
t-21 -26h-274zM733 1796h-121l-100 -334h69z" />
    <glyph glyph-name="Zdotaccent" unicode="&#x17b;" 
d="M885 557h-377l354 635l-41 88h-428v-106h338l-354 -635l33 -86h475v104zM746 1370q101 0 183 -30t139.5 -82t88.5 -121.5t31 -147.5v-608q0 -78 -31 -147.5t-88.5 -121.5t-139.5 -82t-183 -30h-308q-101 0 -183 30t-139.5 82t-88.5 121.5t-31 147.5v608q0 78 31 147.5
t88.5 121.5t139.5 82t183 30h308zM654 1495v129h-131v-129h131zM246 1323q-23 22 -41 53.5t-30 66.5t-18.5 71.5t-6.5 69.5q0 65 31 123t88.5 101.5t139.5 69t183 25.5q102 0 183.5 -25.5t139.5 -69t89 -101.5t31 -123q0 -78 -24 -142.5t-70 -118.5h-695z" />
    <glyph glyph-name="zdotaccent" unicode="&#x17c;" 
d="M885 557h-377l354 635l-41 88h-428v-106h338l-354 -635l33 -86h475v104zM746 1370q101 0 183 -30t139.5 -82t88.5 -121.5t31 -147.5v-608q0 -78 -31 -147.5t-88.5 -121.5t-139.5 -82t-183 -30h-308q-101 0 -183 30t-139.5 82t-88.5 121.5t-31 147.5v608q0 78 31 147.5
t88.5 121.5t139.5 82t183 30h308zM654 1495v129h-131v-129h131zM246 1323q-23 22 -41 53.5t-30 66.5t-18.5 71.5t-6.5 69.5q0 65 31 123t88.5 101.5t139.5 69t183 25.5q102 0 183.5 -25.5t139.5 -69t89 -101.5t31 -123q0 -78 -24 -142.5t-70 -118.5h-695z" />
    <glyph glyph-name="Zcaron" unicode="&#x17d;" 
d="M885 557h-377l354 635l-41 88h-428v-106h338l-354 -635l33 -86h475v104zM746 1370q101 0 183 -30t139.5 -82t88.5 -121.5t31 -147.5v-608q0 -78 -31 -147.5t-88.5 -121.5t-139.5 -82t-183 -30h-308q-101 0 -183 30t-139.5 82t-88.5 121.5t-31 147.5v608q0 78 31 147.5
t88.5 121.5t139.5 82t183 30h308zM611 1876q31 28 68 44t91 16q55 0 94.5 -16t64.5 -43t36.5 -63.5t11.5 -76.5q0 -41 -11.5 -97t-28.5 -116t-37.5 -118t-38.5 -101h-502q-21 58 -42.5 121.5t-38.5 122.5t-27.5 110.5t-10.5 87.5t12 69.5t40 59.5t72 42t109 16q50 0 81 -16
t57 -42zM514 1758h-81l131 -338h90l131 338h-82l-94 -293z" />
    <glyph glyph-name="zcaron" unicode="&#x17e;" 
d="M885 557h-377l354 635l-41 88h-428v-106h338l-354 -635l33 -86h475v104zM746 1370q101 0 183 -30t139.5 -82t88.5 -121.5t31 -147.5v-608q0 -78 -31 -147.5t-88.5 -121.5t-139.5 -82t-183 -30h-308q-101 0 -183 30t-139.5 82t-88.5 121.5t-31 147.5v608q0 78 31 147.5
t88.5 121.5t139.5 82t183 30h308zM611 1876q31 28 68 44t91 16q55 0 94.5 -16t64.5 -43t36.5 -63.5t11.5 -76.5q0 -41 -11.5 -97t-28.5 -116t-37.5 -118t-38.5 -101h-502q-21 58 -42.5 121.5t-38.5 122.5t-27.5 110.5t-10.5 87.5t12 69.5t40 59.5t72 42t109 16q50 0 81 -16
t57 -42zM514 1758h-81l131 -338h90l131 338h-82l-94 -293z" />
    <glyph glyph-name="longs" unicode="&#x17f;" 
d="M621 920q-11 0 -24 -4t-13 -18v-357q0 -12 13.5 -17t23.5 -5q9 0 23 5t14 17v357q0 14 -13 18t-24 4zM438 0q-101 0 -183 30t-139.5 82t-88.5 121.5t-31 147.5v608q0 78 31 147.5t88.5 121.5t139.5 82t183 30h308q101 0 183 -30t139.5 -82t88.5 -121.5t31 -147.5v-608
q0 -78 -31 -147.5t-88.5 -121.5t-139.5 -82t-183 -30h-308zM621 1152q49 0 93 -18t77.5 -50t53 -75.5t19.5 -94.5q0 -52 -12.5 -88.5t-31 -62t-40 -43.5t-39.5 -33q-7 -6 -7 -15q0 -13 11 -26.5t27 -13.5q8 0 19 6q30 20 56.5 46t46.5 59.5t32 77t12 97.5q0 65 -25 122.5
t-68 100t-101 67t-123 24.5t-123 -24.5t-101.5 -67t-68.5 -100t-25 -122.5q0 -54 12 -97.5t32 -77t47 -59.5t57 -46q9 -6 18 -6q16 0 26.5 13.5t10.5 27.5q0 9 -6 14l-39 32.5t-40 43.5t-31.5 62.5t-12.5 88.5q0 51 19.5 94.5t53 75.5t77.5 50t94 18z" />
    <glyph glyph-name="florin" unicode="&#x192;" 
d="M398 831h103v-479h-149v-96h149l107 96v479h136v87h-136v256h192v106h-192l-107 -106v-256h-103v-87zM746 1370q101 0 183 -30t139.5 -82t88.5 -121.5t31 -147.5v-608q0 -78 -31 -147.5t-88.5 -121.5t-139.5 -82t-183 -30h-308q-101 0 -183 30t-139.5 82t-88.5 121.5
t-31 147.5v608q0 78 31 147.5t88.5 121.5t139.5 82t183 30h308z" />
    <glyph glyph-name="uni01CD" unicode="&#x1cd;" 
d="M746 1370q101 0 183 -30t139.5 -82t88.5 -121.5t31 -147.5v-608q0 -78 -31 -147.5t-88.5 -121.5t-139.5 -82t-183 -30h-308q-101 0 -183 30t-139.5 82t-88.5 121.5t-31 147.5v608q0 78 31 147.5t88.5 121.5t139.5 82t183 30h308zM838 453h114l-79 745l-62 62l-133 20
h-107l-133 -20l-61 -62l-82 -745h119l16 213l10 92h369l10 -92zM768 1159q7 -81 16 -153t17 -152h-352l30 305q28 3 48.5 7t48.5 8h98zM629 1882q31 28 68 44t91 16q55 0 94.5 -16t64.5 -43t36.5 -63.5t11.5 -76.5q0 -41 -11.5 -97t-28.5 -116t-37.5 -118t-38.5 -101h-502
q-21 58 -42.5 121.5t-38.5 122.5t-27.5 110.5t-10.5 87.5t12 69.5t40 59.5t72 42t109 16q50 0 81 -16t57 -42zM532 1764h-81l131 -338h90l131 338h-82l-94 -293z" />
    <glyph glyph-name="uni01CE" unicode="&#x1ce;" 
d="M869 454v228v438v84l-68 64l-100 12h-228l-117 -14l25 -109l94 19h223l60 -13l14 -53v-233l-71 12h-228l-100 -15l-64 -63l-14 -82v-117l14 -84l64 -63l100 -12h219l78 12zM772 569l-78 -10h-215l-63 10l-14 60v86l8 57l69 10h217l76 -8v-151v-54zM746 1370
q101 0 183 -30t139.5 -82t88.5 -121.5t31 -147.5v-608q0 -78 -31 -147.5t-88.5 -121.5t-139.5 -82t-183 -30h-308q-101 0 -183 30t-139.5 82t-88.5 121.5t-31 147.5v608q0 78 31 147.5t88.5 121.5t139.5 82t183 30h308zM648 1882q31 28 68 44t91 16q55 0 94.5 -16t64.5 -43
t36.5 -63.5t11.5 -76.5q0 -41 -11.5 -97t-28.5 -116t-37.5 -118t-38.5 -101h-502q-21 58 -42.5 121.5t-38.5 122.5t-27.5 110.5t-10.5 87.5t12 69.5t40 59.5t72 42t109 16q50 0 81 -16t57 -42zM551 1764h-81l131 -338h90l131 338h-82l-94 -293z" />
    <glyph glyph-name="uni01CF" unicode="&#x1cf;" 
d="M358 559v-106h578v106h-235v615h235v106h-578v-106h236v-615h-236zM746 1370q101 0 183 -30t139.5 -82t88.5 -121.5t31 -147.5v-608q0 -78 -31 -147.5t-88.5 -121.5t-139.5 -82t-183 -30h-308q-101 0 -183 30t-139.5 82t-88.5 121.5t-31 147.5v608q0 78 31 147.5
t88.5 121.5t139.5 82t183 30h308zM658 1882q31 28 68 44t91 16q55 0 94.5 -16t64.5 -43t36.5 -63.5t11.5 -76.5q0 -41 -11.5 -97t-28.5 -116t-37.5 -118t-38.5 -101h-502q-21 58 -42.5 121.5t-38.5 122.5t-27.5 110.5t-10.5 87.5t12 69.5t40 59.5t72 42t109 16q50 0 81 -16
t57 -42zM561 1764h-81l131 -338h90l131 338h-82l-94 -293z" />
    <glyph glyph-name="uni01D0" unicode="&#x1d0;" 
d="M358 559v-106h578v106h-235v615h235v106h-578v-106h236v-615h-236zM746 1370q101 0 183 -30t139.5 -82t88.5 -121.5t31 -147.5v-608q0 -78 -31 -147.5t-88.5 -121.5t-139.5 -82t-183 -30h-308q-101 0 -183 30t-139.5 82t-88.5 121.5t-31 147.5v608q0 78 31 147.5
t88.5 121.5t139.5 82t183 30h308zM652 1882q31 28 68 44t91 16q55 0 94.5 -16t64.5 -43t36.5 -63.5t11.5 -76.5q0 -41 -11.5 -97t-28.5 -116t-37.5 -118t-38.5 -101h-502q-21 58 -42.5 121.5t-38.5 122.5t-27.5 110.5t-10.5 87.5t12 69.5t40 59.5t72 42t109 16q50 0 81 -16
t57 -42zM555 1764h-81l131 -338h90l131 338h-82l-94 -293z" />
    <glyph glyph-name="uni01D1" unicode="&#x1d1;" 
d="M746 1370q101 0 183 -30t139.5 -82t88.5 -121.5t31 -147.5v-608q0 -78 -31 -147.5t-88.5 -121.5t-139.5 -82t-183 -30h-308q-101 0 -183 30t-139.5 82t-88.5 121.5t-31 147.5v608q0 78 31 147.5t88.5 121.5t139.5 82t183 30h308zM952 1118l-14 84l-63 64l-103 14h-268
l-102 -14l-64 -64l-12 -84v-504l12 -86l66 -63l100 -12h268l103 12l63 63l14 86v504zM832 569l-66 -10h-256l-65 10l-15 60v479l10 55l70 11h256l70 -11l10 -59v-479zM643 1882q31 28 68 44t91 16q55 0 94.5 -16t64.5 -43t36.5 -63.5t11.5 -76.5q0 -41 -11.5 -97t-28.5 -116
t-37.5 -118t-38.5 -101h-502q-21 58 -42.5 121.5t-38.5 122.5t-27.5 110.5t-10.5 87.5t12 69.5t40 59.5t72 42t109 16q50 0 81 -16t57 -42zM546 1764h-81l131 -338h90l131 338h-82l-94 -293z" />
    <glyph glyph-name="uni01D3" unicode="&#x1d3;" 
d="M746 1370q101 0 183 -30t139.5 -82t88.5 -121.5t31 -147.5v-608q0 -78 -31 -147.5t-88.5 -121.5t-139.5 -82t-183 -30h-308q-101 0 -183 30t-139.5 82t-88.5 121.5t-31 147.5v608q0 78 31 147.5t88.5 121.5t139.5 82t183 30h308zM946 1280h-106v-655q-2 -13 -6.5 -28
t-8.5 -28l-65 -10h-256l-66 10l-14 60v651h-104v-666l12 -86l65 -63l101 -12h268l102 12l64 63l14 86v666zM650 1882q31 28 68 44t91 16q55 0 94.5 -16t64.5 -43t36.5 -63.5t11.5 -76.5q0 -41 -11.5 -97t-28.5 -116t-37.5 -118t-38.5 -101h-502q-21 58 -42.5 121.5
t-38.5 122.5t-27.5 110.5t-10.5 87.5t12 69.5t40 59.5t72 42t109 16q50 0 81 -16t57 -42zM553 1764h-81l131 -338h90l131 338h-82l-94 -293z" />
    <glyph glyph-name="uni01D4" unicode="&#x1d4;" 
d="M746 1370q101 0 183 -30t139.5 -82t88.5 -121.5t31 -147.5v-608q0 -78 -31 -147.5t-88.5 -121.5t-139.5 -82t-183 -30h-308q-101 0 -183 30t-139.5 82t-88.5 121.5t-31 147.5v608q0 78 31 147.5t88.5 121.5t139.5 82t183 30h308zM946 1280h-106v-655q-2 -13 -6.5 -28
t-8.5 -28l-65 -10h-256l-66 10l-14 60v651h-104v-666l12 -86l65 -63l101 -12h268l102 12l64 63l14 86v666zM652 1882q31 28 68 44t91 16q55 0 94.5 -16t64.5 -43t36.5 -63.5t11.5 -76.5q0 -41 -11.5 -97t-28.5 -116t-37.5 -118t-38.5 -101h-502q-21 58 -42.5 121.5
t-38.5 122.5t-27.5 110.5t-10.5 87.5t12 69.5t40 59.5t72 42t109 16q50 0 81 -16t57 -42zM555 1764h-81l131 -338h90l131 338h-82l-94 -293z" />
    <glyph glyph-name="uni0200" unicode="&#x200;" 
d="M746 1370q101 0 183 -30t139.5 -82t88.5 -121.5t31 -147.5v-608q0 -78 -31 -147.5t-88.5 -121.5t-139.5 -82t-183 -30h-308q-101 0 -183 30t-139.5 82t-88.5 121.5t-31 147.5v608q0 78 31 147.5t88.5 121.5t139.5 82t183 30h308zM838 453h114l-79 745l-62 62l-133 20
h-107l-133 -20l-61 -62l-82 -745h119l16 213l10 92h369l10 -92zM768 1159q7 -81 16 -153t17 -152h-352l30 305q28 3 48.5 7t48.5 8h98zM338 1296l-252 375l156 291h92q42 -5 71 -12t52 -21l16 33h92q42 -4 71.5 -11.5t52 -22.5t41 -39t38.5 -61l180 -333q6 -35 6 -64
q0 -43 -11 -76t-36 -59h-569zM711 1431h51l-180 334h-93zM479 1431h51l-180 334h-92z" />
    <glyph glyph-name="uni0201" unicode="&#x201;" 
d="M869 454v228v438v84l-68 64l-100 12h-228l-117 -14l25 -109l94 19h223l60 -13l14 -53v-233l-71 12h-228l-100 -15l-64 -63l-14 -82v-117l14 -84l64 -63l100 -12h219l78 12zM772 569l-78 -10h-215l-63 10l-14 60v86l8 57l69 10h217l76 -8v-151v-54zM746 1370
q101 0 183 -30t139.5 -82t88.5 -121.5t31 -147.5v-608q0 -78 -31 -147.5t-88.5 -121.5t-139.5 -82t-183 -30h-308q-101 0 -183 30t-139.5 82t-88.5 121.5t-31 147.5v608q0 78 31 147.5t88.5 121.5t139.5 82t183 30h308zM338 1296l-252 375l156 291h92q42 -5 71 -12t52 -21
l16 33h92q42 -4 71.5 -11.5t52 -22.5t41 -39t38.5 -61l180 -333q6 -35 6 -64q0 -43 -11 -76t-36 -59h-569zM711 1431h51l-180 334h-93zM479 1431h51l-180 334h-92z" />
    <glyph glyph-name="uni0202" unicode="&#x202;" 
d="M356 1300q-85 51 -129.5 119.5t-44.5 159.5q0 65 31 123t88.5 101.5t139.5 69t183 25.5q102 0 183.5 -25.5t139.5 -69t89 -101.5t31 -123q0 -91 -45 -159.5t-129 -119.5h-537zM442 1454h90l10 69l56 10h53l59 -14l11 -65h90l-13 98l-59 59l-78 13h-71l-78 -13l-58 -57z
M746 1370q101 0 183 -30t139.5 -82t88.5 -121.5t31 -147.5v-608q0 -78 -31 -147.5t-88.5 -121.5t-139.5 -82t-183 -30h-308q-101 0 -183 30t-139.5 82t-88.5 121.5t-31 147.5v608q0 78 31 147.5t88.5 121.5t139.5 82t183 30h308zM838 453h114l-79 745l-62 62l-133 20h-107
l-133 -20l-61 -62l-82 -745h119l16 213l10 92h369l10 -92zM768 1159q7 -81 16 -153t17 -152h-352l30 305q28 3 48.5 7t48.5 8h98z" />
    <glyph glyph-name="uni0203" unicode="&#x203;" 
d="M356 1300q-85 51 -129.5 119.5t-44.5 159.5q0 65 31 123t88.5 101.5t139.5 69t183 25.5q102 0 183.5 -25.5t139.5 -69t89 -101.5t31 -123q0 -91 -45 -159.5t-129 -119.5h-537zM442 1454h90l10 69l56 10h53l59 -14l11 -65h90l-13 98l-59 59l-78 13h-71l-78 -13l-58 -57z
M869 454v228v438v84l-68 64l-100 12h-228l-117 -14l25 -109l94 19h223l60 -13l14 -53v-233l-71 12h-228l-100 -15l-64 -63l-14 -82v-117l14 -84l64 -63l100 -12h219l78 12zM772 569l-78 -10h-215l-63 10l-14 60v86l8 57l69 10h217l76 -8v-151v-54zM746 1370q101 0 183 -30
t139.5 -82t88.5 -121.5t31 -147.5v-608q0 -78 -31 -147.5t-88.5 -121.5t-139.5 -82t-183 -30h-308q-101 0 -183 30t-139.5 82t-88.5 121.5t-31 147.5v608q0 78 31 147.5t88.5 121.5t139.5 82t183 30h308z" />
    <glyph glyph-name="uni0204" unicode="&#x204;" 
d="M905 559h-399v254h334v105h-334v256h385v106h-489v-827h503v106zM746 1370q101 0 183 -30t139.5 -82t88.5 -121.5t31 -147.5v-608q0 -78 -31 -147.5t-88.5 -121.5t-139.5 -82t-183 -30h-308q-101 0 -183 30t-139.5 82t-88.5 121.5t-31 147.5v608q0 78 31 147.5
t88.5 121.5t139.5 82t183 30h308zM338 1296l-252 375l156 291h92q42 -5 71 -12t52 -21l16 33h92q42 -4 71.5 -11.5t52 -22.5t41 -39t38.5 -61l180 -333q6 -35 6 -64q0 -43 -11 -76t-36 -59h-569zM711 1431h51l-180 334h-93zM479 1431h51l-180 334h-92z" />
    <glyph glyph-name="uni0205" unicode="&#x205;" 
d="M746 1370q101 0 183 -30t139.5 -82t88.5 -121.5t31 -147.5v-608q0 -78 -31 -147.5t-88.5 -121.5t-139.5 -82t-183 -30h-308q-101 0 -183 30t-139.5 82t-88.5 121.5t-31 147.5v608q0 78 31 147.5t88.5 121.5t139.5 82t183 30h308zM877 1120l-15 84l-63 64l-101 12h-217
l-100 -12l-63 -64l-15 -84v-475l15 -84l63 -63l100 -13h252l117 15l-25 108l-94 -16h-243l-64 10l-14 60v206h467v252zM410 973v135l8 57l70 11h204l68 -11l10 -59v-133h-360zM338 1296l-252 375l156 291h92q42 -5 71 -12t52 -21l16 33h92q42 -4 71.5 -11.5t52 -22.5t41 -39
t38.5 -61l180 -333q6 -35 6 -64q0 -43 -11 -76t-36 -59h-569zM711 1431h51l-180 334h-93zM479 1431h51l-180 334h-92z" />
    <glyph glyph-name="uni0206" unicode="&#x206;" 
d="M356 1300q-85 51 -129.5 119.5t-44.5 159.5q0 65 31 123t88.5 101.5t139.5 69t183 25.5q102 0 183.5 -25.5t139.5 -69t89 -101.5t31 -123q0 -91 -45 -159.5t-129 -119.5h-537zM442 1454h90l10 69l56 10h53l59 -14l11 -65h90l-13 98l-59 59l-78 13h-71l-78 -13l-58 -57z
M905 559h-399v254h334v105h-334v256h385v106h-489v-827h503v106zM746 1370q101 0 183 -30t139.5 -82t88.5 -121.5t31 -147.5v-608q0 -78 -31 -147.5t-88.5 -121.5t-139.5 -82t-183 -30h-308q-101 0 -183 30t-139.5 82t-88.5 121.5t-31 147.5v608q0 78 31 147.5t88.5 121.5
t139.5 82t183 30h308z" />
    <glyph glyph-name="uni0207" unicode="&#x207;" 
d="M356 1300q-85 51 -129.5 119.5t-44.5 159.5q0 65 31 123t88.5 101.5t139.5 69t183 25.5q102 0 183.5 -25.5t139.5 -69t89 -101.5t31 -123q0 -91 -45 -159.5t-129 -119.5h-537zM442 1454h90l10 69l56 10h53l59 -14l11 -65h90l-13 98l-59 59l-78 13h-71l-78 -13l-58 -57z
M746 1370q101 0 183 -30t139.5 -82t88.5 -121.5t31 -147.5v-608q0 -78 -31 -147.5t-88.5 -121.5t-139.5 -82t-183 -30h-308q-101 0 -183 30t-139.5 82t-88.5 121.5t-31 147.5v608q0 78 31 147.5t88.5 121.5t139.5 82t183 30h308zM877 1120l-15 84l-63 64l-101 12h-217
l-100 -12l-63 -64l-15 -84v-475l15 -84l63 -63l100 -13h252l117 15l-25 108l-94 -16h-243l-64 10l-14 60v206h467v252zM410 973v135l8 57l70 11h204l68 -11l10 -59v-133h-360z" />
    <glyph glyph-name="uni0208" unicode="&#x208;" 
d="M358 559v-106h578v106h-235v615h235v106h-578v-106h236v-615h-236zM746 1370q101 0 183 -30t139.5 -82t88.5 -121.5t31 -147.5v-608q0 -78 -31 -147.5t-88.5 -121.5t-139.5 -82t-183 -30h-308q-101 0 -183 30t-139.5 82t-88.5 121.5t-31 147.5v608q0 78 31 147.5
t88.5 121.5t139.5 82t183 30h308zM338 1296l-252 375l156 291h92q42 -5 71 -12t52 -21l16 33h92q42 -4 71.5 -11.5t52 -22.5t41 -39t38.5 -61l180 -333q6 -35 6 -64q0 -43 -11 -76t-36 -59h-569zM711 1431h51l-180 334h-93zM479 1431h51l-180 334h-92z" />
    <glyph glyph-name="uni0209" unicode="&#x209;" 
d="M358 559v-106h578v106h-235v615h235v106h-578v-106h236v-615h-236zM746 1370q101 0 183 -30t139.5 -82t88.5 -121.5t31 -147.5v-608q0 -78 -31 -147.5t-88.5 -121.5t-139.5 -82t-183 -30h-308q-101 0 -183 30t-139.5 82t-88.5 121.5t-31 147.5v608q0 78 31 147.5
t88.5 121.5t139.5 82t183 30h308zM338 1296l-252 375l156 291h92q42 -5 71 -12t52 -21l16 33h92q42 -4 71.5 -11.5t52 -22.5t41 -39t38.5 -61l180 -333q6 -35 6 -64q0 -43 -11 -76t-36 -59h-569zM711 1431h51l-180 334h-93zM479 1431h51l-180 334h-92z" />
    <glyph glyph-name="uni020A" unicode="&#x20a;" 
d="M356 1300q-85 51 -129.5 119.5t-44.5 159.5q0 65 31 123t88.5 101.5t139.5 69t183 25.5q102 0 183.5 -25.5t139.5 -69t89 -101.5t31 -123q0 -91 -45 -159.5t-129 -119.5h-537zM442 1454h90l10 69l56 10h53l59 -14l11 -65h90l-13 98l-59 59l-78 13h-71l-78 -13l-58 -57z
M358 559v-106h578v106h-235v615h235v106h-578v-106h236v-615h-236zM746 1370q101 0 183 -30t139.5 -82t88.5 -121.5t31 -147.5v-608q0 -78 -31 -147.5t-88.5 -121.5t-139.5 -82t-183 -30h-308q-101 0 -183 30t-139.5 82t-88.5 121.5t-31 147.5v608q0 78 31 147.5t88.5 121.5
t139.5 82t183 30h308z" />
    <glyph glyph-name="uni020B" unicode="&#x20b;" 
d="M356 1300q-85 51 -129.5 119.5t-44.5 159.5q0 65 31 123t88.5 101.5t139.5 69t183 25.5q102 0 183.5 -25.5t139.5 -69t89 -101.5t31 -123q0 -91 -45 -159.5t-129 -119.5h-537zM442 1454h90l10 69l56 10h53l59 -14l11 -65h90l-13 98l-59 59l-78 13h-71l-78 -13l-58 -57z
M358 559v-106h578v106h-235v615h235v106h-578v-106h236v-615h-236zM746 1370q101 0 183 -30t139.5 -82t88.5 -121.5t31 -147.5v-608q0 -78 -31 -147.5t-88.5 -121.5t-139.5 -82t-183 -30h-308q-101 0 -183 30t-139.5 82t-88.5 121.5t-31 147.5v608q0 78 31 147.5t88.5 121.5
t139.5 82t183 30h308z" />
    <glyph glyph-name="uni020C" unicode="&#x20c;" 
d="M746 1370q101 0 183 -30t139.5 -82t88.5 -121.5t31 -147.5v-608q0 -78 -31 -147.5t-88.5 -121.5t-139.5 -82t-183 -30h-308q-101 0 -183 30t-139.5 82t-88.5 121.5t-31 147.5v608q0 78 31 147.5t88.5 121.5t139.5 82t183 30h308zM952 1118l-14 84l-63 64l-103 14h-268
l-102 -14l-64 -64l-12 -84v-504l12 -86l66 -63l100 -12h268l103 12l63 63l14 86v504zM832 569l-66 -10h-256l-65 10l-15 60v479l10 55l70 11h256l70 -11l10 -59v-479zM338 1296l-252 375l156 291h92q42 -5 71 -12t52 -21l16 33h92q42 -4 71.5 -11.5t52 -22.5t41 -39
t38.5 -61l180 -333q6 -35 6 -64q0 -43 -11 -76t-36 -59h-569zM711 1431h51l-180 334h-93zM479 1431h51l-180 334h-92z" />
    <glyph glyph-name="uni020D" unicode="&#x20d;" 
d="M746 1370q101 0 183 -30t139.5 -82t88.5 -121.5t31 -147.5v-608q0 -78 -31 -147.5t-88.5 -121.5t-139.5 -82t-183 -30h-308q-101 0 -183 30t-139.5 82t-88.5 121.5t-31 147.5v608q0 78 31 147.5t88.5 121.5t139.5 82t183 30h308zM952 1118l-14 84l-63 64l-103 14h-268
l-102 -14l-64 -64l-12 -84v-504l12 -86l66 -63l100 -12h268l103 12l63 63l14 86v504zM832 569l-66 -10h-256l-65 10l-15 60v479l10 55l70 11h256l70 -11l10 -59v-479zM338 1296l-252 375l156 291h92q42 -5 71 -12t52 -21l16 33h92q42 -4 71.5 -11.5t52 -22.5t41 -39
t38.5 -61l180 -333q6 -35 6 -64q0 -43 -11 -76t-36 -59h-569zM711 1431h51l-180 334h-93zM479 1431h51l-180 334h-92z" />
    <glyph glyph-name="uni020E" unicode="&#x20e;" 
d="M356 1300q-85 51 -129.5 119.5t-44.5 159.5q0 65 31 123t88.5 101.5t139.5 69t183 25.5q102 0 183.5 -25.5t139.5 -69t89 -101.5t31 -123q0 -91 -45 -159.5t-129 -119.5h-537zM442 1454h90l10 69l56 10h53l59 -14l11 -65h90l-13 98l-59 59l-78 13h-71l-78 -13l-58 -57z
M746 1370q101 0 183 -30t139.5 -82t88.5 -121.5t31 -147.5v-608q0 -78 -31 -147.5t-88.5 -121.5t-139.5 -82t-183 -30h-308q-101 0 -183 30t-139.5 82t-88.5 121.5t-31 147.5v608q0 78 31 147.5t88.5 121.5t139.5 82t183 30h308zM952 1118l-14 84l-63 64l-103 14h-268
l-102 -14l-64 -64l-12 -84v-504l12 -86l66 -63l100 -12h268l103 12l63 63l14 86v504zM832 569l-66 -10h-256l-65 10l-15 60v479l10 55l70 11h256l70 -11l10 -59v-479z" />
    <glyph glyph-name="uni020F" unicode="&#x20f;" 
d="M356 1300q-85 51 -129.5 119.5t-44.5 159.5q0 65 31 123t88.5 101.5t139.5 69t183 25.5q102 0 183.5 -25.5t139.5 -69t89 -101.5t31 -123q0 -91 -45 -159.5t-129 -119.5h-537zM442 1454h90l10 69l56 10h53l59 -14l11 -65h90l-13 98l-59 59l-78 13h-71l-78 -13l-58 -57z
M746 1370q101 0 183 -30t139.5 -82t88.5 -121.5t31 -147.5v-608q0 -78 -31 -147.5t-88.5 -121.5t-139.5 -82t-183 -30h-308q-101 0 -183 30t-139.5 82t-88.5 121.5t-31 147.5v608q0 78 31 147.5t88.5 121.5t139.5 82t183 30h308zM952 1118l-14 84l-63 64l-103 14h-268
l-102 -14l-64 -64l-12 -84v-504l12 -86l66 -63l100 -12h268l103 12l63 63l14 86v504zM832 569l-66 -10h-256l-65 10l-15 60v479l10 55l70 11h256l70 -11l10 -59v-479z" />
    <glyph glyph-name="uni0210" unicode="&#x210;" 
d="M746 1370q101 0 183 -30t139.5 -82t88.5 -121.5t31 -147.5v-608q0 -78 -31 -147.5t-88.5 -121.5t-139.5 -82t-183 -30h-308q-101 0 -183 30t-139.5 82t-88.5 121.5t-31 147.5v608q0 78 31 147.5t88.5 121.5t139.5 82t183 30h308zM797 700v-247h106v258l-35 92l-114 41
l110 53l31 90v111l-12 84l-66 84l-100 14h-373v-827h107v333h260l71 -32zM711 1174l71 -31l7 -58v-106l-15 -55l-63 -31h-260v281h260zM338 1296l-252 375l156 291h92q42 -5 71 -12t52 -21l16 33h92q42 -4 71.5 -11.5t52 -22.5t41 -39t38.5 -61l180 -333q6 -35 6 -64
q0 -43 -11 -76t-36 -59h-569zM711 1431h51l-180 334h-93zM479 1431h51l-180 334h-92z" />
    <glyph glyph-name="uni0211" unicode="&#x211;" 
d="M746 1370q101 0 183 -30t139.5 -82t88.5 -121.5t31 -147.5v-608q0 -78 -31 -147.5t-88.5 -121.5t-139.5 -82t-183 -30h-308q-101 0 -183 30t-139.5 82t-88.5 121.5t-31 147.5v608q0 78 31 147.5t88.5 121.5t139.5 82t183 30h308zM797 700v-247h106v258l-35 92l-114 41
l110 53l31 90v111l-12 84l-66 84l-100 14h-373v-827h107v333h260l71 -32zM711 1174l71 -31l7 -58v-106l-15 -55l-63 -31h-260v281h260zM338 1296l-252 375l156 291h92q42 -5 71 -12t52 -21l16 33h92q42 -4 71.5 -11.5t52 -22.5t41 -39t38.5 -61l180 -333q6 -35 6 -64
q0 -43 -11 -76t-36 -59h-569zM711 1431h51l-180 334h-93zM479 1431h51l-180 334h-92z" />
    <glyph glyph-name="uni0212" unicode="&#x212;" 
d="M356 1300q-85 51 -129.5 119.5t-44.5 159.5q0 65 31 123t88.5 101.5t139.5 69t183 25.5q102 0 183.5 -25.5t139.5 -69t89 -101.5t31 -123q0 -91 -45 -159.5t-129 -119.5h-537zM442 1454h90l10 69l56 10h53l59 -14l11 -65h90l-13 98l-59 59l-78 13h-71l-78 -13l-58 -57z
M746 1370q101 0 183 -30t139.5 -82t88.5 -121.5t31 -147.5v-608q0 -78 -31 -147.5t-88.5 -121.5t-139.5 -82t-183 -30h-308q-101 0 -183 30t-139.5 82t-88.5 121.5t-31 147.5v608q0 78 31 147.5t88.5 121.5t139.5 82t183 30h308zM797 700v-247h106v258l-35 92l-114 41
l110 53l31 90v111l-12 84l-66 84l-100 14h-373v-827h107v333h260l71 -32zM711 1174l71 -31l7 -58v-106l-15 -55l-63 -31h-260v281h260z" />
    <glyph glyph-name="uni0213" unicode="&#x213;" 
d="M356 1300q-85 51 -129.5 119.5t-44.5 159.5q0 65 31 123t88.5 101.5t139.5 69t183 25.5q102 0 183.5 -25.5t139.5 -69t89 -101.5t31 -123q0 -91 -45 -159.5t-129 -119.5h-537zM442 1454h90l10 69l56 10h53l59 -14l11 -65h90l-13 98l-59 59l-78 13h-71l-78 -13l-58 -57z
M746 1370q101 0 183 -30t139.5 -82t88.5 -121.5t31 -147.5v-608q0 -78 -31 -147.5t-88.5 -121.5t-139.5 -82t-183 -30h-308q-101 0 -183 30t-139.5 82t-88.5 121.5t-31 147.5v608q0 78 31 147.5t88.5 121.5t139.5 82t183 30h308zM797 700v-247h106v258l-35 92l-114 41
l110 53l31 90v111l-12 84l-66 84l-100 14h-373v-827h107v333h260l71 -32zM711 1174l71 -31l7 -58v-106l-15 -55l-63 -31h-260v281h260z" />
    <glyph glyph-name="uni0214" unicode="&#x214;" 
d="M746 1370q101 0 183 -30t139.5 -82t88.5 -121.5t31 -147.5v-608q0 -78 -31 -147.5t-88.5 -121.5t-139.5 -82t-183 -30h-308q-101 0 -183 30t-139.5 82t-88.5 121.5t-31 147.5v608q0 78 31 147.5t88.5 121.5t139.5 82t183 30h308zM946 1280h-106v-655q-2 -13 -6.5 -28
t-8.5 -28l-65 -10h-256l-66 10l-14 60v651h-104v-666l12 -86l65 -63l101 -12h268l102 12l64 63l14 86v666zM338 1296l-252 375l156 291h92q42 -5 71 -12t52 -21l16 33h92q42 -4 71.5 -11.5t52 -22.5t41 -39t38.5 -61l180 -333q6 -35 6 -64q0 -43 -11 -76t-36 -59h-569z
M711 1431h51l-180 334h-93zM479 1431h51l-180 334h-92z" />
    <glyph glyph-name="uni0215" unicode="&#x215;" 
d="M746 1370q101 0 183 -30t139.5 -82t88.5 -121.5t31 -147.5v-608q0 -78 -31 -147.5t-88.5 -121.5t-139.5 -82t-183 -30h-308q-101 0 -183 30t-139.5 82t-88.5 121.5t-31 147.5v608q0 78 31 147.5t88.5 121.5t139.5 82t183 30h308zM946 1280h-106v-655q-2 -13 -6.5 -28
t-8.5 -28l-65 -10h-256l-66 10l-14 60v651h-104v-666l12 -86l65 -63l101 -12h268l102 12l64 63l14 86v666zM338 1296l-252 375l156 291h92q42 -5 71 -12t52 -21l16 33h92q42 -4 71.5 -11.5t52 -22.5t41 -39t38.5 -61l180 -333q6 -35 6 -64q0 -43 -11 -76t-36 -59h-569z
M711 1431h51l-180 334h-93zM479 1431h51l-180 334h-92z" />
    <glyph glyph-name="uni0216" unicode="&#x216;" 
d="M356 1300q-85 51 -129.5 119.5t-44.5 159.5q0 65 31 123t88.5 101.5t139.5 69t183 25.5q102 0 183.5 -25.5t139.5 -69t89 -101.5t31 -123q0 -91 -45 -159.5t-129 -119.5h-537zM442 1454h90l10 69l56 10h53l59 -14l11 -65h90l-13 98l-59 59l-78 13h-71l-78 -13l-58 -57z
M746 1370q101 0 183 -30t139.5 -82t88.5 -121.5t31 -147.5v-608q0 -78 -31 -147.5t-88.5 -121.5t-139.5 -82t-183 -30h-308q-101 0 -183 30t-139.5 82t-88.5 121.5t-31 147.5v608q0 78 31 147.5t88.5 121.5t139.5 82t183 30h308zM946 1280h-106v-655q-2 -13 -6.5 -28
t-8.5 -28l-65 -10h-256l-66 10l-14 60v651h-104v-666l12 -86l65 -63l101 -12h268l102 12l64 63l14 86v666z" />
    <glyph glyph-name="uni0217" unicode="&#x217;" 
d="M356 1300q-85 51 -129.5 119.5t-44.5 159.5q0 65 31 123t88.5 101.5t139.5 69t183 25.5q102 0 183.5 -25.5t139.5 -69t89 -101.5t31 -123q0 -91 -45 -159.5t-129 -119.5h-537zM442 1454h90l10 69l56 10h53l59 -14l11 -65h90l-13 98l-59 59l-78 13h-71l-78 -13l-58 -57z
M746 1370q101 0 183 -30t139.5 -82t88.5 -121.5t31 -147.5v-608q0 -78 -31 -147.5t-88.5 -121.5t-139.5 -82t-183 -30h-308q-101 0 -183 30t-139.5 82t-88.5 121.5t-31 147.5v608q0 78 31 147.5t88.5 121.5t139.5 82t183 30h308zM946 1280h-106v-655q-2 -13 -6.5 -28
t-8.5 -28l-65 -10h-256l-66 10l-14 60v651h-104v-666l12 -86l65 -63l101 -12h268l102 12l64 63l14 86v666z" />
    <glyph glyph-name="uni0218" unicode="&#x218;" 
d="M746 1370q101 0 183 -30t139.5 -82t88.5 -121.5t31 -147.5v-608q0 -78 -31 -147.5t-88.5 -121.5t-139.5 -82t-183 -30h-308q-101 0 -183 30t-139.5 82t-88.5 121.5t-31 147.5v608q0 78 31 147.5t88.5 121.5t139.5 82t183 30h308zM934 766l-14 86l-64 63l-104 11h-224
l-61 12q-5 17 -7 30.5t-7 28.5v105l14 59l66 13h254l94 -19l24 109l-116 16h-263l-100 -14l-65 -64l-13 -84v-137l13 -84l65 -63l100 -13h226l61 -10q3 -15 7 -28t7 -27v-131q-2 -13 -6.5 -28t-7.5 -28l-65 -10h-248l-98 16l-25 -108l117 -14h260l102 12l64 63l14 86v152z
M653 126l61 129v129h-151v-129h65l-39 -101z" />
    <glyph glyph-name="uni0219" unicode="&#x219;" 
d="M589 154l64 -28l61 129v129h-151v-129h65zM746 1370q101 0 183 -30t139.5 -82t88.5 -121.5t31 -147.5v-608q0 -78 -31 -147.5t-88.5 -121.5t-139.5 -82t-183 -30h-308q-101 0 -183 30t-139.5 82t-88.5 121.5t-31 147.5v608q0 78 31 147.5t88.5 121.5t139.5 82t183 30h308
zM934 766l-14 86l-64 63l-104 11h-224l-61 12q-5 17 -7 30.5t-7 28.5v105l14 59l66 13h254l94 -19l24 109l-116 16h-263l-100 -14l-65 -64l-13 -84v-137l13 -84l65 -63l100 -13h226l61 -10q3 -15 7 -28t7 -27v-131q-2 -13 -6.5 -28t-7.5 -28l-65 -10h-248l-98 16l-25 -108
l117 -14h260l102 12l64 63l14 86v152z" />
    <glyph glyph-name="uni021A" unicode="&#x21a;" 
d="M666 119l61 129v129h-151v-129h65l-39 -101zM936 1280h-578v-106h236v-721h107v721h235v106zM746 1370q101 0 183 -30t139.5 -82t88.5 -121.5t31 -147.5v-608q0 -78 -31 -147.5t-88.5 -121.5t-139.5 -82t-183 -30h-308q-101 0 -183 30t-139.5 82t-88.5 121.5t-31 147.5
v608q0 78 31 147.5t88.5 121.5t139.5 82t183 30h308z" />
    <glyph glyph-name="uni021B" unicode="&#x21b;" 
d="M666 119l61 129v129h-151v-129h65l-39 -101zM936 1280h-578v-106h236v-721h107v721h235v106zM746 1370q101 0 183 -30t139.5 -82t88.5 -121.5t31 -147.5v-608q0 -78 -31 -147.5t-88.5 -121.5t-139.5 -82t-183 -30h-308q-101 0 -183 30t-139.5 82t-88.5 121.5t-31 147.5
v608q0 78 31 147.5t88.5 121.5t139.5 82t183 30h308z" />
    <glyph glyph-name="circumflex" unicode="&#x2c6;" horiz-adv-x="729" 
d="M57 41q-31 26 -46 64.5t-15 80.5q0 36 14.5 88t38 111.5t52 122.5t55.5 121q29 51 79 76.5t134 25.5q42 0 75 -7t59 -22.5t46.5 -41t38.5 -62.5q40 -86 72 -162q13 -33 26.5 -67.5t23.5 -66t16.5 -59t6.5 -46.5q0 -102 -69 -156h-607zM365 489l94 -292h82l-131 338h-90
l-131 -338h81z" />
    <glyph glyph-name="caron" unicode="&#x2c7;" horiz-adv-x="729" 
d="M367 612q31 28 68 44t91 16q55 0 94.5 -16t64.5 -43t36.5 -63.5t11.5 -76.5q0 -41 -11.5 -97t-28.5 -116t-37.5 -118t-38.5 -101h-502q-21 58 -42.5 121.5t-38.5 122.5t-27.5 110.5t-10.5 87.5t12 69.5t40 59.5t72 42t109 16q50 0 81 -16t57 -42zM270 494h-81l131 -338
h90l131 338h-82l-94 -293z" />
    <glyph glyph-name="breve" unicode="&#x2d8;" horiz-adv-x="877" 
d="M170 0q-85 51 -129.5 119.5t-44.5 159.5q0 65 31 123t88.5 101.5t139.5 69t183 25.5q102 0 183.5 -25.5t139.5 -69t89 -101.5t31 -123q0 -91 -45 -159.5t-129 -119.5h-537zM268 199l58 -58l78 -12h71l78 12l59 60l13 98h-90l-11 -66l-59 -14h-53l-56 10l-10 70h-90z" />
    <glyph glyph-name="dotaccent" unicode="&#x2d9;" horiz-adv-x="877" 
d="M500 190v129h-131v-129h131zM92 18q-23 22 -41 53.5t-30 66.5t-18.5 71.5t-6.5 69.5q0 65 31 123t88.5 101.5t139.5 69t183 25.5q102 0 183.5 -25.5t139.5 -69t89 -101.5t31 -123q0 -78 -24 -142.5t-70 -118.5h-695z" />
    <glyph glyph-name="ring" unicode="&#x2da;" horiz-adv-x="754" 
d="M84 0q-45 51 -66.5 117.5t-21.5 138.5q0 78 26.5 147.5t76 121.5t120 82t158.5 30q87 0 157.5 -30t120 -82t76.5 -121.5t27 -147.5q0 -75 -23 -140t-65 -116h-586zM342 455l-74 -15l-53 -53l-12 -88l12 -98l53 -54l74 -12h68l71 12l58 56l8 86l-8 98l-58 53l-71 15h-68z
M459 360l10 -65l-10 -66l-60 -14h-53l-55 10l-10 70l10 70l59 10h54z" />
    <glyph glyph-name="ogonek" unicode="&#x2db;" horiz-adv-x="207" 
d="M100 -215l111 -10v-90l-143 12l-60 59l-12 78l12 76l58 57l71 39h70l-111 -127l-10 -35z" />
    <glyph glyph-name="tilde" unicode="&#x2dc;" horiz-adv-x="877" 
d="M129 0q-66 54 -99.5 124t-33.5 155q0 78 31 147t88.5 121t139.5 82t183 30q102 0 183.5 -30t139.5 -82t89 -121t31 -147q0 -82 -34 -153.5t-97 -125.5h-621zM561 119q28 0 45 13.5t25.5 33.5t11 43t2.5 41v33h-90q-14 -45 -24.5 -60.5t-24.5 -15.5q-12 0 -28.5 10
t-42 22.5t-62 22.5t-88.5 10q-29 0 -46 -16t-25.5 -38.5t-10.5 -45.5t-2 -37v-12h90q8 38 18.5 52.5t24.5 14.5q15 0 34.5 -11t46.5 -24.5t63 -24.5t83 -11z" />
    <glyph glyph-name="hungarumlaut" unicode="&#x2dd;" horiz-adv-x="860" 
d="M43 41q-25 26 -36 59t-11 76q0 29 6 64l180 333q20 37 38.5 61t41 39t52 22.5t71.5 11.5h92l17 -33q23 14 52 21t71 12h92l155 -291l-252 -375h-569zM461 510h-92l-180 -334h51zM692 510h-92l-180 -334h51z" />
    <glyph glyph-name="uni030F" unicode="&#x30f;" horiz-adv-x="860" 
d="M248 41l-252 375l156 291h92q42 -5 71 -12t52 -21l16 33h92q42 -4 71.5 -11.5t52 -22.5t41 -39t38.5 -61l180 -333q6 -35 6 -64q0 -43 -11 -76t-36 -59h-569zM621 176h51l-180 334h-93zM389 176h51l-180 334h-92z" />
    <glyph glyph-name="mu" unicode="&#x3bc;" 
d="M320 384h104v78l74 -9h268l102 12l64 63l14 86v666h-106v-655q-2 -13 -6.5 -28t-8.5 -28l-65 -10h-336v721h-104v-896zM746 1370q101 0 183 -30t139.5 -82t88.5 -121.5t31 -147.5v-608q0 -78 -31 -147.5t-88.5 -121.5t-139.5 -82t-183 -30h-308q-101 0 -183 30t-139.5 82
t-88.5 121.5t-31 147.5v608q0 78 31 147.5t88.5 121.5t139.5 82t183 30h308z" />
    <glyph glyph-name="pi" unicode="&#x3c0;" 
d="M746 1370q101 0 183 -30t139.5 -82t88.5 -121.5t31 -147.5v-608q0 -78 -31 -147.5t-88.5 -121.5t-139.5 -82t-183 -30h-308q-101 0 -183 30t-139.5 82t-88.5 121.5t-31 147.5v608q0 78 31 147.5t88.5 121.5t139.5 82t183 30h308zM211 811q0 84 32 157.5t87 129t129 87.5
t158 32t157.5 -32t128.5 -87.5t87 -129t32 -157.5t-32 -157.5t-87 -128.5t-128.5 -87t-157.5 -32t-158 32t-129 87t-87 128.5t-32 157.5zM143 811q0 -98 37 -184.5t101.5 -150.5t150.5 -101t185 -37q98 0 184.5 37t150.5 101t101 150.5t37 184.5t-37 184.5t-101 150.5
t-150.5 101t-184.5 37q-99 0 -185 -37t-150.5 -101t-101.5 -150.5t-37 -184.5zM762 555h80l-55 522l-43 43l-95 15h-73l-95 -15l-43 -43l-57 -522h84l10 150l8 63h258l7 -63zM713 1051q5 -57 11 -107.5t11 -107.5h-245l20 215q20 2 34 4.5t34 5.5h69z" />
    <glyph glyph-name="uni1E60" unicode="&#x1e60;" 
d="M746 1370q101 0 183 -30t139.5 -82t88.5 -121.5t31 -147.5v-608q0 -78 -31 -147.5t-88.5 -121.5t-139.5 -82t-183 -30h-308q-101 0 -183 30t-139.5 82t-88.5 121.5t-31 147.5v608q0 78 31 147.5t88.5 121.5t139.5 82t183 30h308zM934 766l-14 86l-64 63l-104 11h-224
l-61 12q-5 17 -7 30.5t-7 28.5v105l14 59l66 13h254l94 -19l24 109l-116 16h-263l-100 -14l-65 -64l-13 -84v-137l13 -84l65 -63l100 -13h226l61 -10q3 -15 7 -28t7 -27v-131q-2 -13 -6.5 -28t-7.5 -28l-65 -10h-248l-98 16l-25 -108l117 -14h260l102 12l64 63l14 86v152z
M715 1462v129h-131v-129h131zM307 1290q-23 22 -41 53.5t-30 66.5t-18.5 71.5t-6.5 69.5q0 65 31 123t88.5 101.5t139.5 69t183 25.5q102 0 183.5 -25.5t139.5 -69t89 -101.5t31 -123q0 -78 -24 -142.5t-70 -118.5h-695z" />
    <glyph glyph-name="uni1E8E" unicode="&#x1e8e;" 
d="M459 1280h-125l250 -594v-233h106v231l254 596h-125l-182 -449zM746 1370q101 0 183 -30t139.5 -82t88.5 -121.5t31 -147.5v-608q0 -78 -31 -147.5t-88.5 -121.5t-139.5 -82t-183 -30h-308q-101 0 -183 30t-139.5 82t-88.5 121.5t-31 147.5v608q0 78 31 147.5t88.5 121.5
t139.5 82t183 30h308zM701 1462v129h-131v-129h131zM293 1290q-23 22 -41 53.5t-30 66.5t-18.5 71.5t-6.5 69.5q0 65 31 123t88.5 101.5t139.5 69t183 25.5q102 0 183.5 -25.5t139.5 -69t89 -101.5t31 -123q0 -78 -24 -142.5t-70 -118.5h-695z" />
    <glyph glyph-name="uni1E8F" unicode="&#x1e8f;" 
d="M459 1280h-125l250 -594v-233h106v231l254 596h-125l-182 -449zM746 1370q101 0 183 -30t139.5 -82t88.5 -121.5t31 -147.5v-608q0 -78 -31 -147.5t-88.5 -121.5t-139.5 -82t-183 -30h-308q-101 0 -183 30t-139.5 82t-88.5 121.5t-31 147.5v608q0 78 31 147.5t88.5 121.5
t139.5 82t183 30h308zM701 1462v129h-131v-129h131zM293 1290q-23 22 -41 53.5t-30 66.5t-18.5 71.5t-6.5 69.5q0 65 31 123t88.5 101.5t139.5 69t183 25.5q102 0 183.5 -25.5t139.5 -69t89 -101.5t31 -123q0 -78 -24 -142.5t-70 -118.5h-695z" />
    <glyph glyph-name="uni1EBC" unicode="&#x1ebc;" 
d="M905 559h-399v254h334v105h-334v256h385v106h-489v-827h503v106zM746 1370q101 0 183 -30t139.5 -82t88.5 -121.5t31 -147.5v-608q0 -78 -31 -147.5t-88.5 -121.5t-139.5 -82t-183 -30h-308q-101 0 -183 30t-139.5 82t-88.5 121.5t-31 147.5v608q0 78 31 147.5
t88.5 121.5t139.5 82t183 30h308zM334 1311q-66 54 -99.5 124t-33.5 155q0 78 31 147t88.5 121t139.5 82t183 30q102 0 183.5 -30t139.5 -82t89 -121t31 -147q0 -82 -34 -153.5t-97 -125.5h-621zM766 1430q28 0 45 13.5t25.5 33.5t11 43t2.5 41v33h-90q-14 -45 -24.5 -60.5
t-24.5 -15.5q-12 0 -28.5 10t-42 22.5t-62 22.5t-88.5 10q-29 0 -46 -16t-25.5 -38.5t-10.5 -45.5t-2 -37v-12h90q8 38 18.5 52.5t24.5 14.5q15 0 34.5 -11t46.5 -24.5t63 -24.5t83 -11z" />
    <glyph glyph-name="uni1EF8" unicode="&#x1ef8;" 
d="M459 1280h-125l250 -594v-233h106v231l254 596h-125l-182 -449zM746 1370q101 0 183 -30t139.5 -82t88.5 -121.5t31 -147.5v-608q0 -78 -31 -147.5t-88.5 -121.5t-139.5 -82t-183 -30h-308q-101 0 -183 30t-139.5 82t-88.5 121.5t-31 147.5v608q0 78 31 147.5t88.5 121.5
t139.5 82t183 30h308zM330 1311q-66 54 -99.5 124t-33.5 155q0 78 31 147t88.5 121t139.5 82t183 30q102 0 183.5 -30t139.5 -82t89 -121t31 -147q0 -82 -34 -153.5t-97 -125.5h-621zM762 1430q28 0 45 13.5t25.5 33.5t11 43t2.5 41v33h-90q-14 -45 -24.5 -60.5t-24.5 -15.5
q-12 0 -28.5 10t-42 22.5t-62 22.5t-88.5 10q-29 0 -46 -16t-25.5 -38.5t-10.5 -45.5t-2 -37v-12h90q8 38 18.5 52.5t24.5 14.5q15 0 34.5 -11t46.5 -24.5t63 -24.5t83 -11z" />
    <glyph glyph-name="uni1EF9" unicode="&#x1ef9;" 
d="M459 1280h-125l250 -594v-233h106v231l254 596h-125l-182 -449zM746 1370q101 0 183 -30t139.5 -82t88.5 -121.5t31 -147.5v-608q0 -78 -31 -147.5t-88.5 -121.5t-139.5 -82t-183 -30h-308q-101 0 -183 30t-139.5 82t-88.5 121.5t-31 147.5v608q0 78 31 147.5t88.5 121.5
t139.5 82t183 30h308zM330 1311q-66 54 -99.5 124t-33.5 155q0 78 31 147t88.5 121t139.5 82t183 30q102 0 183.5 -30t139.5 -82t89 -121t31 -147q0 -82 -34 -153.5t-97 -125.5h-621zM762 1430q28 0 45 13.5t25.5 33.5t11 43t2.5 41v33h-90q-14 -45 -24.5 -60.5t-24.5 -15.5
q-12 0 -28.5 10t-42 22.5t-62 22.5t-88.5 10q-29 0 -46 -16t-25.5 -38.5t-10.5 -45.5t-2 -37v-12h90q8 38 18.5 52.5t24.5 14.5q15 0 34.5 -11t46.5 -24.5t63 -24.5t83 -11z" />
    <glyph glyph-name="endash" unicode="&#x2013;" horiz-adv-x="877" 
d="M627 918v108h-377v-108h377zM438 0q-101 0 -183 30t-139.5 82t-88.5 121.5t-31 147.5v608q0 78 31 147.5t88.5 121.5t139.5 82t183 30q102 0 183.5 -30t139.5 -82t89 -121.5t31 -147.5v-608q0 -78 -31 -147.5t-89 -121.5t-139.5 -82t-183.5 -30z" />
    <glyph glyph-name="emdash" unicode="&#x2014;" horiz-adv-x="877" 
d="M438 0q-101 0 -183 30t-139.5 82t-88.5 121.5t-31 147.5v537h885v-537q0 -78 -31 -147.5t-89 -121.5t-139.5 -82t-183.5 -30zM438 1370q95 0 173 -27t135 -73.5t91 -109t42 -134.5h-881q7 72 41 134.5t90.5 109t134.5 73.5t174 27z" />
    <glyph glyph-name="quoteleft" unicode="&#x2018;" horiz-adv-x="877" 
d="M438 0q-101 0 -183 30t-139.5 82t-88.5 121.5t-31 147.5v608q0 78 31 147.5t88.5 121.5t139.5 82t183 30q102 0 183.5 -30t139.5 -82t89 -121.5t31 -147.5v-608q0 -78 -31 -147.5t-89 -121.5t-139.5 -82t-183.5 -30zM434 1282l-61 -129v-129h151v129h-65l39 100z" />
    <glyph glyph-name="quoteright" unicode="&#x2019;" horiz-adv-x="877" 
d="M438 0q-101 0 -183 30t-139.5 82t-88.5 121.5t-31 147.5v608q0 78 31 147.5t88.5 121.5t139.5 82t183 30q102 0 183.5 -30t139.5 -82t89 -121.5t31 -147.5v-608q0 -78 -31 -147.5t-89 -121.5t-139.5 -82t-183.5 -30zM463 1022l61 129v129h-151v-129h65l-39 -100z" />
    <glyph glyph-name="quotesinglbase" unicode="&#x201a;" horiz-adv-x="877" 
d="M438 0q-101 0 -183 30t-139.5 82t-88.5 121.5t-31 147.5v608q0 78 31 147.5t88.5 121.5t139.5 82t183 30q102 0 183.5 -30t139.5 -82t89 -121.5t31 -147.5v-608q0 -78 -31 -147.5t-89 -121.5t-139.5 -82t-183.5 -30zM463 324l61 129v129h-151v-129h65l-39 -101z" />
    <glyph glyph-name="quotedblleft" unicode="&#x201c;" horiz-adv-x="877" 
d="M438 0q-101 0 -183 30t-139.5 82t-88.5 121.5t-31 147.5v608q0 78 31 147.5t88.5 121.5t139.5 82t183 30q102 0 183.5 -30t139.5 -82t89 -121.5t31 -147.5v-608q0 -78 -31 -147.5t-89 -121.5t-139.5 -82t-183.5 -30zM518 1282l-61 -129v-129h151v129h-65l39 100z
M334 1282l-62 -129v-129h152v129h-66l39 100z" />
    <glyph glyph-name="quotedblright" unicode="&#x201d;" horiz-adv-x="877" 
d="M438 0q-101 0 -183 30t-139.5 82t-88.5 121.5t-31 147.5v608q0 78 31 147.5t88.5 121.5t139.5 82t183 30q102 0 183.5 -30t139.5 -82t89 -121.5t31 -147.5v-608q0 -78 -31 -147.5t-89 -121.5t-139.5 -82t-183.5 -30zM383 1022l62 129v129h-152v-129h65l-38 -100z
M567 1022l62 129v129h-152v-129h66l-39 -100z" />
    </font>
</defs>
</svg>
