<?xml version="1.0" standalone="no"?>
<!DOCTYPE svg PUBLIC "-//W3C//DTD SVG 1.1//EN" "http://www.w3.org/Graphics/SVG/1.1/DTD/svg11.dtd" >
<svg xmlns="http://www.w3.org/2000/svg" xmlns:xlink="http://www.w3.org/1999/xlink" version="1.1">
<metadata>
Created by FontForge 20161013 at Wed Nov 23 00:24:17 2011
 By ,,,
Copyright (c) 2010 2011, Font Diner, Inc DBA Tart Workshop (diner@fontdiner.com) with Reserved Font Name "Mountains of Christmas"
</metadata>
<defs>
<font id="MountainsofChristmas-Regular" horiz-adv-x="631" >
  <font-face 
    font-family="Mountains of Christmas"
    font-weight="400"
    font-stretch="normal"
    units-per-em="1024"
    panose-1="3 0 5 0 5 6 0 10 0 4"
    ascent="819"
    descent="-205"
    x-height="457"
    cap-height="707"
    bbox="-123 -347 933 1066"
    underline-thickness="20"
    underline-position="-156"
    unicode-range="U+0020-FB02"
  />
<missing-glyph horiz-adv-x="307" 
 />
    <glyph glyph-name=".notdef" horiz-adv-x="307" 
 />
    <glyph glyph-name=".null" horiz-adv-x="0" 
 />
    <glyph glyph-name="nonmarkingreturn" horiz-adv-x="341" 
 />
    <glyph glyph-name="space" unicode=" " horiz-adv-x="237" 
 />
    <glyph glyph-name="exclam" unicode="!" horiz-adv-x="223" 
d="M142 432l-6 -111l1 -32q0 -21 -7 -21q-3 0 0 -2q-4 -7 -8.5 -18t-11.5 -11q-13 0 -21 21q-7 12 -7 45v41l-2 33l2 42l-2 20l4 12l-2 12l1 35q0 72 -5.5 107t-5.5 46.5t4.5 22t5.5 15.5q1 7 6 7q3 -2 4 2t3 4q13 0 19.5 -6t12 -11.5t7.5 -6.5q1 -1 4 -9l4 -2q1 -2 0.5 -5
t1.5 -5l4 -2q4 -10 4 -18l-7 -49l3 -49v-46t-3 -38.5t-3 -22.5zM146 24q-12 -5 -18 -6.5t-9.5 -4.5t-8.5 -5q-27 6 -23 32q-6 3 -12.5 5t-11.5 6v30q5 6 8 13t7 11t7.5 4t5.5 1.5t3 3.5t3 3l14 2q10 2 14 2q14 0 20 -13.5t6 -20.5t2.5 -9t2.5 -16.5t-10 -37.5z" />
    <glyph glyph-name="quotedbl" unicode="&#x22;" horiz-adv-x="288" 
d="M205 715q35 -5 35 -31l-4 -32l2 -9l-5 -17l3 -14q0 -6 -1 -12l-2 -12q-2 -2 -1 -4t1 -3.5t-2.5 -11t-6 -21t-6 -21t-3.5 -10.5q-10 -4 -15.5 -9t-16.5 -5h-4q-8 10 -8 21l3 36q0 5 2.5 7.5t2.5 4.5l-3 6l7 14q1 9 1 24q0 70 5 80.5t10 12t6 6.5zM109 616l5 -38
q-3 -9 -3 -16l3 -28q0 -16 -17 -24q-14 -10 -18 -11q-2 3 -7.5 7t-7.5 9t-1 10.5t1 10.5l-2 18l2 11l-4 17l2 9l-6 41l2 10q0 6 -3.5 11.5t-3.5 12.5v14q0 16 7 25.5t16 9.5t12.5 -7t12.5 -9q2 -6 3.5 -12t6.5 -11q-2 -3 -2 -10l4 -24l-2 -10q0 -3 2 -7z" />
    <glyph glyph-name="numbersign" unicode="#" horiz-adv-x="614" 
d="M468 555l-7 -41q0 -8 11 -8t15 4q3 -2 10 -2l19 2h17q48 0 48 -21q0 -7 -7 -12t-14 -5l-27 4l-20 -4l-7 2l-6 -2l-20 1q-34 0 -37 -11q-1 -5 -7 -7q1 -1 1 -5q0 -10 -5 -28t-9 -19v-5l-6 -46q-2 -11 -8 -20t-6 -21q3 -7 18 -7l55 5l29 -1q11 0 20.5 4.5t18.5 4.5
t15.5 -5.5t4.5 -12.5v-1q0 -3 -2.5 -3t-7 -2t-9.5 -7t-12 -8h-2q-6 0 -14 4q-5 -4 -11.5 -3t-13.5 1l-27 -5q-6 0 -8 3q-10 -4 -15.5 -7t-16.5 -1q-8 -3 -13 -6.5t-15 -1.5q-6 -3 -12 -15.5t-5.5 -15t0.5 -4.5v-1l-4 -5q-2 -11 -3 -21t-5 -24.5t-8.5 -22t-4 -11t0.5 -7
t-1.5 -5t-2.5 -4.5l-4 -22q-8 -13 -38 -13h-5q-3 6 -3 13t2 15.5t4.5 18t6 22t7 18.5t5.5 12t1 12t1 16t6.5 23t4.5 27q-2 3 -4 3l-8 -2l-16 4l-7 -2q-2 0 -3 1.5t-3 0.5l-30 -5q-1 1 -3 1l-12 -3q-3 -1 -6.5 -0.5t-5.5 0.5q-5 0 -24 -5t-21 -7q-1 -4 -1 -13t-3 -11
q-6 -2 -6 -16.5t-4.5 -23.5t-4 -12t0.5 -5q-15 -39 -19 -47q0 -5 -5 -4t-9 -1.5t-6 -6t-6 -8.5q-13 6 -13 18t6.5 29.5t10.5 29.5l3 11q1 2 0.5 4.5t-0.5 6.5t6.5 16t6.5 24v3q-10 12 -47 10h-15q-6 0 -9 4q-5 -1 -7 -5.5t-7 -4.5h-27q-7 7 -7 15t1 11q7 2 9.5 3t8.5 1l34 8
q6 0 8 -1t22 3l17 -1q8 0 14.5 2t14.5 4q11 21 17.5 51.5t6.5 37.5t4 15q14 24 14 46t-14 22l-19 -3q-2 0 -8 2q-10 -7 -21 -7l-10 2l-54 -7q-18 0 -27 9q-2 10 -2 16v5q11 9 22 9l17 -2q5 0 8 2t14.5 4.5t31 1t32.5 1t22.5 4.5t17.5 2q2 4 6 9.5t3.5 10.5t3 13.5t5.5 13.5
l6 22q3 12 8.5 25.5t7.5 27.5q0 58 19 58q10 0 14 -10.5t4 -18.5l-4 -21l2 -25q0 -14 -4 -17t-8 -11q-3 -11 -4 -21q-2 -20 -6 -24q-4 -2 -2.5 -5.5t1.5 -6.5t-3.5 -6t-2.5 -7v-1q6 -10 36 -10h68l26 -2q6 0 18 4q5 2 4.5 7t3.5 9t4.5 13.5t3.5 13t3.5 3.5t-0.5 1.5t-1 4.5
t2.5 5.5t3.5 6t2.5 11.5l3 16t3 15.5t1.5 9.5t3.5 6t5.5 8.5t2 10.5t1 11q4 10 13 24t15 14t9 -3t7 -5v-5l-2 -24q-8 -4 -9.5 -18.5t-8.5 -20.5v-7q0 -5 -2.5 -17.5t-3.5 -20t-2.5 -11t-2.5 -2.5t-1 -7zM295 303l50 -2h7l11 22q12 23 10.5 33t0 15.5t4 9.5t4 8.5t1 11t1 9
t2.5 2.5t1.5 1.5t1.5 6.5t2 11.5t2 12.5t1 9.5t-3 11.5q-2 1 -7 1l-21 -3q-9 5 -33 5t-40.5 -1.5t-33.5 0.5q-4 -3 -5 -7.5t-2.5 -9.5t-4 -7.5t-4 -7.5t-0.5 -10t1 -11.5t-4 -10t-7 -17.5q-6 -12 -5 -18.5t-0.5 -11t-2.5 -5.5q-1 -3 -1 -5v-7q0 -6 -5.5 -15.5t-5.5 -15
t1 -7.5l18 -1z" />
    <glyph glyph-name="dollar" unicode="$" horiz-adv-x="385" 
d="M225 425l-3 -21q0 -13 16 -24q2 -2 4 -2t4 -2t2 -4t2 -4.5t6 -5t8 -5.5l2 -3h4q40 -32 53 -57q2 -3 2 -7t5 -12q6 -6 10 -20t4 -17l-2 -11l2 -10q0 -3 -3.5 -11t-9.5 -25q-8 -23 -14 -26q-6 -1 -6 -6.5t-6.5 -8.5t-12 -7.5t-9 -8t-11 -6.5t-10.5 -9t-8 -8h-11q-5 0 -9 -2
q-1 -4 -1 -8v-9q0 -10 -3 -14q1 -2 3 -2.5t2 -2.5l-3 -53q-8 -4 -14 -8.5t-17 -4.5q-11 8 -11 28l2 41q0 11 -3 19q-21 4 -41 10t-41 6q-5 6 -10.5 14.5t-12.5 11.5v5q0 9 -8 21l-12 20q-16 28 -16 64q0 11 19 11q6 0 14 -3q-3 -21 -3 -33t8 -18v-4l7 -19q0 -7 10 -18
t13 -21q13 -3 26 -7.5t21 -4.5h12q11 0 11 9l5 29l-4 16l2 6l-4 7l6 50l-2 14l4 58q0 28 -6 25q-2 -1 -4 1t-1.5 4t-1.5 4t-4 2q-7 0 -7 5t-10 8q-14 9 -25.5 23.5t-26.5 22.5v2q0 8 -5.5 11.5t-11.5 8.5q-1 3 -3 4.5t-1 6.5q-15 0 -26 55q-2 7 -3 10t-1 5.5t2 8.5l-1 21
q0 7 1 11q10 13 10 18t4 11.5t9.5 9.5t6.5 10q15 5 21 11.5t12.5 12t8 5.5t4 2t2.5 3.5t2 2.5l29 12v10q0 12 4 16q-1 5 -3.5 7t-2.5 10t2 15t4 15q4 3 12 3q18 0 18 -33l2 -1l-2 -5q0 -5 2 -16q6 -30 29 -37q5 -13 17.5 -20t19.5 -11.5t10 -11.5h2q6 1 9 -3.5t10.5 -6.5
t12.5 -9t10 -13v-22q0 -6 -2 -11q-15 -12 -25.5 -12t-10 12t-0.5 18v4q-3 5 -7 7.5t-8 6t-7 7.5q-8 12 -13.5 11t-8.5 5t-10 7.5t-10 6.5q-4 -8 -4 -14l4 -30q0 -10 2.5 -18.5t2 -14t-0.5 -10.5l2 -13l-4 -20l2 -14l-1 -12zM186 498l2 15q0 17 -3 17l2 5l-4 16l2 10
q0 13 -5 27t-7 27h-4q-11 0 -16 -7t-20 -5q-8 -6 -14 -13.5t-14 -12.5q-1 -8 -2.5 -14.5t-1.5 -14.5l7 -28v-1l4 -4q7 -16 12 -24.5t4.5 -10t1 -3t3 -1.5t3.5 -2.5t3 -5.5t3 -6l19 -18q5 -5 9 -10t11 -7q6 4 6 11l-2 17l2 28zM229 143q0 -12 4 -12q9 0 25.5 11.5t20.5 20.5
l4 2q2 3 1.5 6t1.5 8t4 6.5t2 11.5t-2.5 19t-0.5 20q-16 11 -17 27q-5 2 -8 6.5t-9 5.5q-2 16 -16 14h-3q-6 -6 -6 -26l-3 -27l2 -23l-2 -12l4 -28z" />
    <glyph glyph-name="percent" unicode="%" horiz-adv-x="556" 
d="M87 369l-5 -5q-2 0 -3 1q-1 6 -6.5 7t-9.5 4.5t-6.5 8.5t-7.5 8q0 9 -7.5 22.5t-7.5 43t3 47.5q2 5 6 11.5t3 11.5t1 9.5t6 10t8 13.5t9 20t13 20h3q2 2 2 4t7.5 9.5t14.5 7.5q26 0 46 -23l33 4l11 -2l37 7l11 3q2 0 2 -2t4 2q6 2 13.5 1.5t15 2t9.5 4.5t12 2h3l6 4
q5 1 9 0.5t10.5 1.5t13.5 6t16 4q11 3 20 8t20 5q19 0 19 -23q0 -3 -1.5 -5t-2.5 -5t-0.5 -6.5t-1.5 -7t-3 -2t-1 -4.5t-2 -8l-3 -1q-2 -4 -4 -9.5t-4 -7.5t-3 -4l-8 -19q-8 -21 -16 -41t-12 -32.5t-6.5 -15t-5 -7t-3 -11.5t-4 -12.5t-7.5 -9.5q-8 -10 -7 -17t-13 -27
q-1 -15 -8 -30.5t-10 -24.5t-5 -11t-3 -5l1 -6q0 -3 -5 -5q-1 -3 -1 -6t-3 -8.5t-8.5 -15t-7 -14t-1 -7t0.5 -5.5v-1l-4 -5q-3 -16 -7 -20q-8 -8 -8 -15.5t-4 -13.5t-6 -10l-5 -15q-2 -4 -4.5 -7.5t-5 -9t-2.5 -13.5t-8 -13q-3 -13 -14 -26h-18q-3 -5 -6 -10.5t-11 -5.5
t-14.5 7t-6.5 18t9.5 26t12.5 34t14 27v2q0 10 3 16l7 14q2 4 2 7.5t4.5 12t7.5 25.5q5 2 6.5 9t6.5 11q2 5 2 11.5t1.5 10.5t3 6t6 11t9.5 24.5t12 30.5l4 4v4q0 4 16.5 37t16.5 46q6 4 7 10.5t5 12.5l4 2q1 3 0.5 5.5t6.5 16.5t21.5 39t27.5 51q-4 1 -13 1t-19 -6t-18 -9
t-11.5 -2t-7.5 1t-10 -3.5t-11.5 -4.5t-9 -0.5t-8 0.5t-16 -5.5t-16.5 -10t-14 -7t-12 -11.5v-2q0 -15 5 -32.5t5 -30.5l-2 -12q2 -2 2 -4q0 -3 -4 -17t-8 -18q1 -2 1 -8t-4 -14t-5 -16q-5 -3 -10.5 -5.5t-7.5 -9.5h-2q-8 1 -12 -3.5t-10 -9.5h-2q-8 1 -13 -5t-10.5 -6t-7 3
t-8.5 1q-1 6 -8 11h-1zM513 297l10 -33q0 -7 -2.5 -11.5t-4 -11.5t-0.5 -14.5t-1.5 -18.5t-11.5 -27t-11 -31q-8 -4 -13.5 -12t-11.5 -16q-16 -21 -36 -21l-30 3q-6 0 -14 -2q-18 10 -29 13q-5 5 -7.5 11t-8.5 8q-14 40 -14 59t2 26.5l4 15t1 15t6.5 23.5t13.5 21l-2 3l4 22
q4 4 9.5 13.5t13 14.5t13 9t7 6.5t4 4.5t5.5 2t10.5 4.5t15 4t12.5 2.5q13 -2 20 -6t14 -16q3 -2 5 -2t3.5 -1.5t4 -6.5t6 -11.5t6 -13t6 -12.5t3.5 -8zM395 176q0 -45 22 -45t30.5 10t11.5 14.5t5 4.5v1q0 7 3.5 12.5t6 10t2.5 8.5t1.5 7t3.5 6q5 7 4.5 15.5t4 19.5t4.5 22
l-5 14q0 5 3 8q-7 3 -7.5 11t-3.5 14q-1 7 -5 11.5t-6 10.5q-10 0 -16 4.5t-18 3.5q0 2 -2 2q-2 -5 -5.5 -7.5t-5.5 -5.5t-1.5 -7t-0.5 -6l-4 -2q-1 -2 -0.5 -3.5t0.5 -3.5l-10 -18v-18q-8 -11 -7 -28.5t0 -28.5t-3 -19.5t-2 -17.5zM161 434l6 27q0 4 -2 6q0 3 2 7v4l-2 47
q-13 26 -37 30h-2q-2 0 -8 -3q-8 -6 -10 -16q-6 -32 -6 -73t3.5 -47t5 -10.5t1.5 -9t4 -6.5q32 8 40 32q2 5 5 7v5z" />
    <glyph glyph-name="ampersand" unicode="&#x26;" horiz-adv-x="699" 
d="M614 376q-4 0 -6 -2l-3 -6q-2 -2 -7 -2.5t-10.5 -3t-12 -6.5t-12.5 -7q-14 -7 -31.5 -12t-29.5 -5l-16 1q-9 0 -13 -6h-5q-9 0 -13.5 -3t-11.5 -6h-6q-14 0 -20 -8q0 -7 3 -11q16 -18 15 -32q2 -3 5.5 -4.5t6.5 -3.5v-1q0 -3 3 -6t4.5 -5.5t1 -5.5t5.5 -9t6 -28.5
t-10 -34.5v-19q-7 -12 -17 -17.5t-12 -20.5q-10 -3 -24 -18.5t-16 -18.5h-3q-11 0 -14.5 -6t-10.5 -11q-9 0 -17 -4.5t-15 -4.5l-11 2q-4 0 -6 -3t-13 -3h-2l-4 -4h-1l-53 6l-13 -2l-61 11q-5 5 -11 7.5t-5 7.5q-12 0 -25 13t-20 16q0 5 -3.5 7.5t-2.5 8.5q-32 15 -43 59
q-4 13 -6 18t-2 10t2 9q-4 4 -4 10l4 22l-2 10q0 1 4 5l-2 14q0 8 1.5 14.5t2.5 13t0.5 14t1.5 13.5q2 10 20 37t27 34l6 3l2 5h3v4h4q2 2 2 3t3.5 3.5t7.5 3.5t6 7q18 6 23 14q13 1 22 16q-1 5 -5 8t-4 6v5l-5 17l2 6l-3 26q0 14 15 38q11 3 18.5 8t19 12t27.5 7t19 -7
q4 4 9 4t12.5 -5t14.5 -8q10 7 12.5 19.5t4 21t4.5 13.5l11 4q9 0 14.5 -6.5t5.5 -22.5t-4 -20t-5 -6v-8q0 -2 -4 -10t-4 -21l4 -17q0 -8 -6.5 -18.5t-16.5 -10.5t-12 10t-4 18q-8 11 -24.5 20t-30.5 9l-11 -1q0 -3 -0.5 -2.5t-7 0.5t-12 -7.5t-11.5 -15.5q4 -14 6.5 -26
t7.5 -20q11 -16 43 -14q7 -5 16.5 -9.5t9.5 -15.5q0 -16 -27 -16q-5 0 -7 2.5t-6 4.5h-5q-9 0 -14 4h-2q-3 0 -4 -2.5t-11 -4t-17 -8.5t-19 -8q-7 -9 -17 -12t-19 -8q-5 -8 -13 -16q-34 -34 -34 -56l2 -22l-2 -29l4 -20l-1 -12q0 -7 5 -12v-2l-2 -8q0 -6 10.5 -31
t19.5 -32.5t11 -13t4.5 -8.5t7 -4.5t8.5 -4.5q3 -10 24.5 -22t25.5 -12l11 1q14 0 28.5 -5.5t27.5 -5.5t25.5 4t24.5 2q9 6 19 8t20 9t18 17l8 12q5 5 9.5 8t15.5 21.5t15 35.5q-2 7 -4 13t-4 13t-5.5 13t-5.5 12q-23 28 -29 41q-9 0 -12.5 4.5t-9.5 9.5q-4 1 -17 1
q-43 0 -61 -15q-5 -4 -15.5 -9.5t-13.5 -10.5l-2 -6l-5 -2q-4 -7 -4.5 -15.5t-7.5 -13.5l-12 -1q-12 0 -12.5 5t-1.5 16q2 2 2 5.5t-3 4t-3 3.5t7 7.5t6 16.5q8 3 16 16q9 2 16 9t15 13q6 3 8 11h1q12 0 23 7t25 7l36 -4l7 2l17 -1q7 0 11.5 1.5t11.5 3.5l54 11q11 3 20 5
q19 2 34 10q6 1 9 1h7q8 0 14 3t9 2.5t5.5 1t5 4.5t5.5 5q16 2 29 11.5t19 14t9 4.5l24 33v9q0 19 -9 26.5t-13.5 10.5t-5.5 7q-8 7 -11.5 9t-21 2t-46.5 -11q-6 12 -6 17.5t6 11t13 9t14.5 6.5t11.5 7q11 -1 20.5 -3t19.5 -3q1 -5 6 -5q9 0 17 -11.5t24 -18.5q2 -6 7 -11
t9 -10q2 -10 2 -20.5t-2.5 -14.5t-6.5 -12q-3 -2 -2 -4.5t-1.5 -7.5t-8 -13.5t-9.5 -16.5q-8 -5 -13 -10q-14 -12 -19 -12t-5 -5.5t-4 -5.5z" />
    <glyph glyph-name="quotesingle" unicode="'" horiz-adv-x="165" 
d="M108 596l2 -13l-2 -14v-15q0 -8 -3 -20.5t-5 -21.5t-15 -9t-24 9q2 8 2 13l-2 27v16q0 47 -4 87l-2 1v1q2 7 2 9l-4 15q0 12 2 26l4 10l-2 10q0 5 2.5 8.5t3.5 8.5q7 6 18 6t19 -12.5t8 -24.5l-2 -10l4 -14l-2 -13v-80z" />
    <glyph glyph-name="parenleft" unicode="(" horiz-adv-x="286" 
d="M105 402l5 -74l-2 -7l4 -14q0 -2 -2 -4q11 -17 13 -40.5t11 -42.5q0 -13 5 -24.5t5 -18.5q9 -11 15.5 -32t14.5 -35q13 -30 30 -63q6 -5 13 -16t10.5 -14t6.5 -8l19 -25q5 -6 10.5 -11t6.5 -11v-3q0 -2 -6 -14t-9 -14q-15 -3 -22 -3t-14 3l-6 8t-9 4q-3 14 -17 19l1 2
q0 2 -4 3.5t-3.5 6t-1 7t-3.5 3t-7.5 5.5t-12 13.5t-16.5 14.5q-1 9 -7 17.5t-9 16.5q-1 1 -6.5 2.5t-5.5 9t-2 12.5l-4 2l-5 19q-3 6 -7 12t-6 10.5t-1.5 7.5t-2.5 5q-2 7 -4.5 13.5t-4.5 12.5l-4 4q-8 24 -8 37q0 21 -4.5 41t-6.5 24q0 22 -3.5 33.5t-3.5 15.5l1 11
q0 3 -2 5l1 24v34q0 15 -1 33l-3 24l7 46q1 3 2 5.5t2.5 7.5t1 13t1.5 14.5t5 11t5.5 11.5t4.5 16.5t7 17.5q2 7 6.5 13t9 16t10 23t11 21t9.5 11t9 10.5t13 16t13 14t8.5 9.5t8 5.5t8.5 5.5t7.5 7t8 5.5t9.5 7.5q12 8 22.5 17t26 9t15.5 -14t-19 -14l-15 -16h-3
q-6 0 -14.5 -9t-8.5 -16q-1 -1 -2 -1l-7 1h-2q-14 -18 -27.5 -33.5t-19.5 -37.5q-5 -4 -20.5 -38.5t-15.5 -46.5v-3q-12 -26 -12 -42l1 -29q0 -15 -4 -26q3 -15 3 -45z" />
    <glyph glyph-name="parenright" unicode=")" horiz-adv-x="275" 
d="M169 377l2 25v13q-2 2 -2 6q2 2 2 4.5t-1.5 6t-2.5 8.5t-0.5 12t-1.5 13t-3 7q-1 3 -1 4v9q0 11 -5.5 25t-5.5 17.5t2 4.5q-22 26 -28 60q-4 5 -7.5 10.5t-8.5 10.5q-6 9 -10 19t-16 15q0 16 -6.5 22.5t-7.5 6.5q-5 0 -4 4t-1.5 7.5t-7.5 9t-24 29t-22.5 37.5t-5 17.5
t-1.5 10.5t13.5 10t21 3t20.5 -10.5t16.5 -15t3.5 -6t3.5 -6t8.5 -9.5t6 -14q7 -2 13 -18q17 -10 24 -24q2 -2 2 -4.5t9.5 -12t14.5 -20.5t5 -14t2 -6.5t6.5 -8t6 -8.5t1 -7.5t3.5 -11.5q7 -9 15 -38q5 -5 8.5 -11.5t8.5 -11.5q0 -13 4.5 -25.5t4.5 -21t-2 -17.5
q12 -24 12 -85.5t-2 -79t-4 -24.5t-2 -15l2 -6q0 -4 -1.5 -6.5t-3.5 -8t-3 -18.5q-4 -52 -18 -63q2 -4 2 -7.5t-3 -7.5q-9 -8 -9 -32q-10 -12 -12 -30q-7 -6 -21.5 -38.5t-25.5 -37.5q-2 -6 -4 -9.5t-2 -8.5q-11 -7 -14.5 -14.5t-16.5 -13.5q0 -8 -14.5 -19.5t-18.5 -11.5
t-8 3t-9 5q-1 2 -1 10.5t14 21.5t22 20q0 7 6.5 20t9.5 16.5t5 5t4 5t2.5 9t2.5 9t5 7t5 12t7 23.5t14 39t14 42q9 31 13.5 85t4.5 73z" />
    <glyph glyph-name="asterisk" unicode="*" horiz-adv-x="418" 
d="M239 580l1 -12q10 1 15 9.5t13 15.5t17.5 12.5t18.5 13.5t17.5 16.5t20.5 11.5q4 12 22 12q4 0 6 -1q3 -5 3 -12t-7 -17q-5 -2 -10 -3.5t-10 -3.5q-7 -6 -11 -12t-12 -9q-2 -3 -3 -6.5t-3 -6.5q-9 -5 -18.5 -8t-13.5 -16q-16 -4 -23 -16.5t-20 -21.5l-4 -16q0 -8 11 -14
t16 -19q9 0 37 -29l32 -31q2 -3 3 -6.5t4.5 -10t12 -13.5t8.5 -19v-2l-9 -2q-1 0 -3 2q-4 -7 -10 -7t-14 8t-16 18t-15 20.5t-10 13.5t-4.5 3.5t-3 2t-1 3t-5 9t-18.5 14.5q-3 5 -5.5 10t-9.5 7q-5 -4 -4.5 -10t0.5 -12l-5 -18l3 -17l-3 -14l5 -14l-2 -9l3 -47v-9
q0 -5 -1 -10q-7 -3 -13 -3l-11 1q-2 7 -5 11.5t-3 12.5l5 19l-3 25v15q0 3 -1.5 15t-4 34.5t-5.5 31.5q-12 0 -16 -8t-9 -13t-13 -9t-12 -8v-4q-5 -5 -10.5 -5.5t-8.5 -13.5q-17 -9 -28 -24.5t-27 -27.5q-16 10 -16 17q0 12 15 22q12 11 16 21q4 0 6 3t4 5h4v3q16 11 20 18
t12 10q4 3 6.5 7t6.5 7l14 9q6 6 11.5 12.5t9 9.5t3.5 5.5t-8 6.5v4q-11 11 -18 11v9q-5 2 -10.5 6.5t-11.5 6.5q-2 4 -3.5 5.5t-1.5 6.5q-10 2 -14.5 11t-15.5 11q0 6 -4.5 8t-5.5 7q-5 1 -7.5 3t-7.5 3q-1 6 -13 14.5t-12 24t15 15.5q11 0 23.5 -11.5t19.5 -18.5l12 -12
q4 -3 8 -5t9 -6.5t11 -11t13 -12.5l14 -10q5 -5 11.5 -14.5t14.5 -9.5q7 4 6 10.5t-1 12.5l4 25l-2 16l4 27q-2 2 -2 4l2 31l-2 25l4 16l-2 14q0 5 6 12t11 7l2 -2q5 0 10.5 -8.5t6.5 -14.5q1 -18 1 -29v-10q0 -10 -3 -17q2 -5 2 -11v-10z" />
    <glyph glyph-name="plus" unicode="+" horiz-adv-x="526" 
d="M406 345l42 8h1q2 -2 4 -2l35 6l10 -12q-2 -7 -7 -10.5t-10 -8.5l-21 4q-6 0 -11 -2.5t-10.5 -4t-12.5 -1t-15 -4.5v-1q-2 0 -2 1t-2 1l-7 -2l-14 2q-8 0 -48 -8q-6 0 -9 -7q-2 2 -9 2h-10q-2 0 -2.5 -1.5t-3 -3t-11 -2.5t-8.5 -7l4 -9l-5 -9l2 -10l-1 -15q0 -28 5 -41.5
t5 -20.5l-3 -34l3 -36q0 -10 -5 -12q-8 -3 -14.5 -5.5t-9 -2.5t-4 3t-3.5 3l-7 -1q-11 0 -11 25l3 43l-4 38l1 18l-6 26l2 24q0 12 -5.5 14t-10.5 8h-8q-16 3 -25 -6l-18 6l-18 -6h-1l-9 3q-7 0 -13 -3q-10 -2 -20.5 -1t-26 1t-30.5 -4q-2 6 -9.5 6t-9.5 6v1l-3 5
q0 16 12 16h24l16 2l17 -5q4 0 8 3l8 -3l4 3l6 -3q3 0 7 2q8 5 36 5l20 -2l11 4l9 -2q7 0 25 6q1 5 1 10v11l-1 49l4 63l-4 69q0 10 4 18q9 6 18 6q14 0 17 -32q2 -6 2 -11l3 -33q0 -8 -3 -11l3 -10q0 -3 -3 -3q6 -16 6 -31t-4 -25q2 -2 4 -10t2 -10l-4 -9l2 -13l-2 -17v-4
q7 -7 21.5 -7t30.5 4.5t27 4.5t14 1.5t8.5 2.5t11.5 0.5t15 -0.5z" />
    <glyph glyph-name="comma" unicode="," horiz-adv-x="207" 
d="M56 60q-13 0 -13 13.5t13.5 27.5t23.5 17t18 2.5t13 6.5h8q5 0 5 -1t2 -2.5t4 -1t4 -1t3 -4.5t4 -5q4 -6 6.5 -8.5t6.5 -17.5t4 -30.5t-11 -26.5q-2 -4 -1.5 -11t-4.5 -7l2 -9q0 -5 -6.5 -12t-8.5 -15q-5 -3 -9 -7l-8 -8q0 -9 -2 -14t-14.5 -13.5t-17.5 -8.5t-7 3.5
t-6 4.5v10q0 6 4.5 9t6.5 5q1 2 5 7t7.5 11t7.5 11q14 17 14 67q-4 2 -10 2t-10 -6q-8 4 -13.5 4t-9.5 -2q-9 1 -10 10z" />
    <glyph glyph-name="hyphen" unicode="-" horiz-adv-x="393" 
d="M260 291l18 4q8 0 28 8q7 -4 12 -7.5t5 -12.5v-3q-5 -5 -9.5 -4.5t-9.5 -4.5h-3l-9 2l-6 -2l-3 2q-11 0 -19.5 -5.5t-13 -5.5t-17.5 2l-22 -6l-18 2l-22 -4q-6 0 -12 4q-4 -2 -8.5 -2.5t-6.5 -5.5q-2 0 -17 6q-14 -6 -57 -12q-3 3 -3 7.5t3 16.5q8 0 14 4t11.5 4t9.5 -3
q9 12 79 12q6 0 9 -3q4 0 7.5 2.5t8.5 2t9 -0.5z" />
    <glyph glyph-name="period" unicode="." horiz-adv-x="195" 
d="M82 41l-5 -2q-14 0 -20.5 11t-6.5 20t1 12q2 4 11.5 22t17.5 20t10 5h7q13 -10 27 -14q2 -6 7 -9l11 -5q3 -8 3 -22.5t-17 -22.5v-4q-2 -2 -5.5 -3.5t-4.5 -4.5q-8 0 -16.5 -3t-16.5 -2h-2q-1 0 -1 1v1z" />
    <glyph glyph-name="slash" unicode="/" horiz-adv-x="298" 
d="M73 69q-28 0 -28 17q0 21 4 26t5 9l3 13q2 13 6 26t5 27q9 12 9 21q0 16 7 28t8 19.5t3 15.5q2 0 2 9t8 27.5t8 33.5v2l4 3q10 30 10 42v2l4 3q2 6 2 12.5t5 10.5q0 14 9 25v3q0 7 2.5 22t4 26t5 17t3 9.5t6.5 19.5t9 33.5t4 26.5t1 13q0 7 5 14t8 18q10 36 24 36
q11 0 17 -2q7 -10 7 -25t-3.5 -20t-5.5 -12.5t-1.5 -12t0.5 -12.5t-2 -10.5t-3.5 -7.5t-0.5 -8.5t1 -9t-2.5 -6.5t-2.5 -8.5t-2 -15.5t-5 -21.5t-5.5 -24.5t-3.5 -20.5t-3 -19t-5.5 -18.5t-4 -16t-2.5 -7.5t-4 -5t-1.5 -10.5t-1.5 -12q-7 -4 -9 -15t-7.5 -29t-10.5 -43.5
t-17.5 -58.5t-23.5 -76t-16 -55t-5.5 -15t-2 -4.5t-3 -1t-4.5 -2t-4 -4t-9 -1.5z" />
    <glyph glyph-name="zero" unicode="0" horiz-adv-x="390" 
d="M345 403l3 -20q0 -5 -2.5 -8.5t-4.5 -9t-1.5 -11.5t0 -11t-3.5 -7t-7 -17.5t-14 -20.5q-3 -2 -3 -8h-2q-8 0 -11 -6t-11 -6q-2 -2 -1.5 -6t-8 -8t-13.5 -12q-11 -1 -18.5 -5t-16.5 -8h-8l-29 -1q-8 0 -13.5 1.5t-12 0.5t-12 -1t-14.5 2t-13.5 6t-12.5 2q0 5 -3.5 4t-7 2
t-9.5 11.5t-11 11.5q-2 4 -2 11t-3 7t-5 2l-2 7l-6 14t-7 12l1 9q0 9 -2.5 11.5t-6.5 18.5t-4 38q0 45 39 92q3 10 6 10t7.5 5t8 10.5t9.5 9.5t7 6.5t3 1.5t6 4q6 3 11 4.5t9 5.5l7 -1l55 3q7 -5 13.5 -9.5t10.5 -11.5q11 -2 20 -9.5t15 -11t9 -4.5t10.5 -7.5t17.5 -22
t21 -28.5l-1 -4q0 -10 8 -16q-1 -2 -1 -4.5t7 -20.5v-7zM108 437l5 -38q0 -8 5 -14.5t3 -17.5q6 -11 8 -22.5t4 -22.5q12 -14 18 -27.5t19 -19t26 -4.5t18.5 1t5.5 -2l5 -1q9 0 15.5 3.5t14.5 7.5q12 14 25 25.5t25 25.5v3q-2 8 2.5 15t6 12.5t1 8t-0.5 4.5v2l4 2q1 2 1 7
t-5 18l-2 28q-11 11 -18 25t-7 16h-3q-3 0 -3 2q0 6 -8 6q-4 0 -6 2q1 5 -4.5 5.5t-3.5 7.5q-1 -1 -3.5 -1t-4.5 2q-4 6 -9.5 5t-20 6t-14.5 7.5t-1 0.5l-8 -5q-1 0 -2 3q-6 10 -25.5 10t-25.5 -3q-5 -13 -14 -16q-1 -15 -14 -22q-2 -11 -5.5 -22t-3.5 -23z" />
    <glyph glyph-name="one" unicode="1" horiz-adv-x="342" 
d="M266 372l1 -20l-3 -19l2 -40v-50l-5 -82l2 -57l2 -21q0 -8 -1 -12q-12 -12 -10 -14q-8 -4 -13 -4h-2q-2 0 -3.5 -2t-3.5 -4q-6 -2 -13.5 -2t-17.5 4q-6 9 -6 22l2 23l-2 51q0 9 3 22t3 40l-2 80l2 25v102l-4 39l4 33v13q0 6 -2 12h-1q-6 0 -9.5 -4.5t-7 -6.5t-11.5 -7
t-16.5 -10t-15.5 -9t-8 -6q-14 0 -26.5 -6t-26.5 -6q-4 -2 -8.5 -3t-7.5 -4q-4 1 -23 1t-24 5l-1 10q0 8 10.5 11.5t15.5 3.5l16 -2q9 0 34 7q56 16 98 58l10 10q11 11 11 25q2 52 23 52q15 0 20 -14.5t6.5 -21t3 -10.5t1.5 -7l-4 -25l1 -27q0 -2 2 -14t2 -34.5t1 -45.5z
" />
    <glyph glyph-name="two" unicode="2" horiz-adv-x="411" 
d="M259 62h-13q-2 0 -4 3q-7 -5 -19 -8q-3 3 -8 3l-12 -1q-5 0 -8 3l-23 -9h-2q-3 -1 -12 4l-10 -4t-10 -2h-1l-2 -4q-10 -4 -33 -4l-12 2v3l-2 12q0 5 5 14l8 13q5 7 12 15q7 11 12 22t14 19q0 19 29 58l4 2q14 28 16 43q4 2 5 6t4 6v2q0 14 9 25t11 19.5t1.5 13.5t-0.5 11
t4.5 15t5 16t3 11.5t6 11t3 10.5t0.5 8q3 1 4 5q5 3 11 56t6 57l-2 18v30q0 34 -8 44l-4 2q-1 2 0 4.5t1 5t-4 7.5t-10 13t-15 17l-7 -1q-5 0 -10.5 2.5t-10.5 3.5q-1 4 -4 4.5t-1 7.5h-2q-6 0 -7 -5.5t-5 -8.5q-10 -3 -22 -6.5t-17 -13.5q-8 0 -15 -5t-7 -13v-1l-4 -2
q-2 -5 -3.5 -9t-4 -7.5t-6.5 -5t-3 -6.5q-3 -2 -10 -2q-1 -8 -6 -16.5t-5 -17.5l2 -8l-4 -23q0 -16 6 -29l-6 -20l6 -20q9 -5 16.5 -8t7.5 -14q7 2 19 12t17 10q3 10 3 26t-9 29q1 2 1 6l-1 15v3q11 8 18.5 8t20.5 -13v-4q0 -2 2 -4q6 -2 5 -6t-1 -7t2.5 -5.5t3.5 -6.5
t0.5 -8.5t-0.5 -9.5v-6q0 -1 -1.5 -1t-4 -3.5t-1.5 -7t-1 -5.5q-6 -3 -10 -8.5t-10 -7.5q-6 -8 -9 -15q-11 -5 -22 -8.5t-22 -7.5q-5 4 -9 9l-10 9q-3 -1 -11 -1t-15 3q-4 3 -4 12t-5 17q-2 8 -1 15.5t-0.5 13t-3.5 7.5q-2 5 -2 14v9q0 14 -6 18q9 18 7 25q6 4 10 14.5
t4 13.5t-0.5 6.5t5.5 16.5l2 11l4 2q2 5 6 8t7 6t4 6.5t2.5 5.5t3 2t3 2t1 4t1 3.5t3.5 0.5t4 1t1 3q-2 4 5 5.5t10 3.5l2 3h4l31 14h11l13 4q2 0 2 -1t2 -1h28l9 2q5 0 12.5 -6t19.5 -4q0 -4 3 -3.5t5 -0.5q1 -1 0.5 -1.5t1.5 -2.5q13 -6 23 -20l9 -13l7 -8q3 -5 3 -7
t3.5 -6t3.5 -8t2 -7l4 -2q1 -3 0.5 -7t1 -8t3 -5.5t1.5 -6.5l-1 -16l2 -20l-2 -14l2 -11l-4 -14l2 -10l-4 -16l1 -8q0 -6 -6 -18q0 -42 -19 -86q-6 -14 -13 -21q-3 -23 -10 -30v-13q0 -3 -5.5 -12t-7.5 -13.5t-2 -8.5t-2.5 -10.5t-10.5 -18t-7 -20.5q-5 -5 -8 -6v-1
q0 -7 -7 -21t-8.5 -15.5t-2.5 -1.5t-4 -2q-3 -4 -4 -8.5t-7 -5.5q-2 -18 -14 -26v-2q1 -8 -4 -11.5t-6 -10.5q-8 -6 -13 -13t-11 -13q4 -4 9 -4l19 4l12 -1q14 0 28.5 4t28 6t29 1.5t26.5 6.5q4 -2 24.5 -2t53.5 11q5 -6 9 -8t4 -9.5t-8.5 -13.5t-15 -6t-10.5 3
q-10 -4 -22 -4l-24 2q-8 0 -14.5 -4.5t-16.5 -3.5t-15 -5z" />
    <glyph glyph-name="three" unicode="3" horiz-adv-x="393" 
d="M35 146l7 34q0 7 2 15l4 4q2 8 7.5 15.5t8.5 15.5q14 9 40.5 14t39.5 5t19 -3q9 -3 22.5 -20.5t13.5 -23t-1.5 -7t-3.5 -5.5v-2l-2 -9q-5 -1 -8 -4t-7 -6h-3q-6 -1 -10.5 3t-9.5 7v1q0 10 -4.5 16.5t-4.5 15.5h-2q-4 0 -4 2t-4 2t-13 -6l-3 1q-10 0 -16 -6q-1 1 -3 1
l-13 -1q-5 -4 -9 -9l-8 -10q-2 -6 -2.5 -14.5t-5.5 -13.5q2 -8 2 -13t-4 -15q1 -5 3.5 -7t5 -4.5t3 -6t5.5 -3.5v-5q0 -8 14 -20.5t24 -12.5v-2q0 -3 3.5 -3t2.5 -5q6 4 13 4l26 -3q9 0 16 4t16 5q8 9 16.5 16.5t13.5 18.5q19 33 28 69q4 8 4 11l-2 7l4 25q0 18 -2.5 33.5
t-3.5 33.5q-3 9 -9 16v3q0 20 -8.5 32.5t-8.5 17.5q-6 6 -9 15t-8 16h-4v4q-4 4 -8.5 4.5t-8 2.5t-4.5 3.5t-3 3t-4 1.5t-4 3v1l-14 -5q-7 0 -28 -18t-31 -24q-11 6 -11 16.5t2.5 13t6.5 8t4.5 10t2.5 6.5q10 14 28 24.5t26.5 24t21.5 17.5q2 6 6 9t6 6.5t1.5 4.5t1.5 3l9 7
q0 2 3 9t4.5 8.5t3 1t3.5 0.5q1 2 0.5 3t1.5 2.5t3.5 2.5t4 3t2 3t0.5 3l4 2q2 2 2 3.5t3.5 6.5t11.5 10q12 8 14.5 18.5t12 17t11.5 15.5q-5 6 -13 6l-35 -6q-6 0 -11 3t-12 2t-14 -1t-11 4q-9 -4 -21 -4t-15 5q-2 -2 -5 -2h-6q-26 0 -35.5 6.5t-9.5 11.5q0 8 12 8.5
t15 0.5h59q6 2 11 2l12 -4l20 2l28 -2h40l31 6h13q8 -3 16 -17q-3 -6 -7.5 -8t-8.5 -5l-6 -12t-6.5 -9.5t-7 -4t-6 -2.5t-4 -5t-6.5 -1q-2 -2 -2 -6t-7 -11t-16 -19.5t-23 -25.5t-22 -30q-5 -5 -11 -10t-9.5 -9t-3.5 -5.5t-3 -5t-6.5 -6t-5.5 -8.5q-11 -3 -15 -14
q4 -7 13 -8.5t15 -3.5h1q3 1 3.5 -3t3.5 -4q5 -1 10 -1q11 -2 13 -6.5t6 -3.5t7.5 -1.5t6 -8.5t9.5 -7q2 -8 7 -11t10 -8q3 -8 6.5 -17.5t10.5 -14.5q5 -30 11 -38t7 -10.5t0.5 -5.5t-0.5 -5l4 -12l-2 -12l2 -9l-2 -8l1 -10l-1 -10l2 -11q0 -7 -3.5 -12.5t-1.5 -14.5
q-12 -11 -16.5 -27t-13.5 -29v-3q0 -14 -21 -31q-5 -4 -7 -10h-1q-5 2 -9 -7h-4l-11 -16q-2 0 -14 -5t-20 -13h-2q-3 0 -4 -1.5t-5 -0.5q-2 -4 -7 -5t-6 -6h-23q-10 0 -20 5q-6 -3 -14.5 -3t-18 4t-20.5 5q-7 9 -10 17.5t-6.5 9.5t-6.5 3q0 11 -14 17v2q0 9 -5.5 17.5
t-5.5 18.5v16z" />
    <glyph glyph-name="four" unicode="4" horiz-adv-x="390" 
d="M282 318q0 -32 8 -104v-39q8 -2 18 -2t25.5 6.5t32.5 6.5l11 -11q0 -8 -5.5 -12t-7.5 -11q-37 -13 -66 -13q-5 -7 -5 -19l1 -42q0 -4 3 -5t3 -6l-4 -16l2 -6l-4 -29l2 -40l-3 -23q0 -4 1 -6q-6 -5 -7.5 -15t-6.5 -12.5t-14.5 -1.5t-16.5 -1q-6 4 -8 8.5t-7 7.5v2l2 10
l-3 8l1 37l3 56q0 7 -1 13l-2 12l1 13l-4 36q-4 3 -9 3t-9 3l-11 -6q-3 -2 -11 -6l-11 4q-6 0 -18 -12q-7 3 -11 3l-19 -3q-7 0 -11 5l-14 -9h-6q-12 0 -15 -6l-13 4q-2 0 -4 -3t-4.5 -2t-7 1t-14 -5.5t-18.5 -5.5q-13 0 -13 13q0 25 6.5 36t14 26.5t18.5 48t13.5 36.5
t6.5 13.5t10 26.5t11 25.5t7 11t4 6t2 7.5t1.5 7.5t4 10.5t7 21.5t7.5 14.5v17q3 6 8 11.5t7 13.5q2 2 1.5 5t0.5 6l10 18q2 5 2.5 10.5t5.5 9.5q0 12 8.5 44.5t9.5 35.5l4 2v4q7 16 10.5 35t15.5 30v3q0 10 6 22.5t17 12.5t16.5 -10.5t5.5 -23t-5 -29.5q-12 -34 -11 -41.5
t-3.5 -13t-6.5 -11.5t-5.5 -33t-11.5 -35l1 -5q0 -4 -2 -7.5t-4 -8t-3 -10t-2.5 -9t-3 -4.5t-4 -4.5t-3 -9.5t-5.5 -11q-2 -5 -2 -9.5t-4 -10t-2 -15.5q-4 -2 -5 -7t-5 -7q-1 -7 -1.5 -14t-3 -14.5t-7 -12t-2.5 -14.5q-7 -2 -7.5 -9.5t-8.5 -9.5l1 -2q0 -6 -2.5 -9.5
t-1.5 -9.5q-5 -2 -6 -8t-6 -9q-2 -17 -7.5 -26t-7 -12.5t-0.5 -9.5t-1 -11l-4 -4q-3 -10 -7.5 -19t-6.5 -21q3 -4 13 -4t21 4t20 6t15.5 1t12 1.5t10.5 4.5t12 4t20 2.5t16.5 6t3.5 9.5v9q0 24 1 49t-1 50q-2 4 -2 7l2 6l-3 35l5 29l-2 11v14q0 6 2 13l3 19l-3 28l4 14
l-3 12l2 10q0 17 4 27q4 1 7.5 2.5t11 1.5t11.5 -9q11 -28 10.5 -31t-0.5 -6l5 -31l-2 -7l2 -18l-2 -27l2 -16l-3 -20l1 -15z" />
    <glyph glyph-name="five" unicode="5" horiz-adv-x="372" 
d="M91 31v6l-4 2q-3 13 -7.5 17.5t-7 9t-2 8t-3.5 8.5t-4 9l2 8l-2 10q0 8 6 18.5t8 18.5q6 6 11 10.5t8 10.5q13 3 25 6.5t25 3.5l9 -1q5 -5 7 -6.5t3.5 -3t5.5 -9t5 -9t1 -9t-15 -25.5q-15 0 -22 5v2q0 10 -11.5 10t-20.5 -6t-9 -13l1 -15q0 -6 -2 -9q5 -10 9 -20t10 -20
q11 -3 20 -7.5t27 -4.5t45 12q6 4 12 10.5t13 8.5q7 12 18 19q0 11 6.5 19.5t6.5 16t2.5 10.5t3.5 6t0.5 6t-0.5 7l2 14l-4 11l2 11l-5 15l2 9q0 8 -6 20l-4 2q-2 4 -1 8.5t-1 8t-4 6.5q-10 12 -12 19q-10 26 -26.5 36.5t-26 10.5t-14.5 -8h-4l-16 -8l-2 -4h-5q-3 0 -6 -6
q-8 -6 -8 -10t-6.5 -13.5t-8.5 -16t-2 -15.5t-1 -12q-6 -5 -9.5 -9t-11.5 -6q-5 -5 -11 -5q-10 0 -14.5 12.5t-4.5 23.5l4 17v3q-2 0 -2 1l2 8l-1 15q0 6 3 7q-4 7 -4 16l4 39l-2 38l2 9l-2 11l2 9l-2 27v22l-7 120q0 16 3 31q7 7 19 7t20.5 -2.5t19.5 -4t22.5 -1t25.5 0.5
l11 -2l10 2l3 -2q5 5 23 5h19l10 -3q3 0 6 2t9 3.5t15 0.5t19 1q1 -7 7 -8.5t6 -11t-5 -21.5q-11 -9 -26.5 -7.5t-28.5 1.5h-2l-3 -5q-2 -1 -4.5 -0.5t-4.5 0.5l-21 -6l-14 2l-26 -6l-28 5h-13q-5 0 -8 1q-7 -3 -7 -23v-4h1l1 -1l-2 -11l7 -50v-18l-1 -79v-21q0 -10 1 -21h5
q11 0 21.5 6t21.5 6h1l2 4q2 1 4.5 0.5t5.5 -0.5t4 1q2 4 12 4h9q20 0 51 -29q8 -7 16 -11q5 -13 15 -22.5t14.5 -17t5.5 -11t2.5 -6t3 -3.5t3 -3t1 -4t1 -4.5t4.5 -4.5q6 -6 5.5 -18t3 -19.5t3.5 -11.5t-1.5 -8t-3 -10t-0.5 -15.5t-1 -18t-5 -14t-5 -10t-2 -7t-1.5 -6
t-6 -6t-6.5 -6t-2 -6t-3.5 -9t-13 -14t-15.5 -17.5q-3 -1 -6.5 -1.5t-6.5 -2.5q-3 1 -2.5 -1.5t-1.5 -4t-4 -1t-6 -2t-6.5 -7t-7.5 -10.5q-10 -1 -18.5 -6.5t-16.5 -5.5h-11q-4 0 -7 -4.5t-26 -4.5t-39 10q-2 1 -3 2.5t-3 3t-4 1t-3.5 0.5t-2 4.5t-2 5t-3.5 2.5t-2 3z" />
    <glyph glyph-name="six" unicode="6" horiz-adv-x="446" 
d="M134 180q0 -24 16 -24q10 0 12 6.5t6 12.5l3 2q6 13 23 25.5t21.5 18t10 5.5t9 1.5t5.5 2.5q10 6 15.5 4.5t9 2t9.5 3.5q8 0 32.5 -19.5t24.5 -25t1.5 -7.5t3.5 -2.5t3.5 -4t2 -10t2.5 -12t8 -18t6 -17.5l-2 -6l2 -18v-6q-2 0 -2 -2v-2q0 -4 -3.5 -4.5t-5 -5t-2 -8.5
t-1.5 -10q-10 -2 -14 -9.5t-9 -15.5q-9 0 -12.5 -5t-5.5 -13q-16 -3 -28 -17h-16l-20 4q-10 0 -18 -3.5t-16 -3.5l-22 1q-5 0 -6 3t-6 5q-1 2 -3 1t-4 -1t-4 2q-13 8 -27.5 26.5t-22 26.5t-9 12.5t-4.5 9.5l-8 9q-3 5 -7 14t-8.5 17.5l-9 17t-7.5 11.5l1 5q0 10 -6 23t-6 32
l2 12l-5 42q0 21 6 46t8 29.5t2 8t1.5 6.5t3.5 6q6 5 6 17t6 21t8.5 13.5t3.5 8t3 7.5l4 1q6 14 15 26.5t16 26.5q17 12 36 31q33 35 44 39t11 8t3 4t7.5 3t13.5 9.5t14 8t7.5 1t6.5 -0.5t11 4t14 4l12 -2h13q16 0 24 -6.5t19 -5.5q7 -5 17 -10t21 -11q26 -14 26 -29
q0 -5 -5.5 -10t-11.5 -5t-9 6t-8 9.5t-6 2.5t-5 2.5t-7.5 2.5t-8 1t-8.5 6t-9 6l-3 -1q-13 0 -21.5 5t-12.5 5t-8 -2l-9 1q-8 0 -12 -7l-5 1q-6 0 -12 -2t-13 0q-8 -6 -14.5 -15.5t-17.5 -12.5q-9 -18 -15 -21h-4q-5 -14 -17.5 -28t-15.5 -14q-3 -5 -2 -9q-5 0 -5 -5
q-1 -5 -5 -8t-7 -6q-3 -8 -3 -25q-5 0 -4.5 -6t-4 -9.5t-5.5 -6t-0.5 -3.5t0.5 -3v-1l-4 -4q-2 -9 -2 -19t-2 -18.5t-4.5 -17.5t-2.5 -18.5t1 -16.5t0 -17q-2 -46 8 -51v-3q0 -14 8 -31v-4zM329 101l-3 22q0 5 1 7q-8 9 -11 20t-6.5 17t-13 12.5t-16 11t-15.5 4.5
t-15.5 -2.5t-12.5 -4.5q-5 -6 -8.5 -12t-9.5 -9v-1q0 -6 -3 -8.5t-5 -7.5v-13q-8 -9 -9.5 -16.5t-1.5 -24t6.5 -26.5t6.5 -15.5t2 -7.5q5 -2 5.5 -4.5t7.5 -1.5q4 -1 6 -4.5t5.5 -2t10 1t10.5 -0.5l4 1q12 12 30 15q9 15 19 18q2 4 3 11.5t7 10t6 10.5z" />
    <glyph glyph-name="seven" unicode="7" horiz-adv-x="398" 
d="M103 386q5 16 30 16t40 -4.5t30 -4.5h6q2 1 5 8l8 15q13 25 12.5 27.5t1 5t3 3.5t6 7.5t7.5 19.5t14 23q3 10 8.5 18.5t8.5 14.5t3.5 9t3.5 5l5 7q2 2 3.5 1.5t2.5 0.5q1 2 0.5 2.5t-0.5 2.5t3 3t3 4q0 7 -8.5 7t-15.5 -9q-5 2 -9 2h-10q-8 0 -10 -4t-7.5 -4t-10.5 3
t-10 5q-8 -2 -10.5 -7t-15.5 -5l-32 4q-3 0 -15 -8q-13 4 -26 4h-26l-38 2q-9 1 -15.5 4.5t-20.5 1.5q-5 6 -10 11.5t-5 11t2 11.5q8 5 18 5h19l9 2q1 0 9.5 -3.5t36.5 -3.5l22 2l24 -4l28 2l18 -2q4 0 8.5 1.5t13.5 3t24 1t52 4.5t66 5h11q4 -5 8.5 -7t4.5 -9.5t-9.5 -12
t-16.5 -7.5q-5 -10 -12 -16t-11 -13t-5.5 -13.5t-4.5 -13t-8.5 -15t-10.5 -21t-8.5 -27t-12.5 -26.5v-13q-10 -10 -16 -36q9 -12 59 -12h10q3 0 8 1q5 -3 8 -8l6 -10q-1 -5 -5.5 -7.5t-7.5 -8.5t-15 -6t-19 6h-4l-33 5q-15 0 -24 -16q-2 -2 -2 -5q0 -6 -5.5 -9t-4 -6t1.5 -5
q-6 -11 -5 -15.5t-1 -9.5t-5 -8t-5 -8l-2 -11q-3 -17 -11 -31.5t-8 -32.5q-12 -11 -25.5 -53.5t-19.5 -47.5v-3q0 -3 -2 -9t-3 -9.5t-3 -6.5t-1.5 -6t0.5 -7.5t-6.5 -9.5t-4.5 -15q-5 -4 -7 -11t-5 -12q-13 -5 -43 -8q-10 10 -10 27.5t14 31.5q5 7 6 22.5t9 24.5q2 7 3.5 15
t4.5 15l4 2q2 2 1 5.5t7.5 22.5t7.5 34q3 6 7 10t6 7.5t1.5 6.5t1.5 9t6 15.5t7 18t4.5 16t5.5 20.5t12 31t11 37q-4 9 -12.5 8t-28 -1t-47.5 6z" />
    <glyph glyph-name="eight" unicode="8" horiz-adv-x="432" 
d="M206 39l-21 -5q-6 0 -11 4t-12 5l-6 -1l-2 1q-7 7 -11 7.5t-10 3.5t-9.5 7.5t-7.5 4.5t-5 -1q-5 6 -9.5 11t-7.5 10q-5 4 -7 8l-4 2v4q-3 3 -6.5 3t-7.5 8.5t-9 19.5t-11 23v7l-6 88q0 52 7.5 59.5t5.5 13.5q-2 7 7 16l4 10q2 2 2.5 2t3 6t6.5 14t12.5 13t12.5 9.5t6 9
t7 11.5t16 14.5t16 18.5q-3 4 -3.5 8.5t-2.5 7.5q-14 6 -20 50q-2 10 -2 18q0 32 16 46q4 3 2 8q8 4 13.5 10.5t14.5 8.5q2 5 5.5 7t13.5 12t23 10t21 -2t12 -4t6 -2t2 0.5t2 1.5l8 -1q3 0 5 1q8 -4 18 -8.5t16 -10.5l2 -4l5 1q3 0 13 -12.5t16 -23.5l-1 -5q0 -1 7 -9.5
t7 -21.5l4 -11q-4 -12 -4 -22.5t2 -15.5q-17 -25 -41 -43q3 -3 4 -7.5t3 -7t4.5 -2.5t4.5 -2t1 -4t1 -4.5t5.5 -5.5t5.5 -5.5t2 -4.5t2 -4t4 -2t6 -11t10 -19.5t6 -13.5q-1 -10 4.5 -16.5t5.5 -13t4 -9.5v-3l-2 -10q11 -16 11 -30t-2.5 -23.5t-5 -18.5t-5 -16.5t-2.5 -10.5
l2 -8q0 -21 -5 -28.5t-10 -12.5t-8.5 -9t-8.5 -6q-3 -9 -8.5 -16t-8 -13t-2.5 -9t-2 -5.5t-9.5 -7t-12.5 -10.5q-23 0 -41 -18q-15 -3 -19 -7.5t-10 -6t-12.5 -1t-14.5 0.5zM234 425l-44 2q-2 0 -2 -2q-11 -5 -18 -15t-18 -15q-3 -14 -11 -20.5t-15 -18.5q1 -3 1 -9
t-3.5 -13t-6 -20.5t-2.5 -37.5t0.5 -29t1.5 -9.5t2.5 -8.5t3 -14.5t1 -26.5t1.5 -25q3 -12 17 -42t22 -36q15 -10 46.5 -10t64.5 19l9 6q4 2 11 4.5t14 16.5t5 18q9 7 16 15t14.5 15.5t7.5 40.5q5 5 4.5 10t1 8.5t3 4t4 3.5t2.5 15.5t-4.5 19.5t-6.5 15.5t-3 17t-3 17.5
q-5 4 -6.5 11t-3.5 12q-8 8 -17 24v4l-5 2q-4 5 -6.5 14.5t-7.5 10t-9 3t-8 8t-12 7.5v2q0 4 -4 5t-6 3q-16 -2 -31 -2zM210 467l33 5q15 0 30 -6q22 9 38 12q8 21 8 34t-7 30t-15 22l-6 2q-2 2 -3.5 4t-4.5 4.5t-7.5 4.5t-6.5 7h-5q-7 0 -12.5 4t-12.5 4h-2q-15 -9 -24 -8
q-22 -19 -36 -37l-1 -8q0 -10 3.5 -19t1.5 -18q4 -3 4.5 -8.5t2.5 -9t4 -5t3.5 -3.5t1.5 -6t4 -2q4 -3 9 -3z" />
    <glyph glyph-name="nine" unicode="9" horiz-adv-x="413" 
d="M365 318l2 -13l-6 -46q-5 -4 -5.5 -12t-7.5 -11q2 -6 -1 -25t-4.5 -23t-8.5 -10t-3 -17q-4 0 -4.5 -3t-6.5 -2v-3q1 -8 -4 -13.5t-7 -11.5q-2 -1 -5 -1.5t-8 -4t-10.5 -11.5t-16.5 -9q-4 -2 -6 -6.5t-4.5 -7t-3.5 -2.5q-2 1 -11 -9h-1q-8 0 -10.5 -3t-6.5 -7l-4 1
q-10 0 -20 -10q-2 0 -2.5 2t-3.5 2q-4 -5 -10 -6.5t-11 -6.5q-2 1 -7.5 1t-11.5 -3q-5 0 -8 2.5t-7.5 3.5t-10 0t-13 -1t-9.5 3q-6 9 -18 7q-10 0 -12.5 7.5t-4.5 11.5l-5 2l2 4q0 2 -3 3.5t-4.5 5t-1.5 9.5t-2 12t-6.5 11.5t-4.5 11.5t3 10l5 1q11 0 18 -10.5t5 -20.5
q2 -6 6 -10t4 -12q7 -2 13.5 -7.5t13.5 -7.5t13 -1t11 1l23 -2q9 0 30.5 10t25.5 13.5t7 7.5t7 7.5t9.5 7t7 6t1.5 4t3 5t6 12t6 12.5t4 12t3 13t5 8t6 8q-2 2 -2 6q0 5 5 26.5t10 25.5l6 60l-4 17l2 12l-5 36q0 15 -4 21.5t-11 13.5q-26 -29 -33 -43h-1q-8 0 -13.5 -6.5
t-19.5 -9.5q-4 -2 -11 -6t-11 -4h-6q-3 0 -3 -1.5t-7 -1.5l-33 3l-15 -1q-11 0 -15 5.5t-8.5 7.5t-9 1t-7 1t-4.5 5t-5 3q-1 2 -1.5 6.5t-2.5 7t-6 5t-5.5 5t-1.5 6t-1 5.5l-4 2v4q-5 10 -5 17v15q0 16 3 22.5t2 10t-1 8t2.5 7t4 6.5t1 8t0.5 8q2 2 4 3.5t3.5 4t0.5 5.5
q0 4 9 13q3 9 11.5 18.5t15.5 11.5q9 15 29 20.5t34 13.5h1l12 -2l23 8q2 0 2 -2q6 -2 9.5 -5t11.5 -3q2 -5 7.5 -7t10.5 -4q4 -11 13 -17t12 -17q2 0 2 -1.5t1.5 -2.5t3 -0.5t4 -1t2.5 -4.5t3.5 -8t9.5 -10.5t8 -16.5q4 -6 8.5 -11.5t8 -10.5t4.5 -8.5t4 -9t7.5 -13
t7.5 -18t5.5 -18.5t3.5 -10.5t2 -4t1 -3.5v-10q0 -5 1 -8q7 -10 7 -54zM173 391l11 -2h1l3 4q2 1 3 0.5t4 -0.5t8.5 3.5t9 4t5.5 2t2 3t2 2.5t4 0.5t4 1t3.5 4.5t3.5 5h5q8 5 7.5 8.5t2.5 8.5l4 2q2 2 1.5 4.5t-0.5 5t2.5 4.5t3 5t2.5 7q-4 7 -7.5 8t-3.5 14.5t-12 32.5
q-3 8 -4.5 7t-3.5 1q-12 29 -17.5 33.5t-7.5 7t-4 6.5t-6 5q0 3 -4.5 0.5t-12.5 -2.5l-24 2q-6 -5 -8 -10t-7 -9q-1 -13 -4 -24.5t-8.5 -32.5t-5.5 -54.5t16 -55.5q8 -4 16 -3t16 1z" />
    <glyph glyph-name="colon" unicode=":" horiz-adv-x="243" 
d="M94 369q-17 14 -21 15v2q0 5 -5 6q5 52 37 65q9 -2 14.5 -4t13.5 -2q8 -9 17 -15t17 -14q1 -3 1 -8.5t-1.5 -10t0.5 -11.5q-14 -11 -24 -14q-2 -4 -6 -5.5t-7 -3.5h-36zM171 83q0 -15 -4.5 -31.5t-28 -16.5t-30 6.5t-11 7t-3.5 5.5l-3 -1q-3 0 -7 2q-4 10 -4 22t2 24
q9 5 20 14.5t17.5 9.5t12 -2.5t11 -6.5t11.5 -8q11 -9 17 -17v-8z" />
    <glyph glyph-name="semicolon" unicode=";" horiz-adv-x="244" 
d="M129 119l30 -32v-12q0 -15 -5 -30t-6 -16v-3q0 -40 -23 -65h-4q-1 -1 -8.5 -12t-7.5 -14q-18 -6 -21.5 -6t-9.5 2q-2 9 -2 13q0 6 16.5 33.5t16.5 55.5v9q-2 4 -6 4h-7q-4 0 -8 2q-2 7 -9.5 10.5t-7.5 12t3 14t4 10.5q35 21 55 24zM103 435l3 -1q2 0 4 2q7 5 19 5h14
q14 0 24.5 -14t10.5 -28.5t-16 -46.5q-11 -1 -20.5 -4t-23.5 -3t-21 9.5t-19 16.5q-2 10 -2 24t4 19l4 2v4q4 5 10.5 7t8.5 8z" />
    <glyph glyph-name="less" unicode="&#x3c;" horiz-adv-x="517" 
d="M328 408q9 6 20 6q3 3 6.5 5t5.5 6q8 2 13 6t13 8.5t18 9t17 7.5t8 2.5t6 4.5q4 1 7.5 0.5t7.5 -0.5t10 2q7 -7 7 -15t-1 -11q-9 -3 -16 -2q-7 -4 -12.5 -9.5t-10 -8t-6 -2.5t-2.5 -1l-2 -4q-8 -6 -17 -11t-16 -13q-20 -2 -24 -17h-10q-7 -4 -9 -15h-11q1 -2 -1.5 -2
t-4 -1.5t-1 -3t-1.5 -2.5l-15 -8q-13 -7 -26.5 -18t-22.5 -14.5t-12.5 -2.5t-9 -1t-10.5 -7t-13 -4q-14 -10 -24 -19.5t-28 -12.5q-7 -9 -21 -13q-4 -5 -6 -10t-6 -9q-5 -1 -9.5 -1t-8.5 -2v-3q0 -8 9.5 -11t14.5 -8l7 1q2 0 9 -3.5t13.5 -5t14.5 -1.5t13.5 -2t8 -4.5
t7 -4.5t9 -2t8.5 -2l14 -7q9 -5 19.5 -6.5t22 -6.5t25 -13t29.5 -8q1 -5 6 -5.5t7 -4.5q2 2 4.5 2t5.5 -3t6 -4.5t6.5 -1t12.5 -3t15.5 -3.5t13.5 -2l24 -7q6 -6 6 -18t-12 -22q-14 1 -24.5 6.5t-18.5 5.5l-8 -1q-5 0 -5 4.5t-6 4.5t-13 7h-14q-6 0 -10 3l-11 7q-20 2 -28 5
t-9 4t-1 0.5t-3 -0.5t-7.5 4t-10.5 3q-6 2 -7 6t-7 4l-14 -2q-8 0 -17 7h-13q0 1 -4 3q-21 9 -26 14q-12 3 -25.5 5t-22.5 10h-5l-20 2q-2 4 -5.5 6.5t-4.5 6.5q-9 2 -17 6q-16 9 -29 8.5t-13 11.5q0 9 5 21q13 2 27 12t21 14t10 5t10 5.5t17 12.5t22 13q7 6 18.5 12.5
t23 13.5t23 13t27.5 18l10 3q8 5 15.5 12t17.5 9q11 12 51 32v5z" />
    <glyph glyph-name="equal" unicode="=" horiz-adv-x="585" 
d="M366 186q97 0 116 2q5 -5 12 -10.5t7 -12t-4.5 -9t-7.5 -6.5q-5 4 -12 3.5t-14 -0.5l-15 3q-4 0 -5.5 -3t-4.5 -3l-10 1l-23 -1l-14 2q-4 0 -5 -3t-5 -4q-3 2 -8 2l-20 -2q-8 0 -14.5 4t-18 4t-21.5 -10q-7 8 -16 5.5t-17 3.5q-12 -6 -26.5 -7t-26.5 -4l-24 13
q-10 -2 -22 -2h-22q-4 0 -6 3t-5.5 3t-3.5 -2l-9 2q-5 0 -17 -6q-2 5 -8 5.5t-11 2.5q-2 3 -2 11.5t6 16.5l3 -1q3 0 5 3t4 3l11 -3l13 5q5 0 15 -2.5t37 -2.5l10 3l21 -5l14 2l12 -2l26 5l9 -3l10 3l32 -5l14 1l20 -4zM333 323l-57 8q-13 0 -21.5 -4t-17.5 -4l-29 2l-10 4
l-17 -4l-20 4l-12 -4h-2v1q1 2 -2.5 1.5t-5 1t-1.5 4t-2 2.5t-2 -1q-6 2 -11.5 0t-11.5 -2q-17 6 -17 24q0 3 2 10q9 5 28 5l65 -3q19 0 26 -7l23 5l26 -5l43 3l17 -3q23 0 36 3.5t19 3.5l11 -2l45 4l7 2q4 -2 6 -2l15 2q10 0 18 -9t8 -17l-1 -10q-6 -2 -12.5 -1t-11.5 -4
q-9 2 -18 2t-17 5q-26 -5 -39 -13h-12q-9 0 -16 -4q-5 4 -11 4z" />
    <glyph glyph-name="greater" unicode="&#x3e;" horiz-adv-x="539" 
d="M497 278q11 -9 11 -26l-1 -18q-7 -4 -12 -11q-9 -1 -24.5 -5.5t-18 -4.5t-6.5 2q-9 0 -23.5 -10.5t-15.5 -13.5h-4l-22 -4q-1 -5 -5.5 -6t-8.5 -3q-4 -6 -11 -10t-11 -8h-4q-19 0 -39 -14l-8 1q-18 0 -28 -15l-12 -4t-9 -7h-2l-7 2q-4 0 -6 -5t-10.5 -5t-12.5 -4t-8.5 -6
t-6 -1.5t-6 -2t-9.5 -3t-11 -1.5t-7 -3.5t-4 -4.5q-1 -3 -5 -2.5t-5 -3.5h-6q-11 0 -16 2q-13 -17 -19 -22h-13q-10 0 -15 2v2l-5 13q0 16 34 22q14 3 22.5 9t13.5 8t9.5 1t10 1t11.5 7.5t13 8.5t14 4.5t18 6t25.5 10t26.5 14.5q17 1 31 7.5t30 9.5q5 4 12 8t9.5 6t2.5 3.5
t4 4.5t12 3.5t13 8.5q29 5 41 18q2 2 7.5 3.5t5.5 6.5t-6 6.5t-11 2.5q-6 7 -14 7h-17q-14 0 -19 4t-14.5 7t-16.5 3q-16 0 -19.5 3.5t-9.5 4.5q-13 2 -18.5 9t-12.5 7h-11q-10 0 -15 10l-6 -1q-8 0 -12 3.5t-11 6.5q-3 4 -5 9.5t-8 5.5l-18 -4q-9 0 -17 7.5t-21 6.5
q-8 8 -20.5 10.5t-20.5 13.5q-11 1 -26 8t-20.5 12.5t-6.5 13t-2 11.5q7 10 28 10t29 -8q6 -2 15 -3q14 -1 18 -6.5t11 -7t13.5 -4t12.5 -6.5t16 -8.5t24.5 -8.5t26 -10t19.5 -10.5t16 -8t15 -6t14.5 -7t17.5 -5.5t19 -5q12 -12 27 -12.5t21.5 -3t9 -4t6 -3t8.5 -1
t13.5 -1.5t19.5 -8t23 -11h15z" />
    <glyph glyph-name="question" unicode="?" horiz-adv-x="378" 
d="M69 726l-1 9q0 8 10.5 23.5t12.5 27.5q9 6 19 16q5 7 12.5 9t12.5 4t5 3t3 2t6 0.5t10 2t14.5 7t15.5 4.5t8 -3q31 -3 45 -10l9 -7q18 -11 27 -21.5t15 -18t11 -13t5.5 -11t3.5 -9.5l3 -2q7 -14 10.5 -30t12.5 -30q-2 -6 -2 -14t3.5 -17t3.5 -23.5t-6.5 -35t-7.5 -28
t-4.5 -12t-7 -7t-5.5 -5.5t-1.5 -6t-2 -6.5t-7 -6t-8 -7t-5.5 -8.5t-7 -9l-1 -5q-2 -1 -4 -0.5t-4 -2.5t-12.5 -10.5t-15.5 -6.5q-3 -4 -6.5 -7t-5.5 -8q-8 1 -13 -3t-11 -8h-3q-6 0 -17.5 -3.5t-11.5 -8.5l4 -6l-3 -7l3 -16q0 -38 -3.5 -50.5t-3.5 -17.5l1 -17l-4 -28
q0 -7 3 -14q-5 -12 -20.5 -19t-26 -7t-12.5 9.5t-7 14.5l4 34l-1 19l3 14q1 3 0.5 6t-0.5 8.5t4 12t4 13.5l-3 15q0 20 5 38.5t5 37.5l-3 21l3 15q6 23 12 30l13 2q5 0 12.5 -8t9.5 -12.5t1.5 -10.5t4.5 -8v-3l-1 -13v-4q6 -2 12.5 -2t14.5 7.5t17 9.5q0 5 3.5 7t5.5 5.5
t3 7t6 3.5q1 8 4.5 12t6.5 9v2q0 13 5.5 26t5.5 26l-2 4q3 6 3 7l-2 18l1 30q0 13 -6 25q2 4 2 11t-9 22v4q0 7 -3 13t-4 10.5t-0.5 7.5t-0.5 6.5t-6 9.5t-7 12q-8 1 -10.5 5.5t-6.5 11.5q-5 2 -13.5 4t-11.5 7q-8 -1 -12 -7t-14 -2q-8 -2 -11 -8t-11 -6q-4 -5 -5 -11
q-7 0 -10.5 -4t-9.5 -7q0 -15 -8 -19t-11.5 -11t-3 -8.5t0.5 -5.5l-3 -11l1 -14l-1 -23q0 -11 -4.5 -16.5t-4.5 -12.5t10 -11q10 8 12.5 32t6.5 31q4 2 8 1.5t7.5 -0.5t7.5 2q1 0 5.5 -7.5t4.5 -8.5l-1 -5q0 -3 2 -2t2 -11.5t-8.5 -24t-16.5 -23.5h-1l-13 -2q-6 -3 -9.5 -9
t-13 -6t-16 7t-14.5 11v6l-1 19q0 11 4 21t4 21l-1 26q0 10 3 21zM146 51l1 -8q7 -2 10.5 -5t12.5 -4q2 -5 5.5 -9.5t3.5 -12.5t-3.5 -13.5t-8 -8t-8.5 -4.5t-4 -5l-8 3q-3 0 -9 -7t-11 -9q-9 2 -19 2t-14 8h-2l-9 -3q-7 0 -11 9t-4 17t3 9.5t7 8.5t8 10.5t9 8.5t5 6.5
t3.5 5t10.5 6t12 7.5h3q6 0 9.5 -2.5t8.5 -4.5q-1 -1 -1 -5z" />
    <glyph glyph-name="at" unicode="@" horiz-adv-x="669" 
d="M373 636q-8 -3 -21 -3t-28 -15q-4 2 -8 2t-8 2l-12 -4q-2 0 -8 3q-7 -4 -13 -10.5t-14 -4.5q-5 -2 -7.5 -6.5t-6.5 -8.5q-31 -6 -34 -36q-11 -5 -20 -19.5t-11 -27.5q-6 0 -9 -4.5t-9 -5.5l1 -2q0 -6 -2 -9t0 -9q-5 -3 -7.5 -7.5t-9.5 -5.5q-3 -14 -9 -23.5t-4 -25.5
q-7 -8 -7 -19l-5 -52l2 -16l-2 -10l4 -20q0 -7 2 -11t4 -11.5t2.5 -18.5t8.5 -17q7 -35 22 -50q1 -2 0.5 -2.5t-0.5 -2.5t2.5 -3.5t4 -3.5t1 -4.5t1 -5.5t5 -6t6 -6.5t4.5 -8.5t10.5 -11.5t11.5 -11.5q6 -13 15.5 -16.5t11.5 -9.5q11 -4 22.5 -12t18.5 -9.5t13 -0.5t12 1
l38 -4q6 -1 11.5 -0.5t18 0.5t27.5 -4l18 8q6 -3 13.5 -3t31.5 6q4 3 7 4.5t1 7.5q4 -2 8 -2l18 2q10 -8 10 -16t-2 -16q-5 -2 -11.5 -4t-8.5 -7q-2 2 -4.5 2t-5.5 -2.5t-5.5 -3.5t-5.5 -0.5t-6 0.5l-17 -5q-4 0 -5 3q-4 1 -3.5 -3.5t-4.5 -2.5h-5q-9 0 -17.5 4t-14.5 4
t-18 -6q0 2 -2 2t-2.5 -1t-4.5 -2.5t-10 -1.5t-11 -5q-7 3 -13 3h-16q-9 0 -16 3l-17 -4q-8 0 -13.5 4t-10 4t-10.5 -2q-7 5 -15.5 7.5t-14.5 7.5h-2q-12 0 -18.5 6.5t-16.5 8.5q-7 11 -15 13q-2 3 -3 6.5t-3 5.5q-14 2 -19 10.5t-15 13.5q0 4 -1.5 7t-3 6.5t-8.5 11.5
t-8.5 13t-3 6t-3 3t-1 4t-1 4t-4.5 3.5t-3 3.5t2 4q-7 5 -11 12t-9 14v4q0 21 -12 37l-2 40q0 2 -2 8l6 32l-2 13q0 9 9 33q6 49 24 83q2 3 5.5 6.5t5 8.5t3.5 7.5t4.5 5.5t2.5 6v2l1 -1q3 0 3.5 3t4.5 1v2q0 2 1.5 4t4.5 8t10 14.5t13 17.5l5 3q2 3 2 6.5t3.5 8t10.5 9.5
t9 14q8 2 14 7.5t14 7.5q3 3 5 8t5 7.5t4 1.5t3 1t2 3.5t2 2.5l9 6q7 5 15 8.5t15 8.5h15q4 0 4.5 2t2.5 4l29 4q3 3 5 3h3q13 0 16 6q2 -1 6 -1l26 5q20 0 39 -6.5t40 -8.5q3 -5 9 -6t11.5 -5t9 -5t6.5 -3q4 -6 7 -6q6 0 15 -18h2l8 2h2q18 -21 31 -24q7 -1 5 -5
q-1 -6 5 -6.5t6 -11.5q10 -2 15.5 -10t10.5 -15h4v-4q13 -16 17 -26l3 -12l4 -7q3 -13 2.5 -22t7.5 -20v-3l2 -9q0 -3 -3 -4v-1q0 -4 3.5 -5t2.5 -4v-2q-3 -1 -3 -10t-6 -9v-2q-1 -3 2.5 -4.5t3.5 -4t-2.5 -5t-3 -8.5t-3 -9.5t-2 -5.5t0.5 -5.5t-4.5 -6.5t-6 -5.5t-1 -4.5
t-1 -4t-3 -2t-5 -4t-5 -11.5t-8.5 -12.5q-1 -3 -1.5 -8t-2 -7t-3 -2t-3 -2t-0.5 -4t-1 -4t-10.5 -7t-12.5 -3q-2 -14 -19 -18q-16 -26 -20.5 -26t-7.5 -5q-3 -2 -5.5 -2t-10.5 -3.5t-11.5 -3t-5.5 0.5l-14 -4q-21 0 -40 19q-5 5 -13 9q-3 8 -12 15v4q1 7 -4.5 15.5t-12 8.5
t-11 -9.5t-10.5 -10.5q-5 -8 -11 -20t-12.5 -16.5t-9 -9.5t-7.5 -9q-6 0 -9 -4q-8 6 -19 6l-28 28l1 2q0 5 -4 9t-9.5 15t-5.5 25.5t3.5 24t3.5 20.5t1.5 17.5t3 10t8 23t34.5 55.5q7 11 11 13.5t7 4.5t7 7q6 8 11 7.5t7 2.5t5 4.5t18 4t20 3.5q8 -3 12 -9.5t14 -7.5
q2 -6 7.5 -9.5t7.5 -8t3.5 -4.5t3 -2t1 -3t1 -3.5t4 -4.5t4 -5.5t0.5 -11t-1 -12.5v-4q0 -5 -1 -29q-2 -122 28 -122l9 2l7 -2q9 0 11 5t4 9q60 40 61 56q1 4 9 9v1q0 8 6 13t8 9t1.5 7.5t1 7t2.5 3.5t1 3t8 11l-1 4q0 8 3.5 12t3.5 9l-2 19l3 9q0 19 -13 32v4l-2 20
q-7 6 -12.5 13.5t-9.5 12t-6.5 6.5t-3.5 4l1 6l-1 1l-3 2q-2 7 -2 12q0 11 -13 11q-15 0 -27.5 9.5t-14.5 16.5q-16 3 -36 23q-2 -2 -5.5 -2t-6 3t-10.5 1q-1 3 -13 8.5t-15 5.5l-11 -2q-6 0 -29 10zM357 322l-2 9q5 5 12 18t8 22q18 18 23 60q-7 4 -10 11.5t-10.5 7.5
t-12 -2t-8.5 -3q-3 -6 -7 -11q-6 -8 -11.5 -23.5t-5 -19.5t0.5 -11.5t-5.5 -19.5t-5.5 -20t1 -11q-6 -3 -5 -9t-1 -10t-4 -4t-2 -7l1 -20q0 -6 4 -5q1 -1 4 -1q7 0 15.5 16t8.5 18q4 2 6.5 5.5t5.5 6.5v3z" />
    <glyph glyph-name="A" unicode="A" horiz-adv-x="568" 
d="M-22 -62q-6 0 -6 11t8 18q6 2 9 2l16 -2l15 2l9 -1q15 0 20 36l4 28t8 20q-2 1 -2 4t2 9t3.5 12t3.5 11.5t3 8.5t2.5 5.5t3 8.5t1.5 13t1.5 12.5t2.5 8.5t4.5 16t6.5 35.5t9 45t13 45t10.5 37.5t4.5 22q2 14 6.5 22t6 14t5 16t5.5 26.5t5 25.5t3.5 10t0.5 6t1.5 7t3.5 5
l5 28l2 1l-1 4q0 14 11.5 35.5t13.5 23.5q1 5 0 10q0 11 5 14q3 3 5 14l4 2v5q0 4 6 7q2 8 3.5 15t3.5 14l7 13q2 3 2 6.5t2.5 8t7.5 9.5t7.5 14.5t1 20t4.5 20.5q6 3 17.5 3t19.5 -13.5t8 -27.5q5 -7 7.5 -15t8.5 -13v-2q0 -16 11.5 -39t11.5 -33q3 -3 6.5 -17t16.5 -27
l-1 -3q0 -11 5 -20q11 -19 11 -35.5t16 -59t18 -61.5l-1 -1q0 -3 2 -3q7 -2 7 -12t9 -21q5 -9 7.5 -19.5t10.5 -18.5v-2q0 -7 3 -13t4.5 -11t2 -8.5t2 -6.5t5 -11.5t7 -18.5t6.5 -18t3 -10v-3q5 -5 6 -10.5t3 -11.5q6 -8 7 -18t3.5 -19t6 -15t7 -13t5 -17.5t3.5 -18t5.5 -14
t5.5 -14t1 -15.5q0 -15 4.5 -22.5t7.5 -19.5q6 -13 8 -24t9 -17l3 -1q12 0 17.5 5.5t15.5 6.5q14 -8 14 -22q0 -3 -1 -5q2 -6 -7.5 -8.5t-13.5 -3.5q-8 -6 -14.5 -5.5t-10 -0.5t-5 -2t-3.5 -2h-8q-5 0 -10.5 -5t-9.5 -5t-19 2l-31 -6q-5 0 -7 1q-7 -2 -12 -5t-13 -3l-6 10
t-3 12q3 9 14 13t21 7.5t18 7t8 10.5l-10 36q-2 3 -4 5.5t-3.5 7.5t-1.5 12.5t-2 13.5l-4 12t-4 11q-5 4 -12 12.5t-14 8.5l-13 -2l-12 2q-4 0 -8 -2q-12 -4 -29 -4h-19l-17 2l-5 -2l-16 4l-11 -1q-4 0 -7 3q-12 -6 -16 -6l-23 4l-11 -2l-15 4l-27 -2h-16q-52 0 -71 -13v-4
h-4q-7 -7 -17 -43t-10 -41t6.5 -8t11.5 -3t17 3q9 -6 16 -15q-1 -8 -4 -14l-6 -12l-40 5l-7 3l-15 -2l-19 5l-10 -2l-11 1q-8 0 -9 -3q-2 0 -2 1t-2 1l-15 -5q-4 0 -14 2.5t-10 8.5q0 3 -3 3q-2 -2 -4 -2zM345 109q4 0 6.5 1t12.5 -6q11 4 21 4h23q15 0 30 3q-1 4 5 8v3
q0 11 -3.5 20.5t-5 16.5t-1 11t-1.5 7.5t-4 6.5q-5 6 -7 18q-1 7 -4.5 14t-3.5 11t-2 10l-22 47q-1 2 -0.5 2.5t0.5 3.5t-10.5 20t-9 22t-1.5 13.5t-8 21.5t-7 27q-5 2 -4.5 4.5t-1.5 7.5l-4 4q-2 5 -2 11t-1 12q-12 15 -12 41l-10 21q3 6 3 11t-4.5 7.5t-4.5 12.5t-6 19
t-6 22q-1 2 -3.5 2.5t-6.5 5t-7.5 11.5t-12.5 12v2q-3 0 -3 -2q-6 0 -9 -16t-11 -25q-1 -4 -0.5 -7.5t-1.5 -10.5t-5 -19q-6 -8 -7.5 -21t-7.5 -23q-1 -5 -1.5 -11t-2 -10.5t-3 -8t-2.5 -7.5l-6 -51q-11 -16 -10 -34q-3 -2 -3.5 -5.5t-3.5 -5.5q-3 -26 -23 -69v-18
q-6 -9 -11.5 -40t-5.5 -35q-2 -2 -3 -5.5t-6 -5.5q1 -3 1 -8l-6 -43q9 -8 25 -8l72 3h12l42 -5l36 2z" />
    <glyph glyph-name="B" unicode="B" horiz-adv-x="486" 
d="M463 579l-2 -9q2 -2 2 -6.5t-3 -13t-5 -17.5t-2 -21t-3 -22t-8.5 -16.5t-4.5 -14.5h-2q-3 0 -3.5 -3.5t-2 -6.5t-6.5 -7t-7 -7l-8 -13q-2 -3 -5.5 -5.5t-3.5 -6.5v-2q-11 -4 -15 -18q-7 -1 -17 -14q-2 0 -9 -2.5t-9 -4.5v-4q-2 -3 -4 -1.5t-4 -1t-2 -4.5t-2 -4h-12
q-7 -4 -12 -13l-15 -6q3 -9 15 -11q5 -9 16 -13q6 -13 24.5 -25.5t31 -40.5t12.5 -51.5t-13 -31.5q1 -1 1 -5.5t-2 -10t-3 -10.5q-4 -2 -7 -4.5t-8 -3.5q-3 -2 -2 -6.5t-2 -6.5q0 -2 -2.5 -1.5t-3.5 0.5l-3 -1q-1 -1 -0.5 -2.5t-1 -3.5t-3 -1.5t-3 -1t-1 -3t-2 -4.5t-8 -5
t-8.5 -9h-2q-9 1 -12 -3.5t-6.5 -7.5t-7 -3t-7 -1.5t-2 -3t-2.5 -1.5q-6 0 -14 -8q-8 -5 -16 -8.5t-15 -10.5h-8q-7 0 -8 -2q-6 0 -7.5 -4t-4.5 -7q-2 -1 -8 -5t-18.5 -9.5t-16.5 -9.5h-3q-3 -2 -7 2q-2 -1 -2 -4t-2 -4q-5 3 -12.5 3t-16 -6.5t-20.5 -6.5h-6q-6 6 -6 16
t3.5 15.5t9 8t10.5 3.5t9 6l1 49q0 2 1 2t1 2l-3 10q0 5 2 7q0 12 -5.5 36t-5 55t-3.5 50l2 9l-4 10l2 10l-5 53q0 5 3 10q-8 29 -8 47l1 37v10t-1 10l-4 15l2 13q0 14 -4.5 29t-4.5 32l3 23q0 3 -1.5 6t-2.5 7t-0.5 9t0.5 10l-1 21q0 10 3 16q-3 8 -3 16v16l-3 24l4 8v3
q-3 13 -2.5 27.5t-2.5 26.5q-5 26 -40 26l-51 -3h-4q-4 10 -4 23v5q7 5 16 6q48 2 81.5 8t37.5 7.5t8 1.5l14 -2l42 2l48 -6q11 0 21 -5.5t18 -7.5t12 -1.5t8 -0.5q38 -15 48 -25l3 1q12 0 22 -7.5t13.5 -13.5t7.5 -10.5t11 -10t10.5 -9.5t4.5 -7t5 -8.5t8.5 -9.5t7.5 -11
t3 -11.5t1.5 -9t4 -7t3.5 -6.5l-1 -9q0 -6 4 -16.5t6 -16t4 -7.5q-2 -2 -2 -5zM394 537l4 32l-2 16q2 2 2 4.5t-1.5 4.5t-3 5t-4.5 17.5t-3 18t2 9.5q-10 13 -14 33q-5 3 -6.5 8t-5 9.5t-8 8.5t-4.5 12q-22 10 -32 23q0 -5 -6 -5q-10 4 -16 8.5t-18 3.5q-9 6 -15 13t-14.5 7
t-11.5 -1q-20 4 -41.5 4t-27 -2.5t-8.5 -2t-8.5 0.5t-7.5 -2q-1 -2 -1 -6l3 -19l-4 -13l2 -46q0 -8 2.5 -12t2.5 -8l-3 -9l4 -8l-1 -7q0 -2 1.5 -6.5t0.5 -11t-1 -11.5l6 -48q1 -5 0.5 -9.5t-0.5 -9.5l6 -52l-2 -8l6 -17l-2 -6q0 -9 4 -17t4 -16l-2 -23q0 -17 6 -62
q5 -5 9.5 -4.5t10.5 0.5l11 -2q17 0 69 21q10 5 19 14.5t20 9.5q10 14 24 22q4 6 11 14q25 29 32 57q1 2 2 3.5t2 4t0.5 5.5t-0.5 9t5 14.5t5 17.5zM341 185l2 14q0 8 -4.5 13.5t-3.5 13.5q-5 4 -7 9t-6 10q-40 36 -40 40.5t-2 6.5q-27 8 -39 8t-28 -8h-6q-12 0 -22 -4
q-1 -12 -5.5 -20.5t-4.5 -19t1.5 -20t3 -21.5t1 -25.5t0.5 -22.5t2.5 -13t1.5 -8l-2 -8l2 -7l-2 -20l4 -19l-2 -16q0 -5 5 -11h4q8 0 13 3t14 1q5 8 14.5 10.5t16.5 6.5l2 3q4 2 8 2.5t8 1.5q13 18 33 28q3 5 7 7q10 5 10 12q0 3 8.5 15.5t12.5 37.5z" />
    <glyph glyph-name="C" unicode="C" horiz-adv-x="681" 
d="M232 674q-20 0 -20 -9q0 -6 -4 -8l-15 -8q-9 -20 -20 -25l-6 -14q-4 -1 -5 -4.5t-5 -5.5q0 -10 -5 -15.5t-4 -17.5q-5 -2 -6 -6t-7 -6q2 -1 2 -6t-7 -13q0 -14 -10 -44t-12 -33q2 -1 2 -5l-2 -13l3 -19l-1 -19v-16t1.5 -13.5t3 -9t1.5 -4.5v-18q0 -13 5.5 -25t6 -22
t6 -11.5t5.5 -8.5l-4 -7v-2q27 -68 72 -110q11 -11 20 -24q6 0 23 -11l9 -8q9 -5 16 -8.5t12 -11.5q8 -1 14.5 -5.5t10.5 -4.5l9 2h2q2 -4 16.5 -8t16.5 -4l10 1q8 0 15.5 -2.5t16.5 -1.5h4q2 2 5 2l6 -2l18 4l32 -2q16 0 23 4t6 7q19 0 25 5t8.5 7t6 3t5.5 2.5t2 3t2 3.5
t3 1.5t4 1.5q7 4 23 20q20 16 23 16q2 6 5 10t4 10q13 5 18 17t16 17q22 -9 22 -23q0 -8 -7.5 -12.5t-11.5 -9t-5 -9t-4 -8.5q-13 -5 -13 -13h-2q-3 0 -5 -1.5t-5 -2.5q-3 -5 -6.5 -10t-5.5 -10q-5 -2 -9 -5.5t-9 -4.5q-4 -8 -11.5 -13.5t-12.5 -14.5q-7 0 -10.5 -3.5
t-10 -3.5t-8 -3t-10.5 -1q-2 -2 -15 -14l-22 -4l-14 4q-33 0 -43 -4l-15 -6q-9 -3 -26 -3l-28 4q-6 0 -14 -4q-4 3 -9 3h-11q-7 0 -9.5 3t-12.5 3h-1l-4 4q-47 18 -71 23q-6 13 -25 18q0 3 -4 4t-4 4.5t-2 5.5q-20 6 -35 32q-8 1 -16 5q-2 3 -6.5 7.5t-9 10.5t-8 10t-3.5 6
q-7 3 -15 8q-16 29 -20 48t-6.5 24.5t-6 11t-6 10t-1.5 8.5t-1 8l-4 12q-1 3 -0.5 6.5t0.5 6.5l-6 41l2 36v18q0 17 6 34.5t11 32.5q-1 2 -1 5t2.5 11t6 16.5t6.5 16t5.5 11t6.5 9t8 17t11 20.5t7 18q21 13 25 35q7 2 20.5 17t13.5 17q3 1 2.5 3t1.5 4l4 2q5 9 14.5 16
t9.5 11q8 2 15 8.5t13 9.5t10.5 5t6.5 7l3 -1q6 0 8 4.5t14 4.5q1 0 3 4q8 2 15 3t14 9q17 0 33 10q2 -1 7 -1t8.5 2t10 3t16.5 0.5t16.5 2.5t7 4t7.5 1l26 -5l22 3l14 -4l11 1v-1q0 -3 2.5 -2.5t6.5 0.5t7 -6h5q17 0 53 -26q12 -8 16.5 -12t19.5 -7q2 6 4 13q6 34 26 34
q7 0 12 -6t5 -12t-2 -12q1 -2 1 -8t-5.5 -26.5t-5.5 -52.5l2 -10q0 -21 8 -29q-5 -6 -11 -21q-4 -2 -7.5 -4t-10 -2t-12.5 7q-9 10 -9 18v7q0 11 -4.5 18t-2.5 13q-6 4 -11 9v6q0 23 -27 37q-5 2 -5 6l-15 5q-3 5 -9 6.5t-8 7.5h-2l-10 -3l-15 10q-3 -1 -9 -1t-11 5
q0 -2 -2.5 -2t-2.5 2l-18 -4q-9 0 -14.5 4t-17.5 4t-20 -8q-31 0 -47 -11h-4q-13 0 -20.5 -3.5t-10 -3t-5 0.5t-4.5 -1.5t-15.5 -6.5t-38.5 -28q-1 1 -6 1z" />
    <glyph glyph-name="D" unicode="D" horiz-adv-x="595" 
d="M553 494l-3 -14q0 -4 2 -8t3.5 -10t1 -15t-0.5 -36t-5 -27q-2 0 -2 -7t-3 -8t-3 -10l-1 -1l-4 -2q-2 -4 -1.5 -8t-0.5 -9q-8 -6 -11 -13.5t-7 -15.5l-4 -2l2 -4q0 -2 -2.5 -3.5t-2.5 -5t-4 -4.5t-2 -7q-2 -2 -6 -2t-6 -2q-15 -28 -47 -51q-3 -5 -3.5 -10t-2.5 -9
q-5 -4 -10 -4.5t-12 -7.5q-26 -12 -33 -25h-2q-13 0 -16.5 -3.5t-10.5 -12.5q-8 0 -11.5 -5t-8.5 -10h-2q-6 1 -10.5 -2.5t-11.5 -2.5q-3 -1 -4.5 -4t-3.5 -5h-1q-10 0 -26 -11t-18 -13h-11q-19 2 -21 -8q-3 -9 -28.5 -9t-32.5 -11l-6 1l-45 -6q-14 0 -21 5q-1 3 -1 13
t10 20q6 1 12 2.5t10.5 1.5t10.5 -2q5 4 12 5t12 4q0 71 -3.5 86.5t-3.5 17.5l1 14l-3 16q0 3 3 6q-10 14 -9 34.5t1 33.5t-3 17l3 5q0 6 -3 15t-3 20l2 53q0 8 -3 23l1 10l-4 8l3 11q0 3 -1 3t-1 2t1 2t1 2t-1.5 3t-1.5 9v1q-7 49 -7 54q-2 4 -2 6l3 6l-4 12l3 15q0 4 -1 8
t-2 8.5t-0.5 8.5t-0.5 8t-2.5 7t-2.5 5.5t-0.5 4.5t0.5 4v1l-3 5q2 6 2 8l-5 51l3 18q0 10 -6 17.5t-6 11t2 7.5q-2 2 -10 7t-11 5t-4 -3t-5 -4.5t-13.5 -2.5t-13.5 -2.5t-7.5 -1.5t-5 3.5t-9 3.5t-14 -7t-17.5 -7q-8 8 -8 16l1 20q6 6 13.5 5.5t13.5 0.5t8.5 3t5.5 3t6 0
t4.5 -1t9.5 4l11 -1q3 0 5 1q6 5 33 5l13 -3l11 4l12 -3l8 2l6 -2l6 3q7 0 13 -2t13.5 -3t16.5 -0.5t18 -1.5l18 -4q4 -1 7.5 -0.5t7 -0.5t6 -2.5t6.5 -2.5t10 -1t13.5 -2t16 -5t16 -5.5t12 -3t11 -3.5t14 -8.5t18 -11t24 -12.5t21.5 -14.5t11.5 -12.5t8.5 -10.5t11.5 -11
t10.5 -10.5t6 -9q5 -10 9 -10q1 0 4 -8q2 -2 4 -5t6 -3q14 -34 32 -56q8 -32 15.5 -45t8.5 -23.5t3 -19t3.5 -14t1.5 -11.5zM347 730h-7l-10 2.5t-23 11.5h-2q-8 0 -28 10q-21 -3 -27.5 -3t-13.5 3t-15.5 4.5t-18.5 1.5h-20l-4 -1v-4t-2 -2v-2q0 -18 2.5 -29.5t2.5 -17
t-2 -7.5q7 -10 5.5 -22t1.5 -24q6 -13 6 -41l7 -31l-3 -22q0 -5 2 -9t3 -8.5t0.5 -8t-0.5 -7.5l2 -13q8 -56 8 -71v-22q0 -7 -1 -14q4 -6 4 -11l-2 -12l3 -23l-2 -7l3 -16q-2 -2 -2 -6t2 -9t3 -9.5t0.5 -8t1 -14t4.5 -27t3 -33.5l-2 -41q0 -8 3 -50h6q6 0 20.5 6.5t23 9
t13.5 6.5t16 8l35 24q35 25 74.5 67.5t55 89t15.5 71.5t-4 50t-5 50q-6 5 -6 13t-1.5 12.5t-2.5 7t-1 4.5l1 3q-13 13 -13 42q-6 8 -12 14.5t-5 17.5q-13 9 -12 20q-10 4 -17 14q-2 9 -9.5 15.5t-9.5 15.5q-8 3 -15 7t-7 14q-7 0 -12.5 5.5t-9.5 5.5z" />
    <glyph glyph-name="E" unicode="E" horiz-adv-x="496" 
d="M88 383l7 96v33q0 6 -1 14l-3 36q-1 9 -0.5 19t0.5 17v12q0 4 -1 10l-3 13l1 10q0 5 -2 8t-3.5 9t-0.5 14t-0.5 12.5t-4 6.5t-4.5 4.5t-2.5 5.5t-4 6.5t-11 6.5t-13.5 8q1 7 0.5 13.5t3.5 14.5q12 4 25.5 4t21 -5.5t17 -5.5t20.5 9q9 -3 25 -3l37 1l49 -4l18 2
q14 0 27 -4t27 -4l24 1l14 2l17 -4l18 2l17 -1q8 0 17 3q8 17 10.5 37t12.5 34q10 2 15.5 2t8.5 -5t3 -8l-2 -6l3 -22l-2 -18l3 -29l-2 -18l3 -16l-3 -20l1 -7q-5 -4 -7.5 -11t-5.5 -12q-6 -3 -12.5 -6.5t-10.5 -3.5t-9 13t-5 21l2 22v6q-8 8 -20 8l-18 -5l-30 7l-25 -2
q-3 0 -5 2h-20l-37 2q-11 0 -18 -2.5t-15 -4.5t-19.5 -3.5t-23 -2.5l-23 -2t-16.5 -1q-5 -5 -4 -12.5t-1 -12t-3 -4.5t-1 -7l6 -49v-26l1 -14q-2 0 -2 -4.5t7 -18.5q-1 -4 -1 -11l-3 -13l3 -12l-1 -24l2 -30l-7 -113q0 -15 4 -31t1 -30q10 -10 41.5 -10t38.5 -1l12 -2l10 2
l23 -4l24 -2q13 0 17 11q3 16 8 21q0 14 5 24l15 4q5 0 9.5 -8.5t4.5 -13.5l-8 -61l4 -28q-7 -12 -11 -24q-6 -1 -12 -3.5t-12 -2.5q-2 2 -3.5 5.5t-5 7t-5 12t-3.5 15.5q-7 5 -16 3.5t-15 4.5q-8 -4 -13.5 -4t-11.5 4q-12 -4 -26 -4l-33 1h-9q-7 0 -13.5 -3t-8.5 -2.5
t-4 -1.5l1 -4l-6 -50l2 -29l-3 -17l3 -12l-3 -45q0 -32 21 -32l19 2l24 -3q8 0 13 5q7 -3 16 -3l37 3h6q4 0 8 -2q11 4 28 4t27.5 1t20 2.5t18.5 1.5l17 -1q11 0 13.5 4.5t7.5 6.5q1 4 2 11q4 28 18 28q9 0 11.5 -5t9.5 -10q3 -36 3 -49q-2 0 -2 -2l2 -23q0 -11 -5 -19
q1 -5 -5 -5t-9.5 -2.5t-5.5 -5.5t-7 -3l-17 6q-1 9 -2 20t-6 19q-6 -1 -12 -1h-13q-20 0 -22 -6q-4 2 -8.5 2t-10.5 -4q-3 3 -8 3l-14 -1l-11 2l-11 -2l-17 5q-10 0 -32 -15l-26 7q-2 0 -3.5 -2.5t-5.5 -2.5l-31 4l-21 -3h-16q-26 0 -35 -7q-5 4 -14 4l-7 -2l-5 2
q-8 0 -17.5 -6t-12.5 -6q-20 0 -20 25v5q4 8 22 12t20 4q4 8 5.5 19t2.5 18t1 10l-3 18l3 12l-3 8l2 10l-3 9l3 26q1 4 0.5 7.5t-0.5 8.5l3 26l-4 25q0 5 1 9t2 9.5t0.5 12t-0.5 12.5v11q-2 0 -2 2l3 7l-3 12q-3 11 -2.5 28.5t0.5 29.5v22z" />
    <glyph glyph-name="F" unicode="F" horiz-adv-x="474" 
d="M148 113q-1 10 -1 33v12q0 10 -2.5 13.5t-4.5 11t-2.5 21t-2 22t-4 21.5t-2.5 15l2 4l-4 9l2 11l-4 38q-1 12 -1 24v25l1 5l-3 12q-1 4 -0.5 7.5t0.5 11.5t-3 17q-7 23 -7 50l2 8l-5 13v1q3 4 3 6t-2 5.5t-3.5 15t-0.5 30t-5 38.5l4 15l-4 16l3 17q0 11 -13.5 20t-19.5 9
l-24 -2q-5 0 -8 1l-2 4h-1l-18 -2q-7 0 -17 4q-1 3 -1 8t3 17q17 5 39 5h39q31 0 35.5 6t10.5 6t15.5 -5.5t12.5 -9.5l17 5q4 0 10 -5q4 6 12.5 5.5t13.5 -0.5h6l1 2l7 -2l18 2l11 -2l15 1q9 0 12 -3q11 7 31 7l40 -1l14 2l17 -2l10 4q1 0 1 -0.5t2.5 -0.5t4 3t2.5 11.5
t2 16.5q4 19 19 19q4 0 7.5 -2.5t7.5 -3.5q2 -9 5 -18t3 -18l-1 -30q0 -8 1.5 -12.5t3 -13t1 -17.5t0.5 -16.5t3.5 -14.5t2.5 -14q0 -21 -36 -21q-7 7 -9 29.5t-3 33.5t-7 20q-2 2 -6 1t-7.5 2t-5.5 0q-8 5 -10.5 4.5t-11.5 -0.5l-17 4q-5 1 -8.5 0.5t-10.5 -0.5t-11 2
q-11 -8 -20 -8t-20 2q-24 -6 -29.5 -6t-13.5 2l-11 -3q-4 -1 -7 -0.5t-6 0.5h-3q-5 -1 -15 -8.5t-19.5 -7.5t-9.5 -7t-6 -9q5 -12 5 -21l-2 -13l2 -5l-2 -6q0 -3 1.5 -6t3 -9.5t1 -16t0.5 -19t2.5 -16.5t1.5 -13.5t2 -9t2 -29t6.5 -49.5t6.5 -29l-2 -1l2 -5q0 -4 -4 -10
q4 -24 3 -53.5t7 -50.5q-1 -4 -1 -10t1 -10q20 -3 45 -3t54 4.5t59 4.5q4 4 6.5 16.5t6 17t11 4.5t11.5 -5.5t6 -13.5t3 -15.5t3 -12.5v-3l-2 -9q0 -12 5 -21.5t5 -22t-11 -18.5t-19.5 -6t-11.5 1q-9 27 -9 36t1 13q-10 4 -28 4t-26 -8l-21 3q-8 0 -8.5 -2.5t-5.5 -2.5
l-29 4q-3 0 -6 -4.5t-8.5 -4.5t-11.5 -5t-13 -5q0 -12 6 -17q-1 -3 -1 -9l6 -49q0 -15 -6 -26q2 -5 2 -15t1.5 -17t3.5 -12.5t2 -13t-11 -7.5q3 -4 9 -4l19 4q11 -7 17 -24q-14 -17 -24 -17l-16 4l-15 -2q-3 0 -7 2q-5 -2 -7.5 -6.5t-9 -5.5t-14.5 -1t-16 -2
q-12 -7 -16.5 -7t-11.5 4l-1 9q0 11 6 12t12 8q3 2 7 1.5t8.5 1t8 5t9.5 4.5q-4 10 -3.5 19.5t-1.5 19.5l-3 19l1 11l-1 6z" />
    <glyph glyph-name="G" unicode="G" horiz-adv-x="509" 
d="M371 502l37 1q19 0 37 -4.5t36 -1.5q2 -4 5 -7.5t3 -10t-9 -9.5t-16 -5q-4 -2 -3 -6t-3 -6q-2 -7 -8 -9t-6 -10l4 -20l-4 -36l2 -14q0 -5 -2.5 -9.5t-2 -11t0.5 -10.5l-2 -9l2 -7q0 -5 -3 -9t-1 -10l-8 -10l1 -3q0 -9 -3.5 -13.5t-2.5 -13.5q-3 0 -14.5 -23t-15.5 -26
q-2 -5 -2 -10.5t-3 -13t-11.5 -12t-13.5 -13.5h-3q-4 3 -17.5 -13t-22.5 -16l-7 1q-4 0 -5 -2q-6 -1 -9 -4.5t-8 -6.5h-3q-12 0 -19 -6q-2 4 -6 3.5t-7 -0.5t-4 1h-2l-9 -6h-3q-7 -1 -9 1.5t-7 4.5q-8 -2 -15 -2h-21q-9 10 -19 13q-2 2 -3.5 2t-3.5 -3t-5 -2h-1q-3 5 -7 6
t-8 3q-2 5 -5 6t-8 4q-7 19 -26 32q0 5 -4 8.5t-8 15.5q-3 5 -8 8q-9 8 -9 14v4q0 6 -11 17q-2 14 -5.5 27.5t-6.5 36.5t-3 57.5t4 57.5t4 47l-2 12q0 4 1.5 8.5t3 11t3 14.5t5 14.5t5.5 10t4.5 10t4 16t6 22.5t14 28t16.5 31q14 8 21 22t14.5 19.5t9 5t2.5 0.5l2 4q2 2 5 2
q6 0 13 10l9 12q15 5 24 20q10 2 19.5 8.5t20.5 3.5q2 2 11 6t11 4l11 -2l15 4l16 -2l17 1q12 0 19 -5t7 -6.5t2 -3.5q3 -1 4 -0.5t6 -3.5t9 -12t15 -10q6 5 5 15t-1 17.5t5.5 16t12.5 8.5t10.5 -5.5t8.5 -7.5q1 -10 1.5 -19.5t2.5 -17.5t5.5 -15.5t3.5 -17.5t-5 -23l-4 -2
q-2 -5 -2 -6t-5 -1t-5.5 -4t-7.5 -4l-16 1q-3 18 -11 26l-10 11q-7 6 -9 6q-6 -2 -8 3.5t-15 9.5q-2 4 -4.5 6t-2.5 7h-2q-5 0 -6.5 2t-5.5 4q-18 -5 -34.5 -4t-28.5 -1t-14 -7t-7 -7q-15 -1 -21.5 -8.5t-12.5 -11.5t-7.5 -3.5t-3.5 -0.5q-4 -3 -5 -7.5t-10 -2.5
q0 -2 -4 -10.5t-5 -11.5q-2 -2 -10 -7t-9 -9t-6 -5v-16q-5 -2 -6 -7t-5 -7q-1 -2 -0.5 -4.5t0.5 -5.5t-2 -4t-4 -3q-2 -10 -4.5 -14.5t-3.5 -8.5t0 -10t1 -11l-4 -24l2 -25l-4 -26l4 -37l-2 -29l2 -5l-4 -33q0 -13 2 -25l4 -14l-2 -13l4 -20q5 -26 13.5 -36.5t10.5 -15.5
t1.5 -8t-0.5 -5t1.5 -3t3 -4t1.5 -6.5t1 -6t5 -8.5t9 -15l12 -20q2 -2 4.5 -2t4.5 -2t2 -3t1.5 -2.5t5.5 -1t6 -1.5v-4q9 -3 12 -6q3 1 25.5 1t25.5 11q2 -2 11 -2t12.5 5t12 9t14.5 4t15 9v4h4q2 2 2 5.5t5 10.5t16 21t15 24q7 20 14.5 48t12.5 33l-1 17q0 35 9 55v1l-4 23
v6q0 7 -4.5 9t-7 5.5t-2 5t-6.5 8.5t-16.5 7t-16 -3.5t-14.5 -5.5q-35 12 -49 14q1 1 1 3t-3 2t-3 8.5t14 19.5q15 -2 31 -2h30z" />
    <glyph glyph-name="H" unicode="H" horiz-adv-x="589" 
d="M115 78l-7 60l2 33l-2 6l2 7v3q-2 0 -2 2l2 2l-5 35q0 7 0.5 13.5t-0.5 13.5t-2.5 9.5t-1.5 13.5l-6 28l2 15l-7 33l2 12l-4 42q-5 12 -5 21l2 27l-4 29l2 17q0 1 -1 1t-1 2l3 7q0 8 -3.5 11t-5.5 9q2 4 2 10.5t-2.5 12.5t-4 12.5t-0.5 14t1 13.5l-4 36l2 40q0 27 -27 25
q-8 0 -16 -1v3l-4 17l1 6q1 1 11 4.5t12 3.5l8 -1l23 7q4 0 6 -1q3 2 6 5.5t9 3.5l10 -2l22 4q5 0 12 -9.5t7 -15t-6 -8.5l-3 1q-24 0 -22 -39q1 -9 1 -16l4 -20l-1 -15l4 -18l-2 -13q0 -15 4 -32.5t5 -32.5l-1 -6q0 -2 2 -4.5t1.5 -5t-0.5 -6.5v-15q0 -45 9 -60
q-1 -3 -1 -9.5t2 -13.5t3.5 -15.5t1 -18.5t2.5 -24.5t3.5 -32.5t3.5 -38q8 -12 29 -13.5t30.5 -1.5t15 -2t15 -3t24.5 -0.5t29 0.5l53 -3l28 2l30 -3q6 0 9 1q11 14 11 28l-2 13q0 8 4 24t3.5 28.5t0.5 22.5t2 16.5t1 12.5l-1 19q0 26 7 66.5t7 57.5l7 58q0 4 2 8.5t3.5 9.5
t1 9t1 8.5t3 8t6.5 32.5t7.5 38.5t2.5 16.5t-2.5 10.5t-9.5 2t-14.5 -1.5t-7.5 4.5t-6 8.5v1q0 5 3 7t3 7q5 1 11 1h11l96 -6q2 -2 1.5 -4.5t1 -5t3.5 -5.5t2 -7t-4 -10h-5l-21 4q-5 0 -8 -2.5t-7 -4.5q-1 -1 -1 -4v-3q-3 -10 -4.5 -20.5t-3.5 -18.5t-4 -13t-6 -21
t-3.5 -40.5t-1.5 -42.5t-3 -23t-1 -18l-4 -17q-2 -20 -2 -30v-49l-4 -79l1 -34q0 -35 -10.5 -71t-10.5 -73l1 -19q0 -5 -1 -9q-14 -56 -14 -107l-6 -29v-5q7 -3 12.5 -3t7.5 2l15 6h3q8 -8 8 -19t-7.5 -15t-14.5 -9l-6 -1l-29 4l-26 -5l-11 2l-20 -5q-10 0 -20 2q-4 7 -4 19
t12 12l16 -1q4 3 4 6t1 6t2.5 5.5t2.5 5.5v15l5 39v14l7 59l-1 18l2 21l-1 16q-1 2 0 5t1 6l-1 5q-7 5 -16 3.5t-14 5.5h-3l-9 -5l-21 5l-11 -3l-18 5l-23 -4q-4 -1 -8 -0.5t-10 0.5t-11 -4q-12 4 -24.5 4t-19.5 -5q-15 4 -29 3t-29 2q-5 -4 -4.5 -12t0.5 -13l-2 -32
q0 -9 3 -13l-2 -21l3 -18l-2 -14q0 -9 2.5 -18t4 -15t4.5 -6l10 2q5 0 5 -11.5t-14 -18t-23 -12.5q-20 0 -33 -10t-25 -10t-16 1q-2 4 -2 8.5t2 9.5l4 10q23 9 26.5 13.5t3.5 12.5v25z" />
    <glyph glyph-name="I" unicode="I" horiz-adv-x="283" 
d="M155 586l9 -96q0 -34 2 -58l4 -19v-19q0 -8 2 -15t3.5 -15.5t1 -16t1 -18t4 -23t3.5 -25.5q2 0 1.5 -3t-0.5 -4l2 -10l-1 -11q0 -5 1.5 -8.5t4 -19t3.5 -41.5t7 -53q9 -18 7.5 -33t2.5 -25q2 -1 6 -1l32 4l9 -1q3 -5 6.5 -9t5.5 -9q-2 -7 -7 -10t-7 -8l-20 4l-10 -2
l-10 2q-8 0 -12 -4.5t-13 -7t-17 -1.5q-31 2 -46 -15l-39 -7q-8 0 -15 7v4q0 12 1 13.5t5.5 5t4.5 5.5t2.5 4.5t12.5 4.5t29.5 7.5t19.5 16.5q0 5 -2 9t-3.5 12t-2 20.5t-1.5 23.5q-12 24 -12 45l2 17q0 5 -2 10.5t-4 16t-1.5 26.5t-1 28t-3.5 18.5t-3 13t-0.5 12t0.5 14
t-5.5 19.5t-5.5 22l2 18q0 3 -2 8l2 23l-2 14l2 16l-7 83l2 6l-4 29q0 9 4 14q-5 7 -4.5 20t0.5 21v6q-2 3 -9 8t-10 5t-5 -3.5t-8 -1.5h-3l-28 -4q-22 0 -22 12.5t3.5 16.5t14 6.5t22.5 4.5q33 5 49 13q6 1 12.5 0.5t13 1t11.5 4.5t13 3l26 -4l12 3q4 0 7 -2t7 -1
q14 -14 14 -22t-4.5 -12.5t-10.5 -4.5l-18 3q-11 0 -22 -9q-3 -5 -4.5 -21t-3 -25t-1.5 -26z" />
    <glyph glyph-name="J" unicode="J" horiz-adv-x="410" 
d="M17 73q16 20 40.5 20t32 -2t11.5 -10q8 -1 15.5 -2t9.5 -12v-2q1 -4 -3.5 -7.5t-5.5 -10t-18.5 -6.5t-22 4t-9 4t-9 -2.5t-10 -3t-8.5 -2.5q-14 -7 -17.5 -16.5t-13.5 -16.5q1 -3 1 -7l-6 -28q0 -2 3 -1.5t4.5 0.5t2.5 -8q4 -27 26 -33q3 -5 7 -8t7 -8q7 0 12 -4l49 -8
l20 2q5 0 8 -1q11 6 24.5 6.5t24.5 6.5v4q2 1 6.5 1.5t8 3t6.5 7t10 8.5q30 16 44 41q6 11 9 12v3l8 31l4 5l-1 8q0 4 4.5 10.5t4.5 29.5l-6 43q-2 1 -2 4q2 2 2 5.5t-2.5 10t-3.5 11.5t-0.5 8.5t0.5 11.5t-3 20t-4.5 21.5t-1 19t-1 16.5t-4 12t-2.5 11l2 12l-7 22l2 7l-2 9
v16l-3 12q0 2 1.5 2t1.5 2.5t-3 9.5t-4.5 11.5t-1 10.5t-0.5 12l-4 10q-2 8 -2 15q0 14 -4 23.5t-4 14.5v8q0 33 -5 40.5t-7 17.5t-2.5 25t-2 26.5t-3.5 17.5t-3.5 13.5t-2 21.5t-3 19.5t-8.5 8.5t-8 11h-1q-11 0 -23 -4.5t-21 -4.5t-17.5 4t-8.5 12q0 13 20 16q6 4 10 10
q11 2 29 8.5t27 6.5l1 1l2 3q2 1 3.5 0.5t5 -0.5t11.5 5t13 7l2 -2l29 7q4 0 5 -1q28 12 39.5 12t22.5 -8q2 -10 2 -14q0 -19 -12.5 -25t-23 -7.5t-12.5 -6t-5 -6t-4.5 -1.5t-4.5 -2t-7.5 -9.5t-4.5 -15t3 -13.5t5 -15t2.5 -20t3.5 -16.5t5 -7.5t2 -4l-2 -4q3 0 3 -10t1 -13
t2.5 -3.5t2.5 -4t0.5 -10t0.5 -11.5l7 -19q2 0 2 -2q-2 0 -2 -2t4.5 -18t4.5 -27v-2l4 -4v-1l-2 -5q0 -11 4.5 -20.5t6.5 -17t1.5 -11t1.5 -6.5t4 -10v-14l3 -34l4 -10q2 -11 2 -21t3 -21l4 -10l6 -47l-2 -8l4 -17l-5 -33l7 -34l-6 -61q0 -9 -4 -14t-4 -12q-9 -3 -9 -19
q-8 -3 -10.5 -13t-4.5 -14.5t-8 -6.5l-3 -20q-5 -3 -10 -5t-8 -5.5t-3.5 -7.5t-2.5 -7q-9 -3 -8.5 -5t-2.5 -4.5t-4 -1.5t-3 -2l-2 -3h-5l-2 -4q-11 -6 -13 -12q-6 -2 -8.5 -3t-4.5 -8q-8 -6 -19.5 -10.5t-20.5 -8.5q-4 2 -8 2l-25 -3q-5 0 -6.5 -3.5t-5.5 -4.5h-2
q-2 0 -5 -1.5t-6 -1t-6 0.5l-22 -6q-3 0 -6 1.5t-5.5 2.5t-6 0.5t-6 -0.5t-27.5 10l-10 -1q-6 0 -16.5 8t-16.5 11.5t-8 5.5q-1 7 -7 13q-11 10 -11.5 23t-7.5 22q-3 12 -3 33.5t6 34.5t8.5 14t4 3.5t1.5 7t2 8.5q7 2 9 4l2 4h4z" />
    <glyph glyph-name="K" unicode="K" horiz-adv-x="643" 
d="M678 109l5 -20v-1q0 -10 -6 -15q-12 -10 -12 -19q2 -8 -3 -6q-6 0 -5 -2.5t-2 -6t-17 -13t-21 -8.5l-12 -11l-13 2h-3q-13 -8 -31 -8t-25 7t-14 13t-11 9t-5 9q-3 1 -6.5 2t-2.5 6q-21 5 -28 21q-3 6 -5 12t-8 9l1 12q0 3 -6 3.5t-8 3.5q0 9 -3 12t-4.5 2.5t-2.5 1.5
q-4 8 -6.5 14t-11.5 9q-2 10 -10.5 23.5t-13.5 18.5t-9 7t-6 4q-2 4 -4 9.5t-6 11.5t-6.5 13t-5.5 15t-13.5 22t-15.5 17q-28 17 -40 17h-17q-11 0 -13 -4q-8 2 -15.5 2t-21.5 -6t-22.5 -7.5t-11 -4.5t-4.5 -5l-2 -8l5 -26l-2 -24l3 -39l-1 -31v-13q0 -12 2.5 -17t2.5 -11
t-1 -11.5t-2 -11.5l-2 -86q3 -2 8 -2h11q11 -2 11 -11l-2 -16l-10 -6q-12 -7 -23.5 -6.5t-19 -3t-16 -6t-17.5 -4.5t-17 -4t-12.5 -2t-9 3.5t-7.5 1.5q-2 8 -2 14q0 9 18 15.5t22 12.5q4 11 4 25l-2 38l3 47l-5 28l2 11l-4 60l2 19l-4 17l1 18q0 4 -1 7t-2 6.5t-0.5 6
t0.5 7.5t-1.5 4.5t-1.5 10.5t-4 23q-7 21 -7 56v36l1 53q0 19 -4.5 37t-4.5 38l6 33l-4 31l2 15q0 7 -1 9l1 17q0 8 -4 17t-5 14.5t-4 7.5t-4 5q-11 3 -22 3l-24 -4q-4 0 -5.5 2.5t-4.5 2.5l-3 -1q-2 7 -4.5 12t-2.5 12v4q12 7 42 10t40 10q9 0 16.5 -0.5t14 1t12.5 3.5
t11 2l24 -5q3 0 10 2q5 -6 9 -10t4 -13q-6 -6 -15 -9q-6 -5 -15 -7q-18 -6 -18 -60v-19l6 -28l-3 -12l2 -4q0 -2 -2 -4l4 -12q1 -12 0 -24.5t-1 -22.5q0 -14 4 -29t3.5 -33t-0.5 -36.5t3.5 -40t5.5 -42.5h5q16 0 22.5 8.5t14.5 19.5q18 10 38 33q27 30 32 31.5t5 5t9 12.5
t20 16q8 18 23 31.5t27 27.5l8 12q2 2 6 5.5t6 6.5v4q2 5 5.5 8.5t5.5 8.5q21 14 37 38q5 2 8.5 7t9.5 11.5t13 12.5t10 19q4 5 8.5 6t4.5 7t-3 8.5t-6 5.5q-10 6 -10 17q0 17 26 17l41 -2q9 0 17 -4t17 -4l19 3q7 0 15 -5t8 -16q0 -17 -35 -17l-21 2q-12 -2 -14 -8t-8 -12
t-11 -13t-11 -14l-12 -15q-2 -3 -4.5 -7t-7.5 -4q-2 -11 -9.5 -16t-11 -10t-3.5 -6q2 -4 -5 -6.5t-8.5 -8.5t-6 -4.5t-11 -9t-4.5 -12.5q-8 -4 -17 -14.5t-9 -12.5t-4 -5.5t-8 -6t-7 -9.5q-4 -3 -8 -4.5t-6.5 -4t-3 -5.5t-3 -7t-8.5 -9t-6 -13q-3 -3 -15 -9q-14 -22 -29 -29
q-2 -13 -12.5 -19.5t-13.5 -15.5q5 -5 15 -5.5t16 -2.5t10.5 -4.5t8.5 -4t7 -1t5 -1.5l2 -4h6q7 -4 17.5 -15.5t13 -12.5t4 -1t2.5 -1.5t0.5 -3t2.5 -5t9.5 -8.5t9.5 -9.5t2.5 -6.5t1 -4.5t4 -5.5t5 -8t4 -11t6 -14t13.5 -15t14 -16.5t11.5 -20t11 -19t7 -11.5t4.5 -6
t2 -5.5t10 -12.5q1 -2 1 -5q0 -5 24 -29l6 -12t7.5 -13.5t15.5 -14t18 -14.5q5 0 7 3.5t7 3.5q0 -2 6.5 -2t7.5 0.5t6.5 3.5t8.5 3t5 2l8 7q2 2 4.5 3t6 4.5t5.5 9t8 9.5q-1 1 -1 13l-5 4q-1 2 -0.5 3.5t0.5 5t-5.5 10.5t-7.5 13h-3q-5 0 -7 2t-5 4q-2 -3 -6 -3t-8 -2l-2 -4
q-10 -4 -15 -4t-7 1q-4 5 -4 16.5t9 26.5q2 3 8 3.5t10.5 2t7.5 3.5t8 2l25 -7q2 -2 1.5 -4t2.5 -3.5t4.5 -1t3 -1t4.5 -9.5q15 -38 20 -40v-5z" />
    <glyph glyph-name="L" unicode="L" horiz-adv-x="404" 
d="M95 745q-5 3 -16.5 3t-17.5 5v9q1 13 14 16t29.5 3t33 -1t23.5 4q6 -2 16.5 -4.5t10 -10t-5.5 -9.5t-15.5 -4t-15.5 -8q-3 -5 -2.5 -8.5t-5.5 -7.5q6 -39 0.5 -90.5t-2 -88.5t4.5 -76q-3 -2 -3 -3l2 -2q3 -8 1.5 -33.5t4.5 -37.5q-2 -2 -2 -5l1 -10l-3 -4q0 -3 3.5 -7
t-2.5 -10q1 -6 3.5 -11.5t-2.5 -14.5l2 -26q0 -23 -1.5 -48.5t1.5 -54.5l-3 -7l4 -2q1 -8 1 -23v-67q0 -25 -3.5 -33.5t-3.5 -16.5l-1 -22q17 -7 32 -6t23 1l18 3l74 -7l8 -3q6 3 22 -1q14 -1 20.5 10.5t7.5 18.5t0 11q-1 12 9 26q18 21 30 -2q8 -12 5 -17q-9 -18 -6 -23
t4 -8q-4 -7 -6 -17l1 -13l-3 -10q-1 -5 2 -11q4 -12 -3 -29l-8 -15q-12 -5 -24 -5q-10 2 -17 7q-3 4 -3 9.5t3 7.5q-6 3 -5 6t0 9q-3 5 -26 11t-25 6t-74 4l-47 -5q-5 0 -15.5 1t-17 -3.5t-12.5 -6t-13 -0.5q-16 4 -24 0l-3 3q-8 1 -15 0t-12.5 0t-9 1.5t-7.5 2.5
q-6 23 12 29q6 1 11.5 1.5t11 2.5t10.5 3.5t10 3.5q3 6 3 16l5 29q0 3 1.5 5.5t0.5 4.5q-7 12 -2.5 38t2.5 44l-3 16q0 2 1 2t1 3q-6 13 -2 45.5t3.5 50t-1.5 23.5t1 20l-2 22q-1 12 1 24.5t-1 23.5l-6 104q0 3 3 6q-2 6 -1 11.5t0 12.5t0 12.5t-1 6t-2 5.5l4 24
q1 9 -0.5 22.5t2.5 31.5q10 55 5 107z" />
    <glyph glyph-name="M" unicode="M" horiz-adv-x="890" 
d="M129 692l3 18q-1 8 2.5 14.5t4.5 10t0.5 6t-0.5 4.5l4 11l-2 19q0 39 6 55t6 24q5 3 10 7.5t11 6.5q5 -2 9 -3.5t9.5 -6.5t11.5 -23.5t12.5 -39.5t13 -41.5t15.5 -30.5q0 -27 9 -38q-1 -2 -1 -5.5t3 -17.5q16 -71 24 -79v-6l12 -43q3 -12 5 -23.5t11 -20.5q0 -18 10 -29
q2 -11 4.5 -27t10.5 -24q5 -41 13.5 -51.5t7.5 -18.5q-3 -11 4 -23t7.5 -19t5.5 -12q11 0 19.5 9t10.5 20q3 0 11 11q41 64 53 70q2 11 8.5 16.5t5.5 16.5q4 3 6.5 6.5t7.5 5.5q7 21 21 30q1 3 1.5 6.5t2.5 6.5q6 2 8.5 6.5t7.5 6.5v1q0 6 5.5 9.5t8 8t5 14.5t6.5 12l5 2
q7 8 10.5 19.5t12.5 19.5v6h4q2 2 2.5 7t5.5 6l-1 2q0 14 8 22.5t7 24.5l8 6q2 2 2 5.5t1 5.5l10 15q5 8 8 17.5t12 14.5v4q0 8 5.5 15.5t7.5 13t2.5 10t2 6.5t2.5 2q6 0 4 7t3.5 7t5.5 5l4 27q0 6 -1 9q6 4 6 9t-2 7q1 4 4 5.5t5 3.5v4q0 8 6.5 12.5t11.5 8.5q7 -1 11 -5.5
t9 -9.5q-5 -6 -5 -21.5t-3.5 -24.5t-3.5 -17t3 -13.5t3 -10.5l-2 -15l2 -31q0 -9 -2 -14q1 -6 3 -10.5t3 -10t0.5 -11t-0.5 -10.5l6 -19q0 -2 -1 -2t-1 -4t4.5 -20.5t4.5 -30.5v-2l-2 -1l3 -11l-3 -14l6 -20l-2 -23q0 -3 4 -23l-1 -15q0 -10 3.5 -14.5t5.5 -12.5l2 -22
q1 -5 2 -9.5t2 -11t0 -14t-1 -18.5t5 -31q3 -42 9.5 -66.5t6.5 -34t-4 -16.5q9 -16 8.5 -37t2 -32.5t4.5 -17t2 -14t3.5 -20t4.5 -22.5l8 -1q16 0 28.5 4t16.5 7t9 2.5t8 -0.5l13 2q5 0 7 -3.5t7 -4.5q2 -2 2 -7.5t-2 -11.5q-9 -6 -13.5 -6t-6.5 2q-10 -9 -13.5 -9.5
t-14.5 -0.5l-4 -1q-7 0 -13.5 -3t-13.5 -4l-16 -2q-9 -3 -17 -8.5t-18 -5.5l-22 2q-6 0 -21 -6l-12 1q-8 0 -16.5 -4t-18.5 -4h-5q-10 8 -10 17t2 15q6 5 33.5 9t36.5 10q-2 7 -1.5 13.5t-1 14.5t-2.5 9.5t-1 9.5t-3.5 17t-5.5 18.5t-1.5 22t-0.5 24.5l-4 25l2 7
q0 11 -4.5 27t-6 23.5t-0.5 11t1 7.5t-3 7q2 4 2 8.5t2 7.5q-6 25 -6.5 50.5t-3.5 49.5l-4 12q-1 4 -0.5 8.5t0.5 8.5l-4 18l2 8v9q0 27 -5 30q3 3 1.5 9.5t1.5 9.5q-3 7 -3 16l1 28q0 7 -2.5 21.5t-2 18.5t-0.5 10l-7 13v12q0 9 -4 12h-1q-6 1 -12 -11q-14 -8 -14 -16
t-3 -8t-5 -2t-1 -4t-3 -7.5t-5 -10t-3 -8t-4.5 -6t-4 -5.5t-1 -7t0.5 -8t-6 -12t-8 -15q-3 -1 -4.5 -2.5t-6.5 -1.5q-2 -16 -10 -25t-15 -22q-5 -4 -13 -7q-1 -3 -3.5 -8.5t-7 -15t-2.5 -14.5q-1 -2 -3 -2t-4 -2t-2 -5.5t-6 -5.5q-11 -5 -9.5 -11t-3.5 -13q-3 -13 -12 -19.5
t-11.5 -10.5t-3.5 -7.5t-3 -7.5l-4 -2q-14 -28 -17 -31q-4 -4 -18 -25l-11 -17q-5 -7 -5 -8q-23 -7 -28 -37q-12 -7 -17 -12q-20 -43 -37 -43q-11 0 -15.5 4.5t-11.5 6.5q-6 17 -11 21v8q0 13 -3 17t-7 15l-10 50q-1 5 -5 7.5t-5 14t-6 14.5l1 6q0 10 -9.5 33t-13.5 25
q1 1 1 7t-4 23.5t-8 25.5t-5 17t-4 19t-3 16v1l-4 5l-2 14q-1 5 -3 11l-4 12l-2 14q-3 6 -7 11.5t-8 11.5v16t-5 14v8q0 20 -12 20q-3 0 -2.5 -5.5t0.5 -7.5v-2q-4 -3 -4 -13.5t6 -14.5q-5 -12 -4.5 -29t-1.5 -31l-2 -14l2 -10l-4 -18l2 -21v-14q0 -7 -2 -13l-4 -12
q-2 -9 -1 -18.5t-1 -17t-2 -9.5q-2 -8 -2 -12v-9q0 -9 -2.5 -18t-3.5 -18.5t-0.5 -18.5t-1 -16.5t-2 -10.5t-1 -5.5t-0.5 -5.5v-10l-4 -20q-2 -6 -1.5 -12t0.5 -15.5t-2 -14.5q-8 -13 -6.5 -28t-2.5 -28.5t-4 -35.5t-5 -47q13 -15 19.5 -15t6.5 -6q0 -2 4 -4q-1 -7 -3 -9.5
t-1 -10.5h-2l-7 -2h-2q-1 1 -3 1l-3 -5q-4 2 -14.5 2t-13.5 -4q-8 4 -20.5 4t-14 -4.5t-6.5 -5.5q-1 1 -4 1l-45 -6h-19q-17 0 -19.5 3.5t-3.5 5t-5 2.5q-1 1 -1 3l4 8q-3 3 -3 5.5t2 6.5q13 9 28.5 9t29.5 6q3 -1 10.5 -1t13.5 2l12 4q1 4 1 10l-1 22l4 29l-2 15
q0 5 2.5 14.5t2 15.5t0.5 12.5t2.5 11.5t3.5 11t2 23.5t5.5 35t5.5 34.5l-2 12q0 3 1.5 4t2.5 8t1.5 17.5t3 24t2.5 20.5l-2 11q0 5 1 10q8 22 8 46v14q0 3 -1 6q6 18 6 25v15l4 18l-2 11l2 12l-2 13l4 18l-1 25l5 35q0 2 -1.5 4t-0.5 3.5t1 4.5z" />
    <glyph glyph-name="N" unicode="N" horiz-adv-x="554" 
d="M544 785q21 0 21 -11q0 -7 -4 -12l-11 -10q-6 -6 -12.5 -6t-8.5 2.5t-6 4.5q-9 -5 -19 -7.5t-18 -8.5q-5 -11 -4.5 -23.5t-1 -20t-5.5 -13t-4 -6.5t1 -20t-4.5 -30.5t-5.5 -20.5l3 -22v-3l4 -4v-1l-6 -36l2 -7l-3 -11q-2 -11 -2 -21v-22q0 -13 -4 -22.5t-4 -17.5l2 -28
v-11q0 -6 -2 -9t-2 -5l2 -2q-2 -10 -2 -15l2 -14l-6 -46l2 -9l-2 -8l6 -16q-1 -1 -1 -11.5t-3 -13.5q3 -9 3 -18l-2 -33q0 -9 1 -13q-2 -4 -2 -7l4 -10l-5 -7l6 -16t5 -16q-10 -8 -12 -18q-1 1 -5 1t-9 -4t-11 -4l-1 1q-8 1 -13 12t-10.5 18.5t-9.5 19.5q-5 7 -11.5 15.5
t-6.5 16.5q-8 2 -9.5 10.5t-5.5 13.5q-7 1 -4 8q-3 3 -6.5 3.5t-7 7.5t-6.5 9.5t-5 6t-1.5 5.5t-5 10t-14.5 15q-7 8 -9.5 18t-15.5 19q-2 11 -11 19.5t-7 20.5q-10 8 -12 12.5t-4 7.5t-4.5 7t-4.5 7t-2 5t2 4q-1 2 -2 3.5t-2.5 4.5t-3.5 5t-3.5 4.5t-1 4.5t-1.5 4
q-7 3 -9 12.5t-7 15.5q-5 13 -11.5 23.5t-8.5 19.5t-3.5 9t-3.5 2t-1 4t-2 4q-3 5 -7.5 7.5t-8.5 9.5t-7 17t-15 11q-4 -3 -4 -8l6 -22l-2 -26l6 -51l-2 -19l5 -20l-2 -9q0 -22 5 -41q7 -25 7 -61v-55l2 -13l-1 -23l4 -147q0 -24 19 -24l19 3q17 0 17 -16q0 -5 -7 -11
q-10 -9 -17 -9h-6l-32 2q-30 0 -45 -12q-3 -1 -6 -0.5t-6 0.5l-19 -4l-36 -5q-14 0 -14 11q0 4 4 9t8 5l6 -1q2 0 4 1.5t7 3.5t13.5 3.5t16.5 4.5q8 6 14 13q-4 19 -4 42l2 22q0 1 -1.5 4t-2.5 11t-1.5 17t-1.5 18t-1 12l3 29l-3 48q0 15 1.5 30t-1.5 29l-4 49q-1 4 -2 7
t-1 8l1 23l-4 31l2 13l-4 28l2 20l-4 91l-3 87v18q0 8 1 16q2 2 2 4l-2 4q0 4 3 11.5t1.5 18t8.5 12.5q2 0 1 5q2 1 13 1q18 0 28 -36q4 -5 16 -14q1 -10 7 -17.5t9.5 -14.5t5 -11t3.5 -8l11 -14q2 -4 2 -8t2.5 -9.5t9 -15.5t10.5 -17.5t7 -14.5q3 -9 9.5 -18t6.5 -13.5
t3 -10t8 -12t7.5 -11.5t2.5 -8.5t1.5 -5t2.5 -2t2.5 -2.5t1.5 -5t2 -6l4 -2q2 -4 5.5 -15.5t11 -21t14 -24.5t13.5 -24l7 -11q2 -4 3 -8t3 -7l8 -9q3 -5 4.5 -10t4.5 -9l4 -2q2 -4 9 -15t18 -29.5t18.5 -26.5t11 -17.5t13.5 -12.5q5 2 4 6.5t-1 8.5l2 27l-2 67q0 14 2.5 27
t3.5 23t0.5 16t-0.5 12l4 23v16l4 25l-2 30q0 22 2 44q2 0 2 1l-2 25l2 34l-1 31q0 16 3.5 31.5t5 26.5t3 14.5t1.5 7t-2 5.5l5 16q0 12 -6 14.5t-11.5 4.5t-7.5 4t-6.5 1t-8.5 -1t-6 5q0 4 -4 5q1 9 8 12t11 9q6 -2 11 -2l17 4q8 0 14 -4t11.5 -6t10 -1.5t9.5 0.5h4l1 -2
l5 1l19 -3z" />
    <glyph glyph-name="O" unicode="O" 
d="M557 560q0 -27 14 -39v-3q0 -8 5.5 -22t5.5 -32t8 -24q-2 -3 -5 -6t-3 -6t2.5 -3.5t2.5 -3.5l-1 -2q1 -8 -1 -15t-2 -13.5t1 -9.5l-8 -17q1 -4 1 -10q0 -18 -18 -25q1 -4 1 -13t-2.5 -18.5t-3.5 -19.5q-12 -6 -11 -17q-9 -3 -14.5 -10.5t-10.5 -12.5t-8 -6.5t-6 -5
t-5 -8.5q-3 -8 -9 -14q-6 -4 -6 -7.5t-6 -11t-20.5 -14t-24.5 -17.5h-3l-11 -4q-3 -3 -6 -9q-5 -7 -23 -4q-6 -3 -13.5 -7.5t-16 -4.5t-8.5 -3.5t-6.5 -3.5t-9.5 -2h-1l-14 4q-10 -4 -18 -4l-25 6q-2 0 -6 -2q-4 5 -10 6t-10 4q-3 -1 -8 -6h-2l-19 -1q-11 0 -13 7
q-10 -3 -24.5 7.5t-16.5 19.5h-3l-12 4q-3 4 -6 7.5t-4 8.5q-8 2 -13 7.5t-15 5.5q-2 6 -6.5 9t-8.5 6q-6 20 -24 37q-19 51 -24.5 63t-5.5 14l3 10l-2 5q0 2 1 2t1 2l-4 23l2 15l-5 11l7 28v12q0 5 2 9.5t4 13t2 21t3 23t7.5 14t2.5 15.5q12 16 16.5 30.5t4.5 16.5q0 6 3 9
q5 3 4.5 8t2.5 7t6 6t6 11t8 14l4 2q3 9 37 33q3 3 3.5 6t2.5 5q4 1 16 7l2 4l16 8l1 4q2 1 5 0.5t13.5 4t24.5 13t26.5 8.5t15 3t8 4.5t12.5 0.5t12 5h1q5 0 8 -6q12 6 22 6t10 -1.5t2 -2.5t4 0t6 1t11.5 -7.5t20.5 -7.5l19 1q12 0 19 -4.5t16 -5.5q2 -1 2 -3.5t2 -4.5h4
q4 -3 6.5 -6.5t5.5 -5.5l10 -6q4 -3 7 -6.5t8 -6.5q3 -2 5.5 -6t5.5 -7.5t6 -5.5t5 -6.5t2 -8.5t2 -8.5t3 -3.5t1 -4.5t2.5 -12t6.5 -14t7 -14.5t6 -8v-8zM125 461l-5 -51q0 -7 1.5 -11.5t2.5 -14t0.5 -23t1.5 -30.5t12 -34t12 -38q8 -11 15.5 -23t15.5 -23q20 -28 44 -34
q11 -20 41 -20q9 0 10 -2h15l47 -5q6 0 11.5 2.5t10.5 1.5q8 7 15 7.5t17 3.5q2 1 1.5 4.5t2.5 4.5t9 1q4 11 16 15t21.5 12.5t18.5 16.5t16.5 21.5t12.5 18.5l11 10q2 2 2 5.5t6.5 6.5t8 5.5t1 4.5t1.5 4q6 2 5.5 6.5t-0.5 10t3.5 9t0.5 9.5q7 5 8 13.5t3.5 15t6 10
t5.5 8.5q-2 2 -2 12v10q9 14 9 26.5t-5 22.5q-6 13 -6 33.5t-6 25.5t-6 8v7l-4 22q0 5 -4.5 10t-6 10t-0.5 10t-2 13t-7.5 11t-4.5 17q-11 4 -13 16q-11 3 -16 12.5t-9.5 11.5t-5 1.5t-2.5 -0.5h-1l-2 5q-6 4 -12 4l-17 -4q-9 0 -17 7t-15 7t-12 -3q-3 3 -4 6.5t-4 5.5
q-8 1 -12 4t-11 6l-4 -1l-20 4q-2 0 -4.5 -2.5t-7.5 -2t-9 -0.5t-7 -2.5t-7 -2.5t-10 0t-10.5 -1t-7 -5t-7.5 -1q-6 -2 -8.5 -6.5t-23.5 -4.5q-16 -25 -41 -34q-2 -8 -8 -12.5t-11 -10.5q-6 -7 -15 -29t-9 -31l2 -8q0 -7 -4 -13t-6 -11.5t-1 -11t-0.5 -11t-4.5 -11.5
q-7 -12 -5 -27z" />
    <glyph glyph-name="P" unicode="P" horiz-adv-x="460" 
d="M100 684l-4 14q0 14 -8 22l-4 2q-3 4 -5 8.5t-6 8.5h-8l-45 -4q-18 0 -22 10t-6 26q10 11 27 11l48 -6l21 2l22 -3q8 0 14 3q10 -5 28.5 -5t30 -1.5t25.5 -2.5l23 -2q6 -1 9 -2.5t7.5 -3t17 -1.5t14.5 -2.5t9 -5.5t11 -2.5t7 -1.5l2 -5h4q3 -2 5 -5t4.5 -5t6.5 -4t6.5 -4
t4.5 -4.5t4.5 -4.5t6.5 -3q9 -3 24 -21q2 -4 3.5 -8.5t3.5 -7t4 -2t5 -2.5q11 -10 24 -42q16 -32 16 -38t2 -10q6 -7 6 -22v-14q0 -29 -6 -41t-6 -15t1 -3t1 -7t-9.5 -22t-11.5 -20t-7 -8q-2 -12 -10 -19.5t-11 -19.5q-8 -3 -21.5 -14t-21.5 -11q-2 -4 -3.5 -7.5t-6 -5.5
t-8 -1.5t-9.5 -2.5t-12 -10t-18 -7l-20 2q-10 0 -20 -7h-14q-27 0 -41 -6q-8 -23 -8 -72l2 -31l-2 -32l4 -25q0 -5 -2 -7l2 -7q-1 -3 -1 -20l-2 -48v-11q0 -5 1 -10q6 -2 8 -2l16 2l6 -1v-2q0 -4 3 -5.5t3 -7t-5 -9.5t-8 -9q-2 -1 -7 -1l-18 3q-7 0 -13.5 -5.5t-13.5 -7.5
q-1 2 -2 2t-6.5 -2t-12 -1.5t-14.5 -0.5t-16.5 -2.5t-17.5 -0.5q-2 5 -5 10t-3 10.5t4 8.5t10 4.5t12.5 2.5t10.5 3q4 7 4 15l-3 18l1 24l-2 67l2 28v29q3 2 2.5 8t-0.5 15t3 42l-2 2l2 20l-5 21l5 6l-2 8q0 3 3 4t2 3.5t-1 8.5l4 47l-2 23l4 28l-4 23l2 18l-4 30l2 14
l-2 17q-1 8 -0.5 18t-6.5 17v6l-7 53q0 7 -4 11q-1 3 -0.5 6t0.5 7zM180 423l8 -62q6 -1 12 -3.5t12 -2.5t11 1.5t13 3t17.5 1.5t19.5 3q6 5 8.5 4.5t9 2t13.5 9.5t16 7q6 10 16 14q6 12 13.5 21.5t10.5 18.5t3 15t2 13t4 11t3.5 10t1.5 18t3 20q-3 14 -3 27t-4 25t-9 19
t-4 18q-12 13 -15 28q-5 5 -10 9t-8 13h-4q-10 0 -10.5 6t-5.5 11q-5 2 -16.5 13t-17.5 16t-7 7q-36 14 -54 14l-41 -2q-10 0 -16 1q-2 -8 -2 -15.5t4.5 -13.5t6 -12.5t1 -11.5t-0.5 -10v-3q0 -4 2.5 -11t2 -13.5t1 -11.5t5 -8.5t3.5 -19.5l3 -19q0 -6 -1 -10v-3l-1 -1
q4 -4 4 -18v-22l4 -23q0 -4 -2 -6q1 -1 1 -4l-1 -3v-1l2 -1v-28l-2 -8l2 -13z" />
    <glyph glyph-name="Q" unicode="Q" 
d="M640 13q-8 0 -8 14t4 18t6 10q6 2 12.5 3.5t13.5 3.5q8 -2 14.5 -6t14.5 -7q4 -4 5.5 -8t4 -7t4.5 -3.5t4 -2.5l2 -6q8 -6 7 -11.5t1.5 -12t2.5 -11.5t-3 -12t-1 -15q-5 -8 -10 -15.5t-9 -17.5q-8 -2 -15.5 -7.5t-16.5 -8.5l-1 -1q-3 3 -6 3t-4 -3l-11 1l-7 -1
q-13 0 -26 3.5t-25 5.5q-5 6 -10.5 10t-10 9t-13 6.5t-11 12.5t-10.5 11q-4 0 -7 3.5t-10 9t-9 11.5q-15 0 -24 18q-5 9 -13 12v4q-5 4 -9.5 5.5t-6.5 7.5q-11 1 -16.5 6t-13.5 10q-8 -2 -11.5 -6.5t-9.5 -9.5l-10 -1l-8 1l-10 -6t-11 -5l-14 -2q-3 -1 -3 -4t-6 -3t-9 -2h-1
l-14 5l-17 -5l-25 6q-5 0 -7 -1q-5 5 -10 6t-10 4q-3 -1 -8 -6h-2l-20 -1q-10 0 -12 7q-10 -3 -24.5 7.5t-16.5 18.5h-3l-12 4q-3 5 -6 8.5t-4 8.5q-9 2 -13.5 7.5t-14.5 5.5q-2 5 -6.5 8t-8.5 6q-7 21 -24 37q-18 50 -24.5 63t-6.5 15l3 9l-2 6q0 2 1 2t1 2l-4 23l2 15
l-4 11l6 27v13q0 7 7 19q2 11 2 24t3 23.5t7.5 14t2.5 15.5q10 14 15 29.5t5 19.5t2.5 5.5t5.5 3.5q1 2 0.5 6.5t2.5 6.5t6 6t6 11t8 13l4 2q5 14 37 34q3 2 3.5 5t2.5 5q9 3 17 10t14 10.5t9.5 3.5t8 2t10.5 6t10.5 6.5t8 2.5t10 2.5t10 4.5t11.5 2t10.5 3t7.5 4.5
t12.5 0.5t12.5 5h1q5 0 8 -6q12 6 22 6t9.5 -1.5t8 -1.5t15 -8t21.5 -8l19 1q11 0 18.5 -4.5t13 -5.5t5.5 -3t2 -4h4q3 -3 5.5 -6.5t5.5 -5.5l11 -6q4 -3 7 -7t7.5 -6.5t9 -9.5t8 -9t5.5 -6.5t2 -9t2 -9t3 -4t1 -4.5t2.5 -11t6.5 -14t7 -14.5t5 -7.5v-8q0 -27 15 -39v-3
q0 -8 3.5 -17.5t5.5 -18t2 -22.5t8 -20q-2 -3 -5 -6t-3 -6t2.5 -3.5t2 -2.5t0 -7t-1.5 -11.5t-2 -13t1 -9.5l-8 -18q1 -3 1 -9q0 -18 -19 -26q1 -4 1 -12.5t-2 -18.5t-3 -20q-11 -5 -11 -16q-9 -3 -15 -11t-13 -15l-10 -7q-1 -2 -0.5 -3t-1.5 -3l-4 -2l-15 -26q4 -14 19 -21
q3 -15 15 -24t19 -17t11.5 -14.5t9 -10t8 -3.5t5.5 -2q1 -2 0.5 -3t3 -6t11 -9.5t11.5 -15.5q16 -6 28 -19q3 -1 5.5 -0.5t4.5 0.5t8 -2l2 -4q20 0 25.5 4t10 8t8 6.5t6.5 6.5l1 16q0 16 -6 21t-11.5 7.5t-11.5 7.5q-6 -2 -11.5 -6t-10.5 -4t-6 1zM336 53l25 4q11 10 31 12
q0 6 9 9t9 10t-7.5 13.5t-8.5 16.5q-10 7 -13 9.5t-10 13.5v4l-4 2q-2 4 -3.5 10t-5.5 6q-7 0 -7 23l-3 9q0 1 5.5 7t16.5 6q23 0 32 -22l4 -2q6 -7 11.5 -15.5t10 -13t8.5 -6.5t7.5 -5.5t7 -10t10.5 -7.5q11 4 22 28q1 1 1 2.5t1.5 3t2.5 1t3 0.5q1 2 0.5 3.5t4 5t19.5 18
t13 20t-2 9.5t3 7t1 9q7 6 8 14.5t3.5 14.5t6 9.5t5.5 9.5q-2 2 -2 12v10q8 13 8 26t-4 22t-5 18.5t-1 19.5t-2.5 15.5t-6 8.5t-3.5 6v7l-4 21q0 6 -5 11t-6.5 10t-0.5 9.5t-2 13t-7 11.5t-4 17q-11 3 -13 16q-11 3 -15.5 11.5t-9.5 11.5t-5.5 2.5t-2.5 -0.5h-1q-4 8 -13 8
l-17 -4q-10 0 -15 4q-9 10 -15.5 10t-16.5 -3q0 6 -2 8t-4 5q-7 1 -11.5 4t-11.5 6l-5 -1l-21 4q-3 -5 -9 -4.5t-10.5 -0.5t-7 -2.5t-6.5 -2.5t-10 0t-10 -0.5t-8.5 -4.5t-6.5 -3l-3 1q-8 -11 -10.5 -12t-17.5 0q-24 -26 -42 -33q-2 -9 -8.5 -13.5t-10 -8.5t-4.5 -8
t-3.5 -6.5t-9 -17.5t-6.5 -22v-13q0 -9 -4 -14.5t-6 -11.5t-1 -11.5t-0.5 -11.5t-4 -11t-4 -12t-1 -15.5t-0.5 -17t-2.5 -17.5t-1.5 -16t1.5 -11.5t2.5 -14.5t0.5 -23t1.5 -30t12 -34.5t12 -37.5q8 -11 15 -23q29 -49 59 -57q4 -7 16 -15t16.5 -8t4.5 2q2 0 6 -2l7 2l11 -3
q4 0 6 1t6 -1q10 -1 20 -2.5t18 -1.5z" />
    <glyph glyph-name="R" unicode="R" horiz-adv-x="612" 
d="M612 -12l-6 1q-8 13 -8 18t3.5 12.5t6 9t3.5 1t3.5 3t13.5 10.5t19.5 7t17 -6t18.5 -7q5 -2 5.5 -8t3.5 -11h4q2 -2 2.5 -7t2 -8t4.5 -5t4.5 -5.5t0 -9t3.5 -8.5q-1 -3 -1 -10l1 -27q0 -18 -6.5 -21.5t-10 -12.5t-7 -14t-8.5 -4.5t-5 -4.5q-4 -6 -10 -10h-3l-11 2
q-4 -3 -8.5 -4.5t-6.5 -3.5t-4 -2l-9 2q-2 -5 -6.5 -4.5t-10.5 0.5t-8 -3.5t-13.5 -3.5t-24.5 13q-14 2 -23 12.5t-14.5 16t-7.5 5.5t-4 2t-1.5 4t-1 3.5t-2.5 1t-3 2t-2.5 3.5t-5.5 3q-2 3 -1.5 6t-2 5.5t-6.5 8.5q-13 23 -19 29q-2 6 -3.5 12.5t-6.5 9.5q0 10 -5 18
t-11 35.5t-31 84.5l1 13q-2 3 -7.5 12.5t-7.5 12.5t-1.5 7t-1.5 8l-3 2q-3 8 -3 15v1l-4 2q-1 4 -1 8q0 7 -5.5 14.5t-14.5 28.5l-4 2q-2 5 -2 10.5t-2 10.5q-5 14 -17.5 27.5t-24.5 13.5h-1l-2 5q-4 2 -8.5 3.5t-7.5 4.5q-3 -1 -9 -1l-27 2q-9 0 -15 -3q-8 0 -9.5 3.5
t-6.5 5.5q-13 -14 -32 -13q-9 -20 -9 -43.5t4.5 -37t4.5 -18.5l-3 -10l4 -14l-1 -13l5 -35l-3 -57l-6 -86q0 -26 6 -48h2l22 2q8 0 12 -4q1 -4 1 -11v-7q-1 -1 -7 -3t-13.5 -5.5t-15 -6t-10.5 -5.5q-6 2 -9 2l-24 -4l-22 2q-7 0 -9 -2.5t-8 -2.5t-6.5 -2t-3.5 -3t-6 0t-6 1
h-1q-1 -4 -7 -4h-5q-3 12 -3 20q0 14 24 16.5t29 8.5v3l-4 56l4 37l-3 18l3 12l-2 10l2 34q0 32 -3 48l-4 22l1 14q0 5 -2 10.5t-3 12.5t-0.5 15t-2.5 16q0 10 4 14q-5 10 -5 27l3 45l-4 35l1 66l-2 28l1 21l-3 20q0 11 2 21t3.5 25.5t2.5 35.5t3.5 33.5t4 19.5t1.5 14l-1 9
q-4 9 -16.5 9t-17 -2l-9 -4t-13.5 -3.5t-25 -4t-25 -2.5t-13 1q-6 6 -6 18t12.5 16t28.5 5.5t32 11.5q2 -1 6 -1l28 4q2 0 2.5 2t7 3.5t17 2t22.5 2.5l12 4q5 1 9 0.5t11 -0.5t13 2l12 4q6 -3 12 -3l39 5h29q22 0 54.5 -9.5t36.5 -9.5t8.5 -1.5t7 -4t7 -4.5t8 -2t7.5 -2
l2 -4q18 -9 23 -16t11 -8l17 -28q2 -2 4 -3.5t4 -4t1.5 -5.5t1 -5.5t4 -4t4.5 -4t1.5 -5.5t1 -6t3 -5l3 -4t1 -5.5t1 -10t6 -15.5t4.5 -22.5t-4 -29t-6 -30.5q-6 -5 -6.5 -12t-3.5 -11t-6.5 -6t-5.5 -4.5t-3 -6t-3 -5.5l-4 -2q-3 -6 -6 -11.5t-5 -10.5q-7 -6 -14.5 -10.5
t-14.5 -10t-13 -11t-12 -9t-9.5 -3.5t-8.5 -2t-10 -7l-10 -10h-7q-11 0 -16 -3q2 -3 10.5 -11t14 -13.5t8 -5t3.5 -0.5q1 -2 0.5 -3t2.5 -6.5t9 -11t13 -16.5t13.5 -27t11 -25t6 -10.5t7 -11.5t16 -40t17 -48t10.5 -30.5t5 -19.5t3 -13l4 -2q2 -3 3 -14t3 -16l3 -1
q1 -3 1 -11t3.5 -11.5t5.5 -9t2.5 -9.5t3 -10t8 -13.5t5.5 -16.5l18 -25q2 -3 3.5 -6.5t6.5 -10.5t20.5 -15.5t25 -8.5t13.5 2t16.5 6t24.5 18q3 9 9 15t6 13l-3 14v2q2 2 2 3l-5 13q0 1 2 6q-5 7 -9 13t-14 8l1 1q0 4 -5 3.5t-5 3.5q-2 -3 -4 -3h-5q-6 0 -11 -10t-16 -10z
M445 520q-3 2 -3 19.5t4 25.5q-5 3 -5 9l-7 29q0 3 1 5q-6 8 -8.5 17t-6.5 17q-4 3 -7 6t-9 5q0 17 -14 24q-6 3 -13 5.5t-13 6.5q-4 -1 -12 -1t-16.5 4.5t-30.5 4.5t-51 -6t-58 -8q-3 -10 -6.5 -19.5t-3.5 -13.5q-7 -10 -7 -34l-4 -70l5 -32l-2 -21q0 -41 3.5 -62t3.5 -27
l-2 -19q0 -2 2.5 -13t4.5 -12l8 -1q8 0 15 3t24 7t35.5 4t26.5 -2q12 10 28 13q24 3 40 19q6 8 17 13q2 2 2 4t2 4t4 2t7 3.5t14.5 18t13.5 23.5l4 10q9 5 8 13t-1 12z" />
    <glyph glyph-name="S" unicode="S" horiz-adv-x="407" 
d="M308 749l7 1q4 0 4 -2q6 -4 7 -9.5t8 -5.5q9 0 12.5 10.5t6.5 13.5t11 5.5t11.5 2.5t8.5 -8t5 -16.5t-5 -14.5q-9 -13 -8 -19t-4 -11q-26 -33 -29 -57l-8 -9q-26 -25 -32 -25t-11 8t-5 10t2.5 5.5t2.5 7.5q-2 8 14 24v6q0 3 7.5 9.5t7.5 15.5t-7.5 13.5t-7.5 9.5t2 9
q-31 8 -34 8l-7 10q0 2 -2 3.5t-4 1t-4 2.5q-2 0 -2 1t-2 2.5t-4 1t-7 4.5q-6 2 -11.5 2t-7 -1.5t-5.5 -3t-10.5 -3t-12.5 -4t-6 -5t-6.5 -2.5t-9 -6.5t-8.5 -4.5v-3q1 -8 -4.5 -11.5t-7.5 -8.5t-1.5 -10t0 -7.5t-2.5 -4.5q-4 -4 -4 -14v-10q0 -4 2.5 -8.5t4 -9t0.5 -10
t0.5 -9t3 -5t1.5 -2.5v-8q0 -3 10 -19.5t18 -34.5l21 -41q4 -5 7.5 -8.5t6.5 -9.5t6 -13t8 -13t11 -13q12 -12 12 -17t10 -12q19 -25 30 -54.5t29 -54.5v-3q-1 -5 2.5 -9t6 -9t3.5 -11.5t3 -10.5l3 -6q11 -14 11 -50v-34q0 -10 -2 -18l-4 -6q-4 -18 -9 -22q-1 -2 -0.5 -3
t0.5 -3v-2l-4 -1l-7 -15q-6 -11 -18 -26t-15.5 -17.5t-5.5 -2.5t-3.5 -2t-1 -4.5t-4.5 -4.5q-2 -2 -2 -4t-4.5 -4.5t-6 -4.5t-1.5 -4t-2 -4q-5 1 -6.5 -2.5t-7.5 -1.5q-7 -15 -29.5 -23t-26.5 -14h-3q-10 0 -18.5 -4t-17.5 -4l-13 2l-15 -1l-8 1q-4 5 -8 7t-9 7q-3 1 -8 1.5
t-7 3.5q-5 0 -4.5 5t-1.5 8q-5 2 -15 4q-2 9 -10 10q-14 4 -20 20q-9 39 -20 48q-2 14 -2 28t3.5 33.5t6.5 37.5q1 2 4 3.5t4 3.5v4q3 3 6.5 5t7 4.5t5.5 6t7.5 6.5t20 6.5t23.5 3.5t14.5 -3t10.5 -6t8 -2t5 -2q22 -9 26.5 -16t6.5 -8.5t1.5 -3t0.5 -2.5l4 -2q1 -2 3 -8.5
t6.5 -16.5t4.5 -19t-6 -14q-7 -2 -13.5 -3t-13.5 -3q-18 10 -18 23v1l-4 2q-3 14 -7 20t-5 14q-6 0 -7 6h-37q-18 0 -18 -7q0 -2 -2 -6q-11 -7 -11 -11.5t-5.5 -14.5t-5.5 -27t10 -32t13.5 -26t7.5 -12.5t5.5 -4.5t1.5 -4.5t2 -4.5t6 -6t7 -8h1q5 0 8.5 -2.5t10.5 -1.5
q4 -7 12 -9.5t15 -8.5q12 6 24 7t19.5 4.5t10 5.5t8 4t10.5 6t9.5 7t8 3.5t7 3.5t8 12t8 12.5t7 8t6 9.5t7.5 10q3 13 10 22.5t7 18.5l-2 20l2 22q0 8 -2 9q-7 1 -7 14.5t-5 19.5t-8.5 12.5t-7.5 18.5t-12 20q0 8 -9.5 31.5t-17.5 33t-8 20.5q-2 2 -7 6.5t-7 6.5
q-8 18 -24 34v9q-6 7 -10.5 15t-12.5 13l1 2l-4 13l-1 1l-4 2l-8 15q-2 3 -3.5 4t-2.5 3v5l-4 2q-23 42 -31 71.5t-8 40.5l2 9v19q-2 16 0.5 23t3.5 7.5t2.5 4.5t1.5 11t2.5 10.5t7 8.5t4.5 8t6 6v3q5 7 9 11t6 13q5 2 9.5 5.5t8.5 6t8 6.5t7.5 3.5t9.5 5.5l17 8
q10 8 13.5 11t17.5 3q25 0 35 -10q15 -8 29.5 -19.5t17.5 -13t2 -6.5z" />
    <glyph glyph-name="T" unicode="T" horiz-adv-x="535" 
d="M66 676q24 0 54 -2t53 4h14l6 1h6l15 1q7 1 15 -2q7 4 14.5 3.5t15.5 -0.5l26 6l27 -3q11 1 29.5 3.5t32.5 1.5t26 0l21 3q6 1 13 0q17 -1 37 4q5 5 5.5 13.5t3.5 14.5q17 39 32 39t15 -19q1 -8 -2 -15.5t-3 -15.5q2 -2 -2 -8.5t-3 -16.5t1.5 -21.5t5.5 -19.5
q0 -4 -9 -15.5t-12 -13t-4 -1.5t-3 -1q-14 -1 -21 13.5t-8 25.5q-1 1 -11.5 0t-16 3t-10.5 2q-8 0 -14 -4.5t-22 -5.5t-36 8l-15 -7l-14 1l-15 -3q-2 -9 1.5 -29.5t4.5 -32.5l-1 -22l3 -19l-1 -7l4 -30q2 -16 0.5 -29.5t-0.5 -16t2 -5.5l1 -14l2 -10l-1 -21q5 -24 3 -32
t-1 -14l3 -34l-1 -23l4 -32q1 -7 -0.5 -11.5t-1.5 -9.5l1 -28q1 -11 -0.5 -25.5t2 -35.5t4.5 -33l-2 -12q-1 -4 2 -19q0 -14 -4 -18q3 -15 3 -18l1 -32q0 -11 2 -21q2 -1 6 -1l26 9q11 0 12 -11.5t-4 -23.5l-10 1q-14 -1 -27.5 -5t-27.5 -7q-11 0 -20 4q-14 -9 -35 -11
l-28 2l-18 -4q-9 0 -9 9q0 3 2 12.5t4 9.5l5 -1q2 0 4 1.5t4 2.5l15 3q8 2 16 5.5t18 6.5q5 14 3 28.5t-3 29.5l2 20q-2 4 -2 6t1.5 3t1 4.5t-2 7t-2.5 12.5t-1.5 25t-2 34.5t3.5 31.5q-4 4 -4 10l2 25q-2 8 -2 14.5t2 10.5l-6 31v20l3 6l-5 13l2 15q-1 8 -2 15
q-3 23 -1.5 39t-0.5 29.5t-1 15.5q-2 2 -2 4.5t-1 4.5l2 28l-4 28v18l-1 6l1 4l-4 7l3 19q-1 8 -2 15q-3 23 0 33t-3 20h-5l-20 -6l-11 1l-16 -5q-13 0 -46 6q-8 -5 -17 -5h-16q-16 -3 -24 -9q-3 1 -7.5 1t-7.5 2q-5 -3 -9.5 -4.5t-9.5 -6.5q-5 -12 -6.5 -28t-10.5 -25l1 -1
q0 -11 -10 -12q-7 0 -11 5t-8 8q-2 11 -2 16l6 31q-2 3 -2 7l2 7l-4 21q-1 7 2 14.5t2 15.5q-2 15 4 37.5t19 22.5q3 1 5.5 0t6.5 -1q0 -5 2.5 -7t3.5 -6v-3q-3 0 -3 -3l4 -9q1 -2 -2.5 -4t-6.5 -5q4 -8 6 -15.5t7 -13.5z" />
    <glyph glyph-name="U" unicode="U" horiz-adv-x="561" 
d="M484 564l5 -32l-4 -25l2 -10l-3 -10l1 -10l-1 -9l3 -12l-2 -10q0 -2 1 -2t1 -2t-1 -2t-1 -2l4 -10l-2 -14l1 -18q0 -10 -3 -12q0 -2 1 -2t1 -4t-4.5 -11.5t-6.5 -13t-1 -10.5t-5 -9q2 -2 2 -8v-10q-5 -6 -8 -14q-12 -40 -20 -47q2 0 2 -3t-1.5 -5t-0.5 -7q-6 -11 -11 -14
l1 -7q0 -6 -4 -9.5t-3 -12.5q-5 -2 -10 -3q-10 -2 -10 -10q1 -5 -2 -8t-3 -5l1 -2q-9 -2 -12.5 -10t-14.5 -9q-6 -12 -16.5 -16t-19.5 -10h-2q-4 0 -6.5 -1.5t-7.5 -0.5q-11 -9 -28.5 -10t-30.5 -10l-15 4l-27 -5q-15 0 -29 11.5t-25 11.5q-18 19 -23.5 31.5t-8 14t-5.5 9.5
q-18 24 -19.5 38.5t-6.5 18.5v5q0 4 -2 17t-5.5 37.5t-7.5 33.5q2 4 2 8l-5 18l3 9q0 4 -3 8t-3 10l2 19l-4 18l2 4l-4 21v14l-4 18q2 0 2 3q-4 0 -4 17l-1 19q-1 8 -3.5 16.5t-4 19t-0.5 23t1 24.5l-4 24l2 11l-2 12l2 11l-2 15l2 13l-4 17l2 11q0 2 -1 2t-1 2l3 30
q0 12 -5 19q-7 0 -12 -4.5t-13.5 -4.5t-9 2.5t-5.5 2.5l-10 -1q-4 0 -5 1l6 27h4q5 -1 9 1t8.5 2t10.5 -3q6 5 14 6t13.5 2t12.5 2.5l14 3t13 3t8 1.5l11 -2l33 6q3 -5 7.5 -7t4.5 -10t-8.5 -12.5t-13.5 -9.5l-19 5q-8 -4 -18 -4q-3 -2 -2 -8.5t-4 -8.5q9 -18 9 -37.5
t-2 -29.5q7 -9 7 -15t-2 -13q5 -5 5 -15t1 -18.5t3 -16.5t2 -14.5t-1 -9.5q5 -8 6 -17.5t2 -17.5l3 -48q6 -24 6 -35l-2 -12l6 -28l-2 -7q0 -3 1.5 -6.5t2.5 -8t0.5 -8t-0.5 -7.5l4 -17l-2 -14q0 -4 1.5 -7t3 -9t1 -12.5t-0.5 -15t5 -13.5v-7q0 -10 4 -22t3 -18t3 -14.5
t7 -18.5t5.5 -24t7.5 -23t8.5 -12t3.5 -8q10 -2 15 -9.5t27 -7.5t44 8q3 -1 19 -1t40 19q2 2 3.5 5.5t6.5 2.5q7 16 20 22q9 14 19 31t10 14q4 5 3.5 15t8.5 16q0 11 4 17.5t2 17.5q7 10 7.5 25t7.5 24l-4 19l4 16l-4 31l4 18l-2 15l4 49l-2 18l4 11q0 22 -6 24q2 3 2 9
l-2 19l4 12l-2 13l1 106q0 16 -9 20t-20 5.5t-20 5t-9 15.5t6 21q6 2 12 1.5t14 -0.5t15 4t15 4t13 -3.5t12 -7.5q3 2 17 2t38 9q3 -4 4.5 -7t6.5 -4v-6q0 -27 -29 -39q-13 -4 -17.5 -11t-9.5 -10q-2 -4 -2 -7l3 -25l-4 -17l3 -16l-2 -12l5 -22l-3 -18l1 -13l-1 -6v-14z" />
    <glyph glyph-name="V" unicode="V" horiz-adv-x="533" 
d="M557 774l12 4q2 0 4 -2q14 -4 14 -20q0 -4 -2 -11q-14 -6 -45.5 -7.5t-43.5 -10.5q1 -2 1 -13t-7 -16.5t-10 -12.5t-3 -10t-2.5 -4.5t-3.5 -3.5t-6 -4q-2 -17 -10.5 -31t-10.5 -31q-12 -9 -13.5 -23.5t-4 -16t-5.5 -5.5q-2 -9 -3 -19.5t-3.5 -17t-4.5 -9.5t-4 -6.5
t-1.5 -7.5t-4.5 -7l1 -12l-1 -3l-5 -4q-2 -5 -1.5 -16t-1.5 -17t-6.5 -9.5t-7.5 -8.5q1 -2 1 -5l-4 -21q0 -4 1 -6q-5 -4 -6 -11t-7 -10q-4 -18 -4 -28.5t2 -19.5q-6 -4 -8 -9t-7 -8q-1 -5 -2 -11q-1 -11 -7 -26q-5 -17 -8 -20q1 -2 1 -8.5t-4.5 -14t-2.5 -15.5l-27 -44v-9
q0 -2 -4.5 -12t-7.5 -22.5t-5 -25.5l-4 -26t-3 -22q-9 -6 -21 -6h-1l-2 4h-3q-6 5 -6.5 18.5t-5.5 20.5l-4 2q-4 8 -5 17t-3 17l-6 21q-1 3 -2 5t-2.5 7.5t-1.5 12.5t-2 15l-6 24q-1 5 -4 9q-8 9 -8.5 22.5t-4.5 27.5q-8 22 -7.5 26t-2 6.5t-2.5 4.5q-2 2 -1 7.5t-1 5.5
t-2 2t1 2t1 2l-4 14q0 2 2 4q-12 17 -23 63q-3 4 -3 8.5t-2 9.5l-6 15q-2 8 -3.5 17t-6.5 17l1 6q0 14 -8 24q-2 21 -11.5 40t-13 32t-6.5 15.5t-5 6.5v13q-2 4 -3.5 8t-3.5 9q-1 16 -6 27.5t-11 26.5q-7 5 -15.5 4t-13.5 4v5q0 5 1.5 8.5t2.5 7.5q5 4 11.5 5t12 2t9.5 4.5
t7 4.5t8.5 2t11.5 1.5l12 1t8 0.5q10 0 16 -16v-1q0 -6 -3.5 -9t-5.5 -5.5t-2 -5.5t-2 -5t-4 -1.5t-2 -1.5l15 -55q14 -17 12 -30q8 -2 7 -7.5t2 -11.5l4 -3q2 -5 3 -11t6 -10q1 -7 1.5 -15.5t6.5 -12.5q3 -11 5 -21t5 -18.5t6 -14.5t5 -11.5t1.5 -9.5t1 -7.5t3 -6t3 -6
t1 -7.5t1.5 -8.5t7.5 -16t4.5 -16t0.5 -8t3.5 -7t3 -7t0.5 -7.5t1 -8.5t3 -7.5t3 -8.5t3 -13.5t3.5 -16l12 -45q2 -8 3.5 -15.5t4 -14t4 -12t3.5 -11.5l-2 -2q0 -2 3 -2t3 -9t6.5 -9t11.5 5q9 10 9 18.5t6 15.5t6 15l-2 7v2q6 6 6 11.5t4 7.5v5l2 23q0 4 3.5 3t3.5 3t3 17
t6 13h2q-4 12 -4 13l3 17q0 3 -1 4q5 2 5.5 8t2.5 11l4 2v4q0 10 6.5 23.5t4.5 24.5q4 3 6 7.5t5 8.5v6q0 16 6.5 28t4.5 29q6 9 9.5 21t6.5 18t2.5 9t3 8t6 13t3 16t11.5 26t17 49q7 4 10 21q5 4 13.5 17t8.5 20.5t-8 11t-18.5 5.5t-18.5 6.5t-8 14t3 12t5 7.5l41 1h10
q11 0 25 -7q10 -2 20.5 -1.5t21.5 -0.5z" />
    <glyph glyph-name="W" unicode="W" horiz-adv-x="767" 
d="M138 638l8 -26q0 -6 -1 -9q5 -5 5.5 -12.5t5.5 -12.5q1 -13 3.5 -25.5t4 -23.5t4.5 -19q7 -16 7 -30v-12l-1 -6l3 -13q4 -14 5.5 -31.5t9.5 -28.5v-15q8 -12 9.5 -27.5t9.5 -28.5q-1 -3 -1 -12t3.5 -18.5t5.5 -18.5t3 -18t9 -11q7 1 11 13.5t12 15.5l-1 5q0 8 5.5 13
t3.5 16l11 9q-1 5 1 11t0 11q9 13 8 20.5t1 16t4 11t3.5 7t1.5 16.5t7 14l-1 9q0 10 3.5 19.5t5.5 16t1 10t1 7t4 5t3.5 5t0.5 8t0.5 9t4 8t2.5 8t-2 8.5q2 6 2 12v10q0 13 9.5 30t10.5 29t7 16q2 11 3 23t5 22q7 5 14 5t12 -5.5t9 -14.5t6 -17.5t7 -23.5t5 -35l6 -31
q0 -5 -4 -13q5 -2 5.5 -7t2.5 -9.5t4 -7.5t3.5 -9.5t1.5 -16t2 -16t4.5 -9.5t4.5 -7.5t2 -9t2 -9.5l5 -15q2 -5 5 -9t3 -14v-1l8 -21q0 -4 2 -8l3 -2q3 -7 4 -14t3 -14q4 -6 6 -14q9 -32 17 -39l-1 -3l7 -22q0 -10 3 -12q7 -3 7 -14t2 -15t3.5 -6t3 -6t3 -15.5t10.5 -11.5
q6 0 6.5 4.5t0.5 10.5v4q0 5 3 5.5t5 3.5v5q0 3 6 18q-1 4 -1 9.5t3 11t5 12.5t1.5 16.5t5.5 16.5v1q0 7 -4 8q8 7 9 19t2.5 19t5 10t3.5 8l-3 11v1q0 1 0.5 1t2.5 2.5t2.5 9.5t6.5 10q-5 14 -5 29.5t7 23.5v16q3 2 5.5 8.5t7.5 10.5v2l-1 7q0 1 1 2q0 5 4.5 5.5t6.5 3.5v4
q0 10 4 19q11 25 11 61l6 12l-1 9q0 9 3 17.5t1 17.5q5 6 7 20t4.5 16.5t4.5 6.5l-1 4q0 14 5 25t5 23v3q-8 9 -23 6.5t-24 1.5q-2 6 -2 14.5t8 16.5q21 0 45 9h1l26 -2q23 0 48 -9q6 2 12 2t13.5 -2t15.5 0q2 -5 6 -9.5t4 -10.5q0 -13 -10 -11q-4 -9 -14 -8h-3
q0 2 -2.5 1.5t-8.5 -0.5t-11 5q-17 -6 -36 -4q-10 -6 -13.5 -19t-6.5 -21t-4.5 -11.5t-1.5 -8.5l1 -7q-8 -5 -8 -14.5t-2 -15.5t-6 -8.5t-4 -9.5l2 -10q0 -8 -3 -10.5t-3 -6t4 -3.5l-2 -7l4 -18q0 -12 -9 -21q-2 -16 -6.5 -31.5t-5.5 -33.5q-9 -5 -12 -14t-8 -17l-1 -8
q0 -5 1 -6l-14 -23q1 -1 4 -14l-2 -3l4 -7q-3 -12 -3 -22t-4 -15.5t-6 -11.5q0 -12 -5.5 -23.5t-5.5 -23.5l3 -13q0 -1 -2.5 -5t-7 -14t-6.5 -10l1 -7q0 -8 -3 -16t-4.5 -16t-0.5 -14q1 -20 -11 -54q4 -10 4 -15t-3.5 -18t-5.5 -17l4 -13q0 -4 -6 -10q2 -6 2 -13.5t-5 -17
t-2 -18.5q-2 0 -2 -4h-4v-2l1 -10q0 -7 -8 -7t-11.5 -1t-7.5 -2.5t-8.5 -1.5t-8.5 4q-7 10 -11 32q-4 12 -6.5 23.5t-4 13.5t-1.5 3v10q0 5 -4 11.5t-3.5 12t-1 13.5t-5.5 18.5t-10 38t-14 38.5q1 2 1 5t-1 5.5t-2 5.5q-4 3 -3 5.5t1 4.5t-3.5 8.5t-5.5 8.5q-3 15 -10.5 35
t-7.5 42q-1 2 -5.5 9.5t-6.5 11.5l-2 13q-4 16 -11 28v6q0 20 -9.5 38.5t-11.5 38.5l1 14q0 9 -3 11t-5.5 8.5t-2.5 15.5t-5 17q-10 -2 -10 -10q0 -2 4 -18q-5 -5 -5 -12t-3 -9.5t-3 -4.5l3 -10q-5 -5 -5.5 -11.5t-6.5 -11.5q4 -4 4 -9.5t-4 -11.5t-2 -16q-2 -3 -3 -6.5
t-5 -5.5q2 -4 2 -9l-9 -26q0 -6 2 -10q-9 -18 -13.5 -38t-4.5 -22.5t-1 -6t-4 -9t-5 -10.5t-2 -10t-2 -8t-4.5 -5t-2.5 -4v-2q0 -1 1 -1q-4 -2 -5 -4t-6 0l-5 -25q0 -3 3 -9q-6 -6 -8 -14t-9 -14q2 -8 2 -24t-11 -31q2 -4 2 -9t-4 -9.5t-2 -14.5q-3 -3 -5 -7.5t-7 -6.5
q2 -2 2 -4.5t-2 -8.5q-5 -4 -9.5 -9.5t-10.5 -5.5h-2q-5 2 -11 11.5t-5.5 13.5t0.5 10.5t-10 26.5q4 9 4 21.5t-5.5 29t-5.5 30.5q2 4 2 7.5t-2.5 11t-4 15t-2.5 17t-2.5 17t-3.5 12t-2 8.5t1 6q-5 5 -7.5 20.5t-4.5 24t-3.5 13t-3.5 8t-3.5 9t-1.5 12.5t-1.5 12.5t-3.5 9
t-3 10t-0.5 16t-0.5 19.5q-2 1 -2 3t1 2t1 2q-5 8 -4.5 11t0.5 9.5t-4 18t-3.5 20.5t-6.5 17v5q0 35 -16 61q-3 6 -2.5 9.5t0.5 8t-1.5 5.5t-3 7.5t-1 15.5t-5.5 19q-3 1 -11 1t-19 -6q-13 7 -27 5q-2 6 -2 9.5t2 9.5q9 7 21.5 8.5t20.5 4.5t12.5 2t9.5 0.5t9.5 3t10 3.5
t11.5 0.5t12 1.5q12 2 19.5 6.5t18.5 1.5q5 5 9.5 5t10.5 3q4 -4 9.5 -8.5t5.5 -12t-6.5 -8.5t-13.5 -3q-7 -6 -15.5 -9t-14 -6.5t-8 -3t-6.5 0.5t-5 -3v-6q0 -15 9 -18q-1 -2 -1 -7z" />
    <glyph glyph-name="X" unicode="X" horiz-adv-x="591" 
d="M586 102l3 1q3 0 3.5 -3t3.5 -5t9.5 -12.5t6.5 -13.5l-3 -12l3 -12l-6 -21q0 -5 1 -7q-6 -11 -11 -14l1 -3q0 -3 -2 -4.5t-4 -4t-2.5 -5.5t-5 -8.5t-16.5 -7t-20 -6.5h-2l-6 3q-18 -9 -31 -9t-21 8h-4l-27 3q-18 20 -33 23q-2 5 -5.5 8.5t-4.5 8.5q-3 0 -11 5.5t-10 8.5
l1 4q-2 2 -4 2.5t-4 2t-6 7t-15 18.5t-9 15t-1 5.5t-2.5 6t0.5 6t-1 4.5q-5 2 -4 4t-2 9t-8 10.5t-7.5 14t-11.5 16.5v3q0 2 -1.5 2.5t-4 4t-4 11t-4 11.5t-5.5 6.5t-3 4.5l1 7v1q-4 4 -9.5 14.5t-6.5 15.5q-8 9 -11.5 21t-15.5 12q-5 0 -5 -5.5t-4 -7.5q-5 -7 -10 -15.5
t-13 -11.5q-1 -11 -6.5 -16t-6.5 -17q-6 -5 -9 -13t-11 -12l-4 -13q-5 -6 -8.5 -10.5t-8.5 -8.5v-2q1 -7 -3 -11t-3 -11q-6 -6 -13.5 -10.5t-7.5 -13.5q-6 -6 -5.5 -10t-3 -9.5t-10 -8t-6.5 -9.5t2.5 -8t7.5 -2.5t4 -6.5q1 -1 3 -1l6 2q2 0 3 -1q1 -4 3 -8t3 -9
q-2 -3 -6.5 -3t-6.5 -5q-2 -2 -5.5 -3.5t-6.5 -3.5l-10 5q-5 0 -5.5 -2.5t-6.5 -2.5l-7 3l-8 -3l-10 5l-56 -6q-6 -2 -8 -2l-8 1q-3 6 -3 17.5t5.5 13t15 1.5t13.5 5t8.5 6.5t10.5 1.5q12 0 16 17q4 10 16 19q2 4 4 9q5 16 22 38l1 4q2 1 4 1t4 2q5 19 23 37v2q0 15 56 94
q3 4 6.5 6t5.5 5.5t2.5 7t4 9.5t8.5 13t5 16.5t-5.5 14.5t-9.5 11q0 19 -14 33q-4 34 -9.5 34.5t-7.5 2.5q-2 11 -6 16.5t-4 14.5t-7 16q-5 9 -7 20t-4.5 17t-1.5 8q1 4 -6.5 11t-7.5 14q2 20 -10 28q-2 3 -1.5 6.5t-1 6t-3 3t-0.5 2.5q2 0 2 2.5t-4.5 7t-9 12.5t-4.5 17
t2 15q-2 5 -5 7.5t-5 6.5q-1 8 -0.5 17t-1.5 16t-3.5 7t-1.5 7t-12 31q-5 5 -12 5l-27 -3q-12 -9 -23.5 -9t-17.5 3q-1 2 -1 10t4 12.5t10 6t10.5 2t6.5 5.5q7 1 13.5 0.5t15.5 1.5t11.5 4t11.5 2t12 2t9.5 3t13.5 0t22 3q11 5 28 5t27 -4q3 -3 3 -13t-8 -18
q-10 -3 -22.5 -3t-21.5 -6q-2 -10 -2 -17t4.5 -15t7.5 -16t4 -14.5t4.5 -18t10.5 -21t6 -28.5q29 -50 35.5 -72t8.5 -26.5t3 -5t3 -4.5t3 -11q0 -9 4 -15.5t3.5 -8t0.5 -3.5l4 -2q1 -2 0.5 -4.5t-0.5 -6.5t2 -4.5t5.5 -8t8 -20t12.5 -23.5q13 0 16.5 11t6 15t5 6t6 7.5
t7.5 15.5t12 15q2 3 3 6.5t3 6.5l4 2q4 8 6.5 16.5t7.5 15.5q4 7 7.5 9t7.5 5t7 24q10 8 14 20.5t9 19t8.5 8.5t5.5 4.5t2 4t1.5 5.5t5.5 8.5t4 11.5q8 4 16 20t8 17q4 2 6.5 5t7.5 5q1 5 5 13q10 7 19 22t9 19t-4.5 5t-4.5 5q-4 0 -16 -6q-7 2 -20.5 5t-13.5 13t4.5 13
t11.5 9h2l12 -2l12 3q2 0 5 -1t6.5 -2t6.5 0t6 1l66 -7h13q5 0 11 2q4 -5 3.5 -14t1.5 -15q-6 -5 -10 -8.5t-14 -2.5q-2 -2 -8.5 -6t-8.5 -4l-8 3q-3 0 -12.5 -6t-10.5 -11.5t-2 -8.5l-4 -3v-4q0 -6 -7.5 -7.5t-7.5 -11.5q0 -2 -19 -21l-4 -13q-8 -5 -13 -20.5t-14 -18.5
q0 -11 -12 -16q-5 -21 -13.5 -31.5t-11.5 -9.5q-3 -10 -16 -33.5t-13 -31.5q-4 -2 -6 -6t-6 -6q-4 -20 -11 -22.5t-7 -13.5q-10 -7 -14 -16.5t-9.5 -17t-4.5 -12.5v-3q-4 -2 -13 -4q-2 -6 -3.5 -13.5t-6.5 -12.5q1 -1 1 -3l-3 -12q0 -7 5.5 -18t9 -14t5.5 -7.5t3 -10t2.5 -9
t3 -5.5t3.5 -7t4 -12t6 -15l10 -14l14 -27q1 -2 0.5 -3.5t4.5 -5.5q4 -8 7 -17.5t11 -14.5q1 -10 6 -17.5t6.5 -12.5t1 -7t0.5 -4l7 -12q1 -2 0.5 -3.5t4 -14.5t21.5 -28q1 -4 4.5 -6.5t3.5 -7.5q4 -2 14 -10.5t10 -13.5h2l10 -3q5 -11 12.5 -12t16.5 -1l5 -2q18 0 31 5.5
t16 8.5q3 13 8 20t5 13l-2 19q-6 2 -10 6.5t-10 4.5l-15 -4q-7 2 -13 7t-13 7q-2 2 -2 3.5t1 2.5t3 5.5t5.5 8t8.5 5.5t9.5 3t7.5 4q31 0 31.5 -5t4.5 -7z" />
    <glyph glyph-name="Y" unicode="Y" horiz-adv-x="566" 
d="M250 477l6 -18q8 -1 14 -11t11 -15q15 4 20.5 18t11 22t9.5 14t12 17.5t16 31t19 37.5l5 2q2 5 3.5 9t4.5 9l11 16q10 10 12 21.5t4 15t5 2.5q3 0 3 8l4 2q9 15 17 29t18 28q3 2 4.5 2.5t3 2.5t1.5 3.5t2 5t6 8.5t5.5 9.5t1.5 6t3 5.5t13 9.5t10 15t-6.5 12t-11.5 4
t-6.5 3t-5 2.5t-8 0t-11.5 -1q-11 0 -11 14t5 21q11 3 20 3t13 -2.5t11.5 -5t15 -1.5t40 -4.5t52.5 -14.5q2 -2 1.5 -5t3.5 -2q11 -5 13 -10q-2 -5 -2.5 -9.5t-2.5 -8.5q-3 -1 -8 -1l-37 6q-14 0 -30 -5q-3 -3 -3 -9.5t-3.5 -10.5t-7.5 -11.5t-11 -9.5l-1 -3l2 -9
q-15 -6 -23 -34q-6 -2 -10 -6q-2 -7 -5.5 -12.5t-6 -12t-4.5 -13t-7 -10.5l-2 -13q-7 -4 -9.5 -11t-8.5 -12v-2q1 -4 -1 -7.5t-2 -7.5q-8 -9 -11 -18t-9 -18q-18 -15 -21.5 -32.5t-11.5 -23.5q0 -8 -9 -17q-1 -3 -5.5 -9.5t-12.5 -19.5t-12 -16q-5 -17 -14.5 -29.5
t-17.5 -26.5v-3q0 -2 -3.5 -37t-3.5 -135l1 -12l-7 -83l3 -14l-3 -11l2 -18l-2 -8l2 -14l-2 -33q0 -7 1 -10q3 -3 7 -3t10 3q5 -3 13.5 -3t14.5 -1q7 -8 10 -21q-2 -7 -8 -9t-11 -7q-5 1 -6.5 4t-5.5 5q-2 -1 -7 -1l-25 3q-9 -7 -24 -7l-35 3q-15 0 -23 -8h-6l-28 -2
q-13 0 -22 8v2l5 20q2 2 6 2t6 3v4q8 3 17 2t23 4l7 -1l11 4q3 0 4 -1q5 10 5 18l-3 16q4 12 3.5 16t-0.5 12t4 15q-7 10 -7 43l5 22l-1 24l4 20l-3 16l6 21l-3 30l6 31l-5 33q0 12 4 22t4 18.5t-5 18t-12 11.5l1 2q0 4 -2.5 6t-4 5t-1 5t-1 4t-2.5 2.5t-4 4t-6 10t-6 12.5
q-12 9 -18.5 21t-15.5 21q-2 13 -8 23.5t-10.5 31t-20 46t-19 42t-6.5 16.5t-3 11q-2 4 -4 6.5t-1 8.5q-11 12 -22 43q0 7 -3.5 8.5t-5.5 4t-2 5.5t-1 5.5t-2.5 4t-1.5 3.5l1 3q-10 5 -22.5 7.5t-21.5 10.5q-2 8 -2 12.5t2 12.5q5 2 27 8q0 -2 2 -2l21 10l7 -1l28 1l29 5
q8 0 9 -4t6 -6q0 -18 -9.5 -23t-23.5 -9q3 -13 13 -33q0 -4 1 -6l4 -2q5 -10 8 -20q7 -21 14 -30q8 -7 11 -23l4 -2l-1 -4q0 -10 14 -29.5t16 -25t2 -11t7.5 -30t19 -41t17.5 -29.5z" />
    <glyph glyph-name="Z" unicode="Z" horiz-adv-x="507" 
d="M130 665l-30 -13h-13q-4 0 -4.5 -5t-6.5 -4q-6 -9 -7 -10q2 -8 2 -17.5t-1.5 -18.5t-2.5 -19q-7 -3 -9 -10t-9 -10q-5 2 -8.5 1t-9.5 -1h-4q-7 8 -7 21l6 28l-2 22q0 8 3.5 14.5t3.5 25.5t4.5 28.5t4.5 18.5q1 1 5.5 1t9.5 5q8 -1 11.5 -7t10.5 -9.5t13 -2t12 -4.5
q54 9 125 9l24 2q5 0 13 -2q2 2 4.5 2t0.5 4q9 -5 24 -5l42 3l20 -2q5 0 11 2q18 4 43 4l6 -2l26 6q11 0 26 -2.5t17 -3.5q5 -12 5 -22.5t-10.5 -13t-22.5 -4.5q-6 -14 -16.5 -23.5t-16.5 -26.5v-2q0 -5 -4 -6.5t-8 -7t-7 -16t-12 -18.5v-16q-5 -1 -7.5 -5t-6.5 -6
q-3 -26 -18 -40l1 -3q0 -5 -3.5 -7t-3.5 -7.5t-3.5 -9t-3 -7t-1.5 -7t-4.5 -6.5t-4.5 -6.5t-1.5 -7t-1.5 -7t-5 -5.5t-5 -5t-2.5 -5.5t-3 -4.5t-3.5 -2.5t0 -5t15 -4.5t28 4l4 -8t7 -4q-1 -2 -1 -5l2 -10q0 -7 -7.5 -12.5t-14.5 -5.5l-9 4l-15 -2h-15q-11 0 -12.5 -6.5
t-5.5 -10t-5.5 -3.5t-4.5 -6t-6 -17.5t-5.5 -19t-4 -12.5t-8 -12t-13.5 -22.5t-9 -24t-4.5 -13.5t-6.5 -7q-9 -7 -6 -12q0 -1 -5 -9t-7.5 -15t-10.5 -9v-3q0 -15 -16 -33v-2q0 -11 -7 -16.5t-6 -18.5q-9 -6 -15 -14q-3 -18 -12 -32.5t-9 -16.5q0 -7 5 -7l12 2l6 -2
q2 0 3.5 2t9.5 2l36 3q1 3 4 3l7 -3l9 4l15 -2q2 0 4 1.5t5 2.5t5.5 0.5t4.5 -0.5l31 7q7 0 10 -1q13 10 39.5 10t35.5 2t17.5 3t17 1.5t14.5 9.5v4l2 15q1 8 1 16.5t5 15.5q5 2 9 2t8 2q4 -6 8 -11t4 -14l-4 -25l2 -19l-4 -22l4 -29q-5 -5 -8 -12.5t-10.5 -7.5t-9.5 7
t-7 11v20q0 4 -4.5 4t-5.5 4q-11 -1 -20.5 -4.5t-21.5 -3.5l-23 2q-17 0 -26 -9h-2l-9 2q-8 -5 -18 -6.5t-18 -6.5q-3 2 -9.5 1t-9.5 2q-10 -5 -15 -5t-7 2q-5 -2 -8 -4.5t-10 -2.5l-23 3q-12 0 -25 -4.5t-24 -1.5q-5 -2 -10.5 -5t-10.5 -3l-12 2l-34 -6q-4 0 -10 2
q-2 8 -2 14.5t4.5 15t8.5 15t9 17l15 31.5t18 29v2q-1 8 5.5 14.5t8.5 12.5t1 9.5t1 7.5l8 9q2 5 3 10t5 10.5t7.5 11.5l7 12t5 10t4.5 9.5t7 12t5.5 11t1 7.5t1.5 7.5t5.5 10t6 11l5 11t7.5 9.5q1 21 9 37t10 36q-5 7 -14.5 7.5t-15.5 6.5l-5 -1q-7 0 -18 9v13q0 12 4 16
q7 3 16 3t11.5 -3t8 -5t9.5 -1.5t7.5 -0.5t6.5 -2t8.5 -1t10 5t8.5 11.5t7.5 14t8.5 11.5q1 10 21.5 46t23.5 58q12 14 18 30q9 8 17 25t22 30t16 25q-5 4 -15 4l-17 -4q-2 0 -4 4q-2 1 -9.5 -1.5t-12.5 -2.5h-1q-1 2 -5 2l-24 -6l-12 2q-1 -1 -11 -1l-33 -4q-9 0 -15 4
q-17 -6 -32.5 -6t-28.5 6q-8 -3 -18.5 -2.5t-18.5 -3t-10.5 -3t-5.5 0.5z" />
    <glyph glyph-name="bracketleft" unicode="[" horiz-adv-x="297" 
d="M198 -5l41 3q8 0 16 2l16 4q3 -6 11.5 -9t8.5 -9q0 -11 -16 -18q-15 -8 -23 -8l-19 2l-9 -2l-7 2l-13 -4l-16 1l-21 -6l-6 2l-17 -5q-2 0 -8 4q-11 4 -10 26q1 7 -2.5 25t-3.5 29l2 19l-4 16l2 17l-2 26q0 2 2 6l-8 55q-1 2 -2.5 3.5t-3 8t-1.5 20.5t-5 24l2 5q0 4 -4 9
t-4 22l2 11q0 7 -3 15q-9 24 -9 51l2 10l-6 44q0 13 4 21q-6 15 -9 17v7l-7 102q0 11 5 23q-2 4 -2 9v10l-2 61l2 23l-5 17q0 10 3.5 20t5 18t1 14.5t1.5 14.5l23 16q8 -3 14.5 -7.5t14.5 -6.5q10 4 21 4.5t21 5.5q3 -2 6.5 -2t6.5 -2q15 4 29 3t29 3q13 -13 14.5 -13
t1.5 -1l-3 -7v-1l4 -5q0 -1 -2 -1q-2 -10 -20 -11.5t-23 -2.5q-8 8 -13 8t-4.5 -3t-4.5 -1q-8 -2 -16.5 -1t-16.5 1l-12 -2l-11 2l-8 -3l-2 1q-5 -5 -5 -16l1 -20l-4 -22l2 -11l-2 -10l4 -21l-2 -16l4 -19l-2 -19l4 -15v-17l3 -24l-2 -8l7 -40q0 -4 -3 -5q5 -4 5 -12.5
t5 -13.5l-4 -16q0 -14 10 -31q-2 -6 -2 -8l5 -27q0 -5 -3 -8q8 -19 8 -29.5t2.5 -13.5t1 -5.5t-1.5 -20t3.5 -26t3.5 -11.5l-3 -9l10 -17q-1 -4 -1 -12l4 -24l4 -13q2 -8 1 -16t-1 -16l2 -19l-5 -32l2 -11l-2 -11l3 -13l-3 -17l1 -9q0 -5 -3 -6q4 -3 4 -7.5t2.5 -7t4.5 -2
t4 -0.5l4 -4z" />
    <glyph glyph-name="backslash" unicode="\" horiz-adv-x="343" 
d="M260 205v-6q2 -3 8 -11t9.5 -14.5t10 -17t10 -26.5t6.5 -26q-4 -11 -16 -14t-22 -5q0 5 -11 12q-2 2 -1 5q1 11 -31 52v2q0 3 -1.5 5t-0.5 7q-8 6 -12.5 18.5t-4.5 17.5q0 13 -21 46q-6 14 -11.5 29.5t-11.5 23t-4 14.5q-2 4 -2.5 8t-4.5 11.5t-7.5 9.5t-3.5 11.5
t-3 18.5t-6 18.5t-15.5 44.5t-12.5 39q0 14 -8 18q-5 4 -8 17q-6 37 -24 55v6q0 3 2 3q-8 13 -13.5 24.5t-5.5 29.5v5q9 7 19 7t17.5 -8t6.5 -20q3 -2 5 -5.5t5 -5.5q2 -13 13 -30.5t13.5 -28.5t5.5 -18t7 -11.5t4 -8.5t2 -7l4 -2q2 -5 2.5 -11.5t6.5 -10.5v-4q0 -29 11 -39
v-2l1 -8q0 -2 -1 -4q22 -37 25 -71q5 -2 5.5 -7.5t5.5 -7.5v-3q0 -11 5.5 -18.5t9 -15t6.5 -14t9 -9.5q0 -11 5.5 -19t8.5 -15.5t4 -12.5t3 -9t2.5 -3t0.5 -6z" />
    <glyph glyph-name="bracketright" unicode="]" horiz-adv-x="239" 
d="M109 529l10 133q0 16 -2 24q-3 3 -9.5 2t-7.5 4q-21 -6 -27 -6l-19 4q-16 0 -20 3t-4 12q0 24 78 21q17 0 30.5 1t22.5 -11q1 -2 1 -5l-5 -17l4 -48l-1 -11l2 -6l-4 -12l1 -6l-1 -45q-2 -26 -2 -54l-3 -28l2 -27v-2l-4 -6v-2l3 -22q-3 -2 -3 -6l1 -44l4 -9l-3 -12l5 -31
l-1 -22l2 -11l-3 -10l3 -21q0 -8 -4 -13q3 -12 3 -22l-1 -27l-3 -22l4 -21l-2 -24l2 -6l-2 -8l3 -18l-3 -23l2 -15l-3 -11l2 -10l-2 -37l3 -30q0 -8 -2.5 -16.5t-0.5 -16.5q-4 -6 -10 -9.5t-9 -9.5q-8 -2 -15.5 -2t-15.5 -1l-22 -5l-19 1l-22 -4l-5 1q-6 12 -6 16
q0 16 19 14h17q6 2 9 2l4 -2q4 0 4 1.5t2 2.5l6 -1q4 0 5.5 4t5.5 4l1 14l-2 13l2 5l-4 7l3 32l-3 31l2 47l-2 41l4 40l-3 45q0 14 1.5 26t2.5 21.5t2 14t1 11t-2 16t-3 21t-1 25.5v30q0 55 2.5 70t2.5 20l-1 16l4 17z" />
    <glyph glyph-name="asciicircum" unicode="^" horiz-adv-x="369" 
d="M39 301v6q0 4 1.5 7t3.5 12.5t8 17.5l14 48q3 10 5 20.5t5 16.5t4 9q5 7 5 14.5t5.5 19.5t6.5 22.5t3 17.5t3.5 10t3.5 7.5t1.5 8t1 8t4.5 7.5t5 7.5t1 8.5t1.5 10.5t5.5 10.5l3 14l10 26t8 23.5t3 16.5t5 11q0 37 16 37q9 0 17.5 -9t11.5 -15t3 -10t1 -8q2 -8 15.5 -47
t18 -44t8 -24t8 -25.5t4 -8.5t-0.5 -6.5t8 -20.5l4 -4q2 -6 1 -12t0.5 -12t4.5 -12q6 -14 6 -24t7 -25t7.5 -24.5t3 -16t8 -16t7.5 -16.5t1 -14.5t-1 -14.5t2 -10q-8 -19 -31 -19q-5 0 -14 2q-1 3 -4.5 5.5t-3.5 3.5t2 3l-4 7l2 6q0 5 -8 23.5t-13 34.5q-1 11 -5 21.5
t-4 23.5q-2 4 -4 7.5t-3.5 9t-2.5 13t-3.5 16t-3.5 20t-5.5 20t-7.5 16.5l-5 16q-3 9 -6 16.5t-4 12.5q-5 6 -8 13.5t-13 7.5t-10 -9v-6t-3 -4q-5 -14 -9 -29t-12 -28v-2l-2 -22q-6 -5 -7.5 -17t-7.5 -17v-4q1 -5 0 -8.5t-2 -8.5q-3 -3 -5 -7t-7 -6q2 -9 2 -14v-4
q-2 -2 -4 -8t-4.5 -12.5t-7.5 -21.5l-2 -17q-2 -10 -6 -20t-7 -19q-4 -3 -4 -9v-12q-7 -3 -11 -9t-11 -8q-2 2 -6 2q-11 0 -11 20.5t7 20.5q1 0 1 2z" />
    <glyph glyph-name="underscore" unicode="_" horiz-adv-x="474" 
d="M368 37l50 1q21 -2 30 -16q-1 -7 -4.5 -9t-7.5 -6v-1q1 -6 -3 -7t-6 -5h-10q-18 0 -22 5t-13 5l-36 -8l-24 4l-16 -2l-19 2l-23 -2q-9 0 -14 4q-7 -1 -11 -4.5t-9 -5.5q-20 4 -22 4l-10 -2l-8 4l-16 -2l-32 4h-16l-19 -4q-5 0 -9.5 1.5t-13 3t-24.5 2t-27 6.5l-3 19
q0 12 13 10q6 -1 12 -1l5 2q8 0 16 -1q32 -7 72 -7l13 -2l21 6l22 -4l25 2l17 -4l6 2l5 -2l25 6q6 0 7 -2l21 2q36 2 58 2z" />
    <glyph glyph-name="grave" unicode="`" horiz-adv-x="206" 
d="M76.5 815.5q18.5 -12.5 22.5 -20.5q10 -7 19 -14t14 -18q14 0 51 -37q0 -4 2 -4q-4 -8 -6 -20.5t-13 -15.5q-1 -1 -2.5 -1t-7.5 6t-9.5 9t-4.5 6q-11 3 -18 11.5t-19 10.5q-2 4 -5 6t-3 7h-12q-1 8 -5.5 9t-7 3t-1.5 3q2 4 -6 6t-9.5 6.5t-3.5 6.5q-14 2 -20 12t-12 21
q3 2 2.5 3t4.5 3q1 2 3 8t15 6t31.5 -12.5z" />
    <glyph glyph-name="a" unicode="a" horiz-adv-x="389" 
d="M88 262l32 6q8 0 10.5 1.5t21.5 6.5t36 5h24q12 0 18 -3.5t11 -3.5t17 9q1 4 1 8v9q0 25 -3.5 44.5t-2 42.5t-3 28.5t-6.5 9t-1 7.5t-2.5 9.5t-3 8t-1 4.5t-3 2.5t-3 2.5t-1 3t-1 4t-5 5.5t-4.5 7.5q-13 6 -22 20q-5 1 -10.5 0.5t-10 1t-7.5 3t-7 1.5l-23 -6q-1 0 -7 2
q-5 -1 -5 -6.5t-2 -8.5q-9 0 -9 -7q-5 0 -7 -3t-8 -1l-8 -14t-11 -11q-3 -16 -3 -30t6 -20t6 -12.5t-5 -16t-12 -9.5t-9.5 4t-4 9t-2.5 10.5t-7 11.5q3 0 3 5t-3 9t-3 22t8 23q-1 0 -1 2l2 9q-1 0 -1 2l4 6l-1 2q1 4 4.5 3.5t5.5 2t9 16.5q7 2 9.5 6.5t7.5 8.5q8 3 11 7.5
t7.5 6.5t10 3t7.5 7l3 -1q5 0 7 3.5t11.5 3.5t10.5 2t8 2t21.5 -7t17.5 -7h3q7 -8 19 -10q14 -11 27.5 -20.5t21.5 -24.5q2 -2 1.5 -3t2.5 -4.5t6 -8.5t6 -8.5t3.5 -3t0.5 -7.5l1 -1l3 -2q6 -15 10 -46t4 -35.5t1.5 -7t3.5 -10t1.5 -21t1 -22t3 -14t1.5 -11.5l-3 -15l3 -65
l-3 -14l1 -22l-3 -33l7 -32l-6 -27l4 -21q0 -4 -3 -6q10 -8 24 -8l31 6h28q2 -2 2 -4t2.5 -4t4.5 -3t2 -5t-2 -6.5t0 -7.5q-6 -1 -7.5 -4.5t-5 -5.5t-10.5 -2t-17 -5q-4 1 -10 1l-12 3q-2 0 -2.5 -2.5t-3.5 -2.5l-8 3q-8 0 -15.5 -4t-11.5 -4t-10 2l-13 -3q-3 0 -8 4
t-14.5 11t-9.5 19l2 14l-4 11l4 66l-1 28q0 7 -11 7q-3 0 -6.5 -3t-7 -5t-7 -2t-7.5 -2t-6.5 -4.5t-8.5 -3.5q-8 -11 -21 -11h-3q-3 -1 -5 -4t-5.5 -5.5t-9 -4t-8.5 -7.5l-34 -6q-5 0 -9 3q-8 -8 -16 -8q-40 0 -53 14q-5 6 -12 11l-3 14q-2 5 -4.5 8t-4 9t-0.5 13.5t1 14.5
l-2 11l4 11v10q0 4 2 6t4 5t1 6.5t5 9.5t6 8.5t3.5 8t12 9.5t13.5 12q9 1 17 1zM241 191l8 -2q2 0 3.5 2.5t3.5 2.5l-7 21q-12 2 -23.5 9t-18.5 7l-18 -2l-26 1l-40 -7l-13 2q-8 0 -16 -3t-16 -1q-2 -6 -9 -14t-5.5 -19t1.5 -18l-2 -9q0 -2 1.5 -4t2.5 -4.5t0.5 -5.5
t-0.5 -7t4.5 -9t6.5 -10l1 1q2 0 3.5 -3t9.5 -3q34 0 70 18l13 6q10 7 21.5 10t15.5 11q16 27 28 30h1z" />
    <glyph glyph-name="b" unicode="b" horiz-adv-x="452" 
d="M126 310q0 -15 11 -15q5 0 8 4.5t12.5 11t24 15t26.5 19.5q2 -1 7 -1t10 3t16.5 7t35.5 4t33.5 -0.5t16.5 -3.5t9 -2.5t4 -1t3 -3t3 -3t4 -1t3.5 -0.5t6.5 -6t10 -10.5t10 -11.5t8.5 -9.5t6.5 -12.5t8 -13q2 -7 3.5 -13.5t3.5 -12.5l4 -5q1 -3 4 -10.5t4.5 -15t3 -14.5
t1.5 -15v-18q0 -11 -2 -22l-4 -3q-2 -5 -2 -10t-9 -14q-5 -10 -10.5 -23.5t-16.5 -18.5q0 -5 -2 -8.5t-3 -8.5q-6 -2 -8 -4t-7 -1q-4 -2 -4.5 -6.5t-4 -4.5t-8 -5t-12.5 -5q-3 -11 -11.5 -15t-12.5 -15q-40 -20 -48.5 -20t-16.5 5q-4 0 -9 -3t-11.5 -5t-17 -2t-13.5 3
t-7.5 3t-7.5 -4.5t-8 -7.5q-12 4 -28.5 4t-31.5 -8q-4 3 -8 3l-17 -3l-8 3q-7 0 -15 -5t-8 -6.5t-3 -1.5t-15 4l-1 7q0 17 33 25q9 2 14 5q-7 16 -7 30v32l-2 4l2 7l-4 16l2 14l-2 14l2 14q0 4 -1.5 8.5t-3 13.5t-1 23.5t-0.5 28.5l-2 15l2 15l-4 61l4 48l-2 6q2 2 2 5.5
t-1.5 7t-3 14.5t0 32t-6.5 38v14q0 11 -4 19q3 10 3 25l-1 27q-1 11 -3.5 21t-2.5 22l4 15l-2 12l4 35l-4 23v13l-4 19l2 11q0 2 -2 8l2 7q0 20 -1 40t1 41q-5 2 -12.5 3.5t-11.5 6.5q-9 -2 -17 -6.5t-15 -4.5t-10 2t-4 1.5t-4 2t-3 13.5t8.5 18t17 6t19.5 -1l6 2l20 -1
q15 0 19 7q5 -1 9 -1h10q22 0 47 3l18 4q5 0 8.5 -4t8.5 -6l-6 -26q-8 -4 -14.5 -7.5t-14 -3.5t-13.5 2q-5 -2 -8.5 -6t-8.5 -6q-1 -3 -0.5 -6t0.5 -7t-2 -5q8 -16 8 -27v-2l-2 -1v-1q4 -12 3.5 -23.5t1 -25t4 -26.5t2.5 -28l-2 -17l2 -28l-2 -29l4 -45l-2 -13q0 -9 3 -17
q8 -23 8 -45l-2 -15q0 -8 2 -15t3.5 -13.5t1 -12.5t-0.5 -11l4 -34q0 -2 -1.5 -4.5t-1 -6t0.5 -6.5l-3 -15q0 -4 3 -4q-4 -6 -4 -12zM331 83q22 34 19 61q5 9 5 19l-1 39q0 11 -4.5 24.5t-7.5 24.5l-2 11q-2 8 -5.5 16t-4.5 16q-11 7 -29 25q-12 -2 -23 0t-19 -1t-14 -7
t-11.5 -6t-10 -2t-9 -2t-6.5 -5.5t-8 -1.5q-3 -5 -5.5 -9.5t-10.5 -4.5q-2 -9 -7.5 -14.5t-7.5 -14.5q-4 -3 -8 -5t-8 -5q-1 -14 -9 -25q-12 -15 -12 -36v-12l3 -10l-1 -14q0 -6 3 -21q-2 -4 -2 -12l2 -32l-2 -31q8 -2 12 -8.5t13 -7.5q1 -2 3 -3.5t4 -3.5q8 -1 13 -4t12 -5
q25 7 41 7q4 -3 7 -3t4.5 2t4.5 3t5.5 0t4.5 -1l2 1q2 0 3 2q2 4 18 9t18 12q3 11 16 18q3 2 10 10l4 2q1 1 1 5z" />
    <glyph glyph-name="c" unicode="c" horiz-adv-x="367" 
d="M202 503l20 -1q0 1 3 1t5 -3.5t5.5 -5t7 -1.5t7.5 -3l2 -4q4 -2 5.5 -1.5t7.5 -7.5t11.5 -8t9.5 2q3 7 4.5 14.5t6.5 14.5q6 4 15 4t14.5 -11t5.5 -22t-5 -18q2 -11 2 -27t-9 -32q2 -8 2 -14.5t-4 -14.5t-5.5 -13t-1.5 -8t-5 -11t-26 -8h-5q-6 9 -6 15t4 14l-2 6
q0 6 3 17t3 23q0 18 -6.5 25t-8 10t-4.5 5.5t-7 3.5t-10 7q-5 3 -10.5 4.5t-9.5 3.5t-3.5 3.5t-16.5 1.5t-26 -9q-6 2 -14.5 2t-14.5 -11t-13 -19q1 -1 1 -5.5t-3.5 -9t-6.5 -13.5t-2 -20.5t-5 -22.5q1 -2 1 -8l-6 -36v-10q0 -53 5 -63q0 -2 -1 -2t-1 -3q0 -10 7 -30
t9.5 -21.5t4 -3.5t1.5 -4.5t7 -10t9 -13t7.5 -10t12.5 -7t12.5 -5.5t9 -6t10.5 -3t13.5 3.5t14.5 1.5q4 5 9 5t12 3t12.5 8t13 9t7.5 6v6q0 3 1 4q4 -2 6 -2l20 4h4q4 -3 4 -6v-8l2 -4q0 -6 -13.5 -18t-17 -13.5t-4.5 -4.5t-6 -5.5t-11.5 -2.5t-13 -2t-15 -8t-13.5 -6l-10 3
l-13 -6q-4 2 -6 2h-5q-4 0 -10 4l-17 -3q-5 0 -7 1l-2 4l-7 -1q-7 0 -10.5 7t-13.5 7t-15.5 6.5t-13.5 8.5l-22 23q-2 2 -5.5 2t-9 3.5t-5.5 11t2 11.5q-5 11 -7 24q-3 19 -10 29q-4 9 -4 13v8q0 40 9.5 76.5t11.5 41.5l4 10t3.5 12t4.5 11l4 2q2 6 2.5 10.5t2.5 8.5l5 2
q4 6 7.5 13.5t9.5 15t17 14.5t21.5 13t19 10.5t11 6t6 1t8.5 1.5t6 4t10 2z" />
    <glyph glyph-name="d" unicode="d" horiz-adv-x="446" 
d="M385 44l29 9q19 -8 19 -19q0 -22 -61 -22q-5 0 -11 -1.5t-12.5 -2.5t-13 -0.5t-12 -1t-13.5 -5.5t-14 -4t-11 7t-5 14t4.5 10t10 6t12 5.5t9.5 6.5q-2 27 -5 54l-6 54q-5 5 -9 5t-10 1q-4 -5 -4 -20q-4 -3 -10 -11t-18.5 -24t-18.5 -14q-3 -8 -15.5 -16.5t-15.5 -8.5
l-12 2q-3 0 -2 -5t-1 -7q-5 -2 -7 -6l-22 -6q-24 0 -64 18q-4 1 -7 6.5t-8 5.5h-4q-5 11 -13 16.5t-10 20.5q-6 0 -5.5 4.5t-1.5 7.5l-3 2q-1 3 -1 9.5t-1 9.5l-4 2q-1 2 -0.5 5.5t0.5 5.5l-4 12l4 25l-2 20q0 14 10.5 41.5t13.5 30.5q-1 15 6.5 22.5t8.5 22.5q6 7 11 14
t12.5 15t16.5 16t17 18q6 0 22.5 12t18.5 14q11 0 29 5t45 5t48 -7q6 11 6 23v23l2 11l-2 13l7 26l-5 27l2 32q0 8 5 13q-3 4 -3 10t2.5 10.5t2.5 6.5l-2 12v26q0 9 2 13.5t4 11.5l-1 15l4 21q1 5 0.5 11t-0.5 12t1.5 12t2.5 10.5t0.5 8t-0.5 8t1.5 6t3 8.5t0.5 15t1 16
q-8 3 -15 3l-39 -4l-13 1q-5 0 -9 -3t-11 -3l-17 4l-3 21l1 5q8 5 18.5 4.5t18.5 -0.5t13.5 1.5t11.5 2.5t9.5 0.5t13.5 -0.5t24 4t30 4h6q5 -7 8.5 -10.5t3.5 -13.5l-4 -18l2 -9l-2 -22l2 -47q0 -13 -4 -22q2 -4 2 -8t2 -9q-6 -18 -6 -26l2 -6l-4 -21l2 -18l-1 -60l-4 -28
l1 -12l-1 -13l4 -28l-6 -81q0 -5 2 -9q-4 -12 -4 -15v-8q0 -5 1 -11l1 -13l-2 -11q0 -25 2 -47l3 -40l-1 -27q0 -15 7 -28q-4 -8 -4 -9v-3q5 -50 5 -68v-23q0 -4 -1 -9l-4 -13q0 -8 3 -16t1 -16q6 -2 11 -2zM298 308l-1 11q0 6 2 12q-1 5 -4 7t-3 7l1 24q0 6 -3 11q3 6 3 10
l-1 4q-22 5 -54.5 5t-37.5 -2t-6.5 -4t-3.5 -3.5t-5 -1.5t-6.5 -2t-6.5 -6.5t-8 -5.5q-4 -5 -6.5 -10.5t-9.5 -7.5q-1 -11 -8 -19t-9 -14t-1.5 -8.5t0.5 -4.5l-4 -10l2 -6q0 -22 -6.5 -44t-6.5 -45l4 -23l-2 -12q0 -5 1.5 -9.5t2.5 -12.5q4 -27 10 -40q10 -25 32 -25h3
q7 1 15 6t18 9t12 6q3 4 5 8t4 7q3 2 4.5 2t7 6.5t9.5 16.5l11 7q4 14 13 25q-4 4 -4 10q2 4 7 12.5t6 16.5q5 1 7 5t5 6q0 28 6 34l-1 7q0 21 3.5 28t3.5 13z" />
    <glyph glyph-name="e" unicode="e" horiz-adv-x="338" 
d="M262 401l29 -41v-2q0 -15 8.5 -25t13.5 -24q-3 -4 -6 -7t-5 -8q-7 -2 -10 -2l-16 1q-6 0 -10 -3q-5 3 -12 3h-12q-10 0 -17 3q-4 -1 -6 -6t-14 -4.5t-17.5 -1t-8.5 -3t-9 -1.5l-20 2h-24q-9 -14 -9 -74l7 -44l-1 -21q0 -11 2 -13q7 -9 7 -19.5t5.5 -21.5t7 -17.5
t5.5 -16.5t14.5 -18.5t24 -8.5t23 7.5t15 10.5t6.5 2.5t4.5 1.5t12 10t10.5 11t4 8.5t5.5 15.5t10.5 10t14.5 -10.5t7.5 -21t-11.5 -16.5t-14.5 -17q-16 -7 -18.5 -13.5t-5 -8t-3.5 -1t-3 0.5t-2 -4q-6 -4 -12 -10q-12 4 -24 -4.5t-23 -8.5t-20 8q-5 -2 -11 -2t-12 -2
q-8 8 -18 12t-20 9q-2 6 -4.5 6.5t-0.5 7.5q-4 2 -7.5 4t-7.5 4q-3 7 -11 15v13q-8 3 -10.5 12.5t-10.5 14.5q-1 12 -4.5 23.5t-3.5 23.5v18l-7 42v8l3 9l-3 9l7 42l4 6q5 26 8.5 47t14 40.5t21.5 37t14 32.5q30 24 61 41q5 -2 8 -2l16 3q9 0 21 -12l11 2h4q2 -3 2.5 -7
t4.5 -5q11 -9 13.5 -21.5t14.5 -19.5v-9zM234 317l34 7v4q0 6 -1.5 12t-2.5 12q-6 7 -11.5 11t-4.5 15q-9 3 -11.5 13t-4.5 19q-2 0 -2 4q-7 5 -10 8q-11 11 -34.5 11t-30 -5.5t-13.5 -30t-12.5 -41t-5.5 -33.5v-6l32 -4l23 2l8 -2l16 4l14 -2l8 4z" />
    <glyph glyph-name="f" unicode="f" horiz-adv-x="273" 
d="M63 412q-65 0 -65 22q0 9 11.5 12.5t18.5 3.5l48 -6q12 0 12.5 6.5t0.5 15.5v1l7 100l-2 14l3 8l-1 7q0 8 2 17t3.5 21t3.5 33.5t12 34.5v4l7 37q6 6 8 12.5t7 12.5l4 1q2 5 4 6t4.5 3.5t3 4.5t2.5 3l3 -1q7 15 16.5 18t9.5 7t3 4t6.5 2t8.5 5.5t14 8.5t21 9.5t23 10.5
q1 -1 6 -1l18 3q1 0 7 -1t20.5 -3t15.5 -6q3 -2 7.5 -3.5t7.5 -3.5q2 -7 8 -9t11 -4q2 -6 6.5 -9.5t6.5 -9.5h1q3 0 4 -2t3 -3.5t4 -2t4 -2t1.5 -3.5t0.5 -3l4 -2q5 -5 8 -10.5t8 -10.5v-4q-1 -8 1.5 -15t2.5 -13.5t-1 -9.5q-10 -13 -24 -13q-6 4 -5.5 9t0.5 10.5t-2 6.5
t-2 9v1q-1 3 -7.5 9t-8.5 8.5t-6.5 8.5t-6.5 8l-7 2q-4 3 -7.5 6.5t-9.5 2.5q-6 8 -16 11t-18 10q-21 -6 -28.5 -6t-14 3t-9 3t-3.5 -2t-4.5 -5.5t-10.5 -7.5t-12 -9h-4v-4q-3 -2 -14.5 -7t-14.5 -8q-2 -3 -1 -6.5t-6 -1.5q-2 -54 -15 -87q2 -10 2 -16.5t-3 -13.5t-3 -9
l2 -6l-4 -17l1 -12q0 -5 -3 -8q3 -5 3 -9l-3 -21l4 -21l-2 -20l4 -48q0 -9 -2 -19q5 -4 15 -4l91 10q10 -10 12 -22q-11 -11 -16 -11.5t-13.5 -3t-11 -3.5t-7.5 -1l-15 2q-11 0 -21 -5t-22 -3q-1 0 -4 -9.5t-4.5 -14t-1.5 -5.5l2 -7l-2 -18l4 -48l-2 -22q0 -5 1.5 -11t3 -20
t1.5 -37.5t2 -41t4 -28.5t3.5 -22t1 -23t0.5 -24l3 -22q0 -2 -3 -2q5 -13 5 -25.5t4 -20t4 -15.5l-2 -19l4 -28v-11l-2 -41q0 -12 5 -13t9 -3t4.5 -3t4.5 -1l35 6l4 -1q11 -11 11 -18q0 -14 -15.5 -20.5t-32.5 -6.5l-14 2q-6 0 -12.5 -1.5t-14.5 -2.5t-20 -1.5t-20 -7.5
q-2 2 -6 2t-6 2q-4 -2 -9 -3t-8 -5h-3q-4 0 -11 2q0 -4 -4 -4h-5q-8 0 -10 -6h-6q-7 -1 -15.5 2.5t-8.5 14.5t8 12t16 4l4 5q19 6 30 8t17 7.5t6 45.5l-6 52l4 22l-6 23l2 9l-4 10q-1 2 -0.5 5t0.5 9v16q0 10 -2 19l-4 5l2 10l-2 1l2 5q0 5 -1 9q-5 12 -4 26t-1 22t0 16
l-6 33l2 14l-3 45l-2 35l2 46q0 37 -13 67h-20z" />
    <glyph glyph-name="g" unicode="g" horiz-adv-x="409" 
d="M397 433l14 4q2 -5 7 -7.5t4 -8t-3.5 -10.5t-5.5 -12q-11 -9 -23.5 -7t-24.5 -1.5t-20 -12.5t-21 -9q-1 -9 -3 -15.5t-1 -14.5q-5 -3 -5 -7q0 -6 -4.5 -10.5t-4 -8.5t-1.5 -6l-4 -2v-4q-3 -5 -8 -7.5t-10 -8t-8 -13.5t-11 -10q-7 -17 -12 -21q2 -9 4 -11.5t2 -12.5l6 -26
v-13q0 -7 2 -10.5t4 -9.5l-1 -13l4 -13q2 -8 2 -18v-17q2 0 2 -2l-1 -12q0 -42 26 -57q7 -4 11 -14q9 -4 20 -15t13 -22q19 -16 16 -31q5 -3 4 -9q0 -11 6 -19t6 -15t2 -12.5t4 -9t2 -8.5v-1l-2 -14l2 -24q0 -14 -5 -27t-7 -26q-9 -6 -13 -15l-9 -17q-5 -1 -9.5 -4.5
t-9.5 -5.5q-2 -2 -2.5 -5.5t-11.5 -12t-27 -25.5h-2q-9 0 -23 -8l-15 -8q-1 -1 -3.5 -1t-8.5 4q-6 -3 -9.5 -8t-8.5 -9l-25 -6l-14 2l-37 -7q-23 0 -27 4l-18 -1q-13 0 -23 4.5t-25 1.5q-6 4 -9 12h-3l-9 -2h-3q-1 6 -5.5 7.5t-9.5 3.5q-14 18 -29 21t-18 14q-5 17 -10 17
t-7 8t-11 10v1q0 4 -1.5 6t-0.5 7q-6 5 -8 11.5t-7 11.5q-1 13 -3 26t-2 27t4.5 26t4.5 23q6 10 14.5 31t14.5 25q2 3 2 6.5t2 7t5.5 6t6.5 5.5l9 14l21 21q10 10 19 22l16 20q6 9 17 18q3 1 8 4q20 12 32 15h8q5 0 7 -2q15 7 23.5 7t10.5 -1q1 2 5 1.5t2 4.5q4 -3 10 -3
l22 3h6q3 -2 6 -3.5t4 -6.5q1 1 5 1l20 -8q8 0 8 6l-6 13l2 13q0 8 -2 18l-3 14l2 9q0 4 -2.5 7.5t-4 9t-1 12t0.5 14.5l-5 30l-2 2l-9 -3l-10 2q-5 0 -11 -3.5t-32 -3.5t-48 12v5q-4 2 -9.5 4t-4.5 8q-2 -1 -4.5 0.5t-7.5 3.5t-7.5 3.5t-4 3.5t-3 4.5t-5 6.5t-7.5 7.5t-6 7
t-3.5 10t-5 19.5t-3.5 31t5 27t8 16t5 14q2 14 21 36l10 14q5 6 12 11t10 12q4 1 6.5 3.5t7.5 5t9.5 6.5t11 8t16.5 8t18 9h10q25 0 48 -16q2 -1 3 -2q3 -5 10 -5q4 0 13 -7q8 -4 12.5 -11t10.5 -12h4v-4q2 -2 5 -3t1 -5q6 -2 9 -7t9 -7q2 -5 3 -10t5 -7h1q1 0 3 -2l10 -1
q36 0 67 18q2 -2 5 -2zM354 -188l2 16l-4 11q2 3 2 13v15q0 11 -4 21.5t-2 21.5q-5 5 -5 8.5t-2.5 12t-9 17t-9.5 19.5l-3 -1q-4 0 -12 5q-13 5 -15 8t-3 6.5t-5 9t-7.5 9t-5.5 8.5q-23 10 -35 26q-5 0 -7 2t-7 4h-1q-5 0 -5 4.5t-5 3.5q-12 2 -24.5 6.5t-21 4.5t-15.5 -3
t-21 -3t-21 4q-7 -7 -17 -13q-4 2 -7 2h-3q-2 -5 -9.5 -8t-12 -9.5t-9.5 -7.5q-2 -5 -2 -9t-2 -8q-4 0 -4 -2.5t-3.5 -6t-9.5 -6.5t-11 -8v-4l-4 -1q-15 -22 -15.5 -38.5t-3 -33t-4.5 -25t-2 -22t7 -27.5q14 -26 14 -35t5.5 -14.5t8.5 -9.5l8 -15q5 -7 11 -13t8 -14
q9 -5 20.5 -13t20.5 -12q10 -3 32.5 -8.5t42.5 -5.5t57 10h6l4 4l6 -1q27 13 30 12q0 6 13 14t16 16q3 2 7 3.5t7 4.5l22 24q5 6 9 13.5t10 12.5v5zM285 343l3 35q0 21 -5.5 28.5t-8.5 11t-6 11.5q-5 2 -9 4.5t-9 3.5l-20 22q-4 3 -6 3t-7 9q-11 2 -21 5.5t-21 5.5
q-3 -3 -8.5 -3.5t-11.5 -2.5h-1q-3 1 -2 -3t-5 -4l-17 -6q-2 -2 -2 -4.5t-1.5 -5t-4.5 -3.5q-2 0 -7 -12q-3 -14 -7 -18.5t-6 -9.5l-7 -42q0 -6 2 -14l-1 -13q0 -7 2 -6t2 -5t3 -10t1 -9q8 -7 11.5 -18.5t14.5 -18.5q2 -2 2 -3.5t2 -3t11.5 -4.5t12 -3t2.5 1t2 1l18 -2
q3 0 5.5 1.5t5.5 2.5l14 2q14 4 25 12t24 16q4 7 6 15h1q4 0 4 3q1 4 7.5 9t5.5 10t4.5 6.5t2.5 5.5z" />
    <glyph glyph-name="h" unicode="h" horiz-adv-x="425" 
d="M136 335l-6 -13q2 -9 2 -13l-2 -23q2 -2 2 -4l-2 -4l3 -14q5 -20 4.5 -40t-0.5 -41l2 -15l-2 -12l4 -20q0 -5 -1 -8t1 -7l-2 -17l2 -11l-4 -15l2 -12l-2 -13l6 -23q10 0 17 5t19 5t12 -12t-11 -18.5t-18 -9.5t-12.5 -3.5t-12.5 -2t-9 -2.5t-11.5 -1t-25.5 -4.5t-21 -11.5
q-2 -1 -3 -0.5t-3.5 0.5t-9.5 -4.5t-15 -3.5h-3q-11 5 -11 28q3 -1 4 2.5t3.5 5t5.5 1t14.5 4t29.5 8.5q3 8 3 16t-2 15.5t-1 15.5v35q0 23 1 25l-3 9l2 6l-4 16q-2 17 -2 35v35q0 16 -3 31t-5 31v21l-4 30l1 33l-1 29v21q2 6 2 9l-4 10q0 2 2 6q0 15 -2 31l-4 16l2 6l-5 70
l4 37l-2 13l3 12l-4 36l3 47l-4 43q-2 24 -2 45.5t-14 21.5l-20 -2q-11 0 -17 9t-6 12l1 4q3 9 15.5 9t23.5 1.5t31 6.5t32.5 5t15.5 -8q-2 -14 -7 -18t-8 -14l2 -28l-3 -23l4 -27q0 -5 2.5 -6.5t2.5 -7.5l-2 -19l2 -6l-2 -4q5 -16 4.5 -36.5t4.5 -34.5q-2 -5 -2 -32l-2 -33
q0 -12 1.5 -24.5t3.5 -30.5l3 -42q2 -24 4 -49q2 -1 12.5 -1t15.5 13q5 0 8 4q7 10 10 7t6 2.5t5.5 6.5t3.5 0.5t3 -0.5t3 1q1 5 27 10t29 5t9 -1t19.5 -3t17 -8t11 -14t18.5 -19.5t20 -26.5q3 -2 4.5 -5.5t4.5 -5.5q-1 -2 -1 -6l8 -32q0 -6 2 -11t2.5 -11.5t1.5 -12.5
l4 -14q2 -10 2 -21v-20q0 -2 -1 -2t-1 -2l6 -28l-4 -25l4 -35q0 -17 -2 -34t0 -35q-6 -11 -6 -25v-20q0 -6 2 -12q6 -2 15 -2l40 8q2 -4 7.5 -6.5t5.5 -6.5q0 -12 -9 -12q-20 0 -37 -17q-3 1 -9 1l-27 -5h-7q-6 0 -6.5 -2.5t-8.5 -2.5l-25 -3l-8 1q-7 0 -8 -4.5t-7 -4.5
l-4 1q-4 8 -4 17t3.5 13t8 6t10 4t8.5 7l5 25q1 4 1 9l-3 27l2 20l-2 17l4 20l-2 18l2 39q0 17 -4.5 34t-4.5 35l2 14q0 1 -4 25l2 3q-6 7 -5.5 8.5t0.5 8t-2.5 12.5t-4 13t-2.5 16q-2 14 -7.5 20.5t-7 10.5t-4.5 8t-7.5 6.5t-9.5 7.5q-8 -5 -21.5 -4.5t-19.5 0.5t-6.5 -2
t-3 -5.5t-7 -7t-7.5 -8.5q-19 1 -26 -10q-12 -20 -19 -25q-3 -9 -7.5 -9.5t-2.5 -5.5l-1 -3l4 -12v-6z" />
    <glyph glyph-name="i" unicode="i" horiz-adv-x="246" 
d="M102 249q4 36 4 50.5t-3 24.5q5 10 4.5 20.5t1 18.5t3 11.5t1.5 7.5l-2 21q2 3 2 9v15q0 10 -4 17h-6l-26 -1q-8 0 -17 3q-2 6 -5 7.5t-3 6.5t1 7q17 14 86 14q13 0 18 -2.5t8.5 -13t3.5 -15.5l-2 -12l4 -13l-2 -29l2 -29l-2 -27l2 -14l-6 -47l2 -45q0 -9 -2 -16.5
t-4 -17.5t-1 -21t1 -17.5t-1 -6.5t-1 -5t3 -11.5t1 -13.5q12 -8 13 -8l19 6q0 8 11 8q3 0 2.5 -4t3.5 -6t6.5 -4.5t4 -8t3.5 -9.5q-1 -7 -8.5 -11.5t-15 -4.5t-11.5 6q-8 -9 -18.5 -9t-17.5 3q-9 0 -30 -7h-6l-13 -1q-6 0 -10 3q-14 -4 -24 -4q-16 -8 -28 -8t-12 10
q-9 0 -9 9t5 13q11 10 23.5 11.5t21.5 5.5t15 4t10 2v10l-2 37l7 69zM99 662l-14 2q-2 3 -5 6t-4.5 8t-3 5t-1.5 10t5 20t20.5 18.5t27.5 8.5t15.5 -8t6 -16t5.5 -12.5t3 -9.5q0 -10 -14.5 -25.5t-23 -15.5t-13.5 9h-4z" />
    <glyph glyph-name="j" unicode="j" horiz-adv-x="252" 
d="M189 442l-4 -12q0 -3 1 -5q2 0 2 -2l-2 -1l4 -12l-4 -26q2 -4 2 -6.5t-2 -4.5l2 -6q0 -2 -1 -2t-1 -3l4 -9q0 -4 -2 -6q1 -8 1 -15.5t1.5 -13.5t3 -8.5t1.5 -6.5l-2 -23q0 -17 2 -33l4 -17q2 -8 1.5 -16t0.5 -18.5t2.5 -22.5t1.5 -25l-2 -16q2 -2 2 -3.5t-1 -1.5t-1 -2
l6 -24v-14l5 -41l-1 -10l5 -65q0 -14 -4 -25q6 -14 6 -32q0 -30 -5 -60.5t-16 -49.5l-4 -2l1 -5q0 -4 -6 -6.5t-6 -10.5v-1l-5 -2q-7 -14 -13 -21l-14 -14q-20 -19 -20 -25h-4q-5 0 -10 -5.5t-15 -7.5q-6 -5 -11.5 -8.5t-10.5 -9.5q-7 -2 -13.5 -2t-13 -1.5t-12 -4
t-11.5 -2.5t-10 3.5t-15 1.5q-11 8 -21 15.5t-24 11.5q-3 7 -10 10.5t-11 11.5q-3 3 -3.5 7.5t-4.5 7.5q1 17 0.5 34t3.5 35q8 5 13 18q13 3 24.5 10t27 7t23.5 -10q2 -1 1.5 -2.5t1.5 -5t4.5 -7t2.5 -10.5t-4 -8q-12 -6 -18 -12l-27 16l-9 -5l-5 2q-2 -1 -3 -1
q-4 -7 -6 -13.5t-7 -11.5q2 -5 2 -17.5t3 -15.5t11 -7.5t8 -12.5h3q8 0 12 -8.5t9.5 -10t9 -0.5t6.5 1t7 -2q6 4 13 4.5t21 2t28 13.5t21 25t13 20t11 14t5 15.5t6 13.5q-1 3 -1 9l3 25l-2 15l4 43q0 8 -1.5 16.5t-2.5 17t0 16.5t1 16l-5 34l2 6l-4 15l2 12l-4 30l-4 13
l2 18l-4 32l2 8l-4 47l2 22l-4 47v27l-4 34q0 3 4 35v19l5 54q0 9 -1 14h-1q-10 0 -16.5 -7.5t-14 -10t-13 -1.5t-10 -0.5t-7.5 -3t-9 -3t-14 -1t-13 -6.5q-4 2 -6 2l-18 -4q-6 6 -6 18v3q4 1 4 6q9 2 15.5 4t12.5 3.5t10 1.5q4 -1 20 7q8 2 15 3t15.5 3.5t13.5 5t11 2.5
t8.5 3.5t6 3t8 1.5t7.5 5.5t11 3.5t21 -13v-5q0 -2 3 -3.5t4 -3.5zM128 735l22 -5h17q1 0 4.5 -3.5t11 -10t7.5 -12t-2.5 -8.5t-3.5 -7q-3 -3 -8 -3q-14 2 -9 -8l-2 -3q-9 -3 -21 -5t-17 -6t-11.5 -4t-15 3.5t-17.5 2.5q-9 11 -9 28t29 30q17 11 25 11z" />
    <glyph glyph-name="k" unicode="k" horiz-adv-x="445" 
d="M47 24q5 5 6 5l7 -2q5 0 11.5 5t11.5 8l1 12l-4 16q0 3 1 4q2 0 2 2l-2 9l2 28q0 3 -1 6.5t-4.5 18t-3.5 58.5l-2 14l2 6l-3 6l1 17l-2 48q-1 2 -1 6l2 6l-4 32l1 19v30l-2 6v2q3 1 3 5l-4 20l1 22l-4 23l2 20l-3 26l5 64l-5 31l5 29l-3 14l3 12l-2 12l5 53l-1 6q0 4 4 5
q-3 3 -3 9l3 30l-2 59l3 24l-3 14l2 16l-3 12l-8 1l-37 -6q-10 0 -15 4q-1 2 -1 5q0 14 45 22q17 4 34 7.5t24 10.5q3 -1 10 -1l38 5q7 0 10 -1q2 -3 7.5 -6.5t5.5 -8t-3 -7.5t-6.5 -4.5t-8 -3t-6.5 -5.5h-2q-9 0 -15 -3.5t-14 -6.5l1 -4q0 -8 -3.5 -14.5t-3.5 -13.5t3 -22
l-1 -14l4 -13l-3 -33l2 -39l-3 -24l3 -24l-3 -16l4 -20q0 -11 -5 -24q4 -7 4 -16l-2 -20q2 -4 2 -6l-3 -6q1 -3 3 -5t2 -14l-3 -60l1 -5l-2 -6l4 -28l-2 -12l4 -22q2 -12 2 -25v-24l-2 -24q0 -13 9 -18q24 5 31 22q9 3 14 10q11 14 26 15.5t23.5 15t17.5 14.5t12.5 5.5
t6 6.5t4.5 1t4 0.5t2 3t4 4.5q42 30 42 48q0 10 -7.5 14t-7.5 11q0 11 18 11l23 -1l64 2h9q9 -12 9 -18.5t-8 -10.5q-12 -8 -17.5 -7.5t-16.5 0.5q-21 0 -31 -22q-20 -12 -23.5 -19t-8 -9t-4.5 -7q-8 -2 -16.5 -10t-13.5 -8q-17 -14 -31 -16q-7 -12 -23 -20l-1 -7
q0 -13 7 -18.5t12 -13.5q3 -16 11 -21l-1 -2q0 -5 4.5 -8.5t6.5 -8t2.5 -8.5t3 -10t7.5 -11.5t7.5 -9.5t2 -5t0.5 -3l4 -2q5 -8 9 -17t12 -14q0 -8 6 -14t8.5 -12.5t3.5 -11t2 -7.5q6 -8 10.5 -22t4.5 -16q8 -8 11 -18q7 -24 13 -28q6 -9 17 -43l3 -2q2 -4 3.5 -8.5
t6.5 -11.5t12.5 -19t15.5 -24q18 -26 44 -26q5 0 6.5 3t8.5 3t16 10t12 13q8 20 8 32t-12 27q-1 1 -5 1t-8 -2t-8.5 -3t-7.5 0t-6 1l-10 -2q-8 0 -11.5 7.5t-3.5 13.5t1.5 6.5t6.5 0.5q14 14 27 14l31 -3q20 0 23 -9.5t6.5 -18.5t4.5 -12q3 -4 3 -9v-10l5 -26q0 -4 -3.5 -10
t-8.5 -15t-9.5 -13t-17.5 -13q-2 -7 -7.5 -9t-10.5 -7h-2l-11 5q-7 0 -10.5 -3.5t-8.5 -5.5q-5 2 -10 2h-10l-21 2q-5 0 -15.5 6t-13 9.5t-4.5 3.5q-11 0 -22 28q-2 5 -2 9q-4 3 -8 4.5t-7.5 3.5t-6 5.5t-5 6t-3 6t-2.5 6t-4.5 3.5t-2.5 3l1 5q-2 3 -11 9q-4 22 -15.5 39.5
t-14 29.5t-12.5 23q0 17 -9 28t-12 26q-4 8 -9 9v2q0 4 -1.5 5.5t0.5 6.5q-3 4 -7.5 6t-7.5 7v1q0 8 -7 16.5t-11 25.5t-15 29.5t-14 20t-3.5 14.5t-6.5 10h-3q-7 0 -14 -6t-11 -9t-12 -3q-20 -18 -20 -47l4 -57l-3 -21l3 -19l-1 -47l2 -10l-3 -9l5 -23l-2 -10q0 -5 5 -7
q-1 -3 -1 -5t1.5 -4t2.5 -4q6 -3 24 -3t23 -7l-1 -14q-11 -12 -28 -9q-10 -3 -16.5 -5.5t-21 -2.5t-30.5 -9h-7q-4 0 -6 2q-9 -3 -14.5 -6t-16.5 -2q-5 -5 -15 -5t-13 1q-4 8 -4 15.5t8.5 12t16.5 4.5z" />
    <glyph glyph-name="l" unicode="l" horiz-adv-x="212" 
d="M82 -53l-6 68v18l2 2l-4 6l2 19l-1 21q0 10 3 19q-4 4 -4 8l4 20l-2 19l1 23l-5 29l2 15l-2 17l1 52l-5 98l2 18l-3 14q0 5 1 8.5t0 8.5q-2 5 -1.5 9.5t0.5 10.5l-2 29l4 33q-1 8 -1 17v17l2 55l-2 19l4 27l-2 31q0 2 3 8.5t3.5 11t2 11.5t1 16.5t-0.5 17t-5 14.5l-6 1
l-28 -3q-13 0 -13 6v15q7 8 21.5 8.5t23.5 6.5h6q6 0 9 -3l19 12h4l30 4q4 2 7.5 4.5t10 2.5t9.5 -7q0 -14 -7.5 -16t-12 -3.5t-6.5 -4t-5 -0.5q-2 -8 -9 -11q1 -4 1 -12t-3 -18q7 -13 7 -27t-2.5 -14t-2.5 -3l3 -11q1 -11 0.5 -21.5t-0.5 -21.5l2 -11l-5 -15l5 -21l-5 -36
l5 -18l-2 -16l2 -11l-2 -10l2 -9l-2 -11l4 -21l-2 -13l4 -23l-2 -9l2 -10l-2 -5l2 -3l-2 -8l4 -19l-2 -24l4 -21l-2 -11l2 -17l-2 -14l3 -20l-1 -23l1 -11l-1 -7l3 -17l-2 -14l2 -9l-2 -5l4 -16q2 -8 2 -17v-38q0 -10 -2 -20l-4 -19l4 -15l-2 -15l2 -11l-2 -17l2 -15l-2 -22
q0 -9 4 -14h4q11 0 17 7.5t14 6.5h3v-4h5q3 0 4 -2q-2 -21 -24 -39q-8 -2 -14 -2t-9 2q-5 -5 -16.5 -4t-19 -6.5t-14 -9.5t-13 -0.5t-13 -0.5t-12 -7.5t-13.5 -5.5l-5 1q-5 -2 -4.5 2.5t0.5 7.5v2q-4 1 -4 9v2q6 10 17 12.5t15 5.5v2q0 4 6.5 3t10.5 5z" />
    <glyph glyph-name="m" unicode="m" horiz-adv-x="719" 
d="M71 458l-26 -8l-9 2l-13 -5q-10 0 -10 11l1 9q0 3 -1 4q6 2 8.5 4.5t10.5 1.5l16 8q11 -2 20.5 -2t18.5 7t21 7h19l31 4q12 -9 12 -16.5t-7.5 -10.5t-11.5 -8l-2 -1q-5 0 -7 3t-8 3q-1 -4 -1 -17.5t4 -29t4 -33.5l-2 -16q0 -10 10 -37q1 -1 5.5 -1t6 3.5t3.5 6t2.5 2.5
t1.5 3t1.5 6t2.5 6.5t4 5t9.5 11t15.5 13.5q1 5 4 7t2 8q2 0 12.5 6.5t12 8.5t1 3.5t0.5 2.5q2 1 3 0t4 5.5t8.5 6t14.5 4.5q29 18 53.5 18t29 -3t4 -4.5t1.5 -2.5l6 -2q6 -6 10.5 -20t8.5 -22.5t6 -9t2 -6.5t1.5 -7.5t3 -6.5t0.5 -13.5t8 -13.5h1q13 0 16 15q11 7 17 26
q1 2 3 3t4 3q2 6 4 12.5t4 11.5q3 3 6.5 5.5t6.5 6.5v4h4q5 7 10.5 16.5t9.5 13t7.5 5.5t13.5 9q43 31 77 31h4q29 -19 45 -87q4 -16 8 -30v-2q-3 -15 0 -16t3 -13t5 -27t5 -32l-3 -62l2 -19q0 -3 -2 -5.5t-3 -8t0 -12t1 -15.5l-5 -43v-23q0 -11 2 -23q1 -6 14.5 -6t24 4
t19.5 6l10 -7q0 -3 4.5 -2.5t4.5 -2.5v-13q-5 -7 -14.5 -8t-15.5 -8h-7q-6 0 -19.5 -2.5t-25 -4t-25.5 -10.5q-2 1 -9.5 1t-10.5 -5q-2 1 -6.5 1t-9 -2t-9.5 -3l-21 -2q-5 -1 -10 -3t-11 -2t-10 5v2q0 9 4 13.5t8 11.5l19 7l8 4l10 -1q5 0 8 4t10 2l6 114l-2 28l4 11l-2 2
l2 9l-2 19l1 64v17q0 20 -3.5 31t-3.5 20l1 16q0 10 -2.5 20t-4.5 21.5t-4 16.5t-14 12q-11 -2 -23 -6t-15 -17q-15 -5 -23.5 -17.5t-23.5 -18.5l1 -3q0 -2 -1 -4.5t-2 -6.5q-7 -5 -13.5 -18.5t-10.5 -19t-3.5 -7t0.5 -3.5l-1 -5q-5 -2 -6.5 -6.5t-3.5 -8.5q-6 -2 -6.5 -7
t-5.5 -7q-1 -12 -4.5 -18.5t-1.5 -18.5q-15 -14 -16 -42.5t-3 -44t-13 -24.5q-8 -2 -16.5 -1t-16.5 -3q-1 3 -6.5 9t-4.5 23t1 24l-4 37l2 11l-4 29q0 7 4 11q-4 14 -4 33l2 27q0 7 -3 12.5t-5 13t-1.5 16.5t-7.5 14h-6l-17 -2q-4 0 -5 3t-6 3h-2q-3 -3 -4 -8.5t-6 -7.5
q-4 0 -6 -1.5t-8 0.5q-9 -3 -10 -6.5t-3 -12.5q-7 -2 -11 -7t-12 -6q-6 -10 -17 -14l-7 -13q-3 -7 -10 -11l-2 -17q-8 -5 -13 -13q1 -36 -24 -62l-1 -2q0 -2 6 -11q-2 -20 -2 -38v-165q4 -1 11 -1l45 5h3q11 -11 11 -19v-5q-13 -9 -24 -9h-20q-17 0 -24 -5t-12 -7t-9 -1.5
t-8.5 -1t-8 -3t-11 -4.5t-20 -4t-23.5 -7l-10 32q10 3 25 13q5 2 14.5 6t9.5 11l-3 13l3 32l-3 43v21l2 16l-6 22l5 26q0 17 -3.5 32.5t-6 34t-2.5 44t-4 43.5l2 7q0 4 -4 12q-4 17 -3 35t1 36q-4 2 -10 2z" />
    <glyph glyph-name="n" unicode="n" horiz-adv-x="489" 
d="M484 154l-6 -15q-12 -1 -36 -13q-22 -2 -44.5 -3.5t-45.5 -4.5l-6 23q1 4 11.5 10t12.5 8q2 32 2 60.5t-3 47.5t-4.5 29.5t-1 28.5t-9.5 26l3 11q0 3 -2.5 10.5t-7.5 24.5t-11 27t-17.5 18.5t-19 8.5t-22 -8.5t-23 -12t-8.5 -5t-1.5 -3t-3 -1t-4 -2t-4.5 -7.5t-4 -7
t-3.5 -1.5t-3.5 -1.5t-5.5 -5t-5.5 -6q0 -7 -3 -7t-6 -1.5t-5.5 -4t-6.5 -4.5v-4q0 -4 -2 -13q-6 -4 -9 -9.5t-9 -7.5q-2 -13 -8.5 -21.5t-11.5 -19.5q2 -3 2 -10l-4 -26l2 -6l-8 -42l2 -22l-6 -41l2 -17l-2 -19l2 -6l-2 -8v-2q3 -1 2 -1.5t-1 -7t8 -14.5q-3 -6 -3 -8l6 -31
q0 -7 -2 -10q2 -1 4 -1l20 5q8 -3 16 -13v-5q0 -9 -5 -12q2 -2 2 -4t-2 -4t-2 -6l-2 1q-5 0 -8.5 -3.5t-7 -3.5t-14 3.5t-11.5 4.5q-8 -4 -14.5 -4t-6.5 1.5t-2 0.5l-2 -4q-5 -2 -10 -1t-8.5 0t-3.5 -2t-1 0t-4.5 1t-7.5 -4t-17 -4l-21 -4q-7 0 -10 2q-4 9 -4 22v8
q16 8 34.5 10t34.5 12q-6 81 -6 109l2 30q0 2 -1 2t-1 2l2 10v10q0 1 4 25l-1 32l6 68l-2 18l5 38l-3 23l4 58q0 54 -11 72h-3l-13 -4h-17l-11 2q-2 0 -2.5 -1.5t-3 -3t-7.5 -1t-9.5 0.5t-7.5 -1q-7 6 -7 14t2 16q9 5 20.5 5t20 2t14 4t13 2t11.5 -2q8 6 33 6
q4 -5 12.5 -11.5t8.5 -11.5l-1 -8q5 -6 5 -10v-6q0 -11 -3 -14q5 -7 5 -41l-1 -45q0 -10 4 -14q3 2 7 1.5t7 1.5q6 8 19 21t16 21q27 17 31.5 23t6.5 7l4 -1q2 0 5.5 3.5t6.5 5t6.5 3.5t7 3.5t6.5 1t5 1.5t3 4t3 3l4 -1l11 2q9 0 19 -9.5t20 -12.5q5 -9 13.5 -15t16.5 -12
q2 -8 7.5 -13t11 -12.5t11 -18t12.5 -19.5q0 -18 4.5 -36t6.5 -37l4 -38t2 -38l-2 -26l2 -10l-4 -16l2 -13q6 -6 15 -6l28 4q2 -6 6 -9t4 -8z" />
    <glyph glyph-name="o" unicode="o" horiz-adv-x="420" 
d="M333 483q7 0 7 -6q0 -2 4.5 -7t8 -6.5t3.5 -14.5v-3l4 -4q4 -11 5 -22.5t6 -23.5q-2 -2 -5 -9.5t-3 -10.5t3 -4t3 -7.5t-4.5 -14t-4.5 -15.5l1 -9q0 -8 -5.5 -16.5t-13.5 -10.5q-2 -2 -1.5 -3.5t0.5 -4.5t-3 -4v-1q0 -2 -5.5 -5t-10 -8t-9.5 -9v-4q0 -6 -3.5 -8.5
t-4.5 -7.5q-20 -10 -30 -20h-16q-4 0 -9 -4t-9.5 -6t-11 -2.5t-11.5 -1.5l-2 2q0 -2 -3 -2l-14 4l-26 -2l-26 6q-2 4 -5 7t-5 8l-17 5q-2 2 -3.5 5.5t-5 3.5t-6.5 -1q-3 3 -2 6t-4 3t-5 4t-5 3q-1 4 -3 7q-9 13 -9 22q-2 4 -5 5t-5 3q-20 44 -20 67t2.5 33.5t6 19.5t8.5 18
t9 22q8 3 10.5 11t6 10t5 2t3 1.5t1 3t1 4t9 9t10 8.5t6 2.5t7.5 2.5t9.5 5t16 5.5t24.5 3.5t27 9q12 -5 25 -7.5t25 -5.5q1 -5 3 -7.5t3 -7.5l34 5q5 0 18 -11.5t11 -16.5q2 -2 5 -2zM242 255q11 8 21 7q2 5 6.5 6.5t11 7t11.5 15t14 14.5q2 8 7 13.5t9.5 11t6 14t3.5 22.5
t2 28t-4.5 19t-5.5 11t-0.5 9.5t0.5 8.5v3q-6 6 -11.5 9.5t-10.5 8.5q-23 1 -42.5 9t-41.5 11q-11 7 -20 7t-12 -0.5t-5 -1.5t-4 -2.5t-5.5 -3t-7 -1t-8 -1t-10 -5.5t-10.5 -6q-2 -7 -6.5 -11.5t-9 -19t-4.5 -24t7 -44.5l-2 -2q2 -9 4.5 -15.5t4 -11.5t1 -7.5t-0.5 -5.5
l4 -16v-1l4 -4v-4q0 -2 3 -5.5t3 -11.5q6 -4 12 -11.5t12.5 -11.5t19.5 -5.5t24 -6.5q16 4 30 4z" />
    <glyph glyph-name="p" unicode="p" horiz-adv-x="478" 
d="M88 -327q-24 3 -24 11q0 10 15 20q14 7 19.5 7t7.5 -1q5 5 11.5 6t12.5 6v2q-1 5 2 9.5t3 11t-2 6.5q-5 0 -4 8.5t1 12.5l-5 17l3 17l-3 17l3 11q0 10 -5.5 25.5t-5.5 30t-1.5 23t-3.5 14t-2 9.5v25l-4 29q-1 5 -0.5 8.5t0.5 8.5l-8 69q0 21 -8 53q-5 37 -5 52.5t-3 22
t-4.5 19.5t-1.5 37t-4 34l2 6l-4 40l2 58l-4 20l2 22l-4 69l2 32q0 32 -2 66q-1 1 -2 1l-7 -5l-29 -8q-5 0 -8.5 4t-7.5 6q-2 2 1 2q1 2 -1.5 5t-2.5 4.5t3 3.5q7 5 30 10t34 14h2q12 0 22 8q32 0 33.5 4t7.5 4q12 0 19 -16q-4 -14 -15.5 -21t-23.5 -12q-3 -7 -3 -19l1 -40
v-24q0 -13 1.5 -21.5t2 -13.5t7.5 -6l2 -1q6 0 5 4q0 5 8 9v4h4q4 5 7 10.5t6 10.5q7 2 9.5 7t5.5 7t4.5 1.5t3.5 0.5l1 4q2 1 3.5 1t2.5 1l2 4q8 6 18 10t18 11l14 2t23 9q6 1 20 0.5t33.5 -0.5t30.5 -5.5t17 -12.5t15 -10q2 -5 5.5 -8t6.5 -7l2 -7l4 -2l2 -6
q34 -56 34 -105.5t-25 -104.5q-7 -15 -16.5 -28.5t-18.5 -28.5q-8 -1 -12 -6.5t-19 -14.5t-36 -11q-10 -7 -16 -9l-17 -2q-7 -2 -11.5 -5t-14.5 -3t-17 6h-2l-8 -1q-7 0 -13 4.5t-14 4.5l-16 -3q-3 0 -3 4t-3 4q-2 3 -6 2.5t-8 2t-5 9t-9 6.5q-4 -3 -4 -12.5t3.5 -29
t3 -26.5t1 -13t4 -11t2.5 -9l-2 -5q0 -4 2 -8.5t2.5 -10t4 -19.5t0.5 -17q0 -17 4.5 -33.5t4.5 -34.5l-2 -19q0 -9 6 -24q3 -14 3 -29t2 -25.5t4 -15.5t2 -13v-9q0 -2 -1 -2t-1 -2l3 -22q1 -12 0.5 -24t0.5 -25q2 -6 2 -9l-2 -10q0 -12 4 -25t6 -26q4 -2 10 -2t11.5 7.5
t10.5 7.5l5 -1q4 -8 4 -19.5t-2.5 -11.5t-4.5 -2.5t-1 -3.5q2 -4 -5.5 -5.5t-13.5 -4.5q-10 -5 -15 -5h-6q-18 0 -30 -4.5t-22 -5.5q-40 -4 -53 -13zM165 455l-8 -24l2 -5q0 -10 -7 -20t-8.5 -16t-1 -13.5t0.5 -16t3 -12.5q8 -13 6 -27.5t6.5 -24.5t14.5 -19.5t9.5 -15
t6.5 -7t9.5 -2t18 -3t17.5 -5t15 -2.5l39 5q2 1 5 4t8 3t8 1.5t8 6.5t8 6q7 1 19 24q19 38 19 54v15l2 24l-4 21q0 3 2 5l-4 36l-3 14q0 6 -3 10t-1 10q-9 13 -9 21.5t-3 17.5h-5q-1 2 -1 5.5t-1 4.5q-8 1 -15.5 5t-15.5 4l-14 -2l-12 2l-11 -4q-4 -1 -8 -0.5t-8.5 0.5
t-10 -5.5t-10.5 -9.5q-7 0 -11 -3.5t-11 -3.5q-5 -15 -25 -28q-4 -14 -17 -23q1 -2 1 -7z" />
    <glyph glyph-name="q" unicode="q" horiz-adv-x="468" 
d="M389 216l-13 -81l1 -21l-6 -40q0 -2 -2 -2l2 -7l-4 -20l2 -17l-6 -29l1 -17q0 -7 -1.5 -13t-2.5 -12.5t-0.5 -12t0.5 -12.5l-2 -14q0 -9 9 -9q5 0 11 5t8 10q8 4 12.5 16.5t18.5 21.5q4 12 12 22l4 2q7 22 21 22q17 0 17 -19t-12 -31h-5q-2 -2 -1 -4t-2 -5.5t-6.5 -3.5
t-3.5 -6t-3 -9l-8 -8q-12 -14 -13 -19q-3 -2 -5 -2h-7q-2 -18 -10.5 -26t-14.5 -12t-13 -11q-2 -4 -6.5 -16.5t-9 -19.5t-5.5 -22.5t-4 -25.5q-15 -20 -27 -20t-18 3.5t-7 19.5t-2 24.5t-2 16t-1 14.5l5 22q0 1 -1.5 1t-1.5 3q2 2 2 22.5t2 32t4 17.5t2 14l-2 17q0 5 2.5 12
t2 15t-0.5 13.5t1 10.5q5 17 5 44l-2 19l4 21q0 6 4 7q-1 5 -1 27t5.5 45.5t5.5 25.5l-1 13l4 23l-2 11l2 9l-2 18q0 12 -4 20q-8 0 -11 -4t-10 -6v-1q0 -4 -5 -3.5t-5 -2.5l-8 -7q-8 0 -17.5 -6t-17.5 -6l-9 2q-3 0 -5 -1.5t-4.5 -2.5t-6 -0.5t-7.5 0.5l-13 -1q-8 0 -16 -5
q-12 3 -16 3t-8 -3q-6 10 -23 10q-1 5 -4 4.5t-7.5 2.5t-8.5 8.5t-12 5.5q-8 12 -17 20.5t-17 19.5q-8 15 -15 28t-7 39t2 41t7.5 25.5t14.5 22t22 39.5q10 7 20 13t20 15q11 2 21 7t19.5 9.5t20 5.5t20.5 2l11 -7q2 1 5 1l38 -7l2 -4q13 -5 14 -16q9 -3 15.5 -8.5t11 -9
t7.5 -4.5t7.5 -5t8 -12.5t11.5 -13.5q5 2 5 7.5t1 11t5 24t11.5 52.5t16 43t16 9t13.5 -5.5t6 -10.5l-11 -88l2 -12l-6 -21l2 -10q0 -7 -2.5 -22t-3.5 -22.5t-3 -20.5t-1.5 -33.5t-2 -33.5t-4 -19.5t-1.5 -11.5l3 -26q0 -8 -3 -41q2 0 2 -2l-3 -22q1 0 1 -7zM122 426l-2 -14
q0 -5 4 -12.5t6.5 -15t3 -18t3.5 -17.5t5.5 -7.5t2.5 -8.5t9 -16.5t11 -11.5t1.5 -4t2 -4.5t7.5 -6.5t9 -7h8q45 0 83 27q7 5 17 6q8 11 14.5 22t14.5 21v3q-1 8 2.5 14.5t6 13.5t2.5 14v12q0 8 -8 27.5t-16 23.5q0 5 -4.5 6t-3.5 6q-18 6 -22 16h-2q-5 0 -10.5 2.5
t-10.5 3.5q-16 12 -39.5 19t-29 7t-8.5 -7q-4 -1 -6 -2t-7 0q-2 -7 -11.5 -8.5t-14.5 -4.5l-2 -4h-4v-4q-3 -6 -6.5 -26t-5.5 -30.5t-2 -12.5q2 0 2 -2z" />
    <glyph glyph-name="r" unicode="r" horiz-adv-x="390" 
d="M127 473l-3 -15q0 -11 12 -17q3 1 10 7.5t22 19t17 19.5q8 5 19 14.5t13 12.5h4q19 19 46.5 26.5t36.5 7.5q29 0 48 -22q4 -6 8.5 -12.5t12.5 -14.5q6 -4 8.5 -18.5t6.5 -20.5q-2 -4 -5.5 -11.5t-8 -15t-8 -14t-6 -8.5t-11.5 -7.5t-12 -11.5q-1 -1 -9.5 -3t-10.5 -4h-2
q-3 -1 -3.5 2t-2.5 5h-4q-8 0 -11 4l-9 8q6 16 16 26q8 -2 15 -2q16 0 25 28q-6 10 -8.5 19t-8.5 20.5t-25.5 11.5t-31.5 -9.5t-15 -20.5q-9 -4 -16 -12.5t-18 -15.5t-11 -8.5t-0.5 -2.5t-3 -2t-8.5 -4q-2 -3 -3 -6.5t-3 -7.5q-5 -1 -8.5 -4.5t-8.5 -4.5l1 -9q0 -13 -18 -31
l4 -13v-1q-4 -6 -5.5 -14t-7.5 -13q-5 -25 -5 -58l1 -79q0 -5 1 -15.5t2.5 -30.5t5.5 -27l-1 -4q1 -2 1 -11.5t3.5 -20t0.5 -22.5q3 -8 16 -8t18 4h1q4 0 3.5 3t1.5 6q4 2 10.5 2t10.5 -8t4 -14.5t-1 -9.5q-9 -7 -20 -6q-3 -2 -6.5 -5.5t-9.5 -6.5t-24 -2.5t-25.5 -2
t-9 -3.5t-7 -2.5t-14.5 -1.5t-16 -6h-2q-3 0 -4 1.5t-3 2.5q-10 -2 -16 -2t-9 2q2 27 42 36q0 5 4 6v2q0 11 -4 22t-4 23l2 13l-6 32l2 18l-6 58l2 41v12l-6 28l2 17l-2 32l2 24l-3 35q-1 12 -0.5 24t0.5 24l-3 19q0 12 -2 28q-6 -2 -13.5 -0.5t-11.5 -6.5q-4 3 -5 3l-15 -6
q-1 5 -5.5 4t-7.5 -1h-1q-2 9 -2 12q0 16 16 16l12 3q32 9 46.5 14t18.5 4t8 -7t6 -13t2.5 -14.5t1.5 -14.5z" />
    <glyph glyph-name="s" unicode="s" horiz-adv-x="334" 
d="M322 581q13 0 13 -17q0 -8 -7.5 -15.5t-10.5 -11t-4 -3.5q0 -13 -11 -17l1 -2q0 -4 -6 -8q1 -1 1 -6.5t-4.5 -10t-4.5 -11.5q-5 -1 -8 -4t-8 -4q-2 -5 -5 -8.5t-6 -7.5q-4 -2 -5 -7t-7 -5h-2q-8 8 -8 19.5t6.5 24t17.5 15.5q-1 7 -1 13.5t-2.5 13t-8 9.5t-6.5 10
q-8 0 -15 4t-15 4l-25 -4q-3 0 -9 2q-10 -3 -14.5 -12.5t-14.5 -12.5q-4 -9 -10 -16t-9 -16q4 -12 3 -23t-1 -22l1 -13q8 -31 21.5 -64t14.5 -34.5t1 -5t4 -10.5t8.5 -14.5t9.5 -14.5t9.5 -16.5t9.5 -25t9.5 -25t7 -12t5 -6.5t2 -8t1.5 -10.5t5.5 -12t3.5 -14.5
q3 -3 4.5 -7.5t5.5 -7.5q2 -16 8.5 -31t6.5 -25.5t2 -11.5t2 -10.5t-5 -29.5t-5 -36.5t-6 -25t-4 -17.5q-5 -2 -7 -7.5t-8 -7.5q1 -1 1 -2t-6.5 -7t-8.5 -6q-3 -9 -3 -12q-8 -4 -14 -9.5t-14 -8.5q-6 -6 -13.5 -11t-11.5 -13q-9 -2 -18 -6t-15.5 -4t-12.5 2q-5 -1 -9.5 -4
t-11.5 -3l-13 1l-16 -3q-6 0 -11 6t-9 11h-3q-10 0 -14.5 6t-12.5 9q-6 13 -14 23.5t-11 21t-7.5 14t-4.5 9.5l1 13l-3 23q0 9 5 16.5t5 15.5q2 0 34 32q8 0 13 3t13 5l19 -9q16 -8 21.5 -18.5t11.5 -18t6 -14t-6.5 -12t-13 -5.5t-14 5.5t-15.5 8.5q-5 5 -6.5 12.5t-7.5 9.5
l-26 -12l2 -14v-2q-5 -4 -3 -14t-6 -14q6 -5 6 -11t3.5 -14.5t12 -17.5t13.5 -19h2q9 0 13 -9q15 -3 22 -3h5l2 2l6 -1q11 0 20 3.5t19 4.5q8 4 14 9t12 9t12 7t12 7l2 4h4q1 2 0.5 3t1 3.5t4.5 4.5t4.5 6t1.5 12.5t1 13.5t3 9.5t2 7.5l-3 13l1 15q0 17 -7 33.5t-6 33.5
l-8 12l-3 8l-5 3l-2 14q-2 5 -7 11.5t-6 13.5t-2.5 11.5t-1.5 10.5t-1 10q-2 4 -3.5 2.5t-1.5 5.5v1q-3 8 -11 19t-11.5 19.5t-4.5 13t-6 7.5q1 1 1 4q0 16 -14 23v7q0 4 -1.5 4t-2.5 2l-6 13q-10 17 -12 29.5t-3.5 21t-1 14t-1 12t-3.5 14.5t-2 15.5t2.5 21t1 25t0.5 22.5
l4 5v4q0 4 15.5 32t16.5 30q2 2 5.5 4t5.5 4l27 29q11 2 22 4.5t22 2.5l10 -2q2 0 2 1.5t2 0.5l2 -3q4 -2 9 -1.5t8.5 -1.5t7 -6.5t5.5 -4t3 0.5t3 1l2 -2q1 -5 4 -7t7 -7v-4l4 1q10 -13 15.5 -13t8 3.5t5.5 7.5t6.5 8t12.5 4z" />
    <glyph glyph-name="t" unicode="t" horiz-adv-x="332" 
d="M268 167l17 2q5 0 9.5 -4t11.5 -2q3 -7 15 -12q1 -9 12 -14q1 -8 4 -13.5t2 -13.5v-2l-3 -2q0 -2 1.5 -2t1.5 -5.5t-4.5 -17.5t-9.5 -19q-2 -14 -8 -22.5t-11 -20.5q-9 -1 -16 -8t-10 -6.5t-8.5 -2.5t-8.5 -10l-5 2q-3 0 -5 -3.5t-8 -5t-16 -1t-20 -4.5q-13 11 -23 10
q-2 7 -10 9.5t-14.5 6t-12 8.5t-12.5 8q-1 6 -5 8.5t-3 10.5l-11 5v4q0 15 -3.5 20t-5 12t-1 12.5t0.5 12t-4 17.5t-3.5 19.5t-1 20.5t-4.5 30t-5 32.5t-1 25t1 20.5v17q0 13 -2.5 19t-2.5 9l4 21l-4 11l4 28l1 37q0 30 -7.5 41t-13 11t-11.5 -4t-14.5 -3t-13.5 1l-7 -1
l-15 3q-6 12 -6 18t3 10t5 9q7 2 18.5 2t16.5 6q3 -3 8 -3t10 2t11 1q9 14 9 37l-5 67l2 16l-2 15q2 6 2 8l-2 6q0 3 4.5 16.5t6.5 20t3.5 9.5t4.5 6t3 7h4l6 2q21 0 21 -25v-13q0 -9 5 -19q1 -35 6 -69.5t7 -70.5q9 -6 21 -6l37 4q15 0 19 -5.5t8 -5.5l-1 -3l3 -11
q0 -11 -9 -15t-16 -9q-28 11 -38 11t-16 -3q-3 -6 -3 -11l5 -23l-4 -42l4 -20l-2 -20l2 -35l-4 -33q0 -31 8 -35q1 -1 1 -5l-1 -34l8 -105l-2 -17q0 -7 4 -19t6 -19t4 -9.5t6 -3.5t6.5 -3t2.5 -4t2 -5t10 -7t16.5 -4t18 4t16.5 8.5t13 9t13 5.5l-1 2q0 4 4.5 7.5t6.5 9.5
l3 26q0 23 -12.5 23t-15 -8t-7.5 -16q-5 -3 -11 -3q-17 0 -28 17v9q0 6 4 6q-2 2 -2 5v13q2 7 13.5 13t17 9t8.5 4z" />
    <glyph glyph-name="u" unicode="u" horiz-adv-x="494" 
d="M421 65l-25 -6q-8 0 -15.5 -5t-11.5 -6.5t-6.5 -1t-4.5 0.5l-16 -5h-6l-3 1q-4 -2 -3.5 1t-1 6t-2.5 4t-1 6v11q7 1 11 4.5t12 3.5q0 6 5.5 6.5t7.5 4.5l-4 73l2 10q0 6 -3.5 12t-3.5 14l3 17q0 14 -2.5 27.5t-4.5 29.5t-2.5 34t-8.5 35h-2q-2 0 -3 -4t-3 -6
q-8 -5 -9 -14q-4 -2 -7 -5t-8 -5v-2q1 -5 -2.5 -7t-6.5 -4v-2q0 -11 -7.5 -16.5t-10.5 -10.5t-2.5 -7.5t-0.5 -5t-2 -3.5q-11 -17 -11 -44l-13 -3q0 -8 -5 -11t-3 -12q-6 -2 -9 -8t-9 -9v-3q0 -5 -3 -6.5t-3 -6.5t-6 -10t-7.5 -9t-3.5 -6l-12 -8q-8 -6 -12.5 -10t-19 -4
t-23.5 6.5t-14.5 11.5t-13.5 10q-5 8 -15 16t-12.5 12.5t-2 7.5t-2.5 7t-3 16v16q-4 24 -4 26l2 17l-4 19l2 2l2 89q0 58 5.5 99.5t5.5 51t-2 14.5q-13 2 -26.5 2.5t-25.5 6.5q-1 2 -1 7q0 17 37 15q9 -1 14 -1h9q4 0 9 1l4 4l18 -2l22 2q17 0 17 -15q0 -8 -11 -11
q1 -1 1 -5t-6 -7.5t-6 -6.5l3 -50l-5 -30l2 -12l-2 -17l4 -70l-2 -82q0 -47 15 -89q2 -7 4 -14.5t9 -11.5q19 8 28 20.5t13.5 21t9 15t8 9t7.5 6.5t7 10t8 11q2 10 3 20.5t4 15.5q18 30 18 38q14 6 22 22q14 32 26 40q2 15 8.5 31t6.5 24.5t12 24.5q-1 1 -1 7.5t4 12.5
t4 17.5t2.5 16t4.5 11.5t2 12t1 9q0 8 16 18q19 -5 20.5 -18.5t1.5 -28.5l2 -9l-4 -26l4 -24l-2 -10l4 -28l-2 -13q0 -17 3.5 -39t5 -26.5t1.5 -7.5t-2 -4q10 -78 10 -128l-2 -11l6 -32l-4 -14l4 -31q4 -4 11 -4l34 6q5 0 13 -4.5t8 -11.5t-9 -9t-12.5 -3.5t-5 -3t-3.5 -1.5
l-12 2z" />
    <glyph glyph-name="v" unicode="v" horiz-adv-x="457" 
d="M44 514l-26 -6q-7 0 -10 1q-5 7 -5 14.5t3.5 11.5t8.5 5.5t10.5 2.5t8.5 3h6q8 0 14 6h4q4 0 13.5 4t19.5 4t16 -4q-3 -21 -3 -29.5t3.5 -14.5t6.5 -12.5t3 -10.5t1.5 -6.5t5 -7t3.5 -8.5t2 -8t2.5 -2.5t0.5 -4.5q0 -8 4 -16l2 -14q2 -8 8 -17t8 -13t1.5 -7t1 -7t3.5 -10
t4 -11.5t3.5 -14t5 -14t7 -14.5t6.5 -22t12 -25q0 -11 3.5 -22t5.5 -22l2 -15q9 -19 12 -20q2 -6 2.5 -16.5t11.5 -10.5q2 0 2 2v4q5 0 6.5 7t4 13t9 11.5t10.5 12t5 13t8 9.5v3q0 4 12 34q13 32 17 36q7 4 6 8t3 8.5t4.5 17t3 20t6.5 13.5q6 11 8.5 28.5t8.5 24.5t3 15
q4 1 5 5t8 10.5t9 22t8 26.5q0 6 -5 7.5t-7.5 4t-4.5 2.5l-17 -5h-3q-9 14 -9 23t3 15q14 2 31 5t31 3l20 -6l8 2q2 0 2 -1t2 -1t2 1t2 1l11 -2h45q1 -7 5 -9t4 -9t-6 -14.5t-14 -7.5l-6 2q-3 0 -7.5 -3t-12.5 -3l-35 3h-3q-8 -8 -7 -18.5t-1.5 -16t-1.5 -7t-4.5 -5t-7 -6
t-1 -3t0.5 -2.5v-1l-4 -2q-2 -6 -2 -10v-10q-7 -9 -11 -20.5t-12 -19.5q0 -6 -6 -21q2 -6 2 -13t-6.5 -14t-4.5 -20q-8 -7 -10 -17t-5.5 -16.5t-8 -11.5t-6.5 -10.5t-2 -11t-2 -10.5l-5 -5q-2 -5 -2 -10v-11q-14 -10 -14 -17t-2.5 -12.5t-9 -9.5t-6.5 -12q-7 -7 -6.5 -10.5
t-1 -6t-5.5 -10.5q-3 -11 -4 -20.5t-3.5 -18t-4 -12t-1.5 -9.5l-1 -1l-3 -2q-3 -5 -3.5 -11t-4.5 -11q-9 -4 -19.5 -3t-19.5 -1q-4 6 -10 11v5q0 17 -7 31.5t-9 31.5q-2 6 -5 7t-10 25t-26 72t-16 53v4q0 2 -4 4q-1 4 -0.5 7t-1.5 7q-10 8 -19 47.5t-12 45.5t-8.5 25
t-16.5 32q1 2 1 6t-5 24q-6 16 -9 22z" />
    <glyph glyph-name="w" unicode="w" horiz-adv-x="664" 
d="M551 489q-13 10 -25 10t-15.5 9t-8.5 17q1 5 4 8t5 8q9 2 18 2t18 2q2 -2 6 -2.5t5 -5.5l2 1q2 0 2 -2l45 -7l6 2l13 -4q11 0 21 3.5t22 6.5q4 -1 9.5 -7.5t5.5 -10.5v-2q-6 -11 -16.5 -17.5t-18.5 -15.5h-3l-12 -3q-4 0 -5 3q-11 -8 -26 -8q-3 0 -4.5 -5.5t-3.5 -7.5
t-1.5 -3t0.5 -2.5t-3.5 -7.5l-7 -12t-3.5 -20t-2.5 -15t-2.5 -3v-14q0 -6 -1 -6.5t-3.5 -5t-2.5 -13.5t-21 -34v-5q0 -9 -6 -13v-5q0 -13 -6 -14q2 -3 2 -12t-7 -18t-7 -14l2 -9q-6 -3 -8 -8.5t-6 -10.5q2 -4 2 -8t-2 -8.5t-3.5 -10t-1 -11t-1.5 -10t-6.5 -8t-7 -9.5t-3 -14
t-3 -14t-3.5 -7t-1 -8l2 -25q0 -6 -4 -6.5t-7 -3.5l-1 -2l3 -11v-1q-4 -3 -6 -7.5t-6 -8.5q-1 -4 -0.5 -7.5t-1.5 -7.5l-4 -2q-6 -15 -16 -15q-7 0 -21 11q-4 12 -12.5 23.5t-11.5 25.5t-6.5 23t-3.5 13.5t-5 7.5v2q0 5 -4 15.5t-8 12.5v6q0 5 -2.5 9.5t-1.5 10.5q-2 5 -5 8
t-6 10t-3.5 14.5t-7.5 14.5v2q0 2 2 6l-15 38v7l-4 2q-2 6 -3 14.5t-2 11t0 2.5t1 2t-6 15t-5.5 19t-1 11.5t-3.5 11.5t-4 11.5t-3 12.5t-8.5 7t-7.5 -7l1 -10q-3 -4 -3.5 -10.5t-6.5 -9.5v-5q0 -9 -5.5 -16t-6.5 -14q-3 0 -3.5 -4t-2 -6.5t-3 -4.5t-3 -7t-1.5 -12
t-2.5 -16.5t-7.5 -17t-4 -19.5q-5 -1 -5.5 -4.5t-4.5 -5.5v-4q1 -5 -2 -10t-3 -10v-6l-11 -37l4 -5v-2q-2 -9 -2.5 -23.5t-4.5 -20.5q5 -4 5 -15t-5 -23l-26 -13q-8 0 -10.5 5t-9.5 6v13q-11 24 -11 63q0 1 2 3q-1 5 -4 8q-5 7 -4 16q1 11 -5 23q-1 8 -1 13t-1.5 6.5t-4 8.5
t-4 17.5t-4.5 20.5l-4 4v4q0 2 -1.5 4.5t-3 6.5t-0.5 10.5t-1 10t-1.5 5.5t0.5 4t-4 8q-1 6 0 13t-5 12t-8 10l-8 32v4q2 0 2 1l-2 6q0 2 2 4q-2 2 -3.5 9.5t-3.5 15.5t-3 16q-3 14 -6 17t-2 5t1 5t-3 6q-6 7 -4 19t-3.5 20.5t-7.5 14.5h-4l-40 -4h-3q-8 13 -8 22q10 7 13 8
l2 -2l4 2l11 -2q21 0 29 10q18 2 38.5 3.5t34.5 14.5q13 -4 22 -13q-2 -6 -2 -8.5t2 -6.5q-2 -2 -3 -2l-8 2h-2q-11 -14 -18.5 -14t-11.5 2q-5 -6 -5 -11t2.5 -13.5t5.5 -19.5t6 -21.5t4 -16.5q5 -4 5.5 -13.5t6.5 -18.5l-1 -7q0 -4 2.5 -6.5t5.5 -10t1 -15.5t8 -19
q2 -19 10.5 -39t8.5 -30l4 -22q0 -10 4.5 -19t5.5 -18q7 0 11.5 2.5t10.5 4.5q0 23 6.5 37t10.5 16v4q0 6 2.5 8.5t1.5 11.5q2 2 5 4t3 4l5 16q5 10 10 19t7 20l-1 11q0 5 2.5 10t4.5 13.5t1.5 20.5t1.5 24l8 23q7 9 6.5 16.5t2.5 12.5l3 2q3 6 5.5 9t9.5 3t11 -5t7.5 -11.5
t5.5 -13.5t5 -12l-1 -5q0 -4 2.5 -8t4.5 -10t3 -15.5t4 -18t3.5 -18.5t3 -20t10 -24.5t7.5 -25.5v-2l4 -1q2 -8 2.5 -16.5t7.5 -13.5q-1 -1 -1 -3l2 -13q3 -6 8 -11v-11q3 -8 6.5 -11.5t3.5 -12.5q5 -9 7 -15t5 -11.5t2.5 -6.5t-0.5 -4.5t4 -9.5t4 -17q8 -12 10.5 -26.5
t10.5 -26.5h5q3 0 4 -2q13 11 19 53q5 2 6 8.5t3 11.5l4 4q2 5 0.5 11t6.5 16t8 19.5t2.5 11t2.5 5t4 10.5t2 15q3 7 6 11t2 12q3 1 7 10.5t13 30.5t9 29t5 9q-1 2 -1 11t5 18.5t5 15.5t-2 11l4 19q0 5 -3.5 8.5t-2.5 8.5q-1 2 -5 2z" />
    <glyph glyph-name="x" unicode="x" horiz-adv-x="472" 
d="M483 12q0 15 -37 15q-9 0 -15 3q-7 12 -6 18v2q4 5 12 6t10 10h3q8 -1 20 8l14 -6l2 -5q13 -6 15.5 -14.5t5.5 -16.5l4 -13q2 -6 2 -10l-15 -50q0 -2 -2 -1.5t-3.5 0t-2.5 -0.5q-1 -1 -0.5 -2.5t-1.5 -3t-7 -2t-9 -1.5l-2 -4q-4 -2 -8 -2.5t-7.5 -1.5t-6.5 -4t-7 -5
q-8 0 -16.5 2t-17.5 0q-8 8 -17.5 12t-17.5 10l-2 4q-3 1 -21.5 21.5t-23.5 27.5q-4 4 -12 6q-7 10 -13 19.5t-15 17.5l1 3q0 8 -9 14.5t-9 14t-2 12t-7 5t-7 2.5q-10 34 -31 42q-1 2 -1.5 6.5t-5.5 5.5q-17 -4 -19 -26q-5 -2 -7.5 -6.5t-7.5 -6.5v-2q0 -4 -4.5 -7.5
t-6 -6.5t-1 -6.5t-1 -5.5t-2.5 -2t-2.5 -2.5t-2.5 -6.5t-6 -4q0 -11 -6 -15.5t-10.5 -12t-4.5 -10t-11 -11.5v-5q1 -3 -2 -12q-7 -7 -14 -20t-6.5 -17t7.5 -4l17 2h4q2 -3 6 -6.5t4 -6.5t-5 -10.5t-7.5 -6.5t-4.5 1t-4 -4.5t-5 -4.5q-40 0 -47 7q-4 -4 -34 -8.5t-37 -7.5
q-10 7 -10 15t4 16h4q8 0 14 6t15 6l18 -4h2q12 2 16.5 14t13 24.5t15.5 34.5q2 2 4.5 4t4.5 4l2 6l4 3q3 5 4.5 11.5t4.5 11.5q2 1 3.5 1t4.5 8l8 8q4 18 14.5 30.5t15.5 20.5q4 8 8.5 14t8.5 14q7 9 16 37q-5 11 -12 21.5t-10.5 18t-6.5 10.5q-9 7 -7 11q0 5 -3 7.5
t-4.5 4.5t-0.5 5q2 7 -4 7q-4 0 -5 6.5t-3 10.5q-6 4 -7 6q-5 21 -33 65q-2 2 -4 3t-4 3q-6 20 -15.5 37t-17.5 36q-7 2 -13 4t-13 2l-21 -6h-3q-8 8 -8 25q6 7 25 11l29 6q10 2 15 7h14q9 7 39 13q4 -4 8 -6.5t6 -8.5q-2 -6 -6.5 -8.5t-3.5 -11.5q-6 -1 -8.5 -5.5
t-6.5 -8.5q2 -6 5 -11l6 -12l4 -3q3 -13 11.5 -24.5t14.5 -15.5q5 -10 8.5 -19.5t8 -17.5t9.5 -14t9.5 -12.5t7.5 -13.5t10 -12q1 -8 4.5 -13t4.5 -12q8 -2 9.5 -9.5t9.5 -9.5q5 2 12.5 14.5t14.5 17.5q0 3 4 13.5t6 12.5t3.5 1t9.5 9t8 17.5t2 11.5q8 18 19 22q11 32 30 49
q6 23 26 39q1 10 5 16t9 14q-1 5 -3 7.5t-1 7.5q-3 -1 -9 -1t-13.5 3.5t-15.5 6.5l-2 16v5q9 10 22 10t22 -6q7 -2 14 -1t14 -1l5 -4l7 2q5 0 9 -1.5t15 -3.5t26 -8t15 -27q0 -5 -4.5 -7t-6.5 -8l-41 10q-5 -1 -7 -4.5t-4.5 -3.5t-6.5 2q-4 -2 -5 -5.5t-6 -4.5q1 -1 1 -6.5
t-9.5 -16t-10.5 -20.5q-3 -4 -4.5 -3t-4.5 -2v-1q0 -8 -4.5 -12.5t-5.5 -12.5q-14 -8 -19 -21t-12 -19q-1 -2 -0.5 -3t0.5 -3t-3.5 -4.5t-5.5 -6.5t-3.5 -10.5t-3.5 -11.5q-4 -2 -6 -2l1 -3q0 -6 -4.5 -9t-4.5 -12q-8 -3 -10.5 -10.5t-10.5 -10.5q0 -5 -5.5 -16t-9 -15
t-6.5 -3q-1 -7 -6.5 -11.5t-5.5 -8t1 -5t2 -3.5l7 -21q1 -2 2.5 -2t3 -2t2.5 -4.5t3 -5.5t5 -6t5 -5.5t2 -5.5t9 -12q3 -5 4.5 -10t5.5 -9.5t8 -8.5t7.5 -9.5t5.5 -12.5t5.5 -14t7 -10.5t9.5 -15.5t18 -24t14 -20q8 -3 14.5 -13t13.5 -13q1 -2 0.5 -3t1.5 -3l3 -1v-4h4
q19 -27 38 -27q9 0 15.5 10.5t10.5 16t6 7t2 8.5z" />
    <glyph glyph-name="y" unicode="y" horiz-adv-x="451" 
d="M150 420q-8 -24 -22 -32q1 -11 9 -20t11.5 -16t4.5 -10t5.5 -11t11.5 -17t12.5 -18t10.5 -17l8 -11q4 -5 7 -11t7 -12l3 -2q6 -12 12.5 -23t11.5 -22l4 -2q4 -12 10 -22l4 -2q6 -15 14 -15t12 15q7 33 11 36q2 4 2 7.5t2 7.5l6 11l5 15q1 3 2.5 5.5t3 6.5t1.5 10.5
t3 14.5t7 20t9.5 23t10 21.5t8 17.5t5 9l3 4t1 4.5t1 5.5t5.5 5.5t7.5 10.5t7 22t13 21t19.5 7t14 -5t8 -7v-3q0 -19 -10 -22q-7 -26 -14.5 -42.5t-10.5 -17.5q-6 -25 -22 -45q-2 -5 -2 -11q0 -13 -9 -24t-9 -20v-12q0 -10 -9 -23q0 -10 -3 -19q-15 -39 -14 -55
q-5 -2 -11 -22t-6 -24l1 -18q0 -10 -5 -13.5t-7.5 -7.5t-4.5 -8t-6 -6q2 -2 2 -9.5t-20.5 -48.5t-22.5 -44v-16q-3 -4 -5.5 -8t-6.5 -8t-5 -9t-8 -4q-3 -13 -9 -24.5t-7.5 -19t-4.5 -8.5t-5 -3.5t-2.5 -5t-2.5 -1.5h-3v-1l2 -9v-3q-14 -11 -19 -34q-8 -4 -10 -9t-7 -10
q-5 -8 -12 -14t-11 -16q-5 -1 -9 -1.5t-9 -2.5q-6 -8 -15 -11.5t-15 -14.5q-9 -2 -21.5 -8.5t-23.5 -8.5q-3 -2 -5.5 -4t-8.5 -4.5t-26 -2.5t-32 3q-9 -3 -20 -3q-28 0 -28 13q0 3 -4 3.5t-7 4.5v4h-4q-7 6 -8 7q0 6 -3 7.5t-1 7.5q-11 5 -15 26t-4 25l4 13l-2 11q0 5 5 16
t6 18q12 10 14 20q8 3 12.5 9.5t9.5 12.5q11 3 22.5 6.5t27.5 3.5t27 -9.5t17 -16t14 -13.5q-2 -16 -2 -26q-5 -2 -9 -5t-11 -3t-9.5 6t-10.5 8l-7 18q-7 1 -13 3t-16 2t-15 -9t-13 -16l-2 -4q-3 -2 -7.5 -4t-5.5 -6q2 -4 2 -10t-4.5 -13t-4.5 -15t4.5 -16.5t6.5 -16.5
q9 -6 14.5 -14t13.5 -13q8 -2 15 -0.5t15 1.5l12 -4l1 3h14q12 0 30.5 5.5t27.5 10.5l9 7q7 5 14.5 9.5t13 10t10 12t11.5 10.5q6 12 15 27q35 57 40 87q7 5 16 26.5t14 24.5q3 16 9 21q1 13 7.5 24t8.5 21.5t5 19.5q9 12 9 24.5t-4 18.5t-2 14q-3 1 -5 3.5t-6 4.5
q-4 10 -9.5 16.5t-10.5 14t-6.5 15t-11.5 9.5l1 2q0 4 -2 5.5t-1 6.5q-1 4 -7 4q0 6 -4 10.5t-6 8t-1.5 4.5t-1.5 3l-4 2q-2 2 -2 4.5t-3 8t-8.5 14t-9.5 18.5q-8 9 -15 17t-11 20q-10 9 -16 21.5t-15 22.5v2q0 5 -5 14.5t-8.5 12.5t-6 6.5t-3.5 7.5t-4 7l-32 -2
q-22 0 -22 7l2 7q0 2 -2 2l-4 7q0 3 2 3q1 8 13.5 8.5t22.5 4t16 1.5q5 2 10 6t11 4l17 -2l16 4l14 -2l7 2q10 0 19 -12z" />
    <glyph glyph-name="z" unicode="z" horiz-adv-x="400" 
d="M143 454l-24 -9q-5 0 -9 2q-22 -14 -30 -23q-2 -6 -1 -13t1 -14t-6.5 -19t-13.5 -12q-12 0 -18.5 13.5t-6.5 23.5l4 54l-1 27q0 8 4.5 17.5t14 9.5t11.5 -7.5t10 -13.5q15 -1 29.5 -0.5t29.5 0.5l12 -1l12 1l10 -1l10 4q9 3 19 2.5t22 2t27 4t30 3.5l11 2l11 -2
q2 0 4.5 1.5t8 3t14 1t18.5 0.5l8 4q5 0 10 -6t5 -11.5t-7 -13.5t-12 -11q-1 -7 -6 -11.5t-7 -10t-9 -8.5q-2 -8 -8 -14t-9 -12.5t-2.5 -11t-1 -8.5t-4.5 -9.5t-7 -11.5t-7.5 -11.5t-5.5 -7.5v-3l-8 -26q-2 -2 -4 -3.5t-5 -6.5t-4 -13t-4 -14l-5 -2q-1 -3 -0.5 -6t0.5 -5v-4
q-8 -6 -10.5 -16t-7.5 -18q7 -4 17 -4l27 2q26 0 26 -18q0 -11 -6 -13.5t-13 -8.5q-12 2 -40 2t-32 -10q-2 -4 -3 -8q-10 -4 -14.5 -14t-6.5 -15t-7 -7q-1 -14 -8 -21.5t-11 -15.5t-5 -12t-6 -3q-1 -14 -7.5 -24t-8.5 -24q-12 -8 -19.5 -25.5t-7.5 -21.5q3 -1 23 -1t32.5 -4
t25.5 -4t27 2l24 -1l48 5l35 -5q12 0 13 9.5t3.5 14t5.5 8.5t6.5 10t6 11t13.5 5l4 -1q6 -9 6 -19t-6 -16q-1 -21 -0.5 -42t-1.5 -43q2 0 2 -2l-2 -4l4 -14q0 -5 -2.5 -8t-1.5 -9q-20 -10 -33 -10q-4 8 -7 11.5t-2 12.5q-4 8 -5.5 20t-9.5 18q-21 0 -28 7l-60 -8l-20 1
q-11 0 -18 -4q-9 1 -17 8q-3 -3 -17.5 -3t-30.5 8q-10 -2 -23.5 -2t-29.5 4q-8 -5 -17 -4.5t-19 -1.5q-2 6 -7 11t-5 9v8t4.5 6t7.5 4l2 4q4 2 7.5 2.5t5.5 3.5q0 6 3.5 11t6 11.5t8.5 16.5t9.5 19t6.5 16t6 12t5 9t2 8.5t1.5 7.5t4 5t4 3.5t1 3t0.5 2.5l4 2q3 5 4.5 10
t5.5 12.5t14 22t10 23.5t-6 12t-24.5 7t-24.5 9q-1 3 -1 7l3 16q7 4 21.5 4t29.5 -13q6 3 14 2t13 2q6 4 13 19q6 15 11 20q1 3 0.5 5t-0.5 5t10 18l22 42t20 35t12.5 23.5t8.5 17.5l13 21q3 6 7 11t4 12t-9 7q-4 0 -7.5 -2.5t-15 -4.5t-30 -1.5t-32 -3t-21.5 -7t-17 -3.5z
" />
    <glyph glyph-name="braceleft" unicode="{" horiz-adv-x="328" 
d="M81 357l24 7q2 0 5 6l6 3q2 2 2 4t2 4.5t4 4t5 5.5q13 36 12 87t-1 66t1 31t3 36t7 40.5t5.5 26t2 9t3 5t2.5 6t1 11t4 16t11 22.5t11 21.5t5.5 13t6.5 9.5h4v3q5 6 13 10.5t14 9.5q8 1 15 1h14q37 0 54 -7q1 -5 3.5 -9t2.5 -9v-4q-3 -2 -5 -3.5t-5 -2.5v1q-1 1 -2.5 1
t-4.5 -6q-6 6 -25 6l-23 -2l-7 2h-1q-6 -1 -13 -9t-8.5 -16.5t-0.5 -21t-5 -21.5v-2l4 -15l-8 -39q2 -1 -2.5 -15.5t-4.5 -56.5l3 -34l-5 -17l2 -20q0 -6 -1 -12t1 -11q-1 -6 -4 -10t-5 -9l1 -7q0 -11 -6 -20t-5 -22q-3 -6 -6.5 -9.5t-3.5 -12.5q-6 -1 -7.5 -6.5t-3.5 -10.5
q-20 -18 -26 -28q-5 0 -6.5 -2.5t-6.5 -1.5q-9 -9 -19 -11q0 -10 10 -16q6 -12 14.5 -22t11.5 -16q4 -9 10 -42.5t6 -36.5l-1 -23l5 -28l-3 -54l-2 -33l4 -26l-2 -14l2 -14q1 -20 5 -32.5t19.5 -23t28.5 -10.5q18 0 35.5 10t24.5 10q8 0 10 -3t2 -3.5t3 -6.5q0 -6 -6.5 -11
t-6 -8.5t-2.5 -3.5l-5 2q-3 0 -3 -3q-5 -5 -7.5 -5t-9.5 -3l-18 -7q-10 -4 -17 -4t-8.5 2.5t-5.5 1.5h-2l-13 -4q-11 4 -21.5 9t-21.5 10q-7 5 -12.5 12t-8.5 10t-6 8t-4.5 15t-8.5 15q1 2 1 5l-6 33l2 9l-4 21l4 22l-4 20l2 28v7l-2 1l2 11l-2 1l2 7l-2 16v15q0 46 -8 54
q1 2 1 7l-7 32q-5 4 -6.5 8.5t-3.5 8t-5.5 5.5t-2.5 7q-16 5 -25 14l-11 -2h-3q-6 5 -15 5q-18 0 -18 20q0 7 2 10q11 8 20 8t10 2.5t3 2.5h1q7 -7 25 -11t21 -4z" />
    <glyph glyph-name="bar" unicode="|" horiz-adv-x="215" 
d="M138 135l2 -16q0 -16 -8 -29q4 -10 4 -19.5t-13 -17.5t-23 -10q-6 2 -8 7.5t-8 9.5l6 50v16l-4 54l5 38l-2 11q0 2 1 2t1 2l-1 10l1 22l-7 67q0 9 2 14l-4 20l2 36l-2 19l4 23q0 2 -2 6t-2 14l-4 23l2 20l-2 19l2 17l-2 11l2 10l-4 24l2 23l-4 30q0 5 2 11q12 6 19.5 6
t11.5 -9t9 -12q1 -8 1.5 -18.5t5.5 -17.5q-1 -2 -1 -7l3 -21l-4 -23l2 -20q2 -14 2.5 -29.5t3.5 -27.5t2.5 -23t0.5 -22q-3 -2 -3 -4l3 -3q0 -3 -2 -6q-4 -6 -4 -16v-9q0 -12 2.5 -22t3.5 -20t0.5 -20t-0.5 -20l2 -11l2 -34l1 -23l-1 -56l2 -9q0 -4 -4 -6q5 -5 5 -13z" />
    <glyph glyph-name="braceright" unicode="}" horiz-adv-x="309" 
d="M278 359l21 5q3 -6 6.5 -9.5t4.5 -8.5q-6 -2 -6.5 -7.5t-8.5 -5.5t-13 -9l-4 1q-5 0 -8.5 -3t-9.5 -1q-3 -3 -6 -5t-4 -6h-8q-11 0 -15 -9t-7.5 -23.5t-8.5 -20.5l1 -5l-5 -28l1 -31q0 -16 -5 -24q8 -14 5 -31t1 -33l2 -4q0 -1 -1 -1t-1 -2l3 -8l-1 -19l1 -19
q0 -6 -2.5 -12t-0.5 -12q-5 -3 -5 -8q-2 -16 -31 -60q-4 -2 -7 -4t-6.5 -2.5t-3.5 -2t-2 -3t-4.5 -0.5t-3.5 -4q-4 -10 -6.5 -8.5t-5 -0.5t-2 -3.5t-0.5 -3.5q-2 -1 -6 -1q-15 -8 -26 -8t-12 -3t-8 -3t-22 6q-2 5 -3.5 8.5t-1.5 11.5t4.5 9t9.5 6l2 1q4 0 5 -3t13.5 -3
t28 12.5t25 26.5t9.5 21l-2 35l-6 52l2 12v20l-2 29l4 42q0 13 5 25t5 19.5t3.5 11.5t2.5 12q5 1 6 7.5t3 11t8.5 14t6.5 16t-12 16.5t-12 12q0 7 -6 7q-2 0 -4 2t-2 4t-1.5 4.5t-3.5 3.5t-3.5 3t-0.5 6t-1 8.5t-4 5.5q-3 2 -3 6v13q0 9 -2.5 14t-2.5 10l2 23v21l1 88
q0 9 3 19q-5 7 -5 19t3 22q-3 4 -3 17.5t-5.5 29t-7 29.5t-5.5 21t-5.5 9t-5 8.5t-10 20t-21.5 13.5t-28 -10q-8 2 -20 0.5t-21 3.5q-2 6 -2 13.5t7 10t8 7.5q10 -2 15 -2l34 6l11 -2l26 1q11 0 22 -11l18 -18q3 -4 7 -11.5t9.5 -11.5t7.5 -7.5t2 -6.5t4.5 -8.5t12 -35.5
t9.5 -33q0 -15 3 -20q5 -11 5 -38v-29l-4 -58l2 -12l-4 -10l2 -21l-2 -21l4 -19l-2 -8v-18q0 -16 9 -33.5t16 -19.5l8 -1q9 0 14 4.5t17 4.5h2l5 4q4 0 4 -2q3 0 4 2q2 0 2 -1t2 -1z" />
    <glyph glyph-name="asciitilde" unicode="~" horiz-adv-x="595" 
d="M90 243l-28 -15h-1q-1 0 -3.5 4.5t-1.5 14.5t-1 18q6 2 7 10.5t9 6.5q1 5 7 12.5t9 12.5l4 1q0 2 -0.5 3t0 2t8.5 7t18 12.5t18 12t9 5.5h5l35 5q31 0 56.5 -7t31.5 -11.5t14 -6.5t15.5 -2.5t19.5 -9t37.5 -21.5t43.5 -13t26 3.5t17.5 9t17.5 7.5t16 6.5t15.5 11
t16.5 12.5q-2 2 -2 5.5t4 9.5q3 2 7 2.5t7 3.5q13 -8 17 -20q-2 -8 -7 -11t-9 -9v-3q1 -7 -3.5 -9t-5.5 -8h-2q-5 0 -7 -4t-10 -8t-10 -9h-2q-13 0 -25 -2q-9 -4 -15.5 -10t-13.5 -11q-8 -2 -16.5 -2.5t-16.5 -3.5q-2 2 -9 2l-19 -2q-4 0 -7 2t-8 0q-7 5 -8 11q-4 -2 -9 -2
t-10.5 5.5t-11 7.5t-10 2t-10 1.5t-11.5 4.5t-12.5 5.5t-14 4t-16 5.5t-13 7t-9.5 6t-21 3t-19 7q-4 -1 -10 -1l-24 2q-9 0 -11 -4t-5 -12q-14 -2 -20 -13q-10 -18 -16.5 -25.5t-6.5 -11.5v-7z" />
    <glyph glyph-name="uni00A0" unicode="&#xa0;" horiz-adv-x="237" 
 />
    <glyph glyph-name="exclamdown" unicode="&#xa1;" horiz-adv-x="214" 
d="M62 592q18 18 52 18q14 0 31 -7.5t17 -28.5q0 -5 -3.5 -9.5t-4.5 -9.5q-8 -3 -15.5 -11.5t-13.5 -8.5t-10 2q-4 -3 -5 -6t-2.5 -6t-14 -3t-19 6.5t-10.5 8.5q-2 7 -6 13t-4 13t4 14t4 15zM74 312v22q0 12 3 24q-2 2 -2 6t2.5 10t3.5 14q4 33 21 33q3 0 9 -2
q19 -17 20.5 -41t7.5 -41q2 -13 2 -63.5t9 -68.5v-53l-2 -35l2 -45l-4 -25l2 -8q0 -1 -2 -5v-2q0 -3 -2.5 -3.5t-4.5 -2.5v-3q0 -10 -5 -14t-10 -11h-1l-22 -2q-2 0 -8 2q-4 0 -7 9.5t-11 11.5q1 3 1 10t-5.5 18t-5.5 24l4 40l-2 55l6 47l-2 11l5 47z" />
    <glyph glyph-name="cent" unicode="&#xa2;" horiz-adv-x="451" 
d="M277 138l-19 -3q-6 0 -9 1q-5 7 -5 22.5t5 23.5q-4 14 -3 27t1 28v4q-8 2 -17 2q-41 0 -51 14q-2 -1 -7 -1t-14.5 5t-12.5 11h-2q-5 0 -13 4q-3 5 -4.5 6t-0.5 6q-16 14 -21 23q0 4 -3.5 4t-5.5 2q-3 16 -23 36v9q-17 26 -17 81q0 15 6 23.5t6 18.5t4 16q13 14 19 29
t8 17t4 4.5t1.5 4t1 4t5.5 4.5t6 4.5t3.5 6.5t4.5 6.5t7.5 4.5t10.5 7t11 12.5t11.5 11t9.5 3.5t3 3q14 1 28.5 2.5t28.5 2.5q5 3 5 9t4 9q-4 18 -4 38.5t4 36.5q6 3 11 3t12 1q17 -15 17 -61q0 -2 -2 -2q0 -3 1.5 -5t3 -7t1 -13t0.5 -16q5 -6 20 -12t22 -10t12 -8t13 -4
q5 -10 14.5 -15.5t14.5 -11t5 -8t1.5 -4.5t2.5 -3q5 -3 5 -13v-12q-5 -5 -13 -5t-17 9q-2 3 -2.5 5t-4 7.5t-11.5 11t-13 13.5q-25 4 -31 17q-1 4 -4 5h-3l-28 4q-6 0 -10 -4q-8 2 -13 6t-12 4l-15 -2h-20q-17 0 -20 -4t-4.5 -8t-5.5 -8q-5 -2 -8 -6.5t-9 -5.5q-1 -9 -8 -21
v-4h-3q-3 -4 -6.5 -16t-12.5 -19l1 -3q0 -10 -6 -16v-9l-2 -34q0 -11 2 -13.5t3 -7t0.5 -7.5t-0.5 -7t15.5 -37.5t21.5 -42.5t15.5 -16.5t17.5 -15.5q14 -2 21 -9q10 -2 20.5 -2t18.5 -5q15 6 19 6t7 -4q13 7 27 9.5t20 6.5q14 7 30.5 19t16.5 15v5l4 2q2 5 3 10t3 10
q7 2 15 2t14.5 -8.5t7.5 -18.5q-3 -3 -9 -10q-23 -29 -38 -34l-4 1q-3 0 -7.5 -6t-11.5 -5l-16 -16h-14q-5 0 -4.5 -4t-7.5 -4l-13 3q-4 0 -5 -7q0 -21 4 -37l-3 -9l2 -15l-2 -15q2 -2 2 -8.5t-5.5 -11t-6.5 -12.5h-2z" />
    <glyph glyph-name="sterling" unicode="&#xa3;" horiz-adv-x="537" 
d="M264 685q11 0 28 10q2 0 2 -1t3 -0.5t19.5 0.5t21.5 -8q1 1 6 1t10 -3t11 -4q2 -5 5.5 -7.5t4.5 -7.5h4q5 0 7 -3.5t4 -7.5h2q5 0 9.5 -2.5t10.5 -3.5q4 -9 10 -13v-3q0 -15 5 -21.5t10 -16.5l-1 -9q0 -11 12 -21.5t12 -14.5t-1.5 -6t-3 -5.5t-3 -9.5t-5.5 -12
t-8.5 -11.5t-6.5 -12.5q-17 -12 -21 -21q-11 -2 -14 -8.5t-12 -6.5t-14 8l2 4v6q0 14 4 21q5 2 7.5 5t7.5 5q5 8 11.5 13.5t9.5 9.5t3 6.5t2 2.5l-1 16q0 7 3 13q-6 11 -6 24q-5 5 -9.5 8t-6 9t-8.5 6q-1 5 -9 18q-6 0 -10 4t-8 5.5t-6 1t-6 2.5t-9 9t-12.5 6t-12.5 -3
l-12 4q-8 0 -19.5 -4.5t-19.5 -1.5q-2 -5 -10 -6t-12.5 -3.5t-5.5 -7.5t-9 -4q-1 -6 -6.5 -14.5t-5.5 -21.5q-12 -21 -12 -33l3 -12l-2 -9q0 -5 2.5 -12t3.5 -15.5t1 -20.5t2 -24q5 -14 6 -27l2 -4q-2 0 -2 -2t2.5 -5.5t3.5 -6t0.5 -5t-0.5 -6.5t11 -22q2 -6 1 -13t2 -12
q6 -1 12 -1h11q30 0 59.5 5t59.5 9q2 -3 6.5 -6.5t4.5 -10.5t-6.5 -11t-10.5 -9q-5 -2 -18.5 -2t-17.5 5q-8 -4 -17 -5t-16 -6q-12 4 -14.5 4t-3 -3t-14.5 -3t-17.5 -3.5t-4 -3.5t-0.5 -1l5 -14l-4 -24q0 -6 3.5 -13t3.5 -17l-1 -25l2 -12q0 -10 -4 -19t-4 -20
q-10 -8 -9.5 -13t-2.5 -14q-5 -5 -8 -18t-6 -18t-10 -7v-1q1 -6 -1.5 -9t-2.5 -7v-1q10 -9 19.5 -8t20.5 -2l4 -4l4 1q3 0 14 -8.5t18.5 -7t11 -0.5t5 -3t3.5 -2l11 -2q5 -2 8 -4q5 -3 18 -3l16 -4q5 0 15 2l22 -1q17 0 23 14h3q4 0 10 3q7 7 21.5 18t14.5 20t-4.5 10.5
t-5.5 6t-1 8t-3 7.5q5 5 7.5 10.5t8.5 5.5t7.5 -6.5t5.5 -12t8.5 -11.5t4.5 -18v-2q0 -21 -8 -24q-1 -2 -0.5 -4t0.5 -4t-2 -2q-2 -6 -6 -8.5t-6 -7.5q-20 -5 -25 -14h-2l-6 2q-6 0 -5 -5t-4 -5q-8 -8 -29.5 -12t-28.5 -8q-5 2 -10.5 1.5t-11 0.5t-8.5 3t-10 3.5t-18 1.5
t-19 9q-46 0 -57 15h-3q-11 0 -20.5 5t-15.5 5q-18 0 -33 -3t-19.5 -6t-10.5 -8.5t-12.5 -8t-14 -2t-15 -1.5t-12 -4.5t-16 -2.5t-27.5 10t-16 24t3 26q10 3 22 14.5t29 11.5l5 -3q5 -1 10.5 0t10.5 1l9 -1l17 2l18 -5q9 0 13.5 9t10.5 14v2l-1 7q0 2 6.5 27.5t6.5 39.5
t-2 21.5t-4 14t-1.5 10t-0.5 7.5q-5 8 -4.5 9.5t0.5 3.5t-1.5 5.5t-2.5 7t-0.5 6.5t0.5 7t-3 11.5t-4.5 16.5t-8 12.5t-15.5 2t-16 5.5q-9 -3 -17 -3l-24 3l-22 -1q-12 0 -20 5l-4 19q7 7 23 7l33 -2h57q1 1 1 3l-2 12q0 4 3 6q-11 11 -11 51l-4 11l2 11l-4 27q0 15 3 29.5
t5 30.5q3 7 3 14t1.5 13t4 9t4 6t1.5 5q-2 3 12 23l4 2v4l4 2q1 2 6.5 9t16.5 22t14 16.5t6.5 1.5t7 2t5 4.5t4.5 4t7 1t8 2.5z" />
    <glyph glyph-name="currency" unicode="&#xa4;" horiz-adv-x="522" 
d="M193 372l2 -8q-1 -2 -2 -2v-4q-1 -8 3.5 -10.5t4.5 -13t11 -26t17 -18.5t10 -2.5t7.5 -3t13.5 -3.5t21 4.5t17.5 7t9.5 2.5q5 0 8.5 4.5t7 4.5t5.5 2q2 10 6.5 19t4.5 20l-4 39q-7 9 -11 20.5t-10 17.5t-10 5t-9 1t-5.5 4.5t-7.5 2.5l-22 6l-25 -4q-9 -10 -29 -13
q-2 -8 -8.5 -11t-6.5 -9.5t3 -7.5v-1zM348 442q12 -10 12 -29.5t5 -29t5 -13.5v-3l-2 -1q0 -2 1 -2t1 -3l-4 -10l2 -11q0 -5 -3 -9t-3 -12v-3q2 -2 5 -3.5t5 -3.5t5 -2t6 -5q8 -4 14 -12t18 -14q8 -6 14 -12t16 -10q3 -3 8 -7.5t14 -14.5t9 -17.5t-9.5 -14.5t-19.5 -7
t-11.5 3t-5 6.5t-6.5 3t-5 1.5v4q-2 2 -5 2t-5 4t-6.5 8t-15.5 10t-13 16q-11 2 -18.5 10t-17.5 13h-1q-5 -3 -9 -5.5t-11 -4.5t-11 -4l-3 -3q-2 -1 -2.5 -0.5t-2.5 0.5t-9.5 -5.5t-11.5 -5.5l-10 3l-14 -4h-11q-18 0 -25.5 9.5t-17.5 7.5q-3 10 -18 17q-9 -9 -27 -36
q-16 -2 -21 -12t-12.5 -14.5t-11.5 -7t-9 -5.5q-2 -5 -3 -10.5t-5 -10.5h-12q-7 0 -9 2v3l1 16q0 5 -1 7l15 15q5 5 7.5 10t11.5 5q0 5 8 10l11 9q10 8 34 36l3 2l-7 8v4q0 7 -3 11t-1 12q-2 6 -6.5 11.5t-4.5 11.5q0 37 14 65q-6 5 -7 10q-14 3 -26 16q-1 -1 -3 -1t-11 5
t-26 14t-17 13h-3q-5 0 -11 4q-2 6 -1.5 13t-0.5 13q5 2 10.5 5t12 3t16 -5.5t16.5 -8.5q45 -17 63 -29q12 -11 26 -18q8 4 17.5 6t18 4t17 5t16.5 3l29 -2l20 2q10 0 14 -8h4l3 -6q3 3 6 2q10 13 23 23.5t24 19.5l10 8l2 4q2 2 5 2t6 4.5t5 4.5t9.5 8.5t13.5 13.5
q18 -4 20 -20q-1 -4 -4 -6t-5 -5q-7 -3 -10 -7.5t-8.5 -8.5t-8.5 -4t-9 -10h-2q-3 0 -4 -1.5t-6 -0.5q-7 -9 -10 -17h-3q-4 0 -6 -2.5t-6 -3.5q-5 -6 -12 -11t-12 -10z" />
    <glyph glyph-name="yen" unicode="&#xa5;" horiz-adv-x="560" 
d="M328 314q3 -1 20.5 -1t32.5 5l11 -1q6 0 10.5 3t7.5 3l11 -2l9 4q2 0 4.5 -8.5t2.5 -14.5l-1 -9q-7 -5 -16.5 -5t-17.5 3q-6 -1 -13 -4.5t-13 -3.5l-10 2l-18 -2q-6 0 -10 4q-20 -7 -30 -6q-10 -6 -10 -33l1 -29q0 -6 6.5 -10.5t11.5 -4.5l14 2q3 0 9 -4q7 7 64 7
q20 0 20 -21v-2q-5 -6 -26 -19q-6 1 -19 9q-3 -1 -12 -1t-18 3q-19 -7 -29 -7t-20 2l-6 -46l2 -26l-3 -22l1 -14l-1 -13l3 -21q0 -3 -2 -9q-6 -6 -11 -5v-3q0 -9 -6 -8t-8 -4q-5 -5 -11.5 -5t-17.5 8q-1 5 -1 13l3 40l-2 28l4 43l-4 36q-10 3 -20 3l-37 -1q-5 0 -6.5 -3
t-5.5 -3q-2 2 -11 2h-15q-4 4 -4 13.5t2 13.5q24 8 49 8t50 2q5 13 3 32t2 33q-2 6 -9.5 6t-10.5 5h-13q-14 0 -24 5q-5 0 -8.5 -3.5t-7 -3.5t-5 2t-4.5 3q-8 -5 -23 -5t-26 5q-2 6 -2 9t3.5 10.5t9.5 7.5t11 1.5t9 3t6.5 1.5t10 -2.5t21 -2.5t29 1.5t31.5 -0.5q4 5 4 14
t-4 14.5t-8.5 11.5t-7.5 14t-9 10q0 5 -3.5 7t-2.5 8q-4 4 -8.5 6t-7.5 7.5t-3.5 12t-3.5 10.5t-5 5.5t-4 3.5q-3 10 -11.5 19.5t-13.5 18.5l-16 29q-1 3 -3.5 3.5t-4.5 2.5q-1 9 -5 15t-6 15q-4 2 -5.5 6t-6.5 4q0 5 -3 8.5t-6 8.5l-4 2l1 4q-16 24 -27 35l-4 14q-1 3 -3 3
q-8 0 -5.5 4.5t-3 7t-7.5 5t-2.5 6t-2.5 5.5q-5 9 -8.5 15.5t-3.5 17.5t6 20h7q30 0 36 -25q13 -5 17 -18q4 -2 12.5 -14t8.5 -17q8 -5 11 -12.5t6 -12.5t4.5 -5.5t3.5 -2.5q4 -10 9 -13.5t6.5 -6.5t1 -4t-0.5 -3t1 -1.5t3 -1.5t2 -5t2 -6t5 -4.5t6 -3.5q0 -15 12 -29.5
t15.5 -23.5t8.5 -17q6 -5 10.5 -11t13.5 -10q5 -19 14.5 -30t21.5 -26q7 2 9.5 8t5.5 11l19 35l2 6l8 8q1 3 5 9t8 14t7 15t5 10t2 6.5t4.5 8.5t6.5 11q7 14 19 20v4q6 8 11 16.5t14 13.5q2 11 11 20t13 21l10 9q5 6 8.5 12.5t9.5 11.5l23 25q11 14 21.5 24t29.5 10
q6 -6 6 -16q0 -24 -21 -33v-1q0 -5 -3 -7t-3 -7q-2 -3 -5 -3t-5 -2q-8 -15 -19 -28t-20 -27v-1q0 -4 -3 -3.5t-6 -1.5v-9q-9 -2 -15 -15t-14 -15q0 -5 -2.5 -7t-0.5 -8q-11 -4 -14 -14t-10 -16l-6 -22t-8 -18t-9 -10.5t-7.5 -7t-6 -12t-5 -13.5t-6.5 -8t-6.5 -6.5t-4.5 -6.5
t-6 -5q0 -8 -4 -15.5t-4 -15.5q-6 -4 -9.5 -10.5t-8.5 -11.5q-2 -10 -2 -22t8 -17l12 -1q5 0 10 3z" />
    <glyph glyph-name="brokenbar" unicode="&#xa6;" horiz-adv-x="182" 
d="M115 515l4 -32l-2 -14q-1 -4 -0.5 -7.5t0.5 -8t-2 -15.5l-16 -8q0 -3 -3.5 -3t-2.5 -3q-3 1 -2.5 -2.5t-1.5 -3.5q-7 0 -11 4l-8 8q3 12 3 25l-2 38l2 20l-3 13q-2 5 -1 10.5t1 10.5l-4 19l2 14l-3 29q0 11 5 16q0 2 1.5 3t1.5 3l12 -2t11 -4q4 -7 5 -13.5t2 -12.5l-2 -2
q6 -6 6 -32h1l1 -1l-2 -5q0 -7 3 -12.5t4.5 -11.5t1 -10.5t-0.5 -9.5zM111 132l3 -29q0 -11 -11.5 -15.5t-21 -4.5t-13.5 3q-1 5 -1 10v9l2 64l-1 43q0 40 9 60q6 3 12 3q20 0 20 -32l-2 -13l4 -14q0 -20 -2 -36q3 -3 3 -15z" />
    <glyph glyph-name="section" unicode="&#xa7;" horiz-adv-x="386" 
d="M126 621l-2 -5q0 -4 4.5 -9t4.5 -12q8 -9 13 -20l11 -21q3 -6 6.5 -11t5.5 -8.5t5 -4.5t5 -3t4 -6t5 -7l11 -5q2 -2 4.5 -5.5t5 -3.5t4 -1t0.5 -2.5t1 -3.5q2 -1 3 -0.5t3.5 -3t8.5 -7.5t16 -11t8 -11q10 -5 17 -13t15 -15h4v-4l6 -2q2 -2 3 -4q1 -6 6 -4q1 0 2.5 -1.5
t1 -3t1 -3t3.5 -2.5t4.5 -3.5t2.5 -5.5t3 -8t6 -9t5 -8.5t2 -19.5t5 -20q-2 -8 -2 -15v-15q0 -16 -18.5 -37t-30.5 -44q-1 -1 -2.5 -1.5t-1.5 -7t9 -17.5t12 -21l5 -34q0 -32 -25 -66q-5 -6 -6 -6h-3q1 0 1 -2t-2 -4t0 -4q-16 -8 -25 -21h-4q-7 0 -9 -3.5t-7 -8.5
q-2 1 -3.5 3t-3.5 3q-2 -7 -7 -7.5t-11 -2.5l-5 -4q-6 -1 -19 2t-15.5 5t-7.5 4t-13.5 1.5t-14.5 1t-12.5 6t-10 6.5t-8.5 6t-10 3q-4 11 -15 18q-2 10 -8.5 17.5t-6.5 26.5t16 19h3q2 -3 3.5 -4t-0.5 -6q2 -2 6 -2.5t4 -3.5l-1 -18q0 -13 3.5 -14t9 -5t8.5 -8.5t6 -6.5h4
q4 0 17 -9h16q4 0 4 -4t4 -6q10 4 25 4l9 -2l12 4q3 0 5 -2q8 4 14.5 11t15.5 9q7 14 13.5 26t9.5 27q-6 5 -7.5 16t-4 16.5t-4 9.5t-5 9.5t-15 16t-19.5 15.5q-2 3 -4 5t-2 6q-8 1 -12 7t-14 7l-17 24q-3 2 -8 2t-12.5 10.5t-12.5 14.5t-10 6t-6 8q-5 0 -8.5 2.5t-7.5 3.5
l-2 4l-4 2q-2 3 -3 7t-2.5 6.5t-4 5t-2.5 4.5v3q-9 5 -13 14.5t-11 18.5l-6 58q0 32 15 44q2 4 2 9.5t5 12.5t15.5 11t18.5 18q-3 5 -8 12.5t-6 14t-6.5 15.5t-5.5 34.5t10 53.5q11 8 18 19.5t16 18t21 12.5t22 13h4l26 6q8 0 14.5 -2t14.5 0q9 -3 12 -9.5t15 -3.5l4 -13h3
q16 2 29 -11q2 -2 2 -6t2 -6q-1 -2 1 -2q7 0 6.5 -6.5t1.5 -7.5h4v-6q0 -2 2 -2q-2 -8 -4.5 -18.5t-6.5 -14t-3.5 -7t-0.5 -5.5q-8 -2 -10 -7t-9 -5h-1q-8 7 -8 17l7 40q0 5 -1 8q-8 5 -15 10.5t-16 7.5q-16 16 -21.5 16t-8.5 -3l-14 1q-12 0 -18.5 -6t-14.5 -6
q-9 -12 -34 -26q-3 -10 -3 -27zM283 283q8 10 8 21t-5 23t-7 24q-6 8 -11.5 12.5t-6.5 15.5q-5 3 -9 5.5t-2 9.5q-18 3 -28 26q-11 1 -16.5 6.5t-14.5 7.5q-6 11 -15.5 17t-16.5 14q-5 1 -9 3t-9 3q-17 22 -25.5 22t-13.5 -3.5t-3.5 -9.5t-0.5 -10t-4 -6q-3 -6 -3 -16v-20
q0 -11 2.5 -15t4.5 -10t1.5 -12.5t2.5 -13.5q16 -10 25.5 -25t27.5 -22q4 -6 9 -9.5t10.5 -11.5t21 -17t20.5 -20q1 -1 2.5 -1t8.5 -3.5t15 -12.5t21 -12q7 4 13.5 21.5t6.5 18.5z" />
    <glyph glyph-name="dieresis" unicode="&#xa8;" horiz-adv-x="270" 
d="M175 724q-10 12 -10 21t2 15v1q0 3 3 5q7 3 7 7t2 6q3 8 15.5 14.5t22 6.5t12 -4.5t7 -8.5t7 -3t5 -7t2.5 -9.5t-3.5 -8t-5.5 -9t-7.5 -5.5t-10 -6t-8 -8t-8.5 -7h-32zM98 781l1 -21q0 -8 -5 -11.5t-7 -6t-4.5 -4t-3.5 -4.5h-3q-8 1 -18.5 -6.5t-15.5 -7.5q-11 0 -16 16
q-6 15 -6 24t4 15q14 3 21.5 13t19.5 15q11 -3 18 -9.5t15 -12.5z" />
    <glyph glyph-name="copyright" unicode="&#xa9;" horiz-adv-x="642" 
d="M369 198q-5 0 -5 -5t-15 -4t-22 -1t-12.5 -5t-12.5 -3t-17 13h-17q-6 3 -15 4t-13 7h-7q-6 0 -8 2q-8 1 -11.5 6t-15.5 4q-19 17 -39 26q-2 4 -6 6t-5 7q-9 2 -14.5 9t-14.5 10q-2 15 -10 24t-14 21q-6 4 -8 10.5t-9 8.5q-3 20 -12.5 36.5t-9.5 38.5l2 27l-2 16q0 5 3 13
t5 14l2 16q2 4 4.5 15t11.5 39t18 39.5t16 21.5q11 22 27 28q0 11 28 36q12 12 21.5 10.5t23.5 10.5q17 1 28 6.5t13 5.5l53 7q4 0 9 -5l11 2q2 0 8 -2q2 2 3 2q0 -2 2 -2l1 2l9 -2l12 1q6 0 16 -4.5t11 -10.5q15 -4 29.5 -8t30.5 -6q2 -6 6.5 -11t8.5 -10q16 0 27 -11
t16.5 -17.5t13.5 -10.5q2 -9 7 -14t11 -12v-1q0 -4 2 -6t0 -6l12 -11v-3l-2 -7q0 -8 6 -12t6 -14l-1 -19q0 -7 3 -12t10 -18t7 -31.5t-5 -34.5t-5 -27t-5 -15t-7 -9l1 -2l-3 -20q-15 -19 -14 -28t-0.5 -11t-2.5 -3q-6 -3 -5 -6.5t-2.5 -6t-5 -4.5t-1 -3.5t-0.5 -3.5
q-8 -2 -8.5 -7t-5.5 -10q-5 -1 -8 -4.5t-11 -2.5q-1 -11 -9 -21q-5 -2 -8 -5t-9 -2q-6 -5 -11 -11.5t-13 -10t-16.5 -3t-17.5 -3t-13 -9t-14 -5.5t-17 7zM239 244l16 -2q5 -3 10.5 -10t11.5 -7h9q3 0 5.5 -1.5t6 -3t8.5 -1t9 -1.5q9 5 19 4t17 -1t16 2.5t14.5 2t13.5 2
t16 7.5t21 7q5 7 13.5 11t16.5 8q4 8 11 14t12 14q16 8 20.5 15t8.5 20t10 17q0 18 12 28l-1 2q0 8 4.5 13.5t2.5 15.5q5 2 6 6.5t4 8.5q1 5 0 9.5t-1 11t3 10t4 8.5q-5 2 -5 7.5t-3 7.5l4 10q-7 7 -10 14q1 2 1 9t-5 15.5t-5 14.5t3 10q-3 5 -6.5 9t-3.5 8t2 6
q-14 12 -21 34q-8 5 -16.5 10t-11.5 16q-8 2 -12 4.5t-13 1.5q-6 5 -12 8.5t-8 10.5h-4q-13 0 -40 8q-3 2 -2 8t-1 8q-6 1 -12 3t-12 2t-8 -1l-14 6l-60 -3l-24 1q-12 -12 -28 -8q-7 -8 -16.5 -9.5t-17 -5t-11 -7t-8.5 -4.5q-2 -6 -5.5 -10t-8 -10t-9 -13.5t-12.5 -11.5v-3
q0 -6 -3.5 -9.5t-4.5 -8.5q-9 -3 -12 -9q0 -14 -4.5 -26t-4.5 -27q-9 -8 -9 -19.5t-1.5 -18t-3 -9.5t-1.5 -6l2 -13l-2 -15q0 -3 4 -9t3 -11t-1 -9v-3q9 -15 13 -30.5t9.5 -25t12 -15t6.5 -14.5q5 -3 14.5 -14.5t10.5 -14t10 -13.5t16 -11t13.5 -6.5t12.5 -10.5t12 -9z
M434 398q9 -9 9 -17t-6 -14.5t-6 -11.5t2.5 -6t2.5 -3v-3q-11 -13 -25 -13q-5 -2 -11 -8q-19 0 -33 -14h-4l-28 -4q-6 0 -10 3t-11 3l-14 -1q-13 0 -15 8h-17q-9 10 -21 19l-2 4q-2 1 -5 1t-5 2l-2 4q-4 2 -16 15.5t-13.5 16t-0.5 4t-5 6.5l-7 48q0 12 5.5 25.5t6 30
t5.5 25.5l4 2q4 9 9 17t10 17q11 3 17 11t11.5 11t6.5 2.5t3 -0.5h1l4 4h8q2 0 2 2q2 4 9.5 3t13 1.5t9.5 3t31.5 0.5t29.5 -19l3 1l9 -5q3 3 8 3l3 -1q7 -7 20 -9q3 -8 11.5 -12.5t8.5 -15t-8 -23.5v-2l1 -8l-1 -4q-13 -11 -28 -12q-7 7 -7.5 16t-1.5 17q-3 21 -26 24
q-2 9 -11 12t-15 8q-5 -2 -9 -5t-9 -3l-14 2h-1l-24 -8q-9 0 -14.5 -4.5t-10.5 -3.5q-2 -2 -3 -5t-8 -11t-7 -25l2 -1q0 -2 -1 -2t0.5 -8.5t1.5 -25.5q-1 -31 3.5 -36.5t4 -10.5t1.5 -10t6.5 -8t6.5 -6.5t1.5 -6.5t0.5 -5l4 -2q6 -13 24.5 -25t28.5 -12t13 1l6 -2l1 1l25 7
q10 0 18 8q2 1 6 1.5t7.5 4t5.5 9.5q8 28 25 28z" />
    <glyph glyph-name="ordfeminine" unicode="&#xaa;" horiz-adv-x="423" 
d="M164 397l-43 -9q-9 0 -19 4q-10 -4 -26 -4t-28.5 16t-12.5 32q0 26 31 45q2 2 5 3t8 7t23 12l2 4q2 2 17 8.5t21 6.5t9 4h2l9 -2l13 4l7 -2l10 1q3 0 6 -3q8 2 14 2l37 -10h4l1 7l-5 25q2 0 2 1.5t-3 4.5q-2 6 -1.5 12.5t-1.5 13.5q-5 9 -12 15v2q0 20 -10 29.5t-21 21.5
q-10 -2 -26.5 -1t-24.5 -5l-2 -4q-10 -4 -12.5 -7t-2.5 -13t-13 -19t-23.5 -9t-21.5 11q-1 3 -1 13t3.5 17.5t11.5 13.5t26.5 18.5t29.5 12.5t14.5 1.5t6 3t4.5 1.5l12 -2l13 4l24 -2q10 -8 20 -14t15.5 -10t8.5 -8t6.5 -9t6.5 -9t4 -5.5t3 -3.5t3.5 -4t4 -11t5.5 -19t6 -19
t3 -10l-1 -6q0 -3 2 -10t3 -12l2 -23q1 -5 2.5 -10t1.5 -9.5t-2 -4.5l2 -16q1 -3 2.5 -5.5t1.5 -5.5v-1l-2 -14l2 -9l-2 -8q0 -2 1 -2t1 -2q-2 0 -2 -2h1l1 -1l-2 -7q0 -8 1.5 -15t2.5 -14q4 -3 14.5 -3t32.5 14q6 -2 11.5 -2t18.5 -11q0 -5 -3 -6.5t-1 -7.5
q-11 -11 -29.5 -11t-27.5 -2.5t-14 -5t-12 -3.5h-6q-9 0 -16 1t-15 -1q-6 9 -8 10q1 3 1 7t-4 48l1 10q0 4 -3.5 3.5t-5.5 0.5q-3 2 -3 3t-8 1t-23 -10l-7 -2l-2 -3q-5 -2 -13 -2t-13 -6.5t-10 -8.5q-4 1 -13 1zM245 467q-8 16 -30 21q-5 2 -9.5 1.5t-9 1t-8 3t-12 1.5
t-20 -4.5t-23.5 -5.5q-5 -2 -6 -3q-2 -4 -5 -4h-7q-22 0 -39 -35q4 -3 5.5 -8t5.5 -9q9 -1 15.5 -3.5t16.5 -2.5t24 3t25 1q2 5 6 5h8t21 11q20 10 28 10q0 4 4.5 5.5t6 5.5t3.5 6z" />
    <glyph glyph-name="guillemotleft" unicode="&#xab;" horiz-adv-x="437" 
d="M100 116l-7 -3q-1 0 -2 1q-4 10 -13 14t-10 16q-11 3 -18.5 11.5t-17.5 13.5q-2 10 -2 18v13q14 9 30 24.5t26 24t12 10.5q9 1 14 8.5t9.5 12t8.5 6.5q17 10 28 30q16 6 24 22q10 5 17 5q12 0 12 -13q0 -5 -10.5 -16.5t-16.5 -13.5q-4 -12 -15 -20t-16 -19q-5 -1 -9 -3.5
t-10 -4.5t-7 -7.5t-10 -3.5q-10 -22 -30 -26q-4 -5 -7 -10t-8 -10q7 -10 24.5 -23t24.5 -19.5t14 -10l18 -9t14 -8.5t2 -4.5t1 -3.5t3 -2t1 -3.5t-2.5 -9t-6 -10.5l-7 -10t-5.5 -7l-2 2l-2 -2q-6 2 -10 7q-9 11 -13.5 10.5t-6.5 3.5t-4.5 6.5t-8 4.5t-4.5 8h-2zM226 176
l-7 -1q-6 0 -10 10t-4 15v6q14 14 28 19q2 3 5.5 8.5t5.5 7.5t3.5 1.5t3.5 0.5l1 4l6 2l2 4l7 2l2 4q2 2 4 2t4.5 2t5.5 5.5t7 6.5t7.5 5t8.5 5t8.5 7t9.5 6q8 10 17.5 18.5t15.5 19.5q7 0 12.5 4t11 4t10 -5t4.5 -10v-3q-1 -3 -12.5 -12.5t-15.5 -9.5q0 -6 -8 -8l-8 -15
q-11 -3 -14 -13l-10 -3q-5 -4 -11 -8t-11 -10l-2 1q-11 0 -13.5 -5.5t-3.5 -9.5t-4 -6h-5q-6 0 -8 -2q-5 -1 -5.5 -5t-1.5 -6q-8 -2 -10 -6q1 -3 19 -14.5t26.5 -15.5t14.5 -8.5t7 -4t3 -0.5v-4h4q1 -2 0.5 -3.5t0.5 -2.5l6 -2l2 -5q2 -1 3 -0.5t4 -2t7 -8.5t4 -11t-10 -5
q-4 -6 -9 -12.5t-14 -6.5l-6 1v1l-4 12q-6 8 -15.5 13.5t-12.5 13.5q-1 -1 -2 -1t-10 6t-11 9t-3 4l-5 -1q-4 0 -5 2.5t-3 3.5l-2 -1q-1 2 -7 6.5t-8 4.5z" />
    <glyph glyph-name="logicalnot" unicode="&#xac;" horiz-adv-x="544" 
d="M475 217l5 -12l-3 -9l5 -68q0 -11 -1 -12.5t-10 -6.5v-3q1 -4 -4 -11q-18 -3 -28 -3t-17 9q-1 12 -2 22t-1 27.5t5 32.5q-4 10 -4 22v2l4 2l-4 8l2 9q0 3 -2 6q-4 11 -4 34l3 15q0 3 -1 5l-4 2l1 7q0 6 -12 14h-3l-13 -2l-13 2q-9 0 -18 -4.5t-17 -4.5t-21 5
q-8 -1 -16.5 -6t-16.5 -5l-11 2l-15 -4l-2 2q-13 0 -19 -6h-3l-18 2l-18 -3l-33 7q-8 0 -10.5 -4t-7.5 -4l-25 -5l-24 5q-4 0 -3 -3t-4 -3l-27 4q-2 6 -2 9.5t1.5 8t2.5 9.5q5 4 12 4t13 4q5 0 7 -3t15 -3h36q23 0 46 4l12 2l24 -2q19 0 34 5q25 3 50.5 6t50.5 9h2
q3 0 3.5 2.5t7 4t20 0.5t24.5 1l11 2q17 0 31 -47q3 -10 3 -16t-5 -6q2 -6 6 -6.5t4 -10.5l-3 -18q0 -3 2.5 -9t2 -9.5t-0.5 -7.5z" />
    <glyph glyph-name="sfthyphen" unicode="&#xad;" horiz-adv-x="394" 
d="M261 291l18 4q8 0 15 3l13 5q7 -4 12 -7.5t5 -12.5v-3q-5 -5 -9.5 -4.5t-9.5 -4.5h-3l-10 2l-6 -2l-3 2q-10 0 -18.5 -5.5t-18.5 -5.5l-12 2l-22 -6l-18 2l-22 -4q-6 0 -13 4q-4 -2 -8 -2.5t-6 -5.5q-2 0 -17 6q-17 -7 -58 -12q-2 3 -2 9.5t2 14.5q8 0 14.5 4t12 4
t9.5 -3q9 12 79 12q6 0 9 -3q3 0 5 1.5t5.5 2.5t7 0.5t7.5 -0.5z" />
    <glyph glyph-name="registered" unicode="&#xae;" horiz-adv-x="652" 
d="M482 644l14 -1q4 -8 11.5 -13.5t9.5 -16.5q8 -7 13 -15.5t11 -17.5q6 -2 9 -8.5t9 -9.5l-1 -2q0 -6 3 -7q6 -8 10.5 -18t13.5 -16l-1 -3q0 -9 4 -18t4 -14.5t-2 -11.5q7 -12 10 -30q-2 -6 -6.5 -11.5t-4.5 -12.5l1 -5q0 -5 -4.5 -8t-4.5 -8v-15q0 -5 -6 -10t-5 -16
q-8 -1 -9.5 -8t-5 -9t-3.5 -3l3 -6v-1l-16 -11v-11q-5 -5 -13 -10t-10 -14t-10 -10q0 -4 -1.5 -5.5t-0.5 -6.5q-12 -1 -15 -13q-15 -6 -19 -14q-11 -3 -19 -9.5t-16 -12.5l-11 1q-8 0 -10.5 -2.5t-4.5 -2.5t-10 4q-7 -4 -13 -13q-11 0 -22 -3t-22 -1l-13 -7q-9 3 -20 3
q-47 0 -59 14q-1 -1 -5 -1t-7.5 2.5t-9.5 5t-15 5t-14 11.5l-3 -1q-6 0 -9 3.5t-8 3.5q-3 11 -14.5 16t-21.5 9q-1 14 -7.5 19.5t-11 11.5t-9.5 16.5t-7 14.5q-23 26 -23 44v1q-1 2 -4 3t-5.5 11t-10.5 21v7q0 8 -4 16t-4 15l2 12q-3 16 -2 20t1 9.5t-3 11.5q2 10 4.5 12.5
t2.5 15.5l1 3l5 6q1 5 0.5 9t0.5 9q7 7 6.5 9t1.5 8l4 2q2 3 2 7.5t2.5 8t7.5 8t7 10.5q2 2 4 1.5t4.5 2t4 6.5t5 8.5t9.5 8t11 8.5l18 19q13 5 20.5 13t14 11.5t11 3t7 1t4 3t4.5 3t6.5 1t9.5 1t14.5 4.5t16.5 5l11 1q8 5 13 5l26 -5l35 4q10 0 41 -8.5t34 -10.5t6.5 -6
t9.5 -7.5t16.5 -10t17.5 -10.5q2 -2 2 -9q2 1 6 1zM360 226l10 -2q8 0 14 4.5t11.5 4.5t5.5 2t7 6t20 5.5t23.5 8.5t17 17t17.5 15q3 2 3 3.5t2 4.5l5 2q7 9 4 17q9 11 18.5 18.5t14.5 21.5q4 2 6 4.5t6 2.5q-1 3 -1 9t4.5 13t2.5 18q8 9 11 20t10 19v10q0 19 -11 37v17
q-11 11 -8 21q-3 2 -7 4t-8 6.5t-6 9t-4.5 9t-5 6t-3.5 6.5q0 7 -6 6q-1 8 -7 10t-6 10q-21 4 -28 28q-3 1 -4 4.5t-4 3.5t-6 1.5t-4.5 4.5t-5.5 5h-13v2q0 2 -3 2h-5q-6 8 -13 10.5t-15 6.5q-6 9 -19.5 9t-31.5 6q-2 -2 -4 -2l-21 3q-18 0 -41 -7q-7 4 -13 4t-12.5 -4
t-14.5 -6h-4q-15 0 -24 -6t-19 -16h-10q0 -7 -4.5 -9.5t-9.5 -5.5q0 -10 -14 -21t-17 -11q-2 -6 -5.5 -8.5t-5.5 -5.5t-1.5 -5.5t-1.5 -4.5h-4q-4 -4 -5 -8q2 -2 2 -5.5t-3 -7t-3 -12t-3 -15.5t-4 -13.5t-0.5 -13t0.5 -11.5l-1 -21q0 -9 4 -17.5t5.5 -15.5t1.5 -13t2 -11.5
t5 -8.5t5 -7.5t3 -9t4.5 -13t10.5 -19.5t12 -23q11 -9 17 -21.5t14 -23.5q4 -1 6.5 -5t6 -6t10 -4t13 -8t19 -10.5t20.5 -12.5h2q8 2 15 -3t13.5 -7t12 -1t10.5 1l16 -2zM472 423q19 -4 19 -16q0 -7 -7 -13.5t-11 -14t-9 -11.5q-11 -1 -22.5 -5.5t-24.5 -4.5t-17.5 4.5
t-13.5 11.5q-12 0 -18.5 6t-17.5 7q0 6 -5 7.5t-5 8.5l-1 -1q-2 0 -2.5 2.5t-2 3.5t-5.5 0q-6 0 -10 4q-3 5 -11 5h-15q-11 -11 -11 -26l4 -25v-15l2 -15q0 -8 -7 -12.5t-12 -9.5q-13 3 -25 2q-2 6 -6 9t-6 7.5t-1 9t1 9.5l-6 38q2 4 2 6l-6 31l2 27l-4 27l2 27q0 7 -7 42
l-8 1q-11 0 -18 -6t-18 -7q-2 6 -2 12.5t7 10.5t16.5 6.5l19 5t14.5 7.5q12 -4 22.5 3.5t17 7.5t7.5 -2l6 2h10l79 6l17 -2q6 0 8 2q5 -6 11 -5.5t10 -2.5q33 -20 33 -42v-14q0 -8 -1 -15q-8 -6 -12 -14.5t-9 -13.5q-2 -4 -2.5 -7.5t-5.5 -5.5h-3q-4 -3 -6 -6.5t-6.5 -5.5
t-11.5 -2t-14.5 -4.5t-14.5 -4.5t-11 -4q1 -13 17.5 -22t21.5 -20q2 -1 5 -0.5t6 -1.5t6 -5t10 -6.5t22.5 -3.5t24.5 9q0 19 9 24zM279 529l-3 -19q0 -10 0.5 -27t9.5 -25q38 0 83 22q13 6 22 14q2 10 7 17.5t5 19t-7.5 17t-17.5 8t-22 3.5t-19 3q-11 -5 -27 -4.5t-28 -3.5
q-4 -3 -4 -12z" />
    <glyph glyph-name="macron" unicode="&#xaf;" horiz-adv-x="344" 
d="M211 766l60 5q32 0 32 -15q0 -5 -1.5 -8.5t-2.5 -8.5l-26 -8q-7 2 -11.5 6.5t-10.5 7.5q-6 -1 -10 -4.5t-10 -7.5q-8 -1 -15 -2t-18 -1t-20 5l-11 -4l-17 4l-23 -4q-5 0 -11 4q-7 -4 -16 -4l-31 6q-12 0 -22 -6q-6 3 -6 11.5t2 16.5l11 4l2 -2q2 0 4 1.5t10 3t21.5 0.5
t28.5 1l11 2l25 -4l22 2z" />
    <glyph glyph-name="degree" unicode="&#xb0;" horiz-adv-x="234" 
d="M43 574l1 10q0 3 -2 7q1 6 4 13.5t4.5 14t3 8.5t3.5 3t4.5 3t2.5 3.5t4.5 6.5t17 11t21.5 12h4q9 -3 19.5 -7.5t21.5 -8.5q32 -14 36 -44q1 -7 6 -15q-2 -6 -7.5 -8t-7.5 -9t-2.5 -15.5t-2.5 -16.5q-3 -2 -5 -4.5t-7 -2.5q0 -9 -5 -12.5t-11 -8.5q-3 1 -8 1l-27 -2
q-12 0 -22 3q-8 9 -18 16.5t-19 15.5q-2 5 -5.5 13.5t-3.5 12.5zM87 595l-2 -11q0 -8 12.5 -24t19.5 -16q5 3 11 2.5t12 1.5q1 4 6 6q1 8 9.5 21.5t8.5 22.5t-11 16q-2 2 -8.5 2t-10.5 2q-4 7 -9 7l-17 -2q-22 0 -23 -9q3 -2 3 -6t-3 -7z" />
    <glyph glyph-name="plusminus" unicode="&#xb1;" horiz-adv-x="521" 
d="M436 296l7 1q3 0 4 -1q1 -3 1 -12t-12 -18q-3 -1 -8 -1l-32 3l-15 -4l-26 4q-4 0 -7.5 -1.5t-8.5 -2.5t-11.5 -0.5t-19 0.5t-12.5 -7l2 -10l-4 -13l5 -34q0 -7 -7 -9v-12q-6 0 -9 -7q-5 -14 -14 -14t-10 10q-5 0 -6 3.5t-4 5.5q2 5 2 16l-2 30l2 26q0 8 -4 15
q-7 2 -14.5 0.5t-13.5 3.5q-8 -4 -15 -4l-18 6q-4 -2 -21 -2l-11 -2l-28 6l-19 -4q-11 0 -20.5 2.5t-20.5 4.5q-2 6 -4 10t-2 8t2 8q8 5 25 5l42 -3l31 1q30 0 35 -6h2l9 3l10 -3l33 2q4 1 5.5 4t4.5 5v4l-2 16l4 9l-2 13l2 30q0 5 1.5 8.5t3 12.5t1.5 23.5t11 23.5h14
l12 -16q-2 -14 -1 -29t1 -30l-3 -53l1 -16q4 -6 15 -6l46 1q12 0 23 -1t22 1l17 2q6 0 11 -6zM314 103q4 -4 46 -4t93 3q5 -5 10 -7.5t5 -8.5q0 -10 -12 -12q-12 -5 -13 -8q-3 1 -9 1l-22 -1l-20 4l-26 -4q-15 6 -19 6l-35 -6q-6 0 -14 4q-6 -2 -11 -2h-11q-2 0 -4 -2
q-12 3 -15 3l-11 -2l-17 1q-11 0 -22.5 -5.5t-22.5 -5.5l-17 4l-9 -2l-10 4l-7 -2l-6 2l-19 -6q-11 0 -29 6.5t-19 8.5l-1 5q0 10 9 20l29 2l31 -2h52l29 2l8 -2l14 4l8 -2l35 4q11 0 18 -4z" />
    <glyph glyph-name="twosuperior" unicode="&#xb2;" horiz-adv-x="305" 
d="M212 284l-12 -6q-3 0 -35 4l-21 -1l-25 5l-37 5q-6 -1 -14 -1h-11q-4 0 -9 -2q-14 9 -14 22.5t4.5 19.5t6.5 14q17 15 20 26q10 4 15 13.5t16 13.5q10 22 53 62q5 15 16 23q4 17 12.5 31t11.5 32l2 32q-2 0 -2 2l4 22q0 6 -6.5 11t-10.5 10q-8 -1 -12 -6t-9 -10
q-6 -3 -11 -7t-11 -7q-2 -8 -9 -13.5t-7 -14.5l3 -16v-3q-7 -9 -15.5 -9t-10.5 2q-4 8 -4 26t10 28.5t12 20.5q11 10 25 32q14 1 28 7.5t23 6.5h5l2 -4q2 -1 5 -0.5t6 0.5t6.5 -4t17 -17.5t17 -30.5t3.5 -38.5t-3 -37.5q-5 -5 -7 -12.5t-4 -14.5q-5 -2 -6.5 -7t-8.5 -5
q-2 -13 -10 -20t-11 -19q-7 -2 -10 -7t-12 -5q-1 -5 -3 -10l-4 -10q-3 -2 -10 -2v-2q0 -5 -5 -7q-10 -5 -10 -10q2 -3 -6.5 -8.5t-10.5 -13.5l-11 -4q-5 -12 -13 -21t-15 -18q15 -15 64 -15l40 -3q6 0 16 2q4 -5 8.5 -10t4.5 -10t-2 -6.5t-3 -4t-3 -2.5h-1q0 2 -2 2z" />
    <glyph glyph-name="threesuperior" unicode="&#xb3;" horiz-adv-x="315" 
d="M217 623l38 5q8 0 11 -1q1 -4 4 -4t3 -6q0 -4 3 -3.5t3 -4.5t-15.5 -15t-18.5 -16l-6 -3q-3 0 -3 3q-4 -3 -6.5 -7t-4.5 -7q-5 -2 -17 -12t-15 -14t-8 -3t-5 -5q0 -9 9.5 -9t16 -1.5t16 -12.5t16.5 -15q2 -3 3.5 -3t8.5 -6t12 -19t9 -22.5t6 -12t2 -7.5l-2 -20l2 -10
q0 -8 -5 -13.5t-4 -14.5q-5 -5 -5.5 -11t-3 -10.5t-6.5 -6t-4 -6.5l-10 -6q-4 -9 -7 -12q-5 0 -7.5 -2.5t-7.5 -1.5q-9 -19 -26.5 -25.5t-28.5 -9.5t-19 -5.5t-12.5 -6t-11.5 -3.5q-21 0 -33 21h-16l-20 14q-16 29 -16 48t5.5 25t12.5 13q21 -5 21 -20q0 -8 -4.5 -14
t-4.5 -14q0 -13 18 -20q7 -3 15 -6t13 -10q19 0 34.5 3.5t18 7.5t11.5 2q2 4 4 4q2 1 13.5 15t12.5 17l2 11l5 15q3 9 3 20q0 55 -14 66q-4 3 -4 14q-5 4 -12 6t-12 7l-22 1q-24 0 -31 -4.5t-12 -4.5l-19 2l-1 6q0 7 3 22l12 8t10 11q61 35 94 68q-8 3 -15 3l-42 -5l-12 4
l-10 -2l-11 2l-21 -5q-13 0 -25 6l-16 -3q-5 0 -5 8.5t3 16.5l96 6l18 -2l16 4l14 -2l10 2z" />
    <glyph glyph-name="acute" unicode="&#xb4;" horiz-adv-x="232" 
d="M198 823q14 -8 14 -16q0 -3 -2 -9l-4 -2q-3 -9 -6.5 -9.5t-8 -3.5t-7.5 -8t-8 -3q-2 -2 -2 -5t-2 -5q-9 -1 -12.5 -8.5t-13.5 -9.5q-4 -14 -15 -21.5t-17 -19.5q-17 -4 -37.5 -26.5t-29.5 -32t-18 -9.5t-9 8l3 29q0 2 3.5 4t4.5 4v4q3 3 7.5 4.5t7.5 4t9 8.5q13 13 25 23
l8 9q2 2 4 3q7 4 10 12q3 5 11 10t11.5 9.5t8 7.5t8.5 5q10 3 23 18q16 15 20 15z" />
    <glyph glyph-name="mu" unicode="&#xb5;" horiz-adv-x="536" 
d="M290 398q0 -11 -14 -11q3 -7 -4.5 -9.5t-11 -11t-6 -23.5t-6 -24t-5.5 -12l-4 -6t-1.5 -6.5t-3 -8.5t-7 -15.5t-6.5 -27t-7 -29.5q-14 -40 -26.5 -76.5t-12.5 -51.5v-28q0 -15 5 -18q25 9 35 22t28 29l14 10q5 5 9.5 10.5t9.5 9.5q6 9 10 17.5t8 13.5l8 10q18 20 18 24
q12 5 29.5 25t30.5 29q6 14 14.5 25t14.5 22q4 13 18 24q0 7 6.5 14t8.5 11.5t2 8t2 7t5.5 6.5t5.5 8.5t3.5 10.5t5 10.5t19.5 14.5q14 -3 14 -15q0 -7 -2.5 -13t-4.5 -11t-1 -7t-1 -6t-6 -9q-8 -12 -7 -19.5t-3 -17t-4.5 -16t-2 -11t-3 -7.5t-8 -21.5t-6.5 -34t-4 -17.5
q-8 -47 -14 -68l-13 -44q-1 -3 -2.5 -5.5t-3 -7t-1 -12t-1.5 -12.5t-4.5 -7.5t-4.5 -7.5t-2 -12.5t-3 -13.5q3 -4 10 -4l30 6q5 0 10 -3t5 -8q0 -8 -9.5 -10.5t-13.5 -4t-5.5 -2.5t-3.5 -1l-10 1l-16 -4l-25 -5q-12 0 -20 -5t-15 -5l-26 -4h-3q-2 0 -2 2l-1 9q0 3 1.5 7
t2.5 7q6 1 11.5 4t10.5 3h2q1 5 6 6t7 4q5 11 9 31t6.5 27.5t4.5 10t3 6t0 8.5t0.5 10t3.5 8.5t5.5 14t7.5 33.5t7.5 36t3.5 27v9h-1q-3 0 -4.5 -3.5t-6.5 -6t-10 -10.5q-4 -2 -7.5 -5t-7.5 -5q-2 -6 -13 -12q-2 -10 -10.5 -14.5t-13 -9.5t-5 -7.5t-4.5 -8.5t-11 -16
t-10 -22q-3 -2 -6.5 -1.5t-7.5 -1.5q-2 -7 -6.5 -8.5t-6.5 -9.5q-6 -3 -10 -8.5t-10 -8.5q2 -4 -2.5 -6.5t-7.5 -4.5q-1 -2 0 -4t-5.5 -5.5t-10.5 -8t-6.5 -6.5t-6 -3.5t-13 -8.5t-22 -7t-20.5 5q-6 -34 -21 -70q-16 -39 -26 -80t-13.5 -45.5t-8.5 -8.5t-5 -6v-1
q-9 -3 -14 -3q-2 2 -5 -2.5t-17 -4.5t-14 12q0 9 4 16t7.5 18t6 25t6 23.5t5.5 12.5t8.5 17t13 39.5t11 40t6.5 20.5t5.5 17t9 27t9 28t4.5 19.5t3 15t5 14t3 16.5h1q13 32 23.5 67t19 55t14.5 32q23 49 27 70q-11 2 -23 2.5t-21 6.5q3 19 32 19q8 0 17 -1.5t18 1.5l5 4
q8 -2 14 -2l21 2q7 0 10 -4v-8z" />
    <glyph glyph-name="paragraph" unicode="&#xb6;" horiz-adv-x="559" 
d="M406 98q-15 -12 -32 -5.5t-17 11.5l2 7l-4 13l2 28l-2 13v20l-2 34l4 24l-2 37l2 1v18q0 3 -2 5l4 12l-2 13l4 32l-2 22q-3 40 -3 80l-5 30q0 8 4 14q-5 6 -5 22l-4 65l2 28l-4 25l2 11q0 35 -10 35l-11 -1l-8 2l-7 -4l-16 2q-10 0 -21.5 -6t-22.5 -8v-24l4 -2v-4
q0 -2 1.5 -4.5t2.5 -5t0.5 -5.5t-0.5 -7t1.5 -7.5t3 -12.5t0.5 -25.5t6 -29.5q-5 -11 -4 -26t1 -26l-2 -22l5 -25q0 -6 -5 -14q4 -8 4 -17l-4 -36q0 -30 5 -53q-4 -2 -4 -5l1 -10l-4 -13q0 -3 2 -3l-2 -4l3 -27l3 -18l-4 -55q-1 -9 -0.5 -15.5t0.5 -14.5v-15q-2 0 -2 -2
l1 -23q0 -13 -5 -23v-22q-6 -1 -10 -11q-11 -3 -22.5 -3t-17.5 3.5t-6 14t2 20.5t3.5 23t3.5 28.5t2 32.5l-2 22l6 18l-4 18q0 7 2 17q-2 0 -2 1.5t0.5 1.5t0.5 1l3 11v1l-2 16l4 21q0 10 -1.5 18.5t-2.5 16.5q-5 4 -15 3t-12 5h-1q-4 1 -5.5 -2.5t-5.5 -3.5l-16 2
q-8 0 -13.5 6t-12.5 11l-9 -1q-8 0 -11 4t-11 2q-4 4 -9 7q-20 14 -21 27q-2 4 -6.5 4t-6.5 4v1l-5 9l1 1q-7 5 -9.5 12t-6.5 12q-2 5 -1.5 10.5t-1 11.5t-3.5 12t-2 12q0 7 8 44t11.5 43.5t10 11.5t6.5 12q6 6 33 30q5 0 12.5 4t14.5 11q15 13 30 22q29 13 45.5 14t25 4
t14 6.5t15 8t28.5 5.5l2 -2l26 4q3 0 9 -2q6 1 10 3t13 2l36 -1q2 -4 5 -2t11 2l35 -8q8 0 16 2q4 -5 10.5 -5t8.5 1q5 -3 16 -4q46 -4 46 -17t-9 -16t-17 -8h-1q-8 0 -13 4t-10.5 5t-9.5 0.5t-12.5 -0.5t-12.5 4q-12 -7 -21.5 -7t-13.5 3q-6 -2 -9.5 -6t-9.5 -7q2 -9 2 -17
v-26q0 -19 7 -42v-3q0 -4 -3 -5t-4 -4q11 -14 11 -31v-33l4 -24l-2 -6l4 -26q0 -2 -2 -2q0 -2 2 -2q0 -2 -2 -2q4 -12 4 -13l-2 -10q2 -2 2 -4t-2 -4l4 -23l-4 -44l2 -66l4 -28l-4 -30q0 -40 3.5 -66t3.5 -32.5t-2 -13.5q-2 0 -3.5 -3.5t-3.5 -4.5h-4z" />
    <glyph glyph-name="periodcentered" unicode="&#xb7;" horiz-adv-x="221" 
d="M158 360q0 -5 3 -20q-20 -17 -26 -28q-8 3 -16 3h-18q-9 0 -13 1q-8 13 -25 18q-2 3 -2 11t6.5 22t16.5 20q2 2 5.5 2t10.5 4t16 4h7q0 -2 2 -2h4v-4q2 -1 7 -2.5t8 -4.5t6.5 -8.5t8.5 -9.5z" />
    <glyph glyph-name="cedilla" unicode="&#xb8;" horiz-adv-x="295" 
d="M151 -54l16 3q6 0 36 -12l4 -4q2 -1 3.5 -0.5t3.5 0.5h1l2 -4q5 -2 9.5 -5t10.5 -5v-1q0 -3 2 -4.5t4 -3.5l2 -6l4 -2q5 -15 5 -29.5t-5.5 -21t-3.5 -13.5q-11 -5 -17 -13.5t-15 -14.5q-6 -6 -13 -8.5t-11 -10.5q-3 -1 -6.5 -1.5t-13 -5t-16 -4t-10.5 -2.5t-6 -3l-7 1
l-13 -4q-7 0 -13.5 3.5t-14.5 3.5l-6 -1q-5 0 -7 4q-3 9 -13 7q-1 8 -7.5 11t-8.5 9t-4 11t-2 10.5t3 11.5q3 1 6 2.5t8 1.5t8.5 -5.5t9.5 -7.5l-1 -4q0 -6 4 -9.5t4 -9.5q11 0 17 -4.5t15 -4.5l14 1q5 0 7 -1q44 24 71 54q-1 3 -1 9.5t3 11.5q-2 6 -5.5 11t-5.5 11
q-11 2 -22 19q-4 -2 -5 -2t-15 4q-19 0 -53 -27q-7 -5 -11.5 -5t-8 8.5t-3.5 13.5t2 17q4 17 7.5 17t6.5 8.5t8 8.5q2 13 23 42.5t26.5 34.5t10 9t11 4t8.5 -1q1 -5 3.5 -8t2.5 -9.5t-6.5 -13t-6.5 -14.5l-10 -8v-4l-4 -2v-5q0 -2 -2 -2.5t-4 -1.5q-11 -19 -14 -30
q3 -5 9 -5z" />
    <glyph glyph-name="onesuperior" unicode="&#xb9;" horiz-adv-x="236" 
d="M140 618q8 15 12.5 15t8.5 -3.5t8 -5.5q12 -16 12 -60v-20q0 -64 -6 -76q2 -4 2 -9t2 -9q-3 -7 -3 -15l1 -22q0 -9 -1.5 -15.5t-2.5 -16t-0.5 -20t-1.5 -21.5v-6q-2 -5 -12 -17.5t-15 -14.5h-7q-11 0 -17.5 9.5t-6.5 17.5t1 10.5t-1 6.5l2 5l-2 6l5 42l-1 10q2 8 5 12
q-1 3 -1 9l1 24l-2 10l4 13q4 20 4 36t-6 28q-14 -5 -30 -10t-26 -16q-7 -1 -14 -1h-14q-6 0 -10 1q-5 5 -5 10.5t3 17.5q5 2 9 1.5t12.5 -0.5t24 5.5t26.5 8.5q5 8 16 10.5t16 11.5q2 2 1.5 4t1 6t5 8t3.5 11t-1 9z" />
    <glyph glyph-name="ordmasculine" unicode="&#xba;" horiz-adv-x="316" 
d="M211 657q9 0 13 -8h4q2 -2 4 -5.5t9.5 -10t13.5 -11.5t6 -25t5 -29.5t5 -13.5v-3l-2 -1q0 -2 1 -2t1 -2l-4 -10l2 -12q0 -5 -3 -9t-3 -11.5t-4 -16t-3 -17.5q-15 -11 -29.5 -17.5t-18.5 -8.5l-3 -3q-2 -1 -2.5 -0.5t-2.5 0.5l-22 -11l-9 3l-14 -4h-12q-17 0 -24.5 10
t-18.5 7q-3 11 -11 15t-16 7q-2 8 -8 12t-10 10v5q0 7 -3 10.5t-1 11.5q-2 6 -6 12t-4 12q0 67 36 88q4 2 11 7.5t27.5 10t29.5 7.5t17 3l29 -2zM187 620l-24 6l-26 -4q-8 -12 -28 -14q-2 -8 -9 -11t-7 -9t3 -7v-1l-2 -24l2 -8q-1 -1 -2 -1v-4q-1 -8 3.5 -11t4.5 -13.5
t11.5 -26t17 -18.5t9.5 -2.5t8 -3t14 -3.5t21 5q23 9 27.5 9t7.5 4.5t6.5 4.5t5.5 2q2 11 7 19.5t5 19.5l-4 39q-8 10 -12 21t-9.5 17t-9.5 5t-9 1t-5.5 5t-5.5 3z" />
    <glyph glyph-name="guillemotright" unicode="&#xbb;" horiz-adv-x="427" 
d="M110 311.5q0 -4.5 6 -4.5q7 0 14.5 -12t15.5 -17q2 -3 4.5 -4t6.5 -4.5t10.5 -8.5t11.5 -11q8 0 12.5 -5.5t10 -8t9 -3.5t6.5 -5h13l10 -12q-2 -11 -11 -16.5t-21 -9.5q-3 -4 -7 -7t-6 -8h-4q-6 0 -17 -7t-13 -12h-3q-5 0 -6.5 -2.5t-5.5 -3.5q-14 -23 -32 -26
q-2 -10 -9 -15t-12 -13q-5 -2 -9 -2h-13q-7 0 -7 11t8 19.5t15 16.5q11 3 17.5 10.5t13.5 15.5h1q9 0 14.5 6.5t10.5 11.5q1 -1 2.5 -1t3 2.5t5 5t13 5t9.5 10t-7.5 8.5t-8.5 9q-5 0 -6.5 2.5t-6.5 1.5v1q0 3 -3 5t-3 4q-11 1 -16 7.5t-14 8.5l-11 13h-4v4q-4 3 -10 8t-11 7
q-3 8 -11 13l-4 20q0 18 18 18q10 0 13 -7q8 -14 13 -14t5 -4.5zM248 119l1 13q8 5 12.5 10.5t12.5 9.5q17 20 28.5 26t16.5 15l12 7q8 5 8 13t-4.5 8.5t-10.5 2.5q1 8 -4.5 10t-10.5 4q-6 14 -18 24t-17 25q-7 1 -16 6q-2 3 -2 10q-2 3 -5.5 5t-4.5 6q2 10 5 17t12.5 7
t15.5 -7.5t14 -9.5q5 -9 11.5 -15t17.5 -16t19 -25q2 0 2 -1t1.5 -2.5t3.5 -1.5q3 2 5 -5t5.5 -7t8.5 -4q29 -20 29 -32q0 -17 -21 -19q-4 -6 -12.5 -7t-14 -10.5t-9.5 -15.5q-6 -1 -8.5 -4t-7.5 -2q-3 -2 -5.5 -5.5t-4.5 -5.5l-2 -4q-4 -2 -7 -1.5t-9 -6t-13 -19.5t-16 -13
t-12 1q-6 11 -6 19z" />
    <glyph glyph-name="onequarter" unicode="&#xbc;" horiz-adv-x="557" 
d="M495 178q21 0 21 -23q0 -7 -1 -10q-11 -8 -25 -10.5t-26 -7.5q-10 -16 -11.5 -55.5t-3 -54t-10 -21t-10.5 -8.5t-6 -2t-10.5 3t-7.5 5v4q-10 10 -10 21l2 33l6 38q0 2 -1 4t1 2q0 2 -2 2v6q0 6 -2 8h-2q-5 0 -5.5 -5t-6.5 -4h-2l-10 2l-17 -5q-4 -1 -7 -0.5t-6 0.5
l-38 -10q-9 -4 -15.5 -12t-14.5 -8t-14 3q-2 3 -2 15v12q9 15 18.5 26t13.5 29q6 6 10 8q5 11 13.5 31t16 32t9.5 23q6 5 9 11.5t7 12.5l3 1q1 2 0.5 3t-0.5 3v1l13 21q0 4 3 6q8 6 37 60q3 2 14.5 16t14.5 15t7.5 2t7.5 6q16 -3 16 -18q0 -8 -5.5 -11.5t-8.5 -9.5
q1 -9 1 -22.5t3 -19.5l-2 -3l4 -53l-2 -26l4 -26l-3 -39q0 -7 1 -10q4 -2 8 -2t9.5 5.5t13.5 5.5zM464.5 648.5q3.5 -11.5 3.5 -20.5t-15 -31t-15 -27t-2 -8l-4 -2q-2 -4 -2.5 -8t-3.5 -9.5t-7.5 -12.5t-6.5 -15q-8 -6 -11 -10q-1 -5 -4.5 -8.5t-5.5 -9t-3.5 -10t-3.5 -9.5
q-7 -12 -20.5 -30.5t-12.5 -21t1 -4.5v-1l-4 -2l-2 -11q-1 -2 -6 -7q-7 -14 -9 -30q-11 -8 -16.5 -19t-8.5 -16q-20 -33 -27 -37q-14 -28 -14 -41q-12 -8 -24.5 -39t-20.5 -38q-2 -21 -7.5 -26t-9 -7.5t-7 -7t-4 -12t-2.5 -15.5q-26 -7 -45 -7q-3 7 -3 16t5 21t11 18
q5 8 7.5 16.5t7.5 16.5q3 5 4 4t1 4t4 8q3 3 6 14l4 2q2 5 4 10.5t5.5 13t8.5 14.5t8 11.5t3 6t3 6.5t7.5 11.5t7 11.5t2.5 8t3 5q2 4 5.5 8t6.5 8l3 10q5 7 11 13.5t8 13.5t2 10.5t3 8t7.5 8t6.5 8t2 8t7 20t20.5 35.5t17.5 32q11 8 15.5 22.5t10 22t9.5 10.5t6 7.5t3 8
t9.5 21.5t19.5 29q4 6 7 13q15 29 32 29q5 0 8.5 -11.5zM188 571q0 -37 -1 -82t-5.5 -67t-5.5 -22t-1 -9l-4 -29q0 -5 -2 -5.5t-2 -4.5l1 -8q0 -8 -4 -10t-3 -6q-7 -2 -12 -6.5t-14.5 -4.5t-11 5.5t-10.5 9.5q2 1 2 3l-4 14q0 7 4.5 15t7 19.5t3.5 36t1.5 42t2.5 37.5l2 19
q0 9 -6 14q-18 -6 -34.5 -13t-32 -7t-27.5 5q-2 6 -2 12.5t7 15.5q4 1 13 1l20 -1q16 0 31.5 10.5t30.5 15.5q5 18 7.5 36.5t9.5 35.5l2 -1q8 0 10 3t4 3q23 -15 23 -60l-2 -8zM405 145q0 8 5 10v55q0 2 3 12.5t3 23.5v26q0 11 -6 11q0 2 -2 2h-2q0 -2 -1.5 -2t-1.5 -7
t-4 -11.5t-2 -15.5q-8 -6 -10.5 -16t-6.5 -19q-7 -2 -6 -6t-2 -9t-11 -20t-12 -22t-8.5 -8.5t-4.5 -9.5v-2q3 -3 20.5 -3t48.5 11z" />
    <glyph glyph-name="onehalf" unicode="&#xbd;" horiz-adv-x="587" 
d="M474 656q-1 -26 -24 -49q1 -7 -2.5 -11t-2.5 -12h-2q-4 0 -4 -4.5t-3.5 -9.5t-9 -11t-11 -14t-9 -17.5t-7 -14t-7.5 -9t-4 -12t-3 -7.5t-5 -2q-4 -11 -10 -19t-9.5 -13t-4.5 -8t-4 -1q-6 -25 -21 -47l1 -7l-6 -3v-4l-3 -2q-2 -5 -4.5 -8t-1.5 -10q-9 -3 -26.5 -36.5
t-22.5 -37.5q0 -16 -8 -23t-11.5 -15t-5 -12.5t-3.5 -9t-5.5 -7t-7.5 -8t-7 -14t-8.5 -14t-10 -12.5t-7.5 -11t-4.5 -7t-4.5 -3q-4 -11 -8 -22.5t-15 -11.5t-17 2.5t-13 4.5q-3 6 -3 17.5t8 22.5t13 17.5t5.5 6.5t2.5 3t3 7q2 8 7.5 11t4.5 8q0 3 4 1q7 21 20 38.5t20 38.5
q-2 0 -2 1.5t1 1.5q2 0 10 20q5 6 11.5 17.5t28.5 37.5q1 3 0.5 7.5t2.5 6.5t6.5 6.5t6.5 13t8 15.5l13 23q4 7 6 13t4.5 10t4 4.5t4.5 4.5t5.5 8.5t9.5 9.5v2q-1 8 3.5 11t7 6.5t2 5t8.5 12t7.5 14.5t1.5 8.5t8.5 8t6.5 12.5q20 20 31 48q10 3 17.5 16.5t16.5 18.5
q2 2 4.5 1t5 1t3.5 3.5t3 1.5t11 -9zM374 76q-6 -1 -13 -1h-12q-4 0 -8 -2q-16 8 -16 22t5 20t7 14q16 14 19 26q11 4 16.5 13.5t15.5 13.5q6 16 23.5 33t29.5 29q3 14 16 23q4 17 12.5 31t10.5 27t1.5 20.5t0.5 15.5q-2 0 -2 3l4 22q0 6 -6 11t-9 10q-8 -1 -12.5 -6
t-9.5 -10q-6 -3 -11 -7t-11 -7q-2 -8 -9 -13.5t-7 -14.5l2 -16v-3q-7 -9 -14.5 -9t-10.5 2q-4 10 -4 18q0 23 10 35.5t11 21.5q11 8 26 32q13 1 27.5 7.5t23.5 6.5h4l2 -4q3 -1 6 -0.5t6.5 0.5t6.5 -4t7 -8q21 -21 25 -38.5t4 -35.5v-26q0 -7 -2 -16q-6 -6 -12 -27
q-5 -2 -6.5 -7t-6.5 -5q-2 -13 -11 -20t-11 -20q-7 -1 -10.5 -6t-10.5 -5l-8 -20q-3 -2 -11 -2l1 -2q0 -5 -6 -8q-7 -2 -10 -12q-4 -5 -8.5 -8t-6.5 -11l-13 -4q-7 -16 -27 -39q15 -15 65 -15l39 -3q5 0 16 2q13 -13 13 -19.5t-1.5 -7.5t-2.5 -3.5t-3 -2.5h-2q0 2 -1.5 2
t-5.5 -3.5t-11 -3.5l-31 5l-22 -1l-25 5zM148 618q8 15 12.5 15t8.5 -3.5t8 -5.5q12 -16 12 -60v-20q0 -64 -6 -76q2 -4 2 -9t2 -9q-3 -7 -3 -15l1 -22q0 -9 -1.5 -15.5t-2.5 -16t-0.5 -20t-1.5 -21.5v-6q-2 -5 -12 -17.5t-15 -14.5h-7q-11 0 -17.5 9.5t-6.5 17.5t1 10.5
t-1 6.5l2 5l-2 6l5 42l-1 10q2 8 5 12q-1 3 -1 9l1 24l-2 10l4 13q4 20 4 36t-6 28q-14 -5 -30 -10t-26 -16q-7 -1 -14 -1h-14q-6 0 -10 1q-5 5 -5 10.5t3 17.5q5 2 9 1.5t12.5 -0.5t24 5.5t26.5 8.5q5 8 16 10.5t16 11.5q2 2 1.5 4t1 6t5 8t3.5 11t-1 9z" />
    <glyph glyph-name="threequarters" unicode="&#xbe;" horiz-adv-x="653" 
d="M381 147l-17 -5q-4 0 -5 1h-1q-5 0 -8 8.5t-3 17.5t23 39q16 29 22 35l8 8q5 7 8.5 14t8 14t9 13t7 10t2 5t1.5 3l4 2q6 9 16 22t13.5 18t3 6t0.5 3l4 3l2 6q6 4 6 8q0 8 7.5 12t10.5 12t12.5 17.5t13.5 16t10 11.5q3 5 10.5 5t18.5 -8q1 -5 1 -15l-3 -54l3 -28
q0 -8 -1 -16t-2 -22.5t-0.5 -33.5t-1.5 -34.5t-2 -20.5q0 -8 10 -8t13 5t12.5 5t16.5 -7t7 -16q-4 -11 -14 -11q-3 -10 -14.5 -9t-19.5 1t-11 -2q-12 -17 -12 -27t1 -10t1 -2t-1 -2t-1 -2l2 -10q0 -2 -1.5 -6t-3 -11.5t-2 -17t-4.5 -19.5q-7 -2 -11.5 -7.5t-9 -5.5t-15 7.5
t-12.5 9.5t-2 9.5t3 13.5q5 15 5 37v13q0 8 -3 11t-2 6h-12l-12 2q-4 0 -7.5 -2.5t-8 -4t-11.5 -1t-12.5 -0.5t-11 -7t-9.5 -6l-6 5l-16 -6q-3 0 -7 2zM225 623l38 5q8 0 11 -1q1 -4 4 -4t3 -6q0 -4 3 -3.5t3 -4.5t-15.5 -15t-18.5 -16l-6 -3q-3 0 -3 3q-4 -3 -6.5 -7
t-4.5 -7q-5 -2 -17 -12t-15 -14t-8 -3t-5 -5q0 -9 9.5 -9t16 -1.5t16 -12.5t16.5 -15q2 -3 3.5 -3t8.5 -6t12 -19t9 -22.5t6 -12t2 -7.5l-2 -20l2 -10q0 -8 -5 -13.5t-4 -14.5q-5 -5 -5.5 -11t-3 -10.5t-6.5 -6t-4 -6.5l-10 -6q-4 -9 -7 -12q-5 0 -7.5 -2.5t-7.5 -1.5
q-9 -19 -26.5 -25.5t-28.5 -9.5t-19 -5.5t-12.5 -6t-11.5 -3.5q-21 0 -33 21h-16l-20 14q-16 29 -16 48t5.5 25t12.5 13q21 -5 21 -20q0 -8 -4.5 -14t-4.5 -14q0 -13 18 -20q7 -3 15 -6t13 -10q19 0 34.5 3.5t18 7.5t11.5 2q2 4 4 4q2 1 13.5 15t12.5 17l2 11l5 15q3 9 3 20
q0 55 -14 66q-4 3 -4 14q-5 4 -12 6t-12 7l-22 1q-24 0 -31 -4.5t-12 -4.5l-19 2l-1 6q0 7 3 22l12 8t10 11q61 35 94 68q-8 3 -15 3l-42 -5l-12 4l-10 -2l-11 2l-21 -5q-13 0 -25 6l-16 -3q-5 0 -5 8.5t3 16.5l96 6l18 -2l16 4l14 -2l10 2zM375 444l4 1q2 2 1 5.5t7 11.5
q5 7 8.5 14t8.5 16l5 2v4q0 2 2.5 3.5t3.5 3.5l13 21q15 22 15 30q0 11 7 17.5t8.5 11.5t3.5 8.5t4 6t4 5.5l5 13q2 5 5.5 7.5t5.5 9.5t6 11t11.5 12.5t11.5 9.5q5 -1 10 -5.5t5 -14t-8 -31t-13 -27.5t-4.5 -10.5t-1 -6.5t-3.5 -3.5t-3 -3.5l1 -5q-6 -7 -5.5 -9t-1.5 -5
t-7 -15t-7 -15l-4 -2q-1 -2 -0.5 -5t-3 -8.5t-11 -13.5t-11 -14t-3.5 -9q1 -6 -5 -10t-7.5 -9t-5.5 -6q0 -14 -8 -20.5t-9 -19.5q-5 -2 -7.5 -5.5t-6.5 -5.5q0 -11 -7 -16.5t-7 -17.5q-4 -4 -7.5 -4.5t-1.5 -8.5q-5 -2 -8.5 -5.5t-8.5 -4.5v-2q0 -13 -6.5 -20.5t-4.5 -20.5
q-5 -5 -9 -12t-7 -10.5t-4.5 -4.5t-5.5 -6t-7 -12.5t-11 -16.5l-3 -17q-13 -12 -21.5 -31t-8.5 -22q-8 -6 -13 -15.5t-8 -14.5t-4 -5q-4 -2 -4 -7q0 -3 -7 -7q-2 -5 -4 -13.5t-5 -8.5t-6 -8q-9 -9 -19 -9t-17 7.5t-7 13.5q0 10 19 40t24 35q2 10 9 21.5t7 13t1 2.5h5v4
q16 27 19 42q5 3 7.5 9.5t6.5 11.5t3.5 9t1.5 6.5t4 3.5t4 4.5t4 10t7.5 13t6.5 10t4 8t5 5.5t3 3v5l4 2q12 23 18 31q8 11 14 23q3 10 7 14t6 6.5t1 3.5t2 3q4 3 9 14zM513 249l-2 16q0 10 4 18q-3 7 -3 15.5t1 15.5q-4 2 -5.5 4.5t-6.5 2.5q-5 -7 -8.5 -14t-11.5 -10
q-3 -12 -9.5 -21t-13.5 -19v-4l-4 -2q-2 -2 -3 -3.5t-4 -1.5q-1 -12 -7.5 -21t-6.5 -10.5t-1.5 -3t-2.5 -0.5t-3 -1t-1.5 -7t-2.5 -8q6 -6 12.5 -6t16.5 1t20.5 3t19.5 3.5t12 3.5l4 14t2 13l-2 10z" />
    <glyph glyph-name="questiondown" unicode="&#xbf;" horiz-adv-x="351" 
d="M280 115v21q0 17 -5.5 20.5t-9 3t-5.5 4.5q-3 -1 -4.5 -9.5t-8 -8.5t-10 4t-8.5 8q-1 4 -1 15t9 21t21.5 10t19.5 -4l2 -4h5q14 0 23 -49q2 -11 2 -22t-22 -55q-18 -4 -32.5 -14t-25.5 -12.5t-16.5 -7t-15.5 -4.5t-16 3q-1 -2 -4 -2l-8 3l-9 -2q-3 0 -8.5 2.5t-8.5 2
t-5 -0.5t-11 5.5t-23.5 13.5t-34.5 21q-5 10 -8.5 20.5t-9.5 18.5v12q-6 14 -10 20t-4 19q0 30 8.5 64t27.5 47q2 1 8.5 7t6.5 8q10 1 24 11h6q7 0 12 3l11 5h8q14 0 18 -4l2 2l19 -9q4 0 7.5 6.5t7.5 6.5l-1 8l5 28q0 1 -1 1t-1 2l2 2l-5 23q0 12 6 23l12 1q13 0 16.5 -7
t11.5 -14q6 -12 6 -28.5t-4 -24t-13 -22t-9 -19.5q-2 0 -4 -3t-5 -2t-8 -3t-7.5 -11t-14 -7t-28.5 17h-2l-13 -5l-5 2q-5 0 -9 -2t-10 0q-12 -8 -22 -18q-3 -7 -2.5 -14.5t-1 -13t-3 -8.5t-1.5 -7v-1l2 -16l-1 -20q0 -24 16 -53q11 -11 11 -15.5t2 -8t6 -6.5t6 -8
q5 0 9 -3.5t17 -11t28.5 -7.5t22 1.5t11 3.5t9.5 5t15 7q5 0 9 4t8 5q4 7 7.5 14t8.5 12zM182 488l-14 22q1 19 12.5 26.5t25.5 16.5h2q15 0 32.5 -9.5t17.5 -25.5t-2 -16q-5 1 -18 -12h-9q-11 0 -16 -6q-8 3 -16 3t-12 -1q0 2 -3 2z" />
    <glyph glyph-name="Agrave" unicode="&#xc0;" horiz-adv-x="568" 
d="M-22 -62q-6 0 -6 11t8 18q6 2 9 2l16 -2l15 2l9 -1q15 0 20 36l4 28t8 20q-2 1 -2 4t2 9t3.5 12t3.5 11.5t3 8.5t2.5 5.5t3 8.5t1.5 13t1.5 12.5t2.5 8.5t4.5 16t6.5 35.5t9 45t13 45t10.5 37.5t4.5 22q2 14 6.5 22t6 14t5 16t5.5 26.5t5 25.5t3.5 10t0.5 6t1.5 7t3.5 5
l5 28l2 1l-1 4q0 14 11.5 35.5t13.5 23.5q1 5 0 10q0 11 5 14q3 3 5 14l4 2v5q0 4 6 7q2 8 3.5 15t3.5 14l7 13q2 3 2 6.5t2.5 8t7.5 9.5t7.5 14.5t1 20t4.5 20.5q6 3 17.5 3t19.5 -13.5t8 -27.5q5 -7 7.5 -15t8.5 -13v-2q0 -16 11.5 -39t11.5 -33q3 -3 6.5 -17t16.5 -27
l-1 -3q0 -11 5 -20q11 -19 11 -35.5t16 -59t18 -61.5l-1 -1q0 -3 2 -3q7 -2 7 -12t9 -21q5 -9 7.5 -19.5t10.5 -18.5v-2q0 -7 3 -13t4.5 -11t2 -8.5t2 -6.5t5 -11.5t7 -18.5t6.5 -18t3 -10v-3q5 -5 6 -10.5t3 -11.5q6 -8 7 -18t3.5 -19t6 -15t7 -13t5 -17.5t3.5 -18t5.5 -14
t5.5 -14t1 -15.5q0 -15 4.5 -22.5t7.5 -19.5q6 -13 8 -24t9 -17l3 -1q12 0 17.5 5.5t15.5 6.5q14 -8 14 -22q0 -3 -1 -5q2 -6 -7.5 -8.5t-13.5 -3.5q-8 -6 -14.5 -5.5t-10 -0.5t-5 -2t-3.5 -2h-8q-5 0 -10.5 -5t-9.5 -5t-19 2l-31 -6q-5 0 -7 1q-7 -2 -12 -5t-13 -3l-6 10
t-3 12q3 9 14 13t21 7.5t18 7t8 10.5l-10 36q-2 3 -4 5.5t-3.5 7.5t-1.5 12.5t-2 13.5l-4 12t-4 11q-5 4 -12 12.5t-14 8.5l-13 -2l-12 2q-4 0 -8 -2q-12 -4 -29 -4h-19l-17 2l-5 -2l-16 4l-11 -1q-4 0 -7 3q-12 -6 -16 -6l-23 4l-11 -2l-15 4l-27 -2h-16q-52 0 -71 -13v-4
h-4q-7 -7 -17 -43t-10 -41t6.5 -8t11.5 -3t17 3q9 -6 16 -15q-1 -8 -4 -14l-6 -12l-40 5l-7 3l-15 -2l-19 5l-10 -2l-11 1q-8 0 -9 -3q-2 0 -2 1t-2 1l-15 -5q-4 0 -14 2.5t-10 8.5q0 3 -3 3q-2 -2 -4 -2zM345 109q4 0 6.5 1t12.5 -6q11 4 21 4h23q15 0 30 3q-1 4 5 8v3
q0 11 -3.5 20.5t-5 16.5t-1 11t-1.5 7.5t-4 6.5q-5 6 -7 18q-1 7 -4.5 14t-3.5 11t-2 10l-22 47q-1 2 -0.5 2.5t0.5 3.5t-10.5 20t-9 22t-1.5 13.5t-8 21.5t-7 27q-5 2 -4.5 4.5t-1.5 7.5l-4 4q-2 5 -2 11t-1 12q-12 15 -12 41l-10 21q3 6 3 11t-4.5 7.5t-4.5 12.5t-6 19
t-6 22q-1 2 -3.5 2.5t-6.5 5t-7.5 11.5t-12.5 12v2q-3 0 -3 -2q-6 0 -9 -16t-11 -25q-1 -4 -0.5 -7.5t-1.5 -10.5t-5 -19q-6 -8 -7.5 -21t-7.5 -23q-1 -5 -1.5 -11t-2 -10.5t-3 -8t-2.5 -7.5l-6 -51q-11 -16 -10 -34q-3 -2 -3.5 -5.5t-3.5 -5.5q-3 -26 -23 -69v-18
q-6 -9 -11.5 -40t-5.5 -35q-2 -2 -3 -5.5t-6 -5.5q1 -3 1 -8l-6 -43q9 -8 25 -8l72 3h12l42 -5l36 2zM261.5 950.5q18.5 -12.5 22.5 -20.5q10 -7 19 -14t14 -18q14 0 51 -37q0 -4 2 -4q-4 -8 -6 -20.5t-13 -15.5q-1 -1 -2.5 -1t-7.5 6t-9.5 9t-4.5 6q-11 3 -18 11.5
t-19 10.5q-2 4 -5 6t-3 7h-12q-1 8 -5.5 9t-7 3t-1.5 3q2 4 -6 6t-9.5 6.5t-3.5 6.5q-14 2 -20 12t-12 21q3 2 2.5 3t4.5 3q1 2 3 8t15 6t31.5 -12.5z" />
    <glyph glyph-name="Aacute" unicode="&#xc1;" horiz-adv-x="568" 
d="M-22 -62q-6 0 -6 11t8 18q6 2 9 2l16 -2l15 2l9 -1q15 0 20 36l4 28t8 20q-2 1 -2 4t2 9t3.5 12t3.5 11.5t3 8.5t2.5 5.5t3 8.5t1.5 13t1.5 12.5t2.5 8.5t4.5 16t6.5 35.5t9 45t13 45t10.5 37.5t4.5 22q2 14 6.5 22t6 14t5 16t5.5 26.5t5 25.5t3.5 10t0.5 6t1.5 7t3.5 5
l5 28l2 1l-1 4q0 14 11.5 35.5t13.5 23.5q1 5 0 10q0 11 5 14q3 3 5 14l4 2v5q0 4 6 7q2 8 3.5 15t3.5 14l7 13q2 3 2 6.5t2.5 8t7.5 9.5t7.5 14.5t1 20t4.5 20.5q6 3 17.5 3t19.5 -13.5t8 -27.5q5 -7 7.5 -15t8.5 -13v-2q0 -16 11.5 -39t11.5 -33q3 -3 6.5 -17t16.5 -27
l-1 -3q0 -11 5 -20q11 -19 11 -35.5t16 -59t18 -61.5l-1 -1q0 -3 2 -3q7 -2 7 -12t9 -21q5 -9 7.5 -19.5t10.5 -18.5v-2q0 -7 3 -13t4.5 -11t2 -8.5t2 -6.5t5 -11.5t7 -18.5t6.5 -18t3 -10v-3q5 -5 6 -10.5t3 -11.5q6 -8 7 -18t3.5 -19t6 -15t7 -13t5 -17.5t3.5 -18t5.5 -14
t5.5 -14t1 -15.5q0 -15 4.5 -22.5t7.5 -19.5q6 -13 8 -24t9 -17l3 -1q12 0 17.5 5.5t15.5 6.5q14 -8 14 -22q0 -3 -1 -5q2 -6 -7.5 -8.5t-13.5 -3.5q-8 -6 -14.5 -5.5t-10 -0.5t-5 -2t-3.5 -2h-8q-5 0 -10.5 -5t-9.5 -5t-19 2l-31 -6q-5 0 -7 1q-7 -2 -12 -5t-13 -3l-6 10
t-3 12q3 9 14 13t21 7.5t18 7t8 10.5l-10 36q-2 3 -4 5.5t-3.5 7.5t-1.5 12.5t-2 13.5l-4 12t-4 11q-5 4 -12 12.5t-14 8.5l-13 -2l-12 2q-4 0 -8 -2q-12 -4 -29 -4h-19l-17 2l-5 -2l-16 4l-11 -1q-4 0 -7 3q-12 -6 -16 -6l-23 4l-11 -2l-15 4l-27 -2h-16q-52 0 -71 -13v-4
h-4q-7 -7 -17 -43t-10 -41t6.5 -8t11.5 -3t17 3q9 -6 16 -15q-1 -8 -4 -14l-6 -12l-40 5l-7 3l-15 -2l-19 5l-10 -2l-11 1q-8 0 -9 -3q-2 0 -2 1t-2 1l-15 -5q-4 0 -14 2.5t-10 8.5q0 3 -3 3q-2 -2 -4 -2zM345 109q4 0 6.5 1t12.5 -6q11 4 21 4h23q15 0 30 3q-1 4 5 8v3
q0 11 -3.5 20.5t-5 16.5t-1 11t-1.5 7.5t-4 6.5q-5 6 -7 18q-1 7 -4.5 14t-3.5 11t-2 10l-22 47q-1 2 -0.5 2.5t0.5 3.5t-10.5 20t-9 22t-1.5 13.5t-8 21.5t-7 27q-5 2 -4.5 4.5t-1.5 7.5l-4 4q-2 5 -2 11t-1 12q-12 15 -12 41l-10 21q3 6 3 11t-4.5 7.5t-4.5 12.5t-6 19
t-6 22q-1 2 -3.5 2.5t-6.5 5t-7.5 11.5t-12.5 12v2q-3 0 -3 -2q-6 0 -9 -16t-11 -25q-1 -4 -0.5 -7.5t-1.5 -10.5t-5 -19q-6 -8 -7.5 -21t-7.5 -23q-1 -5 -1.5 -11t-2 -10.5t-3 -8t-2.5 -7.5l-6 -51q-11 -16 -10 -34q-3 -2 -3.5 -5.5t-3.5 -5.5q-3 -26 -23 -69v-18
q-6 -9 -11.5 -40t-5.5 -35q-2 -2 -3 -5.5t-6 -5.5q1 -3 1 -8l-6 -43q9 -8 25 -8l72 3h12l42 -5l36 2zM390 994q14 -8 14 -16q0 -3 -2 -9l-4 -2q-3 -9 -6.5 -9.5t-8 -3.5t-7.5 -8t-8 -3q-2 -2 -2 -5t-2 -5q-9 -1 -12.5 -8.5t-13.5 -9.5q-4 -14 -15 -21.5t-17 -19.5
q-17 -4 -37.5 -26.5t-29.5 -32t-18 -9.5t-9 8l3 29q0 2 3.5 4t4.5 4v4q3 3 7.5 4.5t7.5 4t9 8.5q13 13 25 23l8 9q2 2 4 3q7 4 10 12q3 5 11 10t11.5 9.5t8 7.5t8.5 5q10 3 23 18q16 15 20 15z" />
    <glyph glyph-name="Acircumflex" unicode="&#xc2;" horiz-adv-x="568" 
d="M-22 -62q-6 0 -6 11t8 18q6 2 9 2l16 -2l15 2l9 -1q15 0 20 36l4 28t8 20q-2 1 -2 4t2 9t3.5 12t3.5 11.5t3 8.5t2.5 5.5t3 8.5t1.5 13t1.5 12.5t2.5 8.5t4.5 16t6.5 35.5t9 45t13 45t10.5 37.5t4.5 22q2 14 6.5 22t6 14t5 16t5.5 26.5t5 25.5t3.5 10t0.5 6t1.5 7t3.5 5
l5 28l2 1l-1 4q0 14 11.5 35.5t13.5 23.5q1 5 0 10q0 11 5 14q3 3 5 14l4 2v5q0 4 6 7q2 8 3.5 15t3.5 14l7 13q2 3 2 6.5t2.5 8t7.5 9.5t7.5 14.5t1 20t4.5 20.5q6 3 17.5 3t19.5 -13.5t8 -27.5q5 -7 7.5 -15t8.5 -13v-2q0 -16 11.5 -39t11.5 -33q3 -3 6.5 -17t16.5 -27
l-1 -3q0 -11 5 -20q11 -19 11 -35.5t16 -59t18 -61.5l-1 -1q0 -3 2 -3q7 -2 7 -12t9 -21q5 -9 7.5 -19.5t10.5 -18.5v-2q0 -7 3 -13t4.5 -11t2 -8.5t2 -6.5t5 -11.5t7 -18.5t6.5 -18t3 -10v-3q5 -5 6 -10.5t3 -11.5q6 -8 7 -18t3.5 -19t6 -15t7 -13t5 -17.5t3.5 -18t5.5 -14
t5.5 -14t1 -15.5q0 -15 4.5 -22.5t7.5 -19.5q6 -13 8 -24t9 -17l3 -1q12 0 17.5 5.5t15.5 6.5q14 -8 14 -22q0 -3 -1 -5q2 -6 -7.5 -8.5t-13.5 -3.5q-8 -6 -14.5 -5.5t-10 -0.5t-5 -2t-3.5 -2h-8q-5 0 -10.5 -5t-9.5 -5t-19 2l-31 -6q-5 0 -7 1q-7 -2 -12 -5t-13 -3l-6 10
t-3 12q3 9 14 13t21 7.5t18 7t8 10.5l-10 36q-2 3 -4 5.5t-3.5 7.5t-1.5 12.5t-2 13.5l-4 12t-4 11q-5 4 -12 12.5t-14 8.5l-13 -2l-12 2q-4 0 -8 -2q-12 -4 -29 -4h-19l-17 2l-5 -2l-16 4l-11 -1q-4 0 -7 3q-12 -6 -16 -6l-23 4l-11 -2l-15 4l-27 -2h-16q-52 0 -71 -13v-4
h-4q-7 -7 -17 -43t-10 -41t6.5 -8t11.5 -3t17 3q9 -6 16 -15q-1 -8 -4 -14l-6 -12l-40 5l-7 3l-15 -2l-19 5l-10 -2l-11 1q-8 0 -9 -3q-2 0 -2 1t-2 1l-15 -5q-4 0 -14 2.5t-10 8.5q0 3 -3 3q-2 -2 -4 -2zM345 109q4 0 6.5 1t12.5 -6q11 4 21 4h23q15 0 30 3q-1 4 5 8v3
q0 11 -3.5 20.5t-5 16.5t-1 11t-1.5 7.5t-4 6.5q-5 6 -7 18q-1 7 -4.5 14t-3.5 11t-2 10l-22 47q-1 2 -0.5 2.5t0.5 3.5t-10.5 20t-9 22t-1.5 13.5t-8 21.5t-7 27q-5 2 -4.5 4.5t-1.5 7.5l-4 4q-2 5 -2 11t-1 12q-12 15 -12 41l-10 21q3 6 3 11t-4.5 7.5t-4.5 12.5t-6 19
t-6 22q-1 2 -3.5 2.5t-6.5 5t-7.5 11.5t-12.5 12v2q-3 0 -3 -2q-6 0 -9 -16t-11 -25q-1 -4 -0.5 -7.5t-1.5 -10.5t-5 -19q-6 -8 -7.5 -21t-7.5 -23q-1 -5 -1.5 -11t-2 -10.5t-3 -8t-2.5 -7.5l-6 -51q-11 -16 -10 -34q-3 -2 -3.5 -5.5t-3.5 -5.5q-3 -26 -23 -69v-18
q-6 -9 -11.5 -40t-5.5 -35q-2 -2 -3 -5.5t-6 -5.5q1 -3 1 -8l-6 -43q9 -8 25 -8l72 3h12l42 -5l36 2zM236 939l-2 13q0 5 6.5 13.5t12.5 8.5t12.5 -6t15.5 -8q25 -38 35 -43l1 -4q0 -4 -2 -8q5 -3 11 -20q5 -3 8 -7q4 -6 14.5 -15.5t20.5 -23t10 -25t-13 -16.5t-24 -5h-6
q-5 8 -8 17t-7 15.5t-9.5 10t-10.5 10.5t-12.5 14.5t-11.5 17.5h-2q-4 -1 -6.5 2t-10 3t-11.5 -11t-9 -19q-1 -6 -5 -7.5t-8 -3.5q-1 -7 -6.5 -13.5t-8 -12.5t-6.5 -17.5t-6 -13.5h-4q-4 -5 -5 -6t-9.5 -1t-8 2.5t-2.5 6t-5.5 5t-2.5 12.5t11 27l6 3q3 3 5.5 7.5t7.5 7.5
q0 5 3.5 8.5t7.5 14.5l4 2q5 6 7 13.5t7.5 16.5t10.5 14.5t5 20.5z" />
    <glyph glyph-name="Atilde" unicode="&#xc3;" horiz-adv-x="568" 
d="M-22 -62q-6 0 -6 11t8 18q6 2 9 2l16 -2l15 2l9 -1q15 0 20 36l4 28t8 20q-2 1 -2 4t2 9t3.5 12t3.5 11.5t3 8.5t2.5 5.5t3 8.5t1.5 13t1.5 12.5t2.5 8.5t4.5 16t6.5 35.5t9 45t13 45t10.5 37.5t4.5 22q2 14 6.5 22t6 14t5 16t5.5 26.5t5 25.5t3.5 10t0.5 6t1.5 7t3.5 5
l5 28l2 1l-1 4q0 14 11.5 35.5t13.5 23.5q1 5 0 10q0 11 5 14q3 3 5 14l4 2v5q0 4 6 7q2 8 3.5 15t3.5 14l7 13q2 3 2 6.5t2.5 8t7.5 9.5t7.5 14.5t1 20t4.5 20.5q6 3 17.5 3t19.5 -13.5t8 -27.5q5 -7 7.5 -15t8.5 -13v-2q0 -16 11.5 -39t11.5 -33q3 -3 6.5 -17t16.5 -27
l-1 -3q0 -11 5 -20q11 -19 11 -35.5t16 -59t18 -61.5l-1 -1q0 -3 2 -3q7 -2 7 -12t9 -21q5 -9 7.5 -19.5t10.5 -18.5v-2q0 -7 3 -13t4.5 -11t2 -8.5t2 -6.5t5 -11.5t7 -18.5t6.5 -18t3 -10v-3q5 -5 6 -10.5t3 -11.5q6 -8 7 -18t3.5 -19t6 -15t7 -13t5 -17.5t3.5 -18t5.5 -14
t5.5 -14t1 -15.5q0 -15 4.5 -22.5t7.5 -19.5q6 -13 8 -24t9 -17l3 -1q12 0 17.5 5.5t15.5 6.5q14 -8 14 -22q0 -3 -1 -5q2 -6 -7.5 -8.5t-13.5 -3.5q-8 -6 -14.5 -5.5t-10 -0.5t-5 -2t-3.5 -2h-8q-5 0 -10.5 -5t-9.5 -5t-19 2l-31 -6q-5 0 -7 1q-7 -2 -12 -5t-13 -3l-6 10
t-3 12q3 9 14 13t21 7.5t18 7t8 10.5l-10 36q-2 3 -4 5.5t-3.5 7.5t-1.5 12.5t-2 13.5l-4 12t-4 11q-5 4 -12 12.5t-14 8.5l-13 -2l-12 2q-4 0 -8 -2q-12 -4 -29 -4h-19l-17 2l-5 -2l-16 4l-11 -1q-4 0 -7 3q-12 -6 -16 -6l-23 4l-11 -2l-15 4l-27 -2h-16q-52 0 -71 -13v-4
h-4q-7 -7 -17 -43t-10 -41t6.5 -8t11.5 -3t17 3q9 -6 16 -15q-1 -8 -4 -14l-6 -12l-40 5l-7 3l-15 -2l-19 5l-10 -2l-11 1q-8 0 -9 -3q-2 0 -2 1t-2 1l-15 -5q-4 0 -14 2.5t-10 8.5q0 3 -3 3q-2 -2 -4 -2zM345 109q4 0 6.5 1t12.5 -6q11 4 21 4h23q15 0 30 3q-1 4 5 8v3
q0 11 -3.5 20.5t-5 16.5t-1 11t-1.5 7.5t-4 6.5q-5 6 -7 18q-1 7 -4.5 14t-3.5 11t-2 10l-22 47q-1 2 -0.5 2.5t0.5 3.5t-10.5 20t-9 22t-1.5 13.5t-8 21.5t-7 27q-5 2 -4.5 4.5t-1.5 7.5l-4 4q-2 5 -2 11t-1 12q-12 15 -12 41l-10 21q3 6 3 11t-4.5 7.5t-4.5 12.5t-6 19
t-6 22q-1 2 -3.5 2.5t-6.5 5t-7.5 11.5t-12.5 12v2q-3 0 -3 -2q-6 0 -9 -16t-11 -25q-1 -4 -0.5 -7.5t-1.5 -10.5t-5 -19q-6 -8 -7.5 -21t-7.5 -23q-1 -5 -1.5 -11t-2 -10.5t-3 -8t-2.5 -7.5l-6 -51q-11 -16 -10 -34q-3 -2 -3.5 -5.5t-3.5 -5.5q-3 -26 -23 -69v-18
q-6 -9 -11.5 -40t-5.5 -35q-2 -2 -3 -5.5t-6 -5.5q1 -3 1 -8l-6 -43q9 -8 25 -8l72 3h12l42 -5l36 2zM102 807l6 23q-1 8 3 12t6 6.5t2 5.5t5 2q2 4 1.5 6t2.5 6q5 2 9.5 6t10 7.5t11.5 5t7 9.5q2 -2 3.5 -2t15 6.5t53.5 6.5t49 -4t12 -6.5t9.5 -5t14.5 -4.5t19.5 -7
t18 -9.5t23.5 -4.5t22 9q13 1 23 15.5t9 26.5q9 3 11 12q10 -1 14.5 -7.5t8.5 -14.5q-2 -7 -4 -11t-2 -13q-5 -5 -11 -10t-8 -13h-4q-5 0 -6.5 -3.5t-3.5 -7.5q-6 -2 -8 -2t-6 2q-1 -2 -4 -2.5t-6.5 -3t-7 -6t-8.5 -5t-10.5 -1t-10.5 0.5l-8 -2q-9 0 -14 -4q-14 4 -29 2
q-1 4 -6.5 3.5t-3.5 4.5q-12 1 -21.5 7.5t-19.5 9.5l-8 -2q-8 0 -10.5 4t-7.5 7q-9 -1 -13.5 4.5t-9.5 5.5l-10 -4q-5 3 -9 2.5t-9 1.5q-3 -2 -5.5 -6t-5.5 -4t-5 2q-9 -10 -32 -28l2 -2q0 -3 -2.5 -4t-1.5 -5q-2 -2 -4 -5.5t-5 -4.5v-3q0 -5 -3.5 -7.5t-2.5 -9.5l-11 -4
q-7 0 -11 6t-4 10z" />
    <glyph glyph-name="Adieresis" unicode="&#xc4;" horiz-adv-x="568" 
d="M-22 -62q-6 0 -6 11t8 18q6 2 9 2l16 -2l15 2l9 -1q15 0 20 36l4 28t8 20q-2 1 -2 4t2 9t3.5 12t3.5 11.5t3 8.5t2.5 5.5t3 8.5t1.5 13t1.5 12.5t2.5 8.5t4.5 16t6.5 35.5t9 45t13 45t10.5 37.5t4.5 22q2 14 6.5 22t6 14t5 16t5.5 26.5t5 25.5t3.5 10t0.5 6t1.5 7t3.5 5
l5 28l2 1l-1 4q0 14 11.5 35.5t13.5 23.5q1 5 0 10q0 11 5 14q3 3 5 14l4 2v5q0 4 6 7q2 8 3.5 15t3.5 14l7 13q2 3 2 6.5t2.5 8t7.5 9.5t7.5 14.5t1 20t4.5 20.5q6 3 17.5 3t19.5 -13.5t8 -27.5q5 -7 7.5 -15t8.5 -13v-2q0 -16 11.5 -39t11.5 -33q3 -3 6.5 -17t16.5 -27
l-1 -3q0 -11 5 -20q11 -19 11 -35.5t16 -59t18 -61.5l-1 -1q0 -3 2 -3q7 -2 7 -12t9 -21q5 -9 7.5 -19.5t10.5 -18.5v-2q0 -7 3 -13t4.5 -11t2 -8.5t2 -6.5t5 -11.5t7 -18.5t6.5 -18t3 -10v-3q5 -5 6 -10.5t3 -11.5q6 -8 7 -18t3.5 -19t6 -15t7 -13t5 -17.5t3.5 -18t5.5 -14
t5.5 -14t1 -15.5q0 -15 4.5 -22.5t7.5 -19.5q6 -13 8 -24t9 -17l3 -1q12 0 17.5 5.5t15.5 6.5q14 -8 14 -22q0 -3 -1 -5q2 -6 -7.5 -8.5t-13.5 -3.5q-8 -6 -14.5 -5.5t-10 -0.5t-5 -2t-3.5 -2h-8q-5 0 -10.5 -5t-9.5 -5t-19 2l-31 -6q-5 0 -7 1q-7 -2 -12 -5t-13 -3l-6 10
t-3 12q3 9 14 13t21 7.5t18 7t8 10.5l-10 36q-2 3 -4 5.5t-3.5 7.5t-1.5 12.5t-2 13.5l-4 12t-4 11q-5 4 -12 12.5t-14 8.5l-13 -2l-12 2q-4 0 -8 -2q-12 -4 -29 -4h-19l-17 2l-5 -2l-16 4l-11 -1q-4 0 -7 3q-12 -6 -16 -6l-23 4l-11 -2l-15 4l-27 -2h-16q-52 0 -71 -13v-4
h-4q-7 -7 -17 -43t-10 -41t6.5 -8t11.5 -3t17 3q9 -6 16 -15q-1 -8 -4 -14l-6 -12l-40 5l-7 3l-15 -2l-19 5l-10 -2l-11 1q-8 0 -9 -3q-2 0 -2 1t-2 1l-15 -5q-4 0 -14 2.5t-10 8.5q0 3 -3 3q-2 -2 -4 -2zM345 109q4 0 6.5 1t12.5 -6q11 4 21 4h23q15 0 30 3q-1 4 5 8v3
q0 11 -3.5 20.5t-5 16.5t-1 11t-1.5 7.5t-4 6.5q-5 6 -7 18q-1 7 -4.5 14t-3.5 11t-2 10l-22 47q-1 2 -0.5 2.5t0.5 3.5t-10.5 20t-9 22t-1.5 13.5t-8 21.5t-7 27q-5 2 -4.5 4.5t-1.5 7.5l-4 4q-2 5 -2 11t-1 12q-12 15 -12 41l-10 21q3 6 3 11t-4.5 7.5t-4.5 12.5t-6 19
t-6 22q-1 2 -3.5 2.5t-6.5 5t-7.5 11.5t-12.5 12v2q-3 0 -3 -2q-6 0 -9 -16t-11 -25q-1 -4 -0.5 -7.5t-1.5 -10.5t-5 -19q-6 -8 -7.5 -21t-7.5 -23q-1 -5 -1.5 -11t-2 -10.5t-3 -8t-2.5 -7.5l-6 -51q-11 -16 -10 -34q-3 -2 -3.5 -5.5t-3.5 -5.5q-3 -26 -23 -69v-18
q-6 -9 -11.5 -40t-5.5 -35q-2 -2 -3 -5.5t-6 -5.5q1 -3 1 -8l-6 -43q9 -8 25 -8l72 3h12l42 -5l36 2zM325 830q-10 12 -10 21t2 15v1q0 3 3 5q7 3 7 7t2 6q3 8 15.5 14.5t22 6.5t12 -4.5t7 -8.5t7 -3t5 -7t2.5 -9.5t-3.5 -8t-5.5 -9t-7.5 -5.5t-10 -6t-8 -8t-8.5 -7h-32z
M248 887l1 -21q0 -8 -5 -11.5t-7 -6t-4.5 -4t-3.5 -4.5h-3q-8 1 -18.5 -6.5t-15.5 -7.5q-11 0 -16 16q-6 15 -6 24t4 15q14 3 21.5 13t19.5 15q11 -3 18 -9.5t15 -12.5z" />
    <glyph glyph-name="Aring" unicode="&#xc5;" horiz-adv-x="566" 
d="M344 109q4 0 6.5 1t12.5 -6q11 4 21 4h23q15 0 30 3q-1 4 5 8v3q0 11 -3.5 20.5t-5 16.5t-1 11t-1.5 7.5t-4 6.5q-5 6 -7 18q-1 7 -4.5 14t-3.5 11t-2 10l-22 47q-1 2 -0.5 2.5t0.5 3.5t-10.5 20t-9 22t-1.5 13.5t-8 21.5t-7 27q-5 2 -4.5 4.5t-1.5 7.5l-4 4q-2 5 -2 11
t-1 12q-12 15 -12 41l-10 21q3 6 3 11t-4.5 7.5t-4.5 12.5t-6 19t-6 22q-1 2 -3.5 2.5t-6.5 5t-7.5 11.5t-12.5 12v2q-3 0 -3 -2q-6 0 -9 -16t-11 -25q-1 -4 -0.5 -7.5t-1.5 -10.5t-5 -19q-6 -8 -7.5 -21t-7.5 -23q-1 -5 -1.5 -11t-2 -10.5t-3 -8t-2.5 -7.5l-6 -51
q-11 -16 -10 -34q-3 -2 -3.5 -5.5t-3.5 -5.5q-3 -26 -23 -69v-18q-6 -9 -11.5 -40t-5.5 -35q-2 -2 -3 -5.5t-6 -5.5q1 -3 1 -8l-6 -43q9 -8 25 -8l72 3h12l42 -5l36 2zM-22 -62q-7 0 -7 11t8 18q6 2 9 2l16 -2l15 2l9 -1q15 0 20 36l4 28t8 20q-2 1 -2 4t2 9t3.5 12
t3.5 11.5t3 8.5t2.5 5.5t3 8.5t1.5 13t1.5 12.5t2.5 8.5t4.5 16t6.5 35.5t9 45t13 45t10.5 37.5t4.5 22q2 14 6.5 22t6 14t5 16t5.5 26.5t5 25.5t3.5 10t0.5 6t1.5 7t3.5 5l5 28l2 1l-1 4q0 14 11.5 35.5t13.5 23.5q1 5 1 10q-1 11 4 14q3 3 5 14l4 2v5q0 4 6 7q2 8 3.5 15
t3.5 14l7 13q2 3 2 6q0 8 10 18t9 21t0 18q-4 0 -6 1q-8 9 -18 16.5t-19 15.5q-2 5 -5.5 13.5t-3.5 12.5l1 10q0 3 -2 7q1 6 4 13.5t5 13.5q2 10 7 12.5t5 5t4.5 7.5t17.5 11t21 12h4q10 -4 20.5 -8t20.5 -8q33 -14 37 -44q1 -7 5 -15q-2 -6 -7 -8t-7 -9t-2.5 -15.5
t-2.5 -16.5q-3 -2 -5 -5t-7 -3q0 -8 -5.5 -11.5t-10.5 -8.5q-3 1 -7 1q5 -12 5 -22q5 -7 7.5 -15t8.5 -13v-2q0 -16 11.5 -39t11.5 -33q3 -3 6.5 -17t16.5 -27l-1 -3q0 -11 6 -20q10 -19 10 -35.5t16 -59t18 -61.5l-1 -1q0 -3 3 -3q6 -2 6 -12t9 -21q5 -9 7.5 -19.5
t10.5 -18.5v-2q0 -7 3 -13t4.5 -11t2 -8.5t2 -6.5t5 -11.5t7 -18.5t6.5 -18t3 -10v-3q5 -5 6 -10.5t3 -11.5q6 -8 7 -18t3.5 -19t6 -15t7 -13t5 -17.5t3.5 -18t5.5 -14t5.5 -14t2 -15.5q-1 -15 3.5 -22.5t7.5 -19.5q6 -13 8 -24t9 -17l3 -1q12 0 17.5 5.5t15.5 6.5
q14 -8 14 -22q0 -3 -1 -5q2 -6 -7.5 -8.5t-13.5 -3.5q-8 -6 -14.5 -5.5t-10 -0.5t-5 -2t-3.5 -2h-8q-5 0 -10.5 -5t-13.5 -5l-15 2l-31 -6q-5 0 -7 1q-7 -2 -12 -5t-13 -3l-6 10t-3 12q3 9 14 13t21 7.5t18 7t8 10.5l-10 36q-2 3 -4 5.5t-3.5 7.5t-1.5 12.5t-2 13.5l-4 12
t-4 11q-5 4 -12 12.5t-14 8.5l-13 -2l-12 2q-4 0 -8 -2q-12 -4 -29 -4h-19l-17 2l-5 -2l-16 4l-11 -1q-4 0 -7 3q-12 -6 -16 -6l-23 4l-11 -2l-15 4l-27 -2h-16q-52 0 -71 -13v-4h-4q-7 -7 -17 -43t-10 -41t6.5 -8t11.5 -3t17 3q9 -6 16 -15q-1 -8 -4 -14l-6 -12l-40 5l-7 3
l-15 -2l-19 5l-10 -2l-11 1q-8 0 -9 -3q-2 0 -2 1t-2 1l-15 -5q-4 0 -14 2.5t-10 8.5q0 3 -3 3q-2 -2 -3 -2zM244 807l-2 -11q0 -8 12.5 -24t19.5 -16q5 3 11 2.5t12 1.5q1 4 6 6q1 8 9.5 21.5t8.5 22t-12 16.5q-2 2 -8 2t-10 2q-4 7 -9 7l-18 -2q-20 0 -22 -9q3 -2 3 -6
t-3 -7z" />
    </font>
</defs>
</svg>
