<?xml version="1.0" standalone="no"?>
<!DOCTYPE svg PUBLIC "-//W3C//DTD SVG 1.1//EN" "http://www.w3.org/Graphics/SVG/1.1/DTD/svg11.dtd" >
<svg xmlns="http://www.w3.org/2000/svg" xmlns:xlink="http://www.w3.org/1999/xlink" version="1.1">
<metadata>
Created by FontForge 20161013 at Thu Dec  2 18:46:56 2010
 By ,,,
Copyright (c) 2010 by vernon adams. All rights reserved.
</metadata>
<defs>
<font id="Nobile-Regular" horiz-adv-x="1264" >
  <font-face 
    font-family="Nobile"
    font-weight="400"
    font-stretch="normal"
    units-per-em="2048"
    panose-1="2 0 5 3 5 0 0 2 0 4"
    ascent="1638"
    descent="-410"
    x-height="1169"
    cap-height="1579"
    bbox="-214 -617 2778 2353"
    underline-thickness="40"
    underline-position="-372"
    unicode-range="U+000D-FB04"
  />
<missing-glyph horiz-adv-x="748" 
d="M544 68v1229h-408v-1229h408zM68 1365h544v-1365h-544v1365z" />
    <glyph glyph-name="uniFB00" unicode="ff" horiz-adv-x="1592" 
d="M1326 1516q-51 0 -80.5 -16t-44.5 -55.5t-19 -106.5t-4 -169h348v-105h-348v-1064h-190v1064h-515v-1064h-190v1064h-255v105h255q0 134 18.5 227t57 151.5t98 85t141.5 26.5q55 0 103.5 -12.5t84.5 -27.5q42 -18 78 -40l-63 -125q-30 17 -62 31q-27 11 -58.5 21
t-59.5 10q-51 0 -80.5 -16t-44.5 -55.5t-19 -106.5t-4 -169h515q0 134 18.5 227t57 151.5t98 85t141.5 26.5q55 0 103.5 -12.5t84.5 -27.5q42 -18 78 -40l-63 -125q-30 17 -62 31q-27 11 -58.5 21t-59.5 10z" />
    <glyph glyph-name="uniFB01" unicode="fi" horiz-adv-x="1367" 
d="M987 1462q0 23 8 44t23 36.5t35 25t44 9.5t44 -9.5t35 -25t23 -36.5t8 -44t-8 -44t-22.5 -36.5t-35 -25t-44.5 -9.5t-44.5 9.5t-35 25t-22.5 36.5t-8 44zM1004 0v1064h-531v-1064h-190v1064h-255v105h255q0 134 20.5 227t61.5 151.5t103 85t146 26.5q53 0 97.5 -13
t77.5 -29q39 -18 71 -41l-63 -125q-30 18 -62 32q-27 12 -59.5 22.5t-61.5 10.5q-31 0 -57 -9.5t-44.5 -32.5t-29 -61.5t-10.5 -96.5v-147h713v-1169h-182z" />
    <glyph glyph-name="uniFB02" unicode="fl" horiz-adv-x="1336" 
d="M821 1169v-105h-348v-1064h-190v1064h-255v105h255q0 134 20.5 227t71.5 151.5t137.5 85t219.5 26.5q107 0 181.5 -14t123.5 -44.5t77 -79t41.5 -116t16.5 -156.5t3 -201v-1048h-190v1152q0 29 0.5 60.5t0.5 63.5q0 70 -6.5 116.5t-32 74t-76 38.5t-139.5 11
q-78 0 -128 -9.5t-79 -32.5t-40.5 -61.5t-11.5 -96.5v-147h348z" />
    <glyph glyph-name="uniFB03" unicode="ffi" horiz-adv-x="2077" 
d="M1697 1462q0 23 8 44t23 36.5t35 25t44 9.5t44 -9.5t35 -25t23 -36.5t8 -44t-8 -44t-22.5 -36.5t-35 -25t-44.5 -9.5t-44.5 9.5t-35 25t-22.5 36.5t-8 44zM1315 1516q-51 0 -80.5 -16t-44.5 -55.5t-19 -106.5t-4 -169h729v-1169h-182v1064h-547v-1064h-190v1064h-504
v-1064h-190v1064h-255v105h255q0 134 18.5 227t57 151.5t98 85t141.5 26.5q55 0 103.5 -12.5t84.5 -27.5q42 -18 78 -40l-63 -125q-30 17 -62 31q-27 11 -58.5 21t-59.5 10q-51 0 -80.5 -16t-44.5 -55.5t-19 -106.5t-4 -169h504q0 134 18.5 227t57 151.5t98 85t141.5 26.5
q55 0 103.5 -12.5t84.5 -27.5q42 -18 78 -40l-63 -125q-30 17 -62 31q-27 11 -58.5 21t-59.5 10z" />
    <glyph glyph-name="uniFB04" unicode="ffl" horiz-adv-x="1982" 
d="M1378 1659q138 0 224 -25t135 -80t66.5 -142.5t17.5 -213.5v-1198h-190v1171q0 26 0.5 53.5t0.5 55.5q0 69 -6.5 114.5t-32 72.5t-76.5 38t-139 11q-92 0 -143.5 -12.5t-77.5 -43.5t-32 -84t-6 -134v-73h348v-105h-348v-1064h-190v1064h-456v-1064h-190v1064h-255v105
h255q0 134 18.5 227t57 151.5t98 85t141.5 26.5q55 0 103.5 -12.5t84.5 -27.5q42 -18 78 -40l-63 -125q-30 17 -62 31q-27 11 -58.5 21t-59.5 10q-51 0 -80.5 -16t-44.5 -55.5t-19 -106.5t-4 -169h456q0 134 20.5 227t71.5 151.5t137.5 85t219.5 26.5z" />
    <glyph glyph-name="t_t" unicode="tt" horiz-adv-x="1637" 
d="M1267 -20q-90 0 -143 30t-80.5 89.5t-36 147t-8.5 202.5v616h-542v-770q0 -54 5.5 -88.5t18.5 -54.5t34.5 -27.5t53.5 -7.5q36 0 83.5 20.5t128.5 65.5l67 -123q-88 -54 -164 -77t-149 -23q-90 0 -143 30t-80.5 89.5t-36 147t-8.5 202.5v616h-233v104h236l25 361l162 46
v-407h545l25 361l162 46v-407h333v-104h-333v-770q0 -54 5.5 -88.5t18.5 -54.5t34.5 -27.5t53.5 -7.5q36 0 83.5 20.5t128.5 65.5l67 -123q-88 -54 -164 -77t-149 -23z" />
    <glyph glyph-name="f_j" unicode="fj" horiz-adv-x="1320" 
d="M966 1462q0 23 8 44t23 36.5t35 25t44 9.5t44 -9.5t35 -25t23 -36.5t8 -44t-8 -44t-22.5 -36.5t-35 -25t-44.5 -9.5t-44.5 9.5t-35 25t-22.5 36.5t-8 44zM793 -258q61 39 98 81t57 93.5t26.5 115t6.5 144.5v888h-508v-1064h-190v1064h-245v105h245q0 134 18.5 227
t57 151.5t98 85t141.5 26.5q69 0 136 -21t130 -59l-63 -125q-41 23 -86 42.5t-94 19.5q-51 0 -80.5 -16t-44.5 -55.5t-19 -106.5t-4 -169h698v-1015q0 -104 -22.5 -192t-65.5 -156.5t-104 -114t-139 -64.5z" />
    <glyph glyph-name=".notdef" horiz-adv-x="748" 
d="M544 68v1229h-408v-1229h408zM68 1365h544v-1365h-544v1365z" />
    <glyph glyph-name="uni0000" horiz-adv-x="2048" 
 />
    <glyph glyph-name="uni0000" horiz-adv-x="2048" 
 />
    <glyph glyph-name="nonmarkingreturn" horiz-adv-x="512" 
 />
    <glyph glyph-name="uni000D" unicode="&#xd;" horiz-adv-x="688" 
 />
    <glyph glyph-name="space" unicode=" " horiz-adv-x="512" 
 />
    <glyph glyph-name="exclam" unicode="!" horiz-adv-x="790" 
d="M319 121v81h125h39q15 0 24 -2.5t13.5 -10.5t6 -24t1.5 -44q0 -21 2 -38.5t2 -31.5q0 -12 -3 -21.5t-12.5 -16t-27 -10t-45.5 -3.5h-125v121zM502 399h-183v1180h183v-1180z" />
    <glyph glyph-name="quotedbl" unicode="&#x22;" horiz-adv-x="634" 
d="M602 1579v-71l-60 -450h-108l-60 450v71h228zM264 1579v-71l-60 -450h-108l-60 450v71h228z" />
    <glyph glyph-name="numbersign" unicode="#" horiz-adv-x="1234" 
d="M732 684l26 221h-182l-27 -221h183zM537 561l-33 -266h-141l33 266h-166v123h176l27 221h-175v125h189l31 279h139l-31 -279h189l28 277h142l-31 -277h160v-125h-172l-27 -221h176v-123h-188l-31 -266h-141l32 266h-186z" />
    <glyph glyph-name="dollar" unicode="$" horiz-adv-x="1139" 
d="M643 134q50 1 91 16t70 40.5t44.5 61t15.5 77.5q0 38 -10 66.5t-35 52t-67.5 45t-108.5 46.5v-405zM540 1099q-75 0 -122.5 -14t-75 -37.5t-38 -53.5t-10.5 -62q0 -30 9.5 -54.5t36.5 -47t75 -44.5t125 -47v360zM540 1390h103v-154q58 0 116.5 -10.5t106.5 -22.5
q55 -14 108 -32l-39 -127q-46 15 -95 27q-42 11 -94 19.5t-103 8.5v-390q115 -42 190 -82.5t118.5 -84t60.5 -93t17 -109.5q0 -92 -31 -157t-83.5 -107t-123 -64.5t-148.5 -29.5v-160h-103v158q-26 0 -55.5 3.5t-60.5 9t-62 13t-60 15.5q-68 18 -136 42l49 144
q60 -22 119 -39q51 -15 106 -27t100 -12v439q-117 30 -196 66t-127.5 80t-69 97t-20.5 118q0 93 30 150.5t84 90.5t130 47.5t169 22.5v150z" />
    <glyph glyph-name="percent" unicode="%" horiz-adv-x="1724" 
d="M1380 136q112 0 164.5 79t52.5 238t-50.5 244t-166.5 85q-59 0 -99.5 -21.5t-66 -63.5t-37 -103.5t-11.5 -140.5q0 -159 51 -238t163 -79zM1382 11q-96 0 -164.5 38t-111.5 100t-63 141t-20 161q0 107 22.5 191t67.5 141.5t112 88t157 30.5q94 0 162 -30.5t111.5 -88
t64.5 -141.5t21 -191q0 -77 -19.5 -155.5t-62.5 -141.5t-111.5 -103t-165.5 -40zM405 729q112 0 164.5 79t52.5 238t-50.5 244t-166.5 85q-59 0 -99.5 -21.5t-66 -63.5t-37 -103.5t-11.5 -140.5q0 -159 51 -238t163 -79zM407 604q-96 0 -164.5 38t-111.5 100t-63 141
t-20 161q0 107 22.5 191t67.5 141.5t112 88t157 30.5q94 0 162 -30.5t111.5 -88t64.5 -141.5t21 -191q0 -77 -19.5 -155.5t-62.5 -141.5t-111.5 -103t-165.5 -40zM1136 1497l129 -67l-681 -1452l-130 59z" />
    <glyph glyph-name="ampersand" unicode="&#x26;" horiz-adv-x="1597" 
d="M314 418q0 -76 22.5 -135t70 -99.5t120 -62t172.5 -21.5q103 0 176.5 9.5t125.5 29t87 49t60 68.5l-588 470q-126 -27 -186 -101.5t-60 -206.5zM699 -39q-567 0 -567 435q0 169 83.5 273.5t250.5 152.5q-32 21 -67.5 51t-65.5 67.5t-49.5 81t-19.5 91.5q0 74 26.5 135
t77.5 105t125.5 68t169.5 24q99 0 174 -25.5t125.5 -69.5t76 -104.5t25.5 -130.5q0 -72 -24 -123t-70 -89t-113 -66.5t-152 -55.5l495 -390q5 28 8 62.5t5 72t2.5 75.5t0.5 72q0 26 -0.5 48.5t-0.5 39.5q-1 19 -1 35h164l-2 -26q-1 -25 -2.5 -66t-5 -92t-7 -101.5
t-8.5 -95.5t-10 -74l-12 -64l226 -182l-86 -102l-211 177q-57 -110 -194 -159.5t-367 -49.5zM904 1119q0 46 -17 81.5t-48.5 60t-76 37t-99.5 12.5q-233 0 -233 -193q0 -65 48 -127.5t131 -116.5q16 4 44 13t61 23t66.5 33.5t61 45.5t45 58.5t17.5 72.5z" />
    <glyph glyph-name="quotesingle" unicode="'" horiz-adv-x="634" 
d="M433 1579v-71l-60 -450h-108l-60 450v71h228z" />
    <glyph glyph-name="parenleft" unicode="(" horiz-adv-x="864" 
d="M271 696q0 128 19 238.5t50.5 202.5t71.5 166.5t82 132t82 97t72 62.5l111 -102q-41 -36 -93 -104t-98.5 -168t-78.5 -232t-32 -295t29.5 -295.5t73 -232t93 -166t90.5 -97.5l-83 -108q-25 16 -64 50.5t-82 87.5t-86.5 126.5t-78 168.5t-56.5 211.5t-22 256.5z" />
    <glyph glyph-name="parenright" unicode=")" horiz-adv-x="864" 
d="M612 710q0 -138 -19.5 -253t-51.5 -209t-73.5 -167.5t-84.5 -129.5t-85 -94.5t-75 -61.5l-100 106q42 36 94 105t98.5 169.5t78 230.5t31.5 288q0 160 -28.5 291.5t-71.5 232t-93 169.5t-92 104l83 108q13 -9 47.5 -37.5t77.5 -78t89.5 -121.5t85.5 -167.5t64 -216.5
t25 -268z" />
    <glyph glyph-name="asterisk" unicode="*" horiz-adv-x="933" 
d="M559 1567l103 -58l-158 -272h311v-92h-309l170 -273l-102 -57l-154 275l-154 -275l-102 57l170 273h-309v92h311l-158 272l103 58l139 -275z" />
    <glyph glyph-name="plus" unicode="+" horiz-adv-x="1040" 
d="M620 518v-344h-141v344h-313v133h313v344h141v-344h314v-133h-314z" />
    <glyph glyph-name="comma" unicode="," horiz-adv-x="537" 
d="M134 293h261v-249q0 -115 -58.5 -190t-170.5 -107l-31 94q38 13 63 27.5t40 33t21 42.5t6 56h-131v293z" />
    <glyph glyph-name="hyphen" unicode="-" horiz-adv-x="944" 
d="M134 508v157h676v-157h-676z" />
    <glyph glyph-name="period" unicode="." horiz-adv-x="595" 
d="M190 293h261v-293h-261v293z" />
    <glyph glyph-name="slash" unicode="/" horiz-adv-x="1043" 
d="M818 1731l169 -62l-624 -1848l-170 62z" />
    <glyph glyph-name="zero" unicode="0" horiz-adv-x="1356" 
d="M678 113q97 0 169.5 33.5t120.5 95.5t72 151t24 199q0 53 -7.5 109t-24.5 109.5t-46 100.5t-72 82.5t-101.5 56t-134.5 20.5q-102 0 -175 -36t-119 -100t-67.5 -151.5t-21.5 -190.5q0 -56 7 -113.5t24.5 -110.5t46 -99.5t71 -81t100.5 -54.5t134 -20zM674 1209
q105 0 188 -26t146.5 -70.5t109 -103.5t74 -125.5t42 -137t13.5 -136.5q0 -78 -12.5 -155.5t-40.5 -149t-72.5 -132.5t-108 -106.5t-148 -71t-191.5 -25.5q-132 0 -237 45.5t-178 128t-111.5 197t-38.5 252.5q0 77 13.5 152.5t42.5 144t74 127t108 101.5t144 67t183 24z" />
    <glyph glyph-name="one" unicode="1" horiz-adv-x="744" 
d="M324 1057l-207 -100l-53 126q43 20 85.5 39.5t85.5 39.5l86 40h190v-1202h-187v1057z" />
    <glyph glyph-name="two" unicode="2" horiz-adv-x="1104" 
d="M776 846q0 103 -69.5 158t-206.5 55q-27 0 -60 -5t-68 -14t-70.5 -21.5t-66.5 -26.5l-53 116q21 15 52 31t73 29t95.5 21.5t119.5 8.5q83 0 146.5 -14.5t109.5 -40t77 -60t49.5 -73.5t26 -81.5t7.5 -83.5q0 -55 -14.5 -107t-51 -107.5t-97.5 -117.5t-154 -137l-279 -224
h596v-152h-815v146l408 334q76 62 124 110.5t75 90.5t36.5 81t9.5 84z" />
    <glyph glyph-name="three" unicode="3" horiz-adv-x="1136" 
d="M775 843q0 115 -70.5 167.5t-218.5 52.5q-41 0 -91 -10.5t-94.5 -23.5t-76 -24.5t-35.5 -12.5l-46 135q4 1 36 14t81 27t109.5 26t122.5 12q44 0 94 -5.5t100 -20t96 -39t81 -62.5t56 -90.5t21 -122.5q0 -60 -15 -107t-39.5 -83t-55.5 -60.5t-63 -40.5t-62.5 -23
t-53.5 -7q29 -6 64.5 -17t72 -30.5t71 -47.5t61.5 -68.5t43 -93.5t16 -122q0 -95 -41.5 -163.5t-108 -113t-150.5 -66t-168 -21.5q-75 0 -146.5 14t-127.5 31.5t-91.5 33t-39.5 17.5l54 133q50 -26 108 -45q50 -17 113.5 -31t133.5 -14q144 0 214 62t70 183
q0 125 -82.5 195.5t-253.5 89.5v143q58 0 114 11t100 37t71 70.5t27 110.5z" />
    <glyph glyph-name="four" unicode="4" horiz-adv-x="1199" 
d="M755 205v725l-492 -725h492zM924 1169v-962h186v-139h-186v-328h-169v328h-649l-28 137l684 1003z" />
    <glyph glyph-name="five" unicode="5" horiz-adv-x="1102" 
d="M186 31q74 -40 158.5 -63.5t173.5 -23.5q317 0 317 300q0 156 -74 230.5t-223 74.5q-72 0 -140.5 -24.5t-128.5 -66.5l-98 79v632h748v-151h-603v-396q0 -1 13.5 11t42.5 26.5t74.5 26.5t109.5 12q100 0 183 -30.5t142.5 -88.5t92.5 -142.5t33 -192.5q0 -105 -34 -188.5
t-97.5 -142t-154.5 -89.5t-205 -31q-98 0 -195 23.5t-186 68.5z" />
    <glyph glyph-name="six" unicode="6" horiz-adv-x="1241" 
d="M1129 335q0 -101 -32.5 -190t-95.5 -156t-156.5 -106t-215.5 -39q-124 0 -218.5 41t-158 116.5t-96 183t-32.5 240.5q0 130 27.5 240.5t76 202.5t115.5 165.5t146.5 130t168.5 95t181 60.5l43 -145q-79 -17 -166.5 -53.5t-166 -96.5t-139.5 -145t-87 -199
q33 24 69.5 44.5t78.5 35.5t89.5 24t102.5 9q108 0 194 -34t146.5 -94.5t93 -145t32.5 -184.5zM302 401q0 -45 5 -93.5t18.5 -95t37 -87.5t60 -72t87 -49t119.5 -18q89 0 151 32t100.5 82.5t55.5 112.5t17 122q0 82 -23 142.5t-62.5 100.5t-92 59.5t-112.5 19.5
q-58 0 -115.5 -15t-106 -36t-84 -44t-49.5 -39q-6 -38 -6 -122z" />
    <glyph glyph-name="seven" unicode="7" horiz-adv-x="1132" 
d="M1038 1107l-572 -1283l-168 76l525 1174h-678v155h836z" />
    <glyph glyph-name="eight" unicode="8" horiz-adv-x="1262" 
d="M926 964q0 68 -24 113.5t-64.5 72.5t-92.5 38t-108 11q-53 0 -106.5 -10t-97 -36t-70.5 -71.5t-27 -115.5q0 -59 24.5 -109.5t66 -87t96 -57.5t114.5 -21q58 0 110.5 20.5t92.5 57.5t63 86.5t23 108.5zM926 253q0 69 -21.5 127.5t-60 102t-91.5 68t-116 24.5
q-65 0 -120 -24t-95 -66.5t-63 -101.5t-23 -128q0 -64 15 -113t50.5 -82.5t93 -51t142.5 -17.5q87 0 143 18t88.5 52t45 82.5t12.5 109.5zM1104 966q0 -72 -22.5 -126.5t-59.5 -94.5t-84 -67t-96 -44q129 -39 195.5 -139.5t66.5 -263.5q0 -94 -34.5 -165t-96.5 -118.5
t-147.5 -71.5t-188.5 -24q-99 0 -186 23t-152.5 70t-103 118.5t-37.5 169.5q0 163 66.5 263.5t195.5 139.5q-48 16 -94.5 42.5t-84 66.5t-60.5 95t-23 128q0 88 36.5 156t101 114.5t152 71t189.5 24.5q100 0 186 -24.5t148 -71.5t97.5 -115.5t35.5 -156.5z" />
    <glyph glyph-name="nine" unicode="9" horiz-adv-x="1246" 
d="M583 365q-108 0 -194.5 33.5t-147 94.5t-92.5 145t-32 185q0 100 32.5 189.5t95.5 156.5t156.5 106t215.5 39q124 0 218.5 -41t158 -116.5t96 -183t32.5 -240.5q0 -128 -27 -238t-75 -202t-114.5 -166.5t-146 -131t-169 -95.5t-183.5 -61l-43 145q50 10 106 30t112.5 50
t110 70.5t98.5 92t78 115t49 139.5q-52 -51 -138.5 -83.5t-196.5 -32.5zM293 823q0 -82 23 -142.5t62.5 -100.5t92 -59.5t112.5 -19.5q58 0 115 14.5t106 35.5t84.5 44t49.5 40q6 37 6 122q0 45 -5 93.5t-18.5 94.5t-37 87.5t-60 72.5t-87.5 49t-119 18q-89 0 -150.5 -32
t-100 -82t-56 -112t-17.5 -123z" />
    <glyph glyph-name="colon" unicode=":" horiz-adv-x="596" 
d="M180 281h270v-281h-270v281zM180 864h270v-281h-270v281z" />
    <glyph glyph-name="semicolon" unicode=";" horiz-adv-x="574" 
d="M169 864h263v-281h-263v281zM171 293h261v-249q0 -115 -58.5 -190t-170.5 -107l-31 94q38 13 63 27.5t40 33t21 42.5t6 56h-131v293z" />
    <glyph glyph-name="less" unicode="&#x3c;" horiz-adv-x="1250" 
d="M336 749l562 517l102 -110l-551 -493l551 -493l-102 -110l-655 603z" />
    <glyph glyph-name="equal" unicode="=" horiz-adv-x="944" 
d="M178 280v131h588v-131h-588zM178 508v131h588v-131h-588z" />
    <glyph glyph-name="greater" unicode="&#x3e;" horiz-adv-x="1290" 
d="M425 60l-102 110l551 493l-551 493l102 110l655 -603z" />
    <glyph glyph-name="question" unicode="?" horiz-adv-x="1201" 
d="M508 218v-218h-200v218h200zM841 1195q0 117 -74 170t-220 53q-72 0 -134.5 -13.5t-109.5 -29.5q-55 -19 -101 -43l-61 145q55 28 120 51q56 19 129.5 35t158.5 16q103 0 191 -22.5t153 -69.5t102 -119t37 -171q0 -85 -24.5 -151t-65.5 -117.5t-95 -90.5t-113.5 -69
t-120 -52.5t-115.5 -41.5v-379h-180v481q133 45 231.5 87.5t163 91t96.5 106.5t32 133z" />
    <glyph glyph-name="at" unicode="@" horiz-adv-x="1927" 
d="M973 -155q-220 0 -378 59t-259.5 159.5t-149.5 233.5t-48 281q0 142 33.5 262t92.5 217.5t140 172t175.5 125t199 76t211.5 25.5q108 0 210.5 -18.5t192.5 -57t164.5 -96t128 -135t83.5 -176t30 -217.5q0 -107 -21 -190t-56.5 -145t-81 -104.5t-94.5 -68.5t-98 -37.5
t-90 -11.5q-35 0 -54.5 9.5t-30 25.5t-13 37t-2.5 45v232q-12 -59 -42.5 -120.5t-81.5 -112.5t-123.5 -83.5t-168.5 -32.5q-86 0 -154 27.5t-114.5 78.5t-71 123t-24.5 162q0 65 19.5 130t55 125t86.5 111.5t114 89.5t136.5 60t155.5 22q16 0 45 -2.5t62 -6t66.5 -7.5
t57.5 -8q29 -5 46 -16t27.5 -26.5t17.5 -34.5t18 -40v-670q61 0 108.5 24.5t79.5 78t49 137t17 201.5q0 111 -26 195.5t-72 146.5t-108 103.5t-133.5 67t-149 36t-154.5 10.5q-151 0 -279 -50t-221.5 -145t-146 -232.5t-52.5 -311.5q0 -138 44 -248.5t130.5 -187
t214.5 -117.5t297 -41q89 0 160 11.5t125.5 28.5t93.5 37t63.5 36.5t35 27t9.5 9.5l91 -92q-41 -45 -101 -81.5t-135.5 -62t-164.5 -39.5t-187 -14zM1061 1008q-84 0 -161.5 -31.5t-137 -88.5t-94.5 -137.5t-35 -177.5q0 -243 225 -243q86 0 156 37.5t119.5 117.5t76.5 204
t27 298q1 0 -16 3.5t-43 7t-57.5 7t-59.5 3.5z" />
    <glyph glyph-name="A" unicode="A" horiz-adv-x="1458" 
d="M879 1579l516 -1579h-199l-123 383h-688l-123 -383h-199l516 1579h300zM412 485h634l-317 971z" />
    <glyph glyph-name="B" unicode="B" horiz-adv-x="1365" 
d="M514 1579q62 0 136.5 -2.5t149.5 -13.5t145.5 -34t125 -62.5t87.5 -99.5t33 -146q0 -106 -23 -171t-66 -103t-103 -56t-133 -29q42 -5 88.5 -13.5t91.5 -27t86.5 -49t72.5 -78t49.5 -114.5t18.5 -159q0 -95 -22.5 -163t-65 -114.5t-104 -75t-139.5 -43.5t-171 -20
t-198 -5h-420v1579h361zM573 143q148 0 247.5 18t159.5 56t85.5 97.5t25.5 142.5q0 93 -28.5 156.5t-88 101.5t-150 54.5t-214.5 16.5h-263v-643h226zM347 915h259q124 0 205.5 16t129 51.5t66.5 92t19 137.5q0 60 -27.5 102.5t-88 69.5t-157.5 39.5t-235 12.5h-171v-521z
" />
    <glyph glyph-name="C" unicode="C" horiz-adv-x="1273" 
d="M304 768q0 -155 27.5 -277t84.5 -207t146 -130t212 -45q78 0 147.5 17t122.5 37q62 24 113 55l56 -139q-60 -34 -130 -60q-60 -23 -139.5 -41.5t-170.5 -18.5q-172 0 -298 56t-208.5 160.5t-123 254t-40.5 337.5q0 91 14 188.5t46 191.5t83.5 178t127 147.5t176 100.5
t231.5 37q87 0 161 -12.5t128 -27.5q63 -18 115 -40l-45 -145q-45 20 -100 36q-48 14 -111.5 25.5t-140.5 11.5q-128 0 -220 -52t-150.5 -144t-86 -218.5t-27.5 -275.5z" />
    <glyph glyph-name="D" unicode="D" horiz-adv-x="1489" 
d="M1184 789q0 319 -108.5 483t-333.5 164h-395v-1292h372q230 0 347.5 163t117.5 482zM1385 796q0 -108 -12.5 -209t-42.5 -189.5t-80 -161.5t-125 -125.5t-176.5 -81.5t-235.5 -29h-557v1579h539q172 0 301 -45.5t215.5 -140.5t130 -243.5t43.5 -353.5z" />
    <glyph glyph-name="E" unicode="E" horiz-adv-x="1192" 
d="M153 0v1579h970v-143h-776v-545h678v-115h-678v-633h789v-143h-983z" />
    <glyph glyph-name="F" unicode="F" horiz-adv-x="1124" 
d="M347 0h-194v1579h921v-143h-727v-557h666v-115h-666v-764z" />
    <glyph glyph-name="G" unicode="G" horiz-adv-x="1469" 
d="M1166 684h-411v127h587v-811h-88l-53 213q-12 -51 -45 -97t-89 -81t-136.5 -55.5t-186.5 -20.5q-159 0 -279 62t-200.5 172t-121 262t-40.5 331q0 210 46 365t133 257t212 152t283 50q58 0 118 -7.5t118.5 -23.5t114 -41.5t105.5 -61.5l-66 -135q-28 24 -69 45t-93 37
t-112.5 25.5t-127.5 9.5q-113 0 -199 -39.5t-144.5 -121.5t-88 -207.5t-29.5 -297.5q0 -164 24 -290.5t78 -213.5t142 -132t216 -45q86 0 159.5 15t127.5 49.5t84.5 89t30.5 134.5v285z" />
    <glyph glyph-name="H" unicode="H" horiz-adv-x="1527" 
d="M1179 764h-832v-764h-194v1579h194v-700h832v700h194v-1579h-194v764z" />
    <glyph glyph-name="I" unicode="I" horiz-adv-x="781" 
d="M302 112v1349h-204v118h593v-118h-206v-1349h206v-112h-593v112h204z" />
    <glyph glyph-name="J" unicode="J" horiz-adv-x="721" 
d="M49 35q111 20 175.5 54t98 86.5t43 127t9.5 176.5v1100h192v-1065q0 -123 -15.5 -228t-64.5 -183.5t-141.5 -128.5t-245.5 -64z" />
    <glyph glyph-name="K" unicode="K" horiz-adv-x="1389" 
d="M347 0h-194v1579h194v-725h223l490 725h207l-543 -781l610 -798h-217l-555 747h-215v-747z" />
    <glyph glyph-name="L" unicode="L" horiz-adv-x="1180" 
d="M153 0v1579h194v-1436h746v-143h-940z" />
    <glyph glyph-name="M" unicode="M" horiz-adv-x="1917" 
d="M347 1459v-1459h-194v1579h330l475 -1371l475 1371h330v-1579h-194v1459l-513 -1459h-196z" />
    <glyph glyph-name="N" unicode="N" horiz-adv-x="1597" 
d="M1194 0l-847 1404v-1404h-194v1579h262l834 -1394v1394h194v-1579h-249z" />
    <glyph glyph-name="O" unicode="O" horiz-adv-x="1516" 
d="M1415 806q0 -110 -12 -215.5t-40.5 -200t-77 -174t-121.5 -137t-173.5 -90t-232.5 -32.5q-133 0 -234 33.5t-173.5 93.5t-120.5 142t-76.5 179t-40 204.5t-11.5 219.5q0 181 42.5 325.5t125.5 245.5t205.5 154.5t282.5 53.5q161 0 284 -54t206 -157t125 -252t42 -339z
M303 775q0 -336 116.5 -499.5t338.5 -163.5q104 0 188 35.5t143.5 114.5t91.5 205.5t32 307.5t-30 310.5t-87.5 212.5t-141 122t-189.5 39q-110 0 -196 -37.5t-145 -119.5t-90 -212t-31 -315z" />
    <glyph glyph-name="P" unicode="P" horiz-adv-x="1330" 
d="M1250 1112q0 -119 -39 -208t-126 -148t-227 -88t-341 -29h-170v-639h-194v1579h397q81 0 164.5 -7t161.5 -25.5t146 -51t118.5 -84.5t80 -125.5t29.5 -173.5zM499 784q151 0 256.5 17.5t170.5 54.5t94.5 94.5t29.5 137.5q0 120 -38.5 189t-106 104.5t-160.5 45t-201 9.5
h-197v-652h152z" />
    <glyph glyph-name="Q" unicode="Q" horiz-adv-x="1533" 
d="M1430 772q0 -162 -31 -299.5t-95.5 -241.5t-164 -171t-237.5 -89l379 -264l-119 -131l-493 389q-116 13 -203 55t-150 105t-104 142.5t-65.5 167t-34 179.5t-9.5 180q0 104 15 204.5t47 191.5t83 168t123 133t166.5 87.5t213.5 31.5q164 0 290.5 -51.5t213 -156t131 -262
t44.5 -368.5zM767 1458q-130 0 -218.5 -50t-143 -139.5t-78 -213t-23.5 -271.5q0 -150 23.5 -274t78 -212.5t143 -137.5t218.5 -49q98 0 171 30.5t124.5 82t84 119.5t51 142.5t25.5 151t7 146.5q0 139 -21.5 261.5t-74.5 214.5t-142.5 145.5t-224.5 53.5z" />
    <glyph glyph-name="R" unicode="R" horiz-adv-x="1377" 
d="M647 862q113 0 189.5 25t122.5 67.5t65.5 99t19.5 120.5q0 66 -21.5 111.5t-58.5 74.5t-85.5 44.5t-102.5 22.5t-110.5 8t-108.5 1h-210v-574h300zM833 797q110 -12 188 -43t127.5 -81t72.5 -119t23 -157v-397h-194v412q0 80 -18 134.5t-51 90t-80 55t-105 29t-126 11
t-143 1.5h-180v-733h-194v1579h466q145 0 261.5 -21.5t197.5 -68t124.5 -120.5t43.5 -179q0 -100 -31 -174t-86.5 -122.5t-131 -72.5t-164.5 -24z" />
    <glyph glyph-name="S" unicode="S" 
d="M1172 418q0 -86 -28.5 -168t-95 -147t-175.5 -104.5t-269 -39.5q-88 0 -170 17.5t-146 38.5q-75 25 -141 57l20 150q59 -31 126 -56q57 -21 131 -38t153 -17t151 12.5t126 45.5t86 91t32 149q0 57 -17.5 103t-50.5 82.5t-79.5 64t-104.5 48.5l-284 100
q-68 24 -132.5 57.5t-114.5 81t-80.5 109.5t-30.5 143q0 111 38 189t106.5 127.5t163 72.5t208.5 23q73 0 140 -10.5t127.5 -28.5t113 -40.5t95.5 -46.5l-30 -147q-37 22 -84.5 43.5t-101.5 38.5t-112.5 28t-117.5 11q-93 0 -158.5 -14t-107 -44t-61 -77t-19.5 -113
q0 -157 193 -224l313 -109q78 -27 148.5 -67.5t124 -96.5t84.5 -129t31 -166z" />
    <glyph glyph-name="T" unicode="T" horiz-adv-x="1247" 
d="M718 1436v-1436h-194v1436h-458v143h1108v-143h-456z" />
    <glyph glyph-name="U" unicode="U" horiz-adv-x="1533" 
d="M762 111q126 0 210 33.5t133.5 105.5t70 186t20.5 275v868h194v-864q0 -178 -34.5 -318.5t-108.5 -237.5t-192 -148.5t-284 -51.5q-178 0 -299.5 51.5t-196.5 149t-108 237.5t-33 318v864h194v-868q0 -161 25 -275t77.5 -186t135 -105.5t196.5 -33.5z" />
    <glyph glyph-name="V" unicode="V" horiz-adv-x="1360" 
d="M681 180l434 1399h182l-494 -1579h-244l-496 1579h184z" />
    <glyph glyph-name="W" unicode="W" horiz-adv-x="1961" 
d="M1113 1579l294 -1444l304 1444h187l-346 -1585h-317l-255 1468l-297 -1462h-282l-346 1579h186l304 -1444l294 1444h274z" />
    <glyph glyph-name="X" unicode="X" horiz-adv-x="1322" 
d="M1069 1579h196l-495 -799l497 -780h-218l-388 626l-388 -626h-218l497 780l-495 799h196l408 -656z" />
    <glyph glyph-name="Y" unicode="Y" horiz-adv-x="1318" 
d="M1075 1579h191l-514 -1094v-485h-190v485l-514 1094h197l417 -902z" />
    <glyph glyph-name="Z" unicode="Z" horiz-adv-x="1244" 
d="M1142 1419l-833 -1276h835v-143h-1032v180l829 1256h-829v143h1030v-160z" />
    <glyph glyph-name="bracketleft" unicode="[" horiz-adv-x="1054" 
d="M933 1579v-143h-471v-1293h471v-143h-664v1579h664z" />
    <glyph glyph-name="backslash" unicode="\" horiz-adv-x="1031" 
d="M898 -114l-160 -58l-621 1851l158 52z" />
    <glyph glyph-name="bracketright" unicode="]" horiz-adv-x="1114" 
d="M825 1579v-1579h-664v143h471v1293h-471v143h664z" />
    <glyph glyph-name="asciicircum" unicode="^" horiz-adv-x="1428" 
d="M762 1011l292 -501l-128 -78l-212 377l-212 -377l-128 78l292 501h96z" />
    <glyph glyph-name="underscore" unicode="_" horiz-adv-x="1265" 
d="M127 -111v144h940v-144h-940z" />
    <glyph glyph-name="grave" unicode="`" horiz-adv-x="778" 
d="M88 645l242 89l153 -618l-67 -26z" />
    <glyph glyph-name="a" unicode="a" horiz-adv-x="1200" 
d="M610 1053q-45 0 -94.5 -8t-98 -23.5t-94 -38t-82.5 -51.5l-68 132q57 31 106 54.5t99.5 39.5t106 24t125.5 8q151 0 241.5 -33t138 -102t62 -176t14.5 -255v-624h-140l-28 178q-74 -104 -176 -151t-229 -47q-90 0 -162.5 23t-123.5 68.5t-78.5 113.5t-27.5 158
q0 87 33 156t89 117t130 73.5t156 25.5t149.5 -8t116 -17.5t75.5 -17.5l26 -7q0 103 -4 177t-29 120.5t-79 68.5t-154 22zM540 117q91 0 172.5 39t163.5 115v298q-42 6 -82 10q-35 4 -75 7.5t-75 3.5q-72 0 -136 -7.5t-112 -32.5t-76 -72t-28 -125q0 -70 18 -115.5
t50.5 -72.5t78 -37.5t101.5 -10.5z" />
    <glyph glyph-name="b" unicode="b" horiz-adv-x="1254" 
d="M689 117q141 0 214.5 121t73.5 375q0 115 -19.5 198t-57 137t-91 79.5t-120.5 25.5q-88 0 -176.5 -38t-178.5 -113v-629q168 -156 355 -156zM678 -20q-50 0 -99.5 14t-96.5 40t-90 62.5t-80 81.5l-28 -178h-140v1579l190 35v-584q39 40 84 70t89.5 50t85 30t70.5 10
q238 0 364 -142t126 -435q0 -187 -39 -309t-104.5 -194t-151.5 -101t-180 -29z" />
    <glyph glyph-name="c" unicode="c" horiz-adv-x="1071" 
d="M609 -20q-114 0 -207.5 39.5t-160 116t-103.5 188t-37 256.5q0 124 33.5 234.5t98.5 194t160.5 132.5t218.5 49q111 0 209 -32.5t179 -89.5l-57 -133q-25 25 -61 46.5t-77 37.5t-84.5 25t-82.5 9q-112 -10 -180.5 -48.5t-105.5 -101.5t-49 -147t-12 -184
q0 -113 22.5 -198.5t64 -142.5t100 -85.5t131.5 -28.5q60 0 106.5 8.5t85.5 25t73 40.5t69 54l57 -134q-35 -24 -75.5 -47.5t-89 -42t-105 -30t-121.5 -11.5z" />
    <glyph glyph-name="d" unicode="d" horiz-adv-x="1259" 
d="M283 584q0 -134 22.5 -223.5t62.5 -143.5t94.5 -77t118.5 -23q43 0 89 10t91 29.5t88 49t79 69.5v628q-42 31 -84 58.5t-85.5 48t-89 32t-94.5 11.5q-85 0 -141 -36.5t-89.5 -100.5t-47.5 -149.5t-14 -182.5zM549 1190q114 0 210 -38.5t169 -123.5v551l190 35v-1614h-141
l-28 179q-33 -42 -74.5 -78.5t-89.5 -63.5t-100.5 -42t-107.5 -15q-116 0 -204.5 43t-149 124t-91.5 197.5t-31 263.5q0 117 31.5 222.5t90 185.5t141.5 127t185 47z" />
    <glyph glyph-name="e" unicode="e" horiz-adv-x="1144" 
d="M1005 101q-40 -29 -91 -51.5t-103.5 -38t-101.5 -23.5t-84 -8q-132 0 -230.5 44t-163.5 123.5t-97.5 189t-32.5 241.5q0 119 31.5 229.5t93.5 195.5t154 136t214 51q114 0 200.5 -34.5t145.5 -99.5t89 -159t30 -213q0 -32 -2 -61.5t-6 -55.5h-760q0 -125 24 -211t69 -139
t110 -76.5t147 -23.5q48 0 88 7.5t75.5 22t69 36.5t69.5 51zM891 717q0 80 -20 142.5t-56 105.5t-85.5 65.5t-108.5 22.5q-79 0 -138 -29t-99.5 -79t-63 -117.5t-29.5 -145.5h600v35z" />
    <glyph glyph-name="f" unicode="f" horiz-adv-x="837" 
d="M571 1516q-59 0 -89.5 -25.5t-43.5 -71t-14 -109.5t-1 -141h348v-105h-348v-1064h-190v1064h-195v105h195q0 134 18.5 227t57.5 151.5t98.5 85t140.5 26.5q71 0 138 -21.5t128 -58.5l-63 -125q-41 23 -86.5 42.5t-93.5 19.5z" />
    <glyph glyph-name="g" unicode="g" horiz-adv-x="1257" 
d="M573 -277q103 0 184 5t136.5 26t84.5 63.5t29 116.5q0 66 -27.5 104.5t-79 58.5t-125 25.5t-164.5 5.5q-46 0 -96.5 -0.5t-104.5 -0.5q-21 -16 -42 -36t-37.5 -44t-27 -51.5t-10.5 -59.5q0 -59 14 -99.5t46.5 -66t86 -36.5t133.5 -11zM629 589q55 12 99 27t74.5 43.5
t46.5 76t16 124.5q0 56 -15.5 94t-47.5 61t-80.5 33t-113.5 10q-54 0 -102.5 -9t-84.5 -33t-57.5 -65.5t-21.5 -105.5q0 -47 15.5 -90t40 -79t55.5 -63t62 -42zM949 1025q38 -38 59.5 -76t21.5 -89q0 -80 -20 -144.5t-63 -112.5t-110.5 -81t-163.5 -50l-350 -64l19 -148h290
q141 0 243 -16.5t167 -55.5t96 -102t31 -156q0 -109 -44.5 -178.5t-125 -109t-192 -54.5t-245.5 -15q-93 0 -171.5 18.5t-135.5 58.5t-88.5 103t-31.5 152q0 49 17 88t44 68.5t61.5 49.5t70.5 31q-38 8 -63.5 23.5t-42.5 44t-27 73.5t-16 113q-1 3 -1 15q0 39 23.5 62.5
t55.5 37t66 20t55 11.5q-37 11 -72.5 39t-63 69t-44.5 93t-17 111q0 78 29 140t84 105.5t135.5 67t182.5 23.5q81 0 150 -17t120 -59q38 19 63 30.5t52 18t63.5 8.5t96.5 2h30v-148h-238z" />
    <glyph glyph-name="h" unicode="h" horiz-adv-x="1270" 
d="M334 989q56 61 104 100t93.5 61.5t92.5 31t102 8.5q91 0 156 -20.5t110 -57.5t72.5 -89t42 -115t19.5 -135t5 -150v-623h-190v623q0 111 -9 192t-34 134t-70 78.5t-118 25.5q-63 0 -122 -17.5t-109 -43t-87.5 -54t-57.5 -50.5v-888h-190v1579l190 37v-627z" />
    <glyph glyph-name="i" unicode="i" horiz-adv-x="528" 
d="M174 0v1169h182v-1169h-182zM157 1462q0 24 8.5 44.5t23.5 36.5t35 25t43 9q24 0 44 -9.5t35 -25.5t23 -37t8 -43q0 -24 -8.5 -44.5t-23.5 -36.5t-35 -25t-43 -9q-24 0 -44 9.5t-35 25.5t-23 36.5t-8 43.5z" />
    <glyph glyph-name="j" unicode="j" horiz-adv-x="546" 
d="M192 1462q0 24 8.5 44.5t23.5 36.5t35 25t43 9q24 0 44 -9.5t35 -25.5t23 -37t8 -43q0 -24 -8.5 -44.5t-23.5 -36.5t-35 -25t-43 -9q-24 0 -44 9.5t-35 25.5t-23 36.5t-8 43.5zM19 -258q66 42 104 91.5t56.5 110.5t23 133.5t4.5 160.5v103v828h190v-1015
q0 -103 -22.5 -191.5t-65.5 -156.5t-104 -114t-139 -65z" />
    <glyph glyph-name="k" unicode="k" horiz-adv-x="1225" 
d="M334 0h-190v1579l190 35v-987l559 542h225l-553 -521l586 -648h-221l-480 555l-116 -96v-459z" />
    <glyph glyph-name="l" unicode="l" horiz-adv-x="508" 
d="M348 0h-190v1579l190 35v-1614z" />
    <glyph glyph-name="m" unicode="m" horiz-adv-x="1941" 
d="M334 0h-190v1169h141l27 -206q32 52 73.5 94t92 71.5t108 45.5t121.5 16t116 -17.5t92 -47.5t67.5 -70.5t43.5 -87.5q34 50 81 91t101.5 70.5t115 45.5t122.5 16q88 0 154.5 -32t111.5 -88.5t67.5 -134t22.5 -169.5v-766h-190v768q0 90 -15.5 146t-42 86.5t-62 41.5
t-74.5 11q-92 0 -180.5 -50t-181.5 -145v-858h-190v768q0 69 -9 122t-30.5 89.5t-58.5 55t-94 18.5q-79 0 -162.5 -49.5t-177.5 -143.5v-860z" />
    <glyph glyph-name="n" unicode="n" horiz-adv-x="1267" 
d="M308 982q30 37 80 74t109.5 67t124 48.5t123.5 18.5q105 0 177.5 -31.5t118.5 -91t66.5 -145.5t20.5 -195v-727h-190v727q0 76 -12 136.5t-39 102.5t-70 64.5t-106 22.5q-48 0 -105 -19t-110 -46t-97 -57t-65 -51v-880h-190v1169h140z" />
    <glyph glyph-name="o" unicode="o" 
d="M633 95q72 0 125.5 20.5t92 56t63.5 82.5t40 99.5t21 107.5t6 106t-6 105.5t-21 107t-40 99.5t-63.5 82.5t-92.5 56t-125 20.5t-124.5 -21t-92 -56.5t-64 -82.5t-40.5 -99t-21 -107t-6 -105q0 -51 6 -105.5t21 -107t40.5 -99.5t64 -82.5t92 -56.5t124.5 -21zM1162 570
q0 -70 -10 -142.5t-34 -140.5t-63.5 -127t-98 -103t-139 -69.5t-185.5 -25.5t-185.5 25.5t-139 69.5t-98 103t-63.5 127t-34 140t-10 143t10 143.5t34 140t63.5 126.5t98 103t139 69t185.5 25t185.5 -25t139 -69t98 -103t63.5 -126.5t34 -140t10 -143.5z" />
    <glyph glyph-name="p" unicode="p" horiz-adv-x="1263" 
d="M699 1053q-47 0 -97.5 -12.5t-99 -34t-92 -51.5t-76.5 -65v-605q28 -34 68.5 -64.5t87 -53.5t95.5 -36.5t94 -13.5q87 0 145 36.5t92.5 98t49 142t14.5 167.5q0 130 -21.5 223t-59 153t-89 88t-111.5 28zM686 -20q-51 0 -101 14.5t-95.5 39.5t-85.5 58.5t-70 71.5v-629
l-190 -22v1656h141l33 -198q34 45 76 85t89 69.5t97 47t101 17.5q105 0 193.5 -32.5t152 -104.5t99.5 -187t36 -279q0 -71 -11.5 -143.5t-35.5 -140t-62 -126.5t-91 -102.5t-121.5 -69t-154.5 -25.5z" />
    <glyph glyph-name="q" unicode="q" horiz-adv-x="1259" 
d="M597 117q41 0 90 15.5t95 38.5t85 49t61 48v623q-36 36 -83.5 66t-97.5 51t-98.5 33t-86.5 12q-86 0 -140.5 -39t-85 -104t-42 -150t-11.5 -176q0 -122 18.5 -210t57 -145t97.5 -84.5t141 -27.5zM571 1190q56 0 110.5 -18.5t103.5 -49t90 -70t70 -81.5l34 198h139v-1648
l-190 -23v666q-29 -36 -67 -69.5t-84 -59t-98.5 -40.5t-110.5 -15q-119 0 -206.5 48.5t-145.5 132t-86.5 195t-28.5 237.5q0 124 23 232.5t78 189.5t145 128t224 47z" />
    <glyph glyph-name="r" unicode="r" horiz-adv-x="803" 
d="M317 977q34 42 69 81t73.5 68t82.5 46.5t97 17.5q56 0 100 -12v-152q-2 1 -11 2t-23 1.5t-32 0.5h-36q-42 0 -83 -14t-79.5 -36.5t-74 -51t-66.5 -58.5v-870h-190v1169h143z" />
    <glyph glyph-name="s" unicode="s" horiz-adv-x="992" 
d="M338 584q-51 18 -96 44.5t-78 63t-52 83.5t-19 106q0 78 32.5 136.5t86.5 96.5t123 57t143 19q66 0 128.5 -13t115 -32t91.5 -40.5t59 -37.5l-62 -126q-61 47 -142.5 79.5t-176.5 32.5q-59 0 -103.5 -13.5t-74.5 -36t-45 -51.5t-15 -61q0 -56 43.5 -91.5t120.5 -62.5
l168 -59q77 -27 139.5 -59t107 -74t69 -96t24.5 -124q0 -63 -21.5 -125t-70 -111t-126.5 -79.5t-192 -30.5q-78 0 -144.5 14t-118.5 33.5t-90 41t-59 36.5l63 127q22 -18 59.5 -38t83 -37t94.5 -28t94 -11q33 0 77.5 8t84 29t67 58t27.5 94q0 40 -14 70.5t-39.5 54
t-60.5 41.5t-77 33z" />
    <glyph glyph-name="t" unicode="t" horiz-adv-x="855" 
d="M485 -20q-88 0 -141 29.5t-81 87t-37 143t-9 197.5v628h-183v104h186l25 361l162 46v-407h333v-104h-333v-770q0 -54 5.5 -88.5t18.5 -54.5t34.5 -27.5t53.5 -7.5q36 0 83.5 20.5t128.5 65.5l67 -123q-88 -54 -164 -77t-149 -23z" />
    <glyph glyph-name="u" unicode="u" horiz-adv-x="1241" 
d="M324 442q0 -87 15.5 -148.5t45 -100.5t72.5 -57.5t99 -18.5q47 0 91 8t87 27t86 48.5t90 73.5v895h190v-1169h-141l-27 176q-28 -31 -65.5 -65.5t-84.5 -63.5t-104 -48t-124 -19q-100 0 -178 26t-132 82t-82 143.5t-28 210.5v727h190v-727z" />
    <glyph glyph-name="v" unicode="v" horiz-adv-x="1134" 
d="M473 0l-428 1169h188l336 -970l330 970h190l-430 -1169h-186z" />
    <glyph glyph-name="w" unicode="w" horiz-adv-x="1644" 
d="M823 995l-252 -995h-206l-320 1169h184l234 -1045l258 1045h202l250 -1047l240 1047h186l-320 -1169h-206z" />
    <glyph glyph-name="x" unicode="x" horiz-adv-x="1126" 
d="M280 0h-212l408 584l-412 585h216l282 -467l290 467h210l-406 -585l398 -584h-204l-282 477z" />
    <glyph glyph-name="y" unicode="y" horiz-adv-x="1123" 
d="M45 1169h182l355 -920l301 920h195l-437 -1206q-28 -77 -61.5 -136.5t-69.5 -103.5t-72 -75t-70 -51q-79 -48 -161 -56l-51 125q59 14 110 37.5t93 64.5t76.5 103t60.5 152z" />
    <glyph glyph-name="z" unicode="z" horiz-adv-x="1024" 
d="M133 1035v134h772v-165l-626 -868h626v-136h-802v166l638 869h-608z" />
    <glyph glyph-name="braceleft" unicode="{" horiz-adv-x="823" 
d="M504 1096q-2 -99 -14.5 -172t-41 -124.5t-74 -84t-112.5 -50.5q66 -18 111.5 -50t74 -83.5t41.5 -124.5t15 -173q1 -96 20.5 -151t51.5 -82t75 -34t91 -7v-169q-213 0 -311 117.5t-98 354.5q0 83 -17.5 141.5t-49 95.5t-75.5 54t-96 17v188q54 0 98 17t75 54t48 95.5
t17 141.5q0 237 98 354.5t311 117.5v-169q-48 0 -91 -7t-75 -34t-51.5 -82t-20.5 -151z" />
    <glyph glyph-name="bar" unicode="|" horiz-adv-x="625" 
d="M224 1696h178v-1807h-178v1807z" />
    <glyph glyph-name="braceright" unicode="}" horiz-adv-x="827" 
d="M363 1096q-2 96 -21 151t-51 82t-75 34t-91 7v169q213 0 311 -117.5t98 -354.5q0 -83 17 -141.5t48 -95.5t75 -54t98 -17v-188q-53 0 -96.5 -17t-75 -54t-49 -95.5t-17.5 -141.5q0 -237 -98 -354.5t-311 -117.5v169q48 0 91 7t75 34t51 82t21 151q1 100 14.5 173
t42 124.5t74 83.5t111.5 50q-67 18 -112.5 50.5t-74 84t-41.5 124.5t-14 172z" />
    <glyph glyph-name="asciitilde" unicode="~" horiz-adv-x="899" 
d="M656 390h-7q-35 0 -69 9q-38 10 -76 26q-41 17 -70.5 32t-51.5 26.5t-38 18.5t-29 7q-36 0 -51 -24.5t-15 -90.5h-156q0 74 15.5 124t43 80t65.5 43t83 13q41 0 85 -19.5t88 -43t86.5 -43t80.5 -19.5q21 0 32.5 11.5t17 28.5t6.5 36.5t1 34.5h156q0 -55 -12.5 -101
t-37.5 -79t-62 -51.5t-85 -18.5z" />
    <glyph glyph-name="uni00A0" unicode="&#xa0;" horiz-adv-x="512" 
 />
    <glyph glyph-name="exclamdown" unicode="&#xa1;" horiz-adv-x="790" 
d="M502 0h-159v1180h159v-1180zM319 1458q0 41 2 65.5t9 37t20 16t35 3.5q47 0 76 -2t44.5 -7.5t21 -16t5.5 -26.5q0 -14 -2 -31.5t-2 -38.5q0 -28 -1.5 -44t-6 -24.5t-13.5 -11t-24 -2.5q-8 0 -18 0.5t-21 0.5h-125v81z" />
    <glyph glyph-name="cent" unicode="&#xa2;" horiz-adv-x="1138" 
d="M332 580q0 -100 17.5 -180t52.5 -138t88.5 -92t125.5 -41v908q-74 -10 -127.5 -46.5t-88 -96t-51.5 -139t-17 -175.5zM616 -22q-114 8 -202 53.5t-148.5 123t-92 185.5t-31.5 240q0 133 31.5 241t92.5 186.5t149 125t201 56.5v140h103v-143q38 0 81.5 -9t86 -24.5
t82.5 -35t72 -40.5l-57 -133q-61 43 -127 67.5t-138 26.5v-908q72 2 137 21t128 54l46 -137q-27 -15 -64 -30t-79 -28t-85.5 -21t-82.5 -8v-140h-103v137z" />
    <glyph glyph-name="sterling" unicode="&#xa3;" horiz-adv-x="1128" 
d="M207 137q25 30 50.5 77t45.5 107t33 131.5t13 150.5h-197v103h170q-54 56 -83.5 126t-29.5 160q0 94 35.5 157t98 101.5t148 55t185.5 16.5q97 0 187.5 -27t175.5 -76l-50 -131q-85 40 -168 66t-162 26q-138 0 -203 -51t-65 -151q0 -47 7.5 -82.5t22 -66t36 -60
t50.5 -63.5h428v-103h-428q0 -69 -9 -136t-25 -127t-38 -110.5t-47 -86.5h616v-143h-797v137z" />
    <glyph glyph-name="currency" unicode="&#xa4;" horiz-adv-x="1366" 
d="M321 742q-68 104 -68 228q0 127 75 238l-194 194l124 124l194 -193q112 76 239 76q125 0 229 -68l186 185l124 -124l-187 -187q61 -97 61 -222q0 -124 -76 -236l202 -202l-124 -125l-203 203q-110 -75 -234 -75q-125 0 -222 61l-189 -189l-124 125zM685 1266
q-57 0 -109.5 -24t-92 -64.5t-63.5 -93t-24 -109.5t22 -107.5t60 -88t88 -59t106 -21.5q57 0 109 24t92.5 64t64.5 92.5t24 109.5t-22 107.5t-59.5 88t-88 59.5t-107.5 22z" />
    <glyph glyph-name="yen" unicode="&#xa5;" horiz-adv-x="1277" 
d="M1075 1579h194l-481 -891h263v-104h-296v-96h296v-99h-296v-389h-190v389h-302v99h302v96h-302v104h261l-483 891h194l420 -791z" />
    <glyph glyph-name="brokenbar" unicode="&#xa6;" horiz-adv-x="640" 
d="M249 1579h188v-690h-188v690zM249 690h188v-690h-188v690z" />
    <glyph glyph-name="section" unicode="&#xa7;" horiz-adv-x="1192" 
d="M616 600q42 0 84.5 5.5t76.5 21.5t55 46t21 78t-20 78.5t-53 47.5t-76.5 23t-89.5 6q-53 0 -96 -8t-74 -26.5t-48 -47.5t-17 -71q0 -78 59.5 -115.5t177.5 -37.5zM906 1316q-66 51 -137.5 79.5t-156.5 28.5q-121 0 -176 -37.5t-55 -115.5q0 -35 20.5 -59t60.5 -43.5
t97.5 -39t132.5 -46.5q71 -26 130 -56t101.5 -68.5t66 -88t23.5 -114.5q0 -66 -23 -108.5t-59.5 -68.5t-80.5 -38.5t-86 -18.5q72 -26 120 -57t77 -71t41.5 -90t12.5 -113q0 -59 -29 -111.5t-81 -92.5t-124 -63t-157 -23q-68 0 -131.5 13.5t-115.5 32t-89 39t-53 34.5
l61 138q30 -31 70.5 -52t81 -33.5t76.5 -17.5t58 -5q129 0 196.5 40t67.5 133q0 43 -13.5 72t-37.5 49t-57.5 33.5t-72.5 27.5l-160 54q-56 19 -107 41.5t-89.5 55.5t-61 79.5t-22.5 114.5q0 48 13 89.5t42.5 73.5t78.5 53t121 29q-77 28 -126 57t-78 64t-40 79t-11 101
q0 72 35.5 123.5t91 85t124 49t133.5 15.5q44 0 97.5 -11.5t104 -29t92 -38t61.5 -38.5z" />
    <glyph glyph-name="dieresis" unicode="&#xa8;" horiz-adv-x="952" 
d="M121 215q0 23 8 44t23 36.5t35.5 25.5t45.5 9q25 0 45.5 -9.5t35.5 -25t23 -36.5t8 -44t-8 -44t-23 -37t-35.5 -25t-45.5 -9t-45.5 9t-35.5 25t-23 37t-8 44zM610 215q0 23 8 44t23 36.5t35.5 25.5t45.5 9q25 0 45.5 -9.5t35.5 -25t23 -36.5t8 -44t-8 -44t-23 -37
t-35.5 -25t-45.5 -9t-45.5 9t-35.5 25t-23 37t-8 44z" />
    <glyph glyph-name="copyright" unicode="&#xa9;" horiz-adv-x="2101" 
d="M1039 101q163 0 297 57t229.5 155.5t148 231t52.5 284.5q0 113 -30 211.5t-81.5 180t-122 145t-151 107t-168 66.5t-174.5 23q-88 0 -176 -23t-169 -67t-150.5 -107.5t-121 -145t-81 -179.5t-29.5 -211q0 -152 52.5 -284.5t148 -231t229.5 -155.5t297 -57zM716 831
q0 -107 21.5 -178t64.5 -113t108 -59t152 -17q143 0 294 76v-126q-153 -78 -280 -78q-156 0 -257.5 42t-160 111t-81.5 158t-23 184q0 63 9.5 124t33 116t62 102t96.5 81t137 53t184 19q127 0 280 -78v-126q-151 76 -294 76q-87 0 -152 -17t-108 -59t-64.5 -113t-21.5 -178z
M1039 -23q-111 0 -219 27t-205.5 78t-180 125.5t-142.5 169.5t-94 208.5t-34 244.5t35 245t97 209t146 170t181 127t203 79t213 27t213.5 -27.5t204 -79.5t181 -127t145 -170t96.5 -209t35 -244q0 -128 -33 -241t-92.5 -207.5t-141.5 -170t-179 -127.5t-206 -79.5
t-223 -27.5z" />
    <glyph glyph-name="ordfeminine" unicode="&#xaa;" horiz-adv-x="1186" 
d="M817 828q-1 0 -16 -25t-49 -55t-90 -55t-139 -25q-74 0 -132.5 19.5t-99.5 56.5t-63 91.5t-22 124.5q0 72 26 127.5t73.5 93.5t113.5 57.5t146 19.5q43 0 84.5 -5t74 -12t53 -13.5t22.5 -9.5v58q0 58 -6.5 102.5t-27 74.5t-58 45t-100.5 15q-59 0 -111.5 -11t-92 -24
t-63 -24t-24.5 -11l-53 109q1 0 27 13.5t71 29.5t106 29.5t132 13.5q102 0 171 -22t111.5 -70.5t60.5 -125t18 -185.5v-549h-116zM799 1141q-51 8 -95 12.5t-81 4.5q-256 0 -256 -187q0 -53 10 -89t32.5 -58.5t59.5 -32.5t92 -10t99 18.5t75 41t47.5 41.5t16.5 21v238z
M270 575h684v-129h-684v129z" />
    <glyph glyph-name="guillemotleft" unicode="&#xab;" horiz-adv-x="1533" 
d="M929 577l437 -271v-207l-608 382v185l608 383v-207zM322 577l436 -271v-207l-608 382v185l608 383v-207z" />
    <glyph glyph-name="logicalnot" unicode="&#xac;" horiz-adv-x="1724" 
d="M94 1018v151h1354v-831h-176v680h-1178z" />
    <glyph glyph-name="uni00AD" unicode="&#xad;" horiz-adv-x="864" 
d="M154 508v131h468v-131h-468z" />
    <glyph glyph-name="registered" unicode="&#xae;" horiz-adv-x="1334" 
d="M102 1108q0 116 45 219t124 180t186.5 122t233.5 45q124 0 231.5 -44t187 -120.5t125.5 -180t46 -221.5q0 -119 -45.5 -222t-125 -179.5t-187.5 -120.5t-232 -44q-126 0 -234 44.5t-187 121.5t-123.5 180t-44.5 220zM690 641q103 0 189.5 36.5t148.5 99.5t96.5 147.5
t34.5 181.5q0 99 -35 184t-97 148t-148.5 98.5t-188.5 35.5q-103 0 -188.5 -36t-147 -98.5t-96 -148t-34.5 -184.5q0 -98 34 -183t95.5 -147.5t147 -98t189.5 -35.5zM816 1244q0 22 -8 37.5t-30 25.5t-61 14.5t-100 4.5v-176h42t42 -1q58 0 86.5 19t28.5 76zM816 797
l-164 271h-35v-261h-106v601h138q51 0 99.5 -6.5t87 -24.5t61.5 -50t23 -83q0 -36 -8 -64.5t-27 -48.5t-51 -31.5t-80 -13.5l155 -239z" />
    <glyph glyph-name="macron" unicode="&#xaf;" horiz-adv-x="1003" 
d="M98 215h682v-117h-682v117z" />
    <glyph glyph-name="degree" unicode="&#xb0;" horiz-adv-x="780" 
d="M143 899q0 52 18 96t50.5 76t77.5 50t98 18q52 0 95.5 -18t74.5 -50.5t48.5 -76.5t17.5 -95t-17 -95t-48 -76t-74.5 -50t-96.5 -18q-54 0 -99 18.5t-77.5 50.5t-50 75.5t-17.5 94.5zM385 1048q-32 0 -58.5 -12t-45.5 -32t-30 -47.5t-11 -57.5q0 -31 11.5 -58t31 -47.5
t46 -32t56.5 -11.5q31 0 57 11.5t45 32t29 47.5t10 58t-10 58.5t-29 47.5t-45 31.5t-57 11.5z" />
    <glyph glyph-name="plusminus" unicode="&#xb1;" horiz-adv-x="1143" 
d="M240 -56v139h701v-139h-701zM660 577v-344h-141v344h-313v133h313v344h141v-344h314v-133h-314z" />
    <glyph glyph-name="uni00B2" unicode="&#xb2;" horiz-adv-x="1126" 
d="M253 805l271 240q68 60 111.5 103t68 77t34 64t9.5 65q0 70 -48 108t-133 38q-48 0 -99.5 -8t-95.5 -18q-51 -11 -101 -26v138q36 15 84 26q41 10 97 18t125 8q100 0 166 -28t105.5 -70t55.5 -91.5t16 -91.5q0 -48 -12 -90.5t-40 -86t-74.5 -91.5t-116.5 -107l-191 -162
h406v-152h-638v137z" />
    <glyph glyph-name="uni00B3" unicode="&#xb3;" horiz-adv-x="1208" 
d="M351 745q25 -12 55.5 -25t66 -23.5t75.5 -17.5t83 -7q48 0 88.5 13t70 36.5t45.5 57t16 74.5q0 94 -63 149t-199 70v135q46 0 90 10.5t78 32t54.5 55t20.5 78.5q0 75 -54.5 116.5t-169.5 41.5q-29 0 -60 -4.5t-62 -12.5t-59.5 -18.5t-52.5 -21.5l-47 127q2 1 25.5 11.5
t62.5 22.5t90 22t108 10q37 0 79 -5.5t83.5 -18t79.5 -33.5t67 -52.5t46.5 -74.5t17.5 -99q0 -70 -27.5 -118t-66.5 -78t-81 -43t-70 -13q25 -5 55.5 -14.5t61 -25t59.5 -39t51 -56t35.5 -75t13.5 -97.5q0 -77 -35 -133t-91 -92t-125.5 -53t-137.5 -17q-91 0 -172.5 19
t-155.5 59z" />
    <glyph glyph-name="acute" unicode="&#xb4;" horiz-adv-x="1097" 
d="M489 127l159 611l232 -91l-334 -546z" />
    <glyph glyph-name="uni00B5" unicode="&#xb5;" horiz-adv-x="1320" 
d="M185 1169h174v-727q0 -319 252 -319q70 0 129 19t104.5 44.5t74.5 50.5t39 37v895h208v-1153h-146l-24 154q-171 -190 -397 -190q-46 0 -84 13.5t-68 34t-52 43.5t-36 42v-404h-174v1460z" />
    <glyph glyph-name="paragraph" unicode="&#xb6;" horiz-adv-x="1314" 
d="M1128 0h-186v1436h-135v-1436h-190v905q-94 0 -182 16t-156.5 55.5t-109.5 106t-41 167.5q0 71 20.5 123t57 88.5t86.5 59.5t109.5 35.5t125.5 17t135 4.5h466v-1578z" />
    <glyph glyph-name="periodcentered" unicode="&#xb7;" horiz-adv-x="518" 
d="M133 650q0 23 8 44t23 36.5t35.5 25t45.5 9.5t45.5 -9.5t35.5 -25t23 -36.5t8 -44t-8 -44t-23 -37t-35.5 -25t-45.5 -9t-45.5 9t-35.5 25t-23 37t-8 44z" />
    <glyph glyph-name="cedilla" unicode="&#xb8;" horiz-adv-x="575" 
d="M196 -423l22 -7q21 -6 48.5 -13.5t54.5 -14t39 -6.5q34 0 60 4.5t43.5 19t26.5 41.5t9 71q0 39 -14.5 66.5t-45 44t-78.5 24t-115 7.5v206h121v-118q60 0 109 -13t83.5 -41t53.5 -71t19 -104q0 -120 -60.5 -185.5t-191.5 -65.5q-48 0 -96.5 12t-87.5 26v117z" />
    <glyph glyph-name="uni00B9" unicode="&#xb9;" horiz-adv-x="740" 
d="M327 1304l-171 -72l-37 113l237 95l140 -26v-936h-169v826z" />
    <glyph glyph-name="ordmasculine" unicode="&#xba;" horiz-adv-x="1276" 
d="M638 670q-108 0 -187.5 37.5t-132 102.5t-78.5 153t-26 189q0 99 25.5 187t78 154.5t132 105.5t188.5 39t189 -39t132.5 -105.5t78 -154.5t25.5 -187q0 -100 -25.5 -187.5t-78 -153t-132.5 -103.5t-189 -38zM638 797q72 0 122.5 26.5t82.5 74t47 113t15 143.5
q0 76 -15 141.5t-47 113.5t-82.5 75.5t-122.5 27.5t-122.5 -27t-82.5 -75t-47 -113.5t-15 -142.5t15 -142.5t47 -113t82.5 -74.5t122.5 -27zM300 575h684v-129h-684v129z" />
    <glyph glyph-name="guillemotright" unicode="&#xbb;" horiz-adv-x="1533" 
d="M167 1049l609 -383v-185l-609 -382v207l447 271l-447 265v207zM774 1049l609 -383v-185l-609 -382v207l447 271l-447 265v207z" />
    <glyph glyph-name="onequarter" unicode="&#xbc;" horiz-adv-x="1816" 
d="M1394 144v553l-397 -553h397zM1530 915v-770h151v-111h-151v-261l-145 -23v284h-525l-22 110l564 802zM1272 1365l122 -93l-1041 -1395l-120 93zM345 1413l-170 -72l-38 93l238 95l130 -26v-935h-160v845z" />
    <glyph glyph-name="onehalf" unicode="&#xbd;" horiz-adv-x="2068" 
d="M1697 514q0 70 -52 105.5t-137 35.5q-36 0 -81.5 -7t-87.5 -16t-74.5 -17.5t-44.5 -11.5v145q48 17 121.5 33.5t184.5 16.5q100 0 166 -28t105.5 -70t55.5 -91.5t16 -91.5q0 -48 -12 -90.5t-40 -86t-74.5 -91.5t-116.5 -107l-191 -162h406v-152h-638v137q68 60 135.5 120
t135.5 120q68 61 111.5 103.5t68 76.5t34 64t9.5 65zM401 1413l-170 -72l-38 93l238 95l130 -26v-935h-160v845zM1302 1365l122 -93l-1023 -1395l-138 93z" />
    <glyph glyph-name="threequarters" unicode="&#xbe;" horiz-adv-x="2159" 
d="M1700 144v553l-397 -553h397zM1836 915v-770h151v-111h-151v-261l-145 -23v284h-525l-22 110l564 802zM1569 1365l131 -93l-1041 -1395l-120 93zM723 1383q0 75 -54.5 116.5t-169.5 41.5q-29 0 -60 -4.5t-62 -12.5t-59.5 -18.5t-52.5 -21.5l-47 127q2 1 25.5 11.5
t62.5 22.5t90 22t108 10q37 0 79 -5.5t83.5 -18t79.5 -33.5t67 -52.5t46.5 -74.5t17.5 -99q0 -70 -27.5 -118t-66.5 -78t-81 -43t-70 -13q25 -5 55.5 -14.5t61 -25t59.5 -39t51 -56t35.5 -75t13.5 -97.5q0 -80 -36.5 -136.5t-94.5 -91.5t-129.5 -51t-140.5 -16
q-78 0 -152 20t-164 58l51 127q25 -12 55.5 -25t66 -23.5t75.5 -17.5t83 -7q48 0 88.5 13t70 36.5t45.5 57t16 74.5q0 95 -63 149.5t-199 69.5v135q46 0 90 10.5t78 32t54.5 55t20.5 78.5z" />
    <glyph glyph-name="questiondown" unicode="&#xbf;" horiz-adv-x="1232" 
d="M665 1361v218h200v-218h-200zM332 384q0 -117 74 -170t220 -53q72 0 134.5 13t109.5 30q55 18 101 43l61 -145q-55 -29 -120 -51q-56 -20 -129.5 -35.5t-158.5 -15.5q-103 0 -191 22.5t-153 69.5t-102 119t-37 171q0 84 24.5 150.5t65.5 118t95 90.5t113.5 69t120 52.5
t115.5 41.5v379h180v-481q-133 -45 -231.5 -87.5t-163 -90.5t-96.5 -106t-32 -134z" />
    <glyph glyph-name="Agrave" unicode="&#xc0;" horiz-adv-x="1458" 
d="M879 1579l516 -1579h-199l-123 383h-688l-123 -383h-199l516 1579h300zM412 485h634l-317 971zM432 2260l242 89l153 -618l-67 -26z" />
    <glyph glyph-name="Aacute" unicode="&#xc1;" horiz-adv-x="1458" 
d="M879 1579l516 -1579h-199l-123 383h-688l-123 -383h-199l516 1579h300zM412 485h634l-317 971zM669 1742l159 611l232 -91l-334 -546z" />
    <glyph glyph-name="Acircumflex" unicode="&#xc2;" horiz-adv-x="1458" 
d="M879 1579l516 -1579h-199l-123 383h-688l-123 -383h-199l516 1579h300zM412 485h634l-317 971zM777 2278l292 -501l-128 -78l-212 377l-212 -377l-128 78l292 501h96z" />
    <glyph glyph-name="Atilde" unicode="&#xc3;" horiz-adv-x="1458" 
d="M879 1579l516 -1579h-199l-123 383h-688l-123 -383h-199l516 1579h300zM412 485h634l-317 971zM918 1722q-56 0 -108 18.5t-97.5 41t-83 41t-64.5 18.5q-30 0 -44.5 -24.5t-14.5 -90.5h-156q0 260 201 260q57 0 104.5 -20t97.5 -49q38 -22 72.5 -39t69.5 -17q59 0 59 111
h156q0 -57 -13.5 -103t-38.5 -78.5t-60.5 -50.5t-79.5 -18z" />
    <glyph glyph-name="Adieresis" unicode="&#xc4;" horiz-adv-x="1458" 
d="M879 1579l516 -1579h-199l-123 383h-688l-123 -383h-199l516 1579h300zM412 485h634l-317 971zM373 1830q0 23 8 44t23 36.5t35.5 25.5t45.5 9q25 0 45.5 -9.5t35.5 -25t23 -36.5t8 -44t-8 -44t-23 -37t-35.5 -25t-45.5 -9t-45.5 9t-35.5 25t-23 37t-8 44zM862 1830
q0 23 8 44t23 36.5t35.5 25.5t45.5 9q25 0 45.5 -9.5t35.5 -25t23 -36.5t8 -44t-8 -44t-23 -37t-35.5 -25t-45.5 -9t-45.5 9t-35.5 25t-23 37t-8 44z" />
    <glyph glyph-name="Aring" unicode="&#xc5;" horiz-adv-x="1458" 
d="M879 1579l516 -1579h-199l-123 383h-688l-123 -383h-199l516 1579h300zM412 485h634l-317 971zM586 1926q0 -31 10.5 -58t30 -47.5t45.5 -32t58 -11.5t58.5 11.5t46 32t30.5 47.5t11 58t-11 58t-30.5 47.5t-46 32t-58.5 11.5t-58 -11.5t-45.5 -32t-30 -47.5t-10.5 -58z
M731 2166q52 0 96.5 -18.5t77 -51t50.5 -76.5t18 -95q0 -50 -18 -93.5t-50.5 -76t-77 -51t-96.5 -18.5q-53 0 -97.5 18.5t-77 51t-50.5 76t-18 93.5q0 51 18 95t50.5 76.5t77 51t97.5 18.5z" />
    <glyph glyph-name="AE" unicode="&#xc6;" horiz-adv-x="1945" 
d="M1014 1459l-490 -966h490v966zM1827 1436h-648v-545h605v-127h-603v-621h674v-143h-839v371h-552l-192 -371h-209l826 1579h938v-143z" />
    <glyph glyph-name="Ccedilla" unicode="&#xc7;" horiz-adv-x="1273" 
d="M304 768q0 -155 27.5 -277t84.5 -207t146 -130t212 -45q78 0 147.5 17t122.5 37q62 24 113 55l56 -139q-60 -34 -130 -60q-60 -23 -139.5 -41.5t-170.5 -18.5q-172 0 -298 56t-208.5 160.5t-123 254t-40.5 337.5q0 91 14 188.5t46 191.5t83.5 178t127 147.5t176 100.5
t231.5 37q87 0 161 -12.5t128 -27.5q63 -18 115 -40l-45 -145q-45 20 -100 36q-48 14 -111.5 25.5t-140.5 11.5q-128 0 -220 -52t-150.5 -144t-86 -218.5t-27.5 -275.5zM666 -462l22 -7q21 -6 48.5 -13.5t54.5 -14t39 -6.5q34 0 60 4.5t43.5 19t26.5 41.5t9 71
q0 39 -14.5 66.5t-45 44t-78.5 24t-115 7.5v206h121v-118q60 0 109 -13t83.5 -41t53.5 -71t19 -104q0 -120 -60.5 -185.5t-191.5 -65.5q-48 0 -96.5 12t-87.5 26v117z" />
    <glyph glyph-name="Egrave" unicode="&#xc8;" horiz-adv-x="1192" 
d="M153 0v1579h970v-143h-776v-545h678v-115h-678v-633h789v-143h-983zM347 2260l242 89l153 -618l-67 -26z" />
    <glyph glyph-name="Eacute" unicode="&#xc9;" horiz-adv-x="1192" 
d="M153 0v1579h970v-143h-776v-545h678v-115h-678v-633h789v-143h-983zM584 1742l159 611l232 -91l-334 -546z" />
    <glyph glyph-name="Ecircumflex" unicode="&#xca;" horiz-adv-x="1192" 
d="M153 0v1579h970v-143h-776v-545h678v-115h-678v-633h789v-143h-983zM693 2278l292 -501l-128 -78l-212 377l-212 -377l-128 78l292 501h96z" />
    <glyph glyph-name="Edieresis" unicode="&#xcb;" horiz-adv-x="1192" 
d="M153 0v1579h970v-143h-776v-545h678v-115h-678v-633h789v-143h-983zM288 1830q0 23 8 44t23 36.5t35.5 25.5t45.5 9q25 0 45.5 -9.5t35.5 -25t23 -36.5t8 -44t-8 -44t-23 -37t-35.5 -25t-45.5 -9t-45.5 9t-35.5 25t-23 37t-8 44zM777 1830q0 23 8 44t23 36.5t35.5 25.5
t45.5 9q25 0 45.5 -9.5t35.5 -25t23 -36.5t8 -44t-8 -44t-23 -37t-35.5 -25t-45.5 -9t-45.5 9t-35.5 25t-23 37t-8 44z" />
    <glyph glyph-name="Igrave" unicode="&#xcc;" horiz-adv-x="781" 
d="M302 112v1349h-204v118h593v-118h-206v-1349h206v-112h-593v112h204zM97 2260l242 89l153 -618l-67 -26z" />
    <glyph glyph-name="Iacute" unicode="&#xcd;" horiz-adv-x="781" 
d="M302 112v1349h-204v118h593v-118h-206v-1349h206v-112h-593v112h204zM335 1742l159 611l232 -91l-334 -546z" />
    <glyph glyph-name="Icircumflex" unicode="&#xce;" horiz-adv-x="781" 
d="M302 112v1349h-204v118h593v-118h-206v-1349h206v-112h-593v112h204zM443 2278l292 -501l-128 -78l-212 377l-212 -377l-128 78l292 501h96z" />
    <glyph glyph-name="Idieresis" unicode="&#xcf;" horiz-adv-x="781" 
d="M302 112v1349h-204v118h593v-118h-206v-1349h206v-112h-593v112h204zM39 1830q0 23 8 44t23 36.5t35.5 25.5t45.5 9q25 0 45.5 -9.5t35.5 -25t23 -36.5t8 -44t-8 -44t-23 -37t-35.5 -25t-45.5 -9t-45.5 9t-35.5 25t-23 37t-8 44zM528 1830q0 23 8 44t23 36.5t35.5 25.5
t45.5 9q25 0 45.5 -9.5t35.5 -25t23 -36.5t8 -44t-8 -44t-23 -37t-35.5 -25t-45.5 -9t-45.5 9t-35.5 25t-23 37t-8 44z" />
    <glyph glyph-name="Eth" unicode="&#xd0;" horiz-adv-x="1471" 
d="M1167 789q0 143 -21.5 262t-74 204.5t-141 133t-221.5 47.5h-359v-541h234v-131h-234v-621h359q138 0 227 49t140 135.5t71 205t20 256.5zM1368 788q0 -108 -16 -208.5t-49.5 -188t-86 -159.5t-126 -123.5t-168.5 -80t-213 -28.5h-553v764h-162v131h162v684h553
q177 0 302 -56.5t204.5 -160.5t116 -250t36.5 -324z" />
    <glyph glyph-name="Ntilde" unicode="&#xd1;" horiz-adv-x="1597" 
d="M1194 0l-847 1404v-1404h-194v1579h262l834 -1394v1394h194v-1579h-249zM987 1722q-56 0 -108 18.5t-97.5 41t-83 41t-64.5 18.5q-30 0 -44.5 -24.5t-14.5 -90.5h-156q0 260 201 260q57 0 104.5 -20t97.5 -49q38 -22 72.5 -39t69.5 -17q59 0 59 111h156q0 -57 -13.5 -103
t-38.5 -78.5t-60.5 -50.5t-79.5 -18z" />
    <glyph glyph-name="Ograve" unicode="&#xd2;" horiz-adv-x="1516" 
d="M1415 806q0 -110 -12 -215.5t-40.5 -200t-77 -174t-121.5 -137t-173.5 -90t-232.5 -32.5q-133 0 -234 33.5t-173.5 93.5t-120.5 142t-76.5 179t-40 204.5t-11.5 219.5q0 181 42.5 325.5t125.5 245.5t205.5 154.5t282.5 53.5q161 0 284 -54t206 -157t125 -252t42 -339z
M303 775q0 -336 116.5 -499.5t338.5 -163.5q104 0 188 35.5t143.5 114.5t91.5 205.5t32 307.5t-30 310.5t-87.5 212.5t-141 122t-189.5 39q-110 0 -196 -37.5t-145 -119.5t-90 -212t-31 -315zM461 2260l242 89l153 -618l-67 -26z" />
    <glyph glyph-name="Oacute" unicode="&#xd3;" horiz-adv-x="1516" 
d="M1415 806q0 -110 -12 -215.5t-40.5 -200t-77 -174t-121.5 -137t-173.5 -90t-232.5 -32.5q-133 0 -234 33.5t-173.5 93.5t-120.5 142t-76.5 179t-40 204.5t-11.5 219.5q0 181 42.5 325.5t125.5 245.5t205.5 154.5t282.5 53.5q161 0 284 -54t206 -157t125 -252t42 -339z
M303 775q0 -336 116.5 -499.5t338.5 -163.5q104 0 188 35.5t143.5 114.5t91.5 205.5t32 307.5t-30 310.5t-87.5 212.5t-141 122t-189.5 39q-110 0 -196 -37.5t-145 -119.5t-90 -212t-31 -315zM698 1742l159 611l232 -91l-334 -546z" />
    <glyph glyph-name="Ocircumflex" unicode="&#xd4;" horiz-adv-x="1516" 
d="M1415 806q0 -110 -12 -215.5t-40.5 -200t-77 -174t-121.5 -137t-173.5 -90t-232.5 -32.5q-133 0 -234 33.5t-173.5 93.5t-120.5 142t-76.5 179t-40 204.5t-11.5 219.5q0 181 42.5 325.5t125.5 245.5t205.5 154.5t282.5 53.5q161 0 284 -54t206 -157t125 -252t42 -339z
M303 775q0 -336 116.5 -499.5t338.5 -163.5q104 0 188 35.5t143.5 114.5t91.5 205.5t32 307.5t-30 310.5t-87.5 212.5t-141 122t-189.5 39q-110 0 -196 -37.5t-145 -119.5t-90 -212t-31 -315zM806 2278l292 -501l-128 -78l-212 377l-212 -377l-128 78l292 501h96z" />
    <glyph glyph-name="Otilde" unicode="&#xd5;" horiz-adv-x="1516" 
d="M1415 806q0 -110 -12 -215.5t-40.5 -200t-77 -174t-121.5 -137t-173.5 -90t-232.5 -32.5q-133 0 -234 33.5t-173.5 93.5t-120.5 142t-76.5 179t-40 204.5t-11.5 219.5q0 181 42.5 325.5t125.5 245.5t205.5 154.5t282.5 53.5q161 0 284 -54t206 -157t125 -252t42 -339z
M303 775q0 -336 116.5 -499.5t338.5 -163.5q104 0 188 35.5t143.5 114.5t91.5 205.5t32 307.5t-30 310.5t-87.5 212.5t-141 122t-189.5 39q-110 0 -196 -37.5t-145 -119.5t-90 -212t-31 -315zM947 1722q-56 0 -108 18.5t-97.5 41t-83 41t-64.5 18.5q-30 0 -44.5 -24.5
t-14.5 -90.5h-156q0 260 201 260q57 0 104.5 -20t97.5 -49q38 -22 72.5 -39t69.5 -17q59 0 59 111h156q0 -57 -13.5 -103t-38.5 -78.5t-60.5 -50.5t-79.5 -18z" />
    <glyph glyph-name="Odieresis" unicode="&#xd6;" horiz-adv-x="1516" 
d="M1415 806q0 -110 -12 -215.5t-40.5 -200t-77 -174t-121.5 -137t-173.5 -90t-232.5 -32.5q-133 0 -234 33.5t-173.5 93.5t-120.5 142t-76.5 179t-40 204.5t-11.5 219.5q0 181 42.5 325.5t125.5 245.5t205.5 154.5t282.5 53.5q161 0 284 -54t206 -157t125 -252t42 -339z
M303 775q0 -336 116.5 -499.5t338.5 -163.5q104 0 188 35.5t143.5 114.5t91.5 205.5t32 307.5t-30 310.5t-87.5 212.5t-141 122t-189.5 39q-110 0 -196 -37.5t-145 -119.5t-90 -212t-31 -315zM402 1830q0 23 8 44t23 36.5t35.5 25.5t45.5 9q25 0 45.5 -9.5t35.5 -25
t23 -36.5t8 -44t-8 -44t-23 -37t-35.5 -25t-45.5 -9t-45.5 9t-35.5 25t-23 37t-8 44zM891 1830q0 23 8 44t23 36.5t35.5 25.5t45.5 9q25 0 45.5 -9.5t35.5 -25t23 -36.5t8 -44t-8 -44t-23 -37t-35.5 -25t-45.5 -9t-45.5 9t-35.5 25t-23 37t-8 44z" />
    <glyph glyph-name="multiply" unicode="&#xd7;" horiz-adv-x="1365" 
d="M380 965l317 -317l317 317l102 -102l-317 -317l317 -317l-102 -102l-317 317l-317 -317l-102 102l317 317l-317 317z" />
    <glyph glyph-name="Oslash" unicode="&#xd8;" horiz-adv-x="1517" 
d="M402 49q-61 41 -115.5 100.5t-95 146.5t-64.5 207t-24 281q0 181 31.5 312.5t83 223.5t118.5 148.5t138 88t141.5 42.5t128.5 11q97 0 180 -17.5t152 -54.5l78 172l101 -42l-86 -191q66 -53 112.5 -126t76 -162t43 -191.5t13.5 -213.5q0 -175 -34.5 -325.5t-112 -261.5
t-203 -174.5t-306.5 -63.5q-57 0 -122 8t-134 33l-72 -159l-101 46zM568 147q21 -10 50 -18q25 -7 60.5 -12.5t80.5 -5.5q93 0 163 25.5t120 71.5t83.5 109t52.5 137.5t27 158.5t8 171q0 187 -31 315t-90 208zM304 784q0 -58 4 -133.5t20.5 -154.5t51 -154.5t95.5 -132.5
l534 1181q-49 39 -113.5 53.5t-129.5 14.5q-94 0 -165 -24t-122 -68t-85 -105.5t-54 -136.5t-28 -161t-8 -179z" />
    <glyph glyph-name="Ugrave" unicode="&#xd9;" horiz-adv-x="1533" 
d="M762 111q126 0 210 33.5t133.5 105.5t70 186t20.5 275v868h194v-864q0 -178 -34.5 -318.5t-108.5 -237.5t-192 -148.5t-284 -51.5q-178 0 -299.5 51.5t-196.5 149t-108 237.5t-33 318v864h194v-868q0 -161 25 -275t77.5 -186t135 -105.5t196.5 -33.5zM465 2260l242 89
l153 -618l-67 -26z" />
    <glyph glyph-name="Uacute" unicode="&#xda;" horiz-adv-x="1533" 
d="M762 111q126 0 210 33.5t133.5 105.5t70 186t20.5 275v868h194v-864q0 -178 -34.5 -318.5t-108.5 -237.5t-192 -148.5t-284 -51.5q-178 0 -299.5 51.5t-196.5 149t-108 237.5t-33 318v864h194v-868q0 -161 25 -275t77.5 -186t135 -105.5t196.5 -33.5zM702 1742l159 611
l232 -91l-334 -546z" />
    <glyph glyph-name="Ucircumflex" unicode="&#xdb;" horiz-adv-x="1533" 
d="M762 111q126 0 210 33.5t133.5 105.5t70 186t20.5 275v868h194v-864q0 -178 -34.5 -318.5t-108.5 -237.5t-192 -148.5t-284 -51.5q-178 0 -299.5 51.5t-196.5 149t-108 237.5t-33 318v864h194v-868q0 -161 25 -275t77.5 -186t135 -105.5t196.5 -33.5zM810 2278l292 -501
l-128 -78l-212 377l-212 -377l-128 78l292 501h96z" />
    <glyph glyph-name="Udieresis" unicode="&#xdc;" horiz-adv-x="1533" 
d="M762 111q126 0 210 33.5t133.5 105.5t70 186t20.5 275v868h194v-864q0 -178 -34.5 -318.5t-108.5 -237.5t-192 -148.5t-284 -51.5q-178 0 -299.5 51.5t-196.5 149t-108 237.5t-33 318v864h194v-868q0 -161 25 -275t77.5 -186t135 -105.5t196.5 -33.5zM406 1830q0 23 8 44
t23 36.5t35.5 25.5t45.5 9q25 0 45.5 -9.5t35.5 -25t23 -36.5t8 -44t-8 -44t-23 -37t-35.5 -25t-45.5 -9t-45.5 9t-35.5 25t-23 37t-8 44zM895 1830q0 23 8 44t23 36.5t35.5 25.5t45.5 9q25 0 45.5 -9.5t35.5 -25t23 -36.5t8 -44t-8 -44t-23 -37t-35.5 -25t-45.5 -9t-45.5 9
t-35.5 25t-23 37t-8 44z" />
    <glyph glyph-name="Yacute" unicode="&#xdd;" horiz-adv-x="1318" 
d="M1075 1579h191l-514 -1094v-485h-190v485l-514 1094h197l417 -902zM597 1742l159 611l232 -91l-334 -546z" />
    <glyph glyph-name="Thorn" unicode="&#xde;" horiz-adv-x="1453" 
d="M1060 959q0 102 -22.5 168.5t-85.5 104.5t-175.5 53t-292.5 15h-137v-651q94 0 171.5 1.5t141 6t115 12.5t92.5 22q61 20 99 48t59 62.5t28 74t7 83.5zM347 504v-504h-194v1579h194v-135h119.5t118.5 -1.5t111 -4.5t98 -9q135 -18 222 -57.5t137 -97.5t69.5 -134
t19.5 -167q0 -105 -34 -191.5t-118 -148t-225.5 -95.5t-355.5 -34h-162z" />
    <glyph glyph-name="germandbls" unicode="&#xdf;" horiz-adv-x="1399" 
d="M491 905q83 0 149 1t116.5 9t86 25.5t57.5 50t32.5 83.5t10.5 126q0 68 -22 113.5t-63.5 72.5t-101 38.5t-134.5 11.5q-87 0 -141 -28.5t-84 -85.5t-40 -141.5t-10 -196.5v-984h-194v991q0 135 22 243.5t76 185t144.5 118t226.5 41.5q242 0 367.5 -103.5t125.5 -299.5
q0 -69 -17 -127t-49.5 -101.5t-79.5 -71t-107 -34.5q92 -10 171.5 -40t138 -84t92 -133t33.5 -186t-32.5 -188t-89 -139.5t-132.5 -97.5t-162 -61.5t-177.5 -32t-180.5 -9.5v156q10 -1 20 -1h33q102 0 199 17.5t172.5 62.5t121.5 124t46 202q0 77 -30.5 140t-103 108
t-192.5 69.5t-298 24.5v131z" />
    <glyph glyph-name="agrave" unicode="&#xe0;" horiz-adv-x="1200" 
d="M610 1053q-45 0 -94.5 -8t-98 -23.5t-94 -38t-82.5 -51.5l-68 132q57 31 106 54.5t99.5 39.5t106 24t125.5 8q151 0 241.5 -33t138 -102t62 -176t14.5 -255v-624h-140l-28 178q-74 -104 -176 -151t-229 -47q-90 0 -162.5 23t-123.5 68.5t-78.5 113.5t-27.5 158
q0 87 33 156t89 117t130 73.5t156 25.5t149.5 -8t116 -17.5t75.5 -17.5l26 -7q0 103 -4 177t-29 120.5t-79 68.5t-154 22zM540 117q91 0 172.5 39t163.5 115v298q-42 6 -82 10q-35 4 -75 7.5t-75 3.5q-72 0 -136 -7.5t-112 -32.5t-76 -72t-28 -125q0 -70 18 -115.5
t50.5 -72.5t78 -37.5t101.5 -10.5zM286 1825l242 89l153 -618l-67 -26z" />
    <glyph glyph-name="aacute" unicode="&#xe1;" horiz-adv-x="1200" 
d="M610 1053q-45 0 -94.5 -8t-98 -23.5t-94 -38t-82.5 -51.5l-68 132q57 31 106 54.5t99.5 39.5t106 24t125.5 8q151 0 241.5 -33t138 -102t62 -176t14.5 -255v-624h-140l-28 178q-74 -104 -176 -151t-229 -47q-90 0 -162.5 23t-123.5 68.5t-78.5 113.5t-27.5 158
q0 87 33 156t89 117t130 73.5t156 25.5t149.5 -8t116 -17.5t75.5 -17.5l26 -7q0 103 -4 177t-29 120.5t-79 68.5t-154 22zM540 117q91 0 172.5 39t163.5 115v298q-42 6 -82 10q-35 4 -75 7.5t-75 3.5q-72 0 -136 -7.5t-112 -32.5t-76 -72t-28 -125q0 -70 18 -115.5
t50.5 -72.5t78 -37.5t101.5 -10.5zM523 1307l159 611l232 -91l-334 -546z" />
    <glyph glyph-name="acircumflex" unicode="&#xe2;" horiz-adv-x="1200" 
d="M610 1053q-45 0 -94.5 -8t-98 -23.5t-94 -38t-82.5 -51.5l-68 132q57 31 106 54.5t99.5 39.5t106 24t125.5 8q151 0 241.5 -33t138 -102t62 -176t14.5 -255v-624h-140l-28 178q-74 -104 -176 -151t-229 -47q-90 0 -162.5 23t-123.5 68.5t-78.5 113.5t-27.5 158
q0 87 33 156t89 117t130 73.5t156 25.5t149.5 -8t116 -17.5t75.5 -17.5l26 -7q0 103 -4 177t-29 120.5t-79 68.5t-154 22zM540 117q91 0 172.5 39t163.5 115v298q-42 6 -82 10q-35 4 -75 7.5t-75 3.5q-72 0 -136 -7.5t-112 -32.5t-76 -72t-28 -125q0 -70 18 -115.5
t50.5 -72.5t78 -37.5t101.5 -10.5zM632 1843l292 -501l-128 -78l-212 377l-212 -377l-128 78l292 501h96z" />
    <glyph glyph-name="atilde" unicode="&#xe3;" horiz-adv-x="1200" 
d="M610 1053q-45 0 -94.5 -8t-98 -23.5t-94 -38t-82.5 -51.5l-68 132q57 31 106 54.5t99.5 39.5t106 24t125.5 8q151 0 241.5 -33t138 -102t62 -176t14.5 -255v-624h-140l-28 178q-74 -104 -176 -151t-229 -47q-90 0 -162.5 23t-123.5 68.5t-78.5 113.5t-27.5 158
q0 87 33 156t89 117t130 73.5t156 25.5t149.5 -8t116 -17.5t75.5 -17.5l26 -7q0 103 -4 177t-29 120.5t-79 68.5t-154 22zM540 117q91 0 172.5 39t163.5 115v298q-42 6 -82 10q-35 4 -75 7.5t-75 3.5q-72 0 -136 -7.5t-112 -32.5t-76 -72t-28 -125q0 -70 18 -115.5
t50.5 -72.5t78 -37.5t101.5 -10.5zM772 1287q-56 0 -108 18.5t-97.5 41t-83 41t-64.5 18.5q-30 0 -44.5 -24.5t-14.5 -90.5h-156q0 260 201 260q57 0 104.5 -20t97.5 -49q38 -22 72.5 -39t69.5 -17q59 0 59 111h156q0 -57 -13.5 -103t-38.5 -78.5t-60.5 -50.5t-79.5 -18z
" />
    <glyph glyph-name="adieresis" unicode="&#xe4;" horiz-adv-x="1200" 
d="M610 1053q-45 0 -94.5 -8t-98 -23.5t-94 -38t-82.5 -51.5l-68 132q57 31 106 54.5t99.5 39.5t106 24t125.5 8q151 0 241.5 -33t138 -102t62 -176t14.5 -255v-624h-140l-28 178q-74 -104 -176 -151t-229 -47q-90 0 -162.5 23t-123.5 68.5t-78.5 113.5t-27.5 158
q0 87 33 156t89 117t130 73.5t156 25.5t149.5 -8t116 -17.5t75.5 -17.5l26 -7q0 103 -4 177t-29 120.5t-79 68.5t-154 22zM540 117q91 0 172.5 39t163.5 115v298q-42 6 -82 10q-35 4 -75 7.5t-75 3.5q-72 0 -136 -7.5t-112 -32.5t-76 -72t-28 -125q0 -70 18 -115.5
t50.5 -72.5t78 -37.5t101.5 -10.5zM227 1395q0 23 8 44t23 36.5t35.5 25.5t45.5 9q25 0 45.5 -9.5t35.5 -25t23 -36.5t8 -44t-8 -44t-23 -37t-35.5 -25t-45.5 -9t-45.5 9t-35.5 25t-23 37t-8 44zM716 1395q0 23 8 44t23 36.5t35.5 25.5t45.5 9q25 0 45.5 -9.5t35.5 -25
t23 -36.5t8 -44t-8 -44t-23 -37t-35.5 -25t-45.5 -9t-45.5 9t-35.5 25t-23 37t-8 44z" />
    <glyph glyph-name="aring" unicode="&#xe5;" horiz-adv-x="1200" 
d="M610 1053q-45 0 -94.5 -8t-98 -23.5t-94 -38t-82.5 -51.5l-68 132q57 31 106 54.5t99.5 39.5t106 24t125.5 8q151 0 241.5 -33t138 -102t62 -176t14.5 -255v-624h-140l-28 178q-74 -104 -176 -151t-229 -47q-90 0 -162.5 23t-123.5 68.5t-78.5 113.5t-27.5 158
q0 87 33 156t89 117t130 73.5t156 25.5t149.5 -8t116 -17.5t75.5 -17.5l26 -7q0 103 -4 177t-29 120.5t-79 68.5t-154 22zM540 117q91 0 172.5 39t163.5 115v298q-42 6 -82 10q-35 4 -75 7.5t-75 3.5q-72 0 -136 -7.5t-112 -32.5t-76 -72t-28 -125q0 -70 18 -115.5
t50.5 -72.5t78 -37.5t101.5 -10.5zM440 1491q0 -31 10.5 -58t30 -47.5t45.5 -32t58 -11.5t58.5 11.5t46 32t30.5 47.5t11 58t-11 58t-30.5 47.5t-46 32t-58.5 11.5t-58 -11.5t-45.5 -32t-30 -47.5t-10.5 -58zM585 1731q52 0 96.5 -18.5t77 -51t50.5 -76.5t18 -95
q0 -50 -18 -93.5t-50.5 -76t-77 -51t-96.5 -18.5q-53 0 -97.5 18.5t-77 51t-50.5 76t-18 93.5q0 51 18 95t50.5 76.5t77 51t97.5 18.5z" />
    <glyph glyph-name="ae" unicode="&#xe6;" horiz-adv-x="1907" 
d="M1654 682q0 121 -25.5 195t-65.5 114t-88.5 53t-94.5 13q-32 0 -68 -5.5t-72.5 -20.5t-70 -41.5t-59 -68.5t-41 -100.5t-15.5 -138.5h600zM1768 99q-38 -28 -88.5 -50.5t-103 -38.5t-102 -24.5t-86.5 -8.5q-155 0 -262 59t-171 171q-33 -44 -79.5 -85.5t-103.5 -73.5
t-123.5 -51.5t-140.5 -19.5q-93 0 -166 23.5t-123 69.5t-76.5 113.5t-26.5 155.5q0 90 31.5 160t89.5 118t140 73t183 25q34 0 76.5 -4t85 -11t80.5 -16t62 -19q0 110 -7.5 183.5t-33 117.5t-76 62.5t-135.5 18.5q-55 0 -111 -12t-105.5 -29.5t-88 -37t-58.5 -34.5l-67 125
q31 27 82.5 50.5t110.5 41.5t119 28.5t108 10.5q81 0 144 -12t110 -38t78.5 -68t49.5 -102q27 55 68.5 96.5t93 69t111 41t122.5 13.5q108 0 190.5 -37t138.5 -104.5t85 -162.5t29 -210q0 -24 -2 -51t-6 -58h-760q0 -99 16 -180.5t56 -139t106.5 -89t167.5 -31.5
q169 0 306 117zM307 356q0 -64 14.5 -109t45 -73.5t77 -41.5t111.5 -13q145 0 309 152v298q-66 10 -124 15.5t-111 5.5q-97 0 -159.5 -17t-98.5 -47.5t-50 -74t-14 -95.5z" />
    <glyph glyph-name="ccedilla" unicode="&#xe7;" horiz-adv-x="1078" 
d="M609 -20q-114 0 -207.5 39.5t-160 116t-103.5 188t-37 256.5q0 124 33.5 234.5t98.5 194t160.5 132.5t218.5 49q111 0 209 -32.5t179 -89.5l-57 -133q-25 25 -61 46.5t-77 37.5t-84.5 25t-82.5 9q-112 -10 -180.5 -48.5t-105.5 -101.5t-49 -147t-12 -184
q0 -113 22.5 -198.5t64 -142.5t100 -85.5t131.5 -28.5q60 0 106.5 8.5t85.5 25t73 40.5t69 54l57 -134q-35 -24 -75.5 -47.5t-89 -42t-105 -30t-121.5 -11.5zM561 -423l22 -7q21 -6 48.5 -13.5t54.5 -14t39 -6.5q34 0 60 4.5t43.5 19t26.5 41.5t9 71q0 39 -14.5 66.5t-45 44
t-78.5 24t-115 7.5v206h121v-118q60 0 109 -13t83.5 -41t53.5 -71t19 -104q0 -120 -60.5 -185.5t-191.5 -65.5q-48 0 -96.5 12t-87.5 26v117z" />
    <glyph glyph-name="egrave" unicode="&#xe8;" horiz-adv-x="1144" 
d="M1005 101q-40 -29 -91 -51.5t-103.5 -38t-101.5 -23.5t-84 -8q-132 0 -230.5 44t-163.5 123.5t-97.5 189t-32.5 241.5q0 119 31.5 229.5t93.5 195.5t154 136t214 51q114 0 200.5 -34.5t145.5 -99.5t89 -159t30 -213q0 -32 -2 -61.5t-6 -55.5h-760q0 -125 24 -211t69 -139
t110 -76.5t147 -23.5q48 0 88 7.5t75.5 22t69 36.5t69.5 51zM891 717q0 80 -20 142.5t-56 105.5t-85.5 65.5t-108.5 22.5q-79 0 -138 -29t-99.5 -79t-63 -117.5t-29.5 -145.5h600v35zM283 1825l242 89l153 -618l-67 -26z" />
    <glyph glyph-name="eacute" unicode="&#xe9;" horiz-adv-x="1144" 
d="M1005 101q-40 -29 -91 -51.5t-103.5 -38t-101.5 -23.5t-84 -8q-132 0 -230.5 44t-163.5 123.5t-97.5 189t-32.5 241.5q0 119 31.5 229.5t93.5 195.5t154 136t214 51q114 0 200.5 -34.5t145.5 -99.5t89 -159t30 -213q0 -32 -2 -61.5t-6 -55.5h-760q0 -125 24 -211t69 -139
t110 -76.5t147 -23.5q48 0 88 7.5t75.5 22t69 36.5t69.5 51zM891 717q0 80 -20 142.5t-56 105.5t-85.5 65.5t-108.5 22.5q-79 0 -138 -29t-99.5 -79t-63 -117.5t-29.5 -145.5h600v35zM520 1307l159 611l232 -91l-334 -546z" />
    <glyph glyph-name="ecircumflex" unicode="&#xea;" horiz-adv-x="1144" 
d="M1005 101q-40 -29 -91 -51.5t-103.5 -38t-101.5 -23.5t-84 -8q-132 0 -230.5 44t-163.5 123.5t-97.5 189t-32.5 241.5q0 119 31.5 229.5t93.5 195.5t154 136t214 51q114 0 200.5 -34.5t145.5 -99.5t89 -159t30 -213q0 -32 -2 -61.5t-6 -55.5h-760q0 -125 24 -211t69 -139
t110 -76.5t147 -23.5q48 0 88 7.5t75.5 22t69 36.5t69.5 51zM891 717q0 80 -20 142.5t-56 105.5t-85.5 65.5t-108.5 22.5q-79 0 -138 -29t-99.5 -79t-63 -117.5t-29.5 -145.5h600v35zM629 1843l292 -501l-128 -78l-212 377l-212 -377l-128 78l292 501h96z" />
    <glyph glyph-name="edieresis" unicode="&#xeb;" horiz-adv-x="1144" 
d="M1005 101q-40 -29 -91 -51.5t-103.5 -38t-101.5 -23.5t-84 -8q-132 0 -230.5 44t-163.5 123.5t-97.5 189t-32.5 241.5q0 119 31.5 229.5t93.5 195.5t154 136t214 51q114 0 200.5 -34.5t145.5 -99.5t89 -159t30 -213q0 -32 -2 -61.5t-6 -55.5h-760q0 -125 24 -211t69 -139
t110 -76.5t147 -23.5q48 0 88 7.5t75.5 22t69 36.5t69.5 51zM891 717q0 80 -20 142.5t-56 105.5t-85.5 65.5t-108.5 22.5q-79 0 -138 -29t-99.5 -79t-63 -117.5t-29.5 -145.5h600v35zM224 1395q0 23 8 44t23 36.5t35.5 25.5t45.5 9q25 0 45.5 -9.5t35.5 -25t23 -36.5t8 -44
t-8 -44t-23 -37t-35.5 -25t-45.5 -9t-45.5 9t-35.5 25t-23 37t-8 44zM713 1395q0 23 8 44t23 36.5t35.5 25.5t45.5 9q25 0 45.5 -9.5t35.5 -25t23 -36.5t8 -44t-8 -44t-23 -37t-35.5 -25t-45.5 -9t-45.5 9t-35.5 25t-23 37t-8 44z" />
    <glyph glyph-name="igrave" unicode="&#xec;" horiz-adv-x="540" 
d="M-116 1936l242 89l153 -618l-67 -26zM177 0v1169h182v-1169h-182z" />
    <glyph glyph-name="iacute" unicode="&#xed;" horiz-adv-x="540" 
d="M67 1406l159 611l232 -91l-334 -546zM177 0v1169h182v-1169h-182z" />
    <glyph glyph-name="icircumflex" unicode="&#xee;" horiz-adv-x="540" 
d="M321 1982l292 -501l-128 -78l-212 377l-212 -377l-128 78l292 501h96zM177 0v1169h182v-1169h-182z" />
    <glyph glyph-name="idieresis" unicode="&#xef;" horiz-adv-x="540" 
d="M-120 1500q0 23 8 44t23 36.5t35.5 25.5t45.5 9q25 0 45.5 -9.5t35.5 -25t23 -36.5t8 -44t-8 -44t-23 -37t-35.5 -25t-45.5 -9t-45.5 9t-35.5 25t-23 37t-8 44zM369 1500q0 23 8 44t23 36.5t35.5 25.5t45.5 9q25 0 45.5 -9.5t35.5 -25t23 -36.5t8 -44t-8 -44t-23 -37
t-35.5 -25t-45.5 -9t-45.5 9t-35.5 25t-23 37t-8 44zM177 0v1169h182v-1169h-182z" />
    <glyph glyph-name="eth" unicode="&#xf0;" horiz-adv-x="1246" 
d="M1118 690q0 -710 -533 -710q-129 0 -220.5 49t-150 132t-86 192.5t-27.5 230.5q0 124 29.5 234t87.5 192.5t144.5 131t200.5 48.5q58 0 113.5 -14.5t103.5 -37.5t86.5 -52t61.5 -58q-29 88 -83 176t-126 176l-235 -69l-42 90l203 60q-54 54 -108.5 98.5t-112.5 81.5
l84 102q66 -37 139.5 -93t155.5 -142l287 85l42 -90l-260 -77q56 -73 101.5 -153.5t77.5 -171t49.5 -193t17.5 -218.5zM283 587q0 -464 298 -464q85 0 150.5 27.5t110.5 91t68.5 167.5t23.5 257q0 76 -15.5 134t-42 100t-60 70.5t-70 45.5t-72.5 24t-67 7q-38 0 -77 -6
t-75 -23.5t-67.5 -49t-54.5 -82.5t-36.5 -124.5t-13.5 -174.5z" />
    <glyph glyph-name="ntilde" unicode="&#xf1;" horiz-adv-x="1267" 
d="M308 982q30 37 80 74t109.5 67t124 48.5t123.5 18.5q105 0 177.5 -31.5t118.5 -91t66.5 -145.5t20.5 -195v-727h-190v727q0 76 -12 136.5t-39 102.5t-70 64.5t-106 22.5q-48 0 -105 -19t-110 -46t-97 -57t-65 -51v-880h-190v1169h140zM825 1287q-56 0 -108 18.5t-97.5 41
t-83 41t-64.5 18.5q-30 0 -44.5 -24.5t-14.5 -90.5h-156q0 260 201 260q57 0 104.5 -20t97.5 -49q38 -22 72.5 -39t69.5 -17q59 0 59 111h156q0 -57 -13.5 -103t-38.5 -78.5t-60.5 -50.5t-79.5 -18z" />
    <glyph glyph-name="ograve" unicode="&#xf2;" 
d="M633 95q72 0 125.5 20.5t92 56t63.5 82.5t40 99.5t21 107.5t6 106t-6 105.5t-21 107t-40 99.5t-63.5 82.5t-92.5 56t-125 20.5t-124.5 -21t-92 -56.5t-64 -82.5t-40.5 -99t-21 -107t-6 -105q0 -51 6 -105.5t21 -107t40.5 -99.5t64 -82.5t92 -56.5t124.5 -21zM1162 570
q0 -70 -10 -142.5t-34 -140.5t-63.5 -127t-98 -103t-139 -69.5t-185.5 -25.5t-185.5 25.5t-139 69.5t-98 103t-63.5 127t-34 140t-10 143t10 143.5t34 140t63.5 126.5t98 103t139 69t185.5 25t185.5 -25t139 -69t98 -103t63.5 -126.5t34 -140t10 -143.5zM335 1825l242 89
l153 -618l-67 -26z" />
    <glyph glyph-name="oacute" unicode="&#xf3;" 
d="M633 95q72 0 125.5 20.5t92 56t63.5 82.5t40 99.5t21 107.5t6 106t-6 105.5t-21 107t-40 99.5t-63.5 82.5t-92.5 56t-125 20.5t-124.5 -21t-92 -56.5t-64 -82.5t-40.5 -99t-21 -107t-6 -105q0 -51 6 -105.5t21 -107t40.5 -99.5t64 -82.5t92 -56.5t124.5 -21zM1162 570
q0 -70 -10 -142.5t-34 -140.5t-63.5 -127t-98 -103t-139 -69.5t-185.5 -25.5t-185.5 25.5t-139 69.5t-98 103t-63.5 127t-34 140t-10 143t10 143.5t34 140t63.5 126.5t98 103t139 69t185.5 25t185.5 -25t139 -69t98 -103t63.5 -126.5t34 -140t10 -143.5zM572 1307l159 611
l232 -91l-334 -546z" />
    <glyph glyph-name="ocircumflex" unicode="&#xf4;" 
d="M633 95q72 0 125.5 20.5t92 56t63.5 82.5t40 99.5t21 107.5t6 106t-6 105.5t-21 107t-40 99.5t-63.5 82.5t-92.5 56t-125 20.5t-124.5 -21t-92 -56.5t-64 -82.5t-40.5 -99t-21 -107t-6 -105q0 -51 6 -105.5t21 -107t40.5 -99.5t64 -82.5t92 -56.5t124.5 -21zM1162 570
q0 -70 -10 -142.5t-34 -140.5t-63.5 -127t-98 -103t-139 -69.5t-185.5 -25.5t-185.5 25.5t-139 69.5t-98 103t-63.5 127t-34 140t-10 143t10 143.5t34 140t63.5 126.5t98 103t139 69t185.5 25t185.5 -25t139 -69t98 -103t63.5 -126.5t34 -140t10 -143.5zM681 1843l292 -501
l-128 -78l-212 377l-212 -377l-128 78l292 501h96z" />
    <glyph glyph-name="otilde" unicode="&#xf5;" 
d="M633 95q72 0 125.5 20.5t92 56t63.5 82.5t40 99.5t21 107.5t6 106t-6 105.5t-21 107t-40 99.5t-63.5 82.5t-92.5 56t-125 20.5t-124.5 -21t-92 -56.5t-64 -82.5t-40.5 -99t-21 -107t-6 -105q0 -51 6 -105.5t21 -107t40.5 -99.5t64 -82.5t92 -56.5t124.5 -21zM1162 570
q0 -70 -10 -142.5t-34 -140.5t-63.5 -127t-98 -103t-139 -69.5t-185.5 -25.5t-185.5 25.5t-139 69.5t-98 103t-63.5 127t-34 140t-10 143t10 143.5t34 140t63.5 126.5t98 103t139 69t185.5 25t185.5 -25t139 -69t98 -103t63.5 -126.5t34 -140t10 -143.5zM821 1287
q-56 0 -108 18.5t-97.5 41t-83 41t-64.5 18.5q-30 0 -44.5 -24.5t-14.5 -90.5h-156q0 260 201 260q57 0 104.5 -20t97.5 -49q38 -22 72.5 -39t69.5 -17q59 0 59 111h156q0 -57 -13.5 -103t-38.5 -78.5t-60.5 -50.5t-79.5 -18z" />
    <glyph glyph-name="odieresis" unicode="&#xf6;" 
d="M633 95q72 0 125.5 20.5t92 56t63.5 82.5t40 99.5t21 107.5t6 106t-6 105.5t-21 107t-40 99.5t-63.5 82.5t-92.5 56t-125 20.5t-124.5 -21t-92 -56.5t-64 -82.5t-40.5 -99t-21 -107t-6 -105q0 -51 6 -105.5t21 -107t40.5 -99.5t64 -82.5t92 -56.5t124.5 -21zM1162 570
q0 -70 -10 -142.5t-34 -140.5t-63.5 -127t-98 -103t-139 -69.5t-185.5 -25.5t-185.5 25.5t-139 69.5t-98 103t-63.5 127t-34 140t-10 143t10 143.5t34 140t63.5 126.5t98 103t139 69t185.5 25t185.5 -25t139 -69t98 -103t63.5 -126.5t34 -140t10 -143.5zM276 1395q0 23 8 44
t23 36.5t35.5 25.5t45.5 9q25 0 45.5 -9.5t35.5 -25t23 -36.5t8 -44t-8 -44t-23 -37t-35.5 -25t-45.5 -9t-45.5 9t-35.5 25t-23 37t-8 44zM765 1395q0 23 8 44t23 36.5t35.5 25.5t45.5 9q25 0 45.5 -9.5t35.5 -25t23 -36.5t8 -44t-8 -44t-23 -37t-35.5 -25t-45.5 -9t-45.5 9
t-35.5 25t-23 37t-8 44z" />
    <glyph glyph-name="divide" unicode="&#xf7;" horiz-adv-x="1068" 
d="M451 835q0 23 8 44t23 36.5t35.5 25t45.5 9.5q48 0 78 -33.5t30 -81.5t-30 -81.5t-78 -33.5q-25 0 -45.5 9t-35.5 25t-23 37t-8 44zM449 300q0 23 8 44t23 36.5t35.5 25t45.5 9.5q48 0 78 -33.5t30 -81.5t-30 -81.5t-78 -33.5q-25 0 -45.5 9t-35.5 25t-23 37t-8 44z
M224 508v131h682v-131h-682z" />
    <glyph glyph-name="oslash" unicode="&#xf8;" horiz-adv-x="1263" 
d="M742 1035q-45 16 -111 16q-102 0 -169 -40t-106.5 -106t-56 -150.5t-16.5 -172.5q0 -138 37 -245.5t123 -167.5zM415 -198l-88 30l67 196q-74 35 -128.5 89.5t-91.5 125.5t-55 156.5t-18 182.5q0 121 31.5 231.5t96.5 194t165 133t237 49.5q81 0 158 -20l67 195l81 -30
l-67 -195q76 -39 131 -96.5t91 -129t53 -155.5t17 -177q0 -124 -31.5 -233.5t-97 -191.5t-165.5 -129.5t-237 -47.5q-81 0 -150 18zM631 117q96 0 162.5 36.5t108 99.5t59.5 147.5t18 181.5q0 136 -37 244.5t-121 169.5l-295 -866q42 -13 105 -13z" />
    <glyph glyph-name="ugrave" unicode="&#xf9;" horiz-adv-x="1241" 
d="M324 442q0 -87 15.5 -148.5t45 -100.5t72.5 -57.5t99 -18.5q47 0 91 8t87 27t86 48.5t90 73.5v895h190v-1169h-141l-27 176q-28 -31 -65.5 -65.5t-84.5 -63.5t-104 -48t-124 -19q-100 0 -178 26t-132 82t-82 143.5t-28 210.5v727h190v-727zM320 1825l242 89l153 -618
l-67 -26z" />
    <glyph glyph-name="uacute" unicode="&#xfa;" horiz-adv-x="1241" 
d="M324 442q0 -87 15.5 -148.5t45 -100.5t72.5 -57.5t99 -18.5q47 0 91 8t87 27t86 48.5t90 73.5v895h190v-1169h-141l-27 176q-28 -31 -65.5 -65.5t-84.5 -63.5t-104 -48t-124 -19q-100 0 -178 26t-132 82t-82 143.5t-28 210.5v727h190v-727zM557 1307l159 611l232 -91
l-334 -546z" />
    <glyph glyph-name="ucircumflex" unicode="&#xfb;" horiz-adv-x="1241" 
d="M324 442q0 -87 15.5 -148.5t45 -100.5t72.5 -57.5t99 -18.5q47 0 91 8t87 27t86 48.5t90 73.5v895h190v-1169h-141l-27 176q-28 -31 -65.5 -65.5t-84.5 -63.5t-104 -48t-124 -19q-100 0 -178 26t-132 82t-82 143.5t-28 210.5v727h190v-727zM666 1843l292 -501l-128 -78
l-212 377l-212 -377l-128 78l292 501h96z" />
    <glyph glyph-name="udieresis" unicode="&#xfc;" horiz-adv-x="1241" 
d="M324 442q0 -87 15.5 -148.5t45 -100.5t72.5 -57.5t99 -18.5q47 0 91 8t87 27t86 48.5t90 73.5v895h190v-1169h-141l-27 176q-28 -31 -65.5 -65.5t-84.5 -63.5t-104 -48t-124 -19q-100 0 -178 26t-132 82t-82 143.5t-28 210.5v727h190v-727zM261 1395q0 23 8 44t23 36.5
t35.5 25.5t45.5 9q25 0 45.5 -9.5t35.5 -25t23 -36.5t8 -44t-8 -44t-23 -37t-35.5 -25t-45.5 -9t-45.5 9t-35.5 25t-23 37t-8 44zM750 1395q0 23 8 44t23 36.5t35.5 25.5t45.5 9q25 0 45.5 -9.5t35.5 -25t23 -36.5t8 -44t-8 -44t-23 -37t-35.5 -25t-45.5 -9t-45.5 9
t-35.5 25t-23 37t-8 44z" />
    <glyph glyph-name="yacute" unicode="&#xfd;" horiz-adv-x="1123" 
d="M45 1169h182l355 -920l301 920h195l-437 -1206q-28 -77 -61.5 -136.5t-69.5 -103.5t-72 -75t-70 -51q-79 -48 -161 -56l-51 125q59 14 110 37.5t93 64.5t76.5 103t60.5 152zM501 1307l159 611l232 -91l-334 -546z" />
    <glyph glyph-name="thorn" unicode="&#xfe;" horiz-adv-x="1259" 
d="M976 543q0 54 -4 112t-15.5 114t-31.5 106.5t-52 88.5t-77 60.5t-107 22.5q-60 0 -115 -19t-101.5 -45t-82 -52t-56.5 -41v-646q31 -26 73.5 -48t90.5 -38.5t99 -25.5t100 -9q54 0 96 18.5t73 49.5t52 73t34 88.5t18.5 95.5t5.5 95zM689 -20q-249 0 -359 137v-582
l-186 -22v2052h184v-561q32 40 72 74t86.5 59t97.5 39t105 14q85 0 152.5 -24t119.5 -66t89.5 -100t61.5 -125t35 -141.5t11 -149.5q0 -116 -27 -224.5t-84 -193t-146 -135.5t-212 -51z" />
    <glyph glyph-name="ydieresis" unicode="&#xff;" horiz-adv-x="1123" 
d="M45 1169h182l355 -920l301 920h195l-437 -1206q-28 -77 -61.5 -136.5t-69.5 -103.5t-72 -75t-70 -51q-79 -48 -161 -56l-51 125q59 14 110 37.5t93 64.5t76.5 103t60.5 152zM205 1395q0 23 8 44t23 36.5t35.5 25.5t45.5 9q25 0 45.5 -9.5t35.5 -25t23 -36.5t8 -44t-8 -44
t-23 -37t-35.5 -25t-45.5 -9t-45.5 9t-35.5 25t-23 37t-8 44zM694 1395q0 23 8 44t23 36.5t35.5 25.5t45.5 9q25 0 45.5 -9.5t35.5 -25t23 -36.5t8 -44t-8 -44t-23 -37t-35.5 -25t-45.5 -9t-45.5 9t-35.5 25t-23 37t-8 44z" />
    <glyph glyph-name="Abreve" unicode="&#x102;" horiz-adv-x="1458" 
d="M879 1579l516 -1579h-199l-123 383h-688l-123 -383h-199l516 1579h300zM412 485h634l-317 971zM989 1923q0 -111 -61.5 -175t-196.5 -64q-69 0 -118.5 17.5t-81.5 49.5t-47 75.5t-15 96.5h117q0 -60 39.5 -94.5t105.5 -34.5t103.5 34.5t37.5 94.5h117z" />
    <glyph glyph-name="abreve" unicode="&#x103;" horiz-adv-x="1200" 
d="M610 1053q-45 0 -94.5 -8t-98 -23.5t-94 -38t-82.5 -51.5l-68 132q57 31 106 54.5t99.5 39.5t106 24t125.5 8q151 0 241.5 -33t138 -102t62 -176t14.5 -255v-624h-140l-28 178q-74 -104 -176 -151t-229 -47q-90 0 -162.5 23t-123.5 68.5t-78.5 113.5t-27.5 158
q0 87 33 156t89 117t130 73.5t156 25.5t149.5 -8t116 -17.5t75.5 -17.5l26 -7q0 103 -4 177t-29 120.5t-79 68.5t-154 22zM540 117q91 0 172.5 39t163.5 115v298q-42 6 -82 10q-35 4 -75 7.5t-75 3.5q-72 0 -136 -7.5t-112 -32.5t-76 -72t-28 -125q0 -70 18 -115.5
t50.5 -72.5t78 -37.5t101.5 -10.5zM843 1488q0 -111 -61.5 -175t-196.5 -64q-69 0 -118.5 17.5t-81.5 49.5t-47 75.5t-15 96.5h117q0 -60 39.5 -94.5t105.5 -34.5t103.5 34.5t37.5 94.5h117z" />
    <glyph glyph-name="Cacute" unicode="&#x106;" horiz-adv-x="1273" 
d="M304 768q0 -155 27.5 -277t84.5 -207t146 -130t212 -45q78 0 147.5 17t122.5 37q62 24 113 55l56 -139q-60 -34 -130 -60q-60 -23 -139.5 -41.5t-170.5 -18.5q-172 0 -298 56t-208.5 160.5t-123 254t-40.5 337.5q0 91 14 188.5t46 191.5t83.5 178t127 147.5t176 100.5
t231.5 37q87 0 161 -12.5t128 -27.5q63 -18 115 -40l-45 -145q-45 20 -100 36q-48 14 -111.5 25.5t-140.5 11.5q-128 0 -220 -52t-150.5 -144t-86 -218.5t-27.5 -275.5zM721 1742l159 611l232 -91l-334 -546z" />
    <glyph glyph-name="cacute" unicode="&#x107;" horiz-adv-x="1071" 
d="M609 -20q-114 0 -207.5 39.5t-160 116t-103.5 188t-37 256.5q0 124 33.5 234.5t98.5 194t160.5 132.5t218.5 49q111 0 209 -32.5t179 -89.5l-57 -133q-25 25 -61 46.5t-77 37.5t-84.5 25t-82.5 9q-112 -10 -180.5 -48.5t-105.5 -101.5t-49 -147t-12 -184
q0 -113 22.5 -198.5t64 -142.5t100 -85.5t131.5 -28.5q60 0 106.5 8.5t85.5 25t73 40.5t69 54l57 -134q-35 -24 -75.5 -47.5t-89 -42t-105 -30t-121.5 -11.5zM490 1307l159 611l232 -91l-334 -546z" />
    <glyph glyph-name="ccaron" unicode="&#x10d;" horiz-adv-x="1071" 
d="M609 -20q-114 0 -207.5 39.5t-160 116t-103.5 188t-37 256.5q0 124 33.5 234.5t98.5 194t160.5 132.5t218.5 49q111 0 209 -32.5t179 -89.5l-57 -133q-25 25 -61 46.5t-77 37.5t-84.5 25t-82.5 9q-112 -10 -180.5 -48.5t-105.5 -101.5t-49 -147t-12 -184
q0 -113 22.5 -198.5t64 -142.5t100 -85.5t131.5 -28.5q60 0 106.5 8.5t85.5 25t73 40.5t69 54l57 -134q-35 -24 -75.5 -47.5t-89 -42t-105 -30t-121.5 -11.5zM503 1241l-292 501l128 78l212 -377l212 377l128 -78l-292 -501h-96z" />
    <glyph glyph-name="Ebreve" unicode="&#x114;" horiz-adv-x="1192" 
d="M153 0v1579h970v-143h-776v-545h678v-115h-678v-633h789v-143h-983zM904 1923q0 -111 -61.5 -175t-196.5 -64q-69 0 -118.5 17.5t-81.5 49.5t-47 75.5t-15 96.5h117q0 -60 39.5 -94.5t105.5 -34.5t103.5 34.5t37.5 94.5h117z" />
    <glyph glyph-name="ebreve" unicode="&#x115;" horiz-adv-x="1144" 
d="M1005 101q-40 -29 -91 -51.5t-103.5 -38t-101.5 -23.5t-84 -8q-132 0 -230.5 44t-163.5 123.5t-97.5 189t-32.5 241.5q0 119 31.5 229.5t93.5 195.5t154 136t214 51q114 0 200.5 -34.5t145.5 -99.5t89 -159t30 -213q0 -32 -2 -61.5t-6 -55.5h-760q0 -125 24 -211t69 -139
t110 -76.5t147 -23.5q48 0 88 7.5t75.5 22t69 36.5t69.5 51zM891 717q0 80 -20 142.5t-56 105.5t-85.5 65.5t-108.5 22.5q-79 0 -138 -29t-99.5 -79t-63 -117.5t-29.5 -145.5h600v35zM840 1488q0 -111 -61.5 -175t-196.5 -64q-69 0 -118.5 17.5t-81.5 49.5t-47 75.5
t-15 96.5h117q0 -60 39.5 -94.5t105.5 -34.5t103.5 34.5t37.5 94.5h117z" />
    <glyph glyph-name="Ecaron" unicode="&#x11a;" horiz-adv-x="1192" 
d="M153 0v1579h970v-143h-776v-545h678v-115h-678v-633h789v-143h-983zM597 1676l-292 501l128 78l212 -377l212 377l128 -78l-292 -501h-96z" />
    <glyph glyph-name="ecaron" unicode="&#x11b;" horiz-adv-x="1144" 
d="M1005 101q-40 -29 -91 -51.5t-103.5 -38t-101.5 -23.5t-84 -8q-132 0 -230.5 44t-163.5 123.5t-97.5 189t-32.5 241.5q0 119 31.5 229.5t93.5 195.5t154 136t214 51q114 0 200.5 -34.5t145.5 -99.5t89 -159t30 -213q0 -32 -2 -61.5t-6 -55.5h-760q0 -125 24 -211t69 -139
t110 -76.5t147 -23.5q48 0 88 7.5t75.5 22t69 36.5t69.5 51zM891 717q0 80 -20 142.5t-56 105.5t-85.5 65.5t-108.5 22.5q-79 0 -138 -29t-99.5 -79t-63 -117.5t-29.5 -145.5h600v35zM533 1241l-292 501l128 78l212 -377l212 377l128 -78l-292 -501h-96z" />
    <glyph glyph-name="gcircumflex" unicode="&#x11d;" horiz-adv-x="1257" 
d="M573 -277q103 0 184 5t136.5 26t84.5 63.5t29 116.5q0 66 -27.5 104.5t-79 58.5t-125 25.5t-164.5 5.5q-46 0 -96.5 -0.5t-104.5 -0.5q-21 -16 -42 -36t-37.5 -44t-27 -51.5t-10.5 -59.5q0 -59 14 -99.5t46.5 -66t86 -36.5t133.5 -11zM629 589q55 12 99 27t74.5 43.5
t46.5 76t16 124.5q0 56 -15.5 94t-47.5 61t-80.5 33t-113.5 10q-54 0 -102.5 -9t-84.5 -33t-57.5 -65.5t-21.5 -105.5q0 -47 15.5 -90t40 -79t55.5 -63t62 -42zM949 1025q38 -38 59.5 -76t21.5 -89q0 -80 -20 -144.5t-63 -112.5t-110.5 -81t-163.5 -50l-350 -64l19 -148h290
q141 0 243 -16.5t167 -55.5t96 -102t31 -156q0 -109 -44.5 -178.5t-125 -109t-192 -54.5t-245.5 -15q-93 0 -171.5 18.5t-135.5 58.5t-88.5 103t-31.5 152q0 49 17 88t44 68.5t61.5 49.5t70.5 31q-38 8 -63.5 23.5t-42.5 44t-27 73.5t-16 113q-1 3 -1 15q0 39 23.5 62.5
t55.5 37t66 20t55 11.5q-37 11 -72.5 39t-63 69t-44.5 93t-17 111q0 78 29 140t84 105.5t135.5 67t182.5 23.5q81 0 150 -17t120 -59q38 19 63 30.5t52 18t63.5 8.5t96.5 2h30v-148h-238zM710 1843l292 -501l-128 -78l-212 377l-212 -377l-128 78l292 501h96z" />
    <glyph glyph-name="gbreve" unicode="&#x11f;" horiz-adv-x="1257" 
d="M573 -277q103 0 184 5t136.5 26t84.5 63.5t29 116.5q0 66 -27.5 104.5t-79 58.5t-125 25.5t-164.5 5.5q-46 0 -96.5 -0.5t-104.5 -0.5q-21 -16 -42 -36t-37.5 -44t-27 -51.5t-10.5 -59.5q0 -59 14 -99.5t46.5 -66t86 -36.5t133.5 -11zM629 589q55 12 99 27t74.5 43.5
t46.5 76t16 124.5q0 56 -15.5 94t-47.5 61t-80.5 33t-113.5 10q-54 0 -102.5 -9t-84.5 -33t-57.5 -65.5t-21.5 -105.5q0 -47 15.5 -90t40 -79t55.5 -63t62 -42zM949 1025q38 -38 59.5 -76t21.5 -89q0 -80 -20 -144.5t-63 -112.5t-110.5 -81t-163.5 -50l-350 -64l19 -148h290
q141 0 243 -16.5t167 -55.5t96 -102t31 -156q0 -109 -44.5 -178.5t-125 -109t-192 -54.5t-245.5 -15q-93 0 -171.5 18.5t-135.5 58.5t-88.5 103t-31.5 152q0 49 17 88t44 68.5t61.5 49.5t70.5 31q-38 8 -63.5 23.5t-42.5 44t-27 73.5t-16 113q-1 3 -1 15q0 39 23.5 62.5
t55.5 37t66 20t55 11.5q-37 11 -72.5 39t-63 69t-44.5 93t-17 111q0 78 29 140t84 105.5t135.5 67t182.5 23.5q81 0 150 -17t120 -59q38 19 63 30.5t52 18t63.5 8.5t96.5 2h30v-148h-238zM921 1488q0 -111 -61.5 -175t-196.5 -64q-69 0 -118.5 17.5t-81.5 49.5t-47 75.5
t-15 96.5h117q0 -60 39.5 -94.5t105.5 -34.5t103.5 34.5t37.5 94.5h117z" />
    <glyph glyph-name="Itilde" unicode="&#x128;" horiz-adv-x="781" 
d="M302 112v1349h-204v118h593v-118h-206v-1349h206v-112h-593v112h204zM583 1722q-56 0 -108 18.5t-97.5 41t-83 41t-64.5 18.5q-30 0 -44.5 -24.5t-14.5 -90.5h-156q0 260 201 260q57 0 104.5 -20t97.5 -49q38 -22 72.5 -39t69.5 -17q59 0 59 111h156q0 -57 -13.5 -103
t-38.5 -78.5t-60.5 -50.5t-79.5 -18z" />
    <glyph glyph-name="Ibreve" unicode="&#x12c;" horiz-adv-x="781" 
d="M302 112v1349h-204v118h593v-118h-206v-1349h206v-112h-593v112h204zM654 1923q0 -111 -61.5 -175t-196.5 -64q-69 0 -118.5 17.5t-81.5 49.5t-47 75.5t-15 96.5h117q0 -60 39.5 -94.5t105.5 -34.5t103.5 34.5t37.5 94.5h117z" />
    <glyph glyph-name="dotlessi" unicode="&#x131;" horiz-adv-x="540" 
d="M177 1169h182v-1169h-182v1169z" />
    <glyph glyph-name="Nacute" unicode="&#x143;" horiz-adv-x="1597" 
d="M1194 0l-847 1404v-1404h-194v1579h262l834 -1394v1394h194v-1579h-249zM738 1742l159 611l232 -91l-334 -546z" />
    <glyph glyph-name="nacute" unicode="&#x144;" horiz-adv-x="1267" 
d="M308 982q30 37 80 74t109.5 67t124 48.5t123.5 18.5q105 0 177.5 -31.5t118.5 -91t66.5 -145.5t20.5 -195v-727h-190v727q0 76 -12 136.5t-39 102.5t-70 64.5t-106 22.5q-48 0 -105 -19t-110 -46t-97 -57t-65 -51v-880h-190v1169h140zM576 1307l159 611l232 -91
l-334 -546z" />
    <glyph glyph-name="Obreve" unicode="&#x14e;" horiz-adv-x="1516" 
d="M1415 806q0 -110 -12 -215.5t-40.5 -200t-77 -174t-121.5 -137t-173.5 -90t-232.5 -32.5q-133 0 -234 33.5t-173.5 93.5t-120.5 142t-76.5 179t-40 204.5t-11.5 219.5q0 181 42.5 325.5t125.5 245.5t205.5 154.5t282.5 53.5q161 0 284 -54t206 -157t125 -252t42 -339z
M303 775q0 -336 116.5 -499.5t338.5 -163.5q104 0 188 35.5t143.5 114.5t91.5 205.5t32 307.5t-30 310.5t-87.5 212.5t-141 122t-189.5 39q-110 0 -196 -37.5t-145 -119.5t-90 -212t-31 -315zM1018 1923q0 -111 -61.5 -175t-196.5 -64q-69 0 -118.5 17.5t-81.5 49.5
t-47 75.5t-15 96.5h117q0 -60 39.5 -94.5t105.5 -34.5t103.5 34.5t37.5 94.5h117z" />
    <glyph glyph-name="obreve" unicode="&#x14f;" 
d="M633 95q72 0 125.5 20.5t92 56t63.5 82.5t40 99.5t21 107.5t6 106t-6 105.5t-21 107t-40 99.5t-63.5 82.5t-92.5 56t-125 20.5t-124.5 -21t-92 -56.5t-64 -82.5t-40.5 -99t-21 -107t-6 -105q0 -51 6 -105.5t21 -107t40.5 -99.5t64 -82.5t92 -56.5t124.5 -21zM1162 570
q0 -70 -10 -142.5t-34 -140.5t-63.5 -127t-98 -103t-139 -69.5t-185.5 -25.5t-185.5 25.5t-139 69.5t-98 103t-63.5 127t-34 140t-10 143t10 143.5t34 140t63.5 126.5t98 103t139 69t185.5 25t185.5 -25t139 -69t98 -103t63.5 -126.5t34 -140t10 -143.5zM892 1488
q0 -111 -61.5 -175t-196.5 -64q-69 0 -118.5 17.5t-81.5 49.5t-47 75.5t-15 96.5h117q0 -60 39.5 -94.5t105.5 -34.5t103.5 34.5t37.5 94.5h117z" />
    <glyph glyph-name="OE" unicode="&#x152;" horiz-adv-x="2257" 
d="M1218 0v1579h970v-143h-776v-545h678v-115h-678v-633h789v-143h-983zM1415 806q0 -110 -12 -215.5t-40.5 -200t-77 -174t-121.5 -137t-173.5 -90t-232.5 -32.5q-133 0 -234 33.5t-173.5 93.5t-120.5 142t-76.5 179t-40 204.5t-11.5 219.5q0 181 42.5 325.5t125.5 245.5
t205.5 154.5t282.5 53.5q161 0 284 -54t206 -157t125 -252t42 -339zM303 775q0 -336 116.5 -499.5t338.5 -163.5q104 0 188 35.5t143.5 114.5t91.5 205.5t32 307.5t-30 310.5t-87.5 212.5t-141 122t-189.5 39q-110 0 -196 -37.5t-145 -119.5t-90 -212t-31 -315z" />
    <glyph glyph-name="oe" unicode="&#x153;" horiz-adv-x="2025" 
d="M1772 682q0 179 -69.5 275t-200.5 96q-74 0 -132.5 -27t-100.5 -76t-66.5 -117.5t-30.5 -150.5h600zM633 97q103 0 170.5 42.5t107 110.5t55 151.5t15.5 166.5q0 55 -6.5 111.5t-22.5 108.5t-41.5 98t-64.5 80t-91.5 53.5t-121.5 19.5t-121.5 -19.5t-91.5 -53.5
t-64.5 -80t-41.5 -98t-22.5 -108.5t-6.5 -111.5t6.5 -111.5t22.5 -108.5t41.5 -98t64.5 -80t91.5 -53.5t121.5 -19.5zM1886 101q-40 -29 -91 -51.5t-103.5 -38t-101.5 -23.5t-84 -8q-95 0 -166.5 20.5t-123 56.5t-85.5 84t-53 102q-25 -77 -70.5 -131t-104.5 -87.5
t-128.5 -49t-141.5 -15.5q-133 0 -232.5 46t-166 127.5t-99.5 192.5t-33 242q0 66 9 136.5t32 138t61.5 128t97.5 106t140.5 72.5t190.5 27q163 0 275 -69.5t163 -218.5q54 149 153 225.5t251 76.5q110 0 196.5 -33t146 -97t91 -158.5t31.5 -217.5q0 -32 -2 -61.5t-6 -55.5
h-760q0 -126 24 -212t69.5 -139t110.5 -76t146 -23q47 0 87 7t76 21.5t69.5 36.5t69.5 52z" />
    <glyph glyph-name="Sacute" unicode="&#x15a;" 
d="M1172 418q0 -86 -28.5 -168t-95 -147t-175.5 -104.5t-269 -39.5q-88 0 -170 17.5t-146 38.5q-75 25 -141 57l20 150q59 -31 126 -56q57 -21 131 -38t153 -17t151 12.5t126 45.5t86 91t32 149q0 57 -17.5 103t-50.5 82.5t-79.5 64t-104.5 48.5l-284 100
q-68 24 -132.5 57.5t-114.5 81t-80.5 109.5t-30.5 143q0 111 38 189t106.5 127.5t163 72.5t208.5 23q73 0 140 -10.5t127.5 -28.5t113 -40.5t95.5 -46.5l-30 -147q-37 22 -84.5 43.5t-101.5 38.5t-112.5 28t-117.5 11q-93 0 -158.5 -14t-107 -44t-61 -77t-19.5 -113
q0 -157 193 -224l313 -109q78 -27 148.5 -67.5t124 -96.5t84.5 -129t31 -166zM565 1742l159 611l232 -91l-334 -546z" />
    <glyph glyph-name="sacute" unicode="&#x15b;" horiz-adv-x="992" 
d="M338 584q-51 18 -96 44.5t-78 63t-52 83.5t-19 106q0 78 32.5 136.5t86.5 96.5t123 57t143 19q66 0 128.5 -13t115 -32t91.5 -40.5t59 -37.5l-62 -126q-61 47 -142.5 79.5t-176.5 32.5q-59 0 -103.5 -13.5t-74.5 -36t-45 -51.5t-15 -61q0 -56 43.5 -91.5t120.5 -62.5
l168 -59q77 -27 139.5 -59t107 -74t69 -96t24.5 -124q0 -63 -21.5 -125t-70 -111t-126.5 -79.5t-192 -30.5q-78 0 -144.5 14t-118.5 33.5t-90 41t-59 36.5l63 127q22 -18 59.5 -38t83 -37t94.5 -28t94 -11q33 0 77.5 8t84 29t67 58t27.5 94q0 40 -14 70.5t-39.5 54
t-60.5 41.5t-77 33zM450 1307l159 611l232 -91l-334 -546z" />
    <glyph glyph-name="Scircumflex" unicode="&#x15c;" 
d="M1172 418q0 -86 -28.5 -168t-95 -147t-175.5 -104.5t-269 -39.5q-88 0 -170 17.5t-146 38.5q-75 25 -141 57l20 150q59 -31 126 -56q57 -21 131 -38t153 -17t151 12.5t126 45.5t86 91t32 149q0 57 -17.5 103t-50.5 82.5t-79.5 64t-104.5 48.5l-284 100
q-68 24 -132.5 57.5t-114.5 81t-80.5 109.5t-30.5 143q0 111 38 189t106.5 127.5t163 72.5t208.5 23q73 0 140 -10.5t127.5 -28.5t113 -40.5t95.5 -46.5l-30 -147q-37 22 -84.5 43.5t-101.5 38.5t-112.5 28t-117.5 11q-93 0 -158.5 -14t-107 -44t-61 -77t-19.5 -113
q0 -157 193 -224l313 -109q78 -27 148.5 -67.5t124 -96.5t84.5 -129t31 -166zM674 2278l292 -501l-128 -78l-212 377l-212 -377l-128 78l292 501h96z" />
    <glyph glyph-name="Scaron" unicode="&#x160;" 
d="M1172 418q0 -86 -28.5 -168t-95 -147t-175.5 -104.5t-269 -39.5q-88 0 -170 17.5t-146 38.5q-75 25 -141 57l20 150q59 -31 126 -56q57 -21 131 -38t153 -17t151 12.5t126 45.5t86 91t32 149q0 57 -17.5 103t-50.5 82.5t-79.5 64t-104.5 48.5l-284 100
q-68 24 -132.5 57.5t-114.5 81t-80.5 109.5t-30.5 143q0 111 38 189t106.5 127.5t163 72.5t208.5 23q73 0 140 -10.5t127.5 -28.5t113 -40.5t95.5 -46.5l-30 -147q-37 22 -84.5 43.5t-101.5 38.5t-112.5 28t-117.5 11q-93 0 -158.5 -14t-107 -44t-61 -77t-19.5 -113
q0 -157 193 -224l313 -109q78 -27 148.5 -67.5t124 -96.5t84.5 -129t31 -166zM578 1676l-292 501l128 78l212 -377l212 377l128 -78l-292 -501h-96z" />
    <glyph glyph-name="scaron" unicode="&#x161;" horiz-adv-x="1018" 
d="M339 584q-51 18 -96 44.5t-78 63t-52 83.5t-19 106q0 78 32.5 136.5t86.5 96.5t123 57t143 19q66 0 128.5 -13t115 -32t91.5 -40.5t59 -37.5l-62 -126q-61 47 -142.5 79.5t-176.5 32.5q-59 0 -103.5 -13.5t-74.5 -36t-45 -51.5t-15 -61q0 -56 43.5 -91.5t120.5 -62.5
l168 -59q77 -27 139.5 -59t107 -74t69 -96t24.5 -124q0 -63 -21.5 -125t-70 -111t-126.5 -79.5t-192 -30.5q-78 0 -144.5 14t-118.5 33.5t-90 41t-59 36.5l63 127q22 -18 59.5 -38t83 -37t94.5 -28t94 -11q33 0 77.5 8t84 29t67 58t27.5 94q0 40 -14 70.5t-39.5 54
t-60.5 41.5t-77 33zM441 1251l-292 501l128 78l212 -377l212 377l128 -78l-292 -501h-96z" />
    <glyph glyph-name="Utilde" unicode="&#x168;" horiz-adv-x="1533" 
d="M762 111q126 0 210 33.5t133.5 105.5t70 186t20.5 275v868h194v-864q0 -178 -34.5 -318.5t-108.5 -237.5t-192 -148.5t-284 -51.5q-178 0 -299.5 51.5t-196.5 149t-108 237.5t-33 318v864h194v-868q0 -161 25 -275t77.5 -186t135 -105.5t196.5 -33.5zM951 1722
q-56 0 -108 18.5t-97.5 41t-83 41t-64.5 18.5q-30 0 -44.5 -24.5t-14.5 -90.5h-156q0 260 201 260q57 0 104.5 -20t97.5 -49q38 -22 72.5 -39t69.5 -17q59 0 59 111h156q0 -57 -13.5 -103t-38.5 -78.5t-60.5 -50.5t-79.5 -18z" />
    <glyph glyph-name="utilde" unicode="&#x169;" horiz-adv-x="1241" 
d="M324 442q0 -87 15.5 -148.5t45 -100.5t72.5 -57.5t99 -18.5q47 0 91 8t87 27t86 48.5t90 73.5v895h190v-1169h-141l-27 176q-28 -31 -65.5 -65.5t-84.5 -63.5t-104 -48t-124 -19q-100 0 -178 26t-132 82t-82 143.5t-28 210.5v727h190v-727zM806 1287q-56 0 -108 18.5
t-97.5 41t-83 41t-64.5 18.5q-30 0 -44.5 -24.5t-14.5 -90.5h-156q0 260 201 260q57 0 104.5 -20t97.5 -49q38 -22 72.5 -39t69.5 -17q59 0 59 111h156q0 -57 -13.5 -103t-38.5 -78.5t-60.5 -50.5t-79.5 -18z" />
    <glyph glyph-name="Ubreve" unicode="&#x16c;" horiz-adv-x="1533" 
d="M762 111q126 0 210 33.5t133.5 105.5t70 186t20.5 275v868h194v-864q0 -178 -34.5 -318.5t-108.5 -237.5t-192 -148.5t-284 -51.5q-178 0 -299.5 51.5t-196.5 149t-108 237.5t-33 318v864h194v-868q0 -161 25 -275t77.5 -186t135 -105.5t196.5 -33.5zM1022 1923
q0 -111 -61.5 -175t-196.5 -64q-69 0 -118.5 17.5t-81.5 49.5t-47 75.5t-15 96.5h117q0 -60 39.5 -94.5t105.5 -34.5t103.5 34.5t37.5 94.5h117z" />
    <glyph glyph-name="ubreve" unicode="&#x16d;" horiz-adv-x="1241" 
d="M324 442q0 -87 15.5 -148.5t45 -100.5t72.5 -57.5t99 -18.5q47 0 91 8t87 27t86 48.5t90 73.5v895h190v-1169h-141l-27 176q-28 -31 -65.5 -65.5t-84.5 -63.5t-104 -48t-124 -19q-100 0 -178 26t-132 82t-82 143.5t-28 210.5v727h190v-727zM877 1488q0 -111 -61.5 -175
t-196.5 -64q-69 0 -118.5 17.5t-81.5 49.5t-47 75.5t-15 96.5h117q0 -60 39.5 -94.5t105.5 -34.5t103.5 34.5t37.5 94.5h117z" />
    <glyph glyph-name="Uring" unicode="&#x16e;" horiz-adv-x="1533" 
d="M762 111q126 0 210 33.5t133.5 105.5t70 186t20.5 275v868h194v-864q0 -178 -34.5 -318.5t-108.5 -237.5t-192 -148.5t-284 -51.5q-178 0 -299.5 51.5t-196.5 149t-108 237.5t-33 318v864h194v-868q0 -161 25 -275t77.5 -186t135 -105.5t196.5 -33.5zM619 1926
q0 -31 10.5 -58t30 -47.5t45.5 -32t58 -11.5t58.5 11.5t46 32t30.5 47.5t11 58t-11 58t-30.5 47.5t-46 32t-58.5 11.5t-58 -11.5t-45.5 -32t-30 -47.5t-10.5 -58zM764 2166q52 0 96.5 -18.5t77 -51t50.5 -76.5t18 -95q0 -50 -18 -93.5t-50.5 -76t-77 -51t-96.5 -18.5
q-53 0 -97.5 18.5t-77 51t-50.5 76t-18 93.5q0 51 18 95t50.5 76.5t77 51t97.5 18.5z" />
    <glyph glyph-name="uring" unicode="&#x16f;" horiz-adv-x="1241" 
d="M324 442q0 -87 15.5 -148.5t45 -100.5t72.5 -57.5t99 -18.5q47 0 91 8t87 27t86 48.5t90 73.5v895h190v-1169h-141l-27 176q-28 -31 -65.5 -65.5t-84.5 -63.5t-104 -48t-124 -19q-100 0 -178 26t-132 82t-82 143.5t-28 210.5v727h190v-727zM474 1491q0 -31 10.5 -58
t30 -47.5t45.5 -32t58 -11.5t58.5 11.5t46 32t30.5 47.5t11 58t-11 58t-30.5 47.5t-46 32t-58.5 11.5t-58 -11.5t-45.5 -32t-30 -47.5t-10.5 -58zM619 1731q52 0 96.5 -18.5t77 -51t50.5 -76.5t18 -95q0 -50 -18 -93.5t-50.5 -76t-77 -51t-96.5 -18.5q-53 0 -97.5 18.5
t-77 51t-50.5 76t-18 93.5q0 51 18 95t50.5 76.5t77 51t97.5 18.5z" />
    <glyph glyph-name="Ycircumflex" unicode="&#x176;" horiz-adv-x="1318" 
d="M1075 1579h191l-514 -1094v-485h-190v485l-514 1094h197l417 -902zM706 2278l292 -501l-128 -78l-212 377l-212 -377l-128 78l292 501h96z" />
    <glyph glyph-name="ycircumflex" unicode="&#x177;" horiz-adv-x="1123" 
d="M45 1169h182l355 -920l301 920h195l-437 -1206q-28 -77 -61.5 -136.5t-69.5 -103.5t-72 -75t-70 -51q-79 -48 -161 -56l-51 125q59 14 110 37.5t93 64.5t76.5 103t60.5 152zM610 1843l292 -501l-128 -78l-212 377l-212 -377l-128 78l292 501h96z" />
    <glyph glyph-name="Ydieresis" unicode="&#x178;" horiz-adv-x="1318" 
d="M1075 1579h191l-514 -1094v-485h-190v485l-514 1094h197l417 -902zM301 1830q0 23 8 44t23 36.5t35.5 25.5t45.5 9q25 0 45.5 -9.5t35.5 -25t23 -36.5t8 -44t-8 -44t-23 -37t-35.5 -25t-45.5 -9t-45.5 9t-35.5 25t-23 37t-8 44zM790 1830q0 23 8 44t23 36.5t35.5 25.5
t45.5 9q25 0 45.5 -9.5t35.5 -25t23 -36.5t8 -44t-8 -44t-23 -37t-35.5 -25t-45.5 -9t-45.5 9t-35.5 25t-23 37t-8 44z" />
    <glyph glyph-name="Zacute" unicode="&#x179;" horiz-adv-x="1244" 
d="M1142 1419l-833 -1276h835v-143h-1032v180l829 1256h-829v143h1030v-160zM568 1742l159 611l232 -91l-334 -546z" />
    <glyph glyph-name="Zcaron" unicode="&#x17d;" horiz-adv-x="1244" 
d="M1142 1419l-833 -1276h835v-143h-1032v180l829 1256h-829v143h1030v-160zM581 1676l-292 501l128 78l212 -377l212 377l128 -78l-292 -501h-96z" />
    <glyph glyph-name="zcaron" unicode="&#x17e;" horiz-adv-x="1024" 
d="M133 1035v134h772v-165l-626 -868h626v-136h-802v166l638 869h-608zM487 1230l-292 501l128 78l212 -377l212 377l128 -78l-292 -501h-96z" />
    <glyph glyph-name="florin" unicode="&#x192;" horiz-adv-x="747" 
d="M702 1516q-59 0 -92 -24.5t-51 -78.5t-26.5 -140.5t-18.5 -210.5h307l-10 -105h-307l-65 -741q-11 -126 -39 -213.5t-72 -142.5t-105 -80t-139 -25q-55 0 -102 12.5t-82 27.5q-40 18 -74 40l74 125q29 -18 59 -31q26 -12 56 -21.5t58 -9.5q35 0 63.5 9.5t49.5 32.5
t34.5 61.5t18.5 96.5l75 859h-233l10 105h233q15 164 38.5 277.5t65 184.5t105 103t158.5 32q55 0 102.5 -12.5t82.5 -27.5q40 -18 74 -40l-67 -121q-31 16 -63 29q-27 11 -58.5 20t-59.5 9z" />
    <glyph glyph-name="uni01CD" unicode="&#x1cd;" horiz-adv-x="1458" 
d="M879 1579l516 -1579h-199l-123 383h-688l-123 -383h-199l516 1579h300zM412 485h634l-317 971zM681 1676l-292 501l128 78l212 -377l212 377l128 -78l-292 -501h-96z" />
    <glyph glyph-name="uni01CE" unicode="&#x1ce;" horiz-adv-x="1200" 
d="M610 1053q-45 0 -94.5 -8t-98 -23.5t-94 -38t-82.5 -51.5l-68 132q57 31 106 54.5t99.5 39.5t106 24t125.5 8q151 0 241.5 -33t138 -102t62 -176t14.5 -255v-624h-140l-28 178q-74 -104 -176 -151t-229 -47q-90 0 -162.5 23t-123.5 68.5t-78.5 113.5t-27.5 158
q0 87 33 156t89 117t130 73.5t156 25.5t149.5 -8t116 -17.5t75.5 -17.5l26 -7q0 103 -4 177t-29 120.5t-79 68.5t-154 22zM540 117q91 0 172.5 39t163.5 115v298q-42 6 -82 10q-35 4 -75 7.5t-75 3.5q-72 0 -136 -7.5t-112 -32.5t-76 -72t-28 -125q0 -70 18 -115.5
t50.5 -72.5t78 -37.5t101.5 -10.5zM536 1241l-292 501l128 78l212 -377l212 377l128 -78l-292 -501h-96z" />
    <glyph glyph-name="uni01CF" unicode="&#x1cf;" horiz-adv-x="781" 
d="M302 112v1349h-204v118h593v-118h-206v-1349h206v-112h-593v112h204zM347 1676l-292 501l128 78l212 -377l212 377l128 -78l-292 -501h-96z" />
    <glyph glyph-name="uni01D1" unicode="&#x1d1;" horiz-adv-x="1516" 
d="M1415 806q0 -110 -12 -215.5t-40.5 -200t-77 -174t-121.5 -137t-173.5 -90t-232.5 -32.5q-133 0 -234 33.5t-173.5 93.5t-120.5 142t-76.5 179t-40 204.5t-11.5 219.5q0 181 42.5 325.5t125.5 245.5t205.5 154.5t282.5 53.5q161 0 284 -54t206 -157t125 -252t42 -339z
M303 775q0 -336 116.5 -499.5t338.5 -163.5q104 0 188 35.5t143.5 114.5t91.5 205.5t32 307.5t-30 310.5t-87.5 212.5t-141 122t-189.5 39q-110 0 -196 -37.5t-145 -119.5t-90 -212t-31 -315zM710 1676l-292 501l128 78l212 -377l212 377l128 -78l-292 -501h-96z" />
    <glyph glyph-name="uni01D2" unicode="&#x1d2;" 
d="M633 95q72 0 125.5 20.5t92 56t63.5 82.5t40 99.5t21 107.5t6 106t-6 105.5t-21 107t-40 99.5t-63.5 82.5t-92.5 56t-125 20.5t-124.5 -21t-92 -56.5t-64 -82.5t-40.5 -99t-21 -107t-6 -105q0 -51 6 -105.5t21 -107t40.5 -99.5t64 -82.5t92 -56.5t124.5 -21zM1162 570
q0 -70 -10 -142.5t-34 -140.5t-63.5 -127t-98 -103t-139 -69.5t-185.5 -25.5t-185.5 25.5t-139 69.5t-98 103t-63.5 127t-34 140t-10 143t10 143.5t34 140t63.5 126.5t98 103t139 69t185.5 25t185.5 -25t139 -69t98 -103t63.5 -126.5t34 -140t10 -143.5zM585 1241l-292 501
l128 78l212 -377l212 377l128 -78l-292 -501h-96z" />
    <glyph glyph-name="uni01D3" unicode="&#x1d3;" horiz-adv-x="1533" 
d="M762 111q126 0 210 33.5t133.5 105.5t70 186t20.5 275v868h194v-864q0 -178 -34.5 -318.5t-108.5 -237.5t-192 -148.5t-284 -51.5q-178 0 -299.5 51.5t-196.5 149t-108 237.5t-33 318v864h194v-868q0 -161 25 -275t77.5 -186t135 -105.5t196.5 -33.5zM714 1676l-292 501
l128 78l212 -377l212 377l128 -78l-292 -501h-96z" />
    <glyph glyph-name="uni01D4" unicode="&#x1d4;" horiz-adv-x="1241" 
d="M324 442q0 -87 15.5 -148.5t45 -100.5t72.5 -57.5t99 -18.5q47 0 91 8t87 27t86 48.5t90 73.5v895h190v-1169h-141l-27 176q-28 -31 -65.5 -65.5t-84.5 -63.5t-104 -48t-124 -19q-100 0 -178 26t-132 82t-82 143.5t-28 210.5v727h190v-727zM570 1241l-292 501l128 78
l212 -377l212 377l128 -78l-292 -501h-96z" />
    <glyph glyph-name="gcaron" unicode="&#x1e7;" horiz-adv-x="1257" 
d="M573 -277q103 0 184 5t136.5 26t84.5 63.5t29 116.5q0 66 -27.5 104.5t-79 58.5t-125 25.5t-164.5 5.5q-46 0 -96.5 -0.5t-104.5 -0.5q-21 -16 -42 -36t-37.5 -44t-27 -51.5t-10.5 -59.5q0 -59 14 -99.5t46.5 -66t86 -36.5t133.5 -11zM629 589q55 12 99 27t74.5 43.5
t46.5 76t16 124.5q0 56 -15.5 94t-47.5 61t-80.5 33t-113.5 10q-54 0 -102.5 -9t-84.5 -33t-57.5 -65.5t-21.5 -105.5q0 -47 15.5 -90t40 -79t55.5 -63t62 -42zM949 1025q38 -38 59.5 -76t21.5 -89q0 -80 -20 -144.5t-63 -112.5t-110.5 -81t-163.5 -50l-350 -64l19 -148h290
q141 0 243 -16.5t167 -55.5t96 -102t31 -156q0 -109 -44.5 -178.5t-125 -109t-192 -54.5t-245.5 -15q-93 0 -171.5 18.5t-135.5 58.5t-88.5 103t-31.5 152q0 49 17 88t44 68.5t61.5 49.5t70.5 31q-38 8 -63.5 23.5t-42.5 44t-27 73.5t-16 113q-1 3 -1 15q0 39 23.5 62.5
t55.5 37t66 20t55 11.5q-37 11 -72.5 39t-63 69t-44.5 93t-17 111q0 78 29 140t84 105.5t135.5 67t182.5 23.5q81 0 150 -17t120 -59q38 19 63 30.5t52 18t63.5 8.5t96.5 2h30v-148h-238zM614 1241l-292 501l128 78l212 -377l212 377l128 -78l-292 -501h-96z" />
    <glyph glyph-name="uni01F5" unicode="&#x1f5;" horiz-adv-x="1257" 
d="M573 -277q103 0 184 5t136.5 26t84.5 63.5t29 116.5q0 66 -27.5 104.5t-79 58.5t-125 25.5t-164.5 5.5q-46 0 -96.5 -0.5t-104.5 -0.5q-21 -16 -42 -36t-37.5 -44t-27 -51.5t-10.5 -59.5q0 -59 14 -99.5t46.5 -66t86 -36.5t133.5 -11zM629 589q55 12 99 27t74.5 43.5
t46.5 76t16 124.5q0 56 -15.5 94t-47.5 61t-80.5 33t-113.5 10q-54 0 -102.5 -9t-84.5 -33t-57.5 -65.5t-21.5 -105.5q0 -47 15.5 -90t40 -79t55.5 -63t62 -42zM949 1025q38 -38 59.5 -76t21.5 -89q0 -80 -20 -144.5t-63 -112.5t-110.5 -81t-163.5 -50l-350 -64l19 -148h290
q141 0 243 -16.5t167 -55.5t96 -102t31 -156q0 -109 -44.5 -178.5t-125 -109t-192 -54.5t-245.5 -15q-93 0 -171.5 18.5t-135.5 58.5t-88.5 103t-31.5 152q0 49 17 88t44 68.5t61.5 49.5t70.5 31q-38 8 -63.5 23.5t-42.5 44t-27 73.5t-16 113q-1 3 -1 15q0 39 23.5 62.5
t55.5 37t66 20t55 11.5q-37 11 -72.5 39t-63 69t-44.5 93t-17 111q0 78 29 140t84 105.5t135.5 67t182.5 23.5q81 0 150 -17t120 -59q38 19 63 30.5t52 18t63.5 8.5t96.5 2h30v-148h-238zM601 1307l159 611l232 -91l-334 -546z" />
    <glyph glyph-name="circumflex" unicode="&#x2c6;" horiz-adv-x="1428" 
d="M762 663l292 -501l-128 -78l-212 377l-212 -377l-128 78l292 501h96z" />
    <glyph glyph-name="caron" unicode="&#x2c7;" horiz-adv-x="1428" 
d="M666 61l-292 501l128 78l212 -377l212 377l128 -78l-292 -501h-96z" />
    <glyph glyph-name="breve" unicode="&#x2d8;" horiz-adv-x="780" 
d="M643 308q0 -111 -61.5 -175t-196.5 -64q-69 0 -118.5 17.5t-81.5 49.5t-47 75.5t-15 96.5h117q0 -60 39.5 -94.5t105.5 -34.5t103.5 34.5t37.5 94.5h117z" />
    <glyph glyph-name="ring" unicode="&#x2da;" horiz-adv-x="1707" 
d="M709 311q0 -31 10.5 -58t30 -47.5t45.5 -32t58 -11.5t58.5 11.5t46 32t30.5 47.5t11 58t-11 58t-30.5 47.5t-46 32t-58.5 11.5t-58 -11.5t-45.5 -32t-30 -47.5t-10.5 -58zM854 551q52 0 96.5 -18.5t77 -51t50.5 -76.5t18 -95q0 -50 -18 -93.5t-50.5 -76t-77 -51
t-96.5 -18.5q-53 0 -97.5 18.5t-77 51t-50.5 76t-18 93.5q0 51 18 95t50.5 76.5t77 51t97.5 18.5z" />
    <glyph glyph-name="tilde" unicode="&#x2dc;" horiz-adv-x="1707" 
d="M1039 107q-56 0 -108 18.5t-97.5 41t-83 41t-64.5 18.5q-30 0 -44.5 -24.5t-14.5 -90.5h-156q0 260 201 260q57 0 104.5 -20t97.5 -49q38 -22 72.5 -39t69.5 -17q59 0 59 111h156q0 -57 -13.5 -103t-38.5 -78.5t-60.5 -50.5t-79.5 -18z" />
    <glyph glyph-name="acutecomb" unicode="&#x301;" horiz-adv-x="1097" 
d="M489 1665l159 611l232 -91l-334 -546z" />
    <glyph glyph-name="uni0306" unicode="&#x306;" horiz-adv-x="780" 
d="M643 308q0 -111 -61.5 -175t-196.5 -64q-69 0 -118.5 17.5t-81.5 49.5t-47 75.5t-15 96.5h117q0 -60 39.5 -94.5t105.5 -34.5t103.5 34.5t37.5 94.5h117z" />
    <glyph glyph-name="uni0400" unicode="&#x400;" horiz-adv-x="1192" 
d="M153 0v1579h970v-143h-776v-545h678v-115h-678v-633h789v-143h-983zM347 2260l242 89l153 -618l-67 -26z" />
    <glyph glyph-name="afii10023" unicode="&#x401;" horiz-adv-x="1192" 
d="M153 0v1579h970v-143h-776v-545h678v-115h-678v-633h789v-143h-983zM288 1830q0 23 8 44t23 36.5t35.5 25.5t45.5 9q25 0 45.5 -9.5t35.5 -25t23 -36.5t8 -44t-8 -44t-23 -37t-35.5 -25t-45.5 -9t-45.5 9t-35.5 25t-23 37t-8 44zM777 1830q0 23 8 44t23 36.5t35.5 25.5
t45.5 9q25 0 45.5 -9.5t35.5 -25t23 -36.5t8 -44t-8 -44t-23 -37t-35.5 -25t-45.5 -9t-45.5 9t-35.5 25t-23 37t-8 44z" />
    <glyph glyph-name="afii10051" unicode="&#x402;" horiz-adv-x="1616" 
d="M891 -97q98 3 175 19t130 59t81 119.5t28 199.5v427q0 167 -55 243.5t-167 76.5q-63 0 -122 -16t-109 -39.5t-89 -51.5t-62 -52v-888h-194v1436h-456v143h1108v-143h-458v-412q47 52 93.5 84.5t94.5 50.5t98.5 24.5t105.5 6.5q406 0 406 -463v-457q0 -121 -39 -214.5
t-116 -157.5t-190.5 -97t-262.5 -33v135z" />
    <glyph glyph-name="afii10052" unicode="&#x403;" horiz-adv-x="1249" 
d="M347 1436v-1436h-194v1579h1026v-143h-832zM472 1742l159 611l232 -91l-334 -546z" />
    <glyph glyph-name="afii10053" unicode="&#x404;" horiz-adv-x="1307" 
d="M103 767q0 419 170.5 631t509.5 212q37 0 73.5 -3t82 -12t104.5 -24.5t142 -40.5l-45 -145q-63 22 -113 36t-91.5 22.5t-77.5 11.5t-70 3q-111 0 -198.5 -33t-149 -106.5t-96 -191.5t-39.5 -287h698v-114h-698q6 -151 35 -266t83.5 -192.5t136 -117t193.5 -39.5
q106 0 203.5 28t200.5 79l56 -139q-39 -20 -91.5 -41.5t-111 -39t-121 -28.5t-122.5 -11q-166 0 -290.5 54.5t-207.5 158.5t-124.5 254t-41.5 341z" />
    <glyph glyph-name="afii10054" unicode="&#x405;" 
d="M1172 418q0 -86 -28.5 -168t-95 -147t-175.5 -104.5t-269 -39.5q-88 0 -170 17.5t-146 38.5q-75 25 -141 57l20 150q59 -31 126 -56q57 -21 131 -38t153 -17t151 12.5t126 45.5t86 91t32 149q0 57 -17.5 103t-50.5 82.5t-79.5 64t-104.5 48.5l-284 100
q-68 24 -132.5 57.5t-114.5 81t-80.5 109.5t-30.5 143q0 111 38 189t106.5 127.5t163 72.5t208.5 23q73 0 140 -10.5t127.5 -28.5t113 -40.5t95.5 -46.5l-30 -147q-37 22 -84.5 43.5t-101.5 38.5t-112.5 28t-117.5 11q-93 0 -158.5 -14t-107 -44t-61 -77t-19.5 -113
q0 -157 193 -224l313 -109q78 -27 148.5 -67.5t124 -96.5t84.5 -129t31 -166z" />
    <glyph glyph-name="afii10055" unicode="&#x406;" horiz-adv-x="789" 
d="M293 112v1349h-204v118h593v-118h-206v-1349h206v-112h-593v112h204z" />
    <glyph glyph-name="afii10056" unicode="&#x407;" horiz-adv-x="781" 
d="M302 112v1349h-204v118h593v-118h-206v-1349h206v-112h-593v112h204zM39 1830q0 23 8 44t23 36.5t35.5 25.5t45.5 9q25 0 45.5 -9.5t35.5 -25t23 -36.5t8 -44t-8 -44t-23 -37t-35.5 -25t-45.5 -9t-45.5 9t-35.5 25t-23 37t-8 44zM528 1830q0 23 8 44t23 36.5t35.5 25.5
t45.5 9q25 0 45.5 -9.5t35.5 -25t23 -36.5t8 -44t-8 -44t-23 -37t-35.5 -25t-45.5 -9t-45.5 9t-35.5 25t-23 37t-8 44z" />
    <glyph glyph-name="afii10057" unicode="&#x408;" horiz-adv-x="722" 
d="M50 35q111 20 175.5 54t98 86.5t43 127t9.5 176.5v1100h192v-1065q0 -123 -15.5 -228t-64.5 -183.5t-141.5 -128.5t-245.5 -64z" />
    <glyph glyph-name="afii10058" unicode="&#x409;" horiz-adv-x="2687" 
d="M2411 491q0 91 -29 149.5t-94.5 93t-170.5 48t-257 13.5h-160v-652h205q119 0 203 10.5t140 31.5t88.5 51t49 68.5t21 85.5t4.5 101zM1506 0v1436h-755l-35 -594l-24 -396q-8 -128 -47.5 -216.5t-114 -144t-186.5 -80.5t-263 -25l4 143q104 5 175 21.5t116.5 47t70 75.5
t37.5 106.5t17.5 141.5t10.5 181l49 884h1139v-640h160q203 0 343 -30.5t226.5 -89.5t125 -146.5t38.5 -201.5q0 -138 -44.5 -229t-132 -145t-218.5 -76t-305 -22h-387z" />
    <glyph glyph-name="afii10059" unicode="&#x40a;" horiz-adv-x="2360" 
d="M2084 491q0 91 -29 149.5t-94.5 93t-170.5 48t-257 13.5h-160v-652h205q119 0 203 10.5t140 31.5t88.5 51t49 68.5t21 85.5t4.5 101zM1179 764h-832v-764h-194v1579h194v-700h832v700h194v-639h160q203 0 343 -30.5t226.5 -89.5t125 -146.5t38.5 -201.5
q0 -138 -44.5 -229t-132 -145t-218.5 -76t-305 -22h-387v764z" />
    <glyph glyph-name="afii10060" unicode="&#x40b;" horiz-adv-x="1652" 
d="M718 1436v-445q55 59 102 98q48 39 93.5 61.5t92.5 31t102 8.5q91 0 156 -20.5t110 -57.5t72.5 -89t42 -115t19.5 -135t5 -150v-623h-190v623q0 111 -9 192t-34 134t-70 78.5t-118 25.5q-63 0 -122 -17.5t-109 -43t-88 -54.5q-35 -27 -55 -48v-890h-194v1436h-458v143
h1108v-143h-456z" />
    <glyph glyph-name="afii10061" unicode="&#x40c;" horiz-adv-x="1375" 
d="M347 0h-194v1579h194v-725h223l490 725h193l-354 -527q-38 -57 -67 -99.5t-55 -73t-52.5 -50t-60.5 -31.5q36 -10 68.5 -35.5t63 -60t59.5 -75t59 -80.5l406 -547h-203l-555 747h-215v-747zM541 1742l159 611l232 -91l-334 -546z" />
    <glyph glyph-name="uni040D" unicode="&#x40d;" horiz-adv-x="1560" 
d="M314 2047l242 89l153 -618l-67 -26zM315 1579v-1249l829 1249h262v-1579h-162v1434l-929 -1360v-74h-162v1579h162z" />
    <glyph glyph-name="afii10062" unicode="&#x40e;" horiz-adv-x="1118" 
d="M876 1579h195l-430 -1144v-234q0 -166 -95 -243t-293 -77l-51 125q61 1 114 5t91 23t60 59t22 114v226l-451 1146h182l345 -965zM814 1923q0 -111 -61.5 -175t-196.5 -64q-69 0 -118.5 17.5t-81.5 49.5t-47 75.5t-15 96.5h117q0 -60 39.5 -94.5t105.5 -34.5t103.5 34.5
t37.5 94.5h117z" />
    <glyph glyph-name="afii10145" unicode="&#x40f;" horiz-adv-x="1527" 
d="M153 1579h194v-1436h832v1436h194v-1579h-510v-418h-172v418h-538v1579z" />
    <glyph glyph-name="afii10017" unicode="&#x410;" horiz-adv-x="1458" 
d="M879 1579l516 -1579h-199l-123 383h-688l-123 -383h-199l516 1579h300zM412 485h634l-317 971z" />
    <glyph glyph-name="afii10018" unicode="&#x411;" horiz-adv-x="1342" 
d="M348 143h214q162 0 261.5 12.5t153.5 50t72.5 105.5t18.5 179q0 72 -24 123t-65 85t-95.5 53.5t-115.5 29t-125.5 12t-125.5 2.5h-169v-652zM1250 466q0 -122 -36.5 -210t-119 -145t-216.5 -84t-328 -27h-397v1579h962v-143h-767v-496h169q201 0 340.5 -29t227 -88
t126.5 -148t39 -209z" />
    <glyph glyph-name="afii10019" unicode="&#x412;" horiz-adv-x="1363" 
d="M514 1579q62 0 136.5 -2.5t149.5 -13.5t145.5 -34t125 -62.5t87.5 -99.5t33 -146q0 -106 -23 -171t-66 -103t-103 -56t-133 -29q42 -5 88.5 -13.5t91.5 -27t86.5 -49t72.5 -78t49.5 -114.5t18.5 -159q0 -95 -22.5 -163t-65 -114.5t-104 -75t-139.5 -43.5t-171 -20
t-198 -5h-420v1579h361zM573 143q148 0 247.5 18t159.5 56t85.5 97.5t25.5 142.5q0 93 -28.5 156.5t-88 101.5t-150 54.5t-214.5 16.5h-263v-643h226zM347 915h259q124 0 205.5 16t129 51.5t66.5 92t19 137.5q0 60 -27.5 102.5t-88 69.5t-157.5 39.5t-235 12.5h-171v-521z
" />
    <glyph glyph-name="afii10020" unicode="&#x413;" horiz-adv-x="1249" 
d="M347 1436v-1436h-194v1579h1026v-143h-832z" />
    <glyph glyph-name="afii10021" unicode="&#x414;" horiz-adv-x="1694" 
d="M1245 95v1341h-678v-367q0 -123 -4.5 -247t-24 -247t-58.5 -243.5t-107 -236.5h872zM145 95q52 73 89.5 146.5t62.5 152t40 165t23 184t10.5 208.5t2.5 240v370h1066v-1466h101v-484h-185v367h-1087v-367h-193v484h70z" />
    <glyph glyph-name="afii10022" unicode="&#x415;" horiz-adv-x="1235" 
d="M153 0v1579h970v-143h-776v-545h678v-115h-678v-633h789v-143h-983z" />
    <glyph glyph-name="afii10024" unicode="&#x416;" horiz-adv-x="2070" 
d="M939 747h-186l-494 -747h-204l390 570q31 45 57 82.5t52 66.5t54 49t63 30q-38 12 -67.5 35t-56 55t-52 72.5t-53.5 88.5l-319 530h192l430 -725h194v725h194v-725h192l430 725h213l-338 -527q-30 -46 -55.5 -87t-51.5 -74t-56 -57t-68 -36q34 -10 62.5 -29t55 -47.5
t53 -66t58.5 -83.5l387 -572h-202l-496 747h-184v-747h-194v747z" />
    <glyph glyph-name="afii10025" unicode="&#x417;" horiz-adv-x="1036" 
d="M556 803q94 -10 166.5 -45.5t121.5 -90t74 -125t25 -150.5q0 -100 -39 -180t-104 -136.5t-149 -87t-174 -30.5q-52 0 -101 5t-98 16t-100.5 29.5t-107.5 45.5l54 133q34 -17 79 -31t93 -24t94.5 -15.5t83.5 -5.5q71 0 120 18.5t81 47.5t50 64t26.5 68t10 60t1.5 39
q0 78 -29.5 138t-85 101.5t-134.5 62.5t-178 21h-67v144h67q204 0 303.5 87.5t99.5 240.5q0 57 -16 104t-50.5 80.5t-88 52t-129.5 18.5q-75 0 -155 -18.5t-147 -50.5l-50 140q31 15 73.5 29.5t90 26t96.5 18.5t93 7q92 0 173.5 -28.5t142.5 -81t96.5 -127t35.5 -167.5
q0 -348 -348 -403z" />
    <glyph glyph-name="afii10026" unicode="&#x418;" horiz-adv-x="1560" 
d="M315 1579v-1249l829 1249h262v-1579h-162v1434l-929 -1360v-74h-162v1579h162z" />
    <glyph glyph-name="afii10027" unicode="&#x419;" horiz-adv-x="1560" 
d="M315 1579v-1249l829 1249h262v-1579h-162v1434l-929 -1360v-74h-162v1579h162zM1039 1923q0 -111 -61.5 -175t-196.5 -64q-69 0 -118.5 17.5t-81.5 49.5t-47 75.5t-15 96.5h117q0 -60 39.5 -94.5t105.5 -34.5t103.5 34.5t37.5 94.5h117z" />
    <glyph glyph-name="afii10028" unicode="&#x41a;" horiz-adv-x="1375" 
d="M347 0h-194v1579h194v-725h223l490 725h193l-354 -527q-38 -57 -67 -99.5t-55 -73t-52.5 -50t-60.5 -31.5q36 -10 68.5 -35.5t63 -60t59.5 -75t59 -80.5l406 -547h-203l-555 747h-215v-747z" />
    <glyph glyph-name="afii10029" unicode="&#x41b;" horiz-adv-x="1854" 
d="M1700 0h-194v1436h-755l-44 -743q-7 -122 -17.5 -222.5t-33.5 -179.5t-63 -137.5t-107 -97t-166 -57.5t-239 -19l4 143q92 4 157.5 15.5t111 36t73.5 65t44.5 103t25 149t15.5 204.5l49 883h1139v-1579z" />
    <glyph glyph-name="afii10030" unicode="&#x41c;" horiz-adv-x="1917" 
d="M347 1459v-1459h-194v1579h330l475 -1371l475 1371h330v-1579h-194v1459l-513 -1459h-196z" />
    <glyph glyph-name="afii10031" unicode="&#x41d;" horiz-adv-x="1527" 
d="M1179 764h-832v-764h-194v1579h194v-700h832v700h194v-1579h-194v764z" />
    <glyph glyph-name="afii10032" unicode="&#x41e;" horiz-adv-x="1516" 
d="M1415 806q0 -110 -12 -215.5t-40.5 -200t-77 -174t-121.5 -137t-173.5 -90t-232.5 -32.5q-133 0 -234 33.5t-173.5 93.5t-120.5 142t-76.5 179t-40 204.5t-11.5 219.5q0 181 42.5 325.5t125.5 245.5t205.5 154.5t282.5 53.5q161 0 284 -54t206 -157t125 -252t42 -339z
M303 775q0 -336 116.5 -499.5t338.5 -163.5q104 0 188 35.5t143.5 114.5t91.5 205.5t32 307.5t-30 310.5t-87.5 212.5t-141 122t-189.5 39q-110 0 -196 -37.5t-145 -119.5t-90 -212t-31 -315z" />
    <glyph glyph-name="afii10033" unicode="&#x41f;" horiz-adv-x="1527" 
d="M1373 0h-194v1436h-832v-1436h-194v1579h1220v-1579z" />
    <glyph glyph-name="afii10034" unicode="&#x420;" horiz-adv-x="1350" 
d="M1250 1112q0 -119 -39 -208t-126 -148t-227 -88t-341 -29h-170v-639h-194v1579h397q81 0 164.5 -7t161.5 -25.5t146 -51t118.5 -84.5t80 -125.5t29.5 -173.5zM499 784q151 0 256.5 17.5t170.5 54.5t94.5 94.5t29.5 137.5q0 120 -38.5 189t-106 104.5t-160.5 45t-201 9.5
h-197v-652h152z" />
    <glyph glyph-name="afii10035" unicode="&#x421;" horiz-adv-x="1282" 
d="M299 768q0 -155 27.5 -277t84.5 -207t146 -130t212 -45q78 0 147.5 17t122.5 37q62 24 113 55l56 -139q-60 -34 -130 -60q-60 -23 -139.5 -41.5t-170.5 -18.5q-172 0 -298 56t-208.5 160.5t-123 254t-40.5 337.5q0 91 14 188.5t46 191.5t83.5 178t127 147.5t176 100.5
t231.5 37q87 0 161 -12.5t128 -27.5q63 -18 115 -40l-45 -145q-45 20 -100 36q-48 14 -111.5 25.5t-140.5 11.5q-128 0 -220 -52t-150.5 -144t-86 -218.5t-27.5 -275.5z" />
    <glyph glyph-name="afii10036" unicode="&#x422;" horiz-adv-x="1225" 
d="M705 1436v-1436h-194v1436h-458v143h1108v-143h-456z" />
    <glyph glyph-name="afii10037" unicode="&#x423;" horiz-adv-x="1118" 
d="M876 1579h195l-430 -1144v-234q0 -166 -95 -243t-293 -77l-51 125q61 1 114 5t91 23t60 59t22 114v226l-451 1146h182l345 -965z" />
    <glyph glyph-name="afii10038" unicode="&#x424;" horiz-adv-x="1509" 
d="M840 0h-190v153q-547 48 -547 633t547 633v160h190v-159q138 -5 243.5 -54t177 -133t108.5 -197.5t37 -247.5q0 -133 -33.5 -245t-103 -195.5t-176 -134.5t-253.5 -61v-152zM650 1267q-351 -48 -351 -479q0 -215 88.5 -336t262.5 -147v962zM840 302q188 21 278.5 141
t90.5 344q0 442 -369 483v-968z" />
    <glyph glyph-name="afii10039" unicode="&#x425;" horiz-adv-x="1322" 
d="M1069 1579h196l-495 -799l497 -780h-218l-388 626l-388 -626h-218l497 780l-495 799h196l408 -656z" />
    <glyph glyph-name="afii10040" unicode="&#x426;" horiz-adv-x="1634" 
d="M153 1579h194v-1436h832v1436h194v-1579h107v-418h-172v418h-1155v1579z" />
    <glyph glyph-name="afii10041" unicode="&#x427;" horiz-adv-x="1265" 
d="M917 590q-57 -62 -105 -101t-94 -61.5t-92.5 -30.5t-100.5 -8q-96 0 -171.5 27t-128 83.5t-80 144t-27.5 208.5v727h194v-727q0 -85 14 -145.5t42.5 -99.5t71.5 -57t102 -18q60 0 117.5 16t107 40t88.5 51.5t62 51.5v888h194v-1579h-194v590z" />
    <glyph glyph-name="afii10042" unicode="&#x428;" horiz-adv-x="2313" 
d="M1253 143h712v1436h194v-1579h-2006v1579h194v-1436h712v1436h194v-1436z" />
    <glyph glyph-name="afii10043" unicode="&#x429;" horiz-adv-x="2420" 
d="M1253 143h712v1436h194v-1571h107v-418h-172v410h-1941v1579h194v-1436h712v1436h194v-1436z" />
    <glyph glyph-name="afii10044" unicode="&#x42a;" horiz-adv-x="1573" 
d="M576 143h215q138 0 234 12.5t156.5 50t88 105.5t27.5 179q0 72 -24 123t-65 85t-95.5 53.5t-115.5 29t-125.5 12t-125.5 2.5h-170v-652zM576 940h170q201 0 340.5 -29t227 -88t126.5 -148t39 -209q0 -122 -36.5 -210t-119 -145t-216.5 -84t-328 -27h-397v1436h-333v143
h527v-639z" />
    <glyph glyph-name="afii10045" unicode="&#x42b;" horiz-adv-x="1865" 
d="M1711 0h-194v1579l194 35v-1614zM1247 466q0 -122 -36.5 -210t-119 -145t-216.5 -84t-328 -27h-397v1579h194v-639h170q201 0 340.5 -29t227 -88t126.5 -148t39 -209zM344 143h215q142 0 239 12.5t156 50t85 105.5t26 179q0 72 -24 123t-65 85t-95.5 53.5t-115.5 29
t-125.5 12t-125.5 2.5h-170v-652z" />
    <glyph glyph-name="afii10046" unicode="&#x42c;" horiz-adv-x="1341" 
d="M1247 466q0 -122 -36.5 -210t-119 -145t-216.5 -84t-328 -27h-397v1579h194v-639h170q201 0 340.5 -29t227 -88t126.5 -148t39 -209zM344 143h215q142 0 239 12.5t156 50t85 105.5t26 179q0 72 -24 123t-65 85t-95.5 53.5t-115.5 29t-125.5 12t-125.5 2.5h-170v-652z" />
    <glyph glyph-name="afii10047" unicode="&#x42d;" horiz-adv-x="1287" 
d="M1184 767q0 -191 -41.5 -341t-124.5 -254t-207.5 -158.5t-290.5 -54.5q-94 0 -174.5 18.5t-141.5 41.5q-71 26 -130 60l56 139q49 -30 112 -54q54 -20 130.5 -36.5t172.5 -16.5q84 0 148 25t112 68t80 101t53 125t31 138.5t13 142.5h-577v134h577q-6 157 -37.5 272.5
t-91 191.5t-148.5 112.5t-210 36.5q-77 0 -141 -11.5t-110 -25.5q-55 -16 -97 -36l-45 145q57 22 122 40q56 15 128.5 27.5t150.5 12.5q340 0 510.5 -212t170.5 -631z" />
    <glyph glyph-name="afii10048" unicode="&#x42e;" horiz-adv-x="1985" 
d="M574 858q0 174 43 313t125 236.5t200.5 150t269.5 52.5q189 0 317.5 -57.5t206.5 -164t112 -257t34 -336.5q0 -218 -44.5 -375.5t-129 -260t-206.5 -151.5t-276 -49q-150 0 -271 50t-206 148.5t-131 245t-46 340.5h-225v-743h-194v1579h194v-721h227zM1682 813
q0 86 -8 167t-28 152.5t-54 131.5t-85 103t-122 67t-164 24q-113 0 -197 -43t-140 -124t-84 -198.5t-28 -266.5q1 -104 7.5 -197.5t24.5 -173t49 -143.5t81.5 -108.5t122.5 -68.5t171 -24q230 0 342 171.5t112 530.5z" />
    <glyph glyph-name="afii10049" unicode="&#x42f;" horiz-adv-x="1385" 
d="M551 797q-92 0 -168 26t-130.5 73.5t-84.5 114.5t-30 149q0 121 45 202t135 129t224 68t313 20h376v-1579h-194v733h-180q-137 0 -237.5 -14t-166.5 -50t-98.5 -98.5t-32.5 -158.5v-412h-194v397q0 99 30.5 170t86 118t133.5 74t173 38zM1037 862v574h-182
q-114 0 -213.5 -7.5t-174 -36t-117 -83.5t-42.5 -151q0 -64 25.5 -111t68.5 -79.5t99 -53.5t117 -32.5t122.5 -15.5t115.5 -4h181z" />
    <glyph glyph-name="afii10065" unicode="&#x430;" horiz-adv-x="1191" 
d="M620 1053q-45 0 -94.5 -8t-98 -23.5t-94 -38t-82.5 -51.5l-68 132q57 31 106 54.5t99.5 39.5t106 24t125.5 8q151 0 241.5 -33t138 -102t62 -176t14.5 -255v-624h-140l-28 178q-74 -104 -176 -151t-229 -47q-90 0 -162.5 23t-123.5 68.5t-78.5 113.5t-27.5 158
q0 87 33 156t89 117t130 73.5t156 25.5t149.5 -8t116 -17.5t75.5 -17.5l26 -7q0 103 -4 177t-29 120.5t-79 68.5t-154 22zM550 117q91 0 172.5 39t163.5 115v298q-42 6 -82 10q-35 4 -75 7.5t-75 3.5q-72 0 -136 -7.5t-112 -32.5t-76 -72t-28 -125q0 -70 18 -115.5
t50.5 -72.5t78 -37.5t101.5 -10.5z" />
    <glyph glyph-name="afii10066" unicode="&#x431;" horiz-adv-x="1180" 
d="M281 610q0 -50 4 -106t15.5 -111t32 -105t55.5 -88t86 -60.5t123 -22.5q84 0 143 29.5t97 86t55.5 138t17.5 186.5q0 109 -22 185.5t-62 124.5t-97 69.5t-127 21.5q-81 0 -141.5 -28t-100 -76t-59.5 -111t-20 -133zM591 -20q-121 0 -212 45.5t-152 130.5t-91.5 207.5
t-30.5 275.5q0 220 33.5 381t98.5 267t160.5 157.5t219.5 51.5h135q34 0 54.5 4t31.5 13.5t14.5 25t3.5 39.5h152q0 -54 -13 -96t-43 -70.5t-79.5 -43t-122.5 -14.5h-69q-79 0 -149 -16.5t-124.5 -65.5t-91.5 -137t-50 -231q19 36 54.5 69.5t83 60t103.5 42.5t116 16
q111 0 197 -35t145 -104t90 -170.5t31 -234.5q0 -117 -31 -220.5t-93 -181t-155 -122t-216 -44.5z" />
    <glyph glyph-name="afii10067" unicode="&#x432;" horiz-adv-x="1146" 
d="M487 115q100 0 171.5 11.5t117.5 36.5t68 65t22 97q0 81 -32.5 128.5t-86 72t-123 31t-142.5 6.5q-38 0 -75 -0.5t-72 -0.5v-447h152zM335 666q118 0 212.5 2t161 20t102 60t35.5 122q0 45 -19.5 79.5t-62.5 58t-112 35.5t-169 12h-148v-389zM144 1168h373
q137 0 233.5 -21t157.5 -59.5t89 -93.5t28 -123q0 -53 -15.5 -98t-48.5 -78.5t-85.5 -54.5t-127.5 -26q65 -5 121 -23.5t97.5 -53.5t65 -86.5t23.5 -122.5q0 -162 -128.5 -245t-404.5 -83h-378v1168z" />
    <glyph glyph-name="afii10068" unicode="&#x433;" horiz-adv-x="1017" 
d="M144 0v1169h776v-133h-586v-1036h-190z" />
    <glyph glyph-name="afii10069" unicode="&#x434;" horiz-adv-x="1444" 
d="M80 99h112q53 52 83.5 112.5t38.5 130.5q23 208 47 413.5t48 413.5h732v-1060h208v-488h-184v379h-895v-379h-190v478zM951 1036h-371l-79 -578q-7 -48 -12.5 -92.5t-14 -88t-22 -87.5t-35.5 -91l534 14v923z" />
    <glyph glyph-name="afii10070" unicode="&#x435;" horiz-adv-x="1144" 
d="M1005 101q-40 -29 -91 -51.5t-103.5 -38t-101.5 -23.5t-84 -8q-132 0 -230.5 44t-163.5 123.5t-97.5 189t-32.5 241.5q0 119 31.5 229.5t93.5 195.5t154 136t214 51q114 0 200.5 -34.5t145.5 -99.5t89 -159t30 -213q0 -32 -2 -61.5t-6 -55.5h-760q0 -125 24 -211t69 -139
t110 -76.5t147 -23.5q48 0 88 7.5t75.5 22t69 36.5t69.5 51zM891 717q0 80 -20 142.5t-56 105.5t-85.5 65.5t-108.5 22.5q-79 0 -138 -29t-99.5 -79t-63 -117.5t-29.5 -145.5h600v35z" />
    <glyph glyph-name="afii10072" unicode="&#x436;" horiz-adv-x="1631" 
d="M727 0v529h-177l-261 -529h-212l267 468q61 109 152 116q-35 3 -61.5 18.5t-49.5 42.5t-46.5 65.5t-51.5 87.5l-214 371h216l251 -523h187v523h176v-522h186l252 522h216l-214 -371q-29 -49 -52 -87.5t-46 -65.5t-49.5 -42.5t-61.5 -18.5q91 -8 152 -116l267 -475h-228
l-239 538h-183v-531h-176z" />
    <glyph glyph-name="afii10073" unicode="&#x437;" horiz-adv-x="996" 
d="M226 674h120.5t114 5.5t101 17.5t80 36t53 62t19.5 95q0 55 -26.5 87.5t-68.5 49.5t-93.5 22.5t-101.5 5.5q-45 0 -95 -6.5t-92 -14.5q-49 -9 -96 -20l-36 128q52 13 109 24q49 9 109 16.5t122 7.5q92 0 170.5 -15t135.5 -49.5t89.5 -89.5t32.5 -134q0 -132 -62.5 -203
t-173.5 -97q55 -10 103 -32t84 -58.5t57 -88t21 -118.5q0 -79 -29.5 -139.5t-85 -101.5t-134 -62t-176.5 -21q-74 0 -144 9.5t-127 20.5q-66 13 -125 30l39 127q60 -16 121 -28q52 -11 112 -19.5t114 -8.5t100.5 9.5t81.5 32t57 59.5t26 93q0 79 -32.5 124t-96.5 67
t-158.5 27t-218.5 5v145z" />
    <glyph glyph-name="afii10074" unicode="&#x438;" horiz-adv-x="1349" 
d="M1208 0h-168v1025l-720 -919v-106h-176v1169h171v-866l661 866h232v-1169z" />
    <glyph glyph-name="afii10075" unicode="&#x439;" horiz-adv-x="1349" 
d="M954 224q0 -111 -61.5 -175t-196.5 -64q-69 0 -118.5 17.5t-81.5 49.5t-47 75.5t-15 96.5h117q0 -60 39.5 -94.5t105.5 -34.5t103.5 34.5t37.5 94.5h117zM1208 0h-168v1025l-720 -919v-106h-176v1169h171v-866l661 866h232v-1169z" />
    <glyph glyph-name="afii10076" unicode="&#x43a;" horiz-adv-x="1190" 
d="M334 1169v-527h131l416 527h226l-293 -348q-23 -27 -53.5 -66.5t-67.5 -76.5t-80 -64.5t-89 -29.5q23 -5 50.5 -15.5t55 -25.5t52.5 -34t43 -41l376 -468h-220l-427 531h-120v-531h-190v1169h190z" />
    <glyph glyph-name="afii10077" unicode="&#x43b;" horiz-adv-x="1375" 
d="M1234 0h-190v1036h-523l-23 -465q-9 -153 -30.5 -264.5t-68 -184t-123.5 -107.5t-198 -35v137q55 0 96.5 23t70 65.5t44 103t19.5 136.5l35 724h891v-1169z" />
    <glyph glyph-name="afii10078" unicode="&#x43c;" horiz-adv-x="1587" 
d="M1446 1169v-1169h-163v1060l-387 -1060h-196l-393 1060v-1060h-163v1169h279l375 -1011l369 1011h279z" />
    <glyph glyph-name="afii10079" unicode="&#x43d;" horiz-adv-x="1312" 
d="M334 685h647v484h190v-1169h-190v570h-647v-570h-190v1169h190v-484z" />
    <glyph glyph-name="afii10080" unicode="&#x43e;" 
d="M633 95q72 0 125.5 20.5t92 56t63.5 82.5t40 99.5t21 107.5t6 106t-6 105.5t-21 107t-40 99.5t-63.5 82.5t-92.5 56t-125 20.5t-124.5 -21t-92 -56.5t-64 -82.5t-40.5 -99t-21 -107t-6 -105q0 -51 6 -105.5t21 -107t40.5 -99.5t64 -82.5t92 -56.5t124.5 -21zM1162 570
q0 -70 -10 -142.5t-34 -140.5t-63.5 -127t-98 -103t-139 -69.5t-185.5 -25.5t-185.5 25.5t-139 69.5t-98 103t-63.5 127t-34 140t-10 143t10 143.5t34 140t63.5 126.5t98 103t139 69t185.5 25t185.5 -25t139 -69t98 -103t63.5 -126.5t34 -140t10 -143.5z" />
    <glyph glyph-name="afii10081" unicode="&#x43f;" horiz-adv-x="1311" 
d="M1170 0h-191v1036h-645v-1036h-190v1169h1026v-1169z" />
    <glyph glyph-name="afii10082" unicode="&#x440;" horiz-adv-x="1263" 
d="M699 1053q-47 0 -97.5 -12.5t-99 -34t-92 -51.5t-76.5 -65v-605q28 -34 68.5 -64.5t87 -53.5t95.5 -36.5t94 -13.5q87 0 145 36.5t92.5 98t49 142t14.5 167.5q0 130 -21.5 223t-59 153t-89 88t-111.5 28zM686 -20q-51 0 -101 14.5t-95.5 39.5t-85.5 58.5t-70 71.5v-629
l-190 -22v1656h141l33 -198q34 45 76 85t89 69.5t97 47t101 17.5q105 0 193.5 -32.5t152 -104.5t99.5 -187t36 -279q0 -71 -11.5 -143.5t-35.5 -140t-62 -126.5t-91 -102.5t-121.5 -69t-154.5 -25.5z" />
    <glyph glyph-name="afii10083" unicode="&#x441;" horiz-adv-x="1078" 
d="M609 -20q-114 0 -207.5 39.5t-160 116t-103.5 188t-37 256.5q0 124 33.5 234.5t98.5 194t160.5 132.5t218.5 49q111 0 209 -32.5t179 -89.5l-57 -133q-25 25 -61 46.5t-77 37.5t-84.5 25t-82.5 9q-112 -10 -180.5 -48.5t-105.5 -101.5t-49 -147t-12 -184
q0 -113 22.5 -198.5t64 -142.5t100 -85.5t131.5 -28.5q60 0 106.5 8.5t85.5 25t73 40.5t69 54l57 -134q-35 -24 -75.5 -47.5t-89 -42t-105 -30t-121.5 -11.5z" />
    <glyph glyph-name="afii10084" unicode="&#x442;" horiz-adv-x="1147" 
d="M1053 1036h-407v-1036h-190v1036h-386v133h983v-133z" />
    <glyph glyph-name="afii10085" unicode="&#x443;" horiz-adv-x="1123" 
d="M45 1169h182l355 -920l301 920h195l-437 -1206q-28 -77 -61.5 -136.5t-69.5 -103.5t-72 -75t-70 -51q-79 -48 -161 -56l-51 125q59 14 110 37.5t93 64.5t76.5 103t60.5 152z" />
    <glyph glyph-name="afii10086" unicode="&#x444;" horiz-adv-x="1362" 
d="M601 1191h160v-115q112 0 204.5 -35.5t158 -100.5t101.5 -157.5t36 -206.5q0 -112 -38 -202.5t-105.5 -154.5t-159 -98.5t-197.5 -34.5v-106h-160v106q-111 0 -203 35.5t-158 100t-102.5 156t-36.5 203.5q0 113 37 204.5t103.5 156t158.5 99.5t201 35v115zM601 937
q-79 0 -138.5 -24.5t-99.5 -70.5t-60 -112t-20 -148q0 -177 79.5 -267t238.5 -90v712zM761 225q150 1 234 89.5t84 267.5q0 78 -19.5 143.5t-58.5 112.5t-99 73t-141 26v-712z" />
    <glyph glyph-name="afii10087" unicode="&#x445;" horiz-adv-x="1145" 
d="M289 0h-212l408 584l-412 585h216l282 -467l290 467h210l-406 -585l398 -584h-204l-282 477z" />
    <glyph glyph-name="afii10088" unicode="&#x446;" horiz-adv-x="1373" 
d="M144 1169h190v-1055h589v1055h190v-1089h119v-458h-172v378h-916v1169z" />
    <glyph glyph-name="afii10089" unicode="&#x447;" horiz-adv-x="1231" 
d="M901 573q-57 -62 -105 -101t-94 -61.5t-92.5 -30.5t-100.5 -8q-96 0 -171.5 28t-127 85t-79 144t-27.5 206v334h190v-334q0 -167 57 -243.5t175 -76.5q60 0 117.5 16t107 40t88.5 51.5t62 51.5v495h190v-1169h-190v573z" />
    <glyph glyph-name="afii10090" unicode="&#x448;" horiz-adv-x="1710" 
d="M144 1169h190v-1054h435v1054h186v-1054h426v1054h188v-1169h-1425v1169z" />
    <glyph glyph-name="afii10091" unicode="&#x449;" horiz-adv-x="1816" 
d="M1675 -301h-190v301h-1341v1169h191v-1051h432v1051h186v-1051h421v1051h188v-1049h113v-421z" />
    <glyph glyph-name="afii10092" unicode="&#x44a;" horiz-adv-x="1425" 
d="M404 0v1036h-336v133h527v-391q211 0 353 -23t228 -70.5t122.5 -121t36.5 -174.5q0 -87 -26.5 -149.5t-72 -106t-107.5 -69.5t-133.5 -40.5t-149 -19t-154.5 -4.5h-288zM1135 393q0 48 -8 85t-30 63.5t-60 44.5t-98 29t-145 15.5t-199 4.5v-492h58q44 0 97.5 1.5t107 8.5
t103.5 22.5t88.5 43t62 70t23.5 104.5z" />
    <glyph glyph-name="afii10093" unicode="&#x44b;" horiz-adv-x="1648" 
d="M1325 0v1169h182v-1169h-182zM875 393q0 48 -8 85t-30 63.5t-60 44.5t-98 29t-145 15.5t-199 4.5v-492q113 0 197 3.5t144 13t98.5 27t61 45.5t31 67.5t8.5 93.5zM144 0v1169h191v-391q210 0 352 -23t228.5 -70.5t123 -121t36.5 -174.5q0 -82 -26.5 -143t-72 -104.5
t-107.5 -71t-133.5 -43t-149 -21.5t-154.5 -6h-288z" />
    <glyph glyph-name="afii10094" unicode="&#x44c;" horiz-adv-x="1165" 
d="M875 393q0 48 -8 85t-30 63.5t-60 44.5t-98 29t-145 15.5t-199 4.5v-492q113 0 197 3.5t144 13t98.5 27t61 45.5t31 67.5t8.5 93.5zM144 0v1169h191v-391q210 0 352 -23t228.5 -70.5t123 -121t36.5 -174.5q0 -82 -26.5 -143t-72 -104.5t-107.5 -71t-133.5 -43t-149 -21.5
t-154.5 -6h-288z" />
    <glyph glyph-name="afii10095" unicode="&#x44d;" horiz-adv-x="1083" 
d="M487 -20q-81 0 -144.5 12t-112 29.5t-84 38.5t-61.5 39l56 134q24 -22 56.5 -42.5t74 -37t91.5 -26.5t108 -10q72 0 130.5 27.5t100.5 81t65.5 132.5t25.5 181h-403v115h401q-6 93 -30 167t-64 125.5t-95.5 79t-125.5 27.5q-40 0 -84.5 -6.5t-88.5 -20.5t-86 -36t-76 -53
l-56 133q26 19 60.5 40t82.5 39t112 29.5t148 11.5q107 0 197.5 -42.5t156.5 -122t103 -192t37 -253.5q0 -140 -36 -251.5t-101.5 -189t-156.5 -118.5t-201 -41z" />
    <glyph glyph-name="afii10096" unicode="&#x44e;" horiz-adv-x="1718" 
d="M1086 117q174 0 261 121t87 344q0 95 -19 180.5t-62 150t-111 102.5t-166 38q-92 0 -156 -38.5t-104.5 -103t-59 -150t-18.5 -179.5q0 -222 87.5 -343.5t260.5 -121.5zM1617 593q0 -143 -37 -256.5t-104.5 -193t-163 -121.5t-213.5 -42q-122 0 -219 35.5t-166.5 106
t-109.5 175.5t-47 244h-223v-541h-190v1169h190v-513h224q9 115 47.5 212.5t104.5 169t157.5 112t205.5 40.5q144 0 247 -47.5t169 -129.5t97 -190.5t31 -229.5z" />
    <glyph glyph-name="afii10097" unicode="&#x44f;" horiz-adv-x="1156" 
d="M1016 1169v-1169h-192v390q-81 0 -151.5 3t-131.5 10l-201 -403h-222l264 434q-68 19 -123 51t-93.5 76.5t-59.5 102.5t-21 130q0 84 36.5 153t112 118.5t191.5 76.5t274 27h317zM280 794q0 -77 24.5 -128t86.5 -81t167.5 -42.5t266.5 -12.5v498h-125q-99 0 -177 -11.5
t-132 -38.5t-82.5 -72t-28.5 -112z" />
    <glyph glyph-name="uni0450" unicode="&#x450;" horiz-adv-x="1144" 
d="M233 1867l242 89l153 -618l-67 -26zM1005 101q-40 -29 -91 -51.5t-103.5 -38t-101.5 -23.5t-84 -8q-132 0 -230.5 44t-163.5 123.5t-97.5 189t-32.5 241.5q0 119 31.5 229.5t93.5 195.5t154 136t214 51q114 0 200.5 -34.5t145.5 -99.5t89 -159t30 -213q0 -32 -2 -61.5
t-6 -55.5h-760q0 -125 24 -211t69 -139t110 -76.5t147 -23.5q84 0 160 30t142 87zM891 717q0 80 -20 142.5t-56 105.5t-85.5 65.5t-108.5 22.5q-79 0 -138 -29t-99.5 -79t-63 -117.5t-29.5 -145.5h600v35z" />
    <glyph glyph-name="afii10071" unicode="&#x451;" horiz-adv-x="1144" 
d="M1005 101q-40 -29 -91 -51.5t-103.5 -38t-101.5 -23.5t-84 -8q-132 0 -230.5 44t-163.5 123.5t-97.5 189t-32.5 241.5q0 119 31.5 229.5t93.5 195.5t154 136t214 51q114 0 200.5 -34.5t145.5 -99.5t89 -159t30 -213q0 -32 -2 -61.5t-6 -55.5h-760q0 -125 24 -211t69 -139
t110 -76.5t147 -23.5q48 0 88 7.5t75.5 22t69 36.5t69.5 51zM891 717q0 80 -20 142.5t-56 105.5t-85.5 65.5t-108.5 22.5q-79 0 -138 -29t-99.5 -79t-63 -117.5t-29.5 -145.5h600v35zM224 1395q0 23 8 44t23 36.5t35.5 25.5t45.5 9q25 0 45.5 -9.5t35.5 -25t23 -36.5t8 -44
t-8 -44t-23 -37t-35.5 -25t-45.5 -9t-45.5 9t-35.5 25t-23 37t-8 44zM713 1395q0 23 8 44t23 36.5t35.5 25.5t45.5 9q25 0 45.5 -9.5t35.5 -25t23 -36.5t8 -44t-8 -44t-23 -37t-35.5 -25t-45.5 -9t-45.5 9t-35.5 25t-23 37t-8 44z" />
    <glyph glyph-name="afii10099" unicode="&#x452;" horiz-adv-x="1317" 
d="M380 1381h669v-116h-669v-276q57 61 105 100t93.5 61.5t92 31t101.5 8.5q106 0 183 -31.5t126.5 -91t73 -145t23.5 -193.5v-429q0 -97 -3.5 -177t-17.5 -145t-41.5 -115.5t-75 -89.5t-118.5 -66.5t-171 -46.5l-47 143q65 6 111 18.5t77 36t49.5 59.5t28 89t12.5 125.5
t3 168.5v427q0 69 -10.5 129t-36.5 103.5t-69 68.5t-107 25q-63 0 -122 -17t-109 -41.5t-89 -53.5t-62 -53v-888h-190v1265h-158v115h158v199l190 37v-235z" />
    <glyph glyph-name="afii10100" unicode="&#x453;" horiz-adv-x="1017" 
d="M144 0v1169h776v-133h-586v-1036h-190zM338 1307l159 611l232 -91l-334 -546z" />
    <glyph glyph-name="afii10101" unicode="&#x454;" horiz-adv-x="1100" 
d="M652 119q66 0 119 18t91 40q45 26 80 58l56 -133q-39 -35 -94 -61q-47 -23 -115 -42t-157 -19q-110 0 -206.5 40.5t-168.5 118t-114 189t-42 252.5q0 170 42 287t114 189t168.5 104t206.5 32q89 0 157 -19t115 -42q55 -27 94 -61l-56 -133q-35 32 -80 58q-38 22 -91 40
t-119 18q-93 0 -160.5 -26t-111 -76.5t-65 -125t-23.5 -171.5h402v-115h-404q2 -102 24 -180.5t66.5 -132t112 -80.5t159.5 -27z" />
    <glyph glyph-name="afii10102" unicode="&#x455;" horiz-adv-x="1018" 
d="M339 584q-51 18 -96 44.5t-78 63t-52 83.5t-19 106q0 78 32.5 136.5t86.5 96.5t123 57t143 19q66 0 128.5 -13t115 -32t91.5 -40.5t59 -37.5l-62 -126q-61 47 -142.5 79.5t-176.5 32.5q-59 0 -103.5 -13.5t-74.5 -36t-45 -51.5t-15 -61q0 -56 43.5 -91.5t120.5 -62.5
l168 -59q77 -27 139.5 -59t107 -74t69 -96t24.5 -124q0 -63 -21.5 -125t-70 -111t-126.5 -79.5t-192 -30.5q-78 0 -144.5 14t-118.5 33.5t-90 41t-59 36.5l63 127q22 -18 59.5 -38t83 -37t94.5 -28t94 -11q33 0 77.5 8t84 29t67 58t27.5 94q0 40 -14 70.5t-39.5 54
t-60.5 41.5t-77 33z" />
    <glyph glyph-name="afii10103" unicode="&#x456;" horiz-adv-x="479" 
d="M168 0v1169h182v-1169h-182zM151 1462q0 24 8.5 44.5t23.5 36.5t35 25t43 9q24 0 44 -9.5t35 -25.5t23 -37t8 -43q0 -24 -8.5 -44.5t-23.5 -36.5t-35 -25t-43 -9q-24 0 -44 9.5t-35 25.5t-23 36.5t-8 43.5z" />
    <glyph glyph-name="afii10104" unicode="&#x457;" horiz-adv-x="698" 
d="M-10 1500q0 23 8 44t23 36.5t35.5 25.5t45.5 9q25 0 45.5 -9.5t35.5 -25t23 -36.5t8 -44t-8 -44t-23 -37t-35.5 -25t-45.5 -9t-45.5 9t-35.5 25t-23 37t-8 44zM479 1500q0 23 8 44t23 36.5t35.5 25.5t45.5 9q25 0 45.5 -9.5t35.5 -25t23 -36.5t8 -44t-8 -44t-23 -37
t-35.5 -25t-45.5 -9t-45.5 9t-35.5 25t-23 37t-8 44zM287 0v1169h182v-1169h-182z" />
    <glyph glyph-name="afii10105" unicode="&#x458;" horiz-adv-x="546" 
d="M192 1462q0 24 8.5 44.5t23.5 36.5t35 25t43 9q24 0 44 -9.5t35 -25.5t23 -37t8 -43q0 -24 -8.5 -44.5t-23.5 -36.5t-35 -25t-43 -9q-24 0 -44 9.5t-35 25.5t-23 36.5t-8 43.5zM19 -258q66 42 104 91.5t56.5 110.5t23 133.5t4.5 160.5v103v828h190v-1015
q0 -103 -22.5 -191.5t-65.5 -156.5t-104 -114t-139 -65z" />
    <glyph glyph-name="afii10106" unicode="&#x459;" horiz-adv-x="2117" 
d="M1287 1169v-391q210 0 352 -23t228 -70.5t122.5 -121t36.5 -174.5t-38.5 -174.5t-123 -121t-218.5 -70.5t-325 -23h-227v1036h-533v-465q0 -148 -17.5 -259t-69.5 -184.5t-145.5 -110.5t-245.5 -37q0 36 0.5 71.5t0.5 71.5q76 1 130.5 18t89 54.5t50.5 98.5t16 151v724
h917zM1831 389q0 77 -25.5 125t-88 75t-167 36.5t-263.5 9.5v-492h34q132 0 228 3.5t158.5 26.5t93 73t30.5 143z" />
    <glyph glyph-name="afii10107" unicode="&#x45a;" horiz-adv-x="1965" 
d="M1679 389q0 70 -19 117.5t-77 76t-165.5 40.5t-283.5 12v-492q120 0 207.5 5t148 16.5t97.5 30t57.5 46t27.5 64t7 84.5zM336 685h607v484h191q0 -98 0.5 -195.5t0.5 -195.5q210 0 352 -23t228 -70.5t122.5 -121t36.5 -174.5t-36 -174.5t-120.5 -121t-225.5 -70.5
t-351 -23h-198v570h-607v-570h-192v1169h192v-484z" />
    <glyph glyph-name="afii10108" unicode="&#x45b;" horiz-adv-x="1318" 
d="M382 1380h667v-115h-667v-276q57 61 105 100t93.5 61.5t92 31t101.5 8.5q96 0 171.5 -27.5t127 -84t79 -144t27.5 -207.5v-727h-190v727q0 169 -56.5 247.5t-174.5 78.5q-65 0 -124.5 -18t-109 -43.5t-86.5 -54t-56 -49.5v-888h-190v1265h-160v115h160v199l190 37v-236z
" />
    <glyph glyph-name="afii10109" unicode="&#x45c;" horiz-adv-x="1190" 
d="M334 1169v-527h131l416 527h226l-293 -348q-23 -27 -53.5 -66.5t-67.5 -76.5t-80 -64.5t-89 -29.5q23 -5 50.5 -15.5t55 -25.5t52.5 -34t43 -41l376 -468h-220l-427 531h-120v-531h-190v1169h190zM505 1346l159 611l232 -91l-334 -546z" />
    <glyph glyph-name="uni045D" unicode="&#x45d;" horiz-adv-x="1349" 
d="M223 1627l242 89l153 -618l-67 -26zM1208 0h-168v1025l-720 -919v-106h-176v1169h171v-866l661 866h232v-1169z" />
    <glyph glyph-name="afii10110" unicode="&#x45e;" horiz-adv-x="1123" 
d="M45 1169h182l355 -920l301 920h195l-437 -1206q-29 -79 -62 -153.5t-82 -132.5t-118.5 -95t-171.5 -41l-51 125q78 13 131 36.5t90.5 64.5t65 103.5t53.5 152.5zM821 1551q0 -111 -61.5 -175t-196.5 -64q-69 0 -118.5 17.5t-81.5 49.5t-47 75.5t-15 96.5h117
q0 -60 39.5 -94.5t105.5 -34.5t103.5 34.5t37.5 94.5h117z" />
    <glyph glyph-name="afii10193" unicode="&#x45f;" horiz-adv-x="1327" 
d="M140 1169h194v-1054h658v1054h194v-1169h-415v-418h-172v418h-459v1169z" />
    <glyph glyph-name="Wgrave" unicode="&#x1e80;" horiz-adv-x="1961" 
d="M1113 1579l294 -1444l304 1444h187l-346 -1585h-317l-255 1468l-297 -1462h-282l-346 1579h186l304 -1444l294 1444h274zM679 2260l242 89l153 -618l-67 -26z" />
    <glyph glyph-name="uni1EBD" unicode="&#x1ebd;" horiz-adv-x="1144" 
d="M1005 101q-40 -29 -91 -51.5t-103.5 -38t-101.5 -23.5t-84 -8q-132 0 -230.5 44t-163.5 123.5t-97.5 189t-32.5 241.5q0 119 31.5 229.5t93.5 195.5t154 136t214 51q114 0 200.5 -34.5t145.5 -99.5t89 -159t30 -213q0 -32 -2 -61.5t-6 -55.5h-760q0 -125 24 -211t69 -139
t110 -76.5t147 -23.5q48 0 88 7.5t75.5 22t69 36.5t69.5 51zM891 717q0 80 -20 142.5t-56 105.5t-85.5 65.5t-108.5 22.5q-79 0 -138 -29t-99.5 -79t-63 -117.5t-29.5 -145.5h600v35zM769 1287q-56 0 -108 18.5t-97.5 41t-83 41t-64.5 18.5q-30 0 -44.5 -24.5t-14.5 -90.5
h-156q0 260 201 260q57 0 104.5 -20t97.5 -49q38 -22 72.5 -39t69.5 -17q59 0 59 111h156q0 -57 -13.5 -103t-38.5 -78.5t-60.5 -50.5t-79.5 -18z" />
    <glyph glyph-name="Ygrave" unicode="&#x1ef2;" horiz-adv-x="1318" 
d="M1075 1579h191l-514 -1094v-485h-190v485l-514 1094h197l417 -902zM360 2260l242 89l153 -618l-67 -26z" />
    <glyph glyph-name="ygrave" unicode="&#x1ef3;" horiz-adv-x="1123" 
d="M45 1169h182l355 -920l301 920h195l-437 -1206q-28 -77 -61.5 -136.5t-69.5 -103.5t-72 -75t-70 -51q-79 -48 -161 -56l-51 125q59 14 110 37.5t93 64.5t76.5 103t60.5 152zM264 1825l242 89l153 -618l-67 -26z" />
    <glyph glyph-name="uni1EF8" unicode="&#x1ef8;" horiz-adv-x="1318" 
d="M1075 1579h191l-514 -1094v-485h-190v485l-514 1094h197l417 -902zM846 1722q-56 0 -108 18.5t-97.5 41t-83 41t-64.5 18.5q-30 0 -44.5 -24.5t-14.5 -90.5h-156q0 260 201 260q57 0 104.5 -20t97.5 -49q38 -22 72.5 -39t69.5 -17q59 0 59 111h156q0 -57 -13.5 -103
t-38.5 -78.5t-60.5 -50.5t-79.5 -18z" />
    <glyph glyph-name="uni1EF9" unicode="&#x1ef9;" horiz-adv-x="1123" 
d="M45 1169h182l355 -920l301 920h195l-437 -1206q-28 -77 -61.5 -136.5t-69.5 -103.5t-72 -75t-70 -51q-79 -48 -161 -56l-51 125q59 14 110 37.5t93 64.5t76.5 103t60.5 152zM750 1287q-56 0 -108 18.5t-97.5 41t-83 41t-64.5 18.5q-30 0 -44.5 -24.5t-14.5 -90.5h-156
q0 260 201 260q57 0 104.5 -20t97.5 -49q38 -22 72.5 -39t69.5 -17q59 0 59 111h156q0 -57 -13.5 -103t-38.5 -78.5t-60.5 -50.5t-79.5 -18z" />
    <glyph glyph-name="endash" unicode="&#x2013;" horiz-adv-x="1265" 
d="M362 699h470v-144h-470v144z" />
    <glyph glyph-name="emdash" unicode="&#x2014;" horiz-adv-x="1265" 
d="M127 699h940v-144h-940v144z" />
    <glyph glyph-name="quoteleft" unicode="&#x2018;" horiz-adv-x="512" 
d="M373 1093h-261v249q0 115 58.5 190t170.5 107l31 -94q-38 -13 -63 -27.5t-40 -33t-21 -42.5t-6 -56h131v-293z" />
    <glyph glyph-name="quoteright" unicode="&#x2019;" horiz-adv-x="512" 
d="M112 1579h261v-249q0 -115 -58.5 -190t-170.5 -107l-31 94q38 13 63 27.5t40 33t21 42.5t6 56h-131v293z" />
    <glyph glyph-name="quotesinglbase" unicode="&#x201a;" horiz-adv-x="647" 
d="M244 293h261v-249q0 -115 -58.5 -190t-170.5 -107l-31 94q38 13 63 27.5t40 33t21 42.5t6 56h-131v293z" />
    <glyph glyph-name="quotedblleft" unicode="&#x201c;" horiz-adv-x="939" 
d="M791 1063h-261v249q0 115 58.5 190t170.5 107l31 -94q-38 -13 -63 -27.5t-40 -33t-21 -42.5t-6 -56h131v-293zM402 1063h-261v249q0 115 58.5 190t170.5 107l31 -94q-38 -13 -63 -27.5t-40 -33t-21 -42.5t-6 -56h131v-293z" />
    <glyph glyph-name="quotedblright" unicode="&#x201d;" horiz-adv-x="831" 
d="M112 1579h261v-249q0 -115 -58.5 -190t-170.5 -107l-31 94q38 13 63 27.5t40 33t21 42.5t6 56h-131v293zM501 1579h261v-249q0 -115 -58.5 -190t-170.5 -107l-31 94q38 13 63 27.5t40 33t21 42.5t6 56h-131v293z" />
    <glyph glyph-name="quotedblbase" unicode="&#x201e;" horiz-adv-x="1112" 
d="M290 293h261v-249q0 -115 -58.5 -190t-170.5 -107l-31 94q38 13 63 27.5t40 33t21 42.5t6 56h-131v293zM679 293h261v-249q0 -115 -58.5 -190t-170.5 -107l-31 94q38 13 63 27.5t40 33t21 42.5t6 56h-131v293z" />
    <glyph glyph-name="dagger" unicode="&#x2020;" horiz-adv-x="1070" 
d="M448 1020h-336v141h335v307h193v-307h326v-141h-328v-1020h-190v1020z" />
    <glyph glyph-name="daggerdbl" unicode="&#x2021;" horiz-adv-x="1237" 
d="M202 444h335v576h-335v141h335v307h193v-307h326v-141h-328v-576h326v-139h-326v-305h-191v305h-335v139z" />
    <glyph glyph-name="bullet" unicode="&#x2022;" horiz-adv-x="1361" 
d="M649 358q-74 0 -137.5 26t-110 71t-73.5 106t-27 131t27 131.5t73.5 107t110 71.5t137.5 26q73 0 137 -26t110.5 -71.5t73.5 -107t27 -131.5t-27 -131t-73.5 -106t-110.5 -71t-137 -26z" />
    <glyph glyph-name="ellipsis" unicode="&#x2026;" horiz-adv-x="1554" 
d="M1428 293v-293h-261v293h261zM917 293v-293h-261v293h261zM395 293v-293h-261v293h261z" />
    <glyph glyph-name="perthousand" unicode="&#x2030;" horiz-adv-x="1707" 
 />
    <glyph glyph-name="guilsinglleft" unicode="&#x2039;" horiz-adv-x="768" 
d="M80 666l608 383v-207l-447 -265l447 -271v-207l-608 382v185z" />
    <glyph glyph-name="guilsinglright" unicode="&#x203a;" horiz-adv-x="768" 
d="M80 99v207l446 271l-446 265v207l608 -383v-185z" />
    <glyph glyph-name="Euro" unicode="&#x20ac;" horiz-adv-x="1162" 
d="M751 696v-122h-379q12 -124 44 -212t80.5 -143.5t111.5 -81t137 -25.5q66 0 120.5 10.5t92.5 24.5q45 16 81 36l45 -144q-41 -22 -94 -40q-45 -15 -107.5 -27.5t-140.5 -12.5q-127 0 -226 48t-170.5 131.5t-114.5 195.5t-58 240h-125v122h117q1 23 2 46.5t2 46.5h-121
v122h137q22 113 67.5 211t115.5 170t163.5 113.5t210.5 41.5q78 0 140.5 -12.5t107.5 -26.5q53 -18 94 -39l-45 -140q-36 19 -81 34q-38 13 -92.5 24t-120.5 11q-68 0 -127 -22t-106 -68.5t-80.5 -120t-49.5 -176.5h426v-122h-442v-93h385z" />
    <glyph glyph-name="afii61352" unicode="&#x2116;" horiz-adv-x="2880" 
d="M1194 0l-847 1404v-1404h-194v1579h262l834 -1394v1394h194v-1579h-249zM2249 95q72 0 125.5 20.5t92 56t63.5 82.5t40 99.5t21 107.5t6 106t-6 105.5t-21 107t-40 99.5t-63.5 82.5t-92.5 56t-125 20.5t-124.5 -21t-92 -56.5t-64 -82.5t-40.5 -99t-21 -107t-6 -105
q0 -51 6 -105.5t21 -107t40.5 -99.5t64 -82.5t92 -56.5t124.5 -21zM2778 570q0 -70 -10 -142.5t-34 -140.5t-63.5 -127t-98 -103t-139 -69.5t-185.5 -25.5t-185.5 25.5t-139 69.5t-98 103t-63.5 127t-34 140t-10 143t10 143.5t34 140t63.5 126.5t98 103t139 69t185.5 25
t185.5 -25t139 -69t98 -103t63.5 -126.5t34 -140t10 -143.5z" />
    <glyph glyph-name="trademark" unicode="&#x2122;" horiz-adv-x="1634" 
d="M864 1288v-664h-128v789h229l184 -655l184 655h229v-789h-127v664l-197 -664h-178zM417 1310v-686h-135v686h-210v103h554v-103h-209z" />
    <glyph glyph-name="NULL" horiz-adv-x="0" 
 />
    <glyph glyph-name="afii10071.001" horiz-adv-x="1144" 
d="M1005 101q-40 -29 -91 -51.5t-103.5 -38t-101.5 -23.5t-84 -8q-132 0 -230.5 44t-163.5 123.5t-97.5 189t-32.5 241.5q0 119 31.5 229.5t93.5 195.5t154 136t214 51q114 0 200.5 -34.5t145.5 -99.5t89 -159t30 -213q0 -32 -2 -61.5t-6 -55.5h-760q0 -125 24 -211t69 -139
t110 -76.5t147 -23.5q48 0 88 7.5t75.5 22t69 36.5t69.5 51zM891 717q0 80 -20 142.5t-56 105.5t-85.5 65.5t-108.5 22.5q-79 0 -138 -29t-99.5 -79t-63 -117.5t-29.5 -145.5h600v35zM215 215q0 23 8 44t23 36.5t35.5 25.5t45.5 9q25 0 45.5 -9.5t35.5 -25t23 -36.5t8 -44
t-8 -44t-23 -37t-35.5 -25t-45.5 -9t-45.5 9t-35.5 25t-23 37t-8 44zM704 215q0 23 8 44t23 36.5t35.5 25.5t45.5 9q25 0 45.5 -9.5t35.5 -25t23 -36.5t8 -44t-8 -44t-23 -37t-35.5 -25t-45.5 -9t-45.5 9t-35.5 25t-23 37t-8 44z" />
    <glyph glyph-name="egrave.001" horiz-adv-x="1144" 
 />
    <glyph glyph-name="overscore.001" horiz-adv-x="1428" 
d="M500 932v115h426v-115h-426z" />
    <glyph glyph-name="asciicircum.001" horiz-adv-x="1428" 
d="M666 1011h96l292 -501l-128 -78l-212 377l-212 -377l-128 78z" />
    <glyph glyph-name="Ngrave" horiz-adv-x="1597" 
d="M1194 0l-847 1404v-1404h-194v1579h262l834 -1394v1394h194v-1579h-249zM501 2260l242 89l153 -618l-67 -26z" />
    <glyph glyph-name="Sgrave" 
d="M1172 418q0 -86 -28.5 -168t-95 -147t-175.5 -104.5t-269 -39.5q-88 0 -170 17.5t-146 38.5q-75 25 -141 57l20 150q59 -31 126 -56q57 -21 131 -38t153 -17t151 12.5t126 45.5t86 91t32 149q0 57 -17.5 103t-50.5 82.5t-79.5 64t-104.5 48.5l-284 100
q-68 24 -132.5 57.5t-114.5 81t-80.5 109.5t-30.5 143q0 111 38 189t106.5 127.5t163 72.5t208.5 23q73 0 140 -10.5t127.5 -28.5t113 -40.5t95.5 -46.5l-30 -147q-37 22 -84.5 43.5t-101.5 38.5t-112.5 28t-117.5 11q-93 0 -158.5 -14t-107 -44t-61 -77t-19.5 -113
q0 -157 193 -224l313 -109q78 -27 148.5 -67.5t124 -96.5t84.5 -129t31 -166zM328 2260l242 89l153 -618l-67 -26z" />
    <glyph glyph-name="Zgrave" horiz-adv-x="1244" 
d="M1142 1419l-833 -1276h835v-143h-1032v180l829 1256h-829v143h1030v-160zM331 2260l242 89l153 -618l-67 -26z" />
    <glyph glyph-name="ngrave" horiz-adv-x="1267" 
d="M308 982q30 37 80 74t109.5 67t124 48.5t123.5 18.5q105 0 177.5 -31.5t118.5 -91t66.5 -145.5t20.5 -195v-727h-190v727q0 76 -12 136.5t-39 102.5t-70 64.5t-106 22.5q-48 0 -105 -19t-110 -46t-97 -57t-65 -51v-880h-190v1169h140zM339 1825l242 89l153 -618l-67 -26z
" />
    <glyph glyph-name="sgrave" horiz-adv-x="992" 
d="M338 584q-51 18 -96 44.5t-78 63t-52 83.5t-19 106q0 78 32.5 136.5t86.5 96.5t123 57t143 19q66 0 128.5 -13t115 -32t91.5 -40.5t59 -37.5l-62 -126q-61 47 -142.5 79.5t-176.5 32.5q-59 0 -103.5 -13.5t-74.5 -36t-45 -51.5t-15 -61q0 -56 43.5 -91.5t120.5 -62.5
l168 -59q77 -27 139.5 -59t107 -74t69 -96t24.5 -124q0 -63 -21.5 -125t-70 -111t-126.5 -79.5t-192 -30.5q-78 0 -144.5 14t-118.5 33.5t-90 41t-59 36.5l63 127q22 -18 59.5 -38t83 -37t94.5 -28t94 -11q33 0 77.5 8t84 29t67 58t27.5 94q0 40 -14 70.5t-39.5 54
t-60.5 41.5t-77 33zM212 1825l242 89l153 -618l-67 -26z" />
    <glyph glyph-name="zgrave" horiz-adv-x="1024" 
d="M133 1035v134h772v-165l-626 -868h626v-136h-802v166l638 869h-608zM207 1825l242 89l153 -618l-67 -26z" />
    <glyph glyph-name="dotlessigrave" horiz-adv-x="540" 
d="M177 1169h182v-1169h-182v1169zM-214 1814l242 89l153 -618l-67 -26z" />
    <glyph glyph-name="Sdieresis" 
d="M1172 418q0 -86 -28.5 -168t-95 -147t-175.5 -104.5t-269 -39.5q-88 0 -170 17.5t-146 38.5q-75 25 -141 57l20 150q59 -31 126 -56q57 -21 131 -38t153 -17t151 12.5t126 45.5t86 91t32 149q0 57 -17.5 103t-50.5 82.5t-79.5 64t-104.5 48.5l-284 100
q-68 24 -132.5 57.5t-114.5 81t-80.5 109.5t-30.5 143q0 111 38 189t106.5 127.5t163 72.5t208.5 23q73 0 140 -10.5t127.5 -28.5t113 -40.5t95.5 -46.5l-30 -147q-37 22 -84.5 43.5t-101.5 38.5t-112.5 28t-117.5 11q-93 0 -158.5 -14t-107 -44t-61 -77t-19.5 -113
q0 -157 193 -224l313 -109q78 -27 148.5 -67.5t124 -96.5t84.5 -129t31 -166zM269 1830q0 23 8 44t23 36.5t35.5 25.5t45.5 9q25 0 45.5 -9.5t35.5 -25t23 -36.5t8 -44t-8 -44t-23 -37t-35.5 -25t-45.5 -9t-45.5 9t-35.5 25t-23 37t-8 44zM758 1830q0 23 8 44t23 36.5
t35.5 25.5t45.5 9q25 0 45.5 -9.5t35.5 -25t23 -36.5t8 -44t-8 -44t-23 -37t-35.5 -25t-45.5 -9t-45.5 9t-35.5 25t-23 37t-8 44z" />
    <glyph glyph-name="Sring" 
d="M1172 418q0 -86 -28.5 -168t-95 -147t-175.5 -104.5t-269 -39.5q-88 0 -170 17.5t-146 38.5q-75 25 -141 57l20 150q59 -31 126 -56q57 -21 131 -38t153 -17t151 12.5t126 45.5t86 91t32 149q0 57 -17.5 103t-50.5 82.5t-79.5 64t-104.5 48.5l-284 100
q-68 24 -132.5 57.5t-114.5 81t-80.5 109.5t-30.5 143q0 111 38 189t106.5 127.5t163 72.5t208.5 23q73 0 140 -10.5t127.5 -28.5t113 -40.5t95.5 -46.5l-30 -147q-37 22 -84.5 43.5t-101.5 38.5t-112.5 28t-117.5 11q-93 0 -158.5 -14t-107 -44t-61 -77t-19.5 -113
q0 -157 193 -224l313 -109q78 -27 148.5 -67.5t124 -96.5t84.5 -129t31 -166zM482 1926q0 -31 10.5 -58t30 -47.5t45.5 -32t58 -11.5t58.5 11.5t46 32t30.5 47.5t11 58t-11 58t-30.5 47.5t-46 32t-58.5 11.5t-58 -11.5t-45.5 -32t-30 -47.5t-10.5 -58zM627 2166
q52 0 96.5 -18.5t77 -51t50.5 -76.5t18 -95q0 -50 -18 -93.5t-50.5 -76t-77 -51t-96.5 -18.5q-53 0 -97.5 18.5t-77 51t-50.5 76t-18 93.5q0 51 18 95t50.5 76.5t77 51t97.5 18.5z" />
    <glyph glyph-name="Stilde" 
d="M1172 418q0 -86 -28.5 -168t-95 -147t-175.5 -104.5t-269 -39.5q-88 0 -170 17.5t-146 38.5q-75 25 -141 57l20 150q59 -31 126 -56q57 -21 131 -38t153 -17t151 12.5t126 45.5t86 91t32 149q0 57 -17.5 103t-50.5 82.5t-79.5 64t-104.5 48.5l-284 100
q-68 24 -132.5 57.5t-114.5 81t-80.5 109.5t-30.5 143q0 111 38 189t106.5 127.5t163 72.5t208.5 23q73 0 140 -10.5t127.5 -28.5t113 -40.5t95.5 -46.5l-30 -147q-37 22 -84.5 43.5t-101.5 38.5t-112.5 28t-117.5 11q-93 0 -158.5 -14t-107 -44t-61 -77t-19.5 -113
q0 -157 193 -224l313 -109q78 -27 148.5 -67.5t124 -96.5t84.5 -129t31 -166zM814 1722q-56 0 -108 18.5t-97.5 41t-83 41t-64.5 18.5q-30 0 -44.5 -24.5t-14.5 -90.5h-156q0 260 201 260q57 0 104.5 -20t97.5 -49q38 -22 72.5 -39t69.5 -17q59 0 59 111h156
q0 -57 -13.5 -103t-38.5 -78.5t-60.5 -50.5t-79.5 -18z" />
    <glyph glyph-name="Sbreve" 
d="M1172 418q0 -86 -28.5 -168t-95 -147t-175.5 -104.5t-269 -39.5q-88 0 -170 17.5t-146 38.5q-75 25 -141 57l20 150q59 -31 126 -56q57 -21 131 -38t153 -17t151 12.5t126 45.5t86 91t32 149q0 57 -17.5 103t-50.5 82.5t-79.5 64t-104.5 48.5l-284 100
q-68 24 -132.5 57.5t-114.5 81t-80.5 109.5t-30.5 143q0 111 38 189t106.5 127.5t163 72.5t208.5 23q73 0 140 -10.5t127.5 -28.5t113 -40.5t95.5 -46.5l-30 -147q-37 22 -84.5 43.5t-101.5 38.5t-112.5 28t-117.5 11q-93 0 -158.5 -14t-107 -44t-61 -77t-19.5 -113
q0 -157 193 -224l313 -109q78 -27 148.5 -67.5t124 -96.5t84.5 -129t31 -166zM885 1923q0 -111 -61.5 -175t-196.5 -64q-69 0 -118.5 17.5t-81.5 49.5t-47 75.5t-15 96.5h117q0 -60 39.5 -94.5t105.5 -34.5t103.5 34.5t37.5 94.5h117z" />
    <glyph glyph-name="Ycaron" horiz-adv-x="1318" 
d="M1075 1579h191l-514 -1094v-485h-190v485l-514 1094h197l417 -902zM610 1676l-292 501l128 78l212 -377l212 377l128 -78l-292 -501h-96z" />
    <glyph glyph-name="Ybreve" horiz-adv-x="1318" 
d="M1075 1579h191l-514 -1094v-485h-190v485l-514 1094h197l417 -902zM917 1923q0 -111 -61.5 -175t-196.5 -64q-69 0 -118.5 17.5t-81.5 49.5t-47 75.5t-15 96.5h117q0 -60 39.5 -94.5t105.5 -34.5t103.5 34.5t37.5 94.5h117z" />
    <glyph glyph-name="ycaron" horiz-adv-x="1123" 
d="M45 1169h182l355 -920l301 920h195l-437 -1206q-28 -77 -61.5 -136.5t-69.5 -103.5t-72 -75t-70 -51q-79 -48 -161 -56l-51 125q59 14 110 37.5t93 64.5t76.5 103t60.5 152zM514 1241l-292 501l128 78l212 -377l212 377l128 -78l-292 -501h-96z" />
    <glyph glyph-name="ybreve" horiz-adv-x="1123" 
d="M45 1169h182l355 -920l301 920h195l-437 -1206q-28 -77 -61.5 -136.5t-69.5 -103.5t-72 -75t-70 -51q-79 -48 -161 -56l-51 125q59 14 110 37.5t93 64.5t76.5 103t60.5 152zM821 1488q0 -111 -61.5 -175t-196.5 -64q-69 0 -118.5 17.5t-81.5 49.5t-47 75.5t-15 96.5h117
q0 -60 39.5 -94.5t105.5 -34.5t103.5 34.5t37.5 94.5h117z" />
    <glyph glyph-name="Cgrave" horiz-adv-x="1273" 
d="M304 768q0 -155 27.5 -277t84.5 -207t146 -130t212 -45q78 0 147.5 17t122.5 37q62 24 113 55l56 -139q-60 -34 -130 -60q-60 -23 -139.5 -41.5t-170.5 -18.5q-172 0 -298 56t-208.5 160.5t-123 254t-40.5 337.5q0 91 14 188.5t46 191.5t83.5 178t127 147.5t176 100.5
t231.5 37q87 0 161 -12.5t128 -27.5q63 -18 115 -40l-45 -145q-45 20 -100 36q-48 14 -111.5 25.5t-140.5 11.5q-128 0 -220 -52t-150.5 -144t-86 -218.5t-27.5 -275.5zM484 2260l242 89l153 -618l-67 -26z" />
    <glyph glyph-name="Ggrave" horiz-adv-x="1469" 
d="M1166 684h-411v127h587v-811h-88l-53 213q-12 -51 -45 -97t-89 -81t-136.5 -55.5t-186.5 -20.5q-159 0 -279 62t-200.5 172t-121 262t-40.5 331q0 210 46 365t133 257t212 152t283 50q58 0 118 -7.5t118.5 -23.5t114 -41.5t105.5 -61.5l-66 -135q-28 24 -69 45t-93 37
t-112.5 25.5t-127.5 9.5q-113 0 -199 -39.5t-144.5 -121.5t-88 -207.5t-29.5 -297.5q0 -164 24 -290.5t78 -213.5t142 -132t216 -45q86 0 159.5 15t127.5 49.5t84.5 89t30.5 134.5v285zM425 2260l242 89l153 -618l-67 -26z" />
    <glyph glyph-name="cgrave" horiz-adv-x="1071" 
d="M609 -20q-114 0 -207.5 39.5t-160 116t-103.5 188t-37 256.5q0 124 33.5 234.5t98.5 194t160.5 132.5t218.5 49q111 0 209 -32.5t179 -89.5l-57 -133q-25 25 -61 46.5t-77 37.5t-84.5 25t-82.5 9q-112 -10 -180.5 -48.5t-105.5 -101.5t-49 -147t-12 -184
q0 -113 22.5 -198.5t64 -142.5t100 -85.5t131.5 -28.5q60 0 106.5 8.5t85.5 25t73 40.5t69 54l57 -134q-35 -24 -75.5 -47.5t-89 -42t-105 -30t-121.5 -11.5zM253 1825l242 89l153 -618l-67 -26z" />
    <glyph glyph-name="ggrave" horiz-adv-x="1257" 
d="M573 -277q103 0 184 5t136.5 26t84.5 63.5t29 116.5q0 66 -27.5 104.5t-79 58.5t-125 25.5t-164.5 5.5q-46 0 -96.5 -0.5t-104.5 -0.5q-21 -16 -42 -36t-37.5 -44t-27 -51.5t-10.5 -59.5q0 -59 14 -99.5t46.5 -66t86 -36.5t133.5 -11zM629 589q55 12 99 27t74.5 43.5
t46.5 76t16 124.5q0 56 -15.5 94t-47.5 61t-80.5 33t-113.5 10q-54 0 -102.5 -9t-84.5 -33t-57.5 -65.5t-21.5 -105.5q0 -47 15.5 -90t40 -79t55.5 -63t62 -42zM949 1025q38 -38 59.5 -76t21.5 -89q0 -80 -20 -144.5t-63 -112.5t-110.5 -81t-163.5 -50l-350 -64l19 -148h290
q141 0 243 -16.5t167 -55.5t96 -102t31 -156q0 -109 -44.5 -178.5t-125 -109t-192 -54.5t-245.5 -15q-93 0 -171.5 18.5t-135.5 58.5t-88.5 103t-31.5 152q0 49 17 88t44 68.5t61.5 49.5t70.5 31q-38 8 -63.5 23.5t-42.5 44t-27 73.5t-16 113q-1 3 -1 15q0 39 23.5 62.5
t55.5 37t66 20t55 11.5q-37 11 -72.5 39t-63 69t-44.5 93t-17 111q0 78 29 140t84 105.5t135.5 67t182.5 23.5q81 0 150 -17t120 -59q38 19 63 30.5t52 18t63.5 8.5t96.5 2h30v-148h-238zM364 1825l242 89l153 -618l-67 -26z" />
    </font>
</defs>
</svg>
