<?xml version="1.0" standalone="no"?>
<!DOCTYPE svg PUBLIC "-//W3C//DTD SVG 1.1//EN" "http://www.w3.org/Graphics/SVG/1.1/DTD/svg11.dtd" >
<svg xmlns="http://www.w3.org/2000/svg" xmlns:xlink="http://www.w3.org/1999/xlink" version="1.1">
<metadata>
Created by FontForge 20161013 at Mon May 17 22:20:34 2010
 By ,,,
Copyright (C) 2006-2008 Alexey Kryukov &#60;alexios@thessalonica.org.ru&#62;
</metadata>
<defs>
<font id="OldStandardTT-Regular" horiz-adv-x="440" >
  <font-face 
    font-family="Old Standard TT"
    font-weight="400"
    font-stretch="normal"
    units-per-em="1000"
    panose-1="2 4 5 3 5 5 5 2 3 3"
    ascent="762"
    descent="-238"
    x-height="456"
    cap-height="712"
    bbox="-38 -282 1044 948"
    underline-thickness="40"
    underline-position="-238"
    unicode-range="U+0020-F6CE"
  />
<missing-glyph horiz-adv-x="1000" 
 />
    <glyph glyph-name=".notdef" horiz-adv-x="1000" 
 />
    <glyph glyph-name=".null" horiz-adv-x="0" 
 />
    <glyph glyph-name="nonmarkingreturn" horiz-adv-x="1000" 
 />
    <glyph glyph-name="space" unicode=" " horiz-adv-x="280" 
 />
    <glyph glyph-name="exclam" unicode="!" horiz-adv-x="280" 
d="M152 156h-24l-16 200q-3 39 -18.5 128t-15.5 138q0 33 17 52.5t45 19.5t45 -19.5t17 -52.5q0 -49 -15.5 -138t-18.5 -128zM140 -12q-27 0 -44.5 17.5t-17.5 44.5t17.5 44.5t44.5 17.5t44.5 -17.5t17.5 -44.5t-17.5 -44.5t-44.5 -17.5z" />
    <glyph glyph-name="quotedbl" unicode="&#x22;" horiz-adv-x="394" 
d="M120 730q34 0 34 -46q0 -4 -2 -18l-20 -146h-24l-20 146q-2 14 -2 18q0 46 34 46zM274 730q34 0 34 -46q0 -4 -2 -18l-20 -146h-24l-20 146q-2 14 -2 18q0 46 34 46z" />
    <glyph glyph-name="numbersign" unicode="#" horiz-adv-x="684" 
d="M280 684h44l-30 -194h146l30 194h44l-30 -194h126v-40h-131l-34 -214h162v-40h-170l-30 -196h-44l30 196h-145l-31 -196h-44l31 196h-123v40h128l36 214h-164v40h170zM289 450l-36 -214h148l34 214h-146z" />
    <glyph glyph-name="dollar" unicode="$" horiz-adv-x="580" 
d="M292 -16q-22 0 -32 1v-69h-32v73q-78 14 -122 59.5t-44 116.5q0 35 24 59q18 18 44 18q16 0 30 -12q12 -12 12 -32q0 -17 -7 -29.5t-29 -36.5q-12 -12 -12 -33q0 -26 27 -47.5t77 -30.5v312l-6 2q-136 54 -136 183q0 63 36.5 111t105.5 64v65h32v-60q20 2 32 2
q16 0 24 -1v59h32v-63q73 -13 113.5 -58t40.5 -101q0 -45 -14 -68q-16 -26 -47 -26q-19 0 -33 14q-9 11 -9 25q0 19 12 37q6 8 16.5 17.5t13.5 14.5q8 12 8 31q0 23 -25.5 47.5t-75.5 34.5v-284l20 -8q63 -25 97.5 -74.5t34.5 -109.5q0 -72 -39.5 -126.5t-112.5 -70.5v-74
h-32v69q-8 -1 -24 -1zM260 320v-303q10 -1 32 -1q16 0 24 1v281zM260 414l56 -22v275q-8 1 -24 1q-12 0 -32 -2v-252zM134 540q0 -43 18.5 -67t69.5 -44l6 -2v233q-48 -14 -71 -47.5t-23 -72.5zM456 155q0 52 -21 77.5t-67 44.5l-20 8v-262q52 14 80 51.5t28 80.5z" />
    <glyph glyph-name="percent" unicode="%" horiz-adv-x="860" 
d="M624 702h36l-426 -720h-36zM628 4q30 0 47 24t21 55t4 79t-4 79.5t-21 56t-47 24.5q-23 0 -38 -12.5t-21.5 -37.5t-8.5 -49.5t-2 -60.5t2 -60t8.5 -48.5t21.5 -37t38 -12.5zM628 -16q-58 0 -96 50.5t-38 127.5t38 128.5t96 51.5t97 -51.5t39 -128.5t-39 -127.5t-97 -50.5
zM230 362q30 0 47 24t21 55t4 79t-4 79.5t-21 56t-47 24.5q-23 0 -38 -12.5t-21.5 -37.5t-8.5 -49.5t-2 -60.5t2 -60t8.5 -48.5t21.5 -37t38 -12.5zM230 342q-58 0 -96 50.5t-38 127.5t38 128.5t96 51.5t97 -51.5t39 -128.5t-39 -127.5t-97 -50.5z" />
    <glyph glyph-name="ampersand" unicode="&#x26;" horiz-adv-x="786" 
d="M54 145q0 92 142 201l30 23l-10 15q-52 79 -52 146q0 75 46 124t108 49q58 0 87.5 -36.5t29.5 -86.5q0 -56 -32.5 -98t-91.5 -89l172 -244l4 5q35 43 58 93t23 79q0 18 -11.5 29t-27.5 11h-45v32h248v-32h-31q-18 0 -29 -2.5t-27.5 -15.5t-29.5 -39q-61 -123 -112 -188
q35 -49 59.5 -72t48.5 -23q37 0 59 21t38 55l16 -8q-51 -112 -136 -112q-70 0 -142 81q-92 -81 -197 -81q-91 0 -143 41t-52 122zM150 153q0 -68 35 -104.5t76 -36.5q84 0 164 75l-18 23l-161 231l-10 -8q-86 -69 -86 -180zM228 560q0 -56 53 -125l10 -13q30 23 48 39
t39 51.5t21 73.5q0 35 -23 61t-57 26q-41 0 -66 -31.5t-25 -81.5z" />
    <glyph glyph-name="quotesingle" unicode="'" horiz-adv-x="240" 
d="M120 730q34 0 34 -46q0 -4 -2 -18l-20 -146h-24l-20 146q-2 14 -2 18q0 46 34 46z" />
    <glyph glyph-name="parenleft" unicode="(" horiz-adv-x="370" 
d="M98 266q0 141 53.5 261.5t142.5 202.5l30 -24q-176 -185 -176 -440t176 -440l-30 -24q-89 82 -142.5 202.5t-53.5 261.5z" />
    <glyph glyph-name="parenright" unicode=")" horiz-adv-x="370" 
d="M274 266q0 -141 -53.5 -261.5t-142.5 -202.5l-30 24q176 185 176 440t-176 440l30 24q89 -82 142.5 -202.5t53.5 -261.5z" />
    <glyph glyph-name="asterisk" unicode="*" horiz-adv-x="502" 
d="M255 700q18 0 28 -12t10 -31q0 -14 -12 -43q-14 -35 -14 -77q0 -15 8 -15q5 0 14 6q35 22 56 49q29 39 56 39q17 0 27 -11.5t10 -25.5q0 -38 -67 -47q-37 -5 -74 -26l-5 -4q-5 -3 -5 -7t5 -7l5 -4q37 -21 74 -26q67 -9 67 -47q0 -14 -10 -25.5t-27 -11.5q-27 0 -56 39
q-21 27 -56 49q-9 6 -14 6q-8 0 -8 -15q0 -42 14 -77q12 -29 12 -43q0 -19 -10 -31t-28 -12t-28 12t-10 31q0 14 12 43q14 35 14 77q0 15 -8 15q-5 0 -14 -6q-35 -22 -56 -49q-29 -39 -56 -39q-17 0 -27 11.5t-10 25.5q0 38 67 47q37 5 74 26l5 4q5 3 5 7t-5 7l-5 4
q-37 21 -74 26q-67 9 -67 47q0 14 10 25.5t27 11.5q27 0 56 -39q21 -27 56 -49q9 -6 14 -6q8 0 8 15q0 42 -14 77q-12 29 -12 43q0 19 10 31t28 12z" />
    <glyph glyph-name="plus" unicode="+" horiz-adv-x="940" 
d="M48 244v40h400v400h44v-400h400v-40h-400v-400h-44v400h-400z" />
    <glyph glyph-name="comma" unicode="," horiz-adv-x="280" 
d="M72 82q0 27 18 42.5t40 15.5q39 0 61 -32q19 -26 19 -71q0 -62 -31 -117.5t-75 -87.5l-14 16q37 28 60.5 68t23.5 80q0 20 -18 30q-6 4 -34 4q-22 0 -36 15.5t-14 36.5z" />
    <glyph glyph-name="hyphen" unicode="-" horiz-adv-x="370" 
d="M60 280h250v-56h-250v56z" />
    <glyph glyph-name="period" unicode="." horiz-adv-x="280" 
d="M140 -12q-27 0 -44.5 17.5t-17.5 44.5t17.5 44.5t44.5 17.5t44.5 -17.5t17.5 -44.5t-17.5 -44.5t-44.5 -17.5z" />
    <glyph glyph-name="slash" unicode="/" horiz-adv-x="450" 
d="M96 -198h-40l298 928h40z" />
    <glyph glyph-name="zero" unicode="0" horiz-adv-x="580" 
d="M290 16q35 0 61.5 22.5t40 54t21.5 79.5t10 85t2 84q0 48 -2 85t-10 85t-21.5 79.5t-40 54t-61.5 22.5t-61.5 -22.5t-40 -54t-21.5 -79.5t-10 -85t-2 -85q0 -47 2 -84t10 -85t21.5 -79.5t40 -54t61.5 -22.5zM290 -16q-70 0 -126.5 52.5t-85.5 133.5t-29 172t29 172
t85.5 133.5t126.5 52.5t126.5 -52.5t85.5 -133.5t29 -172t-29 -172t-85.5 -133.5t-126.5 -52.5z" />
    <glyph glyph-name="one" unicode="1" horiz-adv-x="580" 
d="M120 0v32h96q28 0 28 26v491h-124v36h55q54 0 87.5 29t41.5 70h32v-626q0 -26 28 -26h96v-32h-340z" />
    <glyph glyph-name="two" unicode="2" horiz-adv-x="580" 
d="M473 0h-390q0 25 3 44.5t12.5 50t35 64t64.5 66.5l96 82q96 81 96 194q0 78 -38 120.5t-108 42.5q-49 0 -88.5 -32.5t-39.5 -72.5q0 -43 41 -50q32 -5 47.5 -21.5t15.5 -39.5q0 -19 -13.5 -32t-37.5 -13q-41 0 -68 32.5t-27 85.5q0 77 56.5 128t141.5 51q98 0 161 -53.5
t63 -145.5q0 -33 -14 -64t-41 -59t-48 -45.5t-53 -40.5l-98 -76q-87 -61 -87 -110q0 -24 31 -24h189q40 0 56.5 17.5t22.5 49.5l11 59h22z" />
    <glyph glyph-name="three" unicode="3" horiz-adv-x="580" 
d="M271 700q91 0 146.5 -48.5t55.5 -127.5q0 -61 -40 -102.5t-88 -52.5v-8q54 -9 104.5 -57t50.5 -119q0 -91 -70.5 -146t-173.5 -55q-80 0 -132 34.5t-52 100.5q0 36 21 61.5t55 25.5q29 0 45.5 -15.5t16.5 -42.5q0 -21 -12.5 -36.5t-32.5 -15.5q-35 0 -35 -17
q0 -63 126 -63q50 0 82.5 27t44 63t11.5 80q0 80 -34.5 120t-84.5 40q-25 0 -48 -9q-33 -11 -51 -11q-15 0 -26.5 7t-11.5 21q0 28 38 28q17 0 47 -5q20 -3 55 -3q48 0 73.5 43.5t25.5 99.5q0 65 -30 108t-87 43q-59 0 -83.5 -19t-24.5 -43q0 -22 26 -34q36 -15 36 -49
q0 -21 -14 -34.5t-40 -13.5q-29 0 -50.5 24.5t-21.5 54.5q0 70 53.5 108t129.5 38z" />
    <glyph glyph-name="four" unicode="4" horiz-adv-x="580" 
d="M310 534l-208 -306h208v306zM186 0v32h97q27 0 27 26v134h-254v36l310 457h36v-457h121v-36h-121v-134q0 -26 27 -26h97v-32h-340z" />
    <glyph glyph-name="five" unicode="5" horiz-adv-x="580" 
d="M268 -16q-83 0 -132.5 42t-49.5 105q0 47 24 72t56 25q27 0 42.5 -16.5t15.5 -41.5q0 -37 -36 -53q-30 -14 -30 -33q0 -68 110 -68q50 0 83 33.5t45 82t12 110.5q0 190 -136 190q-54 0 -93 -39q-23 -23 -23 -55q0 -25 -20 -25q-16 0 -16 25v345l22 17q21 -18 61.5 -30
t75.5 -12q95 0 167 42l12 -14q-36 -47 -88.5 -75.5t-111.5 -28.5q-63 0 -102 20v-191l6 -2q51 59 130 59q105 0 163.5 -62t58.5 -164q0 -111 -72 -184.5t-174 -73.5z" />
    <glyph glyph-name="six" unicode="6" horiz-adv-x="580" 
d="M298 16q42 0 69.5 32t37 72t9.5 86q0 80 -24 133t-80 53q-53 0 -88.5 -51.5t-35.5 -134.5t26 -136.5t86 -53.5zM298 -16q-98 0 -158 89t-60 241q0 82 21 161t61 131q73 94 171 94q71 0 115 -48q28 -33 28 -79q0 -35 -25 -57q-17 -15 -41 -15q-23 0 -36 18q-8 10 -8 29
q0 15 13 30q9 10 19 17q16 12 16 28q0 18 -20.5 31.5t-62.5 13.5q-81 0 -123 -91q-17 -37 -26 -93t-9 -94v-45l7 -3q18 38 55.5 62.5t72.5 24.5q67 0 113 -33q39 -28 60 -75.5t21 -101.5q0 -87 -55.5 -161t-148.5 -74z" />
    <glyph glyph-name="seven" unicode="7" horiz-adv-x="580" 
d="M104 684h384q0 -52 -15.5 -119t-52.5 -122l-57 -86q-41 -79 -41 -130q0 -43 6 -75l6 -35q8 -40 8 -70q0 -63 -59 -63q-36 0 -57.5 26t-21.5 70q0 31 12.5 70t23.5 60.5t38 68.5t31 54l80 115q51 73 51 128q0 26 -31 26h-207q-40 0 -56.5 -17.5t-22.5 -49.5l-11 -59h-22z
" />
    <glyph glyph-name="eight" unicode="8" horiz-adv-x="580" 
d="M289 668q-62 0 -104.5 -35t-42.5 -93q0 -42 20.5 -67t64.5 -43l129 -49q80 43 80 141q0 62 -43 104t-104 42zM281 -16q-92 0 -156.5 52t-64.5 138q0 73 41 114t87 54v4l-11 5q-53 22 -81 65t-28 100q0 79 68 131.5t153 52.5q101 0 156 -51.5t55 -120.5q0 -54 -34.5 -93.5
t-80.5 -60.5v-4l23 -9q118 -48 118 -151q0 -96 -65 -161t-180 -65zM292 16q55 0 92 25.5t50.5 55.5t13.5 59q0 56 -24.5 83t-71.5 46l-135 49q-87 -36 -87 -162q0 -80 48.5 -118t113.5 -38z" />
    <glyph glyph-name="nine" unicode="9" horiz-adv-x="580" 
d="M282 668q-42 0 -69.5 -32t-37 -72t-9.5 -86q0 -80 24 -133t80 -53q53 0 88.5 51.5t35.5 134.5t-26 136.5t-86 53.5zM247 -16q-71 0 -115 48q-28 33 -28 79q0 35 25 57q17 15 41 15q23 0 36 -18q8 -10 8 -29q0 -15 -13 -30q-9 -10 -19 -17q-16 -12 -16 -28
q0 -18 20.5 -31.5t62.5 -13.5q81 0 123 91q17 37 26 93t9 94v45l-7 3q-18 -38 -55.5 -62.5t-72.5 -24.5q-67 0 -113 33q-39 28 -60 75.5t-21 101.5q0 87 55.5 161t148.5 74q98 0 158 -89t60 -241q0 -82 -21 -161t-61 -131q-73 -94 -171 -94z" />
    <glyph glyph-name="colon" unicode=":" horiz-adv-x="280" 
d="M140 -12q-27 0 -44.5 17.5t-17.5 44.5t17.5 44.5t44.5 17.5t44.5 -17.5t17.5 -44.5t-17.5 -44.5t-44.5 -17.5zM140 344q-27 0 -44.5 17.5t-17.5 44.5t17.5 44.5t44.5 17.5t44.5 -17.5t17.5 -44.5t-17.5 -44.5t-44.5 -17.5z" />
    <glyph glyph-name="less" unicode="&#x3c;" horiz-adv-x="940" 
d="M840 -156l-756 406v28l756 406l20 -36l-714 -384l714 -384z" />
    <glyph glyph-name="equal" unicode="=" horiz-adv-x="940" 
d="M48 338v40h844v-40h-844zM48 148v40h844v-40h-844z" />
    <glyph glyph-name="greater" unicode="&#x3e;" horiz-adv-x="940" 
d="M100 684l756 -406v-28l-756 -406l-20 36l714 384l-714 384z" />
    <glyph glyph-name="question" unicode="?" horiz-adv-x="470" 
d="M232 694q82 0 139 -40.5t57 -111.5q0 -31 -12 -59t-37 -53t-44 -40t-54 -39q-89 -61 -89 -119q0 -48 56 -48q26 0 43 18t17 48q0 16 -5 26l18 8q11 -18 11 -35q0 -40 -26.5 -67.5t-57.5 -27.5q-39 0 -64.5 21t-25.5 60q0 30 11.5 51t36.5 48l76 82q29 32 43.5 60t14.5 66
q0 53 -29 87.5t-86 34.5q-46 0 -81.5 -24t-35.5 -54q0 -23 6 -29q5 -4 10 -4q7 0 10 1q7 2 18 2q17 0 26.5 -11.5t9.5 -28.5q0 -21 -14 -34.5t-41 -13.5q-28 0 -48.5 23.5t-20.5 63.5q0 59 52.5 99t115.5 40zM248 -12q-27 0 -44.5 17.5t-17.5 44.5t17.5 44.5t44.5 17.5
t44.5 -17.5t17.5 -44.5t-17.5 -44.5t-44.5 -17.5z" />
    <glyph glyph-name="at" unicode="@" horiz-adv-x="820" 
d="M318 131q-45 0 -78.5 32t-33.5 92q0 63 17 125t50 101q82 98 176 98q26 0 46.5 -19t24.5 -36h5l11 43h72l-84 -310q-11 -49 -0.5 -75.5t30.5 -26.5q47 0 81 23.5t51 62.5t24.5 77.5t7.5 78.5q0 143 -83.5 224t-223.5 81q-131 0 -223 -105.5t-92 -261.5q0 -151 86 -238
t238 -87q88 0 176 58l16 -23q-87 -63 -202 -63q-168 0 -265 102.5t-97 270.5q0 155 108.5 265t263.5 110q163 0 254.5 -100t91.5 -253q0 -39 -14 -80.5t-40.5 -79.5t-72 -62t-101.5 -24q-38 0 -64.5 20t-30.5 55l-5 1q-17 -26 -49 -51t-71 -25zM322 155q51 0 91.5 53
t60.5 127l23 85q11 42 -3 88.5t-45 46.5q-40 0 -71.5 -27.5t-61.5 -92.5q-18 -39 -30 -98.5t-12 -113.5q0 -31 15 -49.5t33 -18.5z" />
    <glyph glyph-name="A" unicode="A" horiz-adv-x="764" 
d="M266 246h205l-104 303zM46 0v32h37q58 0 84 73l217 607h25l217 -636q18 -44 60 -44h56v-32h-310v32h66q15 0 25 7.5t10 17.5q0 13 -4 22l-45 131h-231l-23 -65q-14 -40 -14 -60q0 -21 11.5 -37t39.5 -16h53v-32h-274z" />
    <glyph glyph-name="B" unicode="B" horiz-adv-x="690" 
d="M253 356v-297q0 -27 27 -27h108q140 0 140 162t-140 162h-135zM62 0v32h72q27 0 27 27v594q0 27 -27 27h-72v32h326q92 0 158 -48.5t66 -121.5q0 -68 -46 -112t-107 -57v-4q65 -5 120 -53.5t55 -121.5q0 -91 -68 -142.5t-167 -51.5h-337zM253 388h131q81 0 110.5 41.5
t29.5 112.5q0 60 -38 99t-94 39h-112q-27 0 -27 -27v-265z" />
    <glyph glyph-name="C" unicode="C" horiz-adv-x="670" 
d="M70 362q0 101 33 184t97 133.5t150 50.5q61 0 124 -46q16 -10 26 -19q16 -14 28 -14q8 0 11.5 4.5t8.5 17.5l17 49h25v-278h-25q-33 122 -92.5 188t-122.5 66q-42 0 -73 -16t-50 -43t-31 -71t-16 -92.5t-4 -113.5t5 -115t18 -95.5t34 -74.5t54.5 -46t78.5 -17q50 0 89 21
t62.5 57t36.5 78t16 89h36q-1 -22 -4.5 -45t-11.5 -50.5t-20 -52.5t-31 -49t-42.5 -41.5t-57 -28t-73.5 -10.5q-70 0 -127.5 33t-93.5 87t-55.5 121t-19.5 139z" />
    <glyph glyph-name="D" unicode="D" horiz-adv-x="780" 
d="M62 0v32h72q27 0 27 27v594q0 27 -27 27h-72v32h366q127 0 214.5 -98.5t87.5 -251.5q0 -154 -88 -258t-214 -104h-366zM624 362q0 85 -18 153.5t-64.5 116.5t-117.5 48h-144q-27 0 -27 -27v-594q0 -27 27 -27h144q53 0 93.5 29t63 77.5t33 104.5t10.5 119z" />
    <glyph glyph-name="E" unicode="E" horiz-adv-x="690" 
d="M62 0v32h72q27 0 27 27v594q0 27 -27 27h-72v32h558l4 -226h-25l-1 20q-2 21 -12 55t-28 61q-38 58 -117 58h-161q-27 0 -27 -27v-273h88q27 0 45 12.5t25 35.5t9.5 43t2.5 47h26v-313h-26q0 28 -2 47.5t-9.5 43t-25.5 36t-45 12.5h-88v-285q0 -27 27 -27h160
q27 0 58.5 12.5t51.5 38.5q20 28 34.5 74t18.5 79l4 32h25l-12 -268h-558z" />
    <glyph glyph-name="F" unicode="F" horiz-adv-x="676" 
d="M68 0v32h66q27 0 27 27v594q0 27 -27 27h-72v32h558l4 -226h-25l-1 20q-2 21 -12 55t-28 61q-38 58 -117 58h-161q-27 0 -27 -27v-273h88q27 0 45 12.5t25 35.5t9.5 43t2.5 47h26v-313h-26q0 28 -2 47.5t-9.5 43t-25.5 36t-45 12.5h-88v-285q0 -27 27 -27h88v-32h-300z
" />
    <glyph glyph-name="G" unicode="G" horiz-adv-x="720" 
d="M350 730q61 0 124 -46q16 -11 26 -19q15 -14 28 -14q8 0 11.5 4.5t8.5 17.5l17 49h25v-278h-25q-33 122 -92.5 188t-122.5 66q-53 0 -88 -24t-53.5 -71.5t-25.5 -106t-7 -140.5t7 -140t25.5 -106t53.5 -72t88 -24q56 0 102 56.5t46 118.5v106q0 27 -27 27h-72v32h291v-32
h-73q-27 0 -27 -27v-308h-32v91q0 34 -17 34t-35 -30q-23 -37 -65 -68.5t-91 -31.5q-85 0 -149 51t-97.5 134.5t-33.5 188.5q0 101 32.5 185.5t97.5 136.5t150 52z" />
    <glyph glyph-name="H" unicode="H" horiz-adv-x="788" 
d="M62 0v32h72q27 0 27 27v594q0 27 -27 27h-72v32h290v-32h-72q-27 0 -27 -27v-261h302v261q0 27 -27 27h-72v32h290v-32h-72q-27 0 -27 -27v-594q0 -27 27 -27h72v-32h-290v32h72q27 0 27 27v297h-302v-297q0 -27 27 -27h72v-32h-290z" />
    <glyph glyph-name="I" unicode="I" horiz-adv-x="394" 
d="M62 0v32h72q27 0 27 27v594q0 27 -27 27h-72v32h290v-32h-72q-27 0 -27 -27v-594q0 -27 27 -27h72v-32h-290z" />
    <glyph glyph-name="J" unicode="J" horiz-adv-x="540" 
d="M508 712v-32h-72q-27 0 -27 -27v-459q0 -98 -57 -155t-138 -57q-74 0 -122 39t-48 106q0 43 23 67t54 24q29 0 45 -16t16 -41q0 -20 -14 -34.5t-34 -14.5q-16 0 -23 -7t-7 -23q0 -31 32 -49.5t78 -18.5q49 0 76 38t27 91v510q0 27 -27 27h-72v32h290z" />
    <glyph glyph-name="K" unicode="K" horiz-adv-x="756" 
d="M62 0v32h72q27 0 27 27v594q0 27 -27 27h-72v32h285v-32h-67q-27 0 -27 -27v-310l231 236l10.5 14t7.5 12t4.5 14t1.5 19q0 18 -13 30t-32 12h-27v32h264v-32h-40q-33 0 -90 -59l-168 -170l204 -375q13 -25 29 -34.5t46 -9.5h33v-32h-302v32h67q11 0 19 6.5t8 14.5
q0 15 -7 25l-163 306l-83 -84v-241q0 -27 27 -27h67v-32h-285z" />
    <glyph glyph-name="L" unicode="L" horiz-adv-x="670" 
d="M62 0v32h72q27 0 27 27v594q0 27 -27 27h-72v32h306v-32h-88q-27 0 -27 -27v-594q0 -27 27 -27h140q26 0 58 13t52 39q20 28 34.5 74t18.5 78l4 33h25l-13 -269h-537z" />
    <glyph glyph-name="M" unicode="M" horiz-adv-x="838" 
d="M62 0v32h36q28 0 45.5 21.5t17.5 58.5v541q0 27 -27 27h-72v32h212l163 -551l152 551h207v-32h-72q-27 0 -27 -27v-594q0 -27 27 -27h72v-32h-290v32h72q27 0 27 27v590l-183 -661h-24l-191 634h-6v-510q0 -37 17.5 -58.5t45.5 -21.5h36v-32h-238z" />
    <glyph glyph-name="N" unicode="N" horiz-adv-x="770" 
d="M62 0v32h36q29 0 46 21.5t17 58.5v541q-1 27 -27 27h-72v32h189l347 -558v446q0 37 -17 58.5t-45 21.5h-36v32h238v-32h-36q-28 0 -46 -21.5t-18 -58.5v-618h-40l-393 621h-4v-491q0 -37 17.5 -58.5t45.5 -21.5h36v-32h-238z" />
    <glyph glyph-name="O" unicode="O" horiz-adv-x="700" 
d="M360 -18q-84 0 -151.5 54.5t-103 139.5t-35.5 180t35.5 180t103 139.5t151.5 54.5t151.5 -54.5t103 -139.5t35.5 -180t-35.5 -180t-103 -139.5t-151.5 -54.5zM360 14q184 0 184 342t-184 342t-184 -342t184 -342z" />
    <glyph glyph-name="P" unicode="P" horiz-adv-x="680" 
d="M62 0v32h72q27 0 27 27v594q0 27 -27 27h-72v32h334q106 0 173 -51.5t67 -134.5t-67 -136.5t-173 -53.5h-143v-277q0 -27 27 -27h88v-32h-306zM253 368h156q54 0 87.5 46.5t33.5 111.5t-33 109.5t-88 44.5h-129q-27 0 -27 -27v-285z" />
    <glyph glyph-name="Q" unicode="Q" horiz-adv-x="700" 
d="M360 -18q-84 0 -151.5 54.5t-103 139.5t-35.5 180t35.5 180t103 139.5t151.5 54.5t152.5 -54.5t103 -141.5t34.5 -178q0 -107 -44.5 -199t-122.5 -140l8 -54q5 -34 23 -48q19 -15 44 -15q73 0 73 150h19q0 -218 -123 -218q-48 0 -79.5 33.5t-31.5 86.5v38q-29 -8 -56 -8z
M360 14q32 0 56 10v28q0 39 -15.5 63t-46.5 24q-24 0 -40.5 -21t-16.5 -46q0 -31 11.5 -44.5t51.5 -13.5zM355 171q89 0 118 -108q71 80 71 293q0 342 -184 342t-184 -342q0 -233 87 -309q-3 11 -3 28q0 38 28 67t67 29z" />
    <glyph glyph-name="R" unicode="R" horiz-adv-x="716" 
d="M253 400h97q155 0 155 152q0 61 -32.5 94.5t-88.5 33.5h-104q-27 0 -27 -27v-253zM62 0v32h72q27 0 27 27v594q0 27 -27 27h-72v32h328q105 0 163 -41.5t58 -118.5q0 -74 -55.5 -119t-133.5 -53v-4q57 -11 93.5 -52.5t48.5 -141.5q10 -82 19 -106t33 -24q43 0 43 108h25
q0 -172 -104 -172q-66 0 -91 47q-27 52 -29 177q-1 67 -24 111.5t-74 44.5h-109v-309q0 -27 27 -27h89v-32h-307z" />
    <glyph glyph-name="S" unicode="S" horiz-adv-x="620" 
d="M88 306h24q10 -113 82 -202.5t157 -89.5q82 0 119.5 40t37.5 96q0 49 -28.5 77t-83.5 50l-152 61q-154 61 -154 204q0 96 56 142t140 46q40 0 78 -18.5t68 -41.5q24 -18 38 -18q17 0 20 24l4 36h24l10 -260h-24q-24 108 -88 177t-138 69q-56 0 -92 -36.5t-36 -101.5
q0 -45 23 -70t68 -43l193 -77q67 -27 100.5 -77t33.5 -105q0 -83 -55 -144.5t-162 -61.5q-37 0 -77.5 17t-51.5 25t-36 25.5t-30 20.5t-9 3q-8 0 -15.5 -10.5t-9.5 -32.5l-4 -40h-23z" />
    <glyph glyph-name="T" unicode="T" horiz-adv-x="714" 
d="M72 444l8 268h574l8 -268h-25q0 11 -2 35t-15 72.5t-35 76.5q-41 52 -99 52h-46q-27 0 -27 -27v-594q0 -27 27 -27h96v-32h-338v32h96q27 0 27 27v594q0 27 -27 27h-46q-60 0 -99 -52q-22 -28 -35 -76.5t-15 -72.5t-2 -35h-25z" />
    <glyph glyph-name="U" unicode="U" horiz-adv-x="804" 
d="M424 -18q-69 0 -121 21.5t-82 58t-45 81t-15 94.5v416q0 27 -27 27h-72v32h291v-32h-73q-27 0 -27 -27v-443q0 -93 45 -144.5t126 -51.5q94 0 146.5 53.5t52.5 130.5v401q0 37 -18 59t-46 22h-35v32h238v-32h-35q-28 0 -46 -22t-18 -59v-391q0 -97 -64.5 -161.5
t-174.5 -64.5z" />
    <glyph glyph-name="V" unicode="V" horiz-adv-x="772" 
d="M399 -18l-233 654q-9 25 -23 34.5t-36 9.5h-63v32h320v-32h-66q-14 0 -24 -7.5t-10 -17.5q0 -11 4 -22l171 -481l132 406q12 37 12 70q0 21 -12.5 36.5t-38.5 15.5h-54v32h270v-32h-37q-60 0 -84 -73l-203 -625h-25z" />
    <glyph glyph-name="W" unicode="W" horiz-adv-x="1068" 
d="M349 -18l-190 654q-16 44 -59 44h-62v32h296v-32h-48q-14 0 -24 -7.5t-10 -17.5q0 -8 4 -22l133 -460l121 438l-10 32q-13 37 -71 37h-29v32h296v-32h-39q-51 0 -51 -52q0 -14 6 -31l126 -433l125 394q11 43 11 72q0 20 -18 35t-48 15h-34v32h270v-32h-43q-58 0 -81 -73
l-199 -625h-25l-164 556l-158 -556h-25z" />
    <glyph glyph-name="X" unicode="X" horiz-adv-x="750" 
d="M46 0v32h31q29 0 48.5 10t28.5 24.5t22 32.5l169 253l-149 276q-15 28 -30.5 40t-48.5 12h-61v32h310v-32h-60q-18 0 -18 -15q0 -13 8 -26l108 -200l95 142q20 30 20 57q0 17 -13.5 29.5t-35.5 12.5h-31v32h270v-32h-45q-56 0 -88 -49l-153 -230l177 -325q25 -44 62 -44
h62v-32h-310v32h60q27 0 27 21q0 11 -7 25l-128 236l-115 -175q-25 -38 -25 -63q0 -18 9 -31t27 -13h54v-32h-270z" />
    <glyph glyph-name="Y" unicode="Y" horiz-adv-x="728" 
d="M224 0v32h96q27 0 27 27v259l-194 318q-15 26 -27 35t-32 9h-52v32h310v-32h-56q-15 0 -25 -7t-10 -18q0 -15 5 -22l154 -267l102 196q5 7 11 28t6 33q0 24 -13.5 40.5t-41.5 16.5h-30v32h248v-32h-29q-24 0 -43 -13.5t-27 -25t-21 -34.5l-143 -272v-276q0 -27 27 -27h96
v-32h-338z" />
    <glyph glyph-name="Z" unicode="Z" horiz-adv-x="652" 
d="M68 0v32l414 648h-188q-59 0 -109 -58q-33 -39 -52.5 -96.5t-19.5 -69.5h-25l36 256h464v-32l-410 -648h221q55 0 103 56q25 29 44.5 77.5t27.5 82.5l7 34h25l-24 -282h-514z" />
    <glyph glyph-name="bracketleft" unicode="[" horiz-adv-x="380" 
d="M120 -186v904l186 12l4 -26l-96 -16q-22 -4 -22 -32v-780q0 -28 22 -32l96 -16l-4 -26z" />
    <glyph glyph-name="backslash" unicode="\" horiz-adv-x="450" 
d="M394 -198h-40l-298 928h40z" />
    <glyph glyph-name="bracketright" unicode="]" horiz-adv-x="380" 
d="M260 -186l-186 -12l-4 26l96 16q22 4 22 32v780q0 28 -22 32l-96 16l4 26l186 -12v-904z" />
    <glyph glyph-name="asciicircum" unicode="^" horiz-adv-x="580" 
d="M62 336l230 364l226 -364h-48l-178 286l-182 -286h-48z" />
    <glyph glyph-name="underscore" unicode="_" horiz-adv-x="520" 
d="M0 -158v40h520v-40h-520z" />
    <glyph glyph-name="grave" unicode="`" 
d="M104 684q26 0 49 -32l92 -133l-13 -11l-128 101q-28 21 -28 44q0 31 28 31z" />
    <glyph glyph-name="grave" unicode="&#x2cb;" 
d="M104 684q26 0 49 -32l92 -133l-13 -11l-128 101q-28 21 -28 44q0 31 28 31z" />
    <glyph glyph-name="a" unicode="a" horiz-adv-x="500" 
d="M130 103q0 -79 62 -79q24 0 43.5 11.5t34 34t22 39t16.5 41.5v95l-87 -19q-48 -10 -69.5 -39.5t-21.5 -83.5zM46 106q0 31 12 55.5t27.5 38.5t42.5 25t43.5 15t44.5 9l92 17v85q0 93 -93 93q-34 0 -62 -17.5t-28 -39.5q0 -10 3 -15q4 -8 15 -10q37 -10 37 -39
q0 -39 -44 -39q-22 0 -40 17t-18 49q0 55 43 86.5t97 31.5q66 0 114 -34.5t48 -107.5v-246q0 -50 31 -50q47 0 47 100h18q0 -142 -80 -142q-85 0 -88 96l-5 2q-15 -35 -48.5 -66.5t-78.5 -31.5q-53 0 -91.5 26t-38.5 92z" />
    <glyph glyph-name="b" unicode="b" horiz-adv-x="512" 
d="M290 12q48 0 67 56.5t19 159.5t-19 159.5t-67 56.5q-47 0 -84.5 -56.5t-37.5 -125.5v-93q0 -61 33.5 -109t88.5 -48zM96 0v666q0 22 -22 22h-52v24h146v-320l6 -2q20 33 52.5 55.5t65.5 22.5q79 0 125.5 -69t46.5 -171t-48.5 -171t-127.5 -69q-87 0 -142 96l-4 -2
l-28 -82h-18z" />
    <glyph glyph-name="c" unicode="c" horiz-adv-x="436" 
d="M244 -12q-87 0 -141.5 69.5t-54.5 170.5t55 170.5t141 69.5q68 0 109 -40.5t41 -90.5q0 -31 -16 -48.5t-39 -17.5q-20 0 -33.5 13t-13.5 31q0 35 34 46q16 5 16 18q0 20 -25 42.5t-73 22.5q-63 0 -85.5 -54t-22.5 -162t22 -162t86 -54q61 0 94 43t40 101h24
q-4 -65 -45 -116.5t-113 -51.5z" />
    <glyph glyph-name="d" unicode="d" horiz-adv-x="522" 
d="M222 12q55 0 88.5 48t33.5 109v93q0 69 -37.5 125.5t-84.5 56.5q-48 0 -67 -56.5t-19 -159.5t19 -159.5t67 -56.5zM344 0v42l-5 3q-49 -57 -115 -57q-79 0 -127.5 69t-48.5 171t46.5 171t125.5 69q33 0 65.5 -22.5t52.5 -55.5l6 2v274q0 22 -22 22h-72v24h166v-666
q0 -22 22 -22h52v-24h-146z" />
    <glyph glyph-name="e" unicode="e" horiz-adv-x="460" 
d="M136 252h190q0 36 -5 68t-15 61t-29 46t-45 17t-45 -17t-30 -46t-16 -61.5t-5 -67.5zM48 228q0 62 23 116t66.5 89t98.5 35q36 0 66 -15t50 -40t34 -57t20 -65t6 -67h-276q0 -49 5 -85.5t17 -66t35 -45t57 -15.5q20 0 38.5 6t38 21t33 45t18.5 72h24q-6 -74 -45 -121
t-109 -47q-90 0 -145 67t-55 173z" />
    <glyph glyph-name="f" unicode="f" horiz-adv-x="330" 
d="M28 0v24h52q22 0 22 22v382h-74v28h74v69q0 98 46 146.5t107 48.5q43 0 73 -26.5t30 -75.5q0 -26 -12.5 -41t-34.5 -15q-18 0 -29.5 11.5t-11.5 30.5q0 24 18 36q16 9 16 24q0 32 -51 32q-79 0 -79 -143v-97h94v-28h-94v-382q0 -22 22 -22h72v-24h-240z" />
    <glyph glyph-name="g" unicode="g" horiz-adv-x="540" 
d="M52 -122q0 37 29 65t69 34v3q-88 19 -88 74q0 41 31.5 64.5t77.5 31.5v3q-101 43 -101 151q0 76 52.5 120t125.5 44q42 0 82.5 -19t50.5 -33q9 26 29 39t40 13q34 0 56 -20t22 -52q0 -24 -11.5 -39t-30.5 -15q-16 0 -28 8.5t-12 27.5q0 22 17 32q11 7 11 18q0 16 -27 16
q-18 0 -32.5 -14.5t-16.5 -33.5q28 -39 28 -92q0 -75 -51.5 -119.5t-126.5 -44.5q-57 0 -101.5 -15.5t-44.5 -51.5q0 -33 64 -33q21 0 34 1q12 1 31 1h103q64 0 107 -34.5t43 -101.5q0 -70 -59.5 -107t-156.5 -37q-88 0 -152 28t-64 88zM150 304q0 -66 26 -103t72 -37t72 37
t26 103t-26 103t-72 37t-72 -37t-26 -103zM96 -120q0 -47 53 -70.5t119 -23.5q45 0 82.5 8.5t67.5 35t30 68.5q0 31 -18.5 53.5t-64.5 22.5h-111q-40 0 -73 -7.5t-59 -29.5t-26 -57z" />
    <glyph glyph-name="h" unicode="h" horiz-adv-x="544" 
d="M28 0v24h56q22 0 22 22v620q0 22 -22 22h-56v24h150v-348l4 -1q26 50 62.5 77.5t76.5 27.5q50 0 81 -26q46 -37 46 -123v-273q0 -22 22 -22h42v-24h-200v24h42q22 0 22 22v293q0 105 -64 105q-45 0 -89.5 -57.5t-44.5 -132.5v-208q0 -22 22 -22h42v-24h-214z" />
    <glyph glyph-name="i" unicode="i" horiz-adv-x="270" 
d="M132 580q-22 0 -37 15t-15 37t15 37t37 15t37 -15t15 -37t-15 -37t-37 -15zM38 0v24h42q22 0 22 22v364q0 22 -22 22h-42v24h136v-410q0 -22 22 -22h42v-24h-200z" />
    <glyph glyph-name="j" unicode="j" horiz-adv-x="320" 
d="M52 432v24h166v-499q0 -98 -46 -146.5t-107 -48.5q-43 0 -73 26.5t-30 75.5q0 26 12.5 41t34.5 15q18 0 29.5 -11.5t11.5 -30.5q0 -24 -18 -36q-16 -9 -16 -24q0 -32 51 -32q79 0 79 143v481q0 22 -22 22h-72zM176 580q-22 0 -37 15t-15 37t15 37t37 15t37 -15t15 -37
t-15 -37t-37 -15z" />
    <glyph glyph-name="k" unicode="k" horiz-adv-x="520" 
d="M28 0v24h52q22 0 22 22v620q0 22 -22 22h-52v24h146v-509l136 167q18 22 18 36q0 26 -34 26h-26v24h204v-24h-32q-27 0 -48 -14t-48 -47l-76 -93l156 -222q7 -10 11.5 -17t12.5 -11t22 -4h20v-24h-212v24h26q27 0 27 20q0 15 -14 36l-97 140l-46 -56v-118q0 -22 22 -22
h32v-24h-200z" />
    <glyph glyph-name="l" unicode="l" horiz-adv-x="270" 
d="M28 0v24h52q22 0 22 22v620q0 22 -22 22h-52v24h146v-666q0 -22 22 -22h52v-24h-220z" />
    <glyph glyph-name="m" unicode="m" horiz-adv-x="794" 
d="M38 0v24h42q22 0 22 22v364q0 22 -22 22h-42v24h136v-88l4 -1q54 101 129 101q52 0 83 -26q30 -24 42 -84l4 -1q5 12 14 27t25.5 36t41 34.5t52.5 13.5q52 0 83 -26q46 -37 46 -123v-273q0 -22 22 -22h42v-24h-200v24h42q22 0 22 22v293q0 43 -15.5 74t-50.5 31
q-44 0 -84 -57t-40 -133v-208q0 -22 22 -22h42v-24h-200v24h42q22 0 22 22v293q0 43 -15.5 74t-50.5 31q-44 0 -84 -57t-40 -133v-208q0 -22 22 -22h42v-24h-200z" />
    <glyph glyph-name="n" unicode="n" horiz-adv-x="540" 
d="M38 0v24h42q22 0 22 22v364q0 22 -22 22h-42v24h136v-92l4 -1q26 50 62.5 77.5t76.5 27.5q50 0 81 -26q46 -37 46 -123v-273q0 -22 22 -22h42v-24h-200v24h42q22 0 22 22v293q0 105 -64 105q-45 0 -89.5 -57.5t-44.5 -132.5v-208q0 -22 22 -22h42v-24h-200z" />
    <glyph glyph-name="o" unicode="o" horiz-adv-x="496" 
d="M248 12q112 0 112 216t-112 216t-112 -216t112 -216zM248 -12q-84 0 -142 70.5t-58 169.5t58 169.5t142 70.5t142 -70.5t58 -169.5t-58 -169.5t-142 -70.5z" />
    <glyph glyph-name="p" unicode="p" horiz-adv-x="518" 
d="M296 12q48 0 67 56.5t19 159.5t-19 159.5t-67 56.5q-47 0 -84.5 -56.5t-37.5 -125.5v-93q0 -61 33.5 -109t88.5 -48zM28 -230v24h52q22 0 22 22v594q0 22 -22 22h-52v24h146v-64l6 -2q20 33 52.5 55.5t65.5 22.5q79 0 125.5 -69t46.5 -171t-48.5 -171t-127.5 -69
q-66 0 -115 57l-5 -3v-226q0 -22 22 -22h52v-24h-220z" />
    <glyph glyph-name="q" unicode="q" horiz-adv-x="502" 
d="M270 -230v24h52q22 0 22 22v226l-5 3q-49 -57 -115 -57q-79 0 -127.5 69t-48.5 171t48.5 171t127.5 69q48 0 83 -32t53 -74l7 2l31 92h18v-640q0 -22 22 -22h52v-24h-220zM222 12q55 0 88.5 48t33.5 109v109q0 59 -36.5 112.5t-85.5 53.5q-48 0 -67 -57t-19 -159t19 -159
t67 -57z" />
    <glyph glyph-name="r" unicode="r" horiz-adv-x="410" 
d="M38 0v24h42q22 0 22 22v364q0 22 -22 22h-42v24h136v-126l4 -1q17 48 41.5 81.5t44.5 43.5q25 14 50 14q38 0 57 -24.5t19 -57.5q0 -24 -14 -46t-42 -22q-19 0 -32 9.5t-13 28.5q0 29 27 44q22 12 22 27q0 17 -28 17q-17 0 -34.5 -9t-38 -38.5t-37.5 -78.5
q-26 -74 -26 -140v-132q0 -22 22 -22h42v-24h-200z" />
    <glyph glyph-name="s" unicode="s" horiz-adv-x="434" 
d="M52 345q0 61 38 92t96 31q53 0 97 -32q22 -16 33 -16q14 0 16 18l2 20h18v-152h-18l-14 35q-22 54 -58.5 78.5t-76.5 24.5q-37 0 -61 -18.5t-24 -51.5q0 -23 12.5 -37.5t33.5 -24.5q36 -19 42 -21l108 -45q48 -20 72 -48q24 -30 24 -80q0 -67 -38 -98.5t-100 -31.5
q-38 0 -66 13.5t-44 27t-27 13.5q-28 0 -35 -34l-4 -20h-18v198h18l34 -72q17 -37 54.5 -69.5t88.5 -32.5q46 0 68.5 22.5t22.5 61.5q0 45 -64 71l-114 46q-116 47 -116 132z" />
    <glyph glyph-name="t" unicode="t" horiz-adv-x="350" 
d="M206 -12q-45 0 -74.5 32t-29.5 87v321h-74v28h22q45 0 70.5 48.5t25.5 107.5v36h28v-192h124v-28h-124v-326q0 -70 53 -70q71 0 71 120h18q0 -23 -1 -38t-6.5 -41.5t-16.5 -42.5t-33 -29t-53 -13z" />
    <glyph glyph-name="u" unicode="u" horiz-adv-x="534" 
d="M223 -12q-50 0 -81 26q-46 37 -46 123v273q0 22 -22 22h-42v24h136v-339q0 -105 64 -105q45 0 89.5 57.5t44.5 132.5v208q0 22 -22 22h-42v24h136v-410q0 -22 22 -22h42v-24h-136v92l-4 1q-26 -50 -62.5 -77.5t-76.5 -27.5z" />
    <glyph glyph-name="v" unicode="v" horiz-adv-x="530" 
d="M264 -12l-165 394q-5 13 -8.5 19.5t-10 15t-14.5 12t-19 3.5h-29v24h216v-24h-28q-12 0 -22 -6.5t-10 -17.5q0 -17 6 -33l112 -270l81 237q11 31 11 51q0 17 -10 28t-26 11h-24v24h182v-24h-23q-22 0 -40.5 -14.5t-28.5 -44.5l-132 -385h-18z" />
    <glyph glyph-name="w" unicode="w" horiz-adv-x="776" 
d="M264 -12l-161 385q-4 9 -7.5 17.5t-7 15t-7.5 11.5t-9.5 8.5t-13 5t-17.5 1.5h-23v24h216v-24h-28q-12 0 -22 -6.5t-10 -17.5q0 -17 6 -33l112 -270l71 237q4 10 4 21q0 5 -11 33q-17 36 -43 36h-23v24h216v-24h-40q-14 0 -21 -6t-7.5 -10.5t-0.5 -13.5q0 -14 5 -27
l96 -270l81 237q11 31 11 51q0 39 -36 39h-24v24h182v-24h-23q-49 0 -69 -59l-136 -385h-18l-120 328l-104 -328h-18z" />
    <glyph glyph-name="x" unicode="x" horiz-adv-x="520" 
d="M34 0v24h26q14 0 25 5.5t19.5 13.5t13.5 14.5t15 21.5l91 136l-122 195q-5 7 -7.5 12t-9 7.5t-17.5 2.5h-30v24h198v-24h-24q-20 0 -20 -20q0 -11 6 -21l69 -112l66 98q9 13 9 32q0 11 -7.5 17t-16.5 6h-24v24h174v-24h-25q-40 0 -69 -44l-91 -134l127 -204
q6 -10 10 -14.5t14 -8t25 -3.5h23v-24h-208v24h30q23 0 23 17q0 9 -7 21l-80 128l-68 -101q-15 -24 -15 -35q0 -30 25 -30h18v-24h-166z" />
    <glyph glyph-name="y" unicode="y" horiz-adv-x="530" 
d="M134 -238q-39 0 -64 25q-28 26 -28 63q0 28 16 42q15 15 34 15q23 0 34.5 -14.5t11.5 -36.5q0 -12 -8 -28q-6 -10 -6 -19q0 -15 20 -15q30 0 50.5 23.5t30.5 55.5l27 87l-142 413q-8 22 -13.5 32.5t-17 18.5t-28.5 8h-33v24h226v-24h-32q-12 0 -22 -6.5t-10 -17.5
q0 -17 6 -33l104 -307l83 274q11 31 11 51q0 17 -10 28t-26 11h-24v24h182v-24h-23q-49 0 -69 -59l-161 -512q-11 -37 -42 -68t-77 -31z" />
    <glyph glyph-name="z" unicode="z" 
d="M40 0v26l260 406h-122q-63 0 -88 -50q-15 -30 -22 -66l-8 -36h-20l6 176h336v-32l-259 -400h127q63 0 88 50q15 30 22 66l8 36h20l-6 -176h-342z" />
    <glyph glyph-name="braceleft" unicode="{" horiz-adv-x="420" 
d="M104 276q56 0 81 14t25 64q0 31 -18 101t-18 107q0 119 150 168l12 -24q-25 -9 -39.5 -15.5t-31 -17.5t-24 -26t-7.5 -35q0 -36 18 -103t18 -103q0 -108 -94 -138v-2q94 -30 94 -144q0 -36 -18 -100t-18 -100q0 -38 25.5 -57t76.5 -37l-12 -24q-150 49 -150 168
q0 37 18 104t18 98q0 50 -26 67t-80 17v18z" />
    <glyph glyph-name="bar" unicode="|" horiz-adv-x="284" 
d="M120 730h44v-928h-44v928z" />
    <glyph glyph-name="braceright" unicode="}" horiz-adv-x="420" 
d="M316 258q-56 0 -81 -14t-25 -64q0 -31 18 -101t18 -107q0 -119 -150 -168l-12 24q25 9 39.5 15.5t31 17.5t24 26t7.5 35q0 36 -18 103t-18 103q0 108 94 138v2q-94 30 -94 138q0 36 18 103t18 103q0 38 -25.5 57t-76.5 37l12 24q150 -49 150 -168q0 -37 -18 -107
t-18 -101q0 -50 25 -64t81 -14v-18z" />
    <glyph glyph-name="asciitilde" unicode="~" horiz-adv-x="660" 
d="M122 290q-16 0 -28 -12.5t-12 -33.5q0 -38 42 -60l-12 -21q-64 29 -64 90q0 40 30 69.5t84 29.5q63 0 208 -64q124 -56 168 -56q16 0 28 12.5t12 33.5q0 38 -42 60l12 21q64 -29 64 -90q0 -40 -30 -69.5t-84 -29.5q-30 0 -69.5 11t-65 21.5t-73.5 31.5q-19 8 -37 16
t-36.5 15.5t-34.5 13t-32 8.5t-28 3z" />
    <glyph glyph-name="nonbreakingspace" unicode="&#xa0;" horiz-adv-x="280" 
 />
    <glyph glyph-name="exclamdown" unicode="&#xa1;" horiz-adv-x="280" 
d="M128 300h24l16 -200q3 -39 18.5 -128t15.5 -138q0 -33 -17 -52.5t-45 -19.5t-45 19.5t-17 52.5q0 49 15.5 138t18.5 128zM140 468q27 0 44.5 -17.5t17.5 -44.5t-17.5 -44.5t-44.5 -17.5t-44.5 17.5t-17.5 44.5t17.5 44.5t44.5 17.5z" />
    <glyph glyph-name="cent" unicode="&#xa2;" horiz-adv-x="580" 
d="M112 228q0 94 50.5 162.5t127.5 76.5v109h32v-109q62 -4 99 -43.5t37 -86.5q0 -31 -16 -48.5t-39 -17.5q-20 0 -33.5 13t-13.5 31q0 35 34 46q16 5 16 18q0 19 -21.5 40t-62.5 24v-431q56 3 84.5 45t35.5 99h24q-3 -40 -17 -75.5t-47 -63t-80 -29.5v-108h-32v109
q-84 9 -131 76t-47 163zM200 228q0 -76 20.5 -137.5t69.5 -75.5v427q-47 -12 -68.5 -75t-21.5 -139z" />
    <glyph glyph-name="sterling" unicode="&#xa3;" horiz-adv-x="720" 
d="M162 -12q-41 0 -69.5 19.5t-28.5 58.5q0 35 29.5 57.5t62.5 22.5q51 0 111 -29q9 39 9 99q0 42 -7 137q-52 9 -65 9q-21 0 -33.5 -2.5t-21 -7.5t-21.5 -12l-14 22q32 28 82 28q19 0 71 -10q-1 14 -1 50q0 113 64.5 191.5t153.5 78.5q52 0 86.5 -24.5t45.5 -50.5t11 -48
q0 -34 -15 -54.5t-45 -20.5q-21 0 -35.5 13t-14.5 34q0 32 25 45q13 7 18 12t5 17q0 19 -19.5 35t-61.5 16q-49 0 -88 -43.5t-39 -128.5v-138q42 -8 61 -8q16 0 27.5 2t19.5 5t15 7l14 8l14 -22q-28 -28 -82 -28q-17 0 -69 9v-65q0 -108 -48 -177q78 -47 190 -47
q45 0 78 37.5t43 82.5l18 -7q-35 -179 -179 -179q-60 0 -180 75q-22 -25 -54.5 -47t-62.5 -22zM162 12q24 0 49 19t40 48q-9 6 -17.5 12t-18.5 11.5t-19.5 10t-21.5 7t-24 2.5q-25 0 -41.5 -16.5t-16.5 -39.5q0 -54 70 -54z" />
    <glyph glyph-name="currency" unicode="&#xa4;" horiz-adv-x="580" 
d="M290 162q78 0 129 51t51 129t-51 130t-129 52t-129 -52t-51 -130t51 -129t129 -51zM290 122q-79 0 -140 50l-67 -67l-31 31l67 67q-49 60 -49 139t50 140l-68 68l31 31l67 -67q61 50 140 50t140 -50l67 67l31 -31l-68 -68q50 -61 50 -140t-49 -139l67 -67l-31 -31l-67 67
q-61 -50 -140 -50z" />
    <glyph glyph-name="yen" unicode="&#xa5;" horiz-adv-x="580" 
d="M136 0v32h74q28 0 28 28v146h-140v32h140v60h-140v32h134l-139 283q-10 20 -19 29q-9 10 -25 10h-35v32h228v-32h-33q-27 0 -27 -17q0 -9 9 -27l120 -244l109 198q20 36 20 55q0 13 -7.5 24t-26.5 11h-42v32h200v-32h-28q-27 0 -36.5 -13t-36.5 -62l-137 -247h140v-32
h-140v-60h140v-32h-140v-146q0 -28 28 -28h74v-32h-292z" />
    <glyph glyph-name="brokenbar" unicode="&#xa6;" horiz-adv-x="284" 
d="M120 -168v360h44v-360h-44zM120 370v360h44v-360h-44z" />
    <glyph glyph-name="section" unicode="&#xa7;" horiz-adv-x="640" 
d="M298 700q46 0 82 -29.5t36 -70.5q0 -26 -15 -41t-37 -15q-21 0 -35.5 13t-14.5 31q0 10 3.5 18t8 11.5t14.5 10.5t10 18q0 30 -52 30q-36 0 -63 -20.5t-27 -57.5q0 -30 10 -54t21.5 -37t36.5 -35l128 -110q37 -31 51.5 -60t14.5 -76q0 -76 -110 -146q58 -62 58 -132
q0 -62 -44 -98t-104 -36q-45 0 -81.5 30t-36.5 72q0 26 15 40t39 14q19 0 33.5 -12.5t14.5 -29.5q0 -26 -24 -41q-12 -7 -12 -19q0 -14 15 -22t37 -8q36 0 63 21t27 57q0 39 -15.5 67.5t-50.5 58.5l-128 108q-34 31 -50 61.5t-16 74.5q0 78 110 148q-60 54 -60 128
q0 62 44.5 100t103.5 38zM342 94q32 18 61 44.5t29 47.5q0 59 -44 94l-140 120l-20 20q-90 -56 -90 -94q0 -55 42 -92l140 -118z" />
    <glyph glyph-name="dieresis" unicode="&#xa8;" 
d="M314 648q22 0 37 -15t15 -37t-15 -37t-37 -15t-37 15t-15 37t15 37t37 15zM126 648q22 0 37 -15t15 -37t-15 -37t-37 -15t-37 15t-15 37t15 37t37 15z" />
    <glyph glyph-name="copyright" unicode="&#xa9;" horiz-adv-x="820" 
d="M76 356q0 -142 97 -244t237 -102t237 102t97 244t-97 244t-237 102t-237 -102t-97 -244zM48 356q0 156 104.5 265t257.5 109t257.5 -109t104.5 -265t-104.5 -265t-257.5 -109t-257.5 109t-104.5 265zM422 110q-95 0 -148.5 69t-53.5 159q0 112 54.5 182t149.5 70
q44 0 82 -32q10 -9 20 -9q9 0 15.5 11.5t6.5 23.5h18v-164h-18q-6 57 -46 101.5t-78 44.5q-116 0 -116 -228q0 -32 5.5 -65t17.5 -65.5t35.5 -53t55.5 -20.5q61 0 91 42t37 102h24q-4 -66 -42.5 -117t-109.5 -51z" />
    <glyph glyph-name="ordfeminine" unicode="&#xaa;" horiz-adv-x="380" 
d="M70 386h240v-24h-240v24zM118 478q0 -18 10.5 -27.5t22.5 -9.5q20 0 33 9.5t24 29.5v94l-39 -20q-51 -26 -51 -76zM62 473q0 29 23.5 51.5t72.5 44.5l50 23v38q0 52 -51 52q-22 0 -38.5 -9t-16.5 -22q0 -6 2 -9t8 -3q10 0 16 -7.5t6 -16.5q0 -12 -8.5 -18.5t-19.5 -6.5
q-17 0 -27.5 9t-10.5 28q0 33 27.5 53t60.5 20q41 0 70.5 -20t29.5 -65v-141q0 -37 23 -37q27 0 27 60h14q0 -85 -52 -85q-27 0 -42 14t-17 36l-2 1q-15 -23 -34 -37t-41 -14q-70 0 -70 61z" />
    <glyph glyph-name="guillemotleft" unicode="&#xab;" horiz-adv-x="480" 
d="M265 228q0 61 27.5 108.5t59.5 73.5l14 -14q-53 -67 -53 -168t53 -168l-14 -14q-32 26 -59.5 73.5t-27.5 108.5zM108 228q0 65 35.5 118t80.5 82l15 -15q-75 -67 -75 -185t75 -185l-15 -15q-45 29 -80.5 82t-35.5 118z" />
    <glyph glyph-name="logicalnot" unicode="&#xac;" horiz-adv-x="580" 
d="M48 326v40h484v-206h-44v166h-440z" />
    <glyph glyph-name="softhyphen" unicode="&#xad;" horiz-adv-x="370" 
d="M60 280h250v-56h-250v56z" />
    <glyph glyph-name="registered" unicode="&#xae;" horiz-adv-x="820" 
d="M336 382h77q33 0 53 23t20 65q0 92 -74 92h-54q-22 0 -22 -22v-158zM200 130v24h42q22 0 22 22v364q0 22 -22 22h-42v24h228q63 0 104.5 -28.5t41.5 -81.5q0 -28 -12.5 -49t-32 -32.5t-34.5 -16.5t-29 -8v-4q81 -17 91 -115q3 -24 4 -46t9 -36.5t24 -14.5q24 0 33 29.5
t9 60.5h18q0 -19 -3 -37t-10.5 -40t-26 -35.5t-45.5 -13.5q-31 0 -51 14q-37 26 -37 87v54q0 47 -20.5 66t-46.5 19h-78v-182q0 -22 22 -22h44v-24h-202zM76 356q0 -142 97 -244t237 -102t237 102t97 244t-97 244t-237 102t-237 -102t-97 -244zM48 356q0 156 104.5 265
t257.5 109t257.5 -109t104.5 -265t-104.5 -265t-257.5 -109t-257.5 109t-104.5 265z" />
    <glyph glyph-name="degree" unicode="&#xb0;" horiz-adv-x="580" 
d="M154 564q0 57 39.5 96.5t96.5 39.5t96.5 -39.5t39.5 -96.5t-39.5 -96.5t-96.5 -39.5t-96.5 39.5t-39.5 96.5zM186 564q0 -45 29.5 -74.5t74.5 -29.5t74.5 29.5t29.5 74.5t-29.5 74.5t-74.5 29.5t-74.5 -29.5t-29.5 -74.5z" />
    <glyph glyph-name="plusminus" unicode="&#xb1;" horiz-adv-x="940" 
d="M48 338v40h400v274h44v-274h400v-40h-400v-274h-44v274h-400zM48 -40v40h836v-40h-836z" />
    <glyph glyph-name="twosuperior" unicode="&#xb2;" 
d="M345 280h-255q0 21 2.5 36.5t20 44t51.5 54.5l63 49q59 47 59 117q0 41 -24 68t-68 27q-32 0 -56 -18t-24 -43t27 -30q37 -5 37 -36q0 -12 -9 -19.5t-25 -7.5q-27 0 -44.5 19.5t-17.5 51.5q0 46 37 76.5t93 30.5q65 0 105.5 -31.5t40.5 -85.5q0 -63 -101 -130l-64 -43
q-55 -37 -55 -60q0 -14 20 -14h122q27 0 36.5 7t14.5 26l9 36h14z" />
    <glyph glyph-name="threesuperior" unicode="&#xb3;" 
d="M235 700q60 0 96.5 -29t36.5 -77q0 -36 -26 -61t-58 -32v-5q36 -5 69 -33.5t33 -71.5q0 -55 -46.5 -88t-114.5 -33q-51 0 -84 22.5t-33 63.5q0 22 14 37t36 15q41 0 41 -34q0 -13 -8 -22.5t-22 -9.5q-25 0 -25 -10q0 -38 81 -38q48 0 68.5 28t20.5 69q0 49 -21.5 73
t-54.5 24q-19 0 -39 -8q-12 -6 -27 -6q-25 0 -25 20t25 20q15 0 28 -4q14 -4 40 -4q31 0 47.5 25t16.5 59q0 39 -19 62t-57 23q-66 0 -66 -39q0 -12 16 -19q23 -9 23 -29q0 -29 -35 -29q-20 0 -34 14.5t-14 32.5q0 43 34.5 68.5t82.5 25.5z" />
    <glyph glyph-name="acute" unicode="&#xb4;" 
d="M336 684q28 0 28 -31q0 -23 -28 -44l-128 -101l-13 11l92 133q23 32 49 32z" />
    <glyph glyph-name="acute" unicode="&#x2ca;" 
d="M336 684q28 0 28 -31q0 -23 -28 -44l-128 -101l-13 11l92 133q23 32 49 32z" />
    <glyph glyph-name="mu1" unicode="&#xb5;" horiz-adv-x="606" 
d="M62 354q0 110 52 110q44 0 44 -88q0 -34 -27 -184q-9 -46 -11 -67q10 -40 43.5 -65.5t79.5 -25.5q29 0 52 9t37 22t23 29t12 28.5t3 21.5q0 26 -9 86q-11 74 -11 126q0 110 52 110q28 0 42 -32t14 -86q0 -52 -13 -132.5t-30 -126.5q11 -18 30 -27.5t38 -9.5q31 0 49 19.5
t24 45.5q22 -27 22 -55q0 -32 -17 -53t-48 -21q-63 0 -103 79l-7 -1q-18 -30 -52.5 -53t-86.5 -23q-54 0 -94 29t-61 70q-5 -31 -5 -59q0 -78 10.5 -120t31.5 -83q22 -43 22 -63q0 -22 -11 -34t-29 -12q-20 0 -35 17t-21 39t-6 43q0 60 12 172q10 93 10 143q-10 32 -18 93
t-8 129z" />
    <glyph glyph-name="paragraph" unicode="&#xb6;" horiz-adv-x="540" 
d="M476 712v-34h-68v-834h-38v834h-100v-834h-38v542q-73 0 -120.5 43.5t-47.5 114.5q0 72 48 120t120 48h244z" />
    <glyph glyph-name="periodcentered" unicode="&#xb7;" horiz-adv-x="280" 
d="M140 254q-27 0 -44.5 17.5t-17.5 44.5t17.5 44.5t44.5 17.5t44.5 -17.5t17.5 -44.5t-17.5 -44.5t-44.5 -17.5z" />
    <glyph glyph-name="cedilla" unicode="&#xb8;" 
d="M114 -176l12 16q11 -9 26.5 -16.5t35.5 -7.5q27 0 44.5 12.5t17.5 38.5q0 27 -10 39q-11 13 -34 18l-34 7l24 69h25l-18 -53l24 -5q41 -9 64 -29.5t23 -54.5q0 -30 -29 -50t-85 -20q-23 0 -47.5 11t-38.5 25z" />
    <glyph glyph-name="onesuperior" unicode="&#xb9;" horiz-adv-x="448" 
d="M112 278v24h63q17 0 17 15v277h-80v28h40q35 0 55.5 20.5t26.5 47.5h22v-373q0 -15 17 -15h63v-24h-224z" />
    <glyph glyph-name="ordmasculine" unicode="&#xba;" horiz-adv-x="380" 
d="M70 386h240v-24h-240v24zM189 430q35 0 50 38t15 88t-15 88t-50 38q-34 0 -48.5 -37.5t-14.5 -88.5t14.5 -88.5t48.5 -37.5zM189 412q-50 0 -84.5 42t-34.5 102t34.5 102t84.5 42q51 0 86 -42t35 -102t-35 -102t-86 -42z" />
    <glyph glyph-name="guillemotright" unicode="&#xbb;" horiz-adv-x="480" 
d="M372 228q0 -65 -35.5 -118t-80.5 -82l-15 15q75 67 75 185t-75 185l15 15q45 -29 80.5 -82t35.5 -118zM215 228q0 -61 -27.5 -108.5t-59.5 -73.5l-14 14q53 67 53 168t-53 168l14 14q32 -26 59.5 -73.5t27.5 -108.5z" />
    <glyph glyph-name="onequarter" unicode="&#xbc;" horiz-adv-x="860" 
d="M648 349l-126 -203h126v203zM576 -2v24h55q17 0 17 15v81h-154v28l166 264h52v-264h72v-28h-72v-81q0 -15 17 -15h55v-24h-208zM112 278v24h63q17 0 17 15v277h-80v28h40q35 0 55.5 20.5t26.5 47.5h22v-373q0 -15 17 -15h63v-24h-224zM244 -18h-36l426 720h36z" />
    <glyph glyph-name="onehalf" unicode="&#xbd;" horiz-adv-x="860" 
d="M765 0h-255q0 21 2.5 36.5t20 44t51.5 54.5l63 49q59 47 59 117q0 41 -24 68t-68 27q-32 0 -56 -18t-24 -43t27 -30q37 -5 37 -36q0 -12 -9 -19.5t-25 -7.5q-27 0 -44.5 19.5t-17.5 51.5q0 46 37 76.5t93 30.5q65 0 105.5 -31.5t40.5 -85.5q0 -63 -101 -130l-64 -43
q-55 -37 -55 -60q0 -14 20 -14h122q27 0 36.5 7t14.5 26l9 36h14zM112 278v24h63q17 0 17 15v277h-80v28h40q35 0 55.5 20.5t26.5 47.5h22v-373q0 -15 17 -15h63v-24h-224zM244 -18h-36l426 720h36z" />
    <glyph glyph-name="threequarters" unicode="&#xbe;" horiz-adv-x="860" 
d="M648 349l-126 -203h126v203zM576 -2v24h55q17 0 17 15v81h-154v28l166 264h52v-264h72v-28h-72v-81q0 -15 17 -15h55v-24h-208zM235 700q60 0 96.5 -29t36.5 -77q0 -36 -26 -61t-58 -32v-5q36 -5 69 -33.5t33 -71.5q0 -55 -46.5 -88t-114.5 -33q-51 0 -84 22.5t-33 63.5
q0 22 14 37t36 15q41 0 41 -34q0 -13 -8 -22.5t-22 -9.5q-25 0 -25 -10q0 -38 81 -38q48 0 68.5 28t20.5 69q0 49 -21.5 73t-54.5 24q-19 0 -39 -8q-12 -6 -27 -6q-25 0 -25 20t25 20q15 0 28 -4q14 -4 40 -4q31 0 47.5 25t16.5 59q0 39 -19 62t-57 23q-66 0 -66 -39
q0 -12 16 -19q23 -9 23 -29q0 -29 -35 -29q-20 0 -34 14.5t-14 32.5q0 43 34.5 68.5t82.5 25.5zM244 -18h-36l426 720h36z" />
    <glyph glyph-name="questiondown" unicode="&#xbf;" horiz-adv-x="470" 
d="M230 -238q-82 0 -139 40.5t-57 111.5q0 31 12 59t37 53t44 40t54 39q89 61 89 119q0 48 -56 48q-26 0 -43 -18t-17 -48q0 -16 5 -26l-18 -8q-11 18 -11 35q0 40 26.5 67.5t57.5 27.5q39 0 64.5 -21t25.5 -60q0 -30 -11.5 -51t-36.5 -48l-76 -82q-29 -32 -43.5 -60
t-14.5 -66q0 -53 29 -87.5t86 -34.5q46 0 81.5 24t35.5 54q0 23 -6 29q-5 4 -10 4q-7 0 -10 -1q-7 -2 -18 -2q-17 0 -26.5 11.5t-9.5 28.5q0 21 14 34.5t41 13.5q28 0 48.5 -23.5t20.5 -63.5q0 -59 -52.5 -99t-115.5 -40zM214 468q27 0 44.5 -17.5t17.5 -44.5t-17.5 -44.5
t-44.5 -17.5t-44.5 17.5t-17.5 44.5t17.5 44.5t44.5 17.5z" />
    <glyph glyph-name="Agrave" unicode="&#xc0;" horiz-adv-x="764" 
d="M280 938q26 0 49 -32l92 -133l-13 -11l-128 101q-28 21 -28 44q0 31 28 31zM266 246h205l-104 303zM46 0v32h37q58 0 84 73l217 607h25l217 -636q18 -44 60 -44h56v-32h-310v32h66q15 0 25 7.5t10 17.5q0 13 -4 22l-45 131h-231l-23 -65q-14 -40 -14 -60q0 -21 11.5 -37
t39.5 -16h53v-32h-274z" />
    <glyph glyph-name="Aacute" unicode="&#xc1;" horiz-adv-x="764" 
d="M512 938q28 0 28 -31q0 -23 -28 -44l-128 -101l-13 11l92 133q23 32 49 32zM266 246h205l-104 303zM46 0v32h37q58 0 84 73l217 607h25l217 -636q18 -44 60 -44h56v-32h-310v32h66q15 0 25 7.5t10 17.5q0 13 -4 22l-45 131h-231l-23 -65q-14 -40 -14 -60q0 -21 11.5 -37
t39.5 -16h53v-32h-274z" />
    <glyph glyph-name="Acircumflex" unicode="&#xc2;" horiz-adv-x="764" 
d="M416 920q47 -90 138 -142l-10 -16q-26 9 -71.5 38.5t-76.5 57.5q-31 -28 -76.5 -57.5t-71.5 -38.5l-10 16q91 52 138 142h40zM266 246h205l-104 303zM46 0v32h37q58 0 84 73l217 607h25l217 -636q18 -44 60 -44h56v-32h-310v32h66q15 0 25 7.5t10 17.5q0 13 -4 22
l-45 131h-231l-23 -65q-14 -40 -14 -60q0 -21 11.5 -37t39.5 -16h53v-32h-274z" />
    <glyph glyph-name="Atilde" unicode="&#xc3;" horiz-adv-x="764" 
d="M470 810q-32 0 -85 20t-77 20q-29 0 -36 -40h-22q0 39 21 66.5t59 27.5q32 0 85 -20t77 -20q29 0 36 40h22q0 -39 -21 -66.5t-59 -27.5zM266 246h205l-104 303zM46 0v32h37q58 0 84 73l217 607h25l217 -636q18 -44 60 -44h56v-32h-310v32h66q15 0 25 7.5t10 17.5
q0 13 -4 22l-45 131h-231l-23 -65q-14 -40 -14 -60q0 -21 11.5 -37t39.5 -16h53v-32h-274z" />
    <glyph glyph-name="Adieresis" unicode="&#xc4;" horiz-adv-x="764" 
d="M498 902q22 0 37 -15t15 -37t-15 -37t-37 -15t-37 15t-15 37t15 37t37 15zM294 902q22 0 37 -15t15 -37t-15 -37t-37 -15t-37 15t-15 37t15 37t37 15zM266 246h205l-104 303zM46 0v32h37q58 0 84 73l217 607h25l217 -636q18 -44 60 -44h56v-32h-310v32h66q15 0 25 7.5
t10 17.5q0 13 -4 22l-45 131h-231l-23 -65q-14 -40 -14 -60q0 -21 11.5 -37t39.5 -16h53v-32h-274z" />
    <glyph glyph-name="Aring" unicode="&#xc5;" horiz-adv-x="764" 
d="M396 754q-40 0 -68.5 28.5t-28.5 69.5q0 40 28 68t69 28t69 -28t28 -68q0 -41 -28.5 -69.5t-68.5 -28.5zM396 778q31 0 52 21t21 53q0 31 -20.5 51.5t-52.5 20.5t-52.5 -20.5t-20.5 -51.5q0 -32 21 -53t52 -21zM266 246h205l-104 303zM46 0v32h37q58 0 84 73l217 607h25
l217 -636q18 -44 60 -44h56v-32h-310v32h66q15 0 25 7.5t10 17.5q0 13 -4 22l-45 131h-231l-23 -65q-14 -40 -14 -60q0 -21 11.5 -37t39.5 -16h53v-32h-274z" />
    <glyph glyph-name="AE" unicode="&#xc6;" horiz-adv-x="1004" 
d="M26 0v32h32q33 0 57.5 18t43.5 55l266 503q10 19 13 28q4 12 4 24q0 20 -25 20h-41v32h558l4 -226h-25l-1 20q-1 16 -12 55q-10 34 -28 61q-38 58 -117 58h-161q-27 0 -27 -27v-273h88q27 0 45 12.5t25 35.5t9.5 43t2.5 47h26v-313h-26q0 28 -2 47.5t-9.5 43t-25.5 36
t-45 12.5h-88v-285q0 -27 27 -27h159q30 0 59 12q34 14 53 40q20 28 34 74t18 78l4 32h25l-12 -268h-553v32h67q27 0 27 27v151h-217l-35 -65q-18 -33 -18 -66q0 -47 44 -47h47v-32h-270zM475 246v374l-198 -374h198z" />
    <glyph glyph-name="Ccedilla" unicode="&#xc7;" horiz-adv-x="670" 
d="M70 362q0 101 33 184t97 133.5t150 50.5q61 0 124 -46q16 -10 26 -19q16 -14 28 -14q8 0 11.5 4.5t8.5 17.5l17 49h25v-278h-25q-33 122 -92.5 188t-122.5 66q-42 0 -73 -16t-50 -43t-31 -71t-16 -92.5t-4 -113.5t5 -115t18 -95.5t34 -74.5t54.5 -46t78.5 -17
q40 0 73.5 14t56.5 37.5t39.5 55.5t24.5 66.5t10 71.5h36q-1 -22 -4.5 -45t-11.5 -50.5t-20 -52.5t-31 -49t-42.5 -41.5t-57 -28t-73.5 -10.5h-11l-12 -36l26 -6q43 -10 67 -34.5t24 -59.5q0 -38 -33 -61t-93 -23q-34 0 -61 15t-43 36l16 17q38 -36 74 -36q29 0 48.5 13
t19.5 45q0 28 -12 43t-41 22l-31 7l20 61q-60 9 -109.5 45t-80.5 88t-47.5 115t-16.5 129z" />
    <glyph glyph-name="Egrave" unicode="&#xc8;" horiz-adv-x="690" 
d="M252 938q26 0 49 -32l92 -133l-13 -11l-128 101q-28 21 -28 44q0 31 28 31zM62 0v32h72q27 0 27 27v594q0 27 -27 27h-72v32h558l4 -226h-25l-1 20q-2 21 -12 55t-28 61q-38 58 -117 58h-161q-27 0 -27 -27v-273h88q27 0 45 12.5t25 35.5t9.5 43t2.5 47h26v-313h-26
q0 28 -2 47.5t-9.5 43t-25.5 36t-45 12.5h-88v-285q0 -27 27 -27h160q27 0 58.5 12.5t51.5 38.5q20 28 34.5 74t18.5 79l4 32h25l-12 -268h-558z" />
    <glyph glyph-name="Eacute" unicode="&#xc9;" horiz-adv-x="690" 
d="M484 938q28 0 28 -31q0 -23 -28 -44l-128 -101l-13 11l92 133q23 32 49 32zM62 0v32h72q27 0 27 27v594q0 27 -27 27h-72v32h558l4 -226h-25l-1 20q-2 21 -12 55t-28 61q-38 58 -117 58h-161q-27 0 -27 -27v-273h88q27 0 45 12.5t25 35.5t9.5 43t2.5 47h26v-313h-26
q0 28 -2 47.5t-9.5 43t-25.5 36t-45 12.5h-88v-285q0 -27 27 -27h160q27 0 58.5 12.5t51.5 38.5q20 28 34.5 74t18.5 79l4 32h25l-12 -268h-558z" />
    <glyph glyph-name="Ecircumflex" unicode="&#xca;" horiz-adv-x="690" 
d="M388 920q47 -90 138 -142l-10 -16q-26 9 -71.5 38.5t-76.5 57.5q-31 -28 -76.5 -57.5t-71.5 -38.5l-10 16q91 52 138 142h40zM62 0v32h72q27 0 27 27v594q0 27 -27 27h-72v32h558l4 -226h-25l-1 20q-2 21 -12 55t-28 61q-38 58 -117 58h-161q-27 0 -27 -27v-273h88
q27 0 45 12.5t25 35.5t9.5 43t2.5 47h26v-313h-26q0 28 -2 47.5t-9.5 43t-25.5 36t-45 12.5h-88v-285q0 -27 27 -27h160q27 0 58.5 12.5t51.5 38.5q20 28 34.5 74t18.5 79l4 32h25l-12 -268h-558z" />
    <glyph glyph-name="Edieresis" unicode="&#xcb;" horiz-adv-x="690" 
d="M470 902q22 0 37 -15t15 -37t-15 -37t-37 -15t-37 15t-15 37t15 37t37 15zM266 902q22 0 37 -15t15 -37t-15 -37t-37 -15t-37 15t-15 37t15 37t37 15zM62 0v32h72q27 0 27 27v594q0 27 -27 27h-72v32h558l4 -226h-25l-1 20q-2 21 -12 55t-28 61q-38 58 -117 58h-161
q-27 0 -27 -27v-273h88q27 0 45 12.5t25 35.5t9.5 43t2.5 47h26v-313h-26q0 28 -2 47.5t-9.5 43t-25.5 36t-45 12.5h-88v-285q0 -27 27 -27h160q27 0 58.5 12.5t51.5 38.5q20 28 34.5 74t18.5 79l4 32h25l-12 -268h-558z" />
    <glyph glyph-name="Igrave" unicode="&#xcc;" horiz-adv-x="394" 
d="M92 938q26 0 49 -32l92 -133l-13 -11l-128 101q-28 21 -28 44q0 31 28 31zM62 0v32h72q27 0 27 27v594q0 27 -27 27h-72v32h290v-32h-72q-27 0 -27 -27v-594q0 -27 27 -27h72v-32h-290z" />
    <glyph glyph-name="Iacute" unicode="&#xcd;" horiz-adv-x="394" 
d="M324 938q28 0 28 -31q0 -23 -28 -44l-128 -101l-13 11l92 133q23 32 49 32zM62 0v32h72q27 0 27 27v594q0 27 -27 27h-72v32h290v-32h-72q-27 0 -27 -27v-594q0 -27 27 -27h72v-32h-290z" />
    <glyph glyph-name="Icircumflex" unicode="&#xce;" horiz-adv-x="394" 
d="M228 920q47 -90 138 -142l-10 -16q-26 9 -71.5 38.5t-76.5 57.5q-31 -28 -76.5 -57.5t-71.5 -38.5l-10 16q91 52 138 142h40zM62 0v32h72q27 0 27 27v594q0 27 -27 27h-72v32h290v-32h-72q-27 0 -27 -27v-594q0 -27 27 -27h72v-32h-290z" />
    <glyph glyph-name="Idieresis" unicode="&#xcf;" horiz-adv-x="394" 
d="M310 902q22 0 37 -15t15 -37t-15 -37t-37 -15t-37 15t-15 37t15 37t37 15zM106 902q22 0 37 -15t15 -37t-15 -37t-37 -15t-37 15t-15 37t15 37t37 15zM62 0v32h72q27 0 27 27v594q0 27 -27 27h-72v32h290v-32h-72q-27 0 -27 -27v-594q0 -27 27 -27h72v-32h-290z" />
    <glyph glyph-name="Ntilde" unicode="&#xd1;" horiz-adv-x="770" 
d="M490 810q-32 0 -85 20t-77 20q-29 0 -36 -40h-22q0 39 21 66.5t59 27.5q32 0 85 -20t77 -20q29 0 36 40h22q0 -39 -21 -66.5t-59 -27.5zM62 0v32h36q29 0 46 21.5t17 58.5v541q-1 27 -27 27h-72v32h189l347 -558v446q0 37 -17 58.5t-45 21.5h-36v32h238v-32h-36
q-28 0 -46 -21.5t-18 -58.5v-618h-40l-393 621h-4v-491q0 -37 17.5 -58.5t45.5 -21.5h36v-32h-238z" />
    <glyph glyph-name="Ograve" unicode="&#xd2;" horiz-adv-x="700" 
d="M244 938q26 0 49 -32l92 -133l-13 -11l-128 101q-28 21 -28 44q0 31 28 31zM360 -18q-84 0 -151.5 54.5t-103 139.5t-35.5 180t35.5 180t103 139.5t151.5 54.5t151.5 -54.5t103 -139.5t35.5 -180t-35.5 -180t-103 -139.5t-151.5 -54.5zM360 14q184 0 184 342t-184 342
t-184 -342t184 -342z" />
    <glyph glyph-name="Oacute" unicode="&#xd3;" horiz-adv-x="700" 
d="M476 938q28 0 28 -31q0 -23 -28 -44l-128 -101l-13 11l92 133q23 32 49 32zM360 -18q-84 0 -151.5 54.5t-103 139.5t-35.5 180t35.5 180t103 139.5t151.5 54.5t151.5 -54.5t103 -139.5t35.5 -180t-35.5 -180t-103 -139.5t-151.5 -54.5zM360 14q184 0 184 342t-184 342
t-184 -342t184 -342z" />
    <glyph glyph-name="Ocircumflex" unicode="&#xd4;" horiz-adv-x="700" 
d="M380 920q47 -90 138 -142l-10 -16q-26 9 -71.5 38.5t-76.5 57.5q-31 -28 -76.5 -57.5t-71.5 -38.5l-10 16q91 52 138 142h40zM360 -18q-84 0 -151.5 54.5t-103 139.5t-35.5 180t35.5 180t103 139.5t151.5 54.5t151.5 -54.5t103 -139.5t35.5 -180t-35.5 -180t-103 -139.5
t-151.5 -54.5zM360 14q184 0 184 342t-184 342t-184 -342t184 -342z" />
    <glyph glyph-name="Otilde" unicode="&#xd5;" horiz-adv-x="700" 
d="M434 810q-32 0 -85 20t-77 20q-29 0 -36 -40h-22q0 39 21 66.5t59 27.5q32 0 85 -20t77 -20q29 0 36 40h22q0 -39 -21 -66.5t-59 -27.5zM360 -18q-84 0 -151.5 54.5t-103 139.5t-35.5 180t35.5 180t103 139.5t151.5 54.5t151.5 -54.5t103 -139.5t35.5 -180t-35.5 -180
t-103 -139.5t-151.5 -54.5zM360 14q184 0 184 342t-184 342t-184 -342t184 -342z" />
    <glyph glyph-name="Odieresis" unicode="&#xd6;" horiz-adv-x="700" 
d="M462 902q22 0 37 -15t15 -37t-15 -37t-37 -15t-37 15t-15 37t15 37t37 15zM258 902q22 0 37 -15t15 -37t-15 -37t-37 -15t-37 15t-15 37t15 37t37 15zM360 -18q-84 0 -151.5 54.5t-103 139.5t-35.5 180t35.5 180t103 139.5t151.5 54.5t151.5 -54.5t103 -139.5t35.5 -180
t-35.5 -180t-103 -139.5t-151.5 -54.5zM360 14q184 0 184 342t-184 342t-184 -342t184 -342z" />
    <glyph glyph-name="multiply" unicode="&#xd7;" horiz-adv-x="940" 
d="M188 -50l-32 32l283 282l-283 282l32 32l282 -283l282 283l32 -32l-283 -282l283 -282l-32 -32l-282 283z" />
    <glyph glyph-name="Oslash" unicode="&#xd8;" horiz-adv-x="700" 
d="M360 -18q-110 0 -190 90l-68 -90l-32 24l75 99q-75 108 -75 251q0 148 82 261t208 113q108 0 189 -89l67 89l32 -24l-74 -98q76 -107 76 -252q0 -95 -35.5 -180t-103 -139.5t-151.5 -54.5zM360 14q184 0 184 342q0 111 -19 187l-316 -419q45 -110 151 -110zM360 698
q-184 0 -184 -342q0 -107 18 -185l316 418q-44 109 -150 109z" />
    <glyph glyph-name="Ugrave" unicode="&#xd9;" horiz-adv-x="804" 
d="M306 938q26 0 49 -32l92 -133l-13 -11l-128 101q-28 21 -28 44q0 31 28 31zM424 -18q-69 0 -121 21.5t-82 58t-45 81t-15 94.5v416q0 27 -27 27h-72v32h291v-32h-73q-27 0 -27 -27v-443q0 -93 45 -144.5t126 -51.5q94 0 146.5 53.5t52.5 130.5v401q0 37 -18 59t-46 22
h-35v32h238v-32h-35q-28 0 -46 -22t-18 -59v-391q0 -97 -64.5 -161.5t-174.5 -64.5z" />
    <glyph glyph-name="Uacute" unicode="&#xda;" horiz-adv-x="804" 
d="M538 938q28 0 28 -31q0 -23 -28 -44l-128 -101l-13 11l92 133q23 32 49 32zM424 -18q-69 0 -121 21.5t-82 58t-45 81t-15 94.5v416q0 27 -27 27h-72v32h291v-32h-73q-27 0 -27 -27v-443q0 -93 45 -144.5t126 -51.5q94 0 146.5 53.5t52.5 130.5v401q0 37 -18 59t-46 22
h-35v32h238v-32h-35q-28 0 -46 -22t-18 -59v-391q0 -97 -64.5 -161.5t-174.5 -64.5z" />
    <glyph glyph-name="Ucircumflex" unicode="&#xdb;" horiz-adv-x="804" 
d="M442 920q47 -90 138 -142l-10 -16q-26 9 -71.5 38.5t-76.5 57.5q-31 -28 -76.5 -57.5t-71.5 -38.5l-10 16q91 52 138 142h40zM424 -18q-69 0 -121 21.5t-82 58t-45 81t-15 94.5v416q0 27 -27 27h-72v32h291v-32h-73q-27 0 -27 -27v-443q0 -93 45 -144.5t126 -51.5
q94 0 146.5 53.5t52.5 130.5v401q0 37 -18 59t-46 22h-35v32h238v-32h-35q-28 0 -46 -22t-18 -59v-391q0 -97 -64.5 -161.5t-174.5 -64.5z" />
    <glyph glyph-name="Udieresis" unicode="&#xdc;" horiz-adv-x="804" 
d="M524 902q22 0 37 -15t15 -37t-15 -37t-37 -15t-37 15t-15 37t15 37t37 15zM320 902q22 0 37 -15t15 -37t-15 -37t-37 -15t-37 15t-15 37t15 37t37 15zM424 -18q-69 0 -121 21.5t-82 58t-45 81t-15 94.5v416q0 27 -27 27h-72v32h291v-32h-73q-27 0 -27 -27v-443
q0 -93 45 -144.5t126 -51.5q94 0 146.5 53.5t52.5 130.5v401q0 37 -18 59t-46 22h-35v32h238v-32h-35q-28 0 -46 -22t-18 -59v-391q0 -97 -64.5 -161.5t-174.5 -64.5z" />
    <glyph glyph-name="Yacute" unicode="&#xdd;" horiz-adv-x="728" 
d="M508 938q28 0 28 -31q0 -23 -28 -44l-128 -101l-13 11l92 133q23 32 49 32zM224 0v32h96q27 0 27 27v259l-194 318q-15 26 -27 35t-32 9h-52v32h310v-32h-56q-15 0 -25 -7t-10 -18q0 -15 5 -22l154 -267l102 196q5 7 11 28t6 33q0 24 -13.5 40.5t-41.5 16.5h-30v32h248
v-32h-29q-24 0 -43 -13.5t-27 -25t-21 -34.5l-143 -272v-276q0 -27 27 -27h96v-32h-338z" />
    <glyph glyph-name="Thorn" unicode="&#xde;" horiz-adv-x="680" 
d="M62 0v32h72q27 0 27 27v594q0 27 -27 27h-72v32h306v-32h-88q-27 0 -27 -27v-67h143q106 0 173 -51.5t67 -134.5t-67 -136.5t-173 -53.5h-143v-151q0 -27 27 -27h88v-32h-306zM253 242h156q54 0 87.5 46.5t33.5 111.5t-33 109.5t-88 44.5h-129q-27 0 -27 -27v-285z" />
    <glyph glyph-name="germandbls" unicode="&#xdf;" horiz-adv-x="526" 
d="M28 0v24h52q22 0 22 22v463q0 101 56.5 155t129.5 54q70 0 112 -37t42 -96q0 -60 -45 -100t-98 -53v-4q32 -9 61.5 -27t57 -47.5t44 -74.5t16.5 -101q0 -86 -47.5 -138t-118.5 -52q-46 0 -78 27t-32 69q0 29 15 44.5t37 15.5q44 0 44 -42q0 -23 -30 -38q-12 -7 -12 -16
q0 -17 16.5 -26.5t40.5 -9.5q37 0 57 37t20 129q0 105 -34 171.5t-96 66.5h-38v28h38q54 0 80 40.5t26 95.5q0 114 -83 114q-44 0 -76.5 -42.5t-32.5 -123.5v-528h-146z" />
    <glyph glyph-name="agrave" unicode="&#xe0;" horiz-adv-x="500" 
d="M112 684q26 0 49 -32l92 -133l-13 -11l-128 101q-28 21 -28 44q0 31 28 31zM130 103q0 -79 62 -79q24 0 43.5 11.5t34 34t22 39t16.5 41.5v95l-87 -19q-48 -10 -69.5 -39.5t-21.5 -83.5zM46 106q0 31 12 55.5t27.5 38.5t42.5 25t43.5 15t44.5 9l92 17v85q0 93 -93 93
q-34 0 -62 -17.5t-28 -39.5q0 -10 3 -15q4 -8 15 -10q37 -10 37 -39q0 -39 -44 -39q-22 0 -40 17t-18 49q0 55 43 86.5t97 31.5q66 0 114 -34.5t48 -107.5v-246q0 -50 31 -50q47 0 47 100h18q0 -142 -80 -142q-85 0 -88 96l-5 2q-15 -35 -48.5 -66.5t-78.5 -31.5
q-53 0 -91.5 26t-38.5 92z" />
    <glyph glyph-name="aacute" unicode="&#xe1;" horiz-adv-x="500" 
d="M344 684q28 0 28 -31q0 -23 -28 -44l-128 -101l-13 11l92 133q23 32 49 32zM130 103q0 -79 62 -79q24 0 43.5 11.5t34 34t22 39t16.5 41.5v95l-87 -19q-48 -10 -69.5 -39.5t-21.5 -83.5zM46 106q0 31 12 55.5t27.5 38.5t42.5 25t43.5 15t44.5 9l92 17v85q0 93 -93 93
q-34 0 -62 -17.5t-28 -39.5q0 -10 3 -15q4 -8 15 -10q37 -10 37 -39q0 -39 -44 -39q-22 0 -40 17t-18 49q0 55 43 86.5t97 31.5q66 0 114 -34.5t48 -107.5v-246q0 -50 31 -50q47 0 47 100h18q0 -142 -80 -142q-85 0 -88 96l-5 2q-15 -35 -48.5 -66.5t-78.5 -31.5
q-53 0 -91.5 26t-38.5 92z" />
    <glyph glyph-name="acircumflex" unicode="&#xe2;" horiz-adv-x="500" 
d="M248 672q36 -103 111 -151l-9 -13q-68 35 -122 92q-54 -57 -122 -92l-9 13q75 48 111 151h40zM130 103q0 -79 62 -79q24 0 43.5 11.5t34 34t22 39t16.5 41.5v95l-87 -19q-48 -10 -69.5 -39.5t-21.5 -83.5zM46 106q0 31 12 55.5t27.5 38.5t42.5 25t43.5 15t44.5 9l92 17
v85q0 93 -93 93q-34 0 -62 -17.5t-28 -39.5q0 -10 3 -15q4 -8 15 -10q37 -10 37 -39q0 -39 -44 -39q-22 0 -40 17t-18 49q0 55 43 86.5t97 31.5q66 0 114 -34.5t48 -107.5v-246q0 -50 31 -50q47 0 47 100h18q0 -142 -80 -142q-85 0 -88 96l-5 2q-15 -35 -48.5 -66.5
t-78.5 -31.5q-53 0 -91.5 26t-38.5 92z" />
    <glyph glyph-name="atilde" unicode="&#xe3;" horiz-adv-x="500" 
d="M286 556q-32 0 -73 20t-65 20q-29 0 -36 -40h-22q0 39 21 66.5t59 27.5q32 0 73 -20t65 -20q29 0 36 40h22q0 -39 -21 -66.5t-59 -27.5zM130 103q0 -79 62 -79q24 0 43.5 11.5t34 34t22 39t16.5 41.5v95l-87 -19q-48 -10 -69.5 -39.5t-21.5 -83.5zM46 106q0 31 12 55.5
t27.5 38.5t42.5 25t43.5 15t44.5 9l92 17v85q0 93 -93 93q-34 0 -62 -17.5t-28 -39.5q0 -10 3 -15q4 -8 15 -10q37 -10 37 -39q0 -39 -44 -39q-22 0 -40 17t-18 49q0 55 43 86.5t97 31.5q66 0 114 -34.5t48 -107.5v-246q0 -50 31 -50q47 0 47 100h18q0 -142 -80 -142
q-85 0 -88 96l-5 2q-15 -35 -48.5 -66.5t-78.5 -31.5q-53 0 -91.5 26t-38.5 92z" />
    <glyph glyph-name="adieresis" unicode="&#xe4;" horiz-adv-x="500" 
d="M322 648q22 0 37 -15t15 -37t-15 -37t-37 -15t-37 15t-15 37t15 37t37 15zM134 648q22 0 37 -15t15 -37t-15 -37t-37 -15t-37 15t-15 37t15 37t37 15zM130 103q0 -79 62 -79q24 0 43.5 11.5t34 34t22 39t16.5 41.5v95l-87 -19q-48 -10 -69.5 -39.5t-21.5 -83.5zM46 106
q0 31 12 55.5t27.5 38.5t42.5 25t43.5 15t44.5 9l92 17v85q0 93 -93 93q-34 0 -62 -17.5t-28 -39.5q0 -10 3 -15q4 -8 15 -10q37 -10 37 -39q0 -39 -44 -39q-22 0 -40 17t-18 49q0 55 43 86.5t97 31.5q66 0 114 -34.5t48 -107.5v-246q0 -50 31 -50q47 0 47 100h18
q0 -142 -80 -142q-85 0 -88 96l-5 2q-15 -35 -48.5 -66.5t-78.5 -31.5q-53 0 -91.5 26t-38.5 92z" />
    <glyph glyph-name="aring" unicode="&#xe5;" horiz-adv-x="500" 
d="M228 500q-40 0 -68.5 28.5t-28.5 69.5q0 40 28 68t69 28t69 -28t28 -68q0 -41 -28.5 -69.5t-68.5 -28.5zM228 524q31 0 52 21t21 53q0 31 -20.5 51.5t-52.5 20.5t-52.5 -20.5t-20.5 -51.5q0 -32 21 -53t52 -21zM130 103q0 -79 62 -79q24 0 43.5 11.5t34 34t22 39
t16.5 41.5v95l-87 -19q-48 -10 -69.5 -39.5t-21.5 -83.5zM46 106q0 31 12 55.5t27.5 38.5t42.5 25t43.5 15t44.5 9l92 17v85q0 93 -93 93q-34 0 -62 -17.5t-28 -39.5q0 -10 3 -15q4 -8 15 -10q37 -10 37 -39q0 -39 -44 -39q-22 0 -40 17t-18 49q0 55 43 86.5t97 31.5
q66 0 114 -34.5t48 -107.5v-246q0 -50 31 -50q47 0 47 100h18q0 -142 -80 -142q-85 0 -88 96l-5 2q-15 -35 -48.5 -66.5t-78.5 -31.5q-53 0 -91.5 26t-38.5 92z" />
    <glyph glyph-name="ae" unicode="&#xe6;" horiz-adv-x="704" 
d="M46 106q0 31 12 55.5t27.5 38t42 24.5t43.5 15.5t45 9.5l92 17v85q0 93 -93 93q-34 0 -62 -17.5t-28 -39.5q0 -10 3 -15q4 -8 15 -10q37 -10 37 -39q0 -39 -44 -39q-22 0 -40 17t-18 49q0 55 43 86.5t97 31.5q98 0 138 -60q53 60 124 60q44 0 79.5 -22.5t55.5 -59
t30.5 -78.5t10.5 -84h-276q0 -102 25 -157t89 -55q20 0 38.5 6.5t37.5 21t33 44.5t19 72h24q-6 -74 -45 -121t-109 -47q-123 0 -177 121q-17 -50 -54.5 -85.5t-84.5 -35.5q-53 0 -91.5 26t-38.5 92zM380 252h190q0 78 -22.5 135t-71.5 57t-72.5 -57.5t-23.5 -134.5zM130 103
q0 -79 62 -79q24 0 43.5 11.5t33.5 34t22 39t17 41.5v95l-87 -19q-48 -10 -69.5 -39.5t-21.5 -83.5z" />
    <glyph glyph-name="ccedilla" unicode="&#xe7;" horiz-adv-x="436" 
d="M48 228q0 101 55 170.5t141 69.5q68 0 109 -40.5t41 -90.5q0 -31 -16 -48.5t-39 -17.5q-20 0 -33.5 13t-13.5 31q0 35 34 46q16 5 16 18q0 20 -25 42.5t-73 22.5q-63 0 -85.5 -54t-22.5 -162t22 -162t86 -54q61 0 94 43t40 101h24q-4 -63 -45 -115.5t-107 -52.5h-12
l-13 -41l24 -5q41 -9 64 -29.5t23 -54.5q0 -30 -29 -50t-85 -20q-23 0 -47.5 11t-38.5 25l12 16q11 -9 26.5 -16.5t35.5 -7.5q27 0 44.5 12.5t17.5 38.5q0 27 -10 39q-11 13 -34 18l-34 7l20 60q-76 12 -121 78.5t-45 158.5z" />
    <glyph glyph-name="egrave" unicode="&#xe8;" horiz-adv-x="460" 
d="M124 684q26 0 49 -32l92 -133l-13 -11l-128 101q-28 21 -28 44q0 31 28 31zM136 252h190q0 36 -5 68t-15 61t-29 46t-45 17t-45 -17t-30 -46t-16 -61.5t-5 -67.5zM48 228q0 62 23 116t66.5 89t98.5 35q36 0 66 -15t50 -40t34 -57t20 -65t6 -67h-276q0 -49 5 -85.5t17 -66
t35 -45t57 -15.5q20 0 38.5 6t38 21t33 45t18.5 72h24q-6 -74 -45 -121t-109 -47q-90 0 -145 67t-55 173z" />
    <glyph glyph-name="eacute" unicode="&#xe9;" horiz-adv-x="460" 
d="M356 684q28 0 28 -31q0 -23 -28 -44l-128 -101l-13 11l92 133q23 32 49 32zM136 252h190q0 36 -5 68t-15 61t-29 46t-45 17t-45 -17t-30 -46t-16 -61.5t-5 -67.5zM48 228q0 62 23 116t66.5 89t98.5 35q36 0 66 -15t50 -40t34 -57t20 -65t6 -67h-276q0 -49 5 -85.5t17 -66
t35 -45t57 -15.5q20 0 38.5 6t38 21t33 45t18.5 72h24q-6 -74 -45 -121t-109 -47q-90 0 -145 67t-55 173z" />
    <glyph glyph-name="ecircumflex" unicode="&#xea;" horiz-adv-x="460" 
d="M260 672q36 -103 111 -151l-9 -13q-68 35 -122 92q-54 -57 -122 -92l-9 13q75 48 111 151h40zM136 252h190q0 36 -5 68t-15 61t-29 46t-45 17t-45 -17t-30 -46t-16 -61.5t-5 -67.5zM48 228q0 62 23 116t66.5 89t98.5 35q36 0 66 -15t50 -40t34 -57t20 -65t6 -67h-276
q0 -49 5 -85.5t17 -66t35 -45t57 -15.5q20 0 38.5 6t38 21t33 45t18.5 72h24q-6 -74 -45 -121t-109 -47q-90 0 -145 67t-55 173z" />
    <glyph glyph-name="edieresis" unicode="&#xeb;" horiz-adv-x="460" 
d="M334 648q22 0 37 -15t15 -37t-15 -37t-37 -15t-37 15t-15 37t15 37t37 15zM146 648q22 0 37 -15t15 -37t-15 -37t-37 -15t-37 15t-15 37t15 37t37 15zM136 252h190q0 36 -5 68t-15 61t-29 46t-45 17t-45 -17t-30 -46t-16 -61.5t-5 -67.5zM48 228q0 62 23 116t66.5 89
t98.5 35q36 0 66 -15t50 -40t34 -57t20 -65t6 -67h-276q0 -49 5 -85.5t17 -66t35 -45t57 -15.5q20 0 38.5 6t38 21t33 45t18.5 72h24q-6 -74 -45 -121t-109 -47q-90 0 -145 67t-55 173z" />
    <glyph glyph-name="igrave" unicode="&#xec;" horiz-adv-x="270" 
d="M16 684q26 0 49 -32l92 -133l-13 -11l-128 101q-28 21 -28 44q0 31 28 31zM38 0v24h42q22 0 22 22v364q0 22 -22 22h-42v24h136v-410q0 -22 22 -22h42v-24h-200z" />
    <glyph glyph-name="iacute" unicode="&#xed;" horiz-adv-x="270" 
d="M248 684q28 0 28 -31q0 -23 -28 -44l-128 -101l-13 11l92 133q23 32 49 32zM38 0v24h42q22 0 22 22v364q0 22 -22 22h-42v24h136v-410q0 -22 22 -22h42v-24h-200z" />
    <glyph glyph-name="icircumflex" unicode="&#xee;" horiz-adv-x="282" 
d="M158 672q36 -103 111 -151l-9 -13q-68 35 -122 92q-54 -57 -122 -92l-9 13q75 48 111 151h40zM44 0v24h42q22 0 22 22v364q0 22 -22 22h-42v24h136v-410q0 -22 22 -22h42v-24h-200z" />
    <glyph glyph-name="idieresis" unicode="&#xef;" horiz-adv-x="282" 
d="M50 0v24h42q22 0 22 22v364q0 22 -22 22h-42v24h136v-410q0 -22 22 -22h42v-24h-200zM172 596q0 22 15 37t37 15t37 -15t15 -37t-15 -37t-37 -15t-37 15t-15 37zM10 596q0 22 15 37t37 15t37 -15t15 -37t-15 -37t-37 -15t-37 15t-15 37z" />
    <glyph glyph-name="eth" unicode="&#xf0;" horiz-adv-x="500" 
d="M248 12q112 0 112 216t-112 216t-112 -216t112 -216zM248 -12q-84 0 -142 70.5t-58 169.5t58 169.5t142 70.5q32 0 63 -12l3 4q-23 43 -84 120l-108 -67l-15 23l104 65q-45 57 -103 111h96q26 -23 67 -74l108 68l15 -23l-105 -66q35 -43 67 -92q92 -143 92 -267
q0 -127 -57.5 -198.5t-142.5 -71.5z" />
    <glyph glyph-name="ntilde" unicode="&#xf1;" horiz-adv-x="540" 
d="M334 556q-32 0 -73 20t-65 20q-29 0 -36 -40h-22q0 39 21 66.5t59 27.5q32 0 73 -20t65 -20q29 0 36 40h22q0 -39 -21 -66.5t-59 -27.5zM38 0v24h42q22 0 22 22v364q0 22 -22 22h-42v24h136v-92l4 -1q26 50 62.5 77.5t76.5 27.5q50 0 81 -26q46 -37 46 -123v-273
q0 -22 22 -22h42v-24h-200v24h42q22 0 22 22v293q0 105 -64 105q-45 0 -89.5 -57.5t-44.5 -132.5v-208q0 -22 22 -22h42v-24h-200z" />
    <glyph glyph-name="ograve" unicode="&#xf2;" horiz-adv-x="496" 
d="M132 684q26 0 49 -32l92 -133l-13 -11l-128 101q-28 21 -28 44q0 31 28 31zM248 12q112 0 112 216t-112 216t-112 -216t112 -216zM248 -12q-84 0 -142 70.5t-58 169.5t58 169.5t142 70.5t142 -70.5t58 -169.5t-58 -169.5t-142 -70.5z" />
    <glyph glyph-name="oacute" unicode="&#xf3;" horiz-adv-x="496" 
d="M364 684q28 0 28 -31q0 -23 -28 -44l-128 -101l-13 11l92 133q23 32 49 32zM248 12q112 0 112 216t-112 216t-112 -216t112 -216zM248 -12q-84 0 -142 70.5t-58 169.5t58 169.5t142 70.5t142 -70.5t58 -169.5t-58 -169.5t-142 -70.5z" />
    <glyph glyph-name="ocircumflex" unicode="&#xf4;" horiz-adv-x="496" 
d="M268 672q36 -103 111 -151l-9 -13q-68 35 -122 92q-54 -57 -122 -92l-9 13q75 48 111 151h40zM248 12q112 0 112 216t-112 216t-112 -216t112 -216zM248 -12q-84 0 -142 70.5t-58 169.5t58 169.5t142 70.5t142 -70.5t58 -169.5t-58 -169.5t-142 -70.5z" />
    <glyph glyph-name="otilde" unicode="&#xf5;" horiz-adv-x="496" 
d="M306 556q-32 0 -73 20t-65 20q-29 0 -36 -40h-22q0 39 21 66.5t59 27.5q32 0 73 -20t65 -20q29 0 36 40h22q0 -39 -21 -66.5t-59 -27.5zM248 12q112 0 112 216t-112 216t-112 -216t112 -216zM248 -12q-84 0 -142 70.5t-58 169.5t58 169.5t142 70.5t142 -70.5t58 -169.5
t-58 -169.5t-142 -70.5z" />
    <glyph glyph-name="odieresis" unicode="&#xf6;" horiz-adv-x="496" 
d="M342 648q22 0 37 -15t15 -37t-15 -37t-37 -15t-37 15t-15 37t15 37t37 15zM154 648q22 0 37 -15t15 -37t-15 -37t-37 -15t-37 15t-15 37t15 37t37 15zM248 12q112 0 112 216t-112 216t-112 -216t112 -216zM248 -12q-84 0 -142 70.5t-58 169.5t58 169.5t142 70.5
t142 -70.5t58 -169.5t-58 -169.5t-142 -70.5z" />
    <glyph glyph-name="divide" unicode="&#xf7;" horiz-adv-x="940" 
d="M48 244v40h844v-40h-844zM470 -56q-27 0 -44.5 17.5t-17.5 44.5t17.5 44.5t44.5 17.5t44.5 -17.5t17.5 -44.5t-17.5 -44.5t-44.5 -17.5zM470 456q-27 0 -44.5 17.5t-17.5 44.5t17.5 44.5t44.5 17.5t44.5 -17.5t17.5 -44.5t-17.5 -44.5t-44.5 -17.5z" />
    <glyph glyph-name="oslash" unicode="&#xf8;" horiz-adv-x="496" 
d="M248 -12q-76 0 -131 58l-47 -58l-22 18l51 62q-51 68 -51 160q0 99 58 169.5t142 70.5q76 0 131 -58l47 58l22 -18l-51 -62q51 -68 51 -160q0 -99 -58 -169.5t-142 -70.5zM248 12q112 0 112 216q0 60 -9 104l-197 -242q27 -78 94 -78zM248 444q-112 0 -112 -216
q0 -60 9 -104l197 242q-27 78 -94 78z" />
    <glyph glyph-name="ugrave" unicode="&#xf9;" horiz-adv-x="534" 
d="M146 684q26 0 49 -32l92 -133l-13 -11l-128 101q-28 21 -28 44q0 31 28 31zM223 -12q-50 0 -81 26q-46 37 -46 123v273q0 22 -22 22h-42v24h136v-339q0 -105 64 -105q45 0 89.5 57.5t44.5 132.5v208q0 22 -22 22h-42v24h136v-410q0 -22 22 -22h42v-24h-136v92l-4 1
q-26 -50 -62.5 -77.5t-76.5 -27.5z" />
    <glyph glyph-name="uacute" unicode="&#xfa;" horiz-adv-x="534" 
d="M378 684q28 0 28 -31q0 -23 -28 -44l-128 -101l-13 11l92 133q23 32 49 32zM223 -12q-50 0 -81 26q-46 37 -46 123v273q0 22 -22 22h-42v24h136v-339q0 -105 64 -105q45 0 89.5 57.5t44.5 132.5v208q0 22 -22 22h-42v24h136v-410q0 -22 22 -22h42v-24h-136v92l-4 1
q-26 -50 -62.5 -77.5t-76.5 -27.5z" />
    <glyph glyph-name="ucircumflex" unicode="&#xfb;" horiz-adv-x="534" 
d="M282 672q36 -103 111 -151l-9 -13q-68 35 -122 92q-54 -57 -122 -92l-9 13q75 48 111 151h40zM223 -12q-50 0 -81 26q-46 37 -46 123v273q0 22 -22 22h-42v24h136v-339q0 -105 64 -105q45 0 89.5 57.5t44.5 132.5v208q0 22 -22 22h-42v24h136v-410q0 -22 22 -22h42v-24
h-136v92l-4 1q-26 -50 -62.5 -77.5t-76.5 -27.5z" />
    <glyph glyph-name="udieresis" unicode="&#xfc;" horiz-adv-x="534" 
d="M356 648q22 0 37 -15t15 -37t-15 -37t-37 -15t-37 15t-15 37t15 37t37 15zM168 648q22 0 37 -15t15 -37t-15 -37t-37 -15t-37 15t-15 37t15 37t37 15zM223 -12q-50 0 -81 26q-46 37 -46 123v273q0 22 -22 22h-42v24h136v-339q0 -105 64 -105q45 0 89.5 57.5t44.5 132.5
v208q0 22 -22 22h-42v24h136v-410q0 -22 22 -22h42v-24h-136v92l-4 1q-26 -50 -62.5 -77.5t-76.5 -27.5z" />
    <glyph glyph-name="yacute" unicode="&#xfd;" horiz-adv-x="530" 
d="M392 684q28 0 28 -31q0 -23 -28 -44l-128 -101l-13 11l92 133q23 32 49 32zM134 -238q-39 0 -64 25q-28 26 -28 63q0 28 16 42q15 15 34 15q23 0 34.5 -14.5t11.5 -36.5q0 -12 -8 -28q-6 -10 -6 -19q0 -15 20 -15q30 0 50.5 23.5t30.5 55.5l27 87l-142 413
q-8 22 -13.5 32.5t-17 18.5t-28.5 8h-33v24h226v-24h-32q-12 0 -22 -6.5t-10 -17.5q0 -17 6 -33l104 -307l83 274q11 31 11 51q0 17 -10 28t-26 11h-24v24h182v-24h-23q-49 0 -69 -59l-161 -512q-11 -37 -42 -68t-77 -31z" />
    <glyph glyph-name="thorn" unicode="&#xfe;" horiz-adv-x="500" 
d="M364 334q0 90 -62 90q-45 0 -88.5 -62t-43.5 -130v-205q52 26 90 61q49 46 76.5 111t27.5 135zM36 -252l-10 24l52 22q20 9 20 28v786q0 18 -16 18q-7 0 -16 -4l-30 -11l-10 24l116 49h28v-332l6 -2q28 55 72 86.5t88 31.5q46 0 81 -29t35 -90q0 -68 -44 -140t-114 -131
q-56 -47 -124 -78v-199z" />
    <glyph glyph-name="ydieresis" unicode="&#xff;" horiz-adv-x="530" 
d="M370 648q22 0 37 -15t15 -37t-15 -37t-37 -15t-37 15t-15 37t15 37t37 15zM182 648q22 0 37 -15t15 -37t-15 -37t-37 -15t-37 15t-15 37t15 37t37 15zM134 -238q-39 0 -64 25q-28 26 -28 63q0 28 16 42q15 15 34 15q23 0 34.5 -14.5t11.5 -36.5q0 -12 -8 -28
q-6 -10 -6 -19q0 -15 20 -15q30 0 50.5 23.5t30.5 55.5l27 87l-142 413q-8 22 -13.5 32.5t-17 18.5t-28.5 8h-33v24h226v-24h-32q-12 0 -22 -6.5t-10 -17.5q0 -17 6 -33l104 -307l83 274q11 31 11 51q0 17 -10 28t-26 11h-24v24h182v-24h-23q-49 0 -69 -59l-161 -512
q-11 -37 -42 -68t-77 -31z" />
    <glyph glyph-name="dotlessi" unicode="&#x131;" horiz-adv-x="270" 
d="M38 0v24h42q22 0 22 22v364q0 22 -22 22h-42v24h136v-410q0 -22 22 -22h42v-24h-200z" />
    <glyph glyph-name="uni0280" unicode="&#x280;" horiz-adv-x="516" 
d="M174 252h77q33 0 53 23t20 65q0 92 -74 92h-54q-22 0 -22 -22v-158zM38 0v24h42q22 0 22 22v364q0 22 -22 22h-42v24h228q63 0 104.5 -28.5t41.5 -81.5q0 -28 -12.5 -49t-32 -32.5t-34.5 -16.5t-29 -8v-4q81 -17 91 -115q3 -24 4 -46t9 -36.5t24 -14.5q24 0 33 29.5
t9 60.5h18q0 -19 -3 -37t-10.5 -40t-26 -35.5t-45.5 -13.5q-31 0 -51 14q-37 26 -37 87v54q0 47 -20.5 66t-46.5 19h-78v-182q0 -22 22 -22h44v-24h-202z" />
    <glyph glyph-name="circumflex" unicode="&#x2c6;" 
d="M240 672q36 -103 111 -151l-9 -13q-68 35 -122 92q-54 -57 -122 -92l-9 13q75 48 111 151h40z" />
    <glyph glyph-name="dotaccent" unicode="&#x2d9;" 
d="M220 544q-22 0 -37 15t-15 37t15 37t37 15t37 -15t15 -37t-15 -37t-37 -15z" />
    <glyph glyph-name="ring" unicode="&#x2da;" 
d="M220 500q-40 0 -68.5 28.5t-28.5 69.5q0 40 28 68t69 28t69 -28t28 -68q0 -41 -28.5 -69.5t-68.5 -28.5zM220 524q31 0 52 21t21 53q0 31 -20.5 51.5t-52.5 20.5t-52.5 -20.5t-20.5 -51.5q0 -32 21 -53t52 -21z" />
    <glyph glyph-name="tilde" unicode="&#x2dc;" 
d="M278 556q-32 0 -73 20t-65 20q-29 0 -36 -40h-22q0 39 21 66.5t59 27.5q32 0 73 -20t65 -20q29 0 36 40h22q0 -39 -21 -66.5t-59 -27.5z" />
    <glyph glyph-name="mugreek" unicode="&#x3bc;" horiz-adv-x="606" 
d="M62 354q0 110 52 110q44 0 44 -88q0 -34 -27 -184q-9 -46 -11 -67q10 -40 43.5 -65.5t79.5 -25.5q29 0 52 9t37 22t23 29t12 28.5t3 21.5q0 26 -9 86q-11 74 -11 126q0 110 52 110q28 0 42 -32t14 -86q0 -52 -13 -132.5t-30 -126.5q11 -18 30 -27.5t38 -9.5q31 0 49 19.5
t24 45.5q22 -27 22 -55q0 -32 -17 -53t-48 -21q-63 0 -103 79l-7 -1q-18 -30 -52.5 -53t-86.5 -23q-54 0 -94 29t-61 70q-5 -31 -5 -59q0 -78 10.5 -120t31.5 -83q22 -43 22 -63q0 -22 -11 -34t-29 -12q-20 0 -35 17t-21 39t-6 43q0 60 12 172q10 93 10 143q-10 32 -18 93
t-8 129z" />
    <glyph glyph-name="endash" unicode="&#x2013;" horiz-adv-x="620" 
d="M60 244v36h500v-36h-500z" />
    <glyph glyph-name="emdash" unicode="&#x2014;" horiz-adv-x="1000" 
d="M60 234v36h880v-36h-880z" />
    <glyph glyph-name="quoteleft" unicode="&#x2018;" horiz-adv-x="280" 
d="M208 480q0 -27 -18 -42.5t-40 -15.5q-39 0 -61 32q-19 26 -19 71q0 62 31 117.5t75 87.5l14 -16q-37 -28 -60.5 -68t-23.5 -80q0 -20 18 -30q6 -4 34 -4q22 0 36 -15.5t14 -36.5z" />
    <glyph glyph-name="quoteright" unicode="&#x2019;" horiz-adv-x="280" 
d="M72 672q0 27 18 42.5t40 15.5q39 0 61 -32q19 -26 19 -71q0 -62 -31 -117.5t-75 -87.5l-14 16q37 28 60.5 68t23.5 80q0 20 -18 30q-6 4 -34 4q-22 0 -36 15.5t-14 36.5z" />
    <glyph glyph-name="quotesinglbase" unicode="&#x201a;" horiz-adv-x="280" 
d="M72 82q0 27 18 42.5t40 15.5q39 0 61 -32q19 -26 19 -71q0 -62 -31 -117.5t-75 -87.5l-14 16q37 28 60.5 68t23.5 80q0 20 -18 30q-6 4 -34 4q-22 0 -36 15.5t-14 36.5z" />
    <glyph glyph-name="quotedblleft" unicode="&#x201c;" horiz-adv-x="466" 
d="M394 480q0 -27 -18 -42.5t-40 -15.5q-39 0 -61 32q-19 26 -19 71q0 62 31 117.5t75 87.5l14 -16q-37 -28 -60.5 -68t-23.5 -80q0 -20 18 -30q6 -4 34 -4q22 0 36 -15.5t14 -36.5zM208 480q0 -27 -18 -42.5t-40 -15.5q-39 0 -61 32q-19 26 -19 71q0 62 31 117.5t75 87.5
l14 -16q-37 -28 -60.5 -68t-23.5 -80q0 -20 18 -30q6 -4 34 -4q22 0 36 -15.5t14 -36.5z" />
    <glyph glyph-name="quotedblright" unicode="&#x201d;" horiz-adv-x="466" 
d="M258 672q0 27 18 42.5t40 15.5q39 0 61 -32q19 -26 19 -71q0 -62 -31 -117.5t-75 -87.5l-14 16q37 28 60.5 68t23.5 80q0 20 -18 30q-6 4 -34 4q-22 0 -36 15.5t-14 36.5zM72 672q0 27 18 42.5t40 15.5q39 0 61 -32q19 -26 19 -71q0 -62 -31 -117.5t-75 -87.5l-14 16
q37 28 60.5 68t23.5 80q0 20 -18 30q-6 4 -34 4q-22 0 -36 15.5t-14 36.5z" />
    <glyph glyph-name="quotedblbase" unicode="&#x201e;" horiz-adv-x="466" 
d="M258 82q0 27 18 42.5t40 15.5q39 0 61 -32q19 -26 19 -71q0 -62 -31 -117.5t-75 -87.5l-14 16q37 28 60.5 68t23.5 80q0 20 -18 30q-6 4 -34 4q-22 0 -36 15.5t-14 36.5zM72 82q0 27 18 42.5t40 15.5q39 0 61 -32q19 -26 19 -71q0 -62 -31 -117.5t-75 -87.5l-14 16
q37 28 60.5 68t23.5 80q0 20 -18 30q-6 4 -34 4q-22 0 -36 15.5t-14 36.5z" />
    <glyph glyph-name="bullet" unicode="&#x2022;" horiz-adv-x="500" 
d="M250 240q-48 0 -81 33t-33 81t33 81t81 33t81 -33t33 -81t-33 -81t-81 -33z" />
    <glyph glyph-name="guilsinglleft" unicode="&#x2039;" horiz-adv-x="330" 
d="M108 228q0 65 35.5 118t80.5 82l15 -15q-75 -67 -75 -185t75 -185l-15 -15q-45 29 -80.5 82t-35.5 118z" />
    <glyph glyph-name="guilsinglright" unicode="&#x203a;" horiz-adv-x="330" 
d="M222 228q0 -65 -35.5 -118t-80.5 -82l-15 15q75 67 75 185t-75 185l15 15q45 -29 80.5 -82t35.5 -118z" />
    <glyph glyph-name="foursuperior" unicode="&#x2074;" 
d="M228 629l-126 -203h126v203zM156 278v24h55q17 0 17 15v81h-154v28l166 264h52v-264h72v-28h-72v-81q0 -15 17 -15h55v-24h-208z" />
    <glyph glyph-name="minus" unicode="&#x2212;" horiz-adv-x="940" 
d="M48 244v40h844v-40h-844z" />
    <glyph glyph-name="uni2215" unicode="&#x2215;" horiz-adv-x="558" 
d="M84 -18h-36l426 720h36z" />
    <glyph glyph-name="circle" unicode="&#x25cb;" horiz-adv-x="820" 
d="M76 356q0 -142 97 -244t237 -102t237 102t97 244t-97 244t-237 102t-237 -102t-97 -244zM48 356q0 156 104.5 265t257.5 109t257.5 -109t104.5 -265t-104.5 -265t-257.5 -109t-257.5 109t-104.5 265z" />
    <glyph glyph-name="Ring" unicode="&#xeff3;" 
d="M220 754q-40 0 -68.5 28.5t-28.5 69.5q0 40 28 68t69 28t69 -28t28 -68q0 -41 -28.5 -69.5t-68.5 -28.5zM220 778q31 0 52 21t21 53q0 31 -20.5 51.5t-52.5 20.5t-52.5 -20.5t-20.5 -51.5q0 -32 21 -53t52 -21z" />
    <glyph glyph-name="Tilde" unicode="&#xeff5;" 
d="M294 810q-32 0 -85 20t-77 20q-29 0 -36 -40h-22q0 39 21 66.5t59 27.5q32 0 85 -20t77 -20q29 0 36 40h22q0 -39 -21 -66.5t-59 -27.5z" />
    <glyph glyph-name="Circumflex" unicode="&#xeff7;" 
d="M240 920q47 -90 138 -142l-10 -16q-26 9 -71.5 38.5t-76.5 57.5q-31 -28 -76.5 -57.5t-71.5 -38.5l-10 16q91 52 138 142h40z" />
    <glyph glyph-name="Acute" unicode="&#xf6c9;" 
d="M336 938q28 0 28 -31q0 -23 -28 -44l-128 -101l-13 11l92 133q23 32 49 32z" />
    <glyph glyph-name="Dieresis" unicode="&#xf6cb;" 
d="M322 902q22 0 37 -15t15 -37t-15 -37t-37 -15t-37 15t-15 37t15 37t37 15zM118 902q22 0 37 -15t15 -37t-15 -37t-37 -15t-37 15t-15 37t15 37t37 15z" />
    <glyph glyph-name="Grave" unicode="&#xf6ce;" 
d="M104 938q26 0 49 -32l92 -133l-13 -11l-128 101q-28 21 -28 44q0 31 28 31z" />
    </font>
</defs>
</svg>
