<?xml version="1.0" standalone="no"?>
<!DOCTYPE svg PUBLIC "-//W3C//DTD SVG 1.1//EN" "http://www.w3.org/Graphics/SVG/1.1/DTD/svg11.dtd" >
<svg xmlns="http://www.w3.org/2000/svg" xmlns:xlink="http://www.w3.org/1999/xlink" version="1.1">
<metadata>
Created by FontForge 20161013 at Fri Apr 22 20:08:04 2011
 By ,,,
Copyright (c) 2010, Kimberly Geswein (kimberlygeswein.com)
</metadata>
<defs>
<font id="OvertheRainbow" horiz-adv-x="477" >
  <font-face 
    font-family="Over the Rainbow"
    font-weight="400"
    font-stretch="normal"
    units-per-em="1024"
    panose-1="2 0 0 0 0 0 0 0 0 0"
    ascent="819"
    descent="-205"
    x-height="522"
    cap-height="818.5"
    bbox="-130.286 -677 1528.41 1410.67"
    underline-thickness="51"
    underline-position="-152"
    unicode-range="U+0020-FB02"
  />
<missing-glyph horiz-adv-x="512" 
 />
    <glyph glyph-name=".notdef" horiz-adv-x="512" 
 />
    <glyph glyph-name=".null" horiz-adv-x="0" 
 />
    <glyph glyph-name="nonmarkingreturn" horiz-adv-x="512" 
 />
    <glyph glyph-name="space" unicode=" " horiz-adv-x="512" 
 />
    <glyph glyph-name="exclam" unicode="!" horiz-adv-x="382" 
d="M60 17q-6 24 1.5 39t19.5 21.5t25.5 4.5t19 -12t0 -27.5t-30.5 -42.5q-4 -4 -10 -2.5t-11 5t-9 8t-5 6.5zM78 278q-35 53 -44.5 122.5t-0.5 146.5t33.5 156.5t56.5 152t67.5 133t68.5 99t58.5 51t37.5 -10.5q2 -2 2 -8.5t-2 -8.5q-58 -66 -110.5 -146t-90 -167
t-54.5 -179.5t-5 -184.5q1 -8 11.5 -32t19 -52t8.5 -53.5t-21 -36.5q-13 -5 -21.5 2.5t-13.5 15.5z" />
    <glyph glyph-name="quotedbl" unicode="&#x22;" horiz-adv-x="312" 
d="M52 555q-4 13 -8 41.5t-6 63t-0.5 71.5t7 67t15.5 49.5t27 19.5q19 0 28.5 -10.5t11.5 -26.5t-1 -36.5t-7.5 -39.5t-9 -35.5t-5.5 -25.5q-1 -8 -3.5 -30t-5.5 -47t-5 -47t-3 -31q-10 -6 -21 1t-14 16zM225 572q-7 29 -11 62.5t-6 68t-2 68t2 62.5q4 10 14 15t21 5t21 -5
t14 -15q0 -7 1.5 -29t2.5 -52t0 -63.5t-5 -62t-12 -48.5t-22 -23q-3 1 -10 7.5t-8 9.5z" />
    <glyph glyph-name="numbersign" unicode="#" horiz-adv-x="816" 
d="M330 35q2 9 7 33.5t10.5 52.5t10.5 52.5t7 34.5q1 2 1 8.5t-1 8.5q-5 1 -26 -1.5t-44 -8t-42 -12t-19 -13.5v-138h-44l-33 121q-2 6 -18 2t-36 -10.5t-39.5 -10.5t-28.5 3q-17 11 -14.5 21t16.5 20.5t35.5 22t42.5 25t37.5 29.5t21.5 37q1 6 3.5 19.5t5 28.5t5 28.5
t2.5 19.5h-155l-18 26q12 18 29.5 24.5t37.5 8t41 0.5t40 1t35 9.5t25 26.5q3 4 9.5 18.5t15.5 34t19 42t18.5 42t15 34t9.5 19.5q13 22 26.5 46t30 46t37 39t46.5 26q11 4 20 -1.5t14 -15.5q-67 -71 -113.5 -155.5t-77.5 -174.5q10 -1 37 -1t56.5 2t53.5 5.5t27 9.5
l156 296q1 2 8 9t15 15.5t16 16t13 10.5q2 2 8.5 2t8.5 -2v-51l-139 -261l-17 -17q20 -3 39.5 0t38.5 8t38 8.5t40 0.5q8 -23 -1 -33t-29 -16.5t-47 -13.5t-54.5 -24.5t-52.5 -49.5t-41 -88q-1 -2 -1 -9t1 -9q39 -5 78 1.5t78 15.5t78 16t78 2v-52l-329 -52q-8 -1 -15 -22.5
t-15 -52.5t-16 -66t-17 -61.5t-19.5 -39.5t-22.5 -1q-2 1 -4.5 6t-5.5 10l-5 11q-2 6 -2 8zM225 260q40 4 81.5 14.5t73.5 32t48.5 56.5t5.5 89q-54 -4 -88.5 -10t-57 -21.5t-36.5 -45t-27 -80.5v-35z" />
    <glyph glyph-name="dollar" unicode="$" horiz-adv-x="677" 
d="M338 17q-2 2 -8.5 9t-8.5 9q-1 24 -1 51t-2.5 54.5t-9.5 53.5t-22 49q-14 21 -34.5 37t-43 30t-45 28.5t-41 32.5t-30.5 41.5t-14 56.5q-2 23 -2.5 60.5t-0.5 73.5t0.5 62.5t2.5 28.5l17 18q-53 51 -65 101t7 88t66 58.5t113 12.5v139q22 7 34 0t18 -23.5t7.5 -38
t2 -43.5t2 -40.5t6.5 -28.5q6 -11 20 -26.5t31 -34t32.5 -39t25.5 -42t10 -42.5t-15 -41q-15 41 -42 84t-62 71q-4 -57 2.5 -122.5t14.5 -119.5q2 -2 8.5 -9t9.5 -9q63 -40 128 -82t115 -82.5t76 -77.5t10.5 -66.5t-80.5 -49t-197 -24.5q-1 -9 3 -32.5t8 -52t6.5 -57.5
t-1 -49t-15.5 -26.5t-36 9.5zM355 312q2 -2 9 -8.5t9 -8.5q107 -9 158.5 -1t62.5 28t-12 48.5t-64.5 60.5t-94.5 64.5t-102 59.5q-3 -30 -4.5 -62t1.5 -63.5t11.5 -62t25.5 -55.5zM233 347q9 -5 24 -13.5t29 -3.5q1 4 1 17t-1 18q-2 11 -6.5 40.5t-10 63t-11 63t-7.5 40.5
q-26 31 -57 57t-64 48q-26 -43 -27 -91.5t15 -93.5t46.5 -83.5t68.5 -61.5zM130 746q4 -4 15.5 -13.5t25.5 -21t26.5 -21t18.5 -13.5q2 -2 8.5 -2t8.5 2q5 57 0 113t-17 112q-27 19 -49.5 21t-39.5 -8t-26.5 -29.5t-10 -43.5t8.5 -49t31 -47zM113 702q-8 0 -8 -8.5t8 -8.5
q6 0 6 8.5t-6 8.5z" />
    <glyph glyph-name="percent" unicode="%" horiz-adv-x="1050" 
d="M417 17q-57 40 -81 98t-25.5 121.5t14.5 128.5t40 121q-3 1 -22.5 -11t-43.5 -28t-46 -30.5t-28 -17.5q-18 -7 -43 -11t-51 -3.5t-49.5 7t-38.5 20t-19 36t11 56.5q1 2 8.5 9.5t16.5 16t17 16t10 9.5l3 7q3 5 6 10.5t5 10.5t3 7q40 4 81 -6.5t80 -23.5t73 -21.5t61 -0.5
q8 10 25 29.5t39 44t46.5 51t47 50t41 42t27.5 26.5q52 47 108.5 72t105.5 31t85.5 -5t48.5 -35.5t-4.5 -60.5t-74 -80.5t-161 -95t-264.5 -103.5q-25 -9 -44.5 -42.5t-31.5 -80.5t-16 -100.5t2.5 -101t24 -82.5t48.5 -45q24 -8 55 -6.5t62 9.5t59.5 21t48.5 28
q40 30 53.5 56.5t13.5 50t-7 46t-8.5 43t8.5 41t44 41.5q36 21 81.5 25t83 -10t57.5 -48t4 -89q-4 -15 -18.5 -26t-34 -19.5t-41.5 -15t-41.5 -11.5t-35 -8.5t-20.5 -6.5q-2 -1 -7 -9l-11 -16q-6 -9 -11 -17t-6 -9q-27 -27 -72.5 -57.5t-97.5 -50t-103.5 -22.5t-90.5 25z
M521 590q-2 -2 -5 -6.5t-5.5 -10t-4.5 -11t-2 -7.5q4 -1 16.5 -1t17.5 1q11 3 34.5 10.5t48.5 16t46 15.5t27 10q102 45 153.5 89t62.5 75.5t-15 44.5t-79 -4t-129 -69.5t-166 -152.5zM816 278q33 -33 60.5 -35t45 12.5t23 38t-5.5 40t-40.5 19.5t-82.5 -23
q-21 -11 -18.5 -23.5t18.5 -28.5zM104 486q-1 -3 -1.5 -10.5t-0.5 -16t0.5 -15.5t1.5 -10q51 -8 88 1.5t68 50.5q-4 1 -27 7.5t-50 10.5t-51 1.5t-28 -19.5zM243 538q1 4 -2 6t-6.5 2t-7 -2t-2.5 -6q2 -8 9 -8t9 8z" />
    <glyph glyph-name="ampersand" unicode="&#x26;" horiz-adv-x="807" 
d="M78 17q-32 18 -44 41.5t-9.5 49t16.5 51t34.5 48.5t44 41.5t45.5 29.5q10 5 37 17.5t57.5 26.5t57.5 26t38 17q-1 18 -1.5 62t-0.5 94t0.5 94t1.5 62q0 9 2.5 24t5.5 29t5.5 24t4.5 10h52q-2 -31 -3.5 -77.5t-1 -97.5t5.5 -101t16 -89q2 -1 24.5 2.5t54.5 10t68.5 16.5
t66 22t48 26t14.5 29.5t-35.5 32.5t-101.5 34q-8 2 -12.5 8.5t-6.5 14.5t-1.5 16t2.5 14q20 4 52.5 -2t66 -18.5t63 -30t44 -36t8.5 -37t-42 -32.5l-313 -122q-4 -2 -10.5 -23t-16 -54t-24 -73t-34.5 -78t-46.5 -69.5t-61 -49t-77 -15.5t-94.5 32zM78 87q2 -4 7 -10l21 -21
q5 -4 7 -4q62 -16 110.5 2.5t80 57.5t45 92.5t6.5 107.5q-14 5 -43 -5t-63.5 -29t-70 -44.5t-61.5 -52t-38.5 -51.5t-0.5 -43z" />
    <glyph glyph-name="quotesingle" unicode="'" horiz-adv-x="157" 
d="M43 746q-5 14 -9.5 48t-7 76t-0.5 86t11 78t27.5 52t48.5 8q0 -6 0.5 -21t0.5 -31.5t-0.5 -31.5t-0.5 -21q-2 -17 -5 -41.5t-7 -51t-7.5 -53t-7 -48t-5.5 -35t-3 -14.5l-18 -17z" />
    <glyph glyph-name="parenleft" unicode="(" horiz-adv-x="408" 
d="M260 35q-100 40 -154.5 98.5t-74.5 128.5t-11 147t36.5 154.5t68 151t83.5 136.5q14 19 25 32t22.5 17.5t25 1t31.5 -16.5q-33 -46 -73 -105.5t-75 -126t-60 -136t-27.5 -137t23 -129.5t90.5 -112q4 -3 23 -13t43.5 -22.5t50.5 -27.5t44 -29.5t23.5 -26.5t-9.5 -20
q-6 1 -21 6l-32 10q-16 6 -31 11.5t-21 7.5z" />
    <glyph glyph-name="parenright" unicode=")" horiz-adv-x="469" 
d="M17 17q0 6 7 19t11 16q111 81 189.5 162t117 175t33 206.5t-62.5 255.5l-10 19q-7 15 -16 32.5t-17 32.5l-9 19q-1 2 -1 9t1 9q12 6 22 4t19 -8t16.5 -14.5t12.5 -16.5q70 -117 92 -231.5t0.5 -222.5t-85 -208t-163.5 -188q-2 -2 -15 -10.5t-29.5 -19.5t-33.5 -22.5
t-26 -17.5q-16 -11 -27 -15q-10 -4 -18 -2t-8 17z" />
    <glyph glyph-name="asterisk" unicode="*" horiz-adv-x="512" 
d="M70 17q-1 4 -1.5 12.5t-0.5 17t0.5 15t1.5 8.5l87 120v18q-2 0 -21 -0.5t-42.5 2t-46 10t-30.5 23.5q-4 7 -0.5 16.5t10.5 17t14 13t11 5.5h138q1 0 3.5 6t5.5 14.5t5.5 17t3.5 14.5q1 7 4 24.5t5.5 37t5 36.5t2.5 24q15 11 26 15q10 4 18.5 2t8.5 -17v-139
q0 -17 12 -19.5t30.5 3t42 15.5t47 19.5t43.5 15t33 1.5q5 -8 0.5 -17t-12 -17t-15.5 -14l-7 -5q-9 -6 -31 -21t-47 -31.5t-47.5 -31t-31.5 -20.5q-5 -21 -0.5 -40.5t11.5 -37.5t14 -34t7 -30.5t-10.5 -26.5t-38.5 -22l-53 105q-10 20 -23 11.5t-28 -30t-30.5 -48.5
t-29.5 -45t-25.5 -20t-18.5 27z" />
    <glyph glyph-name="plus" unicode="+" horiz-adv-x="834" 
d="M321 122q3 45 12 94t5 96q-31 8 -59.5 2.5t-56.5 -18t-54.5 -28t-53 -27.5t-53 -18t-53.5 2q-7 11 0.5 23t20.5 21.5t27.5 16.5t21.5 9q10 3 30 8.5t46 12.5t54 14.5t54 14.5t46 12t30 8q2 13 3 38t4 53t9.5 54.5t18.5 44.5q2 4 8.5 10.5t8.5 6.5q4 0 10 -2t11.5 -4.5
t9.5 -5.5t4 -5v-173q10 -1 44.5 3.5t79.5 10t93.5 9.5t87.5 2.5t61.5 -11t15.5 -31.5q-1 -3 -7.5 -9.5t-9.5 -8.5q-9 0 -31.5 0.5t-47.5 0.5t-47 -0.5t-31 -0.5q-23 -1 -58 -3.5t-68 -5t-57 -5t-25 -3.5l-17 -18l-3 -15q-2 -14 -5 -36.5t-7 -51.5l-8 -57q-4 -28 -7 -54.5
t-5 -45.5q-1 -12 -2 -24.5t-6 -20.5t-15 -10.5t-29 3.5q-1 7 -1.5 24t-0.5 36.5t0.5 37t1.5 24.5z" />
    <glyph glyph-name="comma" unicode="," horiz-adv-x="295" 
d="M-9 -245q-8 11 -7.5 18.5t4 13t9.5 10t11 10.5q30 40 53.5 72t42 64t33 69.5t27.5 89.5q6 26 2 49t-11 44t-11 40.5t2 39.5q4 12 14 16t20.5 2.5t20.5 -7t15 -11.5q18 -18 20.5 -53.5t-6 -81t-26.5 -97t-40.5 -100t-48 -91t-49 -70t-43.5 -36.5t-32 9z" />
    <glyph glyph-name="hyphen" unicode="-" 
d="M8 278q-4 8 -1 14t9 10.5t13.5 6.5t13.5 3q13 3 41.5 8.5t64.5 12.5t75.5 14.5t76 14.5t65 12t42.5 8q23 4 29 -4t2.5 -21t-13 -26t-18.5 -19q-29 4 -68.5 -1t-81 -13.5t-83.5 -18.5t-76.5 -15t-59 -3t-31.5 17z" />
    <glyph glyph-name="period" unicode="." horiz-adv-x="250" 
d="M76 17q-9 17 -5 36.5t16 36.5t29 29.5t35.5 14.5t35.5 -8.5t28 -38.5q7 -17 1.5 -33.5t-18.5 -29t-31 -21t-35.5 -10.5t-33 3.5t-22.5 20.5z" />
    <glyph glyph-name="slash" unicode="/" horiz-adv-x="512" 
d="M8 35q-2 2 -2 8.5t2 8.5l9 38q7 26 15.5 58.5t17.5 68.5t18 68.5t16 58.5t11 38q18 56 42.5 113.5t54 113t62.5 108t67 99.5q10 13 28.5 34t38 40t35 33t19.5 14h35v-35q-9 -9 -31.5 -33.5t-47.5 -52t-47 -52.5t-30 -35q-3 -3 -8 -10t-10.5 -15.5t-10.5 -16t-6 -10.5
q-7 -17 -22.5 -52t-34.5 -79.5t-39.5 -93.5t-39.5 -94t-33.5 -80.5t-21.5 -52.5q-11 -26 -10 -57.5t0.5 -62.5t-8 -59t-34.5 -46q-2 1 -7.5 6t-11 10.5t-10.5 11t-6 7.5z" />
    <glyph glyph-name="zero" unicode="0" horiz-adv-x="564" 
d="M104 17q-12 7 -23 20t-20 27.5t-15.5 30t-10.5 27.5q-7 32 -5.5 81.5t11 108t27 121t42.5 121t57 108.5t70.5 83t83.5 44t96 -8q43 -16 65 -48.5t39 -73.5q0 -11 0.5 -40.5t0.5 -63t-0.5 -63t-0.5 -40.5q-2 -26 -21.5 -76t-51.5 -107t-73.5 -113t-87.5 -95.5t-93 -54.5
t-90 11zM122 87q38 -26 71 -19t67 36q70 60 115 126t69 131.5t29.5 126.5t-2.5 111t-27.5 85t-46 48t-57.5 1t-62 -56q-15 -22 -35.5 -47t-40 -51t-37 -54t-26.5 -56q-5 -15 -15.5 -45t-21 -67t-18 -77.5t-8 -77.5t9.5 -67.5t36 -47.5z" />
    <glyph glyph-name="one" unicode="1" horiz-adv-x="316" 
d="M117 26q6 114 9 211t8 190t15 188.5t30 206.5q-9 -11 -22.5 -23t-30 -21t-34.5 -12t-35 4q-1 4 10 22t30 43t43 54t48.5 54.5t46 44.5t36 25t18.5 -5t-6 -46q-3 -9 -10 -31.5t-15.5 -47.5t-16 -47t-11.5 -31q-2 -18 -6 -56t-9.5 -86t-11 -101t-10.5 -101t-9 -86t-5 -56
q-3 -40 -3 -49.5t0.5 -6t1.5 13t1 8.5q-1 -20 -2.5 -55.5t-3 -74.5t-2.5 -74.5t-2 -54.5q0 -10 -4.5 -19t-12 -15t-17 -7t-18.5 6v35z" />
    <glyph glyph-name="two" unicode="2" horiz-adv-x="712" 
d="M26 70q7 49 24.5 93.5t46 81t67 62.5t87.5 40q24 44 46 92.5t37.5 99.5t21.5 103.5t-1 103.5l-139 -121h-34v34l156 157q19 19 35.5 18t28.5 -12t18 -28t5 -30q-2 -12 -4.5 -32t-5 -39.5t-5 -34.5t-2.5 -16q-4 -15 -16 -52t-26 -78.5t-26.5 -78.5t-18.5 -51
q-15 -15 -9 -25t20 -16q16 -7 41 -11q23 -2 52.5 2t61 11t63 15t58.5 14.5t47 9.5t30 0q5 -2 12 -8.5t5 -8.5l-34 -53q-2 -3 -23 -11t-48.5 -16t-56 -15.5t-45.5 -9.5q-13 -2 -45 -2.5t-68.5 -0.5t-68.5 0.5t-45 2.5q-6 -10 -23 -35t-36 -52.5t-37 -52t-25 -33.5
q-8 -10 -20.5 -26t-28 -29.5t-34.5 -19.5t-38 5q0 3 -0.5 10.5t-0.5 16t0.5 16t0.5 10.5zM78 78q-7 0 -7 -9t7 -9q6 0 6 9t-6 9zM95 139q-1 -4 -1 -17t1 -18h18l103 156h-17q-6 0 -21.5 -13.5t-32.5 -32t-31.5 -39.5t-18.5 -36z" />
    <glyph glyph-name="three" unicode="3" horiz-adv-x="504" 
d="M87 17q-26 20 -41.5 46.5t-23 56.5t-8 61.5t2.5 61.5q9 6 19 -8t21.5 -37.5t26 -52.5t33 -53t42.5 -38.5t54 -9t67.5 35t84.5 93.5q63 86 68 150.5t-31 97.5t-106 29.5t-157 -51.5q-22 0 -13.5 16t33.5 42t60.5 57.5t67.5 62.5t55 57.5t23 42.5v17q-15 5 -35 -2
t-42 -19.5t-44 -26.5t-42 -21.5t-36.5 -5t-26.5 22.5q-4 8 0 16.5t10.5 16t13.5 12.5l11 7q13 4 45 14.5t68 21.5t68 20.5t44 13.5q4 1 17.5 1t17.5 -1q8 -28 -2.5 -60t-28.5 -62.5t-39 -58t-34 -45.5q12 4 28.5 -4t23.5 -14q46 -37 66 -84t18.5 -97.5t-20.5 -101t-50 -95
t-70 -79.5t-81 -53.5t-83 -18.5t-75 26z" />
    <glyph glyph-name="four" unicode="4" horiz-adv-x="616" 
d="M365 52q1 6 3.5 25t6 43.5t7.5 53t7.5 53t6 43.5t3.5 25q0 3 0.5 10.5t0.5 15.5t-0.5 15.5t-0.5 10.5q-11 4 -40.5 14.5t-63 21.5t-63.5 21t-42 13q-19 5 -36 -8t-32.5 -34.5t-29.5 -45t-26.5 -39t-25 -17t-23.5 21.5q5 13 14 40t21 61.5t25.5 72t25.5 72t21.5 61.5
t14.5 40q3 9 10.5 23t17.5 23t21 8.5t20 -19.5q-3 -8 -10.5 -27.5t-16 -41.5t-15.5 -42t-9 -28q-2 -5 -2 -17.5t2 -16.5q8 -1 30.5 -9.5t50.5 -20.5t59 -25t57 -22t43.5 -13t19.5 3l121 468q3 13 12.5 16t19.5 -0.5t16.5 -12.5t3.5 -21l-86 -381v-52q4 2 13.5 7t20.5 10.5
t20.5 10.5t13.5 7h18q-26 -20 -46 -36.5t-35 -34t-25 -38t-15 -48.5q-2 -11 -6.5 -34t-9.5 -52t-10.5 -61.5t-10.5 -61.5t-9 -52t-6 -34q-4 -3 -10 -6.5t-13.5 -6.5t-15 -4.5t-13.5 0.5q0 3 -0.5 10.5t-0.5 15.5t0.5 15.5t0.5 10.5z" />
    <glyph glyph-name="five" unicode="5" horiz-adv-x="555" 
d="M95 17q-29 22 -43.5 58t-18 76.5t1 80.5t14 69.5t22 43.5t24.5 2q2 -9 -2 -37.5t-7 -66t-3 -77t9 -69t30 -44t60 -1.5q58 20 76.5 51t10.5 69t-34.5 79.5t-57.5 81.5t-59.5 75t-39.5 61q-23 50 -18 86t24 59.5t47.5 35.5t53 14.5t39.5 -4t9 -18.5l279 87q19 6 26 -3
t5 -22.5t-10.5 -27t-20.5 -17.5l-313 -104q-17 -5 -30 8.5t-22 26.5q-17 -4 -20.5 -21t-0.5 -36.5t10 -38t11 -25.5q6 -8 18.5 -24t28 -36.5t32.5 -43t32 -43.5t27 -37.5t18 -24.5q22 -31 24.5 -68t-9.5 -72.5t-36 -65t-54.5 -46t-65 -16.5t-67.5 25z" />
    <glyph glyph-name="six" unicode="6" horiz-adv-x="460" 
d="M95 17q-28 7 -44 29t-23.5 53t-8 66.5t3 70t9.5 64t11 47.5q2 9 10.5 35.5t19.5 62.5t24.5 77.5t26 81t23.5 72.5t18 53q2 7 5.5 16.5t9.5 16.5t14.5 8.5t21.5 -6.5v-52l-121 -400v-190q0 -10 11 -23t24 -21.5t24 -8t11 17.5q3 13 12.5 45t20.5 68t21 68t14 44
q2 7 15.5 27t32 43.5t41 45.5t43 33.5t36.5 7t24 -34.5q7 -49 1.5 -102.5t-23.5 -105t-46.5 -95.5t-67.5 -74.5t-88 -42t-106 2.5zM233 157q-1 -5 -1.5 -15t-0.5 -21t0.5 -20.5t1.5 -13.5q35 12 67 47t54.5 78.5t32.5 89t3 80.5h-52q-1 0 -7.5 -10t-15 -23.5t-17 -28.5
t-12.5 -25q-5 -9 -13 -29.5t-16 -42.5t-15 -41t-9 -25z" />
    <glyph glyph-name="seven" unicode="7" horiz-adv-x="538" 
d="M449 716l-327 -91q-1 -1 -12 -15t-25.5 -32t-30 -34t-26.5 -20t-15 10t4 56q2 10 11 24.5t20 28t22 23t17 11.5l417 94v-59q-7 -21 -19.5 -66t-28 -101.5t-32.5 -119t-32.5 -119t-27.5 -101.5t-17 -66q-2 -7 -4.5 -24t-5 -36.5t-5 -37t-2.5 -24.5q-8 -5 -23.5 -13.5
t-28.5 -3.5v70z" />
    <glyph glyph-name="eight" unicode="8" horiz-adv-x="590" 
d="M52 17q-20 15 -22 45t4.5 62t18 60t17.5 41q5 11 19.5 38.5t31 58t32 57.5t21.5 38q10 37 0 76.5t-24 81t-25 84.5t-3 87q7 4 18.5 10t24 11t24.5 9t19 5q15 1 38.5 1.5t45.5 0.5t38 -0.5t17 -1.5l52 -69q2 -2 -5 -9t-12 -9q-2 -1 -8.5 -1t-8.5 1t-10 6.5t-16.5 11.5
t-16.5 11.5t-10 5.5q-7 1 -24 1.5t-36.5 0.5t-36.5 -0.5t-24 -1.5q-15 -8 -17.5 -25t1 -36.5t9 -36.5t7.5 -24q3 -11 9 -28.5t11 -34t9 -28.5l5 -12h18l278 260q21 19 32.5 18t14.5 -13t-1 -29t-12 -28q-9 -12 -25 -24t-34 -23t-35 -21t-27 -19q-13 -12 -31 -29.5t-37.5 -36
t-38 -37.5t-33.5 -34.5t-24.5 -25t-9.5 -10.5v-295q0 -30 -22 -63.5t-54 -57.5t-68 -32t-64 13zM87 87q5 -22 24.5 -22.5t41 10.5t38.5 29.5t17 34.5v191l-17 35q-20 -26 -41.5 -60t-38 -71.5t-24.5 -75.5t0 -71z" />
    <glyph glyph-name="nine" unicode="9" horiz-adv-x="408" 
d="M268 555v122q-20 -15 -47 -31t-57 -27.5t-61 -16t-60 4.5q-19 40 -16 85t23 85t53.5 70.5t74.5 42t86.5 0t90.5 -55.5q11 -11 20 -13t14 -4.5t5.5 -9t-4.5 -26.5l-191 -729q11 -17 5 -28t-19.5 -17t-29.5 -7.5t-25 0.5v35zM95 729q-1 -4 -1.5 -13.5t-0.5 -21t0.5 -21.5
t1.5 -14q20 -6 45.5 -2t51 15t48 28.5t37 39t18 45.5t-8.5 49q-26 18 -57.5 14.5t-59 -20.5t-48.5 -44t-26 -55z" />
    <glyph glyph-name="colon" unicode=":" horiz-adv-x="269" 
d="M95 147q-4 25 2.5 50t19.5 45.5t30.5 35.5t34 20t30.5 -1t21 -28q6 -17 -1 -37.5t-21.5 -39t-33.5 -34t-36.5 -23t-30.5 -6t-15 17.5zM43 529q-24 16 -27.5 31.5t7 29t31.5 24t44.5 17.5t46 9.5t36.5 -1t16 -13.5t-15 -27l-87 -87q-1 -1 -7.5 -1t-9.5 1q-4 2 -17.5 8
t-17.5 9z" />
    <glyph glyph-name="semicolon" unicode=";" horiz-adv-x="217" 
d="M-104 -295q55 60 99 120t72.5 125.5t38.5 137.5t-3 155q6 17 22.5 19.5t30.5 -2.5q19 -50 19.5 -100.5t-12 -99.5t-35.5 -96.5t-51 -92.5t-57.5 -86.5t-54.5 -79.5q-13 -17 -34.5 -17t-34.5 17zM35 452q6 19 23 30.5t37.5 17t41.5 6t36 -1.5q10 -26 -1.5 -51t-34.5 -43.5
t-51.5 -27t-50.5 -0.5q-2 4 -2.5 13.5t-0.5 21t0.5 21.5t2.5 14zM103 460q-6 0 -6 -9t6 -9q8 0 8 9t-8 9z" />
    <glyph glyph-name="less" unicode="&#x3c;" horiz-adv-x="807" 
d="M382 157q-33 10 -77 18t-92 12.5t-94.5 5.5t-83.5 -3q-26 13 -20.5 25t23.5 21.5t39 15.5t27 8q13 7 40.5 23.5t62 36.5t72 43t72 43.5t61.5 37t40 25.5q11 7 26 22.5t33 29.5t38 20.5t41 -3.5q7 -11 -7 -28t-41.5 -38t-64.5 -44t-76.5 -46t-77 -45t-65.5 -41
t-42.5 -32.5t-7.5 -20.5q64 -5 137.5 -24.5t146 -45.5t138.5 -53.5t116 -49.5q12 -6 15.5 -17t0 -21t-12 -15t-20.5 0q-12 6 -39 18t-61.5 26t-72 29t-72 28.5t-62 23.5t-40.5 15z" />
    <glyph glyph-name="equal" unicode="=" horiz-adv-x="937" 
d="M51 168q-6 12 7 22.5t32 17.5t38.5 10.5t26.5 2.5l643 87h120q7 -11 6 -20.5t-7 -17t-14.5 -11.5t-17.5 -4h-227l-555 -104q-17 -3 -30.5 -1.5t-21.5 18.5zM34 376q2 3 8.5 10t8.5 8q78 27 169 49t185 36.5t186 20t172 -1.5q4 -13 1 -30t-19 -22q-77 10 -164.5 4.5
t-175 -19.5t-170 -34t-149.5 -38h-52q-1 2 -1 8.5t1 8.5z" />
    <glyph glyph-name="greater" unicode="&#x3e;" horiz-adv-x="781" 
d="M122 17q-4 1 -3 16t5.5 30.5t13 24.5t19.5 -1q12 10 37.5 29.5t57.5 43.5t68 50.5t68.5 50t58.5 42t39 27.5q7 5 27 15l42 21q22 11 42 20q19 9 27 13q-65 11 -142 19q-78 9 -159 23t-160 36.5t-146 60.5q-6 12 -1 19.5t15 11.5t21 5t18 -2q4 -1 14 -5.5t21 -10
t20.5 -10.5t13.5 -8l607 -121q4 -1 4 -8t-4 -10q-30 -30 -80 -57t-107.5 -54t-118 -56t-112.5 -63.5t-89 -75.5t-49 -93z" />
    <glyph glyph-name="question" unicode="?" horiz-adv-x="642" 
d="M347 17q-16 25 -11 45.5t21.5 30.5t38 6t38.5 -29q9 -13 0.5 -29.5t-24 -27t-33.5 -12t-30 15.5zM70 382q-11 5 -23.5 17.5t-20.5 28.5t-7.5 31.5t16.5 26.5l434 295q33 22 42 38t1 27t-29.5 17.5t-50 10t-61 3.5t-61.5 -1t-52 -3.5t-33 -5.5q-30 -8 -35.5 1.5t5.5 24
t34 28.5t49 16q13 1 41.5 2t63 -1t70 -8.5t62 -20.5t39 -36.5t1.5 -56.5q-1 -4 -5.5 -12t-10 -16.5t-11 -15.5t-7.5 -8l-382 -260q-8 -6 -19.5 -21t-16 -30t2 -26.5t33.5 -9.5q13 -2 45 -2.5t68 -0.5t68 0.5t45 2.5q5 0 21 4t37 9.5t45.5 11.5t45.5 11.5t37 10t21 5.5h35
q4 -13 1.5 -30t-18.5 -22q-45 -12 -112.5 -28.5t-141.5 -26.5t-144.5 -8t-121.5 28z" />
    <glyph glyph-name="at" unicode="@" horiz-adv-x="1016" 
d="M113 70q-40 22 -60.5 66t-26.5 95t-0.5 101.5t17.5 84.5q27 81 65 151.5t88.5 129.5t115.5 106t148 81q31 13 69.5 19.5t78 6.5t77.5 -6.5t70 -19.5q85 -35 135 -85.5t70 -109t12.5 -120.5t-38 -121.5t-81 -113t-116.5 -92.5q-36 -22 -66 -28t-58.5 -1t-57 17.5
t-60.5 28.5q-16 8 -32.5 5.5t-34 -9.5t-35.5 -16t-36 -13.5t-36 -2t-35 18.5q-9 39 7.5 86.5t49 94.5t76 87t89 64t88 25.5t72.5 -28.5q6 -6 -9 -15t-41.5 -21t-60 -26t-66.5 -29t-60.5 -31.5t-40.5 -32.5q-34 -43 -42.5 -75t4.5 -46t45.5 -7.5t79.5 41.5q11 8 20 29.5
t20 40.5t26 27t38 -10q3 -14 -2.5 -30.5t-11.5 -33t-9 -31.5t5 -27q11 -17 31 -22.5t43.5 -2.5t49 12t49 20.5t42 23.5t29.5 21q70 60 99 121.5t26 118.5t-33 106.5t-78.5 87t-110.5 59t-129 22.5t-134.5 -22.5t-125.5 -75.5q-34 -31 -76 -79.5t-79 -106.5t-64.5 -121.5
t-33.5 -124.5t15.5 -115.5t81.5 -94.5q2 -2 11 -7t20 -10.5t21.5 -10.5t15.5 -7q53 -23 66 -42t-6.5 -26t-66.5 3.5t-113 47.5z" />
    <glyph glyph-name="A" unicode="A" horiz-adv-x="764" 
d="M592 191q-1 5 -7.5 18t-10.5 17q-11 4 -40.5 13.5t-62.5 21t-62.5 21.5t-41.5 14q-3 1 -13 6.5t-22 12t-22 11.5t-13 5q-19 0 -36 -23t-34 -57t-36 -72.5t-42 -69.5t-50.5 -48.5t-61.5 -8.5v35q7 9 22.5 28t34 43t39.5 50.5t39.5 50.5t33 43t21.5 29q13 17 4.5 47.5
t-25 65.5t-35.5 70t-27 60t1 36t49 -2q14 -42 39 -86t64 -70q32 21 60.5 57t53 81t45 95.5t37 100t28.5 93.5t20 76q8 14 22.5 22t28.5 13q7 -9 9 -44t2 -85.5t-1.5 -112t-2 -124t0.5 -122t5.5 -105t13.5 -73.5t25 -28h105v-62h-87q-18 0 -14 -22.5t18.5 -57.5t34 -77.5
t33 -81.5t15.5 -71t-18 -45q-4 -2 -17.5 -2t-17.5 2q-5 18 -20 62t-31.5 94t-31.5 94t-21 62zM419 348q6 -3 22.5 -10.5t36 -16t37.5 -15.5t26 -10q2 -1 8 -1t8 1q4 41 0 103t-10.5 127t-13.5 124.5t-10 95.5l-191 -347q4 -3 16.5 -10.5t26 -16t26 -15.5t18.5 -9z" />
    <glyph glyph-name="B" unicode="B" horiz-adv-x="859" 
d="M251 17q-2 6 -2 19t2 16q1 1 5.5 3.5t10 5.5t11 5.5t8.5 3.5q44 12 87.5 26t85.5 32t81 41.5t75 55.5q86 78 123.5 134.5t39.5 95.5t-24.5 62.5t-67 35t-89 12.5t-90 -5t-70 -17t-29.5 -23l-35 -347q-1 -9 -9.5 -13.5t-18 -4.5t-17 4.5t-7.5 13.5v279h-70q-1 2 -1 8.5
t1 8.5q4 5 13.5 17.5t20.5 26.5t21 26t15 16q1 13 3.5 45t5 68t5 68.5t3.5 44.5q2 27 -5.5 38.5t-20.5 12t-29 -7t-32 -18.5t-30 -23t-22 -19q-8 -8 -28 -27.5t-42 -42t-42 -42t-27 -27.5h-52q-9 28 11.5 59.5t61.5 64.5t97.5 66t119.5 62.5t126.5 54.5t119 42.5t97.5 26.5
t61 6q18 -4 23 -20t2 -35.5t-10.5 -38.5t-14.5 -28q-31 -44 -57 -79.5t-53.5 -67t-59 -63t-72.5 -68.5q34 -6 65.5 -2t62 8.5t63 5t69.5 -11.5q22 -7 39 -15t29.5 -19t21 -27.5t14.5 -41.5q13 -60 -10 -117t-69.5 -108t-108.5 -95.5t-126 -80.5t-123.5 -62t-100.5 -41
q-11 -5 -21 1.5t-14 15.5zM408 625q7 6 20.5 19.5t31 30.5t36.5 35.5t35.5 36t30 31.5t19.5 21q10 10 24.5 29.5t28.5 39t24 34.5t10 18v52q-30 5 -70.5 -5t-80.5 -25.5t-74.5 -32t-52.5 -24.5l18 -34v-226z" />
    <glyph glyph-name="C" unicode="C" horiz-adv-x="634" 
d="M139 17q-41 16 -66.5 57.5t-36.5 97t-8 120.5t17.5 130t39.5 124t59 102.5t76.5 66t91.5 14.5q2 -10 7.5 -34.5t11 -52.5t10 -52.5t6.5 -34.5q2 -11 -7 -24t-21.5 -21t-24.5 -7.5t-16 17.5q-3 10 -5 29t-5 40t-8 39.5t-14 26.5t-22.5 2.5t-32.5 -32.5q-6 -8 -14.5 -21.5
t-17 -27.5t-14.5 -25t-6 -13l-52 -278q-9 -46 1 -82.5t32 -62t54 -40t67.5 -16t72 9t68.5 35.5q12 9 31.5 34t41.5 56.5t46 66t45 62t37 44.5t24 15q15 -44 -1.5 -93t-54 -95.5t-90 -86.5t-109.5 -66t-113 -34t-100 10z" />
    <glyph glyph-name="D" unicode="D" horiz-adv-x="702" 
d="M275 80q2 1 4.5 25.5t5.5 57.5t5 68t3 58q0 13 0.5 37t0.5 53.5t0.5 61.5t0 60.5t-1 50.5t-0.5 32q0 4 -2.5 14t-5 21t-5.5 20.5t-5 13.5q-35 3 -71 -4t-71 -16t-69.5 -15t-65.5 0q-8 17 15.5 34.5t68.5 31t105 22t124 7.5t126 -13.5t111 -40t79 -71.5t30 -109
q0 -23 -8 -49t-20.5 -52t-28 -49.5t-30.5 -39.5q-7 -8 -23 -24.5t-36.5 -37.5t-43.5 -43.5t-43.5 -43t-37 -36.5t-24.5 -24q-3 -24 -8 -44t-15 -31t-25.5 -10.5t-38.5 16.5q-22 -15 -46.5 -42.5t-50.5 -53t-54 -40.5t-56 -3v35zM362 150q63 26 111.5 76.5t77 110.5
t34.5 121.5t-15 108.5t-71.5 72.5t-136.5 13.5v-503z" />
    <glyph glyph-name="E" unicode="E" 
d="M87 17q-39 29 -51.5 69t-18.5 87q2 14 5 44t7 67.5t7.5 79.5t7 79.5t5.5 67.5t3 44q1 8 1 28v83q0 20 -1 28l18 18l312 104h35q5 -14 1.5 -30t-19.5 -22l-260 -105l-17 -17q-1 -1 -3 -21t-5 -47.5t-6 -56.5t-4 -48q0 -5 -0.5 -17.5t-0.5 -26t0.5 -26t0.5 -17.5l295 156
q7 4 10.5 -2t3.5 -16t-3.5 -20t-10.5 -14q-17 -11 -41.5 -25t-51 -29.5t-53 -30.5t-47.5 -27t-34.5 -19.5t-14.5 -7.5h-70v-225q0 -46 20.5 -59t52 -5.5t68.5 29.5t69.5 47t56 46.5t28.5 27.5q4 25 11 41q6 14 16 20t25 -9q6 -31 -9.5 -67t-44.5 -70t-68.5 -62.5t-80 -45
t-78.5 -18t-66 19.5z" />
    <glyph glyph-name="F" unicode="F" horiz-adv-x="677" 
d="M338 17q-1 1 -1.5 17t-0.5 38.5t0.5 46t1.5 38.5q0 2 3 22.5t7 48.5t6 56.5t1 45.5q-2 1 -8.5 1t-8.5 -1q-8 -3 -28 -13t-42 -21.5t-42 -21.5t-27 -14q-24 12 -20.5 26t23 28.5t50 30.5t60 33t52 35.5t26.5 38.5l70 329q3 13 -2 21.5t-13.5 12.5t-19 4t-17.5 -3
q-14 -5 -36.5 -15.5t-45 -21.5t-39.5 -20.5t-19 -12.5l-225 -242q-9 -11 -15 -7t-8.5 14.5t-1 23.5t7.5 20q6 9 19.5 27t30.5 40t36 47t36 47t30.5 39.5t20.5 25.5q40 4 75.5 23t70.5 37.5t71.5 28.5t78.5 -3q23 -23 28.5 -56t0 -71.5t-18 -79.5t-24 -79.5t-19 -72
t-2.5 -56.5q24 -8 47 1.5t46.5 23t47.5 24t49 3.5q5 -14 -3.5 -29t-13.5 -23q-10 -3 -35 -12.5t-52.5 -21t-52 -21.5t-33.5 -15q-3 -2 -8 -6.5t-11 -10t-10.5 -10.5t-5.5 -8q-3 -13 -8 -45t-11 -67.5t-10.5 -67.5t-5.5 -45q-2 -13 0.5 -31.5t2 -36.5t-8 -33t-29.5 -21z" />
    <glyph glyph-name="G" unicode="G" horiz-adv-x="599" 
d="M104 52q-31 23 -46.5 64t-21.5 87t-5 89.5t4 72.5q1 11 5.5 40.5t10 63t11 63t8.5 40.5q26 108 57.5 174t64 100.5t64.5 41.5t57.5 -3.5t43 -33.5t22 -49.5t-6.5 -51.5t-42 -38q-5 -2 -12.5 -3.5t-14.5 -1.5t-11.5 1.5t-4.5 3.5v104q0 3 -10.5 3t-16.5 -3
q-33 -19 -60 -62.5t-47.5 -94t-33 -98t-15.5 -75.5q-1 -11 -2 -34t-1.5 -52.5t-0.5 -61.5t0.5 -61t1.5 -52.5t2 -34.5q0 -17 9 -35.5t22 -35t28 -30t28 -19.5q34 -17 73.5 -8t78 36t73.5 66t60.5 81t38 83t6.5 71q-37 5 -74 -1.5t-73.5 -15.5t-73.5 -15.5t-75 -1.5
q-2 6 -2.5 14t1.5 15.5t6.5 13.5t12.5 9q36 0 80 14t89 29t87 25t73 1q6 -56 -10 -123t-48 -130t-77.5 -116t-99.5 -82.5t-113.5 -28.5t-119.5 46z" />
    <glyph glyph-name="H" unicode="H" horiz-adv-x="772" 
d="M442 486q0 1 -6.5 1t-10.5 -1q-35 -13 -56.5 -22.5t-36.5 -16.5t-27 -12.5t-27 -11t-37.5 -11t-58.5 -13.5v-347q0 -18 -8 -19t-17.5 7.5t-18 22t-8.5 24.5q-1 23 -3 55.5t-3.5 67t-3.5 68.5t-3.5 61t-2.5 43l-1 17l-87 35q-2 1 -2 7t2 11q5 10 16.5 16.5t24.5 10t25.5 5
t20.5 2.5q0 15 2 52t5 78.5t5.5 78.5t4.5 51q0 3 5.5 15.5t13 27.5t16.5 28t16.5 18t12.5 -2.5t5 -33.5q0 -6 -2.5 -26.5t-6 -43.5t-6 -43.5t-2.5 -26.5q-1 -11 -1.5 -37.5t-0.5 -57t0.5 -57.5t1.5 -38q25 -6 66 -2t82.5 16.5t77.5 31t52 40.5q19 28 29 64t18 73.5t20 74.5
t36 67q29 35 57.5 48t52.5 9.5t41.5 -21t23 -42.5t-2 -55.5t-33.5 -60.5q-7 -8 -21.5 -23t-33 -34t-39 -40t-39.5 -39.5t-34.5 -33.5t-22.5 -22q-6 -60 -4 -125t10 -130t20 -128t25 -120h-68zM563 729q-2 -7 -7 -24t-10.5 -36.5t-10 -37t-6.5 -24.5q30 15 55.5 42t44.5 57
t31.5 59t16 49t-2.5 27t-24 -7q-26 -22 -50.5 -47t-36.5 -58z" />
    <glyph glyph-name="I" unicode="I" horiz-adv-x="807" 
d="M8 -93q-4 7 0 15.5t10.5 16t14 13t10.5 7.5l260 103l18 18q-1 17 -1.5 52.5t-0.5 79.5v187q0 45 0.5 80t1.5 52q0 6 2.5 21t5 32t5 31.5t4.5 20.5h-225q-13 0 -16.5 7t-1.5 16t7.5 17.5t10.5 11.5q122 -9 242 18q21 48 58 74t82 35t93.5 3.5t91 -19.5t75 -34t45.5 -40.5
t3 -38t-52.5 -27t-121.5 -8t-204 19.5q-25 -36 -38.5 -82t-18 -97t-2 -104.5t9 -105t15.5 -99t17 -86.5q30 -6 60.5 -1.5t61 14.5t60.5 22.5t60.5 22.5t60.5 14.5t61 -2.5q5 -13 2 -30t-19 -22q-81 -15 -175.5 -35.5t-192 -48.5t-190.5 -63t-171 -79zM425 723
q112 -21 178.5 -26t97.5 -0.5t32 16t-19 23.5t-55 21.5t-76 11t-83 -8.5t-75 -37z" />
    <glyph glyph-name="J" unicode="J" horiz-adv-x="633" 
d="M191 -155q-36 24 -40 73t12.5 109t47 125.5t64 122.5t63.5 100.5t45 59.5q1 4 1 17.5t-1 17.5q-2 12 -6.5 41.5t-10 63t-11 63t-7.5 41.5q-5 9 -14.5 15t-20.5 1l-277 -103q-12 -5 -21 1t-13 16t-0.5 20t16.5 15l573 191h52q7 -21 4 -30.5t-11.5 -13.5t-20.5 -5t-24 -4
q-10 -3 -34.5 -10t-52.5 -15.5t-52.5 -16t-33.5 -10.5q-6 -57 3 -114.5t32 -110.5l173 87q14 7 27.5 2t20 -15t4.5 -21.5t-18 -17.5q-23 -9 -54.5 -18.5t-62.5 -22.5t-56 -32t-34 -49q-4 -10 -7 -46.5t-7.5 -88.5t-12 -113t-19.5 -119.5t-30 -109.5t-44 -82.5t-61 -37.5
t-81 24zM226 -102q14 -28 31 -19.5t34.5 38t33.5 73t28.5 85.5t20.5 75t9 43q1 9 1 33v105q0 25 -1 35q-42 -44 -74.5 -100.5t-53.5 -118t-29 -125.5t0 -124z" />
    <glyph glyph-name="K" unicode="K" horiz-adv-x="669" 
d="M572 17q-5 29 -9.5 68.5t-12 82.5t-19 86t-31 79.5t-48.5 63t-70 37.5q-8 2 -19.5 3t-23 1t-19.5 -1t-8 -3l-34 -312q-1 -9 -5.5 -18t-11 -15.5t-16 -8t-20.5 6.5v358l-155 -98q-12 -7 -30 -1.5t-23 19.5q14 18 47.5 40t68.5 45t62.5 45.5t29.5 42.5l35 364q1 9 8 13.5
t15.5 6t17 0.5t11.5 -2v-330l53 35l207 260h35q6 -23 -6.5 -53t-32 -58t-39 -50.5t-25.5 -29.5q-7 -7 -22 -21t-33.5 -31.5t-39.5 -36t-40 -35.5t-34 -30.5t-23 -19.5q46 -12 89.5 -28.5t84.5 -39.5q25 -15 44.5 -47.5t34.5 -74.5t25 -89t15.5 -90.5t6 -80t-3.5 -57.5
t-13 -22t-23 26z" />
    <glyph glyph-name="L" unicode="L" horiz-adv-x="651" 
d="M17 729q0 3 4 6t9.5 6t11.5 4.5t10 0.5t10 -5.5t11.5 -9.5t9.5 -10.5t4 -8.5v-555q12 15 40.5 20.5t67.5 7.5t85.5 2.5t94.5 5t94.5 16t85.5 34.5q37 22 50.5 22.5t9.5 -12.5t-24 -34t-49.5 -42t-66.5 -37t-76 -18q-10 -1 -30 -1t-46 -0.5t-54 0t-54 0.5h-46q-20 0 -30 1
q-12 -9 -24.5 -30.5t-27 -41.5t-31.5 -32t-39 -1v712z" />
    <glyph glyph-name="M" unicode="M" horiz-adv-x="998" 
d="M807 17q-34 13 -57.5 41.5t-40 63t-26 71.5t-15.5 67q-3 16 -7.5 50.5t-10 77t-11 90t-10.5 89.5l-9 77q-4 34 -5 50l-120 -486l-6 -11q-4 -9 -11.5 -19.5t-16.5 -20.5t-18.5 -14.5t-18.5 -2.5t-16 17l-261 520l-69 -520q-2 -14 -11 -17.5t-18.5 0t-17 12.5t-5.5 21
l87 643q0 4 7 10t16 10t17.5 4.5t11.5 -6.5l273 -607l160 607q1 3 11 15.5t22 23.5t23 16.5t14 -4.5l17 -69q3 -68 5 -158t11 -185t29 -187t60 -164q3 -5 10 -13.5t15 -16.5t16 -14.5t11 -7.5q10 -4 27 -1t35 4.5t34.5 -2t24.5 -19.5t1.5 -25.5t-21.5 -14.5t-35 -6t-40 0.5
t-37 4.5t-24 6z" />
    <glyph glyph-name="N" unicode="N" horiz-adv-x="599" 
d="M35 17q-14 152 -18.5 304t0.5 304q2 5 8.5 18.5t16 25t21.5 16t24 -7.5l87 -87l243 -400l5 -7q6 -7 14 -14.5t16.5 -12t16.5 0.5q-1 16 -4 50t-6.5 76.5t-7.5 89.5t-7.5 90t-6 77t-3.5 50q-1 13 -1 43.5t3.5 68.5t11 78t21.5 70.5t35 46t51 5.5q4 0 10.5 -6.5t6.5 -10.5
q-7 -9 -17 -21.5t-19.5 -26.5t-18.5 -28.5t-13 -27.5q-1 -13 -1 -40t-0.5 -61.5t0 -72t0.5 -72.5v-61q0 -27 1 -40q0 -8 2.5 -38.5t5.5 -65.5t6 -66t3 -39q0 -10 0.5 -31t0.5 -43t-0.5 -40.5t-0.5 -23.5q-1 -5 -5 -15t-11 -18t-16 -10.5t-20 8.5l-122 121l-225 365l-27 17
v-538q0 -14 -8.5 -17.5t-19 -1t-20.5 8t-12 10.5z" />
    <glyph glyph-name="O" unicode="O" 
d="M95 35q-50 50 -62.5 111t-6 125.5t24 128.5t27.5 120q4 22 6 53t5 65t8 67t16 59q1 2 7 8.5t10 8.5q69 41 124 31.5t95 -54t64.5 -116t32.5 -153t-0.5 -165t-34.5 -153t-70.5 -116.5t-107.5 -55q-24 -3 -42 -4t-34 2t-30.5 11.5t-31.5 25.5zM147 70q50 -34 88.5 -29.5
t66.5 35.5t46 83t27.5 113.5t10.5 127.5t-4 124t-16.5 103.5t-27.5 66.5q-37 49 -64.5 65t-48 9.5t-34 -32t-21 -61t-10 -76t-0.5 -77t8 -65.5t14 -40q3 -4 15 -13t27 -20.5t29.5 -25.5t23 -28.5t8 -27.5t-16.5 -24q-13 -9 -28.5 -5t-31.5 15t-31 28t-28 33t-22.5 30
t-13.5 20l-18 -34v-208q0 -6 5 -18t12.5 -25.5t16.5 -25.5t18 -18z" />
    <glyph glyph-name="P" unicode="P" horiz-adv-x="634" 
d="M243 295q-7 -6 -22.5 -19.5t-35 -27t-41 -21.5t-40.5 -2q-8 3 -12.5 9t-6 13.5t-1 15.5t2.5 15l182 104v295q0 9 11 13.5t24 4.5t24 -4.5t11 -13.5v-243q42 22 82.5 54.5t70 68t42.5 69.5t0 59.5t-57.5 38t-129.5 5.5q-18 -2 -46 -11t-61 -22t-67.5 -27t-65.5 -25.5
t-55 -17t-35 -1.5q3 17 14 30.5t26.5 24.5t32.5 19t32 13q61 20 105 34t86.5 21t90.5 6.5t117 -9.5q56 -14 77.5 -38t18.5 -54t-25 -63.5t-53.5 -67t-68 -65.5t-67.5 -58t-51.5 -45t-21.5 -26l-35 -312l-6 -8q-5 -7 -12.5 -14.5t-17 -12.5t-16.5 0v295z" />
    <glyph glyph-name="Q" unicode="Q" horiz-adv-x="685" 
d="M460 17q-6 4 -18.5 13.5t-26 21t-26 21.5t-16.5 14q-42 -41 -84.5 -55t-81 -7t-71.5 32t-57.5 61.5t-38.5 82t-14 94.5q0 67 6.5 137.5t21 139.5t37.5 135.5t56 126.5q-2 1 -8.5 1t-8.5 -1q-3 -2 -11 -7t-16 -10.5t-15 -10.5t-10 -7q-16 31 -3.5 50.5t42.5 25.5t72.5 -3
t87.5 -35.5t88 -70.5t73 -108.5t42.5 -150.5t-3.5 -195q-2 -10 -8.5 -34.5t-14.5 -52.5t-16.5 -52.5t-12.5 -33.5q34 -41 60.5 -61t52 -20t52 20t60.5 61q12 -27 7.5 -50.5t-19.5 -41.5t-37.5 -30t-47.5 -16.5t-50 -0.5t-43 17zM199 87q15 -13 41.5 -13t51 10.5t39.5 29
t7 43.5l-87 260q-10 29 -24.5 34t-29.5 -3t-28.5 -23t-21.5 -26q-4 0 -10.5 7t-6.5 11q0 14 6.5 30t16.5 30t22 25.5t24 17.5q26 13 49.5 -1.5t43.5 -45.5t37 -71.5t29.5 -79.5t20.5 -70.5t11 -43.5q23 11 34 47t13 85t-4.5 105t-18 108.5t-27 94.5t-32.5 64
q-11 14 -32.5 31t-45 35t-45 36.5t-33.5 36.5l-4 -7q-2 -5 -5 -10.5t-5.5 -10.5t-2.5 -7q-15 -55 -35 -118t-36 -129t-24.5 -133t-1.5 -129.5t33.5 -118.5t80.5 -101z" />
    <glyph glyph-name="R" unicode="R" horiz-adv-x="720" 
d="M190 17q-1 18 -2.5 54.5t-3 83t-3.5 97.5t-3.5 97t-2.5 82.5t-1 54.5q0 6 -0.5 20.5t-0.5 31t0.5 31.5t0.5 21q-12 -6 -28.5 -21t-35.5 -32.5t-38.5 -32t-36.5 -18.5q-23 14 -21 34.5t22.5 44t55 48.5t76 48t85.5 42t83.5 31.5t70 16t45.5 -4.5q28 -29 27 -72t-19 -92
t-47 -102t-56 -102.5t-46 -93t-18 -74.5t29 -46t95 -7q34 8 71 25.5t72 39t65.5 45.5t51.5 45q35 -9 39 -26t-13.5 -38t-52.5 -44t-79 -44.5t-91.5 -38.5t-91 -26t-78 -8t-50.5 17q0 -6 -1 -21t-4 -31.5t-10 -31t-20 -20.5q-11 -5 -20.5 2t-14.5 15zM243 237l184 411
q-7 23 -23.5 32.5t-37.5 9t-43 -9.5t-40.5 -21.5t-30.5 -27t-12 -26.5z" />
    <glyph glyph-name="S" unicode="S" horiz-adv-x="555" 
d="M157 17q-57 23 -87 60.5t-41 78t-7 78.5t15 61.5t25.5 26t24.5 -26.5q-11 -63 0 -109.5t36 -77t61 -45t74 -15t74 13.5t62 40.5t38 66.5t2 91q-5 23 -26.5 56.5t-49 71.5t-56.5 77.5t-48.5 76t-25 67t14.5 50.5q16 13 47.5 39.5t68.5 52.5t75.5 45.5t69.5 19.5
q23 0 24.5 -7t-10.5 -18.5t-34.5 -27.5t-48.5 -34.5t-52.5 -39t-45 -41t-27 -40t1.5 -36.5q36 -51 72.5 -103t63.5 -102.5t40.5 -99t3.5 -93t-48.5 -84.5t-113.5 -73q-45 -19 -86.5 -18t-86.5 18z" />
    <glyph glyph-name="T" unicode="T" horiz-adv-x="712" 
d="M365 35q2 69 -1.5 138.5t-8 139t-8 139t-0.5 138.5q-11 -3 -34 -8.5t-52 -12.5t-61.5 -14.5t-61.5 -14.5t-52 -12.5t-34 -7.5q-14 -3 -27.5 3.5t-24.5 14.5l35 34q158 15 311 61.5t296 112.5h52q5 -8 0.5 -17t-12.5 -16.5t-16 -13.5l-7 -5l-242 -87q-1 0 -1.5 -24
t-0.5 -57t0.5 -68.5t1.5 -58.5q0 -8 1.5 -35t3 -62.5t3.5 -75.5t4 -76t3 -62.5t2 -35.5q0 -17 -9.5 -31t-21.5 -19t-23.5 1.5t-14.5 31.5z" />
    <glyph glyph-name="U" unicode="U" horiz-adv-x="622" 
d="M60 35q-14 18 -21.5 44.5t-11 55.5t-3.5 57.5t2 50.5q1 15 3.5 48t6 74t7 86t7 86t6 73.5t4.5 48.5q5 9 14.5 16t20.5 2q14 -8 18.5 -21t4.5 -28.5t-2.5 -30.5t-2.5 -25q-3 -52 -13 -115.5t-15.5 -129.5t-1 -128.5t29.5 -111.5q14 -28 34 -26.5t42.5 20.5t45.5 50
t41.5 63.5t30.5 60t14 40.5v19q0 15 -0.5 33t-0.5 33t1 19q1 15 6 52t10 78.5t10 78.5t8 51q5 16 22 19t31 -1q3 -57 -2.5 -113.5t-11.5 -113t-9 -113t5 -112.5q8 -51 25.5 -77t40.5 -33.5t50.5 0t55.5 23t54.5 35t48 36t36 27t19.5 7.5q9 -28 -9.5 -59.5t-53 -58t-80.5 -43
t-91.5 -15t-85 25.5t-62.5 80q-16 -13 -35.5 -37t-41.5 -50t-46.5 -49.5t-50 -34.5t-52 -5t-52.5 38z" />
    <glyph glyph-name="V" unicode="V" horiz-adv-x="659" 
d="M60 538q-3 4 -13 16t-16.5 25.5t-6 26.5t18.5 19q7 3 20.5 3t14.5 -3l173 -417q8 66 21.5 134t35.5 133.5t54.5 126t79.5 110.5q14 16 37 39.5t45.5 45.5t39 38t17.5 16h52q8 -12 -3.5 -26t-29 -26.5t-34.5 -22t-20 -12.5q-80 -80 -126 -165t-71 -177.5t-33.5 -193
t-12.5 -211.5l-7 -4q-5 -2 -10.5 -5t-10.5 -5t-7 -3q-3 -2 -9.5 -2t-7.5 2z" />
    <glyph glyph-name="W" unicode="W" horiz-adv-x="755" 
d="M87 17q-22 15 -35.5 41.5t-21 56.5t-10 59.5t-3.5 50.5q-1 12 -1 38t-0.5 58.5t0 68.5t0.5 68v59q0 26 1 38q6 17 22.5 19.5t30.5 -2.5q0 -15 1 -46t3 -70.5t3.5 -83t3.5 -82.5t3.5 -70.5t2.5 -46.5q1 -13 4.5 -30t9.5 -34.5t15.5 -32.5t22.5 -24q23 18 41 57t32.5 88
t26.5 103t23.5 102t22 85t23 53t26.5 5t31 -59q2 -5 7 -21t12 -37.5t15 -45.5t15 -45.5t12.5 -37.5t7.5 -21q11 -28 26.5 -61t34.5 -62t40.5 -49t43 -22.5t42 17.5t38.5 72q1 13 2 38.5t1.5 58.5t0.5 68.5t-0.5 68.5t-1.5 58.5t-2 38.5q0 6 -5 31t-11 54.5t-11.5 55
t-6.5 32.5q-1 9 2.5 27t10.5 32t17 15.5t22 -22.5q15 -67 29.5 -144t20.5 -156.5t-0.5 -158t-32.5 -148.5q-22 -58 -47.5 -82t-53.5 -23t-56.5 22t-55.5 54.5t-52 74.5t-45 81.5t-34 75.5t-20 57h-18q-2 -10 -6.5 -35t-10 -52.5t-10.5 -52t-7 -34.5q-5 -17 -13 -42.5
t-20.5 -53t-28.5 -52.5t-36 -40.5t-43 -18t-50 15.5z" />
    <glyph glyph-name="X" unicode="X" horiz-adv-x="729" 
d="M122 17q-8 42 5 84.5t28.5 85t25 83t-6.5 77.5q-19 44 -48 85.5t-53.5 85t-37.5 91t0 103.5q43 9 65 -4.5t32 -40t12.5 -62t7.5 -71t16.5 -67t39.5 -50.5q3 1 9.5 7.5t7.5 9.5q26 41 44 72t33 56.5t29 47.5t32.5 45t43.5 49t62 60q52 48 96 53t74.5 -19.5t45.5 -71.5
t10 -103.5t-32.5 -115.5t-82 -106.5t-137.5 -77.5t-200 -28q-16 -29 -27.5 -65t-20 -73.5t-13.5 -74t-8 -65.5q-3 -7 -11 -12t-16 -6.5t-15.5 2.5t-9.5 16zM278 382q-2 -2 -2 -8.5t2 -8.5q88 -14 153 2t109.5 49.5t69.5 78.5t33.5 90t0.5 84.5t-29 60.5t-54 19t-76.5 -39.5
t-95.5 -116.5t-111 -211z" />
    <glyph glyph-name="Y" unicode="Y" horiz-adv-x="612" 
d="M190 -252q-24 31 -29 72.5t2.5 87.5t25 93.5t38.5 91t44 80t41 60.5q43 57 70 98t36.5 81.5t1 87t-37.5 115.5q-32 -136 -79 -237t-95.5 -160t-93 -72t-72 26.5t-32.5 135.5t25 256q5 16 22 18.5t30 -1.5v-330q0 -43 12.5 -52.5t31 2t40 37.5t41 54t33 51t15.5 30
q5 14 13.5 43.5t19 67t22 79t21.5 79.5t17.5 68t11.5 45q3 7 10.5 12t16 6t15.5 -3t10 -15l69 -330q2 -7 15.5 -3t33.5 14.5t43 24.5t43.5 28t36 25t19.5 15q32 -5 33 -18.5t-16 -32.5t-47 -40.5t-59.5 -41t-53.5 -35.5t-30 -23q0 -10 -1 -30t-2.5 -46t-3.5 -54t-4 -54
t-4 -46l-3 -30q-2 -13 -9.5 -42t-20.5 -65.5t-30.5 -77t-38 -76.5t-44 -64.5t-49 -41t-52 -5.5t-52.5 42zM243 -217q15 -22 33 -16t37 29t37 56.5t32.5 66t23.5 58t11 31.5q14 67 17.5 139t-0.5 139q-28 -24 -60 -60.5t-61.5 -80t-53.5 -91.5t-36 -95.5t-8.5 -92.5t28.5 -83
z" />
    <glyph glyph-name="Z" unicode="Z" horiz-adv-x="669" 
d="M650 417q-4 -47 -29 -103t-62.5 -110t-84 -101t-93 -76.5t-88.5 -36.5t-71.5 19.5t-41.5 91t2 177.5l111 387l-250 -213q-1 0 -6 4t-9 9t-5.5 11t3.5 10l295 260q13 11 24.5 13.5t19.5 -3t10.5 -17t-2.5 -27.5q-23 -69 -44.5 -131t-40 -123t-32.5 -122t-23 -128
q-9 -76 4.5 -108.5t41 -36t64 16.5t72.5 49t67 60.5t47 53.5q8 11 13.5 31t10.5 43.5t11 47t15 41t21.5 26t32.5 2.5q3 -1 9.5 -7.5t7.5 -9.5z" />
    <glyph glyph-name="bracketleft" unicode="[" horiz-adv-x="651" 
d="M26 17q-1 2 -1 9t1 9q19 103 41.5 209.5t39.5 214t25 214.5t-2 212q1 3 20 10t48 16t64 19t67.5 20.5t58.5 20.5t37 18q6 4 21 16t31.5 26t31 26.5t20.5 18.5h52v-17l-86 -87l-279 -121l-103 -729q59 -6 123 -3.5t129 8t128.5 10t121.5 2.5q5 -13 2.5 -30t-19.5 -22
q-11 0 -34 0.5t-52 0.5h-123q-29 0 -52 -0.5t-34 -0.5q-21 -1 -47.5 -10.5t-55 -21.5t-57 -24.5t-52.5 -20t-41.5 -7t-23.5 13.5z" />
    <glyph glyph-name="backslash" unicode="\" horiz-adv-x="538" 
d="M286 122q-58 47 -110 107.5t-89 130t-54.5 145.5t-6.5 154q13 5 30 2.5t22 -19.5q13 -96 41 -179t74.5 -154.5t112 -131t154.5 -107.5q34 -6 49.5 -20.5t14.5 -28t-17.5 -21t-46.5 -0.5q-11 6 -36 23t-52.5 36.5t-52 37t-33.5 25.5z" />
    <glyph glyph-name="bracketright" unicode="]" horiz-adv-x="599" 
d="M347 17q-39 16 -74 23t-71 9t-76.5 2t-90.5 1q-5 3 -10.5 11.5t-7.5 17.5t1.5 16t16.5 7h330q1 92 5.5 194t15.5 205.5t31 205t52 193.5h-365l-69 18q-10 3 -4.5 8.5t17 11.5t24 10t15.5 4q5 0 25.5 -3t43.5 -6t43.5 -5.5t25.5 -2.5q13 0 44 -0.5t64.5 -0.5t62 0.5
t38.5 0.5q17 1 31.5 8t29 14.5t29 12t31.5 0.5v-35q-44 -93 -65.5 -179.5t-31.5 -173.5t-13.5 -179t-10.5 -197q-2 -25 2 -53t7.5 -54.5t3.5 -49t-9 -35.5t-30.5 -14t-60.5 15z" />
    <glyph glyph-name="asciicircum" unicode="^" horiz-adv-x="853" 
d="M702 559q-36 25 -73 37t-66.5 27t-48 42.5t-17.5 84.5l-215 -203q-13 -3 -20 3t-9.5 16.5t-1 21t4.5 16.5q1 3 0 3t2.5 5t15 18t38.5 42t72.5 77t116.5 123q2 4 8.5 2t8.5 -5q24 -35 36 -61.5t19.5 -46.5t15 -36.5t23 -32t43 -32t76.5 -36.5z" />
    <glyph glyph-name="underscore" unicode="_" horiz-adv-x="929" 
d="M17 17q-4 9 -1 15t9 10.5t13.5 6.5t13.5 3q19 5 59.5 14t92 20t108 22t108 21t92 17.5t60.5 10.5q18 2 45.5 3.5t59 2t63.5 0.5t59 -0.5t45.5 -2t23.5 -3.5l34 -18q1 -19 -15 -27t-41.5 -9.5t-56.5 1.5t-60.5 7.5t-53 8t-33.5 2.5q-17 -3 -54 -9.5t-83 -15t-97 -18
t-97 -18t-83 -16t-54 -10.5q-5 -1 -26.5 -11.5t-47 -18.5t-49.5 -8t-34 20z" />
    <glyph glyph-name="grave" unicode="`" horiz-adv-x="232" 
d="M36 712q-9 39 -6.5 52.5t13 10.5t27.5 -18t36.5 -32t40.5 -31.5t40 -16.5q2 -24 -6.5 -33t-23 -8t-32.5 9.5t-35.5 20.5t-32 24.5t-21.5 21.5z" />
    <glyph glyph-name="a" unicode="a" horiz-adv-x="507" 
d="M43 17q-20 42 -21.5 85t4.5 88q1 14 5 42t9 62t11 72t11 72t9.5 60.5t6.5 39.5q8 42 17.5 71.5t26 45.5t43 17t68.5 -13q5 -1 11 -7.5t7 -9.5q2 -13 7.5 -40t12.5 -61.5t14.5 -72t14.5 -72t12.5 -61.5t8.5 -40q15 -71 37 -98.5t47 -28.5t51.5 16.5t52.5 37t49 33.5t40 5
q0 -19 -9 -37t-21.5 -33.5t-27.5 -28.5t-28 -22q-56 -37 -93.5 -39t-63.5 17t-42 52t-28.5 67t-24 60.5t-27.5 33.5q-3 -13 -12.5 -45t-20.5 -68t-21 -68t-14 -45q-2 -5 -8.5 -19t-16.5 -30.5t-22.5 -32t-25.5 -24t-26 -5.5t-23 24zM95 312q-2 -12 -2.5 -44t-0.5 -68
t0.5 -68t2.5 -45q35 53 63 123.5t42.5 146t11.5 150t-30 135.5q-17 -31 -32 -78t-26 -95.5t-18.5 -91t-10.5 -65.5z" />
    <glyph glyph-name="b" unicode="b" 
d="M132 9q-5 15 7 32t34 34.5t49.5 35.5t53 35t45 32.5t26.5 29.5q15 30 25.5 70t14 77.5t-0.5 68t-19 41.5t-41 -3t-66 -63q-11 -14 -26 -49.5t-32 -78.5t-35 -86.5t-35.5 -73.5t-33.5 -39.5t-28 15.5q0 7 0.5 24t0.5 36.5t-0.5 36.5t-0.5 24q-3 68 -7 133t-8.5 129
t-9.5 128t-10 131q-2 29 2 39t11 6.5t16.5 -18.5t18 -36t14.5 -46t7 -49q0 -12 1.5 -38t3.5 -58.5t4 -68.5t3.5 -68.5t3 -58.5t2.5 -38q22 16 37.5 39.5t30 48t31 47.5t39.5 39q64 40 106 43.5t64.5 -19t26.5 -64.5t-8 -93.5t-38.5 -107t-65 -104t-88.5 -84.5t-109 -48l-9 8
q-6 7 -7 9z" />
    <glyph glyph-name="c" unicode="c" horiz-adv-x="520" 
d="M87 35q-37 28 -53.5 67.5t-18 86t10 95.5t30.5 95t42.5 85.5t47.5 67t45 39t34 1.5q2 -11 7.5 -40.5t11 -63t10 -63t6.5 -40.5q2 -13 1 -27.5t-6 -26t-16.5 -17t-30.5 0.5q-1 7 -5.5 24t-10 36.5t-11 37t-7.5 24.5l-17 17q-31 -21 -51.5 -60t-29.5 -84.5t-4.5 -91t23 -80
t52 -52t84 -5.5t118.5 58.5t155 140.5v-35q0 -3 -12 -18t-29 -34.5t-34.5 -38.5t-29.5 -30q-33 -31 -70.5 -57t-77.5 -39t-81.5 -8.5t-82.5 35.5z" />
    <glyph glyph-name="d" unicode="d" horiz-adv-x="530" 
d="M35 52q-12 23 -15 63.5t1.5 90.5t16 104t29 103t40 89.5t49.5 63t58 22t64 -32.5l34 279q1 4 8 10.5t10 6.5q4 0 10 -2t11.5 -4.5t9.5 -5.5t4 -5v-487q0 -55 19 -95t50 -59t71.5 -12.5t84.5 44.5q14 0 13 -12.5t-11.5 -29.5t-30 -35t-43 -29.5t-50 -12.5t-51.5 16
q-20 13 -36 31t-28.5 39t-23 43t-17.5 43q-4 -9 -13.5 -26.5t-21.5 -40t-25 -47t-25 -47t-22 -40t-15 -25.5q-14 -26 -35 -39t-43.5 -13t-43 13t-33.5 39zM87 87q1 -3 5 -7.5t9 -8t10.5 -4.5t10.5 3q49 37 79.5 88t49.5 108t30 116.5t21 113.5q-54 7 -92.5 -8.5t-64.5 -46.5
t-41 -74t-21 -90.5t-4.5 -97t8.5 -92.5z" />
    <glyph glyph-name="e" unicode="e" horiz-adv-x="524" 
d="M208 17q-42 33 -66.5 77.5t-37.5 95.5q-6 -5 -18 -11t-24.5 -10t-24.5 -5.5t-17.5 2.5t-3 13.5t18.5 28.5q2 3 12.5 13t22.5 21.5t22 22t12 13.5q11 25 13.5 55t3 62.5t3.5 64.5t15 60q7 16 26.5 39.5t44 45.5t50 39.5t44 21.5t27 -9t-0.5 -50q-11 -44 -33.5 -85.5
t-46.5 -82t-45.5 -80.5t-30.5 -81q-5 -22 -5 -53.5t7 -62.5t23 -56.5t44 -35.5q32 -12 64 -6t62.5 23t58.5 42.5t52 52.5t43 52.5t32 43.5l17 -18q7 -6 -8.5 -34t-45 -63.5t-69.5 -72.5t-82.5 -62t-84 -31t-74.5 20zM174 452q-1 -5 -1.5 -17.5t-0.5 -26.5t0.5 -26t1.5 -17
q32 55 60 117t44 125q-23 -8 -41.5 -24.5t-31.5 -38t-20.5 -45.5t-10.5 -47z" />
    <glyph glyph-name="f" unicode="f" horiz-adv-x="538" 
d="M233 17q-2 4 -4.5 11.5t-5 16t-5 15.5t-2.5 10q-1 11 -2.5 34t-3.5 52t-3.5 61.5t-3.5 61.5t-3 52t-1 34q-2 1 -9 1t-9 -1q-8 -2 -27.5 -7t-41.5 -11l-42 -10q-20 -5 -27 -7l-44 44l200 60l34 382q4 37 23 63t45 41t53.5 18t47.5 -5.5t28 -29t-5 -52.5q-15 -11 -23.5 -9
t-13 9.5t-7.5 17.5t-8 16q-19 19 -33.5 12.5t-25.5 -31t-19 -61.5t-13 -79.5t-8 -86t-4.5 -79.5t-1.5 -61v-30q20 -6 44.5 1t50 20t50.5 27.5t47 22.5t39.5 5t28.5 -25l-33 -34l-209 -87l-18 -17q-1 -2 -1.5 -28t-0.5 -62t0.5 -73.5t1.5 -61.5q1 -11 7.5 -33t11 -47t2 -46.5
t-20.5 -30.5q-11 -5 -20.5 2t-14.5 15z" />
    <glyph glyph-name="g" unicode="g" horiz-adv-x="540" 
d="M190 -295q-31 31 -32.5 76.5t15.5 98t47 107.5t62 106.5t59.5 95t40.5 71.5q7 16 3.5 45.5t-11 60t-16 55.5t-11.5 31l-17 -18l-191 -330q-2 -2 -8.5 -7t-14.5 -10t-16.5 -10t-12.5 -7q-32 -13 -47.5 3t-16 51.5t11 86t33 106.5t50.5 113t63.5 105.5t72 83.5t75.5 47
q19 -6 19.5 -15.5t-10 -21t-28 -24.5t-36 -25.5t-34 -23.5t-20.5 -19q-24 -53 -50 -100t-46.5 -94t-31.5 -96.5t-5 -107.5l17 18q37 44 67 101t55 114.5t46 110t39 87.5t35 47t33.5 -12t34.5 -90t38 -185q5 4 19.5 14.5t31 21.5t31.5 20.5t21 12.5q5 2 18 2t17 -2
q-4 -18 -22.5 -41.5t-40 -44.5t-39.5 -36.5t-19 -16.5q0 -10 -0.5 -30t-2 -46t-3.5 -54t-4 -54t-4 -46l-3 -30q-2 -13 -14.5 -47.5t-31.5 -77.5t-44 -86t-53 -71.5t-58.5 -35.5t-60.5 23zM243 -122q-1 -8 -1.5 -27.5t-0.5 -41.5t0.5 -42t1.5 -27q53 22 88 74t53 115.5
t21.5 129.5t-6.5 115q-29 -24 -55 -59.5t-47 -76t-35 -82.5t-19 -78z" />
    <glyph glyph-name="h" unicode="h" horiz-adv-x="469" 
d="M104 35q9 106 4.5 203t-16.5 193t-28 195t-29 208q0 3 -0.5 10t-0.5 15.5t0.5 15.5t0.5 10h35q3 -18 9.5 -56t15 -86t18 -101t18 -101t15.5 -86t11 -56q0 -3 2.5 -10.5t5 -15.5t5 -15.5t4.5 -10.5q3 8 12.5 27.5t20.5 42t21 42t15 27.5q16 29 41 53t49 30t42.5 -11.5
t23.5 -71.5q1 -13 2.5 -40t3.5 -61.5t4 -72.5t3.5 -72t3 -61t1.5 -40q11 -14 16.5 -32.5t0.5 -36.5q-20 -7 -34 1t-24 22.5t-17 32.5t-12 31q2 38 3 82t-0.5 89.5t-6 90.5t-13.5 85q-18 9 -33.5 -7t-29 -48.5t-25.5 -76.5t-23 -92.5t-21.5 -96.5t-20 -87t-19 -65t-19.5 -31z
" />
    <glyph glyph-name="i" unicode="i" horiz-adv-x="200" 
d="M35 52q-2 4 -5 15.5t-6 25.5t-5 27t-2 19v486q0 10 9 14t20.5 4.5t21 -0.5t10.5 -1v-538q0 -17 11 -28t26 -17.5t31 -8t27 1.5q14 -21 -0.5 -33.5t-41 -14t-55 10t-41.5 37.5zM0 799q0 29 23 37.5t47 -2.5v-53q-3 -1 -10.5 -1.5t-16 -0.5t-16 0.5t-10.5 1.5q-4 1 -10.5 8
t-6.5 10z" />
    <glyph glyph-name="j" unicode="j" horiz-adv-x="264" 
d="M-52 -590q-15 20 -20 47t-3 56t8.5 56.5t14.5 48.5q4 12 13 36.5t21 55.5t25 65t25.5 64.5t22.5 54.5l15 36q4 40 0 77.5t-12 73.5t-19 72t-22 73q-4 13 1.5 21.5t14.5 11t19.5 -1t17.5 -14.5q16 -27 24 -54.5t14 -56t12 -57.5t18 -58q11 9 35.5 29.5t55 40t62 31.5
t56.5 4q3 -1 10 -7.5t8 -10.5q-8 -13 -27 -25t-43.5 -24.5t-50.5 -24.5t-47.5 -25t-35.5 -27.5t-14 -29.5v-365q0 -16 -8.5 -43t-23 -56.5t-34 -56t-42 -40.5t-46 -10.5t-45.5 33.5zM0 -417q-1 -8 -1.5 -27.5t-0.5 -41.5t0.5 -42t1.5 -27q2 -1 8.5 -1t8.5 1q16 8 28.5 35
t21.5 56.5t14.5 54t5.5 27.5q1 12 1.5 41.5t0.5 63t-0.5 63t-1.5 41.5q-32 -57 -57 -117.5t-30 -126.5zM70 521q-7 13 0.5 22.5t20.5 12.5t27 -1t20 -16q6 -13 -1.5 -21.5t-20.5 -11.5t-26.5 0t-19.5 15z" />
    <glyph glyph-name="k" unicode="k" horiz-adv-x="481" 
d="M90 70q1 16 7.5 46.5t12 65t7 68.5t-6.5 57.5t-28.5 31.5t-59.5 -9q-22 6 -25 17t6 25t25.5 30.5t33.5 34t30.5 34.5t15.5 33q-1 8 -3.5 35t-6.5 62.5t-7.5 75.5t-7.5 76t-6.5 62.5t-3.5 35.5q-1 13 0.5 24.5t7.5 19.5t16.5 10.5t27.5 -3.5q5 -38 10 -86t11 -99
t13.5 -102t17.5 -95q10 8 24 27.5t30 43t33.5 47t33.5 38t30 17t23 -15.5q1 -2 1 -8.5t-1 -9.5q-13 -40 -41.5 -74t-58 -66t-51.5 -65.5t-23 -71.5q9 -8 26 -26l87 -87q25 -24 47 -46.5t39 -40.5l26 -25q6 -6 19 -19.5t23 -29.5t11 -31t-18 -25q-2 -1 -8.5 -1t-8.5 1
q-51 64 -112.5 129.5t-130.5 113.5q-1 -9 -3 -28t-5.5 -43t-7 -50.5t-7.5 -50.5t-7 -43t-5 -28q-1 -5 -5.5 -15.5t-11.5 -20.5t-16 -15.5t-19 -0.5q0 4 -0.5 13.5t-0.5 21t0.5 21.5t0.5 14z" />
    <glyph glyph-name="l" unicode="l" horiz-adv-x="249" 
d="M78 17q-22 14 -32.5 43.5t-15 62t-4.5 60.5v42q0 11 1 44.5t3 78t4 95t4 95t3.5 77.5t1.5 44q0 15 0.5 52t0.5 78.5t-0.5 78.5t-0.5 52q15 11 26 15q10 4 18 1.5t8 -16.5v-816q0 -7 4.5 -16.5t11.5 -16.5t16.5 -8.5t19.5 7.5l121 103q5 -23 -1 -48t-19.5 -47t-33.5 -40
t-43 -27.5t-47 -9t-46 15.5z" />
    <glyph glyph-name="m" unicode="m" horiz-adv-x="746" 
d="M321 17q2 40 2.5 84.5t-1.5 89.5t-6.5 89.5t-12.5 84.5q-14 73 -35.5 111.5t-45 41t-44 -31t-31.5 -104.5q-2 -11 -5 -34t-6.5 -52t-7 -61.5t-7 -61.5t-5.5 -52t-3 -34q-6 -16 -22.5 -19t-30.5 2l-34 520q-1 13 6 22.5t16 13t18 -0.5t12 -18l35 -155q31 75 57.5 106.5
t49.5 32.5t44 -22t39.5 -55.5t35.5 -69t34 -62.5q41 141 93.5 203.5t101 51.5t85.5 -93.5t49 -231.5q2 -23 3 -60.5t1 -73.5t-1 -62.5t-3 -28.5l-17 -17l-35 34q6 52 3.5 108.5t-11 113.5t-20.5 111t-24 101q-14 40 -34 46.5t-40.5 -7t-37.5 -40t-26 -51.5q-6 -15 -14.5 -40
t-16.5 -50t-14 -44t-7 -22q-4 -18 -9.5 -62t-11 -94t-9.5 -94.5t-5 -62.5q0 -15 -8 -17t-18 2q-11 4 -26 15z" />
    <glyph glyph-name="n" unicode="n" horiz-adv-x="507" 
d="M70 17q1 13 1 45v136q0 32 -1 45q-1 6 -3.5 26t-6 47t-7.5 57t-8 57t-6.5 47t-3.5 27q-2 14 -1.5 29t5.5 26t16 15.5t32 -2.5q1 -21 3.5 -49.5t6.5 -59.5t10 -61t15 -55q13 37 25.5 65.5t28.5 52.5t36 45.5t48 44.5q35 29 58.5 23.5t39 -34t25.5 -73.5t18 -95.5t16.5 -99
t21.5 -84t32.5 -52t49.5 -1.5q9 -27 2.5 -39.5t-22 -14t-36.5 8t-41.5 26t-36.5 39.5t-22 49q-4 18 -7 59t-9 88t-18.5 92.5t-35.5 72.5l-70 -68q-3 -4 -14.5 -36t-25.5 -73.5t-27 -84t-19 -68.5q-2 -9 -5 -33.5t-6 -52.5t-4.5 -52.5t-1.5 -34.5q-9 -18 -26 -18t-26 18z" />
    <glyph glyph-name="o" unicode="o" horiz-adv-x="344" 
d="M101 52q-25 37 -30 82.5t0 95.5t16 101t19 98.5t9 89t-14 71.5q-8 16 -21.5 15.5t-29 -4t-31 -2.5t-27.5 19q1 4 7.5 10.5t9.5 7.5q90 13 150.5 -18.5t96.5 -89t49.5 -131.5t9.5 -147t-23 -135.5t-48 -96.5t-66 -30t-77 64zM153 87q1 -3 6 -8t10.5 -11t10.5 -10.5t7 -5.5
q37 21 55 57t21.5 80t-4 92.5t-21.5 93.5t-32.5 83t-35.5 62q-1 -13 -4 -40t-6 -61t-7 -72t-7.5 -72.5t-6.5 -61.5t-4 -40q-1 -10 0.5 -22.5t4.5 -24.5t6.5 -22.5t6.5 -16.5z" />
    <glyph glyph-name="p" unicode="p" horiz-adv-x="564" 
d="M78 -503q-20 13 -33 40.5t-21 58.5t-11.5 61t-4.5 48q-4 86 -2.5 181.5t17.5 190t49.5 182t92.5 158.5q31 37 60.5 67.5t62 54.5t70 41.5t84.5 27.5q43 9 65.5 -9t29.5 -53.5t0 -84t-24 -100t-41.5 -100.5t-52.5 -86t-58 -57.5t-58 -13.5q-4 7 9 33t34.5 64t47 84.5
t46 94.5t32 94t5.5 82q-3 16 -18 19t-32.5 -1t-33.5 -10t-20 -8q-76 -33 -131.5 -95.5t-93.5 -143t-59.5 -171.5t-30.5 -179.5t-7 -169t13 -139t28 -89t38 -20.5q2 1 8.5 8t8.5 10q14 42 23 92t13.5 104t5.5 109t0 106.5t-3.5 97.5t-4.5 81q-3 7 -4.5 26t-2 41t1 43.5
t6.5 32.5t13 8t21 -29q2 -13 4.5 -45t5.5 -68.5t5 -68.5t2 -45q1 -14 1.5 -38.5t0.5 -52.5v-115q0 -26 -0.5 -45.5t-1.5 -25.5q0 -9 -4.5 -35.5t-9.5 -57t-11 -58.5t-9 -40q-6 -21 -17 -43t-26.5 -37t-35 -18.5t-42.5 11.5z" />
    <glyph glyph-name="q" unicode="q" horiz-adv-x="339" 
d="M417 -625q-27 39 -46 82.5t-31 85.5t-16.5 80t-1.5 65q-9 60 -46.5 94t-87 50.5t-105 21.5t-100.5 7q-5 8 1 21t16 14q31 4 65 2.5t67.5 -6.5t66 -13.5t61.5 -17.5q4 33 1 74t-9 81.5t-13.5 77.5t-13.5 63q-17 -13 -28 -29t-22 -32.5t-23 -32.5t-30 -28
q-40 -27 -63 -17.5t-31.5 42.5t-5 84t16.5 107t33.5 111.5t45.5 97.5t52.5 64.5t54.5 13.5q2 -2 2 -9t-2 -9q-5 -9 -24.5 -44t-43.5 -83.5t-48 -103t-38 -101.5t-12.5 -80t28.5 -38q34 9 58.5 33.5t41.5 58.5t27.5 74t16.5 79.5t8.5 75t3.5 61.5q5 16 22 19t30 -2
q0 -12 -0.5 -38t-0.5 -58.5t-0.5 -68.5t0 -68.5t0.5 -58.5t1 -38q0 -13 2.5 -39.5t6.5 -59t8.5 -68t10 -67.5t12 -57.5t12.5 -37.5q19 -36 52.5 -73.5t67.5 -77t62 -80.5t35 -83t-13 -85.5t-82 -87.5q-4 2 -11.5 9.5t-16 15.5t-15.5 16t-9 11zM399 -434q3 -10 13 -35l21 -52
q11 -28 21 -52.5t15 -33.5q16 -16 22.5 -5t5.5 39t-10 68t-26 81.5t-41 80.5t-55 65q-1 -2 -1 -8.5t1 -8.5q3 -12 8 -34l10 -44q5 -22 9.5 -39.5t6.5 -21.5z" />
    <glyph glyph-name="r" unicode="r" horiz-adv-x="422" 
d="M99 11q-16 -33 -27 -33.5t-18.5 22t-12 63.5t-6 91t-0.5 105t3.5 106t6.5 93.5t8.5 67t9.5 26.5t10 -27q32 24 69 45.5t76.5 36t80 18.5t78.5 -7q4 -13 1 -30t-19 -22q-16 3 -42 3t-55 -4t-58 -13t-52.5 -23.5t-38 -35t-14.5 -48.5v-434z" />
    <glyph glyph-name="s" unicode="s" horiz-adv-x="373" 
d="M78 17q-24 18 -35.5 50.5t-12 61t7.5 44t22 0.5q-2 -54 20 -82t53.5 -35t67 4t61 34.5t35 57.5t-10.5 73q-26 29 -58.5 56.5t-65.5 54.5t-64 55.5t-55 60.5q-2 2 -2 8.5t2 8.5q7 9 20 28t30 43t36 50.5t36 50.5t30.5 43t20.5 28q14 18 28.5 21t41.5 -4q-1 -4 -8 -17.5
t-10 -17.5q-8 -12 -30 -41.5t-47 -63t-47 -63t-31 -40.5q-8 -12 6 -28t40 -36t59 -44.5t62.5 -52.5t50 -60t22 -68.5t-21 -76.5t-80.5 -85q-18 -14 -39.5 -24t-44.5 -13.5t-46 0.5t-43 19z" />
    <glyph glyph-name="t" unicode="t" horiz-adv-x="445" 
d="M286 70q-22 37 -34 83.5t-17 95.5t-4.5 97t2.5 88q-14 4 -32 -2t-38 -15.5t-41 -20.5t-39 -16t-33 -2t-24 21q-9 17 1.5 27t31 15.5t47.5 8t51 6.5t41 10.5t18 19.5l35 381q1 9 9.5 14t18 5t17 -4.5t7.5 -14.5v-329q14 -3 27 0.5t26 8.5t25.5 8t26.5 0q6 -11 -2 -20.5
t-16 -14.5l-18 -11q-12 -7 -25.5 -15.5t-26 -15.5t-17.5 -9q-1 -14 -1.5 -48.5t-0.5 -73.5t0.5 -73.5t1.5 -48.5q4 -47 18 -86t38 -61t57.5 -22t78.5 31q7 -23 -1 -41t-26 -28.5t-43 -13.5t-50.5 3t-49.5 21.5t-39 41.5z" />
    <glyph glyph-name="u" unicode="u" horiz-adv-x="449" 
d="M52 52q-2 4 -5 13.5t-5.5 21t-4.5 21.5t-2 14v382q0 9 7 13t16 5t17.5 0t11.5 -2q-1 -13 -1 -40t-0.5 -61t0 -72t0.5 -73v-61q0 -27 1 -40q2 -56 15.5 -78t33 -20.5t41 22t40 49t31 59.5t12.5 55v260h70q-2 -23 -5 -60t-3.5 -80t1.5 -87.5t9.5 -84t21.5 -69t36.5 -42
t54.5 -4t76 45.5q9 -26 -7 -50t-42 -42t-56 -26.5t-51 -3.5q-3 1 -9.5 8t-8.5 10q-4 7 -14 26.5t-21 41.5t-20.5 42t-13.5 28q-6 -11 -20 -33.5t-33.5 -48t-42 -48t-45.5 -32t-45 -2t-40 42.5z" />
    <glyph glyph-name="v" unicode="v" horiz-adv-x="425" 
d="M78 347q-3 8 -13 28l-21 42q-11 22 -21.5 41.5t-14.5 27.5q3 11 13 16t21 4.5t21.5 -5.5t14.5 -15l138 -313l122 434l5 7q6 8 13.5 15.5t16.5 12.5t17 0q2 -4 2 -17.5t-2 -17.5q-2 -8 -12.5 -38t-22.5 -65.5t-22 -66t-12 -38.5t-6.5 -33.5t-9.5 -59.5t-11 -72t-11.5 -72
t-9.5 -59t-5 -33q-2 -12 -6.5 -26t-12.5 -25.5t-20.5 -17.5t-29.5 -1q-4 13 -13.5 40.5t-21.5 61.5t-25 72t-25 72t-21.5 61t-14.5 40z" />
    <glyph glyph-name="w" unicode="w" horiz-adv-x="616" 
d="M355 52q-14 24 -25.5 66.5t-20.5 87.5t-15 84q-6 38 -8 56q-3 -18 -12 -53t-24 -75.5t-35 -81t-44.5 -69.5t-52.5 -40t-58 8q-2 1 -5 7.5t-5.5 15t-4.5 16.5t-2 13v417q-15 28 -17 46.5t4 28.5t16.5 12.5t21.5 -1t19 -12.5t8 -23v-416l18 -52q49 34 79 83t46 105t22 115
t8 114q5 1 13.5 2t16.5 -0.5t14.5 -6t8.5 -13.5l69 -364l35 -70q23 16 35 56t17 95t5.5 119t0 128t1 122t9.5 100t24.5 63t45.5 11q20 -6 19 -22.5t-10.5 -34t-21 -32t-12.5 -15.5v-469q0 -20 -8.5 -46t-22.5 -50.5t-32 -44.5t-38.5 -26.5t-41.5 3t-40 43.5z" />
    <glyph glyph-name="x" unicode="x" horiz-adv-x="590" 
d="M35 17q-12 38 -8 74t16.5 70.5t31 68.5t34 67.5t25 67.5t5.5 69q-1 7 -4 27t-6.5 46.5t-7.5 57t-7.5 57t-6.5 46.5t-3 26q-4 40 6.5 69t24.5 43t26.5 13t12.5 -20q-1 -13 -1.5 -45t-0.5 -68.5t0.5 -68.5t1.5 -45q0 -4 2 -14t4.5 -21t5.5 -20.5t5 -12.5q58 94 119.5 142.5
t115 59.5t93.5 -10t55 -66t0.5 -109t-70.5 -139q-36 -48 -74 -68t-74.5 -23t-70 4t-60 13t-44.5 5.5t-24 -18.5q-5 -14 -13.5 -40.5t-16.5 -54.5t-15 -50.5t-8 -27.5q-3 -12 -1.5 -33t-1.5 -40.5t-13.5 -34t-35.5 -14.5q-2 0 -8.5 6.5t-8.5 10.5zM278 347q28 -23 60 -20
t61 20q47 28 76 66.5t41.5 78.5t10.5 77t-17.5 62.5t-42.5 34.5t-63.5 -7t-82 -61.5t-96.5 -128.5q-9 -23 -8 -40t9.5 -31.5t22.5 -26.5t29 -24z" />
    <glyph glyph-name="y" unicode="y" horiz-adv-x="763" 
d="M426 -295q-25 17 -34.5 45t-8.5 62t10 71.5t21 72.5t25 65t22 49q4 9 13 28t21 43l50 100q12 24 22 43t15 28q5 47 -6.5 74t-32.5 37t-48.5 5t-56 -21t-55 -40.5t-44.5 -54.5q-6 -5 -21 -23.5t-36 -45t-46.5 -57.5t-52 -60.5t-51.5 -54.5t-46.5 -39t-37 -15t-21.5 18
q-1 1 -1.5 6t-0.5 10.5t0.5 10.5t1.5 8q2 10 8.5 42t15 75t18.5 92t18.5 92t15.5 74.5t10 41.5q2 9 13 24t25 25t27.5 9t21.5 -23q-10 -15 -23 -47t-25.5 -72t-24.5 -84.5t-20.5 -85.5t-11.5 -75.5t1 -53.5q42 57 94 121t106 121t107.5 99t99 54t80 -13.5t51.5 -103.5
l122 104h52q9 -28 -0.5 -38t-27.5 -15.5t-39.5 -12t-36 -26.5t-17.5 -59t16 -110q14 -50 19.5 -103t-1.5 -105q-3 -23 -15.5 -62.5t-32.5 -82.5t-47 -84t-58.5 -68t-67.5 -33.5t-74 18.5zM443 -208q8 -38 26.5 -48t42.5 2t50.5 43t49 74t38.5 95.5t19.5 107.5t-8.5 109.5
t-45 102.5q-23 -17 -46 -52t-43.5 -80t-38.5 -95.5t-29.5 -99t-16 -90.5t0.5 -69z" />
    <glyph glyph-name="z" unicode="z" horiz-adv-x="639" 
d="M87 62q-37 46 -40 91.5t14 87.5t47.5 79.5t60 66.5t52 49t23.5 27q-11 -12 -31 -21t-43.5 -12.5t-48 0.5t-43 19t-28.5 42t-5 70q14 16 24.5 14t20 -13t18 -28.5t19 -33t24 -25.5t31.5 -6q27 5 55 27t58 44t63.5 36t70.5 4q26 -7 24 -23t-19.5 -36.5t-46 -42t-56 -40
t-49 -31t-24.5 -14.5q-23 -17 -47 -36t-44.5 -41.5t-35 -47t-18.5 -51.5q-9 -56 1.5 -91t35.5 -53.5t60.5 -23.5t76.5 0t84.5 18t83 28.5t73 32.5t54.5 31q13 0 25 -6t17.5 -15.5t1 -20t-23.5 -18.5q-31 -12 -72.5 -30t-88.5 -35t-96.5 -28.5t-96.5 -11.5t-88.5 15t-72.5 53
z" />
    <glyph glyph-name="braceleft" unicode="{" horiz-adv-x="572" 
d="M129 -150q-20 8 -40 22t-32.5 32.5t-13.5 40t16 45.5q8 10 25 31.5t37.5 48.5t43.5 57.5t43 57.5t36 49t23 33q38 54 40 87t-16 52.5t-49.5 31t-59.5 22t-45 25.5t-8 42q23 5 52.5 10t59 14t55 24t41.5 39q2 2 2 9t-2 9l-173 121q-11 8 -15.5 26.5t-5.5 38t0.5 36
t2.5 20.5q18 20 43.5 46.5t55.5 53t63.5 50.5t68 40.5t68.5 22t66 -4.5q6 -12 -17.5 -27t-61 -33.5t-81.5 -41t-79 -49.5t-53 -58.5t-4 -67.5q8 -20 27.5 -38.5t43.5 -35.5t49 -34t43.5 -34t27 -34.5t0.5 -36t-36.5 -39t-84.5 -43.5q48 -38 62.5 -80.5t6 -86.5t-33.5 -87.5
t-56.5 -84.5t-63.5 -78.5t-54 -68.5q-28 -39 -27 -65t22 -41.5t58 -22t81 -7.5t91.5 1.5t89 6t73.5 6t46 1.5q13 -20 2 -33.5t-38.5 -21.5t-67.5 -11.5t-84.5 -4t-89 1.5t-81.5 5t-62 6t-30 5z" />
    <glyph glyph-name="bar" unicode="|" horiz-adv-x="182" 
d="M87 764q1 15 11 18.5t20.5 -5.5t17.5 -29.5t3 -53.5q-2 -13 -7 -53t-12.5 -93.5t-15.5 -114t-15 -114t-12.5 -93.5t-6.5 -53q-1 -8 -1.5 -27.5t-0.5 -41.5t0.5 -42t1.5 -27q-2 -3 -7.5 -10.5t-13 -14t-16 -10.5t-16.5 0q-4 2 -10.5 8.5t-6.5 8.5z" />
    <glyph glyph-name="braceright" unicode="}" horiz-adv-x="529" 
d="M82 -218q-10 20 4 33t43 23.5t67.5 19.5t78 20.5t75 27.5t58 40t26.5 57.5t-19 80.5t-78 109.5t-152 143.5q-14 33 -12.5 62t14.5 54.5t35 48.5t50 44l-173 35q-18 3 -26 19t-9 35t4.5 38t13.5 28q142 96 213 160.5t65.5 107.5t-91 69t-257.5 45q-5 11 18 19.5t62 12
t88.5 1t96 -13.5t84 -31t54.5 -51.5t6 -75.5t-62 -103q-8 -6 -24 -18.5t-36.5 -27.5t-43 -32.5t-43 -32.5t-37 -27.5t-23.5 -18.5q-23 -18 -18 -31t35 -21q77 -20 154 -21t158 4q10 -20 -0.5 -35.5t-33 -29t-53 -26t-60.5 -25.5t-56.5 -27t-40 -31.5t-11.5 -38.5t29 -48
l226 -225q30 -30 31 -65t-18.5 -70.5t-55.5 -70t-78.5 -64t-88 -52t-84.5 -34t-67.5 -10.5t-37.5 19z" />
    <glyph glyph-name="asciitilde" unicode="~" horiz-adv-x="711" 
d="M91 721q27 53 56.5 74.5t61 23.5t64 -9.5t65.5 -24.5t65.5 -20.5t63.5 1.5q12 9 32.5 29t42.5 41t42 37.5t32 18.5t11.5 -16t-19.5 -66q-29 -30 -60 -54t-63.5 -39.5t-65 -21t-65.5 2.5q-22 6 -51.5 22t-60 25t-60 1.5t-50.5 -48.5z" />
    <glyph glyph-name="nonbreakingspace" unicode="&#xa0;" horiz-adv-x="512" 
 />
    <glyph glyph-name="exclamdown" unicode="&#xa1;" horiz-adv-x="382" 
d="M86.3174 511.879q-5.13184 -15.7002 1.28223 -25.5127q6.41504 -9.8125 16.6787 -14.0645q10.2637 -4.25293 21.8096 -2.94434q11.5469 1.30859 16.25 7.85059q4.7041 6.54199 0 17.9893q-4.70312 11.4482 -26.0859 27.8027q-3.4209 2.61719 -8.55273 1.63574
t-9.4082 -3.27148q-4.27637 -2.28906 -7.69727 -5.2334q-3.4209 -2.94336 -4.27637 -4.25195zM101.712 341.14q-29.9346 -34.6719 -38.0596 -80.1367t-0.427734 -95.8369q7.69727 -50.3711 28.6523 -102.378q20.9541 -52.0068 48.3232 -99.4346t57.7314 -87.0049
q30.3633 -39.5781 58.5869 -64.7637q28.2246 -25.1855 50.0342 -33.3633q21.8105 -8.17676 32.0732 6.86914q1.71094 1.30859 1.71094 5.56055t-1.71094 5.56055q-49.6064 43.1758 -94.5088 95.5098t-76.9756 109.247t-46.6133 117.424q-14.54 60.5117 -4.27637 120.695
q0.855469 5.2334 9.83594 20.9336t16.25 34.0176q7.27051 18.3164 7.27051 34.998t-17.9609 23.877q-11.1191 3.27148 -18.3887 -1.63477q-7.27051 -4.90625 -11.5469 -10.1396z" />
    <glyph glyph-name="cent" unicode="&#xa2;" horiz-adv-x="520" 
d="M260 651q1 15 11.5 25.5t22 10.5t19 -13.5t3.5 -46.5q-2 -13 -6.5 -48.5t-11.5 -81.5q-3 -20 -6 -41q10 -15 18 -28q13 -20 21.5 -36t9.5 -23q2 -13 2.5 -26.5t-4 -23.5t-14.5 -14.5t-29 1.5q-1 7 -19 30l-1 2q-2 -19 -5 -36q-6 -46 -10.5 -81t-5.5 -48q-1 -5 -3 -25
t-5 -47q-1 -16 -3 -34q43 14 98 50q70 47 162 143v-35q0 -3 -12 -18t-29 -34.5t-34.5 -38.5t-29.5 -30q-33 -31 -70.5 -57t-77.5 -39q-7 -2 -13 -4q-1 -9 -1 -19q-2 -27 -3.5 -47t-0.5 -25l-7 -10q-5 -8 -12.5 -14.5t-16 -10.5t-16.5 0q-4 2 -10.5 8.5t-6.5 9.5l13 103
q-4 0 -8 1q-41 4 -82 35q-37 28 -53.5 67.5t-18 86t10 95.5t30.5 95t42.5 85.5t47.5 67t45 39t34 1.5q2 -7 10 -23q5 -8 10 -18zM201 437q-18 23 -20 30q-36 -20 -61.5 -61t-38 -89.5t-11.5 -98t17.5 -88t49.5 -59.5q20 -12 47 -14l44 344q-14 19 -27 36z" />
    <glyph glyph-name="sterling" unicode="&#xa3;" horiz-adv-x="770" 
d="M14 414q-4 8 -1 14t9 10.5t13.5 7t13.5 3.5q13 3 41 8q17 3 36 7q2 70 6 124q8 92 25.5 142t44 70t63.5 15.5t85 -21.5q59 -21 74 -35t2.5 -22.5t-44 -12t-66 -4t-64 2t-36.5 5.5v-248q5 1 14 3q40 8 76.5 15t65 12t42.5 8q23 4 29 -4t2.5 -20.5t-13 -25.5t-18.5 -19
q-29 4 -68.5 -1t-81.5 -14l-54 -12v-265q8 15 37.5 12t70.5 -13.5t89.5 -25t98 -23t97 -5.5t86.5 26q37 22 50.5 22.5t9.5 -12.5t-23.5 -34t-49 -42t-66.5 -37t-76 -18q-10 -1 -31.5 7.5t-49 21t-57.5 27.5t-57.5 28t-49 21.5t-31.5 9.5q-12 -9 -24.5 -30.5t-27 -41.5
t-31.5 -32t-39 -1q-9 199 -10 339v47q-11 -2 -22 -3q-34 -5 -58.5 -3t-31.5 17z" />
    <glyph glyph-name="currency" unicode="&#xa4;" horiz-adv-x="665" 
d="M169 310q-1 12 1 30.5t7.5 38.5t15.5 34l-115 166q6 34 21.5 47t30.5 12.5t26 -12.5t8 -28q-5 -22 2.5 -39.5t20 -34.5t25.5 -35.5t19 -42.5q36 41 65 63.5t53.5 32.5t46.5 9.5t45 -4.5q3 0 14 12.5t24.5 31t27.5 38.5t23 35q10 16 26 23t28.5 3t18.5 -20t-3 -45
q-3 -10 -21 -20t-38 -22t-35.5 -26.5t-13.5 -32.5q1 -16 12 -41.5t17 -55.5t-1 -62t-41 -61q-2 -2 11 -12.5t32 -25.5t38.5 -32t30.5 -33q31 -45 36 -63.5t-6.5 -17.5t-34 18t-47.5 41q-5 4 -21 20.5t-34.5 33t-35 27t-21.5 3.5q-31 -40 -54.5 -57.5t-41.5 -20.5t-31.5 5.5
t-26.5 21.5l-25 26q-12 13 -27 20q-11 5 -25 -6.5t-29.5 -32t-31 -45t-29 -46t-24 -36t-15.5 -13.5q-2 0 -9 4.5t-15 10.5t-14.5 11.5t-6.5 7.5l153 187q-4 -1 -6 10zM253 411q-18 -16 -12.5 -42.5t21.5 -51.5t36.5 -41.5t33.5 -12.5q53 17 83.5 51.5t40.5 71t0.5 67.5
t-35.5 42t-69 -6.5t-99 -77.5z" />
    <glyph glyph-name="yen" unicode="&#xa5;" horiz-adv-x="427" 
d="M47 271q-19 -5 -21 4t3 21t12.5 23.5t8.5 11.5q59 14 94.5 23t59.5 13v35q0 13 -0.5 20.5t-1 11.5t-2.5 9t-14.5 24.5t-29.5 45.5t-37 55.5t-37.5 55t-30 44.5t-15.5 24q3 11 13 16t21 4.5t21.5 -5.5t14.5 -15l124 -159l108 221l5 7q6 8 13.5 15.5t16.5 12.5t17 0
q2 -4 2 -17.5t-2 -17.5q-2 -5 -11.5 -29.5t-23 -58t-29.5 -72.5t-29.5 -73t-23 -58.5t-10.5 -29.5q-1 -8 -2 -12t-2 -9.5t-1.5 -14t0.5 -25.5q12 0 25 -1.5t31 -3t41.5 -3t55.5 -3.5q4 -13 1 -30t-19 -22q-49 6 -80 8.5t-53 0.5v-30q0 -5 0.5 -11.5t0.5 -19.5q8 1 17 2t19 2
l128 10q7 -11 6 -20t-7 -15.5t-14.5 -10t-17.5 -3.5l-127 -25q2 -47 4 -84.5t3.5 -63.5t2 -38t-0.5 -7q-15 -3 -21 -7t-10 -6.5t-10.5 -2.5t-23.5 5q-5 17 -6.5 65t-1.5 126l-101 -19q-17 -3 -30.5 -1.5t-21.5 18.5q-3 5 -0.5 13t17.5 17.5t47 19t89 18.5l3 59
q-12 -3 -26 -7.5t-32 -9.5t-42 -10t-57 -11z" />
    <glyph glyph-name="brokenbar" unicode="&#xa6;" horiz-adv-x="108" 
d="M17 422v292q-1 10 8.5 13t21 2.5t21 -3t10.5 -2.5v-298zM78 383v-364l-51 -7q-2 4 -3.5 25.5t-3 66t-2 112.5t0.5 165z" />
    <glyph glyph-name="section" unicode="&#xa7;" horiz-adv-x="313" 
d="M81 230q-46 38 -57 70t0 56t40 38.5t63 17t68.5 -8t58.5 -35.5q-10 22 -31 37.5t-46 27.5t-50.5 22.5t-46 23t-32.5 29.5t-9 42q1 30 14.5 49t33 28t42.5 9t45 -8.5t39 -25t25 -39.5q0 -3 -5.5 -14t-7.5 -14q-14 13 -33.5 26.5t-39 19t-37 -1.5t-26.5 -34q-2 -9 12.5 -20
t38 -23.5t51.5 -27.5t52.5 -33.5t41 -40t18 -47t-17 -56t-64.5 -65.5q-5 -3 -15.5 -4t-14.5 -4q37 -19 55 -48t19.5 -59.5t-12 -57.5t-39.5 -42t-63 -14t-82 27q-13 7 -20 21.5t-9.5 31.5t-1 33.5t5.5 28t10.5 16t13.5 -3.5q-5 -37 7.5 -59.5t32.5 -32.5t43 -8.5t40.5 12.5
t24.5 31t-5 47q-16 19 -31 34t-35 33q-14 0 -33.5 3.5t-30.5 12.5zM93 349q-14 -16 -15.5 -31t8.5 -27t31 -20t53 -9q15 -5 32 9.5t39 47.5q-9 9 -26 21.5t-38 20.5t-43 7t-41 -19z" />
    <glyph glyph-name="dieresis" unicode="&#xa8;" horiz-adv-x="432" 
d="M138 551q-8 11 1 28.5t24.5 29t33.5 11t27 -25.5q10 -27 1.5 -46.5t-25 -27t-35 -0.5t-27.5 31zM305 567q-9 18 0 36.5t25 27.5t33.5 2.5t25.5 -39.5q6 -24 -2.5 -38.5t-23.5 -18.5t-31.5 3t-26.5 27z" />
    <glyph glyph-name="copyright" unicode="&#xa9;" horiz-adv-x="682" 
d="M117 61q-12 7 -23 20t-20 27.5t-15.5 30t-10.5 27.5q-9 43 -4.5 110.5t22.5 143.5t50 152t78 135t105 92.5t131 25.5q53 -6 88 -35.5t57 -78t32.5 -115t15.5 -145.5q-11 -59 -38 -119.5t-66 -114.5t-87 -96.5t-100.5 -66.5t-107.5 -24t-107 31zM135 131q19 -13 37 -23.5
t36 -15.5t36 -4.5t38 10.5q63 31 108.5 69.5t77.5 82.5q-28 -19 -57.5 -31.5t-59.5 -16t-61 5t-62 31.5q-49 37 -64 84t-6.5 95t33.5 92.5t55.5 75.5t60 44.5t47.5 0.5q2 -11 11 -32t19.5 -44t19 -44t10.5 -32q2 -13 1 -27.5t-6 -26t-16.5 -17t-30.5 0.5q-1 7 -5.5 24
t-10 36.5t-11 37t-7.5 24.5l-17 17q-29 2 -51 -18t-34.5 -52t-15.5 -69.5t7 -69.5t33 -53t62 -20t94.5 30.5t130.5 97.5q15 58 13 114t-16.5 103.5t-40 83t-58 52.5t-69.5 12t-75 -38q-20 -18 -41 -42t-39.5 -51.5t-34 -57t-24.5 -57.5q-5 -15 -15.5 -45t-21 -67t-18 -77.5
t-8 -77.5t9.5 -67.5t36 -47.5z" />
    <glyph glyph-name="ordfeminine" unicode="&#xaa;" horiz-adv-x="338" 
d="M26.7568 182.064q-10.584 19.9229 -11.3779 40.3203q-0.793945 20.3984 2.38086 41.7441q0.529297 6.6416 2.64648 19.9238t4.76367 29.4102q2.64551 16.1289 5.82129 34.1543q3.1748 18.0264 5.82129 34.1543q2.64648 16.1289 5.02832 28.6992
q2.38086 12.5713 3.43945 18.7383q4.23438 19.9229 9.26172 33.917q5.02734 13.9932 13.7598 21.583t22.7578 8.06445q14.0244 0.474609 36.252 -6.16699q2.64648 -0.473633 5.82227 -3.55762q3.1748 -3.08301 3.7041 -4.50586q1.05859 -6.16699 3.96973 -18.9746
q2.91113 -12.8086 6.61523 -29.1738q3.70508 -16.3652 7.67383 -34.1543q3.96973 -17.7891 7.67383 -34.1543q3.70508 -16.3652 6.61523 -29.1738q2.91113 -12.8076 4.49902 -18.9746q7.93848 -33.6797 19.582 -46.7246q11.6426 -13.0449 24.874 -13.5195
q13.2305 -0.474609 27.2549 7.82715q14.0254 8.30176 27.7852 17.5518q13.7607 9.25 25.9326 15.8906q12.1729 6.6416 21.1699 2.37207q0 -9.0127 -4.76367 -17.5518q-4.7627 -8.53809 -11.3779 -15.8906q-6.61621 -7.35352 -14.5547 -13.5195
q-7.93848 -6.16699 -14.8184 -10.4365q-29.6367 -17.5518 -49.4834 -18.5t-33.6064 8.06445q-13.7607 9.0127 -22.2285 24.667t-15.083 31.7822t-12.7012 28.6992q-6.08691 12.5703 -14.5547 15.8916q-1.58691 -6.16699 -6.61523 -21.3467
q-5.02734 -15.1797 -10.8486 -32.2568q-5.82227 -17.0771 -11.1143 -32.2568q-5.29297 -15.1797 -7.40918 -21.3467q-1.05859 -2.37207 -4.49902 -9.0127q-3.43945 -6.6416 -8.73242 -14.4688q-5.29199 -7.82715 -11.9072 -15.1797q-6.61621 -7.35254 -13.4961 -11.3848
t-13.7598 -2.6084q-6.87988 1.42285 -12.1729 11.3848zM54.2773 322.002q-1.05859 -5.69238 -1.32324 -20.8721t-0.264648 -32.2568t0.264648 -32.2568t1.32324 -21.3467q18.5234 25.1416 33.3418 58.584q14.8184 33.4434 22.4922 69.2578q7.6748 35.8145 6.08691 71.1543
q-1.58789 35.3408 -15.877 64.2773q-8.99707 -14.7061 -16.9355 -37.001t-13.7607 -45.3018q-5.82129 -23.0068 -9.79102 -43.167q-3.96875 -20.1611 -5.55664 -31.0713z" />
    <glyph glyph-name="guillemotleft" unicode="&#xab;" horiz-adv-x="1091" 
d="M382 157q-33 10 -77 18t-92 12.5t-94.5 5.5t-83.5 -3q-26 13 -20.5 25t23.5 21.5t39 15.5t27 8q13 7 40.5 23.5t62 36.5t72 43t72 43.5t61.5 37t40 25.5q11 7 26 22.5t33 29.5t38 20.5t41 -3.5q7 -11 -7 -28t-41.5 -38t-64.5 -44t-76.5 -46t-77 -45t-65.5 -41
t-42.5 -32.5t-7.5 -20.5q64 -5 137.5 -24.5t146 -45.5t138.5 -53.5t116 -49.5q12 -6 15.5 -17t0 -21t-12 -15t-20.5 0q-12 6 -39 18t-61.5 26t-72 29t-72 28.5t-62 23.5t-40.5 15zM676 219q-33 10 -77 18t-92 12.5t-94.5 5.5t-83.5 -3q-26 13 -20.5 25t23.5 21.5t39 15.5
t27 8q13 8 40.5 24t62 36t72 43t72 43.5t61.5 37t40 25.5q11 7 26 22.5t33 29.5t38 20.5t41 -3.5q7 -11 -7 -28t-41.5 -38t-64.5 -44t-76.5 -46t-77 -45t-65.5 -41t-42.5 -32.5t-7.5 -20.5q64 -5 137.5 -24.5t146 -45.5t138.5 -53.5t116 -49.5q12 -6 15.5 -17t0 -21t-12 -15
t-20.5 0q-13 6 -39.5 18t-61 26t-72 29t-72 28.5t-62 23.5t-40.5 15z" />
    <glyph glyph-name="logicalnot" unicode="&#xac;" horiz-adv-x="464" 
d="M8 278q-4 8 -1 14t9 10.5t13.5 6.5t13.5 3q13 3 40 8.5t61 12.5t71 14.5t71 14t61.5 11.5t41.5 8q23 4 36 -4.5t19 -34t5 -69.5t-6 -110q-3 0 -12.5 -3t-20 -6.5t-19 -5.5t-8.5 1q-1 36 -0.5 66.5t-0.5 52.5t-4.5 33t-12.5 10q-30 -5 -67 -12.5t-74.5 -15t-74 -13.5
t-66 -8t-50 1.5t-25.5 14.5z" />
    <glyph glyph-name="uni00AD" unicode="&#xad;" 
d="M8 278q-4 8 -1 14t9 10.5t13.5 6.5t13.5 3q13 3 41.5 8.5t64.5 12.5t75.5 14.5t76 14.5t65 12t42.5 8q23 4 29 -4t2.5 -21t-13 -26t-18.5 -19q-29 4 -68.5 -1t-81 -13.5t-83.5 -18.5t-76.5 -15t-59 -3t-31.5 17z" />
    <glyph glyph-name="registered" unicode="&#xae;" horiz-adv-x="648" 
d="M104 17q-13 6 -24 18.5t-19.5 27.5t-15 31t-10.5 28q-8 28 -9 75t6 103t22 117.5t38.5 120t55 109.5t72 85.5t89.5 49t108 -0.5q79 -20 126 -68.5t66.5 -113.5t14.5 -140.5t-30 -148.5q-17 -49 -44 -97.5t-62.5 -89.5t-78.5 -72.5t-92 -47.5t-103 -14t-110 28zM267 702
q-24 -12 -55.5 -59t-60.5 -113q33 18 71 34t73.5 27t64 15t41.5 -2q21 -19 20 -47t-14.5 -60.5t-35.5 -67.5t-42.5 -67.5t-35 -61t-13.5 -49t22 -30t72 -4.5q38 8 78.5 27.5t74.5 41.5q21 59 28.5 122t1.5 120t-26.5 103.5t-56.5 73t-87.5 28t-119.5 -30.5zM203 124
q-1 12 -2 36t-2.5 54.5t-2.5 64t-2.5 64t-2 54.5t-0.5 36q0 4 -0.5 14t-0.5 20.5t0.5 20t0.5 13.5q-13 -5 -32 -21.5t-39 -30.5q-20 -57 -33.5 -114.5t-15.5 -107.5t9.5 -87t41.5 -53q66 -35 123.5 -37.5t105 18.5t85 61.5t64.5 92.5q-33 -15 -70.5 -27t-72 -18.5t-61.5 -6
t-40 11.5q0 -5 -1 -14.5t-3.5 -20.5t-7.5 -20.5t-15 -13.5q-8 -3 -15 1.5t-11 9.5zM243 269l139 271q-8 23 -31 26t-48 -5t-44 -23t-19 -27z" />
    <glyph glyph-name="macron" unicode="&#xaf;" 
d="M16 614q-4 8 -1 14t9 10.5t13.5 6.5t13.5 3q13 3 41.5 8.5t64.5 12.5t75.5 14.5t76 14.5t65 12t42.5 8q23 4 29 -4t2.5 -21t-13 -26t-18.5 -19q-29 4 -68.5 -1t-81 -13.5t-83.5 -18.5t-76.5 -15t-59 -3t-31.5 17z" />
    <glyph glyph-name="degree" unicode="&#xb0;" horiz-adv-x="235" 
d="M33 406q-13 5 -22 15.5t-13 18.5q-13 19 -10 47t18.5 56t39.5 51.5t52.5 34t59 3t58.5 -41.5q10 -31 0 -66t-35.5 -63t-63.5 -44.5t-84 -10.5zM97 589q-30 -19 -49 -49t-21 -55.5t17 -39t64 0.5q36 23 52 46.5t17.5 43.5t-7.5 35.5t-22.5 24t-28 7.5t-22.5 -14z" />
    <glyph glyph-name="plusminus" unicode="&#xb1;" horiz-adv-x="834" 
d="M57 53q-4 8 -1 14t9 10.5t13.5 6.5t13.5 3q7 2 29 5t54 7l72 9q40 5 84 10q0 12 -0.5 27.5t-0.5 30.5t0.5 28t1.5 19q3 45 12 94t5 96q-48 -4 -93 -21t-87 -34t-80 -28.5t-70 -3.5q-7 11 0.5 23t20.5 21.5t27.5 16.5t21.5 9q10 3 30 8.5t46 12.5t54 14.5t54 14.5t46 12
t30 8q2 13 3 38t4 53t9.5 54.5t18.5 44.5q2 4 8.5 10.5t8.5 6.5q4 0 10 -2t11.5 -4.5t9.5 -5.5t4 -5v-173q10 -1 44.5 3.5t79.5 10t93.5 9.5t87.5 2.5t61.5 -11t15.5 -31.5q-1 -3 -7.5 -9.5t-9.5 -8.5q-9 0 -31.5 0.5t-47.5 0.5t-47 -0.5t-31 -0.5q-23 -1 -58 -3.5t-68 -5
t-57 -5t-25 -3.5q-5 -6 -11 -26t-11.5 -48.5t-10.5 -61.5t-9 -65.5t-7.5 -60.5t-5.5 -45q67 8 135.5 16t126.5 14.5t98.5 12t52.5 7.5q23 4 29 -4t2.5 -21t-13 -26t-18.5 -19q-22 3 -64.5 0t-96.5 -9.5t-116 -15t-124.5 -17t-120.5 -15t-104 -9t-75.5 0.5t-35.5 14z" />
    <glyph glyph-name="twosuperior" unicode="&#xb2;" horiz-adv-x="712" 
d="M23.0303 248.39q5.12402 22.6729 17.9326 43.2627q12.8086 20.5908 33.6689 37.4795t49.0391 28.9189q28.1797 12.0312 64.0439 18.5088q17.5664 20.3594 33.6699 42.8008q16.1016 22.4404 27.4473 46.0391q11.3447 23.5977 15.7363 47.8906
q4.3916 24.292 -0.732422 47.8896l-101.738 -55.9873h-24.8857v15.7314l114.182 72.6455q13.9072 8.79102 25.9834 8.3291q12.0771 -0.462891 20.8604 -5.55273t13.1748 -12.9561t3.66016 -13.8809q-1.46484 -5.55273 -3.29395 -14.8066
q-1.83008 -9.25488 -3.66016 -18.2773q-1.8291 -9.02246 -3.65918 -15.9629q-1.83008 -6.94141 -1.83008 -7.40332q-2.92773 -6.94141 -11.7109 -24.0615t-19.0303 -36.3223t-19.3965 -36.3223t-13.54 -23.5986q-10.9795 -6.94043 -6.58789 -11.5674t14.6387 -7.40332
q11.7109 -3.23926 30.0098 -5.08984q16.834 -0.925781 38.4258 0.925781q21.5918 1.85059 44.6484 5.08984q23.0557 3.23828 46.1113 6.94043q23.0566 3.70117 42.8184 6.70898t34.4004 4.39551q14.6387 1.38867 21.959 0q3.65918 -0.924805 8.7832 -3.93262
q5.12305 -3.00781 3.65918 -3.93262l-24.8857 -24.5234q-1.46387 -1.38867 -16.834 -5.08984q-15.3711 -3.70215 -35.499 -7.40332q-20.1279 -3.70215 -40.9883 -7.17285q-20.8604 -3.46973 -33.3037 -4.39551q-9.51465 -0.924805 -32.9365 -1.15625t-50.1377 -0.231445
q-26.7148 0 -50.1367 0.231445t-32.9375 1.15625q-4.3916 -4.62695 -16.834 -16.1943q-12.4434 -11.5684 -26.3496 -24.292q-13.9072 -12.7246 -27.082 -24.0615q-13.1748 -11.3359 -18.2988 -15.5q-5.85547 -4.62695 -15.0039 -12.0303
q-9.14941 -7.40332 -20.4941 -13.6504q-11.3457 -6.24609 -25.252 -9.02246t-27.8135 2.31348q0 1.3877 -0.366211 4.8584q-0.365234 3.46973 -0.365234 7.40332q0 3.93262 0.365234 7.40332q0.366211 3.46973 0.366211 4.8584zM61.0908 252.091
q-5.12402 0 -5.12402 -4.16406t5.12402 -4.16406q4.3916 0 4.3916 4.16406t-4.3916 4.16406zM73.5332 280.316q-0.731445 -1.85059 -0.731445 -7.86621q0 -6.01465 0.731445 -8.3291h13.1758l75.3887 72.1826h-12.4434q-4.39062 0 -15.7363 -6.24609
q-11.3447 -6.24707 -23.7871 -14.8066q-12.4434 -8.56055 -23.0566 -18.2773t-13.541 -16.6572z" />
    <glyph glyph-name="threesuperior" unicode="&#xb3;" horiz-adv-x="316" 
d="M55.4082 198.968q-15.9609 9.37402 -25.4766 21.7939q-9.51465 12.4199 -14.1191 26.4805q-4.60449 14.0615 -4.91113 28.8252t1.53516 28.8242q5.52441 2.81152 11.6631 -3.75q6.13965 -6.56152 13.1992 -17.5752q7.05957 -11.0146 15.9609 -24.6064t20.2588 -24.8408
q11.3564 -11.248 26.0898 -18.0439t33.1504 -4.21875q18.417 2.57812 41.4375 16.4043q23.0215 13.8262 51.874 43.8223q38.6758 40.3076 41.7451 70.5381t-19.0312 45.6973q-22.0996 15.4668 -65.0723 13.8262t-96.3809 -24.1377q-13.5059 0 -8.28809 7.49902
q5.21875 7.49902 20.5654 19.6846q15.3477 12.1865 37.1406 26.9502t41.4375 29.293t33.7646 26.9492q14.1191 12.4209 14.1191 19.9199v7.96777q-9.20801 2.34277 -21.4863 -0.9375q-12.2773 -3.28125 -25.7832 -9.13965t-27.0117 -12.4199
q-13.5049 -6.5625 -25.7832 -10.0771q-12.2773 -3.51562 -22.4072 -2.34375q-10.1289 1.17188 -16.2676 10.5459q-2.45605 3.74902 0 7.7334q2.45508 3.9834 6.44531 7.49902q3.99121 3.51465 8.28809 5.8584l6.75293 3.28125q7.98047 1.87402 27.625 6.7959
q19.6445 4.9209 41.7441 10.0762q22.1006 5.15625 41.7451 9.6084t27.0107 6.32715q2.45605 0.46875 10.7432 0.46875q8.28809 0 10.7432 -0.46875q4.91113 -13.123 -1.53418 -28.1211q-6.44629 -14.998 -17.4961 -29.293t-23.9414 -27.1836
q-12.8926 -12.8896 -20.873 -21.3262q7.36719 1.875 17.4961 -1.87402q10.1289 -3.75 14.4268 -6.56152q28.2393 -17.3418 40.5166 -39.3701t11.3574 -45.6973q-0.920898 -23.6689 -12.585 -47.3379t-30.6943 -44.5254q-19.0312 -20.8564 -42.9727 -37.2607
q-23.9424 -16.4043 -49.7256 -25.0752q-25.7832 -8.66992 -50.9531 -8.66992q-25.1689 0 -46.042 12.1855z" />
    <glyph glyph-name="acute" unicode="&#xb4;" horiz-adv-x="192" 
d="M32 640q-7 12 -13 21.5t0 22t29.5 30.5t75.5 47q19 5 25 -2t1.5 -20t-16.5 -30t-29 -32t-36 -25.5t-37 -11.5z" />
    <glyph glyph-name="mu" unicode="&#xb5;" horiz-adv-x="449" 
d="M52 52q-1 1 -0.5 -17t0.5 -45t-0.5 -59t-2.5 -58l-49 -3l22 249l13 385q0 9 7 13t16 5t17.5 0t11.5 -2q-1 -13 -1 -40t-0.5 -61t0 -72t0.5 -73v-61q0 -27 1 -40q2 -56 15.5 -78t33 -20.5t41 22t40 49t31 59.5t12.5 55v260h70q-2 -23 -5 -60t-3.5 -80t1.5 -87.5t9.5 -84
t21.5 -69t36.5 -42t54.5 -4t76 45.5q9 -26 -7 -50t-42 -42t-56 -26.5t-51 -3.5q-3 1 -9.5 8t-8.5 10q-4 7 -14 26.5t-21 41.5t-20.5 42t-13.5 28q-6 -11 -20 -33.5t-33.5 -48t-42 -48t-45.5 -32t-45 -2t-40 42.5z" />
    <glyph glyph-name="paragraph" unicode="&#xb6;" horiz-adv-x="456" 
d="M265 12l126 571q-11 2 -23.5 3.5t-26.5 4.5l-142 -539q11 -17 5 -28t-19.5 -17t-29.5 -7.5t-25 0.5v35l89 452q-20 -15 -47 -31t-57 -27.5t-61 -16t-60 4.5q-21 40 -8.5 86.5t48 89t88.5 76t112.5 47t120.5 3.5t112 -55l-150 -653z" />
    <glyph glyph-name="periodcentered" unicode="&#xb7;" horiz-adv-x="184" 
d="M56 282q-16 25 -11 45.5t21.5 30.5t38 6t38.5 -29q9 -13 0.5 -29.5t-24 -27t-33.5 -12t-30 15.5z" />
    <glyph glyph-name="cedilla" unicode="&#xb8;" horiz-adv-x="450" 
d="M112 -422q-16 12 -26.5 31t-15.5 39.5t-6 40.5t2.5 33t10.5 17.5t17 -5.5q-2 -54 20 -82t53.5 -35t66.5 3.5t60.5 34.5t35 58t-10.5 73q-26 29 -57 37.5t-62.5 13t-61.5 14t-54 41.5q-11 54 -2.5 85t23.5 36.5t30.5 -16t18.5 -70.5q-2 -7 15 -15t43.5 -18.5t58.5 -24.5
t59 -32t45 -41.5t17 -53t-25 -65.5t-82 -81q-18 -14 -39.5 -24t-44.5 -13.5t-46 0.5t-43 19z" />
    <glyph glyph-name="onesuperior" unicode="&#xb9;" horiz-adv-x="316" 
d="M50.8291 189.164q4.40137 44.5664 6.60254 82.4863q2.2002 37.9199 5.86816 74.2764t11.0039 73.6904t22.0078 80.7275q-6.60254 -4.30078 -16.5059 -8.99121q-9.90332 -4.69141 -22.0078 -8.20996q-12.1035 -3.51855 -25.3086 -4.69141
q-13.2041 -1.17285 -25.6748 1.56445q-0.734375 1.56348 7.33594 8.60059q8.06934 7.03613 22.0068 16.8096q13.9385 9.77344 31.5439 21.1104q17.6064 11.3369 35.5791 21.3057t33.7441 17.3965q15.7725 7.42773 26.4092 9.77344q10.6367 2.34473 13.5713 -1.95508
t-4.40137 -17.9824q-2.20117 -3.51855 -7.33594 -12.3145t-11.3701 -18.5693t-11.7373 -18.374t-8.43652 -12.1182q-1.4668 -7.03711 -4.40137 -21.8926t-6.96875 -33.6201q-4.03516 -18.7646 -8.06934 -39.4834q-4.03516 -20.7197 -7.70312 -39.4844t-6.60254 -33.6201
q-2.93359 -14.8555 -3.66699 -21.8916q-2.20117 -15.6377 -2.20117 -19.3516t0.367188 -2.3457q0.366211 1.36816 1.09961 5.08203q0.734375 3.71387 0.734375 3.32324q-0.734375 -7.81836 -1.83398 -21.6963q-1.10059 -13.8779 -2.20117 -29.125
q-1.10059 -15.2461 -1.83398 -29.124t-1.4668 -21.3057q0 -3.90918 -3.30176 -7.42773q-3.30078 -3.51855 -8.80273 -5.86328q-5.50195 -2.3457 -12.4707 -2.7373q-6.96875 -0.390625 -13.5713 2.3457v13.6826z" />
    <glyph glyph-name="ordmasculine" unicode="&#xba;" horiz-adv-x="213" 
d="M45.6582 261.705q-19.7168 18.29 -23.6611 40.7812q-3.94336 22.4922 0 47.208q3.94434 24.7158 12.6191 49.9268q8.67578 25.2109 14.9854 48.6914q6.30957 23.4795 7.09863 43.9941q0.788086 20.5146 -11.042 35.3447q-6.30957 7.90918 -16.957 7.66211
q-10.6475 -0.248047 -22.8721 -1.97754q-12.2246 -1.73047 -24.4492 -1.23633q-12.2256 0.494141 -21.6895 9.39258q0.789062 1.97754 5.91504 5.19043q5.12695 3.21289 7.49316 3.70703q70.9824 6.42676 118.698 -9.14453q47.7168 -15.5713 76.1094 -43.9951
t39.04 -65.0039q10.6475 -36.5791 7.49316 -72.665q-3.15527 -36.0859 -18.1406 -66.9814q-14.9844 -30.8945 -37.8574 -47.7021q-22.8721 -16.8066 -52.0537 -14.8291q-29.1816 1.97656 -60.7295 31.6367zM86.6709 279.006q0.788086 -1.48242 4.73145 -3.9541
t8.28125 -5.4375t8.28125 -5.19043q3.94434 -2.22461 5.52148 -2.71875q29.1816 10.3809 43.3779 28.1758q14.1963 17.7959 16.957 39.5459q2.76074 21.751 -3.1543 45.7256t-16.957 46.2188q-11.042 22.2451 -25.6328 41.0293t-27.999 30.6484
q-0.788086 -6.42676 -3.1543 -19.7734t-4.73242 -30.1533q-2.36621 -16.8076 -5.52051 -35.5918q-3.15527 -18.7842 -5.91602 -35.8389q-2.75977 -17.0537 -5.12598 -30.4004t-3.15527 -19.7734q-0.788086 -4.94238 0.394531 -11.1221q1.18359 -6.17871 3.5498 -12.1104
q2.36523 -5.93262 5.12598 -11.123t5.12695 -8.15625z" />
    <glyph glyph-name="guillemotright" unicode="&#xbb;" horiz-adv-x="1137" 
d="M122 17q-4 1 -3 16t5.5 30.5t13 24.5t19.5 -1q12 10 37.5 29.5t57.5 43.5t68 50.5t68.5 50t58.5 42t39 27.5q7 5 27 15l42 21q22 11 42 20q19 9 27 13q-65 11 -142 19q-78 9 -159 23t-160 36.5t-146 60.5q-6 12 -1 19.5t15 11.5t21 5t18 -2q4 -1 14 -5.5t21 -10
t20.5 -10.5t13.5 -8l607 -121q4 -1 4 -8t-4 -10q-30 -30 -80 -57t-107.5 -54t-118 -56t-112.5 -63.5t-89 -75.5t-49 -93zM446 54q-4 1 -3 16t5.5 30.5t13 24.5t19.5 -1q12 10 37.5 29.5t57.5 43.5t68 50.5t68.5 50t58.5 42t39 27.5q7 5 27 15l42 21q22 11 42 20q19 9 27 13
q-65 11 -142 19q-78 9 -159 23t-160 36.5t-146 60.5q-6 12 -1 19.5t15 11.5t21 5t18 -2q4 -1 14 -5.5t21 -10t20.5 -10.5t13.5 -8l607 -121q4 -1 4 -8t-4 -10q-30 -30 -80 -57t-107.5 -54t-118 -56t-112.5 -63.5t-89 -75.5t-49 -93z" />
    <glyph glyph-name="onequarter" unicode="&#xbc;" horiz-adv-x="621" 
d="M65.8008 206.612q4.29785 42.1445 6.44629 78.0039q2.14844 35.8604 5.73047 70.2412q3.58105 34.3809 10.7432 69.6865q7.16309 35.3057 21.4873 76.3408q-6.44629 -4.06641 -16.1152 -8.50293q-9.66895 -4.43555 -21.4873 -7.7627t-24.7109 -4.43652t-25.0684 1.47852
q-0.716797 1.47852 7.16211 8.13379q7.87891 6.6543 21.4873 15.8965q13.6094 9.24219 30.7988 19.9629q17.1904 10.7207 34.7383 20.1484q17.5479 9.42676 32.9473 16.4512q15.3994 7.02344 25.7852 9.24219q10.3857 2.21777 13.25 -1.84863
q2.86523 -4.06641 -4.29688 -17.0059q-2.14941 -3.32715 -7.16309 -11.6455q-5.01367 -8.31738 -11.1016 -17.5596t-11.46 -17.376q-5.37207 -8.13281 -8.23633 -11.46q-1.43262 -6.6543 -4.29785 -20.7031q-2.86523 -14.0479 -6.80469 -31.793t-7.87793 -37.3389
q-3.93945 -19.5938 -7.52148 -37.3389q-3.58105 -17.7451 -6.44629 -31.793q-2.86426 -14.0479 -3.58105 -20.7031q-2.14844 -14.7871 -2.14844 -18.2988q0 -3.5127 0.358398 -2.21875q0.357422 1.29395 1.07422 4.80664q0.71582 3.51172 0.71582 3.1416
q-0.71582 -7.39355 -1.79004 -20.5176t-2.14941 -27.542q-1.07422 -14.418 -1.79004 -27.542q-0.716797 -13.124 -1.43262 -20.1475q0 -3.69727 -3.22363 -7.02441q-3.22266 -3.32715 -8.59473 -5.54492q-5.37207 -2.21875 -12.1758 -2.58789
q-6.80469 -0.370117 -13.251 2.21777v12.9395zM28.5049 48.8701q-1.62598 1.87793 -1.62598 7.98242t1.62598 7.9834l7.31836 35.6875q5.69141 24.418 12.6025 54.9404q6.91211 30.5215 14.2295 64.3311q7.31836 33.8096 14.6357 64.332q7.31836 30.5225 13.0098 54.9395
q5.69238 24.418 8.94434 35.6885q14.6367 52.5918 34.5576 106.593t43.9082 106.124q23.9863 52.1221 50.8193 101.428q26.832 49.3057 54.4785 93.4453q8.13086 12.209 23.1729 31.9307q15.043 19.7227 30.8984 37.5664t28.459 30.9922q12.6035 13.1475 15.8555 13.1475
h28.459v-32.8701q-7.31836 -8.45215 -25.6133 -31.4609q-18.2949 -23.0098 -38.6221 -48.8359q-20.3281 -25.8271 -38.2168 -49.3057q-17.8877 -23.4785 -24.3926 -32.8701q-2.43945 -2.81738 -6.50488 -9.3916q-4.06641 -6.57324 -8.53809 -14.5566
q-4.47168 -7.98242 -8.53809 -15.0264q-4.06543 -7.04297 -4.87793 -9.86133q-5.69238 -15.9648 -18.2949 -48.835q-12.6035 -32.8701 -28.0527 -74.6621q-15.4492 -41.793 -32.1182 -87.8105q-16.668 -46.0186 -32.1172 -88.2803t-27.2393 -75.6016t-17.4824 -49.3047
q-8.94434 -24.418 -8.13086 -54.001t0.40625 -58.6973q-0.40625 -29.1133 -6.50488 -55.4092q-6.09766 -26.2969 -28.0518 -43.2012q-1.62598 0.939453 -6.09863 5.63477q-4.47168 4.69629 -8.94434 9.86133q-4.47168 5.16504 -8.53711 10.3301
q-4.06543 5.16602 -4.87891 7.04395zM359.202 47.1777q0.635742 3.13574 2.22656 13.0654q1.58984 9.93066 3.81641 22.7354t4.77148 27.7002t4.77148 27.7002t3.81738 22.7354q1.58984 9.92969 2.22656 13.0654q0 1.56836 0.317383 5.48828
q0.318359 3.91992 0.318359 8.10059q0 4.18164 -0.318359 8.10156q-0.317383 3.91895 -0.317383 5.4873q-6.99805 2.09082 -25.7656 7.57812q-18.7666 5.48828 -40.0781 11.2373t-40.3965 10.9756q-19.0859 5.22656 -26.7197 6.79395q-12.0869 2.61328 -22.9023 -4.18066
q-10.8145 -6.79492 -20.6748 -18.0312q-9.86133 -11.2373 -18.7676 -23.5195t-16.8584 -20.3828t-15.9043 -8.88477t-14.9502 11.2363q3.18164 6.79492 8.90723 20.9062t13.3594 32.1426t16.2217 37.6299q8.58887 19.5996 16.2227 37.6309t13.6777 32.1426t9.22461 20.9053
q1.9082 4.7041 6.67969 12.0215q4.77148 7.31641 11.1328 12.0205t13.3594 4.44238t12.7236 -10.1914q-1.9082 -4.18164 -6.67969 -14.373t-10.1787 -21.6895t-9.86035 -21.9512t-5.72559 -14.6338q-1.27246 -2.61328 -1.27246 -9.14648t1.27246 -8.62402
q5.08887 -0.522461 19.4033 -4.96484q14.3135 -4.44238 32.126 -10.7139t37.5342 -13.0664q19.7217 -6.79395 36.2617 -11.498t27.6729 -6.79395q11.1338 -2.09082 12.4053 1.56738l76.9766 244.598q1.90918 6.79395 7.95215 8.3623q6.04395 1.56836 12.4053 -0.261719
q6.3623 -1.8291 10.4971 -6.5332q4.13477 -4.70312 2.22656 -10.9746l-54.7109 -199.128v-27.1777q2.54492 1.0459 8.58887 3.65918t13.041 5.4873q6.99805 2.875 13.042 5.48828q6.04297 2.61328 8.58789 3.6582h11.4512q-16.54 -10.4531 -29.2637 -19.0762
q-12.7236 -8.62402 -22.2656 -17.7705q-9.54297 -9.14648 -15.9043 -19.8604q-6.3623 -10.7139 -9.54297 -25.3486q-1.27246 -5.74902 -4.13477 -17.7695q-2.86328 -12.0205 -6.04395 -27.1777q-3.18066 -15.1562 -6.67969 -32.1426q-3.49902 -16.9854 -6.67969 -32.1426
q-3.18066 -15.1562 -5.72559 -27.1768q-2.54492 -12.0215 -3.81738 -17.7705q-2.54395 -1.56738 -6.36133 -3.39746q-3.81738 -1.8291 -8.58789 -3.39648q-4.77148 -1.56836 -9.54297 -2.35254q-4.77148 -0.783203 -8.58789 0.261719q0 1.56836 -0.318359 5.4873
q-0.318359 3.91992 -0.318359 8.10156q0 4.18066 0.318359 8.10059t0.318359 5.48828z" />
    <glyph glyph-name="onehalf" unicode="&#xbd;" horiz-adv-x="635" 
d="M71.1104 245.733q3.90234 55.8311 5.85449 103.337q1.95117 47.5049 5.2041 93.0508q3.25195 45.5469 9.75781 92.3174q6.50488 46.7705 19.5146 101.133q-5.85449 -5.3877 -14.6357 -11.2646q-8.78223 -5.87695 -19.5156 -10.2842t-22.4424 -5.87695
q-11.71 -1.46973 -22.7686 1.95898q-0.650391 1.95898 6.50488 10.7744q7.15625 8.81543 19.5156 21.0586q12.3594 12.2441 27.9727 26.4473q15.6113 14.2021 31.5498 26.6904q15.9375 12.4893 29.9229 21.7939q13.9863 9.30469 23.4189 12.2441
q9.43262 2.9375 12.0342 -2.44922q2.60254 -5.38672 -3.90332 -22.5283q-1.95117 -4.40723 -6.50488 -15.4268t-10.083 -23.2637q-5.5293 -12.2432 -10.4082 -23.0176t-7.48047 -15.1816q-1.30176 -8.81641 -3.90332 -27.4258q-2.60156 -18.6113 -6.17969 -42.1191
t-7.15625 -49.4639q-3.57715 -25.9561 -6.83008 -49.4639q-3.25195 -23.5078 -5.85449 -42.1191q-2.60254 -18.6094 -3.25293 -27.4258q-1.95117 -19.5898 -1.95117 -24.2422t0.325195 -2.93848t0.975586 6.36719q0.650391 4.65234 0.650391 4.16309
q-0.650391 -9.79492 -1.62598 -27.1816q-0.975586 -17.3857 -1.95117 -36.4863q-0.975586 -19.0996 -1.62695 -36.4854q-0.650391 -17.3857 -1.30078 -26.6914q0 -4.89746 -2.92676 -9.30566q-2.92773 -4.40723 -7.80664 -7.3457t-11.0586 -3.42773
q-6.17969 -0.490234 -12.0342 2.9375v17.1416zM14.7773 34.2822q-1.69434 1.90234 -1.69434 8.08301q0 6.18164 1.69434 8.08301l7.62305 36.1357q5.92969 24.7236 13.1309 55.6289q7.2002 30.9053 14.8242 65.1387t15.248 65.1387q7.62402 30.9043 13.5537 55.6289
t9.31836 36.1348q15.2471 53.252 36.002 107.931q20.7539 54.6787 45.7432 107.455q24.9902 52.7764 52.9443 102.7q27.9551 49.9238 56.7559 94.6172q8.47168 12.3623 24.1426 32.332q15.6719 19.9688 32.1904 38.0371q16.5186 18.0674 29.6484 31.3799
q13.1309 13.3135 16.5186 13.3135h29.6494v-33.2832q-7.62402 -8.55762 -26.6846 -31.8555q-19.0596 -23.2979 -40.2373 -49.4482t-39.8135 -49.9238q-18.6367 -23.7734 -25.4141 -33.2822q-2.54102 -2.85352 -6.77637 -9.50977t-8.89453 -14.7393t-8.89453 -15.2148
t-5.08301 -9.98438q-5.92969 -16.166 -19.0596 -49.4482q-13.1309 -33.2832 -29.2256 -75.5986q-16.0947 -42.3164 -33.4609 -88.9121q-17.3652 -46.5957 -33.46 -89.3877q-16.0957 -42.791 -28.3789 -76.5488q-12.2822 -33.7578 -18.2119 -49.9238
q-9.31836 -24.7246 -8.47168 -54.6787q0.847656 -29.9541 0.423828 -59.4326t-6.77734 -56.1055q-6.35254 -26.625 -29.2246 -43.7422q-1.69434 0.951172 -6.35352 5.70508q-4.65918 4.75488 -9.31836 9.98535q-4.65918 5.22949 -8.89453 10.46t-5.08203 7.13184z
M121.479 97.5234q4.43652 31.8662 15.5273 60.8057q11.0918 28.9395 29.1543 52.6768q18.0635 23.7363 42.4648 40.6455q24.4004 16.9082 55.4561 26.0127q15.2109 28.6152 29.1543 60.1562t23.7666 64.707q9.82422 33.167 13.627 67.3096t-0.633789 67.3086
l-88.0967 -78.6895h-21.5488v22.1113l98.8711 102.102q12.042 12.3564 22.5 11.7061q10.457 -0.650391 18.0625 -7.80371q7.60547 -7.1543 11.4082 -18.21t3.16895 -19.5098q-1.26758 -7.80371 -2.85254 -20.8105q-1.58398 -13.0059 -3.16797 -25.6875
q-1.58496 -12.6816 -3.16992 -22.4365q-1.58398 -9.75488 -1.58398 -10.4053q-2.53516 -9.75488 -10.1406 -33.8174t-16.4785 -51.0508t-16.7949 -51.0508q-7.92285 -24.0625 -11.7256 -33.167q-9.50684 -9.75488 -5.7041 -16.2578q3.80273 -6.50391 12.6758 -10.4053
q10.1406 -4.55273 25.9854 -7.1543q14.5771 -1.2998 33.2744 1.30078q18.6963 2.60156 38.6602 7.1543q19.9648 4.55176 39.9297 9.75488q19.9639 5.20215 37.0762 9.42969q17.1123 4.22656 29.7881 6.17773t19.0137 0q3.16895 -1.30078 7.60547 -5.52734
q4.43652 -4.22754 3.16895 -5.52832l-21.5488 -34.4678q-1.26758 -1.9502 -14.5771 -7.15332q-13.3096 -5.20215 -30.7393 -10.4053q-17.4287 -5.20215 -35.4922 -10.0801q-18.0625 -4.87695 -28.8369 -6.17773q-8.23926 -1.30078 -28.5205 -1.62598t-43.4141 -0.325195
q-23.1338 0 -43.415 0.325195t-28.5205 1.62598q-3.80273 -6.50391 -14.5771 -22.7617t-22.8164 -34.1426q-12.042 -17.8838 -23.4502 -33.8174q-11.4082 -15.9326 -15.8447 -21.7852q-5.07031 -6.50391 -12.9932 -16.9092q-7.92188 -10.4053 -17.7461 -19.1846
q-9.82324 -8.7793 -21.8652 -12.6816q-12.042 -3.90137 -24.084 3.25195q0 1.95117 -0.316406 6.82812q-0.317383 4.87793 -0.317383 10.4053q0 5.52832 0.317383 10.4053q0.316406 4.87793 0.316406 6.8291zM154.436 102.726q-4.43652 0 -4.43652 -5.85254
q0 -5.85352 4.43652 -5.85352q3.80273 0 3.80273 5.85352q0 5.85254 -3.80273 5.85254zM165.21 142.396q-0.633789 -2.60059 -0.633789 -11.0557q0 -8.4541 0.633789 -11.7051h11.4082l65.2803 101.451h-10.7744q-3.80273 0 -13.626 -8.7793
q-9.82422 -8.78027 -20.5986 -20.8105q-10.7744 -12.0312 -19.9639 -25.6885q-9.19043 -13.6572 -11.7256 -23.4121z" />
    <glyph glyph-name="threequarters" unicode="&#xbe;" horiz-adv-x="699" 
d="M57.5732 218.004q-15.1143 11.7686 -24.124 27.3623t-13.3701 33.2471q-4.35938 17.6523 -4.65039 36.1885q-0.290039 18.5361 1.45312 36.1895q5.23145 3.53027 11.0449 -4.70801t12.498 -22.0664t15.1133 -30.8926q8.42871 -17.0654 19.1836 -31.1875
q10.7539 -14.123 24.7051 -22.6553t31.3896 -5.2959q17.4395 3.23633 39.2383 20.5957q21.7988 17.3584 49.1191 55.0186q36.6221 50.6064 39.5283 88.5605q2.90723 37.9541 -18.0205 57.373q-20.9258 19.418 -61.6172 17.3584t-91.2637 -30.3047
q-12.7891 0 -7.84766 9.41504t19.4736 24.7148t35.168 33.835q20.6367 18.5361 39.2383 36.7783q18.6016 18.2412 31.9717 33.835q13.3691 15.5938 13.3691 25.0088v10.0029q-8.71875 2.94238 -20.3457 -1.17676q-11.625 -4.11914 -24.4141 -11.4746t-25.5771 -15.5938
q-12.7881 -8.2373 -24.415 -12.6514q-11.625 -4.41309 -21.2168 -2.94238q-9.5918 1.47168 -15.4043 13.2402q-2.3252 4.70801 0 9.70898q2.3252 5.00195 6.10352 9.41504q3.77832 4.41406 7.84766 7.35547l6.39453 4.11914q7.55664 2.35449 26.1582 8.5332
q18.6016 6.17773 39.5283 12.6514q20.9268 6.47266 39.5283 12.0625q18.6016 5.59082 25.5771 7.94434q2.3252 0.587891 10.1729 0.587891t10.1719 -0.587891q4.65039 -16.4766 -1.45312 -35.3066t-16.5664 -36.7773q-10.4639 -17.9473 -22.6709 -34.1299
q-12.207 -16.1816 -19.7646 -26.7734q6.97656 2.35352 16.5674 -2.35449q9.5918 -4.70703 13.6611 -8.23828q26.7393 -21.7715 38.3652 -49.4287q11.626 -27.6562 10.7539 -57.373q-0.87207 -29.7158 -11.916 -59.4316q-11.0449 -29.7168 -29.0654 -55.9023
t-40.6904 -46.7812q-22.6709 -20.5947 -47.0859 -31.4814q-24.4141 -10.8857 -48.248 -10.8857q-23.833 0 -43.5967 15.2998zM161.25 -11.1855q-1.5625 1.98926 -1.5625 8.4541q0 6.46582 1.5625 8.45508l7.03125 37.7988q5.46875 25.8613 12.1094 58.1895
q6.64062 32.3271 13.6719 68.1357t14.0625 68.1367q7.03125 32.3271 12.5 58.1895q5.46875 25.8613 8.59375 37.7979q14.0625 55.7021 33.2031 112.897q19.1406 57.1943 42.1875 112.399q23.0469 55.2061 48.8281 107.427q25.7812 52.2217 52.3438 98.9717
q7.8125 12.9307 22.2656 33.8193t29.6875 39.7881q15.2344 18.8984 27.3438 32.8242t15.2344 13.9258h27.3438v-34.8145q-7.03125 -8.95215 -24.6094 -33.3213q-17.5781 -24.3701 -37.1094 -51.7246q-19.5312 -27.3535 -36.7188 -52.2207t-23.4375 -34.8145
q-2.34375 -2.98438 -6.25 -9.94727t-8.20312 -15.417q-4.29688 -8.45508 -8.20312 -15.915q-3.90625 -7.46094 -4.6875 -10.4443q-5.46875 -16.9102 -17.5781 -51.7236q-12.1094 -34.8145 -26.9531 -79.0781t-30.8594 -93.0039q-16.0156 -48.7393 -30.8594 -93.501
q-14.8438 -44.7607 -26.1719 -80.0723t-16.7969 -52.2207q-8.59375 -25.8623 -7.8125 -57.1953t0.390625 -62.168t-6.25 -58.6865t-26.9531 -45.7559q-1.5625 0.995117 -5.85938 5.96777q-4.29688 4.97363 -8.59375 10.4443t-8.20312 10.9414
q-3.90625 5.47168 -4.6875 7.46094zM383.887 25.6367q0.558594 3.88086 1.95508 16.1709t3.35156 28.1377t4.18945 34.2832t4.18945 34.2832t3.35156 28.1377t1.95508 16.1719q0 1.94043 0.279297 6.79199q0.279297 4.85059 0.279297 10.0254t-0.279297 10.0264
t-0.279297 6.79199q-6.14453 2.58789 -22.623 9.37988t-35.1914 13.9072t-35.4707 13.584q-16.7578 6.46777 -23.4609 8.4082q-10.6133 3.23438 -20.1094 -5.1748t-18.1543 -22.3164t-16.4785 -29.1074q-7.82031 -15.2012 -14.8027 -25.2275t-13.9648 -10.9961
q-6.98242 -0.970703 -13.127 13.9072q2.79297 8.40918 7.82031 25.874t11.7305 39.7812t14.2441 46.5732t14.2441 46.5732t12.0098 39.7812t8.09961 25.874q1.67578 5.82129 5.86523 14.877q4.18945 9.05664 9.77539 14.8779t11.7305 5.49805t11.1719 -12.6133
q-1.67578 -5.1748 -5.86523 -17.7881q-4.18945 -12.6143 -8.9375 -26.8447t-8.6582 -27.168q-3.91016 -12.9365 -5.02734 -18.1113q-1.11719 -3.23438 -1.11719 -11.3203t1.11719 -10.6729q4.46875 -0.646484 17.0371 -6.14551q12.5684 -5.49805 28.209 -13.2598
q15.6406 -7.7627 32.957 -16.1719q17.3164 -8.4082 31.8398 -14.2305q14.5234 -5.82129 24.2988 -8.40918q9.77539 -2.58691 10.8926 1.94043l67.5898 302.727q1.67578 8.40918 6.98242 10.3496t10.8926 -0.323242q5.58594 -2.26465 9.2168 -8.08594t1.95508 -13.584
l-48.0391 -246.45v-33.6357q2.23438 1.29395 7.54102 4.52734q5.30664 3.23438 11.4512 6.79199t11.4512 6.79199t7.54102 4.52832h10.0547q-14.5234 -12.9375 -25.6953 -23.6104t-19.5508 -21.9932q-8.37891 -11.3193 -13.9648 -24.5801
q-5.58594 -13.2598 -8.37891 -31.3721q-1.11719 -7.11523 -3.63086 -21.9932q-2.51367 -14.877 -5.30664 -33.6357t-5.86523 -39.7812t-5.86523 -39.7812t-5.02734 -33.6367t-3.35156 -21.9932q-2.23438 -1.94043 -5.58594 -4.2041t-7.54102 -4.2041
q-4.18945 -1.94141 -8.37891 -2.91113q-4.18945 -0.970703 -7.54102 0.323242q0 1.94043 -0.279297 6.79199t-0.279297 10.0264t0.279297 10.0264q0.279297 4.85059 0.279297 6.79199z" />
    <glyph glyph-name="questiondown" unicode="&#xbf;" horiz-adv-x="513" 
d="M132.171 639.773q12.165 -20.9209 8.36328 -38.0771q-3.80176 -17.1553 -16.3467 -25.5234q-12.5449 -8.36914 -28.8916 -5.02148q-16.3477 3.34766 -29.2725 24.2686q-6.84277 10.8799 -0.379883 24.6875q6.46191 13.8086 18.2471 22.5947
q11.7852 8.78711 25.4707 10.043q13.6855 1.25488 22.8096 -12.9717zM342.778 334.322q8.36328 -4.18457 17.8672 -14.6455q9.50391 -10.46 15.5859 -23.8496q6.08301 -13.3896 5.70312 -26.3613q-0.380859 -12.9707 -12.5459 -22.1768l-329.977 -246.871
q-25.0898 -18.4111 -31.9326 -31.8008t-0.760742 -22.5947t22.4297 -14.6455q16.3467 -5.43945 38.0156 -8.36816t46.3789 -2.92871t46.7598 0.836914q22.0488 0.836914 39.5361 2.92871t25.0898 4.60254q22.8096 6.69531 26.9912 -1.25488t-4.18164 -20.085
q-8.36328 -12.1338 -25.8506 -23.8496q-17.4873 -11.7168 -37.2549 -13.3896q-9.88477 -0.836914 -31.5537 -1.67383t-47.8994 0.836914q-26.2314 1.67285 -53.2227 7.11328q-26.9902 5.43945 -47.1387 17.1553t-29.6523 30.5449t-1.14062 47.2822
q0.759766 3.34766 4.18164 10.042q3.4209 6.69531 7.60352 13.8086q4.18164 7.11328 8.36328 12.9707q4.18164 5.8584 5.70215 6.69531l290.44 217.582q6.08203 5.02051 14.8262 17.5732q8.74316 12.5527 12.165 25.1055q3.4209 12.5527 -1.52051 22.1768
q-4.94238 9.62402 -25.4707 7.9502q-9.88477 1.67383 -34.2148 2.0918q-24.3301 0.418945 -51.7012 0.418945t-51.7012 -0.418945q-24.3301 -0.417969 -34.2139 -2.0918q-3.80176 0 -15.9668 -3.34766q-12.165 -3.34668 -28.1318 -7.9502
q-15.9668 -4.60254 -34.5947 -9.62305q-18.627 -5.02148 -34.5938 -9.62402t-28.1318 -8.36914q-12.165 -3.76562 -15.9668 -4.60254h-26.6104q-3.04199 10.8789 -1.14062 25.1055q1.90039 14.2266 14.0654 18.4111q34.2139 10.042 85.5352 23.8506
q51.3213 13.8076 107.585 22.1768q56.2637 8.36816 109.865 6.69434q53.6025 -1.67383 92.3789 -23.4316z" />
    <glyph glyph-name="Agrave" unicode="&#xc0;" horiz-adv-x="764" 
d="M590 61q-1 5 -7.5 18t-10.5 17q-11 4 -40.5 13.5t-62.5 21t-62.5 21.5t-41.5 14q-3 1 -13 6.5t-22 12t-22 11.5t-13 5q-19 0 -36 -23t-34 -57t-36 -72.5t-42 -69.5t-50.5 -48.5t-61.5 -8.5v35q7 9 22.5 28t34 43t39.5 50.5t39.5 50.5t33 43t21.5 29q13 17 4.5 47.5
t-25 65.5t-35.5 70t-27 60t1 36t49 -2q14 -42 39 -86t64 -70q32 21 60.5 57t53 81t45 95.5t37 100t28.5 93.5t20 76q8 14 22.5 22t28.5 13q7 -9 9 -44t2 -85.5t-1.5 -112t-2 -124t0.5 -122t5.5 -105t13.5 -73.5t25 -28h105v-62h-87q-18 0 -14 -22.5t18.5 -57.5t34 -77.5
t33 -81.5t15.5 -71t-18 -45q-4 -2 -17.5 -2t-17.5 2q-5 18 -20 62t-31.5 94t-31.5 94t-21 62zM417 218q6 -3 22.5 -10.5t36 -16t37.5 -15.5t26 -10q2 -1 8 -1t8 1q4 41 0 103t-10.5 127t-13.5 124.5t-10 95.5l-191 -347q4 -3 16.5 -10.5t26 -16t26 -15.5t18.5 -9zM494 1087
q-9 39 -6.5 52.5t13 10.5t27.5 -18t36.5 -32t40.5 -31.5t40 -16.5q2 -24 -6.5 -33t-23 -8t-32.5 9.5t-35.5 20.5t-32 24.5t-21.5 21.5z" />
    <glyph glyph-name="Aacute" unicode="&#xc1;" horiz-adv-x="764" 
d="M614 36q-1 5 -7.5 18t-10.5 17q-11 4 -40.5 13.5t-62.5 21t-62.5 21.5t-41.5 14q-3 1 -13 6.5t-22 12t-22 11.5t-13 5q-19 0 -36 -23t-34 -57t-36 -72.5t-42 -69.5t-50.5 -48.5t-61.5 -8.5v35q7 9 22.5 28t34 43t39.5 50.5t39.5 50.5t33 43t21.5 29q13 17 4.5 47.5
t-25 65.5t-35.5 70t-27 60t1 36t49 -2q14 -42 39 -86t64 -70q32 21 60.5 57t53 81t45 95.5t37 100t28.5 93.5t20 76q8 14 22.5 22t28.5 13q7 -9 9 -44t2 -85.5t-1.5 -112t-2 -124t0.5 -122t5.5 -105t13.5 -73.5t25 -28h105v-62h-87q-18 0 -14 -22.5t18.5 -57.5t34 -77.5
t33 -81.5t15.5 -71t-18 -45q-4 -2 -17.5 -2t-17.5 2q-5 18 -20 62t-31.5 94t-31.5 94t-21 62zM441 193q6 -3 22.5 -10.5t36 -16t37.5 -15.5t26 -10q2 -1 8 -1t8 1q4 41 0 103t-10.5 127t-13.5 124.5t-10 95.5l-191 -347q4 -3 16.5 -10.5t26 -16t26 -15.5t18.5 -9zM422 1109
q-7 12 -13 21.5t0 22t29.5 30.5t75.5 47q19 5 25 -2t1.5 -20t-16.5 -30t-29 -32t-36 -25.5t-37 -11.5z" />
    <glyph glyph-name="Acircumflex" unicode="&#xc2;" horiz-adv-x="764" 
d="M599 112q-1 5 -7.5 18t-10.5 17q-11 4 -40.5 13.5t-62.5 21t-62.5 21.5t-41.5 14q-3 1 -13 6.5t-22 12t-22 11.5t-13 5q-19 0 -36 -23t-34 -57t-36 -72.5t-42 -69.5t-50.5 -48.5t-61.5 -8.5v35q7 9 22.5 28t34 43t39.5 50.5t39.5 50.5t33 43t21.5 29q13 17 4.5 47.5
t-25 65.5t-35.5 70t-27 60t1 36t49 -2q14 -42 39 -86t64 -70q32 21 60.5 57t53 81t45 95.5t37 100t28.5 93.5t20 76q8 14 22.5 22t28.5 13q7 -9 9 -44t2 -85.5t-1.5 -112t-2 -124t0.5 -122t5.5 -105t13.5 -73.5t25 -28h105v-62h-87q-18 0 -14 -22.5t18.5 -57.5t34 -77.5
t33 -81.5t15.5 -71t-18 -45q-4 -2 -17.5 -2t-17.5 2q-5 18 -20 62t-31.5 94t-31.5 94t-21 62zM426 269q6 -3 22.5 -10.5t36 -16t37.5 -15.5t26 -10q2 -1 8 -1t8 1q4 41 0 103t-10.5 127t-13.5 124.5t-10 95.5l-191 -347q4 -3 16.5 -10.5t26 -16t26 -15.5t18.5 -9zM795 1095
q-15 14 -30.5 22t-31 15.5t-33 18t-36 30t-40 51t-45.5 82.5l-204 -231q-13 -3 -20 3t-9.5 16.5t-1 21t4.5 16.5q1 3 0 3t2.5 5t15 18t38.5 42t72.5 77t116.5 123q2 4 8.5 2t8.5 -5q24 -35 36 -61.5t19.5 -46.5t15 -36.5t23 -32t43 -32t76.5 -36.5z" />
    <glyph glyph-name="Atilde" unicode="&#xc3;" horiz-adv-x="764" 
d="M599 58q-1 5 -7.5 18t-10.5 17q-11 4 -40.5 13.5t-62.5 21t-62.5 21.5t-41.5 14q-3 1 -13 6.5t-22 12t-22 11.5t-13 5q-19 0 -36 -23t-34 -57t-36 -72.5t-42 -69.5t-50.5 -48.5t-61.5 -8.5v35q7 9 22.5 28t34 43t39.5 50.5t39.5 50.5t33 43t21.5 29q13 17 4.5 47.5
t-25 65.5t-35.5 70t-27 60t1 36t49 -2q14 -42 39 -86t64 -70q32 21 60.5 57t53 81t45 95.5t37 100t28.5 93.5t20 76q8 14 22.5 22t28.5 13q7 -9 9 -44t2 -85.5t-1.5 -112t-2 -124t0.5 -122t5.5 -105t13.5 -73.5t25 -28h105v-62h-87q-18 0 -14 -22.5t18.5 -57.5t34 -77.5
t33 -81.5t15.5 -71t-18 -45q-4 -2 -17.5 -2t-17.5 2q-5 18 -20 62t-31.5 94t-31.5 94t-21 62zM426 215q6 -3 22.5 -10.5t36 -16t37.5 -15.5t26 -10q2 -1 8 -1t8 1q4 41 0 103t-10.5 127t-13.5 124.5t-10 95.5l-191 -347q4 -3 16.5 -10.5t26 -16t26 -15.5t18.5 -9zM225 1201
q27 53 56.5 74.5t61 23.5t64 -9.5t65.5 -24.5t65.5 -20.5t63.5 1.5q12 9 32.5 29t42.5 41t42 37.5t32 18.5t11.5 -16t-19.5 -66q-29 -30 -60 -54t-63.5 -39.5t-65 -21t-65.5 2.5q-22 6 -51.5 22t-60 25t-60 1.5t-50.5 -48.5z" />
    <glyph glyph-name="Adieresis" unicode="&#xc4;" horiz-adv-x="764" 
d="M592 78q-1 5 -7.5 18t-10.5 17q-11 4 -40.5 13.5t-62.5 21t-62.5 21.5t-41.5 14q-3 1 -13 6.5t-22 12t-22 11.5t-13 5q-19 0 -36 -23t-34 -57t-36 -72.5t-42 -69.5t-50.5 -48.5t-61.5 -8.5v35q7 9 22.5 28t34 43t39.5 50.5t39.5 50.5t33 43t21.5 29q13 17 4.5 47.5
t-25 65.5t-35.5 70t-27 60t1 36t49 -2q14 -42 39 -86t64 -70q32 21 60.5 57t53 81t45 95.5t37 100t28.5 93.5t20 76q8 14 22.5 22t28.5 13q7 -9 9 -44t2 -85.5t-1.5 -112t-2 -124t0.5 -122t5.5 -105t13.5 -73.5t25 -28h105v-62h-87q-18 0 -14 -22.5t18.5 -57.5t34 -77.5
t33 -81.5t15.5 -71t-18 -45q-4 -2 -17.5 -2t-17.5 2q-5 18 -20 62t-31.5 94t-31.5 94t-21 62zM419 235q6 -3 22.5 -10.5t36 -16t37.5 -15.5t26 -10q2 -1 8 -1t8 1q4 41 0 103t-10.5 127t-13.5 124.5t-10 95.5l-191 -347q4 -3 16.5 -10.5t26 -16t26 -15.5t18.5 -9zM403 1178
q-8 11 1 28.5t24.5 29t33.5 11t27 -25.5q10 -27 1.5 -46.5t-25 -27t-35 -0.5t-27.5 31zM570 1194q-9 18 0 36.5t25 27.5t33.5 2.5t25.5 -39.5q6 -24 -2.5 -38.5t-23.5 -18.5t-31.5 3t-26.5 27z" />
    <glyph glyph-name="Aring" unicode="&#xc5;" horiz-adv-x="764" 
d="M592 191q-1 5 -7.5 18t-10.5 17q-11 4 -40.5 13.5t-62.5 21t-62.5 21.5t-41.5 14q-3 1 -13 6.5t-22 12t-22 11.5t-13 5q-19 0 -36 -23t-34 -57t-36 -72.5t-42 -69.5t-50.5 -48.5t-61.5 -8.5v35q7 9 22.5 28t34 43t39.5 50.5t39.5 50.5t33 43t21.5 29q13 17 4.5 47.5
t-25 65.5t-35.5 70t-27 60t1 36t49 -2q14 -42 39 -86t64 -70q32 21 60.5 57t53 81t45 95.5t37 100t28.5 93.5t20 76q8 14 22.5 22t28.5 13q7 -9 9 -44t2 -85.5t-1.5 -112t-2 -124t0.5 -122t5.5 -105t13.5 -73.5t25 -28h105v-62h-87q-18 0 -14 -22.5t18.5 -57.5t34 -77.5
t33 -81.5t15.5 -71t-18 -45q-4 -2 -17.5 -2t-17.5 2q-5 18 -20 62t-31.5 94t-31.5 94t-21 62zM419 348q6 -3 22.5 -10.5t36 -16t37.5 -15.5t26 -10q2 -1 8 -1t8 1q4 41 0 103t-10.5 127t-13.5 124.5t-10 95.5l-191 -347q4 -3 16.5 -10.5t26 -16t26 -15.5t18.5 -9zM484 1099
q-16 9 -27.5 29t-17.5 36q-9 40 -5 87t26 83t63 51t107 -9q28 -10 42 -31t25 -46q16 -51 10.5 -97t-31.5 -76t-74 -39t-118 12zM495 1143q13 -9 30 -14t35 -5.5t34 3.5t27 13q36 60 43 101t-4.5 65.5t-36.5 33t-53.5 3.5t-55 -21.5t-41 -43t-11.5 -61t33 -74.5z" />
    <glyph glyph-name="AE" unicode="&#xc6;" horiz-adv-x="1070" 
d="M581 199q-1 4 -8 17t-10 17q-12 4 -41.5 13.5t-62.5 21t-62.5 21.5t-41.5 14q-3 1 -13 6.5t-21.5 12t-21.5 11.5t-13 5q-19 0 -36 -23t-34 -56.5t-36 -72t-42 -69.5t-50.5 -48.5t-61.5 -9.5v35q7 9 22 28t34 43t39.5 50.5t39 50.5t33.5 43t22 29q13 17 4.5 48t-25.5 66
t-36 70t-27 60t1.5 35.5t48.5 -2.5q7 -21 16.5 -43t22.5 -42.5t29 -39t36 -31.5q32 20 65 52.5t65 72t61 83.5t52.5 87t40 83.5t24.5 72.5q8 14 23 22t28 13q8 -11 7.5 -54.5t-4.5 -110.5t-8 -153t-3 -183l8 111q1 8 1 28v83q0 20 -1 28l18 18l312 104h35q5 -14 1.5 -30
t-19.5 -22l-260 -105l-17 -17q-1 -1 -3.5 -21t-5.5 -47.5t-5.5 -56.5t-3.5 -48q0 -5 -0.5 -17.5t-0.5 -26t0.5 -26t0.5 -17.5l295 156q7 4 10.5 -2t3.5 -16t-3.5 -20t-10.5 -14q-17 -11 -41.5 -25t-51 -29.5t-53 -30.5t-47.5 -27t-34.5 -19.5t-14.5 -7.5h-70v-225
q0 -46 20.5 -59t51.5 -5.5t68 29.5t70 47t56.5 46.5t28.5 27.5q4 25 11 41q6 14 16 20t25 -9q6 -31 -9.5 -67t-44.5 -69.5t-67.5 -62t-79 -45t-79 -18.5t-66.5 18q8 -33 18 -65.5t21 -64.5q-2 -1 -14.5 -1.5t-27 0t-27 1.5t-14.5 2q-4 12 -8 36t-9 55t-10 64.5t-10.5 64.5
t-10 55t-8.5 36zM408 355q6 -3 22.5 -10.5t36 -16t37 -15.5t25.5 -10q2 -1 8.5 -1t8.5 1q4 41 10.5 95t12 109t8.5 106.5t0 87.5l-256 -294q4 -3 16.5 -11t26 -16t26 -15.5t18.5 -9.5z" />
    <glyph glyph-name="Ccedilla" unicode="&#xc7;" horiz-adv-x="634" 
d="M211 -383q-16 12 -26.5 31t-15.5 39.5t-6 40.5t2.5 33t10.5 17.5t17 -5.5q-2 -54 20 -82t53.5 -35t66.5 3.5t60.5 34.5t35 58t-10.5 73q-26 29 -57 37.5t-62.5 13t-61.5 14t-54 41.5q-10 46 -5 75q-21 3 -39 11q-41 16 -66.5 57.5t-36.5 97t-8 120.5t17.5 130t39.5 124
t59 102.5t76.5 66t91.5 14.5q2 -10 7.5 -34.5t11 -52.5t10 -52.5t6.5 -34.5q2 -11 -7 -24t-21.5 -21t-24.5 -7.5t-16 17.5q-3 10 -5 29t-5 40t-8 39.5t-14 26.5t-22.5 2.5t-32.5 -32.5q-6 -8 -14.5 -21.5t-17 -27.5t-14.5 -25t-6 -13l-52 -278q-9 -46 1 -82.5t32 -62t54 -40
t67.5 -16t72 9t68.5 35.5q12 9 31.5 34t41.5 56.5t46 66t45 62t37 44.5t24 15q15 -44 -1.5 -93t-54 -95.5t-90 -86.5t-109.5 -66q-53 -24 -105 -33q4 -17 6 -42q-2 -7 15 -15t43.5 -18.5t58.5 -24.5t59 -32t45 -41.5t17 -53t-25 -65.5t-82 -81q-18 -14 -39.5 -24
t-44.5 -13.5t-46 0.5t-43 19z" />
    <glyph glyph-name="Egrave" unicode="&#xc8;" 
d="M87 17q-39 29 -51.5 69t-18.5 87q2 14 5 44t7 67.5t7.5 79.5t7 79.5t5.5 67.5t3 44q1 8 1 28v83q0 20 -1 28l18 18l312 104h35q5 -14 1.5 -30t-19.5 -22l-260 -105l-17 -17q-1 -1 -3 -21t-5 -47.5t-6 -56.5t-4 -48q0 -5 -0.5 -17.5t-0.5 -26t0.5 -26t0.5 -17.5l295 156
q7 4 10.5 -2t3.5 -16t-3.5 -20t-10.5 -14q-17 -11 -41.5 -25t-51 -29.5t-53 -30.5t-47.5 -27t-34.5 -19.5t-14.5 -7.5h-70v-225q0 -46 20.5 -59t52 -5.5t68.5 29.5t69.5 47t56 46.5t28.5 27.5q4 25 11 41q6 14 16 20t25 -9q6 -31 -9.5 -67t-44.5 -70t-68.5 -62.5t-80 -45
t-78.5 -18t-66 19.5zM214 924q-9 39 -6.5 52.5t13 10.5t27.5 -18t36.5 -32t40.5 -31.5t40 -16.5q2 -24 -6.5 -33t-23 -8t-32.5 9.5t-35.5 20.5t-32 24.5t-21.5 21.5z" />
    <glyph glyph-name="Eacute" unicode="&#xc9;" 
d="M87 17q-39 29 -51.5 69t-18.5 87q2 14 5 44t7 67.5t7.5 79.5t7 79.5t5.5 67.5t3 44q1 8 1 28v83q0 20 -1 28l18 18l312 104h35q5 -14 1.5 -30t-19.5 -22l-260 -105l-17 -17q-1 -1 -3 -21t-5 -47.5t-6 -56.5t-4 -48q0 -5 -0.5 -17.5t-0.5 -26t0.5 -26t0.5 -17.5l295 156
q7 4 10.5 -2t3.5 -16t-3.5 -20t-10.5 -14q-17 -11 -41.5 -25t-51 -29.5t-53 -30.5t-47.5 -27t-34.5 -19.5t-14.5 -7.5h-70v-225q0 -46 20.5 -59t52 -5.5t68.5 29.5t69.5 47t56 46.5t28.5 27.5q4 25 11 41q6 14 16 20t25 -9q6 -31 -9.5 -67t-44.5 -70t-68.5 -62.5t-80 -45
t-78.5 -18t-66 19.5zM181 852q-7 12 -13 21.5t0 22t29.5 30.5t75.5 47q19 5 25 -2t1.5 -20t-16.5 -30t-29 -32t-36 -25.5t-37 -11.5z" />
    <glyph glyph-name="Ecircumflex" unicode="&#xca;" 
d="M87 17q-39 29 -51.5 69t-18.5 87q2 14 5 44t7 67.5t7.5 79.5t7 79.5t5.5 67.5t3 44q1 8 1 28v83q0 20 -1 28l18 18l312 104h35q5 -14 1.5 -30t-19.5 -22l-260 -105l-17 -17q-1 -1 -3 -21t-5 -47.5t-6 -56.5t-4 -48q0 -5 -0.5 -17.5t-0.5 -26t0.5 -26t0.5 -17.5l295 156
q7 4 10.5 -2t3.5 -16t-3.5 -20t-10.5 -14q-17 -11 -41.5 -25t-51 -29.5t-53 -30.5t-47.5 -27t-34.5 -19.5t-14.5 -7.5h-70v-225q0 -46 20.5 -59t52 -5.5t68.5 29.5t69.5 47t56 46.5t28.5 27.5q4 25 11 41q6 14 16 20t25 -9q6 -31 -9.5 -67t-44.5 -70t-68.5 -62.5t-80 -45
t-78.5 -18t-66 19.5zM477 823q-15 14 -30.5 22t-31 15.5t-33 18t-36 30t-40 51t-45.5 82.5l-204 -231q-13 -3 -20 3t-9.5 16.5t-1 21t4.5 16.5q1 3 0 3t2.5 5t15 18t38.5 42t72.5 77t116.5 123q2 4 8.5 2t8.5 -5q24 -35 36 -61.5t19.5 -46.5t15 -36.5t23 -32t43 -32
t76.5 -36.5z" />
    <glyph glyph-name="Edieresis" unicode="&#xcb;" 
d="M87 17q-39 29 -51.5 69t-18.5 87q2 14 5 44t7 67.5t7.5 79.5t7 79.5t5.5 67.5t3 44q1 8 1 28v83q0 20 -1 28l18 18l312 104h35q5 -14 1.5 -30t-19.5 -22l-260 -105l-17 -17q-1 -1 -3 -21t-5 -47.5t-6 -56.5t-4 -48q0 -5 -0.5 -17.5t-0.5 -26t0.5 -26t0.5 -17.5l295 156
q7 4 10.5 -2t3.5 -16t-3.5 -20t-10.5 -14q-17 -11 -41.5 -25t-51 -29.5t-53 -30.5t-47.5 -27t-34.5 -19.5t-14.5 -7.5h-70v-225q0 -46 20.5 -59t52 -5.5t68.5 29.5t69.5 47t56 46.5t28.5 27.5q4 25 11 41q6 14 16 20t25 -9q6 -31 -9.5 -67t-44.5 -70t-68.5 -62.5t-80 -45
t-78.5 -18t-66 19.5zM82 878q-8 11 1 28.5t24.5 29t33.5 11t27 -25.5q10 -27 1.5 -46.5t-25 -27t-35 -0.5t-27.5 31zM249 894q-9 18 0 36.5t25 27.5t33.5 2.5t25.5 -39.5q6 -24 -2.5 -38.5t-23.5 -18.5t-31.5 3t-26.5 27z" />
    <glyph glyph-name="Igrave" unicode="&#xcc;" horiz-adv-x="807" 
d="M8 -93q-4 7 0 15.5t10.5 16t14 13t10.5 7.5l260 103l18 18q-1 17 -1.5 52.5t-0.5 79.5v187q0 45 0.5 80t1.5 52q0 6 2.5 21t5 32t5 31.5t4.5 20.5h-225q-13 0 -16.5 7t-1.5 16t7.5 17.5t10.5 11.5q122 -9 242 18q21 48 58 74t82 35t93.5 3.5t91 -19.5t75 -34t45.5 -40.5
t3 -38t-52.5 -27t-121.5 -8t-204 19.5q-25 -36 -38.5 -82t-18 -97t-2 -104.5t9 -105t15.5 -99t17 -86.5q30 -6 60.5 -1.5t61 14.5t60.5 22.5t60.5 22.5t60.5 14.5t61 -2.5q5 -13 2 -30t-19 -22q-81 -15 -175.5 -35.5t-192 -48.5t-190.5 -63t-171 -79zM425 723
q112 -21 178.5 -26t97.5 -0.5t32 16t-19 23.5t-55 21.5t-76 11t-83 -8.5t-75 -37zM394 1049q-9 39 -6.5 52.5t13 10.5t27.5 -18t36.5 -32t40.5 -31.5t40 -16.5q2 -24 -6.5 -33t-23 -8t-32.5 9.5t-35.5 20.5t-32 24.5t-21.5 21.5z" />
    <glyph glyph-name="Iacute" unicode="&#xcd;" horiz-adv-x="807" 
d="M8 -93q-4 7 0 15.5t10.5 16t14 13t10.5 7.5l260 103l18 18q-1 17 -1.5 52.5t-0.5 79.5v187q0 45 0.5 80t1.5 52q0 6 2.5 21t5 32t5 31.5t4.5 20.5h-225q-13 0 -16.5 7t-1.5 16t7.5 17.5t10.5 11.5q122 -9 242 18q21 48 58 74t82 35t93.5 3.5t91 -19.5t75 -34t45.5 -40.5
t3 -38t-52.5 -27t-121.5 -8t-204 19.5q-25 -36 -38.5 -82t-18 -97t-2 -104.5t9 -105t15.5 -99t17 -86.5q30 -6 60.5 -1.5t61 14.5t60.5 22.5t60.5 22.5t60.5 14.5t61 -2.5q5 -13 2 -30t-19 -22q-81 -15 -175.5 -35.5t-192 -48.5t-190.5 -63t-171 -79zM425 723
q112 -21 178.5 -26t97.5 -0.5t32 16t-19 23.5t-55 21.5t-76 11t-83 -8.5t-75 -37zM346 887q-7 12 -13 21.5t0 22t29.5 30.5t75.5 47q19 5 25 -2t1.5 -20t-16.5 -30t-29 -32t-36 -25.5t-37 -11.5z" />
    <glyph glyph-name="Icircumflex" unicode="&#xce;" horiz-adv-x="807" 
d="M8 -93q-4 7 0 15.5t10.5 16t14 13t10.5 7.5l260 103l18 18q-1 17 -1.5 52.5t-0.5 79.5v187q0 45 0.5 80t1.5 52q0 6 2.5 21t5 32t5 31.5t4.5 20.5h-225q-13 0 -16.5 7t-1.5 16t7.5 17.5t10.5 11.5q122 -9 242 18q21 48 58 74t82 35t93.5 3.5t91 -19.5t75 -34t45.5 -40.5
t3 -38t-52.5 -27t-121.5 -8t-204 19.5q-25 -36 -38.5 -82t-18 -97t-2 -104.5t9 -105t15.5 -99t17 -86.5q30 -6 60.5 -1.5t61 14.5t60.5 22.5t60.5 22.5t60.5 14.5t61 -2.5q5 -13 2 -30t-19 -22q-81 -15 -175.5 -35.5t-192 -48.5t-190.5 -63t-171 -79zM425 723
q112 -21 178.5 -26t97.5 -0.5t32 16t-19 23.5t-55 21.5t-76 11t-83 -8.5t-75 -37zM676 841q-15 14 -30.5 22t-31 15.5t-33 18t-36 30t-40 51t-45.5 82.5l-204 -231q-13 -3 -20 3t-9.5 16.5t-1 21t4.5 16.5q1 3 0 3t2.5 5t15 18t38.5 42t72.5 77t116.5 123q2 4 8.5 2t8.5 -5
q24 -35 36 -61.5t19.5 -46.5t15 -36.5t23 -32t43 -32t76.5 -36.5z" />
    <glyph glyph-name="Idieresis" unicode="&#xcf;" horiz-adv-x="807" 
d="M8 -93q-4 7 0 15.5t10.5 16t14 13t10.5 7.5l260 103l18 18q-1 17 -1.5 52.5t-0.5 79.5v187q0 45 0.5 80t1.5 52q0 6 2.5 21t5 32t5 31.5t4.5 20.5h-225q-13 0 -16.5 7t-1.5 16t7.5 17.5t10.5 11.5q122 -9 242 18q21 48 58 74t82 35t93.5 3.5t91 -19.5t75 -34t45.5 -40.5
t3 -38t-52.5 -27t-121.5 -8t-204 19.5q-25 -36 -38.5 -82t-18 -97t-2 -104.5t9 -105t15.5 -99t17 -86.5q30 -6 60.5 -1.5t61 14.5t60.5 22.5t60.5 22.5t60.5 14.5t61 -2.5q5 -13 2 -30t-19 -22q-81 -15 -175.5 -35.5t-192 -48.5t-190.5 -63t-171 -79zM425 723
q112 -21 178.5 -26t97.5 -0.5t32 16t-19 23.5t-55 21.5t-76 11t-83 -8.5t-75 -37zM272 941q-8 11 1 28.5t24.5 29t33.5 11t27 -25.5q10 -27 1.5 -46.5t-25 -27t-35 -0.5t-27.5 31zM439 957q-9 18 0 36.5t25 27.5t33.5 2.5t25.5 -39.5q6 -24 -2.5 -38.5t-23.5 -18.5t-31.5 3
t-26.5 27z" />
    <glyph glyph-name="Eth" unicode="&#xd0;" horiz-adv-x="702" 
d="M65 248q-5 8 -2 14.5t9 10.5t13.5 6.5t13.5 3.5q21 4 69.5 13t103.5 19h3v144q0 29 -0.5 51t-0.5 32q0 4 -2.5 14t-5 21t-5.5 20.5t-4 13.5q-35 3 -71 -4t-71.5 -16t-69.5 -14.5t-65 0.5q-9 17 15 34.5t68.5 31t104.5 21.5t124 7t126.5 -13.5t111.5 -40t79 -71.5t30 -109
q0 -23 -8 -49t-20.5 -52t-28 -49.5t-30.5 -39.5q-7 -8 -23.5 -24.5t-37 -37.5t-43.5 -44l-43 -43q-20 -20 -36.5 -36t-24.5 -24q-3 -24 -8 -44t-15 -31t-25.5 -10.5t-38.5 16.5q-22 -15 -46.5 -42.5t-50.5 -53t-54 -40.5t-57 -3v35l208 173q1 1 4 25.5t5.5 57.5t4.5 68t3 58
v11l-52 -12q-39 -9 -71.5 -13.5t-55.5 -2t-30 17.5zM344 108q63 26 111 76.5t76.5 110.5t35 121.5t-14.5 108.5t-72 72.5t-136 13.5v-284q16 4 31 6q49 9 70 13q23 4 29.5 -4t3 -21t-13.5 -26t-19 -19q-29 4 -67 -1q-17 -2 -34 -5v-162z" />
    <glyph glyph-name="Ntilde" unicode="&#xd1;" horiz-adv-x="599" 
d="M35 17q-14 152 -18.5 304t0.5 304q2 5 8.5 18.5t16 25t21.5 16t24 -7.5l87 -87l243 -400l5 -7q6 -7 14 -14.5t16.5 -12t16.5 0.5q-1 16 -4 50t-6.5 76.5t-7.5 89.5t-7.5 90t-6 77t-3.5 50q-1 13 -1 43.5t3.5 68.5t11 78t21.5 70.5t35 46t51 5.5q4 0 10.5 -6.5t6.5 -10.5
q-7 -9 -17 -21.5t-19.5 -26.5t-18.5 -28.5t-13 -27.5q-1 -13 -1 -40t-0.5 -61.5t0 -72t0.5 -72.5v-61q0 -27 1 -40q0 -8 2.5 -38.5t5.5 -65.5t6 -66t3 -39q0 -10 0.5 -31t0.5 -43t-0.5 -40.5t-0.5 -23.5q-1 -5 -5 -15t-11 -18t-16 -10.5t-20 8.5l-122 121l-225 365l-27 17
v-538q0 -14 -8.5 -17.5t-19 -1t-20.5 8t-12 10.5zM5 933q27 53 56.5 74.5t61 23.5t64 -9.5t65.5 -24.5t65.5 -20.5t63.5 1.5q12 9 32.5 29t42.5 41t42 37.5t32 18.5t11.5 -16t-19.5 -66q-29 -30 -60 -54t-63.5 -39.5t-65 -21t-65.5 2.5q-22 6 -51.5 22t-60 25t-60 1.5
t-50.5 -48.5z" />
    <glyph glyph-name="Ograve" unicode="&#xd2;" 
d="M95 35q-50 50 -62.5 111t-6 125.5t24 128.5t27.5 120q4 22 6 53t5 65t8 67t16 59q1 2 7 8.5t10 8.5q69 41 124 31.5t95 -54t64.5 -116t32.5 -153t-0.5 -165t-34.5 -153t-70.5 -116.5t-107.5 -55q-24 -3 -42 -4t-34 2t-30.5 11.5t-31.5 25.5zM147 70q50 -34 88.5 -29.5
t66.5 35.5t46 83t27.5 113.5t10.5 127.5t-4 124t-16.5 103.5t-27.5 66.5q-37 49 -64.5 65t-48 9.5t-34 -32t-21 -61t-10 -76t-0.5 -77t8 -65.5t14 -40q3 -4 15 -13t27 -20.5t29.5 -25.5t23 -28.5t8 -27.5t-16.5 -24q-13 -9 -28.5 -5t-31.5 15t-31 28t-28 33t-22.5 30
t-13.5 20l-18 -34v-208q0 -6 5 -18t12.5 -25.5t16.5 -25.5t18 -18zM214 924q-9 39 -6.5 52.5t13 10.5t27.5 -18t36.5 -32t40.5 -31.5t40 -16.5q2 -24 -6.5 -33t-23 -8t-32.5 9.5t-35.5 20.5t-32 24.5t-21.5 21.5z" />
    <glyph glyph-name="Oacute" unicode="&#xd3;" 
d="M95 35q-50 50 -62.5 111t-6 125.5t24 128.5t27.5 120q4 22 6 53t5 65t8 67t16 59q1 2 7 8.5t10 8.5q69 41 124 31.5t95 -54t64.5 -116t32.5 -153t-0.5 -165t-34.5 -153t-70.5 -116.5t-107.5 -55q-24 -3 -42 -4t-34 2t-30.5 11.5t-31.5 25.5zM147 70q50 -34 88.5 -29.5
t66.5 35.5t46 83t27.5 113.5t10.5 127.5t-4 124t-16.5 103.5t-27.5 66.5q-37 49 -64.5 65t-48 9.5t-34 -32t-21 -61t-10 -76t-0.5 -77t8 -65.5t14 -40q3 -4 15 -13t27 -20.5t29.5 -25.5t23 -28.5t8 -27.5t-16.5 -24q-13 -9 -28.5 -5t-31.5 15t-31 28t-28 33t-22.5 30
t-13.5 20l-18 -34v-208q0 -6 5 -18t12.5 -25.5t16.5 -25.5t18 -18zM181 852q-7 12 -13 21.5t0 22t29.5 30.5t75.5 47q19 5 25 -2t1.5 -20t-16.5 -30t-29 -32t-36 -25.5t-37 -11.5z" />
    <glyph glyph-name="Ocircumflex" unicode="&#xd4;" 
d="M95 35q-50 50 -62.5 111t-6 125.5t24 128.5t27.5 120q4 22 6 53t5 65t8 67t16 59q1 2 7 8.5t10 8.5q69 41 124 31.5t95 -54t64.5 -116t32.5 -153t-0.5 -165t-34.5 -153t-70.5 -116.5t-107.5 -55q-24 -3 -42 -4t-34 2t-30.5 11.5t-31.5 25.5zM147 70q50 -34 88.5 -29.5
t66.5 35.5t46 83t27.5 113.5t10.5 127.5t-4 124t-16.5 103.5t-27.5 66.5q-37 49 -64.5 65t-48 9.5t-34 -32t-21 -61t-10 -76t-0.5 -77t8 -65.5t14 -40q3 -4 15 -13t27 -20.5t29.5 -25.5t23 -28.5t8 -27.5t-16.5 -24q-13 -9 -28.5 -5t-31.5 15t-31 28t-28 33t-22.5 30
t-13.5 20l-18 -34v-208q0 -6 5 -18t12.5 -25.5t16.5 -25.5t18 -18zM470 771q-15 14 -30.5 22t-31 15.5t-33 18t-36 30t-40 51t-45.5 82.5l-204 -231q-13 -3 -20 3t-9.5 16.5t-1 21t4.5 16.5q1 3 0 3t2.5 5t15 18t38.5 42t72.5 77t116.5 123q2 4 8.5 2t8.5 -5
q24 -35 36 -61.5t19.5 -46.5t15 -36.5t23 -32t43 -32t76.5 -36.5z" />
    <glyph glyph-name="Otilde" unicode="&#xd5;" 
d="M95 35q-50 50 -62.5 111t-6 125.5t24 128.5t27.5 120q4 22 6 53t5 65t8 67t16 59q1 2 7 8.5t10 8.5q69 41 124 31.5t95 -54t64.5 -116t32.5 -153t-0.5 -165t-34.5 -153t-70.5 -116.5t-107.5 -55q-24 -3 -42 -4t-34 2t-30.5 11.5t-31.5 25.5zM147 70q50 -34 88.5 -29.5
t66.5 35.5t46 83t27.5 113.5t10.5 127.5t-4 124t-16.5 103.5t-27.5 66.5q-37 49 -64.5 65t-48 9.5t-34 -32t-21 -61t-10 -76t-0.5 -77t8 -65.5t14 -40q3 -4 15 -13t27 -20.5t29.5 -25.5t23 -28.5t8 -27.5t-16.5 -24q-13 -9 -28.5 -5t-31.5 15t-31 28t-28 33t-22.5 30
t-13.5 20l-18 -34v-208q0 -6 5 -18t12.5 -25.5t16.5 -25.5t18 -18zM-55 933q27 53 56.5 74.5t61 23.5t64 -9.5t65.5 -24.5t65.5 -20.5t63.5 1.5q12 9 32.5 29t42.5 41t42 37.5t32 18.5t11.5 -16t-19.5 -66q-29 -30 -60 -54t-63.5 -39.5t-65 -21t-65.5 2.5q-22 6 -51.5 22
t-60 25t-60 1.5t-50.5 -48.5z" />
    <glyph glyph-name="Odieresis" unicode="&#xd6;" 
d="M95 35q-50 50 -62.5 111t-6 125.5t24 128.5t27.5 120q4 22 6 53t5 65t8 67t16 59q1 2 7 8.5t10 8.5q69 41 124 31.5t95 -54t64.5 -116t32.5 -153t-0.5 -165t-34.5 -153t-70.5 -116.5t-107.5 -55q-24 -3 -42 -4t-34 2t-30.5 11.5t-31.5 25.5zM147 70q50 -34 88.5 -29.5
t66.5 35.5t46 83t27.5 113.5t10.5 127.5t-4 124t-16.5 103.5t-27.5 66.5q-37 49 -64.5 65t-48 9.5t-34 -32t-21 -61t-10 -76t-0.5 -77t8 -65.5t14 -40q3 -4 15 -13t27 -20.5t29.5 -25.5t23 -28.5t8 -27.5t-16.5 -24q-13 -9 -28.5 -5t-31.5 15t-31 28t-28 33t-22.5 30
t-13.5 20l-18 -34v-208q0 -6 5 -18t12.5 -25.5t16.5 -25.5t18 -18zM82 860q-8 11 1 28.5t24.5 29t33.5 11t27 -25.5q10 -27 1.5 -46.5t-25 -27t-35 -0.5t-27.5 31zM249 876q-9 18 0 36.5t25 27.5t33.5 2.5t25.5 -39.5q6 -24 -2.5 -38.5t-23.5 -18.5t-31.5 3t-26.5 27z" />
    <glyph glyph-name="multiply" unicode="&#xd7;" horiz-adv-x="590" 
d="M516 234q-34 -36 -70 -49t-70 -14t-64.5 6.5t-55 13t-41 4t-21.5 -18.5q-39 -40 -57.5 -64t-24.5 -36q-4 -9 -5 -12q-4 3 -23 3q-2 0 -10 6.5t-7 10.5q7 40 21.5 63.5t31 38.5t32.5 24.5t25.5 22t10.5 31t-12 51.5q-2 10 -13 29t-24 40t-24 40.5t-13 28.5l38 65
q7 -21 16.5 -35t21 -26t25 -25.5t28.5 -32.5q34 55 69 91.5t69 59t66.5 32t61.5 9.5l-19 -41q-40 -2 -95 -47.5t-121 -152.5q-19 -46 -2 -78t55 -44q30 -10 62 -9t59 9q20 5 33.5 19.5t26.5 28.5z" />
    <glyph glyph-name="Oslash" unicode="&#xd8;" 
d="M40 -61q-2 2 -2 8.5t2 8.5l9 38q7 26 15 58l4 14q-27 37 -36 80q-12 61 -5.5 125.5t24 128.5t27.5 120q4 22 6 53t5 65t8 67t16 59q1 2 7 8.5t10 8.5q69 41 124 31.5t95 -54.5q9 -10 17 -21q7 7 15 17q19 21 38.5 40t35 33t19.5 14h35v-35q-9 -9 -31.5 -33.5t-47.5 -52.5
q-17 -19 -33 -36q9 -20 16 -42q25 -71 33 -152.5t-0.5 -165t-34.5 -153t-70.5 -116.5t-107.5 -55q-24 -3 -42 -4t-34 2t-31 11q-4 3 -9 6v-6q0 -31 -7.5 -59t-34.5 -46q-2 1 -7.5 6t-11 10.5t-10.5 11t-6 7.5zM147 70q50 -34 88.5 -29.5t66.5 35.5t46 83t27.5 113.5
t10.5 127.5t-4 124t-17 103q-2 9 -4 16q-5 -6 -8 -10q-3 -3 -8 -10t-10.5 -15.5t-10.5 -16t-6 -10.5q-7 -17 -22.5 -52t-34.5 -80q-15 -34 -31 -71q12 -9 23 -20q15 -14 23.5 -28.5t8 -27.5t-16.5 -24q-13 -9 -28.5 -5t-31.5 15l-12 8l-14 -34q-19 -45 -33.5 -80.5
t-21.5 -52.5q-6 -13 -8 -27l10 -14q9 -12 18 -18zM273 759q-27 16 -47.5 9.5t-34 -32t-21 -61t-10 -76t-0.5 -77t8 -65.5q5 -24 11 -36q20 46 44 91q30 56 63 108q25 40 50 76q-36 47 -63 63zM126 379q-9 14 -13 20l-18 -34v-194l5 18q9 33 16 59t11 38q10 31 22 63
q-13 16 -23 30z" />
    <glyph glyph-name="Ugrave" unicode="&#xd9;" horiz-adv-x="622" 
d="M60 35q-14 18 -21.5 44.5t-11 55.5t-3.5 57.5t2 50.5q1 15 3.5 48t6 74t7 86t7 86t6 73.5t4.5 48.5q5 9 14.5 16t20.5 2q14 -8 18.5 -21t4.5 -28.5t-2.5 -30.5t-2.5 -25q-3 -52 -13 -115.5t-15.5 -129.5t-1 -128.5t29.5 -111.5q14 -28 34 -26.5t42.5 20.5t45.5 50
t41.5 63.5t30.5 60t14 40.5v19q0 15 -0.5 33t-0.5 33t1 19q1 15 6 52t10 78.5t10 78.5t8 51q5 16 22 19t31 -1q3 -57 -2.5 -113.5t-11.5 -113t-9 -113t5 -112.5q8 -51 25.5 -77t40.5 -33.5t50.5 0t55.5 23t54.5 35t48 36t36 27t19.5 7.5q9 -28 -9.5 -59.5t-53 -58t-80.5 -43
t-91.5 -15t-85 25.5t-62.5 80q-16 -13 -35.5 -37t-41.5 -50t-46.5 -49.5t-50 -34.5t-52 -5t-52.5 38zM286 924q-9 39 -6.5 52.5t13 10.5t27.5 -18t36.5 -32t40.5 -31.5t40 -16.5q2 -24 -6.5 -33t-23 -8t-32.5 9.5t-35.5 20.5t-32 24.5t-21.5 21.5z" />
    <glyph glyph-name="Uacute" unicode="&#xda;" horiz-adv-x="622" 
d="M60 35q-14 18 -21.5 44.5t-11 55.5t-3.5 57.5t2 50.5q1 15 3.5 48t6 74t7 86t7 86t6 73.5t4.5 48.5q5 9 14.5 16t20.5 2q14 -8 18.5 -21t4.5 -28.5t-2.5 -30.5t-2.5 -25q-3 -52 -13 -115.5t-15.5 -129.5t-1 -128.5t29.5 -111.5q14 -28 34 -26.5t42.5 20.5t45.5 50
t41.5 63.5t30.5 60t14 40.5v19q0 15 -0.5 33t-0.5 33t1 19q1 15 6 52t10 78.5t10 78.5t8 51q5 16 22 19t31 -1q3 -57 -2.5 -113.5t-11.5 -113t-9 -113t5 -112.5q8 -51 25.5 -77t40.5 -33.5t50.5 0t55.5 23t54.5 35t48 36t36 27t19.5 7.5q9 -28 -9.5 -59.5t-53 -58t-80.5 -43
t-91.5 -15t-85 25.5t-62.5 80q-16 -13 -35.5 -37t-41.5 -50t-46.5 -49.5t-50 -34.5t-52 -5t-52.5 38zM253 852q-7 12 -13 21.5t0 22t29.5 30.5t75.5 47q19 5 25 -2t1.5 -20t-16.5 -30t-29 -32t-36 -25.5t-37 -11.5z" />
    <glyph glyph-name="Ucircumflex" unicode="&#xdb;" horiz-adv-x="622" 
d="M60 35q-14 18 -21.5 44.5t-11 55.5t-3.5 57.5t2 50.5q1 15 3.5 48t6 74t7 86t7 86t6 73.5t4.5 48.5q5 9 14.5 16t20.5 2q14 -8 18.5 -21t4.5 -28.5t-2.5 -30.5t-2.5 -25q-3 -52 -13 -115.5t-15.5 -129.5t-1 -128.5t29.5 -111.5q14 -28 34 -26.5t42.5 20.5t45.5 50
t41.5 63.5t30.5 60t14 40.5v19q0 15 -0.5 33t-0.5 33t1 19q1 15 6 52t10 78.5t10 78.5t8 51q5 16 22 19t31 -1q3 -57 -2.5 -113.5t-11.5 -113t-9 -113t5 -112.5q8 -51 25.5 -77t40.5 -33.5t50.5 0t55.5 23t54.5 35t48 36t36 27t19.5 7.5q9 -28 -9.5 -59.5t-53 -58t-80.5 -43
t-91.5 -15t-85 25.5t-62.5 80q-16 -13 -35.5 -37t-41.5 -50t-46.5 -49.5t-50 -34.5t-52 -5t-52.5 38zM541 771q-15 14 -30.5 22t-31 15.5t-33 18t-36 30t-40 51t-45.5 82.5l-204 -231q-13 -3 -20 3t-9.5 16.5t-1 21t4.5 16.5q1 3 0 3t2.5 5t15 18t38.5 42t72.5 77t116.5 123
q2 4 8.5 2t8.5 -5q24 -35 36 -61.5t19.5 -46.5t15 -36.5t23 -32t43 -32t76.5 -36.5z" />
    <glyph glyph-name="Udieresis" unicode="&#xdc;" horiz-adv-x="622" 
d="M60 35q-14 18 -21.5 44.5t-11 55.5t-3.5 57.5t2 50.5q1 15 3.5 48t6 74t7 86t7 86t6 73.5t4.5 48.5q5 9 14.5 16t20.5 2q14 -8 18.5 -21t4.5 -28.5t-2.5 -30.5t-2.5 -25q-3 -52 -13 -115.5t-15.5 -129.5t-1 -128.5t29.5 -111.5q14 -28 34 -26.5t42.5 20.5t45.5 50
t41.5 63.5t30.5 60t14 40.5v19q0 15 -0.5 33t-0.5 33t1 19q1 15 6 52t10 78.5t10 78.5t8 51q5 16 22 19t31 -1q3 -57 -2.5 -113.5t-11.5 -113t-9 -113t5 -112.5q8 -51 25.5 -77t40.5 -33.5t50.5 0t55.5 23t54.5 35t48 36t36 27t19.5 7.5q9 -28 -9.5 -59.5t-53 -58t-80.5 -43
t-91.5 -15t-85 25.5t-62.5 80q-16 -13 -35.5 -37t-41.5 -50t-46.5 -49.5t-50 -34.5t-52 -5t-52.5 38zM151 763q-8 11 1 28.5t24.5 29t33.5 11t27 -25.5q10 -27 1.5 -46.5t-25 -27t-35 -0.5t-27.5 31zM318 779q-9 18 0 36.5t25 27.5t33.5 2.5t25.5 -39.5q6 -24 -2.5 -38.5
t-23.5 -18.5t-31.5 3t-26.5 27z" />
    <glyph glyph-name="Yacute" unicode="&#xdd;" horiz-adv-x="612" 
d="M190 -252q-24 31 -29 72.5t2.5 87.5t25 93.5t38.5 91t44 80t41 60.5q43 57 70 98t36.5 81.5t1 87t-37.5 115.5q-32 -136 -79 -237t-95.5 -160t-93 -72t-72 26.5t-32.5 135.5t25 256q5 16 22 18.5t30 -1.5v-330q0 -43 12.5 -52.5t31 2t40 37.5t41 54t33 51t15.5 30
q5 14 13.5 43.5t19 67t22 79t21.5 79.5t17.5 68t11.5 45q3 7 10.5 12t16 6t15.5 -3t10 -15l69 -330q2 -7 15.5 -3t33.5 14.5t43 24.5t43.5 28t36 25t19.5 15q32 -5 33 -18.5t-16 -32.5t-47 -40.5t-59.5 -41t-53.5 -35.5t-30 -23q0 -10 -1 -30t-2.5 -46t-3.5 -54t-4 -54
t-4 -46l-3 -30q-2 -13 -9.5 -42t-20.5 -65.5t-30.5 -77t-38 -76.5t-44 -64.5t-49 -41t-52 -5.5t-52.5 42zM243 -217q15 -22 33 -16t37 29t37 56.5t32.5 66t23.5 58t11 31.5q14 67 17.5 139t-0.5 139q-28 -24 -60 -60.5t-61.5 -80t-53.5 -91.5t-36 -95.5t-8.5 -92.5t28.5 -83
zM169 748q-7 12 -13 21.5t0 22t29.5 30.5t75.5 47q19 5 25 -2t1.5 -20t-16.5 -30t-29 -32t-36 -25.5t-37 -11.5z" />
    <glyph glyph-name="Thorn" unicode="&#xde;" horiz-adv-x="557" 
d="M164 139q-5 15 7 32t33.5 34.5t49 35.5t53 35t45.5 32.5t27 29.5q48 92 51.5 151.5t-27.5 72.5t-91 -27.5t-138 -148.5q-5 -24 -11 -59.5t-6 -80.5q0 -57 -4.5 -114t-12 -106.5t-16.5 -86.5t-17 -54.5t-14.5 -11.5t-8.5 43.5t2 111t15 189.5q0 7 0.5 24.5t0.5 37
t-0.5 36.5t-0.5 23q-3 68 -6.5 133t-8 129t-9.5 128t-10 131q-3 29 1 39t11.5 6.5t17 -18.5t18 -36t14.5 -46t7 -49q0 -12 1.5 -38t3.5 -58.5t4 -68.5t3.5 -68.5t3 -58.5t2.5 -38q22 16 37.5 39.5t30 48t30.5 47.5t40 39q64 40 106 43.5t64.5 -19t26.5 -64.5t-8 -93.5
t-38.5 -107t-65 -104t-88.5 -84.5t-109 -48l-9 8q-6 7 -7 9z" />
    <glyph glyph-name="germandbls" unicode="&#xdf;" horiz-adv-x="620" 
d="M135 395l-52 -575q-1 -9 -9.5 -13.5t-18 -4.5t-17 4.5t-7.5 13.5l17 507v103l18 226q-40 50 -43.5 88t18 65t62.5 42t89.5 19.5t98 -2t89.5 -23.5t63.5 -44t19.5 -64t-42 -83.5t-122 -102.5q49 9 90 8.5t73 -17.5t55 -55.5t35 -107.5q13 -60 5 -104.5t-30.5 -77
t-57 -55.5t-75 -40t-84.5 -31t-85 -29q-10 -5 -20 1.5t-15 15.5q-2 6 -2 19t2 16q1 1 5.5 3.5t10 5.5t11 5.5t8.5 3.5q100 9 162 33.5t94.5 58t38.5 71.5t-7.5 73.5t-43.5 64.5t-68.5 44t-82.5 12.5t-87 -30.5l16 160q72 36 108 73t42.5 68.5t-12.5 54t-57.5 28t-92.5 -8
t-117 -54.5l11 -51z" />
    <glyph glyph-name="agrave" unicode="&#xe0;" horiz-adv-x="507" 
d="M43 17q-20 42 -21.5 85t4.5 88q1 14 5 42t9 62t11 72t11 72t9.5 60.5t6.5 39.5q8 42 17.5 71.5t26 45.5t43 17t68.5 -13q5 -1 11 -7.5t7 -9.5q2 -13 7.5 -40t12.5 -61.5t14.5 -72t14.5 -72t12.5 -61.5t8.5 -40q15 -71 37 -98.5t47 -28.5t51.5 16.5t52.5 37t49 33.5t40 5
q0 -19 -9 -37t-21.5 -33.5t-27.5 -28.5t-28 -22q-56 -37 -93.5 -39t-63.5 17t-42 52t-28.5 67t-24 60.5t-27.5 33.5q-3 -13 -12.5 -45t-20.5 -68t-21 -68t-14 -45q-2 -5 -8.5 -19t-16.5 -30.5t-22.5 -32t-25.5 -24t-26 -5.5t-23 24zM95 312q-2 -12 -2.5 -44t-0.5 -68
t0.5 -68t2.5 -45q35 53 63 123.5t42.5 146t11.5 150t-30 135.5q-17 -31 -32 -78t-26 -95.5t-18.5 -91t-10.5 -65.5zM121 813q-9 39 -6.5 52.5t13 10.5t27.5 -18t36.5 -32t40.5 -31.5t40 -16.5q2 -24 -6.5 -33t-23 -8t-32.5 9.5t-35.5 20.5t-32 24.5t-21.5 21.5z" />
    <glyph glyph-name="aacute" unicode="&#xe1;" horiz-adv-x="507" 
d="M43 17q-20 42 -21.5 85t4.5 88q1 14 5 42t9 62t11 72t11 72t9.5 60.5t6.5 39.5q8 42 17.5 71.5t26 45.5t43 17t68.5 -13q5 -1 11 -7.5t7 -9.5q2 -13 7.5 -40t12.5 -61.5t14.5 -72t14.5 -72t12.5 -61.5t8.5 -40q15 -71 37 -98.5t47 -28.5t51.5 16.5t52.5 37t49 33.5t40 5
q0 -19 -9 -37t-21.5 -33.5t-27.5 -28.5t-28 -22q-56 -37 -93.5 -39t-63.5 17t-42 52t-28.5 67t-24 60.5t-27.5 33.5q-3 -13 -12.5 -45t-20.5 -68t-21 -68t-14 -45q-2 -5 -8.5 -19t-16.5 -30.5t-22.5 -32t-25.5 -24t-26 -5.5t-23 24zM95 312q-2 -12 -2.5 -44t-0.5 -68
t0.5 -68t2.5 -45q35 53 63 123.5t42.5 146t11.5 150t-30 135.5q-17 -31 -32 -78t-26 -95.5t-18.5 -91t-10.5 -65.5zM136 717q-7 12 -13 21.5t0 22t29.5 30.5t75.5 47q19 5 25 -2t1.5 -20t-16.5 -30t-29 -32t-36 -25.5t-37 -11.5z" />
    <glyph glyph-name="acircumflex" unicode="&#xe2;" horiz-adv-x="507" 
d="M43 17q-20 42 -21.5 85t4.5 88q1 14 5 42t9 62t11 72t11 72t9.5 60.5t6.5 39.5q8 42 17.5 71.5t26 45.5t43 17t68.5 -13q5 -1 11 -7.5t7 -9.5q2 -13 7.5 -40t12.5 -61.5t14.5 -72t14.5 -72t12.5 -61.5t8.5 -40q15 -71 37 -98.5t47 -28.5t51.5 16.5t52.5 37t49 33.5t40 5
q0 -19 -9 -37t-21.5 -33.5t-27.5 -28.5t-28 -22q-56 -37 -93.5 -39t-63.5 17t-42 52t-28.5 67t-24 60.5t-27.5 33.5q-3 -13 -12.5 -45t-20.5 -68t-21 -68t-14 -45q-2 -5 -8.5 -19t-16.5 -30.5t-22.5 -32t-25.5 -24t-26 -5.5t-23 24zM95 312q-2 -12 -2.5 -44t-0.5 -68
t0.5 -68t2.5 -45q35 53 63 123.5t42.5 146t11.5 150t-30 135.5q-17 -31 -32 -78t-26 -95.5t-18.5 -91t-10.5 -65.5zM449 636q-15 14 -30.5 22t-31 15.5t-33 18t-36 30t-40 51t-45.5 82.5l-204 -231q-13 -3 -20 3t-9.5 16.5t-1 21t4.5 16.5q1 3 0 3t2.5 5t15 18t38.5 42
t72.5 77t116.5 123q2 4 8.5 2t8.5 -5q24 -35 36 -61.5t19.5 -46.5t15 -36.5t23 -32t43 -32t76.5 -36.5z" />
    <glyph glyph-name="atilde" unicode="&#xe3;" horiz-adv-x="507" 
d="M43 17q-20 42 -21.5 85t4.5 88q1 14 5 42t9 62t11 72t11 72t9.5 60.5t6.5 39.5q8 42 17.5 71.5t26 45.5t43 17t68.5 -13q5 -1 11 -7.5t7 -9.5q2 -13 7.5 -40t12.5 -61.5t14.5 -72t14.5 -72t12.5 -61.5t8.5 -40q15 -71 37 -98.5t47 -28.5t51.5 16.5t52.5 37t49 33.5t40 5
q0 -19 -9 -37t-21.5 -33.5t-27.5 -28.5t-28 -22q-56 -37 -93.5 -39t-63.5 17t-42 52t-28.5 67t-24 60.5t-27.5 33.5q-3 -13 -12.5 -45t-20.5 -68t-21 -68t-14 -45q-2 -5 -8.5 -19t-16.5 -30.5t-22.5 -32t-25.5 -24t-26 -5.5t-23 24zM95 312q-2 -12 -2.5 -44t-0.5 -68
t0.5 -68t2.5 -45q35 53 63 123.5t42.5 146t11.5 150t-30 135.5q-17 -31 -32 -78t-26 -95.5t-18.5 -91t-10.5 -65.5zM-41 721q27 53 56.5 74.5t61 23.5t64 -9.5t65.5 -24.5t65.5 -20.5t63.5 1.5q12 9 32.5 29t42.5 41t42 37.5t32 18.5t11.5 -16t-19.5 -66q-29 -30 -60 -54
t-63.5 -39.5t-65 -21t-65.5 2.5q-22 6 -51.5 22t-60 25t-60 1.5t-50.5 -48.5z" />
    <glyph glyph-name="adieresis" unicode="&#xe4;" horiz-adv-x="507" 
d="M43 17q-20 42 -21.5 85t4.5 88q1 14 5 42t9 62t11 72t11 72t9.5 60.5t6.5 39.5q8 42 17.5 71.5t26 45.5t43 17t68.5 -13q5 -1 11 -7.5t7 -9.5q2 -13 7.5 -40t12.5 -61.5t14.5 -72t14.5 -72t12.5 -61.5t8.5 -40q15 -71 37 -98.5t47 -28.5t51.5 16.5t52.5 37t49 33.5t40 5
q0 -19 -9 -37t-21.5 -33.5t-27.5 -28.5t-28 -22q-56 -37 -93.5 -39t-63.5 17t-42 52t-28.5 67t-24 60.5t-27.5 33.5q-3 -13 -12.5 -45t-20.5 -68t-21 -68t-14 -45q-2 -5 -8.5 -19t-16.5 -30.5t-22.5 -32t-25.5 -24t-26 -5.5t-23 24zM95 312q-2 -12 -2.5 -44t-0.5 -68
t0.5 -68t2.5 -45q35 53 63 123.5t42.5 146t11.5 150t-30 135.5q-17 -31 -32 -78t-26 -95.5t-18.5 -91t-10.5 -65.5zM42 756q-8 11 1 28.5t24.5 29t33.5 11t27 -25.5q10 -27 1.5 -46.5t-25 -27t-35 -0.5t-27.5 31zM209 772q-9 18 0 36.5t25 27.5t33.5 2.5t25.5 -39.5
q6 -24 -2.5 -38.5t-23.5 -18.5t-31.5 3t-26.5 27z" />
    <glyph glyph-name="aring" unicode="&#xe5;" horiz-adv-x="507" 
d="M141 669q-16 9 -27.5 29t-17.5 36q-9 40 -5 87t26 83t63 51t107 -9q28 -10 42 -31t25 -46q16 -51 10.5 -97t-31.5 -76t-74 -39q-9 -2 -19 -3q2 -1 4 -3q6 -6 7 -9q2 -13 7.5 -40t12.5 -61.5t14.5 -72t14.5 -72t12.5 -61.5t8.5 -40q15 -71 37 -98.5t47 -28.5t51.5 16.5
t52.5 37t49 33.5t40 5q0 -19 -9 -37t-21.5 -33.5t-27.5 -28.5t-28 -22q-56 -37 -93.5 -39t-63.5 17t-42 52t-28.5 67t-24 60.5t-27.5 33.5q-3 -13 -12.5 -45t-20.5 -68t-21 -68t-14 -45q-2 -5 -8.5 -19t-16.5 -30.5t-22.5 -32t-25.5 -24t-26 -5.5t-23 24q-20 42 -21.5 85
t4.5 88q1 14 5 42t9 62t11 72t11 72t9.5 60.5t6.5 39.5q8 42 17.5 71.5t25.5 45.5q10 9 22 13q-1 0 -2 1zM95 312q-2 -12 -2.5 -44t-0.5 -68t0.5 -68t2.5 -45q35 53 63 123.5t42.5 146t11.5 150t-30 135.5q-17 -31 -32 -78t-26 -95.5t-18.5 -91t-10.5 -65.5zM152 713
q13 -9 30 -14t35 -5.5t34 3.5t27 13q36 60 43 101t-4.5 65.5t-36.5 33t-53.5 3.5t-55 -21.5t-41 -43t-11.5 -61t33 -74.5z" />
    <glyph glyph-name="ae" unicode="&#xe6;" horiz-adv-x="699" 
d="M43 17q-20 42 -21.5 85t4.5 88q1 14 5 42t9 62t11 72t11 72t9.5 60.5t6.5 39.5q8 42 17.5 71.5t26 45.5t43 17t68.5 -13q5 -1 11 -7.5t7 -9.5q2 -11 3.5 -38.5t3 -64t2.5 -79.5t2 -85q10 49 27.5 94.5t38 82.5t43.5 63.5t45 37t41 2t32 -39.5q-11 -44 -33.5 -85.5
t-46.5 -82t-45 -80.5t-30 -81q-5 -22 -5 -53.5t7 -62.5t23 -56.5t43 -35.5q32 -12 64.5 -6t63 23t58.5 42.5t52 52.5t43 52.5t32 43.5l17 -18q7 -6 -8.5 -34t-45 -63.5t-69.5 -72.5t-82.5 -61.5t-84 -30.5t-74.5 20q-26 14 -44.5 33t-32.5 41q9 -49 3 -73.5t-19 -26.5
t-29 15.5t-27.5 51.5t-15.5 82q-3 46 8 102q-5 -19 -12 -39q-7 -23 -14 -44.5t-12 -38.5t-8 -25q-2 -5 -8.5 -19t-16.5 -30.5t-22.5 -32t-25.5 -24t-26 -5.5t-23 24zM95 312q-2 -12 -2.5 -44t-0.5 -68t0.5 -68t2.5 -45q35 53 63 123.5t42.5 146t11.5 150t-30 135.5
q-17 -31 -32 -78t-26 -95.5t-18.5 -91t-10.5 -65.5zM437 615q-33 -16 -57.5 -43.5t-39.5 -61t-19 -69.5t4 -70q16 27 32.5 57t31.5 61t27.5 62.5t20.5 63.5z" />
    <glyph glyph-name="ccedilla" unicode="&#xe7;" horiz-adv-x="520" 
d="M157 -405q-16 12 -26.5 31t-15.5 39.5t-6 40.5t2.5 33t10.5 17.5t17 -5.5q-2 -54 20 -82t53.5 -35t66.5 3.5t60.5 34.5t35 58t-10.5 73q-26 29 -57 37.5t-62.5 13t-61.5 14t-54 41.5q-11 54 -3 85q3 8 5 15q-22 9 -44 26q-37 28 -53.5 67.5t-18 86t10 95.5t30.5 95
t42.5 85.5t47.5 67t45 39t34 1.5q2 -11 7.5 -40.5t11 -63t10 -63t6.5 -40.5q2 -13 1 -27.5t-6 -26t-16.5 -17t-30.5 0.5q-1 7 -5.5 24t-10 36.5t-11 37t-7.5 24.5l-17 17q-31 -21 -51.5 -60t-29.5 -84.5t-4.5 -91t23 -80t52 -52t84 -5.5t118.5 58.5t155 140.5v-35
q0 -3 -12 -18t-29 -34.5t-34.5 -38.5t-29.5 -30q-33 -31 -70.5 -57t-77.5 -39q-31 -10 -62 -9q8 -21 10 -55q-2 -7 15 -15t43.5 -18.5t58.5 -24.5t59 -32t45 -41.5t17 -53t-25 -65.5t-82 -81q-18 -14 -39.5 -24t-44.5 -13.5t-46 0.5t-43 19z" />
    <glyph glyph-name="egrave" unicode="&#xe8;" horiz-adv-x="524" 
d="M208 17q-42 33 -66.5 77.5t-37.5 95.5q-6 -5 -18 -11t-24.5 -10t-24.5 -5.5t-17.5 2.5t-3 13.5t18.5 28.5q2 3 12.5 13t22.5 21.5t22 22t12 13.5q11 25 13.5 55t3 62.5t3.5 64.5t15 60q7 16 26.5 39.5t44 45.5t50 39.5t44 21.5t27 -9t-0.5 -50q-11 -44 -33.5 -85.5
t-46.5 -82t-45.5 -80.5t-30.5 -81q-5 -22 -5 -53.5t7 -62.5t23 -56.5t44 -35.5q32 -12 64 -6t62.5 23t58.5 42.5t52 52.5t43 52.5t32 43.5l17 -18q7 -6 -8.5 -34t-45 -63.5t-69.5 -72.5t-82.5 -62t-84 -31t-74.5 20zM174 452q-1 -5 -1.5 -17.5t-0.5 -26.5t0.5 -26t1.5 -17
q32 55 60 117t44 125q-23 -8 -41.5 -24.5t-31.5 -38t-20.5 -45.5t-10.5 -47zM200 778q-9 39 -6.5 52.5t13 10.5t27.5 -18t36.5 -32t40.5 -31.5t40 -16.5q2 -24 -6.5 -33t-23 -8t-32.5 9.5t-35.5 20.5t-32 24.5t-21.5 21.5z" />
    <glyph glyph-name="eacute" unicode="&#xe9;" horiz-adv-x="524" 
d="M208 17q-42 33 -66.5 77.5t-37.5 95.5q-6 -5 -18 -11t-24.5 -10t-24.5 -5.5t-17.5 2.5t-3 13.5t18.5 28.5q2 3 12.5 13t22.5 21.5t22 22t12 13.5q11 25 13.5 55t3 62.5t3.5 64.5t15 60q7 16 26.5 39.5t44 45.5t50 39.5t44 21.5t27 -9t-0.5 -50q-11 -44 -33.5 -85.5
t-46.5 -82t-45.5 -80.5t-30.5 -81q-5 -22 -5 -53.5t7 -62.5t23 -56.5t44 -35.5q32 -12 64 -6t62.5 23t58.5 42.5t52 52.5t43 52.5t32 43.5l17 -18q7 -6 -8.5 -34t-45 -63.5t-69.5 -72.5t-82.5 -62t-84 -31t-74.5 20zM174 452q-1 -5 -1.5 -17.5t-0.5 -26.5t0.5 -26t1.5 -17
q32 55 60 117t44 125q-23 -8 -41.5 -24.5t-31.5 -38t-20.5 -45.5t-10.5 -47zM226 732q-7 12 -13 21.5t0 22t29.5 30.5t75.5 47q19 5 25 -2t1.5 -20t-16.5 -30t-29 -32t-36 -25.5t-37 -11.5z" />
    <glyph glyph-name="ecircumflex" unicode="&#xea;" horiz-adv-x="524" 
d="M208 17q-42 33 -66.5 77.5t-37.5 95.5q-6 -5 -18 -11t-24.5 -10t-24.5 -5.5t-17.5 2.5t-3 13.5t18.5 28.5q2 3 12.5 13t22.5 21.5t22 22t12 13.5q11 25 13.5 55t3 62.5t3.5 64.5t15 60q7 16 26.5 39.5t44 45.5t50 39.5t44 21.5t27 -9t-0.5 -50q-11 -44 -33.5 -85.5
t-46.5 -82t-45.5 -80.5t-30.5 -81q-5 -22 -5 -53.5t7 -62.5t23 -56.5t44 -35.5q32 -12 64 -6t62.5 23t58.5 42.5t52 52.5t43 52.5t32 43.5l17 -18q7 -6 -8.5 -34t-45 -63.5t-69.5 -72.5t-82.5 -62t-84 -31t-74.5 20zM174 452q-1 -5 -1.5 -17.5t-0.5 -26.5t0.5 -26t1.5 -17
q32 55 60 117t44 125q-23 -8 -41.5 -24.5t-31.5 -38t-20.5 -45.5t-10.5 -47zM499 611q-15 14 -30.5 22t-31 15.5t-33 18t-36 30t-40 51t-45.5 82.5l-204 -231q-13 -3 -20 3t-9.5 16.5t-1 21t4.5 16.5q1 3 0 3t2.5 5t15 18t38.5 42t72.5 77t116.5 123q2 4 8.5 2t8.5 -5
q24 -35 36 -61.5t19.5 -46.5t15 -36.5t23 -32t43 -32t76.5 -36.5z" />
    <glyph glyph-name="edieresis" unicode="&#xeb;" horiz-adv-x="524" 
d="M208 17q-42 33 -66.5 77.5t-37.5 95.5q-6 -5 -18 -11t-24.5 -10t-24.5 -5.5t-17.5 2.5t-3 13.5t18.5 28.5q2 3 12.5 13t22.5 21.5t22 22t12 13.5q11 25 13.5 55t3 62.5t3.5 64.5t15 60q7 16 26.5 39.5t44 45.5t50 39.5t44 21.5t27 -9t-0.5 -50q-11 -44 -33.5 -85.5
t-46.5 -82t-45.5 -80.5t-30.5 -81q-5 -22 -5 -53.5t7 -62.5t23 -56.5t44 -35.5q32 -12 64 -6t62.5 23t58.5 42.5t52 52.5t43 52.5t32 43.5l17 -18q7 -6 -8.5 -34t-45 -63.5t-69.5 -72.5t-82.5 -62t-84 -31t-74.5 20zM174 452q-1 -5 -1.5 -17.5t-0.5 -26.5t0.5 -26t1.5 -17
q32 55 60 117t44 125q-23 -8 -41.5 -24.5t-31.5 -38t-20.5 -45.5t-10.5 -47zM123 715q-8 11 1 28.5t24.5 29t33.5 11t27 -25.5q10 -27 1.5 -46.5t-25 -27t-35 -0.5t-27.5 31zM290 731q-9 18 0 36.5t25 27.5t33.5 2.5t25.5 -39.5q6 -24 -2.5 -38.5t-23.5 -18.5t-31.5 3
t-26.5 27z" />
    <glyph glyph-name="igrave" unicode="&#xec;" horiz-adv-x="200" 
d="M35 52q-2 4 -5 15.5t-6 25.5t-5 27t-2 19v486q0 10 9 14t20.5 4.5t21 -0.5t10.5 -1v-538q0 -17 11 -28t26 -17.5t31 -8t27 1.5q14 -21 -0.5 -33.5t-41 -14t-55 10t-41.5 37.5zM76 712q-9 39 -6.5 52.5t13 10.5t27.5 -18t36.5 -32t40.5 -31.5t40 -16.5q2 -24 -6.5 -33
t-23 -8t-32.5 9.5t-35.5 20.5t-32 24.5t-21.5 21.5z" />
    <glyph glyph-name="iacute" unicode="&#xed;" horiz-adv-x="200" 
d="M41 643q-6 10 -11 18q-6 10 0 22.5t29.5 30.5t75.5 47q19 5 25 -2t1.5 -20t-16.5 -30t-29 -32t-36 -26q-9 -5 -18 -8h5q10 -1 11 -1v-538q0 -17 11 -28t26 -17.5t31 -8t27 1.5q14 -21 -0.5 -33.5t-41 -14t-55 10t-41.5 37.5q-2 4 -5 15.5t-6 25.5t-5 27t-2 19v486
q0 10 9 14q7 3 15 4z" />
    <glyph glyph-name="icircumflex" unicode="&#xee;" horiz-adv-x="200" 
d="M35 52q-2 4 -5 15.5t-6 25.5t-5 27t-2 19v486q0 10 9 14t20.5 4.5t21 -0.5t10.5 -1v-538q0 -17 11 -28t26 -17.5t31 -8t27 1.5q14 -21 -0.5 -33.5t-41 -14t-55 10t-41.5 37.5zM321 608q-15 14 -30.5 22t-31 15.5t-33 18t-36 30t-40 51t-45.5 82.5l-204 -231q-13 -3 -20 3
t-9.5 16.5t-1 21t4.5 16.5q1 3 0 3t2.5 5t15 18t38.5 42t72.5 77t116.5 123q2 4 8.5 2t8.5 -5q24 -35 36 -61.5t19.5 -46.5t15 -36.5t23 -32t43 -32t76.5 -36.5z" />
    <glyph glyph-name="idieresis" unicode="&#xef;" horiz-adv-x="200" 
d="M35 52q-2 4 -5 15.5t-6 25.5t-5 27t-2 19v486q0 10 9 14t20.5 4.5t21 -0.5t10.5 -1v-538q0 -17 11 -28t26 -17.5t31 -8t27 1.5q14 -21 -0.5 -33.5t-41 -14t-55 10t-41.5 37.5zM-28 746q-5 11 0.5 28.5t15.5 28.5t21.5 10.5t17.5 -25.5q6 -27 0.5 -45.5t-16 -25.5t-22 -1
t-17.5 30zM79 762q-6 18 0 36t16 26.5t21 2t16 -38.5q4 -23 -1.5 -37t-14.5 -18t-20 3t-17 26z" />
    <glyph glyph-name="eth" unicode="&#xf0;" horiz-adv-x="383" 
d="M78 516q3 14 13.5 21.5t24.5 9t30 -1.5t30 -10l-41 105l32 38q11 8 19 6.5t13 -8.5t8 -16.5t5 -16.5q10 -28 21.5 -50.5t23.5 -51.5q5 -1 15.5 0t22.5 3l24 4q12 2 21 3q5 -10 9.5 -25.5t5 -29t-4.5 -20.5t-18 -1q-2 1 -10.5 -0.5t-19 -3.5t-20 -3.5t-12.5 -0.5
q24 -61 48 -128t36.5 -131.5t8.5 -122t-36 -98.5q-54 -15 -102 -8t-87 29t-67.5 57.5t-45 79t-19.5 92.5t10 98q34 58 60 77t57.5 -3t75 -85.5t111.5 -170.5l-121 317q-16 8 -31.5 6.5t-28.5 -5t-23.5 -7t-15.5 -0.5q-3 1 -8 4.5t-8.5 9.5t-5.5 15t0 23zM151 289
q-13 27 -27 37t-27.5 7t-24 -19t-15.5 -41q-7 -34 3.5 -67.5t31.5 -63t50.5 -52.5t60.5 -35q47 -8 66 -1t18.5 25t-15.5 43.5t-36.5 54.5t-45 58t-39.5 54z" />
    <glyph glyph-name="ntilde" unicode="&#xf1;" horiz-adv-x="507" 
d="M70 17q1 13 1 45v136q0 32 -1 45q-1 6 -3.5 26t-6 47t-7.5 57t-8 57t-6.5 47t-3.5 27q-2 14 -1.5 29t5.5 26t16 15.5t32 -2.5q1 -21 3.5 -49.5t6.5 -59.5t10 -61t15 -55q13 37 25.5 65.5t28.5 52.5t36 45.5t48 44.5q35 29 58.5 23.5t39 -34t25.5 -73.5t18 -95.5t16.5 -99
t21.5 -84t32.5 -52t49.5 -1.5q9 -27 2.5 -39.5t-22 -14t-36.5 8t-41.5 26t-36.5 39.5t-22 49q-4 18 -7 59t-9 88t-18.5 92.5t-35.5 72.5l-70 -68q-3 -4 -14.5 -36t-25.5 -73.5t-27 -84t-19 -68.5q-2 -9 -5 -33.5t-6 -52.5t-4.5 -52.5t-1.5 -34.5q-9 -18 -26 -18t-26 18z
M-41 721q27 53 56.5 74.5t61 23.5t64 -9.5t65.5 -24.5t65.5 -20.5t63.5 1.5q12 9 32.5 29t42.5 41t42 37.5t32 18.5t11.5 -16t-19.5 -66q-29 -30 -60 -54t-63.5 -39.5t-65 -21t-65.5 2.5q-22 6 -51.5 22t-60 25t-60 1.5t-50.5 -48.5z" />
    <glyph glyph-name="ograve" unicode="&#xf2;" horiz-adv-x="344" 
d="M101 52q-25 37 -30 82.5t0 95.5t16 101t19 98.5t9 89t-14 71.5q-8 16 -21.5 15.5t-29 -4t-31 -2.5t-27.5 19q1 4 7.5 10.5t9.5 7.5q90 13 150.5 -18.5t96.5 -89t49.5 -131.5t9.5 -147t-23 -135.5t-48 -96.5t-66 -30t-77 64zM153 87q1 -3 6 -8t10.5 -11t10.5 -10.5t7 -5.5
q37 21 55 57t21.5 80t-4 92.5t-21.5 93.5t-32.5 83t-35.5 62q-1 -13 -4 -40t-6 -61t-7 -72t-7.5 -72.5t-6.5 -61.5t-4 -40q-1 -10 0.5 -22.5t4.5 -24.5t6.5 -22.5t6.5 -16.5zM148 712q-9 39 -6.5 52.5t13 10.5t27.5 -18t36.5 -32t40.5 -31.5t40 -16.5q2 -24 -6.5 -33t-23 -8
t-32.5 9.5t-35.5 20.5t-32 24.5t-21.5 21.5z" />
    <glyph glyph-name="oacute" unicode="&#xf3;" horiz-adv-x="344" 
d="M101 52q-25 37 -30 82.5t0 95.5t16 101t19 98.5t9 89t-14 71.5q-8 16 -21.5 15.5t-29 -4t-31 -2.5t-27.5 19q1 4 7.5 10.5t9.5 7.5q90 13 150.5 -18.5t96.5 -89t49.5 -131.5t9.5 -147t-23 -135.5t-48 -96.5t-66 -30t-77 64zM153 87q1 -3 6 -8t10.5 -11t10.5 -10.5t7 -5.5
q37 21 55 57t21.5 80t-4 92.5t-21.5 93.5t-32.5 83t-35.5 62q-1 -13 -4 -40t-6 -61t-7 -72t-7.5 -72.5t-6.5 -61.5t-4 -40q-1 -10 0.5 -22.5t4.5 -24.5t6.5 -22.5t6.5 -16.5zM115 640q-7 12 -13 21.5t0 22t29.5 30.5t75.5 47q19 5 25 -2t1.5 -20t-16.5 -30t-29 -32
t-36 -25.5t-37 -11.5z" />
    <glyph glyph-name="ocircumflex" unicode="&#xf4;" horiz-adv-x="344" 
d="M101 52q-25 37 -30 82.5t0 95.5t16 101t19 98.5t9 89t-14 71.5q-8 16 -21.5 15.5t-29 -4t-31 -2.5t-27.5 19q1 4 7.5 10.5t9.5 7.5q90 13 150.5 -18.5t96.5 -89t49.5 -131.5t9.5 -147t-23 -135.5t-48 -96.5t-66 -30t-77 64zM153 87q1 -3 6 -8t10.5 -11t10.5 -10.5t7 -5.5
q37 21 55 57t21.5 80t-4 92.5t-21.5 93.5t-32.5 83t-35.5 62q-1 -13 -4 -40t-6 -61t-7 -72t-7.5 -72.5t-6.5 -61.5t-4 -40q-1 -10 0.5 -22.5t4.5 -24.5t6.5 -22.5t6.5 -16.5zM378 653q-15 14 -30.5 22t-31 15.5t-33 18t-36 30t-40 51t-45.5 82.5l-204 -231q-13 -3 -20 3
t-9.5 16.5t-1 21t4.5 16.5q1 3 0 3t2.5 5t15 18t38.5 42t72.5 77t116.5 123q2 4 8.5 2t8.5 -5q24 -35 36 -61.5t19.5 -46.5t15 -36.5t23 -32t43 -32t76.5 -36.5z" />
    <glyph glyph-name="otilde" unicode="&#xf5;" horiz-adv-x="344" 
d="M101 52q-25 37 -30 82.5t0 95.5t16 101t19 98.5t9 89t-14 71.5q-8 16 -21.5 15.5t-29 -4t-31 -2.5t-27.5 19q1 4 7.5 10.5t9.5 7.5q90 13 150.5 -18.5t96.5 -89t49.5 -131.5t9.5 -147t-23 -135.5t-48 -96.5t-66 -30t-77 64zM153 87q1 -3 6 -8t10.5 -11t10.5 -10.5t7 -5.5
q37 21 55 57t21.5 80t-4 92.5t-21.5 93.5t-32.5 83t-35.5 62q-1 -13 -4 -40t-6 -61t-7 -72t-7.5 -72.5t-6.5 -61.5t-4 -40q-1 -10 0.5 -22.5t4.5 -24.5t6.5 -22.5t6.5 -16.5zM-122 721q27 53 56.5 74.5t61 23.5t64 -9.5t65.5 -24.5t65.5 -20.5t63.5 1.5q12 9 32.5 29
t42.5 41t42 37.5t32 18.5t11.5 -16t-19.5 -66q-29 -30 -60 -54t-63.5 -39.5t-65 -21t-65.5 2.5q-22 6 -51.5 22t-60 25t-60 1.5t-50.5 -48.5z" />
    <glyph glyph-name="odieresis" unicode="&#xf6;" horiz-adv-x="344" 
d="M101 52q-25 37 -30 82.5t0 95.5t16 101t19 98.5t9 89t-14 71.5q-8 16 -21.5 15.5t-29 -4t-31 -2.5t-27.5 19q1 4 7.5 10.5t9.5 7.5q90 13 150.5 -18.5t96.5 -89t49.5 -131.5t9.5 -147t-23 -135.5t-48 -96.5t-66 -30t-77 64zM153 87q1 -3 6 -8t10.5 -11t10.5 -10.5t7 -5.5
q37 21 55 57t21.5 80t-4 92.5t-21.5 93.5t-32.5 83t-35.5 62q-1 -13 -4 -40t-6 -61t-7 -72t-7.5 -72.5t-6.5 -61.5t-4 -40q-1 -10 0.5 -22.5t4.5 -24.5t6.5 -22.5t6.5 -16.5zM18 715q-8 11 1 28.5t24.5 29t33.5 11t27 -25.5q10 -27 1.5 -46.5t-25 -27t-35 -0.5t-27.5 31z
M185 731q-9 18 0 36.5t25 27.5t33.5 2.5t25.5 -39.5q6 -24 -2.5 -38.5t-23.5 -18.5t-31.5 3t-26.5 27z" />
    <glyph glyph-name="divide" unicode="&#xf7;" horiz-adv-x="486" 
d="M200 147q-4 25 2.5 50t19.5 45.5t30.5 35.5t34 20t30.5 -1t21 -28q6 -17 -1 -37.5t-21.5 -39t-33.5 -34t-36.5 -23t-30.5 -6t-15 17.5zM148 529q-24 16 -27.5 31.5t7 29t31.5 24t44.5 17.5t46 9.5t36.5 -1t16 -13.5t-15 -27l-87 -87q-1 -1 -7.5 -1t-9.5 1q-4 2 -17.5 8
t-17.5 9zM28 378q-4 8 -1 14t9 10.5t13.5 6.5t13.5 3q13 3 41.5 8.5t64.5 12.5t75.5 14.5t76 14.5t65 12t42.5 8q23 4 29 -4t2.5 -21t-13 -26t-18.5 -19q-29 4 -68.5 -1t-81 -13.5t-83.5 -18.5t-76.5 -15t-59 -3t-31.5 17z" />
    <glyph glyph-name="oslash" unicode="&#xf8;" horiz-adv-x="344" 
d="M18 -144q-2 2 -2 7.5t2 6.5l7 32q5 22 11.5 49t13 57t13.5 57q6 25 11 46q-2 12 -3 23q-5 46 0 96t16 101t19 98.5t9 89t-14 71.5q-8 16 -21.5 15.5t-29 -4t-31 -2.5t-27.5 19q1 4 7.5 10.5t9.5 7.5q90 13 150.5 -18.5t96.5 -89.5q3 -5 6 -9q5 7 11 15q14 18 28.5 34
t26.5 27.5t15 11.5h26v-29q-7 -7 -24 -27.5t-36 -43.5q-13 -17 -26 -33q15 -36 22 -77q14 -74 10 -147t-23 -135.5t-48 -96.5t-66 -30t-77 64l-3 4l-15 -42q-8 -21 -7.5 -47.5t0.5 -52t-6 -49t-26 -38.5q-1 1 -5.5 5t-8.5 8.5t-7.5 9t-4.5 6.5zM153 87q1 -3 6 -8t10.5 -11
t10.5 -10.5t7 -5.5q37 21 55 57t21.5 80t-4 92.5t-21.5 93.5l-8 24l-4 -8q-5 -14 -17 -43.5t-26 -66.5t-30 -78l-18 -48v-5q2 -12 5 -24t6.5 -22.5t6.5 -16.5zM205 458q-18 38 -35 62q-1 -13 -4 -40t-6 -61t-7 -72q-1 -11 -3 -21q2 4 5 8q22 46 47 89q5 10 10 19q-3 8 -7 16
z" />
    <glyph glyph-name="ugrave" unicode="&#xf9;" horiz-adv-x="449" 
d="M52 52q-2 4 -5 13.5t-5.5 21t-4.5 21.5t-2 14v382q0 9 7 13t16 5t17.5 0t11.5 -2q-1 -13 -1 -40t-0.5 -61t0 -72t0.5 -73v-61q0 -27 1 -40q2 -56 15.5 -78t33 -20.5t41 22t40 49t31 59.5t12.5 55v260h70q-2 -23 -5 -60t-3.5 -80t1.5 -87.5t9.5 -84t21.5 -69t36.5 -42
t54.5 -4t76 45.5q9 -26 -7 -50t-42 -42t-56 -26.5t-51 -3.5q-3 1 -9.5 8t-8.5 10q-4 7 -14 26.5t-21 41.5t-20.5 42t-13.5 28q-6 -11 -20 -33.5t-33.5 -48t-42 -48t-45.5 -32t-45 -2t-40 42.5zM200 712q-9 39 -6.5 52.5t13 10.5t27.5 -18t36.5 -32t40.5 -31.5t40 -16.5
q2 -24 -6.5 -33t-23 -8t-32.5 9.5t-35.5 20.5t-32 24.5t-21.5 21.5z" />
    <glyph glyph-name="uacute" unicode="&#xfa;" horiz-adv-x="449" 
d="M52 52q-2 4 -5 13.5t-5.5 21t-4.5 21.5t-2 14v382q0 9 7 13t16 5t17.5 0t11.5 -2q-1 -13 -1 -40t-0.5 -61t0 -72t0.5 -73v-61q0 -27 1 -40q2 -56 15.5 -78t33 -20.5t41 22t40 49t31 59.5t12.5 55v260h70q-2 -23 -5 -60t-3.5 -80t1.5 -87.5t9.5 -84t21.5 -69t36.5 -42
t54.5 -4t76 45.5q9 -26 -7 -50t-42 -42t-56 -26.5t-51 -3.5q-3 1 -9.5 8t-8.5 10q-4 7 -14 26.5t-21 41.5t-20.5 42t-13.5 28q-6 -11 -20 -33.5t-33.5 -48t-42 -48t-45.5 -32t-45 -2t-40 42.5zM167 640q-7 12 -13 21.5t0 22t29.5 30.5t75.5 47q19 5 25 -2t1.5 -20t-16.5 -30
t-29 -32t-36 -25.5t-37 -11.5z" />
    <glyph glyph-name="ucircumflex" unicode="&#xfb;" horiz-adv-x="449" 
d="M52 52q-2 4 -5 13.5t-5.5 21t-4.5 21.5t-2 14v382q0 9 7 13t16 5t17.5 0t11.5 -2q-1 -13 -1 -40t-0.5 -61t0 -72t0.5 -73v-61q0 -27 1 -40q2 -56 15.5 -78t33 -20.5t41 22t40 49t31 59.5t12.5 55v260h70q-2 -23 -5 -60t-3.5 -80t1.5 -87.5t9.5 -84t21.5 -69t36.5 -42
t54.5 -4t76 45.5q9 -26 -7 -50t-42 -42t-56 -26.5t-51 -3.5q-3 1 -9.5 8t-8.5 10q-4 7 -14 26.5t-21 41.5t-20.5 42t-13.5 28q-6 -11 -20 -33.5t-33.5 -48t-42 -48t-45.5 -32t-45 -2t-40 42.5zM455 559q-15 14 -30.5 22t-31 15.5t-33 18t-36 30t-40 51t-45.5 82.5l-204 -231
q-13 -3 -20 3t-9.5 16.5t-1 21t4.5 16.5q1 3 0 3t2.5 5t15 18t38.5 42t72.5 77t116.5 123q2 4 8.5 2t8.5 -5q24 -35 36 -61.5t19.5 -46.5t15 -36.5t23 -32t43 -32t76.5 -36.5z" />
    <glyph glyph-name="udieresis" unicode="&#xfc;" horiz-adv-x="449" 
d="M52 52q-2 4 -5 13.5t-5.5 21t-4.5 21.5t-2 14v382q0 9 7 13t16 5t17.5 0t11.5 -2q-1 -13 -1 -40t-0.5 -61t0 -72t0.5 -73v-61q0 -27 1 -40q2 -56 15.5 -78t33 -20.5t41 22t40 49t31 59.5t12.5 55v260h70q-2 -23 -5 -60t-3.5 -80t1.5 -87.5t9.5 -84t21.5 -69t36.5 -42
t54.5 -4t76 45.5q9 -26 -7 -50t-42 -42t-56 -26.5t-51 -3.5q-3 1 -9.5 8t-8.5 10q-4 7 -14 26.5t-21 41.5t-20.5 42t-13.5 28q-6 -11 -20 -33.5t-33.5 -48t-42 -48t-45.5 -32t-45 -2t-40 42.5zM47 603q-8 11 1 28.5t24.5 29t33.5 11t27 -25.5q10 -27 1.5 -46.5t-25 -27
t-35 -0.5t-27.5 31zM214 619q-9 18 0 36.5t25 27.5t33.5 2.5t25.5 -39.5q6 -24 -2.5 -38.5t-23.5 -18.5t-31.5 3t-26.5 27z" />
    <glyph glyph-name="yacute" unicode="&#xfd;" horiz-adv-x="763" 
d="M426 -295q-25 17 -34.5 45t-8.5 62t10 71.5t21 72.5t25 65t22 49q4 9 13 28t21 43l50 100q12 24 22 43t15 28q5 47 -6.5 74t-32.5 37t-48.5 5t-56 -21t-55 -40.5t-44.5 -54.5q-6 -5 -21 -23.5t-36 -45t-46.5 -57.5t-52 -60.5t-51.5 -54.5t-46.5 -39t-37 -15t-21.5 18
q-1 1 -1.5 6t-0.5 10.5t0.5 10.5t1.5 8q2 10 8.5 42t15 75t18.5 92t18.5 92t15.5 74.5t10 41.5q2 9 13 24t25 25t27.5 9t21.5 -23q-10 -15 -23 -47t-25.5 -72t-24.5 -84.5t-20.5 -85.5t-11.5 -75.5t1 -53.5q42 57 94 121t106 121t107.5 99t99 54t80 -13.5t51.5 -103.5
l122 104h52q9 -28 -0.5 -38t-27.5 -15.5t-39.5 -12t-36 -26.5t-17.5 -59t16 -110q14 -50 19.5 -103t-1.5 -105q-3 -23 -15.5 -62.5t-32.5 -82.5t-47 -84t-58.5 -68t-67.5 -33.5t-74 18.5zM443 -208q8 -38 26.5 -48t42.5 2t50.5 43t49 74t38.5 95.5t19.5 107.5t-8.5 109.5
t-45 102.5q-23 -17 -46 -52t-43.5 -80t-38.5 -95.5t-29.5 -99t-16 -90.5t0.5 -69zM323 640q-7 12 -13 21.5t0 22t29.5 30.5t75.5 47q19 5 25 -2t1.5 -20t-16.5 -30t-29 -32t-36 -25.5t-37 -11.5z" />
    <glyph glyph-name="thorn" unicode="&#xfe;" horiz-adv-x="519" 
d="M164 139q-5 15 5.5 28t30.5 24.5t45.5 22.5t49 22.5t42 23.5t25.5 26q32 61 45 112t9.5 86t-22 51.5t-50 7t-75 -47t-95.5 -109.5q-5 -24 -11.5 -59.5t-5.5 -80.5q1 -82 -3 -159t-10.5 -141t-15.5 -110.5t-17 -66.5t-14.5 -8.5t-9 63t0.5 147.5t13 246q0 7 0.5 24.5
t0.5 37t-0.5 36.5t-0.5 23q-3 68 -6.5 133t-8 129t-9.5 128t-10 131q-3 29 1 39t11.5 6.5t17 -18.5t18 -36t14.5 -46t7 -49q0 -12 1.5 -38t3.5 -58.5t4 -68.5t3.5 -68.5t3 -58.5t2.5 -38q22 16 37.5 39.5t30 48t30.5 47.5t40 39q64 34 106 30.5t65 -31.5t27 -75.5t-7.5 -101
t-38.5 -108.5t-66 -98.5t-89 -69.5t-109 -23l-9 8q-6 7 -7 9z" />
    <glyph glyph-name="ydieresis" unicode="&#xff;" horiz-adv-x="763" 
d="M426 -295q-25 17 -34.5 45t-8.5 62t10 71.5t21 72.5t25 65t22 49q4 9 13 28t21 43l50 100q12 24 22 43t15 28q5 47 -6.5 74t-32.5 37t-48.5 5t-56 -21t-55 -40.5t-44.5 -54.5q-6 -5 -21 -23.5t-36 -45t-46.5 -57.5t-52 -60.5t-51.5 -54.5t-46.5 -39t-37 -15t-21.5 18
q-1 1 -1.5 6t-0.5 10.5t0.5 10.5t1.5 8q2 10 8.5 42t15 75t18.5 92t18.5 92t15.5 74.5t10 41.5q2 9 13 24t25 25t27.5 9t21.5 -23q-10 -15 -23 -47t-25.5 -72t-24.5 -84.5t-20.5 -85.5t-11.5 -75.5t1 -53.5q42 57 94 121t106 121t107.5 99t99 54t80 -13.5t51.5 -103.5
l122 104h52q9 -28 -0.5 -38t-27.5 -15.5t-39.5 -12t-36 -26.5t-17.5 -59t16 -110q14 -50 19.5 -103t-1.5 -105q-3 -23 -15.5 -62.5t-32.5 -82.5t-47 -84t-58.5 -68t-67.5 -33.5t-74 18.5zM443 -208q8 -38 26.5 -48t42.5 2t50.5 43t49 74t38.5 95.5t19.5 107.5t-8.5 109.5
t-45 102.5q-23 -17 -46 -52t-43.5 -80t-38.5 -95.5t-29.5 -99t-16 -90.5t0.5 -69zM228 621q-8 11 1 28.5t24.5 29t33.5 11t27 -25.5q10 -27 1.5 -46.5t-25 -27t-35 -0.5t-27.5 31zM395 637q-9 18 0 36.5t25 27.5t33.5 2.5t25.5 -39.5q6 -24 -2.5 -38.5t-23.5 -18.5t-31.5 3
t-26.5 27z" />
    <glyph glyph-name="Amacron" unicode="&#x100;" horiz-adv-x="764" 
d="M592 191q-1 5 -7.5 18t-10.5 17q-11 4 -40.5 13.5t-62.5 21t-62.5 21.5t-41.5 14q-3 1 -13 6.5t-22 12t-22 11.5t-13 5q-19 0 -36 -23t-34 -57t-36 -72.5t-42 -69.5t-50.5 -48.5t-61.5 -8.5v35q7 9 22.5 28t34 43t39.5 50.5t39.5 50.5t33 43t21.5 29q13 17 4.5 47.5
t-25 65.5t-35.5 70t-27 60t1 36t49 -2q14 -42 39 -86t64 -70q32 21 60.5 57t53 81t45 95.5t37 100t28.5 93.5t20 76q8 14 22.5 22t28.5 13q7 -9 9 -44t2 -85.5t-1.5 -112t-2 -124t0.5 -122t5.5 -105t13.5 -73.5t25 -28h105v-62h-87q-18 0 -14 -22.5t18.5 -57.5t34 -77.5
t33 -81.5t15.5 -71t-18 -45q-4 -2 -17.5 -2t-17.5 2q-5 18 -20 62t-31.5 94t-31.5 94t-21 62zM419 348q6 -3 22.5 -10.5t36 -16t37.5 -15.5t26 -10q2 -1 8 -1t8 1q4 41 0 103t-10.5 127t-13.5 124.5t-10 95.5l-191 -347q4 -3 16.5 -10.5t26 -16t26 -15.5t18.5 -9zM333 1042
q-4 8 -1 14t9 10.5t13.5 6.5t13.5 3q13 3 41.5 8.5t64.5 12.5t75.5 14.5t76 14.5t65 12t42.5 8q23 4 29 -4t2.5 -21t-13 -26t-18.5 -19q-29 4 -68.5 -1t-81 -13.5t-83.5 -18.5t-76.5 -15t-59 -3t-31.5 17z" />
    <glyph glyph-name="amacron" unicode="&#x101;" horiz-adv-x="507" 
d="M43 17q-20 42 -21.5 85t4.5 88q1 14 5 42t9 62t11 72t11 72t9.5 60.5t6.5 39.5q8 42 17.5 71.5t26 45.5t43 17t68.5 -13q5 -1 11 -7.5t7 -9.5q2 -13 7.5 -40t12.5 -61.5t14.5 -72t14.5 -72t12.5 -61.5t8.5 -40q15 -71 37 -98.5t47 -28.5t51.5 16.5t52.5 37t49 33.5t40 5
q0 -19 -9 -37t-21.5 -33.5t-27.5 -28.5t-28 -22q-56 -37 -93.5 -39t-63.5 17t-42 52t-28.5 67t-24 60.5t-27.5 33.5q-3 -13 -12.5 -45t-20.5 -68t-21 -68t-14 -45q-2 -5 -8.5 -19t-16.5 -30.5t-22.5 -32t-25.5 -24t-26 -5.5t-23 24zM95 312q-2 -12 -2.5 -44t-0.5 -68
t0.5 -68t2.5 -45q35 53 63 123.5t42.5 146t11.5 150t-30 135.5q-17 -31 -32 -78t-26 -95.5t-18.5 -91t-10.5 -65.5zM3 758q-4 8 -1 14t9 10.5t13.5 6.5t13.5 3q13 3 41.5 8.5t64.5 12.5t75.5 14.5t76 14.5t65 12t42.5 8q23 4 29 -4t2.5 -21t-13 -26t-18.5 -19
q-29 4 -68.5 -1t-81 -13.5t-83.5 -18.5t-76.5 -15t-59 -3t-31.5 17z" />
    <glyph glyph-name="Abreve" unicode="&#x102;" horiz-adv-x="764" 
d="M592 191q-1 5 -7.5 18t-10.5 17q-11 4 -40.5 13.5t-62.5 21t-62.5 21.5t-41.5 14q-3 1 -13 6.5t-22 12t-22 11.5t-13 5q-19 0 -36 -23t-34 -57t-36 -72.5t-42 -69.5t-50.5 -48.5t-61.5 -8.5v35q7 9 22.5 28t34 43t39.5 50.5t39.5 50.5t33 43t21.5 29q13 17 4.5 47.5
t-25 65.5t-35.5 70t-27 60t1 36t49 -2q14 -42 39 -86t64 -70q32 21 60.5 57t53 81t45 95.5t37 100t28.5 93.5t20 76q8 14 22.5 22t28.5 13q7 -9 9 -44t2 -85.5t-1.5 -112t-2 -124t0.5 -122t5.5 -105t13.5 -73.5t25 -28h105v-62h-87q-18 0 -14 -22.5t18.5 -57.5t34 -77.5
t33 -81.5t15.5 -71t-18 -45q-4 -2 -17.5 -2t-17.5 2q-5 18 -20 62t-31.5 94t-31.5 94t-21 62zM419 348q6 -3 22.5 -10.5t36 -16t37.5 -15.5t26 -10q2 -1 8 -1t8 1q4 41 0 103t-10.5 127t-13.5 124.5t-10 95.5l-191 -347q4 -3 16.5 -10.5t26 -16t26 -15.5t18.5 -9zM739 1238
q9 -47 0 -86.5t-36 -65t-73 -32.5t-111 13q-16 9 -27.5 29t-17.5 36q-5 24 -6 51.5t4 54.5l32 -1q-11 -26 -6.5 -57.5t32.5 -68.5q13 -9 30 -14t35 -5.5t34 3.5t27 13q25 42 35.5 74t10.5 56h37z" />
    <glyph glyph-name="abreve" unicode="&#x103;" horiz-adv-x="507" 
d="M43 17q-20 42 -21.5 85t4.5 88q1 14 5 42t9 62t11 72t11 72t9.5 60.5t6.5 39.5q8 42 17.5 71.5t26 45.5t43 17t68.5 -13q5 -1 11 -7.5t7 -9.5q2 -13 7.5 -40t12.5 -61.5t14.5 -72t14.5 -72t12.5 -61.5t8.5 -40q15 -71 37 -98.5t47 -28.5t51.5 16.5t52.5 37t49 33.5t40 5
q0 -19 -9 -37t-21.5 -33.5t-27.5 -28.5t-28 -22q-56 -37 -93.5 -39t-63.5 17t-42 52t-28.5 67t-24 60.5t-27.5 33.5q-3 -13 -12.5 -45t-20.5 -68t-21 -68t-14 -45q-2 -5 -8.5 -19t-16.5 -30.5t-22.5 -32t-25.5 -24t-26 -5.5t-23 24zM95 312q-2 -12 -2.5 -44t-0.5 -68
t0.5 -68t2.5 -45q35 53 63 123.5t42.5 146t11.5 150t-30 135.5q-17 -31 -32 -78t-26 -95.5t-18.5 -91t-10.5 -65.5zM378 923q9 -47 0 -86.5t-36 -65t-73 -32.5t-111 13q-16 9 -27.5 29t-17.5 36q-5 24 -6 51.5t4 54.5l32 -1q-11 -26 -6.5 -57.5t32.5 -68.5q13 -9 30 -14
t35 -5.5t34 3.5t27 13q25 42 35.5 74t10.5 56h37z" />
    <glyph glyph-name="Aogonek" unicode="&#x104;" horiz-adv-x="764" 
d="M710 -288q-42 -10 -77.5 0t-58 32.5t-29.5 53t6 60.5t50 57q28 20 72 33q-14 41 -29 87q-16 50 -31 94t-21 62q-1 5 -7.5 18t-10.5 17q-11 4 -40.5 13.5t-62.5 21t-62.5 21.5t-41.5 14q-3 1 -13 6.5t-22 12t-22 11.5t-13 5q-19 0 -36 -23t-34 -57t-36 -72.5t-42 -69.5
t-50.5 -48.5t-61.5 -8.5v35q7 9 22.5 28t34 43t39.5 50.5t39.5 50.5t33 43t21.5 29q13 17 4.5 47.5t-25 65.5t-35.5 70t-27 60t1 36t49 -2q14 -42 39 -86t64 -70q32 21 60.5 57t53 81t45 95.5t37 100t28.5 93.5t20 76q8 14 22.5 22t28.5 13q7 -9 9 -44t2 -85.5t-1.5 -112
t-2 -124t0.5 -122t5.5 -105t13.5 -73.5t25 -28h105v-62h-87q-18 0 -14 -22.5t18.5 -57.5t34 -77.5t33 -81.5t15.5 -71t-18 -45q-4 -2 -17.5 -2t-17.5 2q-3 10 -8 26q-39 -9 -60 -27q-27 -23 -33 -48t5 -47.5t32 -31t49.5 2t57.5 50.5q22 -16 25.5 -28.5t-4 -23.5t-22 -20.5
t-28.5 -19.5zM419 348q6 -3 22.5 -10.5t36 -16t37.5 -15.5t26 -10q2 -1 8 -1t8 1q4 41 0 103t-10.5 127t-13.5 124.5t-10 95.5l-191 -347q4 -3 16.5 -10.5t26 -16t26 -15.5t18.5 -9z" />
    <glyph glyph-name="aogonek" unicode="&#x105;" horiz-adv-x="507" 
d="M413 -98q-42 -10 -77.5 0t-58 32.5t-29.5 53t6 60.5t50 56q17 12 39 22q-18 17 -30 43q-16 33 -28.5 67t-24 60.5t-27.5 33.5q-3 -13 -12.5 -45t-20.5 -68t-21 -68t-14 -45q-2 -5 -8.5 -19t-16.5 -30.5t-22.5 -32t-25.5 -24t-26 -5.5t-23 24q-20 42 -21.5 85t4.5 88
q1 14 5 42t9 62t11 72t11 72t9.5 60.5t6.5 39.5q8 42 17.5 71.5t26 45.5t43 17t68.5 -13q5 -1 11 -7.5t7 -9.5q2 -13 7.5 -40t12.5 -61.5t14.5 -72t14.5 -72t12.5 -61.5t8.5 -40q15 -71 37 -98.5t47 -28.5t51.5 16.5t52.5 37t49 33.5t40 5q0 -19 -9 -37t-21.5 -33.5
t-27.5 -28.5t-28 -22q-56 -37 -94 -39h-5v-1q-55 -9 -82 -31.5t-33 -47.5t5 -47.5t32 -31t49.5 2t57.5 50.5q22 -16 25.5 -28.5t-4 -23.5t-22 -20.5t-28.5 -19.5zM95 312q-2 -12 -2.5 -44t-0.5 -68t0.5 -68t2.5 -45q35 53 63 123.5t42.5 146t11.5 150t-30 135.5
q-17 -31 -32 -78t-26 -95.5t-18.5 -91t-10.5 -65.5z" />
    <glyph glyph-name="Cacute" unicode="&#x106;" horiz-adv-x="634" 
d="M139 17q-41 16 -66.5 57.5t-36.5 97t-8 120.5t17.5 130t39.5 124t59 102.5t76.5 66t91.5 14.5q2 -10 7.5 -34.5t11 -52.5t10 -52.5t6.5 -34.5q2 -11 -7 -24t-21.5 -21t-24.5 -7.5t-16 17.5q-3 10 -5 29t-5 40t-8 39.5t-14 26.5t-22.5 2.5t-32.5 -32.5q-6 -8 -14.5 -21.5
t-17 -27.5t-14.5 -25t-6 -13l-52 -278q-9 -46 1 -82.5t32 -62t54 -40t67.5 -16t72 9t68.5 35.5q12 9 31.5 34t41.5 56.5t46 66t45 62t37 44.5t24 15q15 -44 -1.5 -93t-54 -95.5t-90 -86.5t-109.5 -66t-113 -34t-100 10zM255 828q-7 12 -13 21.5t0 22t29.5 30.5t75.5 47
q19 5 25 -2t1.5 -20t-16.5 -30t-29 -32t-36 -25.5t-37 -11.5z" />
    <glyph glyph-name="cacute" unicode="&#x107;" horiz-adv-x="520" 
d="M87 35q-37 28 -53.5 67.5t-18 86t10 95.5t30.5 95t42.5 85.5t47.5 67t45 39t34 1.5q2 -11 7.5 -40.5t11 -63t10 -63t6.5 -40.5q2 -13 1 -27.5t-6 -26t-16.5 -17t-30.5 0.5q-1 7 -5.5 24t-10 36.5t-11 37t-7.5 24.5l-17 17q-31 -21 -51.5 -60t-29.5 -84.5t-4.5 -91t23 -80
t52 -52t84 -5.5t118.5 58.5t155 140.5v-35q0 -3 -12 -18t-29 -34.5t-34.5 -38.5t-29.5 -30q-33 -31 -70.5 -57t-77.5 -39t-81.5 -8.5t-82.5 35.5zM198 640q-7 12 -13 21.5t0 22t29.5 30.5t75.5 47q19 5 25 -2t1.5 -20t-16.5 -30t-29 -32t-36 -25.5t-37 -11.5z" />
    <glyph glyph-name="Ccircumflex" unicode="&#x108;" horiz-adv-x="634" 
d="M139 17q-41 16 -66.5 57.5t-36.5 97t-8 120.5t17.5 130t39.5 124t59 102.5t76.5 66t91.5 14.5q2 -10 7.5 -34.5t11 -52.5t10 -52.5t6.5 -34.5q2 -11 -7 -24t-21.5 -21t-24.5 -7.5t-16 17.5q-3 10 -5 29t-5 40t-8 39.5t-14 26.5t-22.5 2.5t-32.5 -32.5q-6 -8 -14.5 -21.5
t-17 -27.5t-14.5 -25t-6 -13l-52 -278q-9 -46 1 -82.5t32 -62t54 -40t67.5 -16t72 9t68.5 35.5q12 9 31.5 34t41.5 56.5t46 66t45 62t37 44.5t24 15q15 -44 -1.5 -93t-54 -95.5t-90 -86.5t-109.5 -66t-113 -34t-100 10zM548 747q-15 14 -30.5 22t-31 15.5t-33 18t-36 30
t-40 51t-45.5 82.5l-204 -231q-13 -3 -20 3t-9.5 16.5t-1 21t4.5 16.5q1 3 0 3t2.5 5t15 18t38.5 42t72.5 77t116.5 123q2 4 8.5 2t8.5 -5q24 -35 36 -61.5t19.5 -46.5t15 -36.5t23 -32t43 -32t76.5 -36.5z" />
    <glyph glyph-name="ccircumflex" unicode="&#x109;" horiz-adv-x="520" 
d="M87 35q-37 28 -53.5 67.5t-18 86t10 95.5t30.5 95t42.5 85.5t47.5 67t45 39t34 1.5q2 -11 7.5 -40.5t11 -63t10 -63t6.5 -40.5q2 -13 1 -27.5t-6 -26t-16.5 -17t-30.5 0.5q-1 7 -5.5 24t-10 36.5t-11 37t-7.5 24.5l-17 17q-31 -21 -51.5 -60t-29.5 -84.5t-4.5 -91t23 -80
t52 -52t84 -5.5t118.5 58.5t155 140.5v-35q0 -3 -12 -18t-29 -34.5t-34.5 -38.5t-29.5 -30q-33 -31 -70.5 -57t-77.5 -39t-81.5 -8.5t-82.5 35.5zM475 648q-15 14 -30.5 22t-31 15.5t-33 18t-36 30t-40 51t-45.5 82.5l-204 -231q-13 -3 -20 3t-9.5 16.5t-1 21t4.5 16.5
q1 3 0 3t2.5 5t15 18t38.5 42t72.5 77t116.5 123q2 4 8.5 2t8.5 -5q24 -35 36 -61.5t19.5 -46.5t15 -36.5t23 -32t43 -32t76.5 -36.5z" />
    <glyph glyph-name="Cdotaccent" unicode="&#x10a;" horiz-adv-x="634" 
d="M139 17q-41 16 -66.5 57.5t-36.5 97t-8 120.5t17.5 130t39.5 124t59 102.5t76.5 66t91.5 14.5q2 -10 7.5 -34.5t11 -52.5t10 -52.5t6.5 -34.5q2 -11 -7 -24t-21.5 -21t-24.5 -7.5t-16 17.5q-3 10 -5 29t-5 40t-8 39.5t-14 26.5t-22.5 2.5t-32.5 -32.5q-6 -8 -14.5 -21.5
t-17 -27.5t-14.5 -25t-6 -13l-52 -278q-9 -46 1 -82.5t32 -62t54 -40t67.5 -16t72 9t68.5 35.5q12 9 31.5 34t41.5 56.5t46 66t45 62t37 44.5t24 15q15 -44 -1.5 -93t-54 -95.5t-90 -86.5t-109.5 -66t-113 -34t-100 10zM261 921q-6 24 1.5 39t19.5 21.5t25.5 4.5t19 -12
t0 -27.5t-30.5 -42.5q-4 -4 -10 -2.5t-11 5t-9 8t-5 6.5z" />
    <glyph glyph-name="cdotaccent" unicode="&#x10b;" horiz-adv-x="520" 
d="M87 35q-37 28 -53.5 67.5t-18 86t10 95.5t30.5 95t42.5 85.5t47.5 67t45 39t34 1.5q2 -11 7.5 -40.5t11 -63t10 -63t6.5 -40.5q2 -13 1 -27.5t-6 -26t-16.5 -17t-30.5 0.5q-1 7 -5.5 24t-10 36.5t-11 37t-7.5 24.5l-17 17q-31 -21 -51.5 -60t-29.5 -84.5t-4.5 -91t23 -80
t52 -52t84 -5.5t118.5 58.5t155 140.5v-35q0 -3 -12 -18t-29 -34.5t-34.5 -38.5t-29.5 -30q-33 -31 -70.5 -57t-77.5 -39t-81.5 -8.5t-82.5 35.5zM204 733q-6 24 1.5 39t19.5 21.5t25.5 4.5t19 -12t0 -27.5t-30.5 -42.5q-4 -4 -10 -2.5t-11 5t-9 8t-5 6.5z" />
    <glyph glyph-name="Ccaron" unicode="&#x10c;" horiz-adv-x="634" 
d="M139 17q-41 16 -66.5 57.5t-36.5 97t-8 120.5t17.5 130t39.5 124t59 102.5t76.5 66t91.5 14.5q2 -10 7.5 -34.5t11 -52.5t10 -52.5t6.5 -34.5q2 -11 -7 -24t-21.5 -21t-24.5 -7.5t-16 17.5q-3 10 -5 29t-5 40t-8 39.5t-14 26.5t-22.5 2.5t-32.5 -32.5q-6 -8 -14.5 -21.5
t-17 -27.5t-14.5 -25t-6 -13l-52 -278q-9 -46 1 -82.5t32 -62t54 -40t67.5 -16t72 9t68.5 35.5q12 9 31.5 34t41.5 56.5t46 66t45 62t37 44.5t24 15q15 -44 -1.5 -93t-54 -95.5t-90 -86.5t-109.5 -66t-113 -34t-100 10zM558 983l30 -45q-51 -14 -80 -25.5t-45 -22t-23.5 -22
t-15.5 -25.5t-20.5 -32t-37.5 -42q-2 -2 -9 -3.5t-9 0.5q-74 51 -121.5 84.5t-75.5 53.5t-40 29t-15.5 12.5t-2.5 3.5t0 2q-4 4 -5 11.5t1.5 14.5t9.5 11.5t21 2.5l223 -140q-1 39 18.5 58t50.5 29.5t69.5 18.5t76.5 26z" />
    <glyph glyph-name="ccaron" unicode="&#x10d;" horiz-adv-x="520" 
d="M87 35q-37 28 -53.5 67.5t-18 86t10 95.5t30.5 95t42.5 85.5t47.5 67t45 39t34 1.5q2 -11 7.5 -40.5t11 -63t10 -63t6.5 -40.5q2 -13 1 -27.5t-6 -26t-16.5 -17t-30.5 0.5q-1 7 -5.5 24t-10 36.5t-11 37t-7.5 24.5l-17 17q-31 -21 -51.5 -60t-29.5 -84.5t-4.5 -91t23 -80
t52 -52t84 -5.5t118.5 58.5t155 140.5v-35q0 -3 -12 -18t-29 -34.5t-34.5 -38.5t-29.5 -30q-33 -31 -70.5 -57t-77.5 -39t-81.5 -8.5t-82.5 35.5zM482 860l30 -45q-51 -14 -80 -25.5t-45 -22t-23.5 -22t-15.5 -25.5t-20.5 -32t-37.5 -42q-2 -2 -9 -3.5t-9 0.5
q-74 51 -121.5 84.5t-75.5 53.5t-40 29t-15.5 12.5t-2.5 3.5t0 2q-4 4 -5 11.5t1.5 14.5t9.5 11.5t21 2.5l223 -140q-1 39 18.5 58t50.5 29.5t69.5 18.5t76.5 26z" />
    <glyph glyph-name="Dcaron" unicode="&#x10e;" horiz-adv-x="702" 
d="M275 80q2 1 4.5 25.5t5.5 57.5t5 68t3 58q0 13 0.5 37t0.5 53.5t0.5 61.5t0 60.5t-1 50.5t-0.5 32q0 4 -2.5 14t-5 21t-5.5 20.5t-5 13.5q-35 3 -71 -4t-71 -16t-69.5 -15t-65.5 0q-8 17 15.5 34.5t68.5 31t105 22t124 7.5t126 -13.5t111 -40t79 -71.5t30 -109
q0 -23 -8 -49t-20.5 -52t-28 -49.5t-30.5 -39.5q-7 -8 -23 -24.5t-36.5 -37.5t-43.5 -43.5t-43.5 -43t-37 -36.5t-24.5 -24q-3 -24 -8 -44t-15 -31t-25.5 -10.5t-38.5 16.5q-22 -15 -46.5 -42.5t-50.5 -53t-54 -40.5t-56 -3v35zM362 150q63 26 111.5 76.5t77 110.5
t34.5 121.5t-15 108.5t-71.5 72.5t-136.5 13.5v-503zM592 983l30 -45q-51 -14 -80 -25.5t-45 -22t-23.5 -22t-15.5 -25.5t-20.5 -32t-37.5 -42q-2 -2 -9 -3.5t-9 0.5q-74 51 -121.5 84.5t-75.5 53.5t-40 29t-15.5 12.5t-2.5 3.5t0 2q-4 4 -5 11.5t1.5 14.5t9.5 11.5t21 2.5
l223 -140q-1 39 18.5 58t50.5 29.5t69.5 18.5t76.5 26z" />
    <glyph glyph-name="dcaron" unicode="&#x10f;" horiz-adv-x="578" 
d="M35 52q-12 23 -15 63.5t1.5 90.5t16 104t29 103t40 89.5t49.5 63t58 22t64 -32.5l34 279q1 4 8 10.5t10 6.5q4 0 10 -2t11.5 -4.5t9.5 -5.5t4 -5v-487q0 -55 19 -95t50 -59t71.5 -12.5t84.5 44.5q14 0 13 -12.5t-11.5 -29.5t-30 -35t-43 -29.5t-50 -12.5t-51.5 16
q-20 13 -36 31t-28.5 39t-23 43t-17.5 43q-4 -9 -13.5 -26.5t-21.5 -40t-25 -47t-25 -47t-22 -40t-15 -25.5q-14 -26 -35 -39t-43.5 -13t-43 13t-33.5 39zM87 87q1 -3 5 -7.5t9 -8t10.5 -4.5t10.5 3q49 37 79.5 88t49.5 108t30 116.5t21 113.5q-54 7 -92.5 -8.5t-64.5 -46.5
t-41 -74t-21 -90.5t-4.5 -97t8.5 -92.5zM422 762q-5 14 -9.5 48t-7 76t-0.5 86t11 78t27.5 52t48.5 8q0 -6 0.5 -21t0.5 -31.5t-0.5 -31.5t-0.5 -21q-2 -17 -5 -41.5t-7 -51t-7.5 -53t-7 -48t-5.5 -35t-3 -14.5l-18 -17z" />
    <glyph glyph-name="Dcroat" unicode="&#x110;" horiz-adv-x="702" 
d="M21 336q-4 8 -1 14t9 10.5t13.5 6.5t13.5 3q13 3 41.5 8.5t64.5 12.5t75 14q29 6 57 11v25q1 32 0.5 60.5t-1 50.5t-0.5 32q0 4 -2.5 14t-5 21t-5.5 20.5t-5 13.5q-35 3 -71 -4t-71 -16t-69.5 -15t-65.5 0q-8 17 15.5 34.5t68.5 31t105 22t124 7.5t126 -13.5t111 -40
t79 -71.5t30 -109q0 -23 -8 -49t-20.5 -52t-28 -49.5t-30.5 -39.5q-7 -8 -23 -24.5t-36.5 -37.5t-43.5 -43.5t-43.5 -43t-37 -36.5t-24.5 -24q-3 -24 -8 -44t-15 -31t-25.5 -10.5t-38.5 16.5q-22 -15 -46.5 -42.5t-50.5 -53t-54 -40.5t-56 -3v35l207 173q2 1 4.5 25.5
t5.5 57.5t5 68t3 58v37q1 15 1 34q-11 -2 -23 -5q-41 -8 -83 -18t-76.5 -15t-59 -3t-31.5 17zM362 150q63 26 111.5 76.5t77 110.5t34.5 121.5t-15 108.5t-71.5 72.5t-136.5 13.5v-224q8 1 16 3q29 5 43 8q23 4 29 -4t2.5 -21t-13 -26t-18.5 -19q-26 3 -59 0v-220z" />
    <glyph glyph-name="dcroat" unicode="&#x111;" horiz-adv-x="530" 
d="M207 679q-2 7 -0.5 11.5t5.5 8t8.5 5t8.5 2.5l26 6q18 5 40 10q2 1 3 1l14 111q1 4 8 10.5t10 6.5q4 0 10 -2t11.5 -4.5t9.5 -5.5t4 -5v-95l26 6q23 6 41 10l27 6q14 3 18 -3t1.5 -16.5t-8.5 -20.5t-11 -15q-19 3 -43.5 -1t-50.5 -11v-347q0 -55 19 -95t50 -59
t71.5 -12.5t84.5 44.5q14 0 13 -12.5t-11.5 -29.5t-30 -35t-43 -29.5t-50 -12.5t-51.5 16q-20 13 -36 31t-28.5 39t-23 43t-17.5 43q-4 -9 -13.5 -26.5t-21.5 -40t-25 -47t-25 -47t-22 -40t-15 -25.5q-14 -26 -35 -39t-43.5 -13t-43 13t-33.5 39q-12 23 -15 63.5t1.5 90.5
t16 104t29 103t40 89.5t49.5 63t58 22t64 -32.5l14 119q-15 -4 -28 -6q-22 -4 -37.5 -2.5t-19.5 13.5zM87 87q1 -3 5 -7.5t9 -8t10.5 -4.5t10.5 3q49 37 79.5 88t49.5 108t30 116.5t21 113.5q-54 7 -92.5 -8.5t-64.5 -46.5t-41 -74t-21 -90.5t-4.5 -97t8.5 -92.5z" />
    <glyph glyph-name="Emacron" unicode="&#x112;" 
d="M87 17q-39 29 -51.5 69t-18.5 87q2 14 5 44t7 67.5t7.5 79.5t7 79.5t5.5 67.5t3 44q1 8 1 28v83q0 20 -1 28l18 18l312 104h35q5 -14 1.5 -30t-19.5 -22l-260 -105l-17 -17q-1 -1 -3 -21t-5 -47.5t-6 -56.5t-4 -48q0 -5 -0.5 -17.5t-0.5 -26t0.5 -26t0.5 -17.5l295 156
q7 4 10.5 -2t3.5 -16t-3.5 -20t-10.5 -14q-17 -11 -41.5 -25t-51 -29.5t-53 -30.5t-47.5 -27t-34.5 -19.5t-14.5 -7.5h-70v-225q0 -46 20.5 -59t52 -5.5t68.5 29.5t69.5 47t56 46.5t28.5 27.5q4 25 11 41q6 14 16 20t25 -9q6 -31 -9.5 -67t-44.5 -70t-68.5 -62.5t-80 -45
t-78.5 -18t-66 19.5zM16 802q-4 8 -1 14t9 10.5t13.5 6.5t13.5 3q13 3 41.5 8.5t64.5 12.5t75.5 14.5t76 14.5t65 12t42.5 8q23 4 29 -4t2.5 -21t-13 -26t-18.5 -19q-29 4 -68.5 -1t-81 -13.5t-83.5 -18.5t-76.5 -15t-59 -3t-31.5 17z" />
    <glyph glyph-name="emacron" unicode="&#x113;" horiz-adv-x="524" 
d="M208 17q-42 33 -66.5 77.5t-37.5 95.5q-6 -5 -18 -11t-24.5 -10t-24.5 -5.5t-17.5 2.5t-3 13.5t18.5 28.5q2 3 12.5 13t22.5 21.5t22 22t12 13.5q11 25 13.5 55t3 62.5t3.5 64.5t15 60q7 16 26.5 39.5t44 45.5t50 39.5t44 21.5t27 -9t-0.5 -50q-11 -44 -33.5 -85.5
t-46.5 -82t-45.5 -80.5t-30.5 -81q-5 -22 -5 -53.5t7 -62.5t23 -56.5t44 -35.5q32 -12 64 -6t62.5 23t58.5 42.5t52 52.5t43 52.5t32 43.5l17 -18q7 -6 -8.5 -34t-45 -63.5t-69.5 -72.5t-82.5 -62t-84 -31t-74.5 20zM174 452q-1 -5 -1.5 -17.5t-0.5 -26.5t0.5 -26t1.5 -17
q32 55 60 117t44 125q-23 -8 -41.5 -24.5t-31.5 -38t-20.5 -45.5t-10.5 -47zM59 719q-4 8 -1 14t9 10.5t13.5 6.5t13.5 3q13 3 41.5 8.5t64.5 12.5t75.5 14.5t76 14.5t65 12t42.5 8q23 4 29 -4t2.5 -21t-13 -26t-18.5 -19q-29 4 -68.5 -1t-81 -13.5t-83.5 -18.5t-76.5 -15
t-59 -3t-31.5 17z" />
    <glyph glyph-name="Ebreve" unicode="&#x114;" 
d="M87 17q-39 29 -51.5 69t-18.5 87q2 14 5 44t7 67.5t7.5 79.5t7 79.5t5.5 67.5t3 44q1 8 1 28v83q0 20 -1 28l18 18l312 104h35q5 -14 1.5 -30t-19.5 -22l-260 -105l-17 -17q-1 -1 -3 -21t-5 -47.5t-6 -56.5t-4 -48q0 -5 -0.5 -17.5t-0.5 -26t0.5 -26t0.5 -17.5l295 156
q7 4 10.5 -2t3.5 -16t-3.5 -20t-10.5 -14q-17 -11 -41.5 -25t-51 -29.5t-53 -30.5t-47.5 -27t-34.5 -19.5t-14.5 -7.5h-70v-225q0 -46 20.5 -59t52 -5.5t68.5 29.5t69.5 47t56 46.5t28.5 27.5q4 25 11 41q6 14 16 20t25 -9q6 -31 -9.5 -67t-44.5 -70t-68.5 -62.5t-80 -45
t-78.5 -18t-66 19.5zM363 1111q9 -47 0 -86.5t-36 -65t-73 -32.5t-111 13q-16 9 -27.5 29t-17.5 36q-5 24 -6 51.5t4 54.5l32 -1q-11 -26 -6.5 -57.5t32.5 -68.5q13 -9 30 -14t35 -5.5t34 3.5t27 13q25 42 35.5 74t10.5 56h37z" />
    <glyph glyph-name="ebreve" unicode="&#x115;" horiz-adv-x="524" 
d="M208 17q-42 33 -66.5 77.5t-37.5 95.5q-6 -5 -18 -11t-24.5 -10t-24.5 -5.5t-17.5 2.5t-3 13.5t18.5 28.5q2 3 12.5 13t22.5 21.5t22 22t12 13.5q11 25 13.5 55t3 62.5t3.5 64.5t15 60q7 16 26.5 39.5t44 45.5t50 39.5t44 21.5t27 -9t-0.5 -50q-11 -44 -33.5 -85.5
t-46.5 -82t-45.5 -80.5t-30.5 -81q-5 -22 -5 -53.5t7 -62.5t23 -56.5t44 -35.5q32 -12 64 -6t62.5 23t58.5 42.5t52 52.5t43 52.5t32 43.5l17 -18q7 -6 -8.5 -34t-45 -63.5t-69.5 -72.5t-82.5 -62t-84 -31t-74.5 20zM174 452q-1 -5 -1.5 -17.5t-0.5 -26.5t0.5 -26t1.5 -17
q32 55 60 117t44 125q-23 -8 -41.5 -24.5t-31.5 -38t-20.5 -45.5t-10.5 -47zM386 923q9 -47 0 -86.5t-36 -65t-73 -32.5t-111 13q-16 9 -27.5 29t-17.5 36q-5 24 -6 51.5t4 54.5l32 -1q-11 -26 -6.5 -57.5t32.5 -68.5q13 -9 30 -14t35 -5.5t34 3.5t27 13q25 42 35.5 74
t10.5 56h37z" />
    <glyph glyph-name="Edotaccent" unicode="&#x116;" 
d="M87 17q-39 29 -51.5 69t-18.5 87q2 14 5 44t7 67.5t7.5 79.5t7 79.5t5.5 67.5t3 44q1 8 1 28v83q0 20 -1 28l18 18l312 104h35q5 -14 1.5 -30t-19.5 -22l-260 -105l-17 -17q-1 -1 -3 -21t-5 -47.5t-6 -56.5t-4 -48q0 -5 -0.5 -17.5t-0.5 -26t0.5 -26t0.5 -17.5l295 156
q7 4 10.5 -2t3.5 -16t-3.5 -20t-10.5 -14q-17 -11 -41.5 -25t-51 -29.5t-53 -30.5t-47.5 -27t-34.5 -19.5t-14.5 -7.5h-70v-225q0 -46 20.5 -59t52 -5.5t68.5 29.5t69.5 47t56 46.5t28.5 27.5q4 25 11 41q6 14 16 20t25 -9q6 -31 -9.5 -67t-44.5 -70t-68.5 -62.5t-80 -45
t-78.5 -18t-66 19.5zM182 921q-6 24 1.5 39t19.5 21.5t25.5 4.5t19 -12t0 -27.5t-30.5 -42.5q-4 -4 -10 -2.5t-11 5t-9 8t-5 6.5z" />
    <glyph glyph-name="edotaccent" unicode="&#x117;" horiz-adv-x="524" 
d="M208 17q-42 33 -66.5 77.5t-37.5 95.5q-6 -5 -18 -11t-24.5 -10t-24.5 -5.5t-17.5 2.5t-3 13.5t18.5 28.5q2 3 12.5 13t22.5 21.5t22 22t12 13.5q11 25 13.5 55t3 62.5t3.5 64.5t15 60q7 16 26.5 39.5t44 45.5t50 39.5t44 21.5t27 -9t-0.5 -50q-11 -44 -33.5 -85.5
t-46.5 -82t-45.5 -80.5t-30.5 -81q-5 -22 -5 -53.5t7 -62.5t23 -56.5t44 -35.5q32 -12 64 -6t62.5 23t58.5 42.5t52 52.5t43 52.5t32 43.5l17 -18q7 -6 -8.5 -34t-45 -63.5t-69.5 -72.5t-82.5 -62t-84 -31t-74.5 20zM174 452q-1 -5 -1.5 -17.5t-0.5 -26.5t0.5 -26t1.5 -17
q32 55 60 117t44 125q-23 -8 -41.5 -24.5t-31.5 -38t-20.5 -45.5t-10.5 -47zM206 733q-6 24 1.5 39t19.5 21.5t25.5 4.5t19 -12t0 -27.5t-30.5 -42.5q-4 -4 -10 -2.5t-11 5t-9 8t-5 6.5z" />
    <glyph glyph-name="Eogonek" unicode="&#x118;" 
d="M298 -149q-42 -10 -77.5 0t-58 32.5t-29.5 53t6 60.5v1q-30 2 -52 19q-39 29 -51.5 69t-18.5 87q2 14 5 44t7 67.5t7.5 79.5t7 79.5t5.5 67.5t3 44q1 8 1 28v83q0 20 -1 28l18 18l312 104h35q5 -14 1.5 -30t-19.5 -22l-260 -105l-17 -17q-1 -1 -3 -21t-5 -47.5t-6 -56.5
t-4 -48q0 -5 -0.5 -17.5t-0.5 -26t0.5 -26t0.5 -17.5l295 156q7 4 10.5 -2t3.5 -16t-3.5 -20t-10.5 -14q-17 -11 -41.5 -25t-51 -29.5t-53 -30.5t-47.5 -27t-34.5 -19.5t-14.5 -7.5h-70v-225q0 -46 20.5 -59t52 -5.5t68.5 29.5t69.5 47t56 46.5t28.5 27.5q4 25 11 41
q6 14 16 20t25 -9q6 -31 -9.5 -67t-44.5 -70t-69 -63q-7 -5 -14 -9l1 -3q-3 -1 -7 -1q-29 -19 -60 -32q-13 -5 -27 -9q-17 -18 -21 -37q-6 -25 5 -47.5t32 -31t49.5 2t57.5 50.5q22 -16 25.5 -28.5t-4 -23.5t-22 -20.5t-28.5 -19.5z" />
    <glyph glyph-name="eogonek" unicode="&#x119;" horiz-adv-x="524" 
d="M389 -171q-42 -10 -77.5 0t-58 32.5t-29.5 53t6 60.5q5 12 14 24q-19 4 -36 18q-42 33 -66.5 77.5t-37.5 95.5q-6 -5 -18 -11t-24.5 -10t-24.5 -5.5t-17.5 2.5t-3 13.5t18.5 28.5q2 3 12.5 13t22.5 21.5t22 22t12 13.5q11 25 13.5 55t3 62.5t3.5 64.5t15 60
q7 16 26.5 39.5t44 45.5t50 39.5t44 21.5t27 -9t-0.5 -50q-11 -44 -33.5 -85.5t-46.5 -82t-45.5 -80.5t-30.5 -81q-5 -22 -5 -53.5t7 -62.5t23 -56.5t44 -35.5q32 -12 64 -6t62.5 23t58.5 42.5t52 52.5t43 52.5t32 43.5l17 -18q7 -6 -8.5 -34t-45 -63.5t-69.5 -72.5
q-30 -28 -61 -49v-7q1 -7 1 -8q-55 -9 -82 -31.5t-33 -47.5t5 -47.5t32 -31t49.5 2t57.5 50.5q22 -16 25.5 -28.5t-4 -23.5t-22 -20.5t-28.5 -19.5zM174 452q-1 -5 -1.5 -17.5t-0.5 -26.5t0.5 -26t1.5 -17q32 55 60 117t44 125q-23 -8 -41.5 -24.5t-31.5 -38t-20.5 -45.5
t-10.5 -47z" />
    <glyph glyph-name="Ecaron" unicode="&#x11a;" 
d="M87 17q-39 29 -51.5 69t-18.5 87q2 14 5 44t7 67.5t7.5 79.5t7 79.5t5.5 67.5t3 44q1 8 1 28v83q0 20 -1 28l18 18l312 104h35q5 -14 1.5 -30t-19.5 -22l-260 -105l-17 -17q-1 -1 -3 -21t-5 -47.5t-6 -56.5t-4 -48q0 -5 -0.5 -17.5t-0.5 -26t0.5 -26t0.5 -17.5l295 156
q7 4 10.5 -2t3.5 -16t-3.5 -20t-10.5 -14q-17 -11 -41.5 -25t-51 -29.5t-53 -30.5t-47.5 -27t-34.5 -19.5t-14.5 -7.5h-70v-225q0 -46 20.5 -59t52 -5.5t68.5 29.5t69.5 47t56 46.5t28.5 27.5q4 25 11 41q6 14 16 20t25 -9q6 -31 -9.5 -67t-44.5 -70t-68.5 -62.5t-80 -45
t-78.5 -18t-66 19.5zM485 1100l30 -45q-51 -14 -80 -25.5t-45 -22t-23.5 -22t-15.5 -25.5t-20.5 -32t-37.5 -42q-2 -2 -9 -3.5t-9 0.5q-74 51 -121.5 84.5t-75.5 53.5t-40 29t-15.5 12.5t-2.5 3.5t0 2q-4 4 -5 11.5t1.5 14.5t9.5 11.5t21 2.5l223 -140q-1 39 18.5 58
t50.5 29.5t69.5 18.5t76.5 26z" />
    <glyph glyph-name="ecaron" unicode="&#x11b;" horiz-adv-x="524" 
d="M208 17q-42 33 -66.5 77.5t-37.5 95.5q-6 -5 -18 -11t-24.5 -10t-24.5 -5.5t-17.5 2.5t-3 13.5t18.5 28.5q2 3 12.5 13t22.5 21.5t22 22t12 13.5q11 25 13.5 55t3 62.5t3.5 64.5t15 60q7 16 26.5 39.5t44 45.5t50 39.5t44 21.5t27 -9t-0.5 -50q-11 -44 -33.5 -85.5
t-46.5 -82t-45.5 -80.5t-30.5 -81q-5 -22 -5 -53.5t7 -62.5t23 -56.5t44 -35.5q32 -12 64 -6t62.5 23t58.5 42.5t52 52.5t43 52.5t32 43.5l17 -18q7 -6 -8.5 -34t-45 -63.5t-69.5 -72.5t-82.5 -62t-84 -31t-74.5 20zM174 452q-1 -5 -1.5 -17.5t-0.5 -26.5t0.5 -26t1.5 -17
q32 55 60 117t44 125q-23 -8 -41.5 -24.5t-31.5 -38t-20.5 -45.5t-10.5 -47zM506 908l30 -45q-51 -14 -80 -25.5t-45 -22t-23.5 -22t-15.5 -25.5t-20.5 -32t-37.5 -42q-2 -2 -9 -3.5t-9 0.5q-74 51 -121.5 84.5t-75.5 53.5t-40 29t-15.5 12.5t-2.5 3.5t0 2q-4 4 -5 11.5
t1.5 14.5t9.5 11.5t21 2.5l223 -140q-1 39 18.5 58t50.5 29.5t69.5 18.5t76.5 26z" />
    <glyph glyph-name="Gcircumflex" unicode="&#x11c;" horiz-adv-x="599" 
d="M104 52q-31 23 -46.5 64t-21.5 87t-5 89.5t4 72.5q1 11 5.5 40.5t10 63t11 63t8.5 40.5q26 108 57.5 174t64 100.5t64.5 41.5t57.5 -3.5t43 -33.5t22 -49.5t-6.5 -51.5t-42 -38q-5 -2 -12.5 -3.5t-14.5 -1.5t-11.5 1.5t-4.5 3.5v104q0 3 -10.5 3t-16.5 -3
q-33 -19 -60 -62.5t-47.5 -94t-33 -98t-15.5 -75.5q-1 -11 -2 -34t-1.5 -52.5t-0.5 -61.5t0.5 -61t1.5 -52.5t2 -34.5q0 -17 9 -35.5t22 -35t28 -30t28 -19.5q34 -17 73.5 -8t78 36t73.5 66t60.5 81t38 83t6.5 71q-37 5 -74 -1.5t-73.5 -15.5t-73.5 -15.5t-75 -1.5
q-2 6 -2.5 14t1.5 15.5t6.5 13.5t12.5 9q36 0 80 14t89 29t87 25t73 1q6 -56 -10 -123t-48 -130t-77.5 -116t-99.5 -82.5t-113.5 -28.5t-119.5 46zM538 899q-15 14 -30.5 22t-31 15.5t-33 18t-36 30t-40 51t-45.5 82.5l-204 -231q-13 -3 -20 3t-9.5 16.5t-1 21t4.5 16.5
q1 3 0 3t2.5 5t15 18t38.5 42t72.5 77t116.5 123q2 4 8.5 2t8.5 -5q24 -35 36 -61.5t19.5 -46.5t15 -36.5t23 -32t43 -32t76.5 -36.5z" />
    <glyph glyph-name="gcircumflex" unicode="&#x11d;" horiz-adv-x="540" 
d="M190 -295q-31 31 -32.5 76.5t15.5 98t47 107.5t62 106.5t59.5 95t40.5 71.5q7 16 3.5 45.5t-11 60t-16 55.5t-11.5 31l-17 -18l-191 -330q-2 -2 -8.5 -7t-14.5 -10t-16.5 -10t-12.5 -7q-32 -13 -47.5 3t-16 51.5t11 86t33 106.5t50.5 113t63.5 105.5t72 83.5t75.5 47
q19 -6 19.5 -15.5t-10 -21t-28 -24.5t-36 -25.5t-34 -23.5t-20.5 -19q-24 -53 -50 -100t-46.5 -94t-31.5 -96.5t-5 -107.5l17 18q37 44 67 101t55 114.5t46 110t39 87.5t35 47t33.5 -12t34.5 -90t38 -185q5 4 19.5 14.5t31 21.5t31.5 20.5t21 12.5q5 2 18 2t17 -2
q-4 -18 -22.5 -41.5t-40 -44.5t-39.5 -36.5t-19 -16.5q0 -10 -0.5 -30t-2 -46t-3.5 -54t-4 -54t-4 -46l-3 -30q-2 -13 -14.5 -47.5t-31.5 -77.5t-44 -86t-53 -71.5t-58.5 -35.5t-60.5 23zM243 -122q-1 -8 -1.5 -27.5t-0.5 -41.5t0.5 -42t1.5 -27q53 22 88 74t53 115.5
t21.5 129.5t-6.5 115q-29 -24 -55 -59.5t-47 -76t-35 -82.5t-19 -78zM487 697q-15 14 -30.5 22t-31 15.5t-33 18t-36 30t-40 51t-45.5 82.5l-204 -231q-13 -3 -20 3t-9.5 16.5t-1 21t4.5 16.5q1 3 0 3t2.5 5t15 18t38.5 42t72.5 77t116.5 123q2 4 8.5 2t8.5 -5
q24 -35 36 -61.5t19.5 -46.5t15 -36.5t23 -32t43 -32t76.5 -36.5z" />
    <glyph glyph-name="Gbreve" unicode="&#x11e;" horiz-adv-x="599" 
d="M104 52q-31 23 -46.5 64t-21.5 87t-5 89.5t4 72.5q1 11 5.5 40.5t10 63t11 63t8.5 40.5q26 108 57.5 174t64 100.5t64.5 41.5t57.5 -3.5t43 -33.5t22 -49.5t-6.5 -51.5t-42 -38q-5 -2 -12.5 -3.5t-14.5 -1.5t-11.5 1.5t-4.5 3.5v104q0 3 -10.5 3t-16.5 -3
q-33 -19 -60 -62.5t-47.5 -94t-33 -98t-15.5 -75.5q-1 -11 -2 -34t-1.5 -52.5t-0.5 -61.5t0.5 -61t1.5 -52.5t2 -34.5q0 -17 9 -35.5t22 -35t28 -30t28 -19.5q34 -17 73.5 -8t78 36t73.5 66t60.5 81t38 83t6.5 71q-37 5 -74 -1.5t-73.5 -15.5t-73.5 -15.5t-75 -1.5
q-2 6 -2.5 14t1.5 15.5t6.5 13.5t12.5 9q36 0 80 14t89 29t87 25t73 1q6 -56 -10 -123t-48 -130t-77.5 -116t-99.5 -82.5t-113.5 -28.5t-119.5 46zM424 1111q9 -47 0 -86.5t-36 -65t-73 -32.5t-111 13q-16 9 -27.5 29t-17.5 36q-5 24 -6 51.5t4 54.5l32 -1
q-11 -26 -6.5 -57.5t32.5 -68.5q13 -9 30 -14t35 -5.5t34 3.5t27 13q25 42 35.5 74t10.5 56h37z" />
    <glyph glyph-name="gbreve" unicode="&#x11f;" horiz-adv-x="540" 
d="M190 -295q-31 31 -32.5 76.5t15.5 98t47 107.5t62 106.5t59.5 95t40.5 71.5q7 16 3.5 45.5t-11 60t-16 55.5t-11.5 31l-17 -18l-191 -330q-2 -2 -8.5 -7t-14.5 -10t-16.5 -10t-12.5 -7q-32 -13 -47.5 3t-16 51.5t11 86t33 106.5t50.5 113t63.5 105.5t72 83.5t75.5 47
q19 -6 19.5 -15.5t-10 -21t-28 -24.5t-36 -25.5t-34 -23.5t-20.5 -19q-24 -53 -50 -100t-46.5 -94t-31.5 -96.5t-5 -107.5l17 18q37 44 67 101t55 114.5t46 110t39 87.5t35 47t33.5 -12t34.5 -90t38 -185q5 4 19.5 14.5t31 21.5t31.5 20.5t21 12.5q5 2 18 2t17 -2
q-4 -18 -22.5 -41.5t-40 -44.5t-39.5 -36.5t-19 -16.5q0 -10 -0.5 -30t-2 -46t-3.5 -54t-4 -54t-4 -46l-3 -30q-2 -13 -14.5 -47.5t-31.5 -77.5t-44 -86t-53 -71.5t-58.5 -35.5t-60.5 23zM243 -122q-1 -8 -1.5 -27.5t-0.5 -41.5t0.5 -42t1.5 -27q53 22 88 74t53 115.5
t21.5 129.5t-6.5 115q-29 -24 -55 -59.5t-47 -76t-35 -82.5t-19 -78zM394 923q9 -47 0 -86.5t-36 -65t-73 -32.5t-111 13q-16 9 -27.5 29t-17.5 36q-5 24 -6 51.5t4 54.5l32 -1q-11 -26 -6.5 -57.5t32.5 -68.5q13 -9 30 -14t35 -5.5t34 3.5t27 13q25 42 35.5 74t10.5 56h37z
" />
    <glyph glyph-name="Gdotaccent" unicode="&#x120;" horiz-adv-x="599" 
d="M104 52q-31 23 -46.5 64t-21.5 87t-5 89.5t4 72.5q1 11 5.5 40.5t10 63t11 63t8.5 40.5q26 108 57.5 174t64 100.5t64.5 41.5t57.5 -3.5t43 -33.5t22 -49.5t-6.5 -51.5t-42 -38q-5 -2 -12.5 -3.5t-14.5 -1.5t-11.5 1.5t-4.5 3.5v104q0 3 -10.5 3t-16.5 -3
q-33 -19 -60 -62.5t-47.5 -94t-33 -98t-15.5 -75.5q-1 -11 -2 -34t-1.5 -52.5t-0.5 -61.5t0.5 -61t1.5 -52.5t2 -34.5q0 -17 9 -35.5t22 -35t28 -30t28 -19.5q34 -17 73.5 -8t78 36t73.5 66t60.5 81t38 83t6.5 71q-37 5 -74 -1.5t-73.5 -15.5t-73.5 -15.5t-75 -1.5
q-2 6 -2.5 14t1.5 15.5t6.5 13.5t12.5 9q36 0 80 14t89 29t87 25t73 1q6 -56 -10 -123t-48 -130t-77.5 -116t-99.5 -82.5t-113.5 -28.5t-119.5 46zM249 978q-6 24 1.5 39t19.5 21.5t25.5 4.5t19 -12t0 -27.5t-30.5 -42.5q-4 -4 -10 -2.5t-11 5t-9 8t-5 6.5z" />
    <glyph glyph-name="gdotaccent" unicode="&#x121;" horiz-adv-x="540" 
d="M190 -295q-31 31 -32.5 76.5t15.5 98t47 107.5t62 106.5t59.5 95t40.5 71.5q7 16 3.5 45.5t-11 60t-16 55.5t-11.5 31l-17 -18l-191 -330q-2 -2 -8.5 -7t-14.5 -10t-16.5 -10t-12.5 -7q-32 -13 -47.5 3t-16 51.5t11 86t33 106.5t50.5 113t63.5 105.5t72 83.5t75.5 47
q19 -6 19.5 -15.5t-10 -21t-28 -24.5t-36 -25.5t-34 -23.5t-20.5 -19q-24 -53 -50 -100t-46.5 -94t-31.5 -96.5t-5 -107.5l17 18q37 44 67 101t55 114.5t46 110t39 87.5t35 47t33.5 -12t34.5 -90t38 -185q5 4 19.5 14.5t31 21.5t31.5 20.5t21 12.5q5 2 18 2t17 -2
q-4 -18 -22.5 -41.5t-40 -44.5t-39.5 -36.5t-19 -16.5q0 -10 -0.5 -30t-2 -46t-3.5 -54t-4 -54t-4 -46l-3 -30q-2 -13 -14.5 -47.5t-31.5 -77.5t-44 -86t-53 -71.5t-58.5 -35.5t-60.5 23zM243 -122q-1 -8 -1.5 -27.5t-0.5 -41.5t0.5 -42t1.5 -27q53 22 88 74t53 115.5
t21.5 129.5t-6.5 115q-29 -24 -55 -59.5t-47 -76t-35 -82.5t-19 -78zM214 733q-6 24 1.5 39t19.5 21.5t25.5 4.5t19 -12t0 -27.5t-30.5 -42.5q-4 -4 -10 -2.5t-11 5t-9 8t-5 6.5z" />
    <glyph glyph-name="Gcommaaccent" unicode="&#x122;" horiz-adv-x="599" 
d="M104 52q-31 23 -46.5 64t-21.5 87t-5 89.5t4 72.5q1 11 5.5 40.5t10 63t11 63t8.5 40.5q26 108 57.5 174t64 100.5t64.5 41.5t57.5 -3.5t43 -33.5t22 -49.5t-6.5 -51.5t-42 -38q-5 -2 -12.5 -3.5t-14.5 -1.5t-11.5 1.5t-4.5 3.5v104q0 3 -10.5 3t-16.5 -3
q-33 -19 -60 -62.5t-47.5 -94t-33 -98t-15.5 -75.5q-1 -11 -2 -34t-1.5 -52.5t-0.5 -61.5t0.5 -61t1.5 -52.5t2 -34.5q0 -17 9 -35.5t22 -35t28 -30t28 -19.5q34 -17 73.5 -8t78 36t73.5 66t60.5 81t38 83t6.5 71q-37 5 -74 -1.5t-73.5 -15.5t-73.5 -15.5t-75 -1.5
q-2 6 -2.5 14t1.5 15.5t6.5 13.5t12.5 9q36 0 80 14t89 29t87 25t73 1q6 -56 -10 -123t-48 -130t-77.5 -116t-99.5 -82.5t-113.5 -28.5t-119.5 46zM186 -427q-2 24 1 36t9 18.5t15.5 12t19.5 17.5t21 34t21 63q6 26 2 49t-11 44t-11 40.5t2 39.5q4 12 14 16t20.5 2.5
t20.5 -7t15 -11.5q24 -24 27.5 -66t-6.5 -89.5t-30.5 -93.5t-44 -77t-46.5 -41.5t-39 13.5z" />
    <glyph glyph-name="gcommaaccent" unicode="&#x123;" horiz-adv-x="540" 
d="M190 -295q-31 31 -32.5 76.5t15.5 98t47 107.5t62 106.5t59.5 95t40.5 71.5q7 16 3.5 45.5t-11 60t-16 55.5t-11.5 31l-17 -18l-191 -330q-2 -2 -8.5 -7t-14.5 -10t-16.5 -10t-12.5 -7q-32 -13 -47.5 3t-16 51.5t11 86t33 106.5t50.5 113t63.5 105.5t72 83.5t75.5 47
q19 -6 19.5 -15.5t-10 -21t-28 -24.5t-36 -25.5t-34 -23.5t-20.5 -19q-24 -53 -50 -100t-46.5 -94t-31.5 -96.5t-5 -107.5l17 18q37 44 67 101t55 114.5t46 110t39 87.5t35 47t33.5 -12t34.5 -90t38 -185q5 4 19.5 14.5t31 21.5t31.5 20.5t21 12.5q5 2 18 2t17 -2
q-4 -18 -22.5 -41.5t-40 -44.5t-39.5 -36.5t-19 -16.5q0 -10 -0.5 -30t-2 -46t-3.5 -54t-4 -54t-4 -46l-3 -30q-2 -13 -14.5 -47.5t-31.5 -77.5t-44 -86t-53 -71.5t-58.5 -35.5t-60.5 23zM243 -122q-1 -8 -1.5 -27.5t-0.5 -41.5t0.5 -42t1.5 -27q53 22 88 74t53 115.5
t21.5 129.5t-6.5 115q-29 -24 -55 -59.5t-47 -76t-35 -82.5t-19 -78zM252 837q-5 14 -9.5 48t-7 76t-0.5 86t11 78t27.5 52t48.5 8q0 -6 0.5 -21t0.5 -31.5t-0.5 -31.5t-0.5 -21q-2 -17 -5 -41.5t-7 -51t-7.5 -53t-7 -48t-5.5 -35t-3 -14.5l-18 -17z" />
    <glyph glyph-name="Hcircumflex" unicode="&#x124;" horiz-adv-x="772" 
d="M442 486q0 1 -6.5 1t-10.5 -1q-35 -13 -56.5 -22.5t-36.5 -16.5t-27 -12.5t-27 -11t-37.5 -11t-58.5 -13.5v-347q0 -18 -8 -19t-17.5 7.5t-18 22t-8.5 24.5q-1 23 -3 55.5t-3.5 67t-3.5 68.5t-3.5 61t-2.5 43l-1 17l-87 35q-2 1 -2 7t2 11q5 10 16.5 16.5t24.5 10t25.5 5
t20.5 2.5q0 15 2 52t5 78.5t5.5 78.5t4.5 51q0 3 5.5 15.5t13 27.5t16.5 28t16.5 18t12.5 -2.5t5 -33.5q0 -6 -2.5 -26.5t-6 -43.5t-6 -43.5t-2.5 -26.5q-1 -11 -1.5 -37.5t-0.5 -57t0.5 -57.5t1.5 -38q25 -6 66 -2t82.5 16.5t77.5 31t52 40.5q19 28 29 64t18 73.5t20 74.5
t36 67q29 35 57.5 48t52.5 9.5t41.5 -21t23 -42.5t-2 -55.5t-33.5 -60.5q-7 -8 -21.5 -23t-33 -34t-39 -40t-39.5 -39.5t-34.5 -33.5t-22.5 -22q-6 -60 -4 -125t10 -130t20 -128t25 -120h-68zM563 729q-2 -7 -7 -24t-10.5 -36.5t-10 -37t-6.5 -24.5q30 15 55.5 42t44.5 57
t31.5 59t16 49t-2.5 27t-24 -7q-26 -22 -50.5 -47t-36.5 -58zM606 960q-15 14 -30.5 22t-31 15.5t-33 18t-36 30t-40 51t-45.5 82.5l-204 -231q-13 -3 -20 3t-9.5 16.5t-1 21t4.5 16.5q1 3 0 3t2.5 5t15 18t38.5 42t72.5 77t116.5 123q2 4 8.5 2t8.5 -5q24 -35 36 -61.5
t19.5 -46.5t15 -36.5t23 -32t43 -32t76.5 -36.5z" />
    <glyph glyph-name="hcircumflex" unicode="&#x125;" horiz-adv-x="469" 
d="M104 35q9 106 4.5 203t-16.5 193t-28 195t-29 208q0 3 -0.5 10t-0.5 15.5t0.5 15.5t0.5 10h35q3 -18 9.5 -56t15 -86t18 -101t18 -101t15.5 -86t11 -56q0 -3 2.5 -10.5t5 -15.5t5 -15.5t4.5 -10.5q3 8 12.5 27.5t20.5 42t21 42t15 27.5q16 29 41 53t49 30t42.5 -11.5
t23.5 -71.5q1 -13 2.5 -40t3.5 -61.5t4 -72.5t3.5 -72t3 -61t1.5 -40q11 -14 16.5 -32.5t0.5 -36.5q-20 -7 -34 1t-24 22.5t-17 32.5t-12 31q2 38 3 82t-0.5 89.5t-6 90.5t-13.5 85q-18 9 -33.5 -7t-29 -48.5t-25.5 -76.5t-23 -92.5t-21.5 -96.5t-20 -87t-19 -65t-19.5 -31z
M439.129 741.214q-9.95996 11.1504 -20.252 17.5225q-10.292 6.37109 -20.584 12.3447t-21.9121 14.3359q-11.6201 8.36328 -23.9043 23.8936q-12.2842 15.5312 -26.5596 40.6191q-14.2764 25.0879 -30.2119 65.707l-135.457 -183.979q-8.63184 -2.38965 -13.2793 2.38867
q-4.64844 4.7793 -6.30859 13.1416q-1.66016 8.36328 -0.664062 16.7256t2.98828 13.1416q0.664062 2.38867 0 2.38867t1.66016 3.98242t9.95996 14.3359q7.63574 10.3545 25.5635 33.4512q17.9287 23.0967 48.1406 61.3262t77.3564 97.9629
q1.32812 3.18652 5.64355 1.59375q4.31641 -1.59375 5.64453 -3.98242q15.9355 -27.876 23.9033 -48.9814q7.96875 -21.1064 12.9482 -37.0352q4.98047 -15.9287 9.95996 -29.0703q4.98047 -13.1416 15.2725 -25.4863t28.5518 -25.4863t50.7959 -29.0703z" />
    <glyph glyph-name="hbar" unicode="&#x127;" horiz-adv-x="469" 
d="M-19 545q-3 8 -1 14t6 11t8.5 7t8.5 3q8 3 25.5 8.5t39.5 12.5l-4 25q-16 99 -29 208q0 3 -0.5 10t-0.5 15.5t0.5 15.5t0.5 10h35q3 -18 9.5 -56t15 -86t17.5 -101q3 -13 5 -26q23 8 45.5 15t40.5 12t26 8q15 4 18.5 -4t1.5 -21t-8 -26.5t-12 -19.5q-18 4 -42.5 -1
t-50.5 -14l-10 -4l4 -20q9 -48 16 -86t11 -56q0 -3 2.5 -10.5t5 -15.5t5 -15.5t4.5 -10.5q3 8 12.5 27.5t20.5 42t21 42t15 27.5q16 29 41 53t49 30t42.5 -11.5t23.5 -71.5q1 -13 2.5 -40t3.5 -61.5t4 -72.5t3.5 -72t3 -61t1.5 -40q11 -14 16.5 -32.5t0.5 -36.5
q-20 -7 -34 1t-24 22.5t-17 32.5t-12 31q2 38 3 82t-0.5 89.5t-6 90.5t-13.5 85q-18 9 -33.5 -7t-29 -48.5t-25.5 -76.5t-23 -92.5t-21.5 -96.5t-20 -87t-19 -65t-19.5 -31l-35 35q9 106 4.5 203t-16.5 193q-7 55 -15 112q-22 -8 -40 -12q-21 -5 -36.5 -3t-19.5 17z" />
    <glyph glyph-name="Itilde" unicode="&#x128;" horiz-adv-x="807" 
d="M8 -93q-4 7 0 15.5t10.5 16t14 13t10.5 7.5l260 103l18 18q-1 17 -1.5 52.5t-0.5 79.5v187q0 45 0.5 80t1.5 52q0 6 2.5 21t5 32t5 31.5t4.5 20.5h-225q-13 0 -16.5 7t-1.5 16t7.5 17.5t10.5 11.5q122 -9 242 18q21 48 58 74t82 35t93.5 3.5t91 -19.5t75 -34t45.5 -40.5
t3 -38t-52.5 -27t-121.5 -8t-204 19.5q-25 -36 -38.5 -82t-18 -97t-2 -104.5t9 -105t15.5 -99t17 -86.5q30 -6 60.5 -1.5t61 14.5t60.5 22.5t60.5 22.5t60.5 14.5t61 -2.5q5 -13 2 -30t-19 -22q-81 -15 -175.5 -35.5t-192 -48.5t-190.5 -63t-171 -79zM425 723
q112 -21 178.5 -26t97.5 -0.5t32 16t-19 23.5t-55 21.5t-76 11t-83 -8.5t-75 -37zM107 909q27 53 56.5 74.5t61 23.5t64 -9.5t65.5 -24.5t65.5 -20.5t63.5 1.5q12 9 32.5 29t42.5 41t42 37.5t32 18.5t11.5 -16t-19.5 -66q-29 -30 -60 -54t-63.5 -39.5t-65 -21t-65.5 2.5
q-22 6 -51.5 22t-60 25t-60 1.5t-50.5 -48.5z" />
    <glyph glyph-name="itilde" unicode="&#x129;" horiz-adv-x="200" 
d="M35 52q-2 4 -5 15.5t-6 25.5t-5 27t-2 19v486q0 10 9 14t20.5 4.5t21 -0.5t10.5 -1v-538q0 -17 11 -28t26 -17.5t31 -8t27 1.5q14 -21 -0.5 -33.5t-41 -14t-55 10t-41.5 37.5zM-126 787q20 57 42.5 80t46 25t48 -10.5t49 -26t49 -22t47.5 1.5q9 10 24.5 31.5t32 44
t31.5 40t24 19.5t8.5 -17t-14.5 -71q-22 -32 -45 -58t-47 -42.5t-49 -22t-49 2.5q-11 4 -24.5 14t-28.5 20t-30.5 17t-30.5 5.5t-28.5 -14.5t-24.5 -42z" />
    <glyph glyph-name="imacron" unicode="&#x12b;" horiz-adv-x="194" 
d="M35 52q-2 4 -5 15.5t-6 25.5t-5 27t-2 19v486q0 10 9 14t20.5 4.5t21 -0.5t10.5 -1v-538q0 -17 11 -28t26 -17.5t31 -8t27 1.5q14 -21 -0.5 -33.5t-41 -14t-55 10t-41.5 37.5zM-128 741q-4 8 -1 14t9 10.5t13.5 6.5t13.5 3q13 3 41.5 8.5t64.5 12.5t75.5 14.5t76 14.5
t65 12t42.5 8q23 4 29 -4t2.5 -21t-13 -26t-18.5 -19q-29 4 -68.5 -1t-81 -13.5t-83.5 -18.5t-76.5 -15t-59 -3t-31.5 17z" />
    <glyph glyph-name="Ibreve" unicode="&#x12c;" horiz-adv-x="807" 
d="M8 -93q-4 7 0 15.5t10.5 16t14 13t10.5 7.5l260 103l18 18q-1 17 -1.5 52.5t-0.5 79.5v187q0 45 0.5 80t1.5 52q0 6 2.5 21t5 32t5 31.5t4.5 20.5h-225q-13 0 -16.5 7t-1.5 16t7.5 17.5t10.5 11.5q122 -9 242 18q21 48 58 74t82 35t93.5 3.5t91 -19.5t75 -34t45.5 -40.5
t3 -38t-52.5 -27t-121.5 -8t-204 19.5q-25 -36 -38.5 -82t-18 -97t-2 -104.5t9 -105t15.5 -99t17 -86.5q30 -6 60.5 -1.5t61 14.5t60.5 22.5t60.5 22.5t60.5 14.5t61 -2.5q5 -13 2 -30t-19 -22q-81 -15 -175.5 -35.5t-192 -48.5t-190.5 -63t-171 -79zM425 723
q112 -21 178.5 -26t97.5 -0.5t32 16t-19 23.5t-55 21.5t-76 11t-83 -8.5t-75 -37zM528 1111q9 -47 0 -86.5t-36 -65t-73 -32.5t-111 13q-16 9 -27.5 29t-17.5 36q-5 24 -6 51.5t4 54.5l32 -1q-11 -26 -6.5 -57.5t32.5 -68.5q13 -9 30 -14t35 -5.5t34 3.5t27 13
q25 42 35.5 74t10.5 56h37z" />
    <glyph glyph-name="ibreve" unicode="&#x12d;" horiz-adv-x="200" 
d="M35 52q-2 4 -5 15.5t-6 25.5t-5 27t-2 19v486q0 10 9 14t20.5 4.5t21 -0.5t10.5 -1v-538q0 -17 11 -28t26 -17.5t31 -8t27 1.5q14 -21 -0.5 -33.5t-41 -14t-55 10t-41.5 37.5zM225 923q9 -47 0 -86.5t-36 -65t-73 -32.5t-111 13q-16 9 -27.5 29t-17.5 36q-5 24 -6 51.5
t4 54.5l32 -1q-11 -26 -6.5 -57.5t32.5 -68.5q13 -9 30 -14t35 -5.5t34 3.5t27 13q25 42 35.5 74t10.5 56h37z" />
    <glyph glyph-name="Iogonek" unicode="&#x12e;" horiz-adv-x="807" 
d="M744 -80q-42 -10 -77.5 0t-58 32.5t-29.5 53t6 60.5q3 8 9 16q-7 -1 -15 -3q-94 -20 -191.5 -48t-190.5 -63t-171 -79l-18 18q-4 7 0 15.5t10.5 16t14 13t10.5 7.5l260 103l18 18q-1 17 -1.5 52.5t-0.5 79.5v187q0 45 0.5 80t1.5 52q0 6 2.5 21t5 32t5 31.5t4.5 20.5
h-225q-13 0 -16.5 7t-1.5 16t7.5 17.5t10.5 11.5q122 -9 242 18q21 48 58 74t82 35t93.5 3.5t91 -19.5t75 -34t45.5 -40.5t3 -38t-52.5 -27t-121.5 -8t-204 19.5q-25 -36 -38.5 -82t-18 -97t-2 -104.5t9 -105t15.5 -99t17 -86.5q30 -6 60.5 -1.5t61 14.5t60.5 22.5
t60.5 22.5t60.5 14.5t61 -2.5q5 -13 2 -30t-19 -22q-31 -6 -64 -12q-17 -8 -29 -18q-27 -22 -33 -47t5 -47.5t32 -31t49.5 2t57.5 50.5q22 -16 25.5 -28.5t-4 -23.5t-22 -20.5t-28.5 -19.5zM425 723q112 -21 178.5 -26t97.5 -0.5t32 16t-19 23.5t-55 21.5t-76 11t-83 -8.5
t-75 -37z" />
    <glyph glyph-name="iogonek" unicode="&#x12f;" horiz-adv-x="200" 
d="M111 -190q-42 -10 -77.5 0t-58 32.5t-29.5 53t6 60.5t50 56q18 13 43 24q-6 7 -10 16q-2 4 -5 15.5t-6 25.5t-5 27t-2 19v486q0 10 9 14t20.5 4.5t21 -0.5t10.5 -1v-538q0 -17 11 -28t26 -17.5t31 -8t27 1.5q14 -21 -0.5 -33.5t-41.5 -14.5q-13 0 -26 2q-51 -9 -76 -30
q-27 -23 -33 -48t5 -47.5t32 -31t49.5 2t57.5 50.5q22 -16 25.5 -28.5t-4 -23.5t-22 -20.5t-28.5 -19.5zM0 799q0 29 23 37.5t47 -2.5v-53q-3 -1 -10.5 -1.5t-16 -0.5t-16 0.5t-10.5 1.5q-4 1 -10.5 8t-6.5 10z" />
    <glyph glyph-name="Idotaccent" unicode="&#x130;" horiz-adv-x="807" 
d="M8 -93q-4 7 0 15.5t10.5 16t14 13t10.5 7.5l260 103l18 18q-1 17 -1.5 52.5t-0.5 79.5v187q0 45 0.5 80t1.5 52q0 6 2.5 21t5 32t5 31.5t4.5 20.5h-225q-13 0 -16.5 7t-1.5 16t7.5 17.5t10.5 11.5q122 -9 242 18q21 48 58 74t82 35t93.5 3.5t91 -19.5t75 -34t45.5 -40.5
t3 -38t-52.5 -27t-121.5 -8t-204 19.5q-25 -36 -38.5 -82t-18 -97t-2 -104.5t9 -105t15.5 -99t17 -86.5q30 -6 60.5 -1.5t61 14.5t60.5 22.5t60.5 22.5t60.5 14.5t61 -2.5q5 -13 2 -30t-19 -22q-81 -15 -175.5 -35.5t-192 -48.5t-190.5 -63t-171 -79zM425 723
q112 -21 178.5 -26t97.5 -0.5t32 16t-19 23.5t-55 21.5t-76 11t-83 -8.5t-75 -37zM347 921q-6 24 1.5 39t19.5 21.5t25.5 4.5t19 -12t0 -27.5t-30.5 -42.5q-4 -4 -10 -2.5t-11 5t-9 8t-5 6.5z" />
    <glyph glyph-name="dotlessi" unicode="&#x131;" horiz-adv-x="200" 
d="M35 52q-2 4 -5 15.5t-6 25.5t-5 27t-2 19v486q0 10 9 14t20.5 4.5t21 -0.5t10.5 -1v-538q0 -17 11 -28t26 -17.5t31 -8t27 1.5q14 -21 -0.5 -33.5t-41 -14t-55 10t-41.5 37.5z" />
    <glyph glyph-name="Jcircumflex" unicode="&#x134;" horiz-adv-x="633" 
d="M191 -155q-36 24 -40 73t12.5 109t47 125.5t64 122.5t63.5 100.5t45 59.5q1 4 1 17.5t-1 17.5q-2 12 -6.5 41.5t-10 63t-11 63t-7.5 41.5q-5 9 -14.5 15t-20.5 1l-277 -103q-12 -5 -21 1t-13 16t-0.5 20t16.5 15l573 191h52q7 -21 4 -30.5t-11.5 -13.5t-20.5 -5t-24 -4
q-10 -3 -34.5 -10t-52.5 -15.5t-52.5 -16t-33.5 -10.5q-6 -57 3 -114.5t32 -110.5l173 87q14 7 27.5 2t20 -15t4.5 -21.5t-18 -17.5q-23 -9 -54.5 -18.5t-62.5 -22.5t-56 -32t-34 -49q-4 -10 -7 -46.5t-7.5 -88.5t-12 -113t-19.5 -119.5t-30 -109.5t-44 -82.5t-61 -37.5
t-81 24zM226 -102q14 -28 31 -19.5t34.5 38t33.5 73t28.5 85.5t20.5 75t9 43q1 9 1 33v105q0 25 -1 35q-42 -44 -74.5 -100.5t-53.5 -118t-29 -125.5t0 -124zM552 891q-15 14 -30.5 22t-31 15.5t-33 18t-36 30t-40 51t-45.5 82.5l-204 -231q-13 -3 -20 3t-9.5 16.5t-1 21
t4.5 16.5q1 3 0 3t2.5 5t15 18t38.5 42t72.5 77t116.5 123q2 4 8.5 2t8.5 -5q24 -35 36 -61.5t19.5 -46.5t15 -36.5t23 -32t43 -32t76.5 -36.5z" />
    <glyph glyph-name="jcircumflex" unicode="&#x135;" horiz-adv-x="264" 
d="M-52 -590q-15 20 -20 47t-3 56t8.5 56.5t14.5 48.5q4 12 13 36.5t21 55.5t25 65t25.5 64.5t22.5 54.5l15 36q4 40 0 77.5t-12 73.5t-19 72t-22 73q-4 13 1.5 21.5t14.5 11t19.5 -1t17.5 -14.5q16 -27 24 -54.5t14 -56t12 -57.5t18 -58q11 9 35.5 29.5t55 40t62 31.5
t56.5 4q3 -1 10 -7.5t8 -10.5q-8 -13 -27 -25t-43.5 -24.5t-50.5 -24.5t-47.5 -25t-35.5 -27.5t-14 -29.5v-365q0 -16 -8.5 -43t-23 -56.5t-34 -56t-42 -40.5t-46 -10.5t-45.5 33.5zM334 400q-15 14 -30.5 22t-31 15.5t-33 18t-36 30t-40 51t-45.5 82.5l-204 -231
q-13 -3 -20 3t-9.5 16.5t-1 21t4.5 16.5q1 3 0 3t2.5 5t15 18t38.5 42t72.5 77t116.5 123q2 4 8.5 2t8.5 -5q25 -35 36.5 -61.5t19 -46.5t15 -36.5t23 -32t43 -32t76.5 -36.5zM0 -417q-1 -8 -1.5 -27.5t-0.5 -41.5t0.5 -42t1.5 -27q2 -1 8.5 -1t8.5 1q16 8 28.5 35
t21.5 56.5t14.5 54t5.5 27.5q1 12 1.5 41.5t0.5 63t-0.5 63t-1.5 41.5q-32 -57 -57 -117.5t-30 -126.5z" />
    <glyph glyph-name="Kcommaaccent" unicode="&#x136;" horiz-adv-x="669" 
d="M572 17q-5 29 -9.5 68.5t-12 82.5t-19 86t-31 79.5t-48.5 63t-70 37.5q-8 2 -19.5 3t-23 1t-19.5 -1t-8 -3l-34 -312q-1 -9 -5.5 -18t-11 -15.5t-16 -8t-20.5 6.5v358l-155 -98q-12 -7 -30 -1.5t-23 19.5q14 18 47.5 40t68.5 45t62.5 45.5t29.5 42.5l35 364q1 9 8 13.5
t15.5 6t17 0.5t11.5 -2v-330l53 35l207 260h35q6 -23 -6.5 -53t-32 -58t-39 -50.5t-25.5 -29.5q-7 -7 -22 -21t-33.5 -31.5t-39.5 -36t-40 -35.5t-34 -30.5t-23 -19.5q46 -12 89.5 -28.5t84.5 -39.5q25 -15 44.5 -47.5t34.5 -74.5t25 -89t15.5 -90.5t6 -80t-3.5 -57.5
t-13 -22t-23 26zM221 -427q-2 24 1 36t9 18.5t15.5 12t19.5 17.5t21 34t21 63q6 26 2 49t-11 44t-11 40.5t2 39.5q4 12 14 16t20.5 2.5t20.5 -7t15 -11.5q24 -24 27.5 -66t-6.5 -89.5t-30.5 -93.5t-44 -77t-46.5 -41.5t-39 13.5z" />
    <glyph glyph-name="kcommaaccent" unicode="&#x137;" horiz-adv-x="481" 
d="M90 70q1 16 7.5 46.5t12 65t7 68.5t-6.5 57.5t-28.5 31.5t-59.5 -9q-22 6 -25 17t6 25t25.5 30.5t33.5 34t30.5 34.5t15.5 33q-1 8 -3.5 35t-6.5 62.5t-7.5 75.5t-7.5 76t-6.5 62.5t-3.5 35.5q-1 13 0.5 24.5t7.5 19.5t16.5 10.5t27.5 -3.5q5 -38 10 -86t11 -99
t13.5 -102t17.5 -95q10 8 24 27.5t30 43t33.5 47t33.5 38t30 17t23 -15.5q1 -2 1 -8.5t-1 -9.5q-13 -40 -41.5 -74t-58 -66t-51.5 -65.5t-23 -71.5q9 -8 26 -26l87 -87q25 -24 47 -46.5t39 -40.5l26 -25q6 -6 19 -19.5t23 -29.5t11 -31t-18 -25q-2 -1 -8.5 -1t-8.5 1
q-51 64 -112.5 129.5t-130.5 113.5q-1 -9 -3 -28t-5.5 -43t-7 -50.5t-7.5 -50.5t-7 -43t-5 -28q-1 -5 -5.5 -15.5t-11.5 -20.5t-16 -15.5t-19 -0.5q0 4 -0.5 13.5t-0.5 21t0.5 21.5t0.5 14zM127 -427q-2 24 1 36t9 18.5t15.5 12t19.5 17.5t21 34t21 63q6 26 2 49t-11 44
t-11 40.5t2 39.5q4 12 14 16t20.5 2.5t20.5 -7t15 -11.5q24 -24 27.5 -66t-6.5 -89.5t-30.5 -93.5t-44 -77t-46.5 -41.5t-39 13.5z" />
    <glyph glyph-name="Lacute" unicode="&#x139;" horiz-adv-x="651" 
d="M17 729q0 3 4 6t9.5 6t11.5 4.5t10 0.5t10 -5.5t11.5 -9.5t9.5 -10.5t4 -8.5v-555q12 15 40.5 20.5t67.5 7.5t85.5 2.5t94.5 5t94.5 16t85.5 34.5q37 22 50.5 22.5t9.5 -12.5t-24 -34t-49.5 -42t-66.5 -37t-76 -18q-10 -1 -30 -1t-46 -0.5t-54 0t-54 0.5h-46q-20 0 -30 1
q-12 -9 -24.5 -30.5t-27 -41.5t-31.5 -32t-39 -1v712zM264 828q-7 12 -13 21.5t0 22t29.5 30.5t75.5 47q19 5 25 -2t1.5 -20t-16.5 -30t-29 -32t-36 -25.5t-37 -11.5z" />
    <glyph glyph-name="lacute" unicode="&#x13a;" horiz-adv-x="249" 
d="M78 17q-22 14 -32.5 43.5t-15 62t-4.5 60.5v42q0 11 1 44.5t3 78t4 95t4 95t3.5 77.5t1.5 44q0 15 0.5 52t0.5 78.5t-0.5 78.5t-0.5 52q15 11 26 15q10 4 18 1.5t8 -16.5v-816q0 -7 4.5 -16.5t11.5 -16.5t16.5 -8.5t19.5 7.5l121 103q5 -23 -1 -48t-19.5 -47t-33.5 -40
t-43 -27.5t-47 -9t-46 15.5zM128 731q-7 12 -13 21.5t0 22t29.5 30.5t75.5 47q19 5 25 -2t1.5 -20t-16.5 -30t-29 -32t-36 -25.5t-37 -11.5z" />
    <glyph glyph-name="Lcommaaccent" unicode="&#x13b;" horiz-adv-x="651" 
d="M17 729q0 3 4 6t9.5 6t11.5 4.5t10 0.5t10 -5.5t11.5 -9.5t9.5 -10.5t4 -8.5v-555q12 15 40.5 20.5t67.5 7.5t85.5 2.5t94.5 5t94.5 16t85.5 34.5q37 22 50.5 22.5t9.5 -12.5t-24 -34t-49.5 -42t-66.5 -37t-76 -18q-10 -1 -30 -1t-46 -0.5t-54 0t-54 0.5h-46q-20 0 -30 1
q-12 -9 -24.5 -30.5t-27 -41.5t-31.5 -32t-39 -1v712zM212 -427q-2 24 1 36t9 18.5t15.5 12t19.5 17.5t21 34t21 63q6 26 2 49t-11 44t-11 40.5t2 39.5q4 12 14 16t20.5 2.5t20.5 -7t15 -11.5q24 -24 27.5 -66t-6.5 -89.5t-30.5 -93.5t-44 -77t-46.5 -41.5t-39 13.5z" />
    <glyph glyph-name="lcommaaccent" unicode="&#x13c;" horiz-adv-x="249" 
d="M78 17q-22 14 -32.5 43.5t-15 62t-4.5 60.5v42q0 11 1 44.5t3 78t4 95t4 95t3.5 77.5t1.5 44q0 15 0.5 52t0.5 78.5t-0.5 78.5t-0.5 52q15 11 26 15q10 4 18 1.5t8 -16.5v-816q0 -7 4.5 -16.5t11.5 -16.5t16.5 -8.5t19.5 7.5l121 103q5 -23 -1 -48t-19.5 -47t-33.5 -40
t-43 -27.5t-47 -9t-46 15.5zM13 -427q-2 24 1 36t9 18.5t15.5 12t19.5 17.5t21 34t21 63q6 26 2 49t-11 44t-11 40.5t2 39.5q4 12 14 16t20.5 2.5t20.5 -7t15 -11.5q24 -24 27.5 -66t-6.5 -89.5t-30.5 -93.5t-44 -77t-46.5 -41.5t-39 13.5z" />
    <glyph glyph-name="Lcaron" unicode="&#x13d;" horiz-adv-x="651" 
d="M17 729q0 3 4 6t9.5 6t11.5 4.5t10 0.5t10 -5.5t11.5 -9.5t9.5 -10.5t4 -8.5v-555q12 15 40.5 20.5t67.5 7.5t85.5 2.5t94.5 5t94.5 16t85.5 34.5q37 22 50.5 22.5t9.5 -12.5t-24 -34t-49.5 -42t-66.5 -37t-76 -18q-10 -1 -30 -1t-46 -0.5t-54 0t-54 0.5h-46q-20 0 -30 1
q-12 -9 -24.5 -30.5t-27 -41.5t-31.5 -32t-39 -1v712zM296 671q-5 14 -9.5 48t-7 76t-0.5 86t11 78t27.5 52t48.5 8q0 -6 0.5 -21t0.5 -31.5t-0.5 -31.5t-0.5 -21q-2 -17 -5 -41.5t-7 -51t-7.5 -53t-7 -48t-5.5 -35t-3 -14.5l-18 -17z" />
    <glyph glyph-name="lcaron" unicode="&#x13e;" horiz-adv-x="273" 
d="M78 17q-22 14 -32.5 43.5t-15 62t-4.5 60.5v42q0 11 1 44.5t3 78t4 95t4 95t3.5 77.5t1.5 44q0 15 0.5 52t0.5 78.5t-0.5 78.5t-0.5 52q15 11 26 15q10 4 18 1.5t8 -16.5v-816q0 -7 4.5 -16.5t11.5 -16.5t16.5 -8.5t19.5 7.5l121 103q5 -23 -1 -48t-19.5 -47t-33.5 -40
t-43 -27.5t-47 -9t-46 15.5zM154 683q-5 14 -9.5 48t-7 76t-0.5 86t11 78t27.5 52t48.5 8q0 -6 0.5 -21t0.5 -31.5t-0.5 -31.5t-0.5 -21q-2 -17 -5 -41.5t-7 -51t-7.5 -53t-7 -48t-5.5 -35t-3 -14.5l-18 -17z" />
    <glyph glyph-name="Ldot" unicode="&#x13f;" horiz-adv-x="651" 
d="M17 729q0 3 4 6t9.5 6t11.5 4.5t10 0.5t10 -5.5t11.5 -9.5t9.5 -10.5t4 -8.5v-555q12 15 40.5 20.5t67.5 7.5t85.5 2.5t94.5 5t94.5 16t85.5 34.5q37 22 50.5 22.5t9.5 -12.5t-24 -34t-49.5 -42t-66.5 -37t-76 -18q-10 -1 -30 -1t-46 -0.5t-54 0t-54 0.5h-46q-20 0 -30 1
q-12 -9 -24.5 -30.5t-27 -41.5t-31.5 -32t-39 -1v712zM292 282q-16 25 -11 45.5t21.5 30.5t38 6t38.5 -29q9 -13 0.5 -29.5t-24 -27t-33.5 -12t-30 15.5z" />
    <glyph glyph-name="ldot" unicode="&#x140;" horiz-adv-x="313" 
d="M78 17q-22 14 -32.5 43.5t-15 62t-4.5 60.5v42q0 11 1 44.5t3 78t4 95t4 95t3.5 77.5t1.5 44q0 15 0.5 52t0.5 78.5t-0.5 78.5t-0.5 52q15 11 26 15q10 4 18 1.5t8 -16.5v-816q0 -7 4.5 -16.5t11.5 -16.5t16.5 -8.5t19.5 7.5l121 103q5 -23 -1 -48t-19.5 -47t-33.5 -40
t-43 -27.5t-47 -9t-46 15.5zM181 444q-16 25 -11 45.5t21.5 30.5t38 6t38.5 -29q9 -13 0.5 -29.5t-24 -27t-33.5 -12t-30 15.5z" />
    <glyph glyph-name="Lslash" unicode="&#x141;" horiz-adv-x="721" 
d="M-21 345q-4 8 -1 14t9 10.5t13.5 6.5t13.5 3q13 3 41 8q15 3 32 6v336q0 3 4 6t9.5 6t11.5 4.5t10 0.5t10 -5.5t11.5 -9.5t9.5 -10.5t4 -8.5v-305q18 3 38 7q40 8 76.5 15t65 12t42.5 8q23 4 29 -4t2.5 -21t-13 -26t-18.5 -19q-29 4 -68.5 -1t-81.5 -14q-36 -7 -72 -16
v-191q12 15 40.5 20.5t67.5 7.5t85.5 2.5t94.5 5t94.5 16t85.5 34.5q37 22 50.5 22.5t9.5 -12.5t-24 -34t-49.5 -42t-66.5 -37t-76 -18q-10 -1 -30 -1t-46 -0.5t-54 0t-54 0.5h-46q-20 0 -30 1q-12 -9 -24.5 -30.5t-27 -41.5t-31.5 -32t-39 -1v316l-18 -2q-34 -5 -58.5 -3
t-31.5 17z" />
    <glyph glyph-name="lslash" unicode="&#x142;" horiz-adv-x="282" 
d="M-65 283q-3 9 -1 15.5t6.5 11.5t9.5 7.5t10 3.5q9 3 30 9q17 5 39 12q1 2 1 5q2 45 4 95.5t4 95t3.5 77.5t1.5 44q0 15 0.5 52t0.5 78.5t-0.5 78.5t-0.5 52q15 11 26 15q10 4 18 1.5t8 -16.5v-559q25 8 49 15q26 8 46.5 13.5t30.5 8.5q17 5 21 -4t1.5 -23.5t-9.5 -29
t-13 -20.5q-21 4 -49 -1.5t-58 -15.5q-10 -3 -19 -6v-194q0 -7 4.5 -16.5t11.5 -16.5t16.5 -8.5t19.5 7.5l121 103q5 -23 -1 -48t-19.5 -47t-33.5 -40t-43 -27.5t-47 -9t-46 15.5q-22 14 -32.5 43.5t-15 62t-4.5 60.5v42q0 11 1 44v5q-15 -4 -27 -7q-25 -5 -42.5 -3
t-22.5 19z" />
    <glyph glyph-name="Nacute" unicode="&#x143;" horiz-adv-x="599" 
d="M35 17q-14 152 -18.5 304t0.5 304q2 5 8.5 18.5t16 25t21.5 16t24 -7.5l87 -87l243 -400l5 -7q6 -7 14 -14.5t16.5 -12t16.5 0.5q-1 16 -4 50t-6.5 76.5t-7.5 89.5t-7.5 90t-6 77t-3.5 50q-1 13 -1 43.5t3.5 68.5t11 78t21.5 70.5t35 46t51 5.5q4 0 10.5 -6.5t6.5 -10.5
q-7 -9 -17 -21.5t-19.5 -26.5t-18.5 -28.5t-13 -27.5q-1 -13 -1 -40t-0.5 -61.5t0 -72t0.5 -72.5v-61q0 -27 1 -40q0 -8 2.5 -38.5t5.5 -65.5t6 -66t3 -39q0 -10 0.5 -31t0.5 -43t-0.5 -40.5t-0.5 -23.5q-1 -5 -5 -15t-11 -18t-16 -10.5t-20 8.5l-122 121l-225 365l-27 17
v-538q0 -14 -8.5 -17.5t-19 -1t-20.5 8t-12 10.5zM238 828q-7 12 -13 21.5t0 22t29.5 30.5t75.5 47q19 5 25 -2t1.5 -20t-16.5 -30t-29 -32t-36 -25.5t-37 -11.5z" />
    <glyph glyph-name="nacute" unicode="&#x144;" horiz-adv-x="507" 
d="M70 17q1 13 1 45v136q0 32 -1 45q-1 6 -3.5 26t-6 47t-7.5 57t-8 57t-6.5 47t-3.5 27q-2 14 -1.5 29t5.5 26t16 15.5t32 -2.5q1 -21 3.5 -49.5t6.5 -59.5t10 -61t15 -55q13 37 25.5 65.5t28.5 52.5t36 45.5t48 44.5q35 29 58.5 23.5t39 -34t25.5 -73.5t18 -95.5t16.5 -99
t21.5 -84t32.5 -52t49.5 -1.5q9 -27 2.5 -39.5t-22 -14t-36.5 8t-41.5 26t-36.5 39.5t-22 49q-4 18 -7 59t-9 88t-18.5 92.5t-35.5 72.5l-70 -68q-3 -4 -14.5 -36t-25.5 -73.5t-27 -84t-19 -68.5q-2 -9 -5 -33.5t-6 -52.5t-4.5 -52.5t-1.5 -34.5q-9 -18 -26 -18t-26 18z
M192 640q-7 12 -13 21.5t0 22t29.5 30.5t75.5 47q19 5 25 -2t1.5 -20t-16.5 -30t-29 -32t-36 -25.5t-37 -11.5z" />
    <glyph glyph-name="Ncommaaccent" unicode="&#x145;" horiz-adv-x="599" 
d="M35 17q-14 152 -18.5 304t0.5 304q2 5 8.5 18.5t16 25t21.5 16t24 -7.5l87 -87l243 -400l5 -7q6 -7 14 -14.5t16.5 -12t16.5 0.5q-1 16 -4 50t-6.5 76.5t-7.5 89.5t-7.5 90t-6 77t-3.5 50q-1 13 -1 43.5t3.5 68.5t11 78t21.5 70.5t35 46t51 5.5q4 0 10.5 -6.5t6.5 -10.5
q-7 -9 -17 -21.5t-19.5 -26.5t-18.5 -28.5t-13 -27.5q-1 -13 -1 -40t-0.5 -61.5t0 -72t0.5 -72.5v-61q0 -27 1 -40q0 -8 2.5 -38.5t5.5 -65.5t6 -66t3 -39q0 -10 0.5 -31t0.5 -43t-0.5 -40.5t-0.5 -23.5q-1 -5 -5 -15t-11 -18t-16 -10.5t-20 8.5l-122 121l-225 365l-27 17
v-538q0 -14 -8.5 -17.5t-19 -1t-20.5 8t-12 10.5zM186 -427q-2 24 1 36t9 18.5t15.5 12t19.5 17.5t21 34t21 63q6 26 2 49t-11 44t-11 40.5t2 39.5q4 12 14 16t20.5 2.5t20.5 -7t15 -11.5q24 -24 27.5 -66t-6.5 -89.5t-30.5 -93.5t-44 -77t-46.5 -41.5t-39 13.5z" />
    <glyph glyph-name="ncommaaccent" unicode="&#x146;" horiz-adv-x="507" 
d="M70 17q1 13 1 45v136q0 32 -1 45q-1 6 -3.5 26t-6 47t-7.5 57t-8 57t-6.5 47t-3.5 27q-2 14 -1.5 29t5.5 26t16 15.5t32 -2.5q1 -21 3.5 -49.5t6.5 -59.5t10 -61t15 -55q13 37 25.5 65.5t28.5 52.5t36 45.5t48 44.5q35 29 58.5 23.5t39 -34t25.5 -73.5t18 -95.5t16.5 -99
t21.5 -84t32.5 -52t49.5 -1.5q9 -27 2.5 -39.5t-22 -14t-36.5 8t-41.5 26t-36.5 39.5t-22 49q-4 18 -7 59t-9 88t-18.5 92.5t-35.5 72.5l-70 -68q-3 -4 -14.5 -36t-25.5 -73.5t-27 -84t-19 -68.5q-2 -9 -5 -33.5t-6 -52.5t-4.5 -52.5t-1.5 -34.5q-9 -18 -26 -18t-26 18z
M140 -427q-2 24 1 36t9 18.5t15.5 12t19.5 17.5t21 34t21 63q6 26 2 49t-11 44t-11 40.5t2 39.5q4 12 14 16t20.5 2.5t20.5 -7t15 -11.5q24 -24 27.5 -66t-6.5 -89.5t-30.5 -93.5t-44 -77t-46.5 -41.5t-39 13.5z" />
    <glyph glyph-name="Ncaron" unicode="&#x147;" horiz-adv-x="599" 
d="M35 17q-14 152 -18.5 304t0.5 304q2 5 8.5 18.5t16 25t21.5 16t24 -7.5l87 -87l243 -400l5 -7q6 -7 14 -14.5t16.5 -12t16.5 0.5q-1 16 -4 50t-6.5 76.5t-7.5 89.5t-7.5 90t-6 77t-3.5 50q-1 13 -1 43.5t3.5 68.5t11 78t21.5 70.5t35 46t51 5.5q4 0 10.5 -6.5t6.5 -10.5
q-7 -9 -17 -21.5t-19.5 -26.5t-18.5 -28.5t-13 -27.5q-1 -13 -1 -40t-0.5 -61.5t0 -72t0.5 -72.5v-61q0 -27 1 -40q0 -8 2.5 -38.5t5.5 -65.5t6 -66t3 -39q0 -10 0.5 -31t0.5 -43t-0.5 -40.5t-0.5 -23.5q-1 -5 -5 -15t-11 -18t-16 -10.5t-20 8.5l-122 121l-225 365l-27 17
v-538q0 -14 -8.5 -17.5t-19 -1t-20.5 8t-12 10.5zM540 983l30 -45q-51 -14 -80 -25.5t-45 -22t-23.5 -22t-15.5 -25.5t-20.5 -32t-37.5 -42q-2 -2 -9 -3.5t-9 0.5q-74 51 -121.5 84.5t-75.5 53.5t-40 29t-15.5 12.5t-2.5 3.5t0 2q-4 4 -5 11.5t1.5 14.5t9.5 11.5t21 2.5
l223 -140q-1 39 18.5 58t50.5 29.5t69.5 18.5t76.5 26z" />
    <glyph glyph-name="ncaron" unicode="&#x148;" horiz-adv-x="507" 
d="M70 17q1 13 1 45v136q0 32 -1 45q-1 6 -3.5 26t-6 47t-7.5 57t-8 57t-6.5 47t-3.5 27q-2 14 -1.5 29t5.5 26t16 15.5t32 -2.5q1 -21 3.5 -49.5t6.5 -59.5t10 -61t15 -55q13 37 25.5 65.5t28.5 52.5t36 45.5t48 44.5q35 29 58.5 23.5t39 -34t25.5 -73.5t18 -95.5t16.5 -99
t21.5 -84t32.5 -52t49.5 -1.5q9 -27 2.5 -39.5t-22 -14t-36.5 8t-41.5 26t-36.5 39.5t-22 49q-4 18 -7 59t-9 88t-18.5 92.5t-35.5 72.5l-70 -68q-3 -4 -14.5 -36t-25.5 -73.5t-27 -84t-19 -68.5q-2 -9 -5 -33.5t-6 -52.5t-4.5 -52.5t-1.5 -34.5q-9 -18 -26 -18t-26 18z
M489 876l30 -45q-51 -14 -80 -25.5t-45 -22t-23.5 -22t-15.5 -25.5t-20.5 -32t-37.5 -42q-2 -2 -9 -3.5t-9 0.5q-74 51 -121.5 84.5t-75.5 53.5t-40 29t-15.5 12.5t-2.5 3.5t0 2q-4 4 -5 11.5t1.5 14.5t9.5 11.5t21 2.5l223 -140q-1 39 18.5 58t50.5 29.5t69.5 18.5t76.5 26
z" />
    <glyph glyph-name="napostrophe" unicode="&#x149;" horiz-adv-x="507" 
d="M70 17q1 13 1 45v136q0 32 -1 45q-1 6 -3.5 26t-6 47t-7.5 57t-8 57t-6.5 47t-3.5 27q-2 14 -1.5 29t5.5 26t16 15.5t32 -2.5q1 -21 3.5 -49.5t6.5 -59.5t10 -61t15 -55q13 37 25.5 65.5t28.5 52.5t36 45.5t48 44.5q35 29 58.5 23.5t39 -34t25.5 -73.5t18 -95.5t16.5 -99
t21.5 -84t32.5 -52t49.5 -1.5q9 -27 2.5 -39.5t-22 -14t-36.5 8t-41.5 26t-36.5 39.5t-22 49q-4 18 -7 59t-9 88t-18.5 92.5t-35.5 72.5l-70 -68q-3 -4 -14.5 -36t-25.5 -73.5t-27 -84t-19 -68.5q-2 -9 -5 -33.5t-6 -52.5t-4.5 -52.5t-1.5 -34.5q-9 -18 -26 -18t-26 18z
M39.2031 293.894q-1.66992 13.6641 0.835938 20.4961t7.51758 10.5322q5.01172 3.70117 12.9473 6.83203q7.93555 3.13184 16.2891 9.96387t17.542 19.3574t17.542 35.8682q5.01172 14.8027 1.6709 27.8975q-3.3418 13.0947 -9.18848 25.0508
q-5.84766 11.9561 -9.18945 23.0576q-3.34082 11.1025 1.6709 22.4893q3.3418 6.83203 11.6943 9.10938q8.35352 2.27734 17.125 1.42285q8.77051 -0.853516 17.124 -3.98438q8.35254 -3.13184 12.5293 -6.54785q20.0479 -13.6641 22.9717 -37.5762t-5.42969 -50.9561
q-8.35352 -27.043 -25.4775 -53.2324t-36.7539 -43.8389t-38.8428 -23.6279q-19.2129 -5.97754 -32.5781 7.68652z" />
    <glyph glyph-name="Omacron" unicode="&#x14c;" 
d="M95 35q-50 50 -62.5 111t-6 125.5t24 128.5t27.5 120q4 22 6 53t5 65t8 67t16 59q1 2 7 8.5t10 8.5q69 41 124 31.5t95 -54t64.5 -116t32.5 -153t-0.5 -165t-34.5 -153t-70.5 -116.5t-107.5 -55q-24 -3 -42 -4t-34 2t-30.5 11.5t-31.5 25.5zM147 70q50 -34 88.5 -29.5
t66.5 35.5t46 83t27.5 113.5t10.5 127.5t-4 124t-16.5 103.5t-27.5 66.5q-37 49 -64.5 65t-48 9.5t-34 -32t-21 -61t-10 -76t-0.5 -77t8 -65.5t14 -40q3 -4 15 -13t27 -20.5t29.5 -25.5t23 -28.5t8 -27.5t-16.5 -24q-13 -9 -28.5 -5t-31.5 15t-31 28t-28 33t-22.5 30
t-13.5 20l-18 -34v-208q0 -6 5 -18t12.5 -25.5t16.5 -25.5t18 -18zM16 953q-4 8 -1 14t9 10.5t13.5 6.5t13.5 3q13 3 41.5 8.5t64.5 12.5t75.5 14.5t76 14.5t65 12t42.5 8q23 4 29 -4t2.5 -21t-13 -26t-18.5 -19q-29 4 -68.5 -1t-81 -13.5t-83.5 -18.5t-76.5 -15t-59 -3
t-31.5 17z" />
    <glyph glyph-name="omacron" unicode="&#x14d;" horiz-adv-x="344" 
d="M101 52q-25 37 -30 82.5t0 95.5t16 101t19 98.5t9 89t-14 71.5q-8 16 -21.5 15.5t-29 -4t-31 -2.5t-27.5 19q1 4 7.5 10.5t9.5 7.5q90 13 150.5 -18.5t96.5 -89t49.5 -131.5t9.5 -147t-23 -135.5t-48 -96.5t-66 -30t-77 64zM153 87q1 -3 6 -8t10.5 -11t10.5 -10.5t7 -5.5
q37 21 55 57t21.5 80t-4 92.5t-21.5 93.5t-32.5 83t-35.5 62q-1 -13 -4 -40t-6 -61t-7 -72t-7.5 -72.5t-6.5 -61.5t-4 -40q-1 -10 0.5 -22.5t4.5 -24.5t6.5 -22.5t6.5 -16.5zM-51 751q-4 8 -1 14t9 10.5t13.5 6.5t13.5 3q13 3 41.5 8.5t64.5 12.5t75.5 14.5t76 14.5t65 12
t42.5 8q23 4 29 -4t2.5 -21t-13 -26t-18.5 -19q-29 4 -68.5 -1t-81 -13.5t-83.5 -18.5t-76.5 -15t-59 -3t-31.5 17z" />
    <glyph glyph-name="Obreve" unicode="&#x14e;" 
d="M95 35q-50 50 -62.5 111t-6 125.5t24 128.5t27.5 120q4 22 6 53t5 65t8 67t16 59q1 2 7 8.5t10 8.5q69 41 124 31.5t95 -54t64.5 -116t32.5 -153t-0.5 -165t-34.5 -153t-70.5 -116.5t-107.5 -55q-24 -3 -42 -4t-34 2t-30.5 11.5t-31.5 25.5zM147 70q50 -34 88.5 -29.5
t66.5 35.5t46 83t27.5 113.5t10.5 127.5t-4 124t-16.5 103.5t-27.5 66.5q-37 49 -64.5 65t-48 9.5t-34 -32t-21 -61t-10 -76t-0.5 -77t8 -65.5t14 -40q3 -4 15 -13t27 -20.5t29.5 -25.5t23 -28.5t8 -27.5t-16.5 -24q-13 -9 -28.5 -5t-31.5 15t-31 28t-28 33t-22.5 30
t-13.5 20l-18 -34v-208q0 -6 5 -18t12.5 -25.5t16.5 -25.5t18 -18zM363 1111q9 -47 0 -86.5t-36 -65t-73 -32.5t-111 13q-16 9 -27.5 29t-17.5 36q-5 24 -6 51.5t4 54.5l32 -1q-11 -26 -6.5 -57.5t32.5 -68.5q13 -9 30 -14t35 -5.5t34 3.5t27 13q25 42 35.5 74t10.5 56h37z
" />
    <glyph glyph-name="obreve" unicode="&#x14f;" horiz-adv-x="344" 
d="M101 52q-25 37 -30 82.5t0 95.5t16 101t19 98.5t9 89t-14 71.5q-8 16 -21.5 15.5t-29 -4t-31 -2.5t-27.5 19q1 4 7.5 10.5t9.5 7.5q90 13 150.5 -18.5t96.5 -89t49.5 -131.5t9.5 -147t-23 -135.5t-48 -96.5t-66 -30t-77 64zM153 87q1 -3 6 -8t10.5 -11t10.5 -10.5t7 -5.5
q37 21 55 57t21.5 80t-4 92.5t-21.5 93.5t-32.5 83t-35.5 62q-1 -13 -4 -40t-6 -61t-7 -72t-7.5 -72.5t-6.5 -61.5t-4 -40q-1 -10 0.5 -22.5t4.5 -24.5t6.5 -22.5t6.5 -16.5zM299 923q9 -47 0 -86.5t-36 -65t-73 -32.5t-111 13q-16 9 -27.5 29t-17.5 36q-5 24 -6 51.5
t4 54.5l32 -1q-11 -26 -6.5 -57.5t32.5 -68.5q13 -9 30 -14t35 -5.5t34 3.5t27 13q25 42 35.5 74t10.5 56h37z" />
    <glyph glyph-name="Ohungarumlaut" unicode="&#x150;" 
d="M95 35q-50 50 -62.5 111t-6 125.5t24 128.5t27.5 120q4 22 6 53t5 65t8 67t16 59q1 2 7 8.5t10 8.5q69 41 124 31.5t95 -54t64.5 -116t32.5 -153t-0.5 -165t-34.5 -153t-70.5 -116.5t-107.5 -55q-24 -3 -42 -4t-34 2t-30.5 11.5t-31.5 25.5zM147 70q50 -34 88.5 -29.5
t66.5 35.5t46 83t27.5 113.5t10.5 127.5t-4 124t-16.5 103.5t-27.5 66.5q-37 49 -64.5 65t-48 9.5t-34 -32t-21 -61t-10 -76t-0.5 -77t8 -65.5t14 -40q3 -4 15 -13t27 -20.5t29.5 -25.5t23 -28.5t8 -27.5t-16.5 -24q-13 -9 -28.5 -5t-31.5 15t-31 28t-28 33t-22.5 30
t-13.5 20l-18 -34v-208q0 -6 5 -18t12.5 -25.5t16.5 -25.5t18 -18zM82 948q-2 2 10 17t33.5 39.5t50 57t59.5 71.5q4 10 14 12t21 -2t20.5 -11.5t13.5 -17.5q-13 -11 -30.5 -34t-37.5 -49.5t-41.5 -51.5t-41.5 -39.5t-38.5 -15t-32.5 23.5zM203 917q-2 2 10 17t33.5 39.5
t50 57t59.5 71.5q4 10 14 12t21 -2t20.5 -11.5t13.5 -17.5q-13 -11 -30.5 -34t-37.5 -49.5t-41.5 -51.5t-41.5 -39.5t-38.5 -14.5t-32.5 23z" />
    <glyph glyph-name="ohungarumlaut" unicode="&#x151;" horiz-adv-x="344" 
d="M101 52q-25 37 -30 82.5t0 95.5t16 101t19 98.5t9 89t-14 71.5q-8 16 -21.5 15.5t-29 -4t-31 -2.5t-27.5 19q1 4 7.5 10.5t9.5 7.5q90 13 150.5 -18.5t96.5 -89t49.5 -131.5t9.5 -147t-23 -135.5t-48 -96.5t-66 -30t-77 64zM153 87q1 -3 6 -8t10.5 -11t10.5 -10.5t7 -5.5
q37 21 55 57t21.5 80t-4 92.5t-21.5 93.5t-32.5 83t-35.5 62q-1 -13 -4 -40t-6 -61t-7 -72t-7.5 -72.5t-6.5 -61.5t-4 -40q-1 -10 0.5 -22.5t4.5 -24.5t6.5 -22.5t6.5 -16.5zM13 774q-2 2 10 17t33.5 39.5t50 57t59.5 71.5q4 10 14 12t21 -2t20.5 -11.5t13.5 -17.5
q-13 -11 -30.5 -34t-37.5 -49.5t-41.5 -51.5t-41.5 -39.5t-38.5 -15t-32.5 23.5zM134 743q-2 2 10 17t33.5 39.5t50 57t59.5 71.5q4 10 14 12t21 -2t20.5 -11.5t13.5 -17.5q-13 -11 -30.5 -34t-37.5 -49.5t-41.5 -51.5t-41.5 -39.5t-38.5 -14.5t-32.5 23z" />
    </font>
</defs>
</svg>
