<?xml version="1.0" standalone="no"?>
<!DOCTYPE svg PUBLIC "-//W3C//DTD SVG 1.1//EN" "http://www.w3.org/Graphics/SVG/1.1/DTD/svg11.dtd" >
<svg xmlns="http://www.w3.org/2000/svg" xmlns:xlink="http://www.w3.org/1999/xlink" version="1.1">
<metadata>
Created by FontForge 20161013 at Mon Jul 11 04:38:16 2011
 By ,,,
Copyright (c) 2011 by vernon adams. All rights reserved.
</metadata>
<defs>
<font id="PaytoneOne" horiz-adv-x="1634" >
  <font-face 
    font-family="Paytone One"
    font-weight="400"
    font-stretch="normal"
    units-per-em="2048"
    panose-1="0 0 0 0 0 0 0 0 0 0"
    ascent="1638"
    descent="-410"
    x-height="1026"
    cap-height="1408"
    bbox="-327 -880 2610 2355"
    underline-thickness="102"
    underline-position="-308"
    unicode-range="U+0002-FB02"
  />
<missing-glyph horiz-adv-x="748" 
d="M68 0v1365h544v-1365h-544zM136 68h408v1229h-408v-1229z" />
    <glyph glyph-name=".notdef" horiz-adv-x="748" 
d="M68 0v1365h544v-1365h-544zM136 68h408v1229h-408v-1229z" />
    <glyph glyph-name=".null" horiz-adv-x="0" 
 />
    <glyph glyph-name="nonmarkingreturn" horiz-adv-x="682" 
 />
    <glyph glyph-name="uni0002" horiz-adv-x="0" 
 />
    <glyph glyph-name="uni0009" unicode="&#x9;" horiz-adv-x="0" 
 />
    <glyph glyph-name="uni000A" unicode="&#xa;" horiz-adv-x="0" 
 />
    <glyph glyph-name="space" unicode=" " horiz-adv-x="383" 
 />
    <glyph glyph-name="exclam" unicode="!" horiz-adv-x="625" 
d="M94 1096v318h432v-318l-80 -580h-270zM86 176q0 46 19 84t51.5 65t74.5 42t87 15q46 0 88 -16t73.5 -44t50 -65.5t18.5 -80.5q0 -45 -19.5 -83.5t-51.5 -66t-73.5 -43t-85.5 -15.5q-48 0 -90.5 16t-74 44.5t-49.5 66t-18 81.5z" />
    <glyph glyph-name="quotedbl" unicode="&#x22;" horiz-adv-x="792" 
d="M446 1534h296l-58 -508h-196zM60 1534h294l-58 -508h-196z" />
    <glyph glyph-name="numbersign" unicode="#" horiz-adv-x="1068" 
d="M212 502h-156l16 122h168l38 152h-184l16 126h198l118 474h182l-118 -474h194l116 474h182l-116 -474h146l-16 -126h-164l-36 -152h178l-16 -122h-194l-122 -502h-178l122 502h-196l-122 -502h-178zM616 624l36 152h-194l-38 -152h196z" />
    <glyph glyph-name="dollar" unicode="$" horiz-adv-x="1159" 
d="M64 976q0 98 28.5 172.5t81 127.5t127.5 84.5t169 43.5v172h206v-166q184 -16 352 -120l-104 -234l-112 36q-35 11 -69 19t-67 13v-288q102 -35 182.5 -78t136 -98t84.5 -125.5t29 -160.5q0 -71 -31 -139t-87.5 -123t-136.5 -90.5t-177 -41.5v-166h-206v156
q-238 22 -386 118l102 246q88 -29 159 -45.5t125 -18.5v270q-86 21 -159.5 53t-127.5 83t-85.5 124t-33.5 176zM470 1102q-38 -19 -59 -42t-21 -62q0 -42 19 -64.5t61 -39.5v208zM676 290q21 8 38 16t29 19t18.5 25.5t6.5 35.5q0 31 -27.5 54.5t-64.5 33.5v-184z" />
    <glyph glyph-name="percent" unicode="%" horiz-adv-x="1818" 
d="M998 1376h142l-340 -1376h-138zM1396 -32q-87 0 -156 30.5t-117 84.5t-73.5 127t-25.5 158q0 87 27.5 161t77 127.5t118 83.5t149.5 30q87 0 156 -33t117 -88.5t73.5 -128.5t25.5 -152q0 -87 -27 -160.5t-76.5 -126.5t-118 -83t-150.5 -30zM1396 172q32 0 54.5 18.5
t36.5 47t20.5 63.5t6.5 67q0 38 -8 73t-23 62t-37 43t-50 16q-31 0 -53 -16.5t-36.5 -43.5t-21.5 -62t-7 -72q0 -39 7.5 -74.5t22.5 -62.5t37 -43t51 -16zM420 614q-90 0 -159 32.5t-116 87.5t-71 127.5t-24 152.5q0 88 27.5 161.5t77 126.5t118.5 82.5t152 29.5
q92 0 161 -35t115.5 -92t69.5 -128.5t23 -144.5q0 -88 -27.5 -161.5t-77 -126.5t-118.5 -82.5t-151 -29.5zM420 816q33 0 55.5 18.5t37 47.5t21 64t6.5 68q0 39 -8 74t-23.5 61.5t-38 42.5t-50.5 16q-32 0 -54.5 -17.5t-36 -45.5t-19.5 -62.5t-6 -68.5q0 -39 7.5 -74.5
t22.5 -63t36.5 -44t49.5 -16.5z" />
    <glyph glyph-name="ampersand" unicode="&#x26;" horiz-adv-x="1375" 
d="M1305 504q-73 -141 -172 -226l242 -278h-412l-89 103q-75 -60 -164 -97.5t-185 -37.5q-106 0 -192 29t-147.5 83t-95 131t-33.5 173q0 78 21.5 136t60 102t90.5 77t112 61q-142 157 -142 296q0 67 32.5 131t93 114.5t147 81.5t195.5 31q92 0 169 -25t133 -71.5t87 -111.5
t31 -146q0 -54 -17 -107.5t-50.5 -101.5t-83.5 -89t-117 -70q10 -12 28.5 -35t39.5 -48.5t40 -49t30 -35.5l164 176zM421 398q0 -57 32.5 -92.5t89.5 -35.5q80 0 124 44l-168 214q-78 -44 -78 -130zM669 1146q-106 0 -106 -94q0 -39 26 -73.5t74 -72.5q27 12 46.5 25
t31.5 30t18 39t6 52q0 43 -25.5 68.5t-70.5 25.5z" />
    <glyph glyph-name="quotesingle" unicode="'" horiz-adv-x="406" 
d="M60 1534h296l-58 -508h-196z" />
    <glyph glyph-name="parenleft" unicode="(" horiz-adv-x="855" 
d="M809 -264q-186 17 -329.5 92.5t-241 198t-147.5 286t-50 355.5q0 202 53.5 363.5t153.5 278t242 185.5t319 87v-260q-71 -12 -129 -59.5t-98.5 -129.5t-62.5 -198.5t-22 -266.5q0 -135 17 -251.5t54.5 -205t97 -144.5t143.5 -71v-260z" />
    <glyph glyph-name="parenright" unicode=")" horiz-adv-x="855" 
d="M46 -4q72 12 129.5 60.5t98 133t62.5 204t22 274.5q0 142 -20.5 257.5t-60 199.5t-97.5 134.5t-134 62.5v260q190 -20 334 -95.5t240.5 -195.5t145 -278.5t48.5 -344.5q0 -198 -52 -362t-150.5 -285t-241.5 -194.5t-324 -90.5v260z" />
    <glyph glyph-name="asterisk" unicode="*" horiz-adv-x="1096" 
d="M381 884l-316 138l110 218l276 -166l-22 334h248l-26 -332l268 168l116 -222l-320 -138l234 -246l-208 -164l-196 296l-192 -296l-206 166z" />
    <glyph glyph-name="plus" unicode="+" horiz-adv-x="1092" 
d="M488 458h-440v114h440v454h120v-454h436v-114h-436v-458h-120v458z" />
    <glyph glyph-name="comma" unicode="," horiz-adv-x="604" 
d="M94 -106q69 0 107 1t56.5 11t22.5 31.5t4 62.5h-190v382h420l-4 -208q-2 -110 -8 -191.5t-21 -139.5t-42 -94.5t-72.5 -57.5t-112.5 -29t-160 -8v240z" />
    <glyph glyph-name="hyphen" unicode="-" horiz-adv-x="740" 
d="M95 650h550v-242h-550v242z" />
    <glyph glyph-name="period" unicode="." horiz-adv-x="574" 
d="M58 176q0 45 19.5 83t51.5 65t73.5 42.5t85.5 15.5q46 0 88 -16.5t73.5 -45t50 -65.5t18.5 -79q0 -47 -19.5 -85t-51.5 -65.5t-73.5 -42.5t-85.5 -15q-48 0 -90 16t-73 44t-49 66t-18 82z" />
    <glyph glyph-name="slash" unicode="/" horiz-adv-x="658" 
d="M396 1408h204l-340 -1408h-200z" />
    <glyph glyph-name="zero" unicode="0" horiz-adv-x="1420" 
d="M1186 1178q166 -199 166 -486q0 -286 -165 -488q-180 -221 -477 -221q-152 0 -271 57t-201.5 154.5t-126 226t-43.5 271.5q0 112 24 208t67.5 174.5t103 139t131 101.5t151.5 62.5t165 21.5q294 0 476 -221zM502 826q-6 -33 -9.5 -66.5t-3.5 -67.5q0 -69 14 -135.5
t41.5 -118.5t69 -83.5t96.5 -31.5q46 0 86.5 27.5t69.5 76.5t46 116.5t17 148.5q0 73 -14.5 139.5t-42 117t-68.5 80.5t-94 30q-49 0 -84.5 -21.5t-60 -55.5t-39.5 -75.5t-24 -80.5z" />
    <glyph glyph-name="one" unicode="1" horiz-adv-x="926" 
d="M88 302h172v681l-172 -12v266q87 0 191.5 32.5t206.5 101.5h214v-1069h172v-302h-784v302z" />
    <glyph glyph-name="two" unicode="2" horiz-adv-x="1060" 
d="M405 1044q-15 0 -34 -3t-37.5 -7t-34 -9t-24.5 -8q-7 -3 -26 -11.5t-39.5 -17.5t-35.5 -16l-15 -7l-103 305q131 54 248 84t242 30q105 0 186 -36t136.5 -98t84 -144t28.5 -174q0 -97 -39 -184.5t-104.5 -165t-150.5 -144t-178 -121.5l-31 -19h461v-298h-860v288
q108 101 196.5 196.5t151.5 179t98 151.5t35 115q0 31 -14 53t-36.5 35.5t-50 19.5t-54.5 6z" />
    <glyph glyph-name="three" unicode="3" horiz-adv-x="1071" 
d="M456 1068q-127 0 -326 -60l-70 268q237 110 462 110q88 0 164.5 -25t133.5 -67.5t89.5 -100t32.5 -121.5q0 -209 -194 -334q123 -52 189.5 -145.5t66.5 -226.5q0 -84 -36 -155.5t-102 -123t-159 -80.5t-207 -29q-192 0 -440 80l70 300q162 -66 304 -66q81 0 123 26t42 91
q0 58 -34 92t-87.5 51.5t-120 22.5t-131.5 5v254q178 0 269.5 37t91.5 103q0 54 -32.5 74t-98.5 20z" />
    <glyph glyph-name="four" unicode="4" horiz-adv-x="1300" 
d="M36 333v287l546 751h458v-754h196v-286h-196v-331h-436v333h-568zM338 617h266v405z" />
    <glyph glyph-name="five" unicode="5" horiz-adv-x="1096" 
d="M871 98q-72 -57 -169 -91t-217 -34q-174 0 -389 88l27 290q182 -64 356 -64q35 0 64 12t49.5 34t32 52.5t11.5 67.5q0 31 -9 59t-26 48.5t-42 32.5t-56 12q-79 0 -201 -83l-214 93l53 756h790l-29 -294h-485l-25 -212l55 18q21 4 39.5 9.5t37.5 10t41 7.5t50 3
q275 0 383 -253q42 -98 42 -208q0 -221 -169 -354z" />
    <glyph glyph-name="six" unicode="6" horiz-adv-x="1283" 
d="M905 1046q-83 27 -159 27q-66 0 -112.5 -25t-77 -67t-48 -97t-25.5 -114l-8 -56l40 38q57 54 123 80.5t138 26.5q103 0 185 -28.5t139.5 -82.5t88.5 -131t31 -174q0 -205 -171 -335q-161 -123 -367 -123q-140 0 -253 46.5t-193 133t-123 208.5t-43 274q0 112 23.5 210.5
t65.5 181t100.5 148t128 111t149 69.5t162.5 24q65 0 123 -9t113 -26t109.5 -42.5t113.5 -59.5l-98 -268q-42 17 -81 32t-74 28zM483 554l2 -15q6 -44 16 -90.5t29 -84t50 -61.5t79 -24q37 0 70.5 11.5t58 32.5t39 51.5t14.5 68.5q0 34 -13 61.5t-35.5 47t-52 29.5t-62.5 10
q-109 0 -181 -31z" />
    <glyph glyph-name="seven" unicode="7" horiz-adv-x="955" 
d="M492 1073h-438v298h858v-338l-434 -1067l-380 156z" />
    <glyph glyph-name="eight" unicode="8" horiz-adv-x="1284" 
d="M105 206q-44 77 -44 178q0 69 20.5 119t55.5 86.5t80 62t95 45.5l7 4l-6 5q-150 123 -150 326q0 78 34.5 143.5t97.5 113t151 74t195 26.5q98 0 184.5 -21t151.5 -61.5t102.5 -99.5t37.5 -135q0 -54 -12.5 -96t-34 -74t-51.5 -56.5t-65 -43.5l-8 -4l8 -4
q53 -29 101.5 -64t85 -80.5t58.5 -105.5t22 -138q0 -114 -46 -196t-125 -134.5t-184 -77.5t-223 -25q-95 0 -178.5 15t-152 44t-121.5 73t-86 101zM537 574l-2 -2q-31 -32 -47.5 -72t-16.5 -94q0 -35 13 -62.5t36.5 -47t55 -29.5t69.5 -10q37 0 69 7t55 20.5t36.5 33.5
t13.5 46q0 31 -15.5 57t-42.5 47t-63 38.5t-76 32.5l-44 18q-16 7 -25.5 11t-12.5 5zM794 1020q0 72 -39.5 109.5t-111.5 37.5q-30 0 -58.5 -5t-50.5 -17.5t-35 -33t-13 -51.5q0 -29 12 -52t40.5 -45t75 -43.5t114.5 -46.5l3 -1l2 2q61 58 61 146z" />
    <glyph glyph-name="nine" unicode="9" horiz-adv-x="1261" 
d="M218 387l75 -32q55 -23 115.5 -38t118.5 -15q219 0 263 287l10 66l-49 -43q-45 -39 -99 -62.5t-135 -23.5q-105 0 -189 28t-143.5 81.5t-91 129.5t-31.5 172q0 97 42 180t115.5 143t174 94t218.5 34q99 0 180.5 -27.5t145.5 -75.5t112 -114t79 -143.5t46.5 -163.5
t15.5 -173q0 -161 -49.5 -290.5t-134 -220t-196.5 -139.5t-236 -49q-61 0 -117 9t-110.5 26t-109 42.5t-112.5 58.5zM594 762h17q46 0 85 9t77 23l17 6l-2 20q-14 143 -57.5 213.5t-118.5 70.5q-38 0 -71 -11t-58.5 -32t-40 -52.5t-14.5 -71.5q0 -38 12.5 -70t34.5 -55.5
t52.5 -36.5t66.5 -13z" />
    <glyph glyph-name="colon" unicode=":" horiz-adv-x="634" 
d="M87 206q0 45 19.5 83.5t52 66t74 43t86.5 15.5q48 0 89.5 -17.5t72 -46t48.5 -66.5t18 -78q0 -45 -19 -83t-50.5 -65t-73 -42.5t-85.5 -15.5q-48 0 -90.5 16t-74 44t-49.5 65.5t-18 80.5zM87 820q0 45 19.5 83.5t52 66t74 43t86.5 15.5q48 0 89.5 -17.5t72 -46
t48.5 -66.5t18 -78q0 -45 -19 -83t-50.5 -65t-73 -42.5t-85.5 -15.5q-48 0 -90.5 16t-74 44t-49.5 65.5t-18 80.5z" />
    <glyph glyph-name="semicolon" unicode=";" horiz-adv-x="612" 
d="M104 -106q68 0 106.5 1t57.5 11t23.5 31.5t4.5 62.5h-192v382h420l-3 -127q-2 -131 -6.5 -226.5t-18 -162.5t-39.5 -108.5t-71.5 -64.5t-114.5 -31t-167 -8v240zM78 820q0 46 20 84t52.5 65.5t74 43t85.5 15.5q47 0 88.5 -17t72.5 -45.5t49 -66.5t18 -79q0 -45 -19 -83
t-50.5 -65t-73 -42.5t-85.5 -15.5q-48 0 -90.5 16t-74 43.5t-49.5 65t-18 81.5z" />
    <glyph glyph-name="less" unicode="&#x3c;" horiz-adv-x="938" 
d="M55 804l780 428v-308l-608 -304l608 -288v-332l-780 456v348z" />
    <glyph glyph-name="equal" unicode="=" horiz-adv-x="838" 
d="M107 442h624v-124h-624v124zM107 720h624v-126h-624v126z" />
    <glyph glyph-name="greater" unicode="&#x3e;" horiz-adv-x="938" 
d="M103 332l608 288l-608 304v308l780 -428v-348l-780 -456v332z" />
    <glyph glyph-name="question" unicode="?" horiz-adv-x="1035" 
d="M534 1026q0 66 -162 66q-158 0 -266 -54l-28 312q219 90 412 90q105 0 195.5 -26.5t157.5 -76t105 -120.5t38 -159q0 -63 -18 -110.5t-48.5 -84.5t-72.5 -65.5t-90 -52.5q-25 -12 -55.5 -26t-60.5 -28.5t-55 -29t-38 -28.5q-17 -18 -19.5 -39.5t-2.5 -47.5v-26h-286
l-24 77q-4 16 -8 39t-4 44q0 38 8 67.5t22.5 53.5t34.5 43t44 35q30 20 68 38.5t72 36.5t57.5 36t23.5 36zM148 176q0 45 19.5 82.5t52 65t74.5 43t86 15.5q46 0 88 -16.5t73.5 -45t50 -65.5t18.5 -79q0 -47 -19.5 -85t-51.5 -65.5t-73.5 -42.5t-85.5 -15q-48 0 -90.5 16
t-74 44t-49.5 66t-18 82z" />
    <glyph glyph-name="at" unicode="@" horiz-adv-x="1769" 
d="M1362 377q-217 0 -310 151q-36 -69 -98 -109t-150 -40q-83 0 -145.5 34t-105.5 88t-64.5 120t-21.5 129q0 77 28.5 143t75.5 114.5t108 76t127 27.5q109 0 222 -5t233 -15v-469q39 -41 75 -41t59.5 24.5t37 62t18.5 82t5 85.5q0 442 -546 442q-129 0 -237.5 -40.5
t-186.5 -112.5t-121.5 -171t-43.5 -216q0 -132 48.5 -230t129.5 -163.5t185.5 -98t215.5 -32.5q226 0 410 94l120 -204q-60 -35 -119.5 -60.5t-123 -42t-134.5 -24.5t-153 -8q-189 0 -343 57.5t-264 159.5t-170 243t-60 308q0 157 57 298.5t165.5 248.5t265.5 170t357 63
q183 0 332 -45t254.5 -131t163.5 -212t58 -289q0 -104 -22.5 -189t-67 -146t-111 -94t-153.5 -33zM1012 902h-136q-31 0 -56.5 -12.5t-44 -34.5t-28.5 -50.5t-10 -59.5q0 -29 10.5 -54.5t29.5 -44t44 -29t55 -10.5q28 0 53 11t43.5 29t29 42t10.5 50v163z" />
    <glyph glyph-name="A" unicode="A" horiz-adv-x="1431" 
d="M400 1408h622l408 -1408h-482l-54 270h-364l-58 -270h-462zM846 522l-134 616l-138 -616h272z" />
    <glyph glyph-name="B" unicode="B" horiz-adv-x="1476" 
d="M830 -32q-230 0 -696 30v1410h704q113 0 209 -24t166 -68t109.5 -107.5t39.5 -142.5q0 -129 -56 -206t-168 -94q140 -13 214 -100t74 -238q0 -95 -45 -178.5t-125 -146t-189 -99t-237 -36.5zM976 456q0 42 -15.5 74t-43.5 53t-67 32t-86 11h-176v-329q23 -1 45 -1h42h115
q39 0 73 11t59 32t39.5 50.5t14.5 66.5zM936 992q0 144 -180 144h-166v-284h162q39 0 73 10t58.5 28t38.5 44t14 58z" />
    <glyph glyph-name="C" unicode="C" horiz-adv-x="1237" 
d="M875 338q35 0 65 3.5t59.5 10.5t60.5 18t69 26l56 -325q-178 -103 -388 -103q-297 0 -509 200q-222 208 -225 537q0 160 55 295t152 232.5t229 152t286 54.5q219 0 398 -102l-54 -318q-147 56 -266 56q-167 0 -253.5 -96.5t-86.5 -271.5q0 -87 23.5 -155.5t68.5 -116
t110.5 -72.5t149.5 -25z" />
    <glyph glyph-name="D" unicode="D" horiz-adv-x="1565" 
d="M134 1408h612q171 0 310 -51.5t237.5 -143.5t152.5 -219.5t54 -279.5q0 -160 -53.5 -291.5t-152.5 -225.5t-238 -145.5t-310 -51.5h-612v1408zM746 368q77 0 132.5 33t91.5 84t53 113t17 120q0 70 -21.5 129t-60.5 102t-93 67t-119 24h-160v-672h160z" />
    <glyph glyph-name="E" unicode="E" horiz-adv-x="1218" 
d="M134 1408h988v-310h-492v-256h450v-258h-450v-276h492v-308h-988v1408z" />
    <glyph glyph-name="F" unicode="F" horiz-adv-x="1168" 
d="M134 1408h970v-310h-530v-284h490v-260h-490v-554h-440v1408z" />
    <glyph glyph-name="G" unicode="G" horiz-adv-x="1349" 
d="M1105 1020q-178 58 -280 58q-75 0 -132.5 -31t-96.5 -82t-59 -117.5t-20 -136.5q0 -78 22.5 -146.5t63 -119t97.5 -80t125 -29.5q37 0 82 6v332l354 40v-640q-239 -106 -492 -106q-294 0 -501 218q-207 219 -207 530q0 303 211 514q208 210 495 210q262 0 474 -102z" />
    <glyph glyph-name="H" unicode="H" horiz-adv-x="1626" 
d="M134 1408h460v-560h436v560h462v-1408h-462v552h-436v-552h-460v1408z" />
    <glyph glyph-name="I" unicode="I" horiz-adv-x="740" 
d="M134 1408h472v-1408h-472v1408z" />
    <glyph glyph-name="J" unicode="J" horiz-adv-x="934" 
d="M234 242q136 0 136 170v996h440v-996q0 -118 -32 -211.5t-91.5 -158.5t-145 -99.5t-191.5 -34.5q-190 0 -352 108l96 254q81 -28 140 -28z" />
    <glyph glyph-name="K" unicode="K" horiz-adv-x="1570" 
d="M134 1408h474v-574h148l272 574h474v-92l-324 -606l370 -618v-92h-498l-302 560h-140v-560h-474v1408z" />
    <glyph glyph-name="L" unicode="L" horiz-adv-x="1102" 
d="M134 1408h442v-1106h488v-302h-930v1408z" />
    <glyph glyph-name="M" unicode="M" horiz-adv-x="1816" 
d="M134 1408h426l352 -684l344 684h426v-1408h-426v752l-260 -492h-174l-262 492v-752h-426v1408z" />
    <glyph glyph-name="N" unicode="N" horiz-adv-x="1606" 
d="M134 1408h410l562 -758v758h366v-1408h-410l-564 734v-734h-364v1408z" />
    <glyph glyph-name="O" unicode="O" 
d="M64 702q0 305 194 514q207 223 560 223q172 0 311 -55.5t237 -153.5t151 -233.5t53 -294.5q0 -96 -22 -188t-65.5 -173.5t-107.5 -150t-147.5 -118t-186 -77t-223.5 -27.5q-124 0 -227.5 28t-187.5 78t-147.5 119t-106 150.5t-64 172.5t-21.5 186zM818 340
q79 0 134.5 33.5t91 86t52 117.5t16.5 127q0 81 -20.5 148.5t-59 117t-93 78.5t-121.5 32q-80 -2 -136 -36t-91.5 -87.5t-52 -120t-16.5 -132.5q0 -78 20.5 -144.5t59 -115t93.5 -76.5t123 -28z" />
    <glyph glyph-name="P" unicode="P" horiz-adv-x="1330" 
d="M134 1408h508q158 0 281 -31t207 -91t128 -146.5t44 -197.5q0 -108 -50 -193t-137 -144.5t-203.5 -91t-249.5 -31.5h-86v-482h-442v1408zM664 766q106 0 166 44t60 132q0 43 -17.5 75t-48 53.5t-71.5 32.5t-89 11h-88v-344q14 -2 36 -3t52 -1z" />
    <glyph glyph-name="Q" unicode="Q" 
d="M1570 -124l-258 -202l-452 298q-10 -2 -21 -3t-23 -1q-245 0 -411 103q-80 49 -143.5 117t-108 150t-68 175.5t-23.5 192.5q0 293 190 502q210 231 564 231q123 0 226.5 -28t187 -77.5t147.5 -118t106.5 -150t64.5 -173t22 -186.5q0 -84 -16.5 -165t-49.5 -156t-82 -141
t-114 -120l262 -171v-77zM816 338q79 0 134.5 34t91 87.5t52 118.5t16.5 128q0 79 -20.5 146.5t-58.5 117t-92.5 77.5t-122.5 28q-80 0 -136 -34.5t-91 -88t-51 -119t-16 -127.5q0 -77 21 -144t59.5 -117t93 -78.5t120.5 -28.5z" />
    <glyph glyph-name="R" unicode="R" horiz-adv-x="1429" 
d="M1389 4q-131 -36 -189 -36q-371 0 -466 338l-56 228h-96v-534h-448v1408h626q122 0 229 -27.5t186.5 -80t125 -129.5t45.5 -177q0 -74 -18.5 -132.5t-53.5 -105t-85.5 -82.5t-114.5 -64l9 -49q3 -17 6 -29l5 -20l11 -43q12 -38 27.5 -64.5t39.5 -43t59.5 -24t86.5 -7.5
q8 0 25.5 2t45.5 6v-334zM936 974q0 39 -16.5 64.5t-45.5 40t-68 20t-84 5.5h-140v-282h78l66 3q39 3 76.5 10.5t67.5 24t48 44t18 70.5z" />
    <glyph glyph-name="S" unicode="S" horiz-adv-x="1213" 
d="M1152 460q0 -126 -38.5 -218.5t-110.5 -153t-176.5 -90.5t-236.5 -30q-293 0 -514 106q61 152 96 278q6 21 12 36l150 -37q27 -6 58 -13t62 -12.5t59 -9.5t49 -4q34 0 65.5 2.5t55.5 11.5t38.5 26t14.5 46q0 35 -33 59t-82.5 43t-108.5 34.5t-110 33.5q-71 22 -132 60
t-105.5 90.5t-69.5 119t-25 146.5q0 456 548 456q260 0 484 -108l-110 -306q-97 25 -153.5 39.5t-90.5 21.5t-54 9t-42 2h-34q-11 0 -18.5 0.5t-14.5 0.5q-45 0 -69 -13.5t-24 -55.5q0 -63 110 -96q271 -63 410.5 -183t139.5 -291z" />
    <glyph glyph-name="T" unicode="T" horiz-adv-x="1182" 
d="M352 1110h-292v298h1062v-298h-292v-1110h-478v1110z" />
    <glyph glyph-name="U" unicode="U" 
d="M817 338q115 0 174.5 62.5t59.5 183.5v824h462v-824q0 -108 -28.5 -195.5t-78 -156t-116.5 -118.5t-144.5 -82.5t-161.5 -48t-167 -15.5q-285 0 -483 156q-213 166 -213 460v824h462v-824q0 -246 234 -246z" />
    <glyph glyph-name="V" unicode="V" horiz-adv-x="1377" 
d="M4 1408h462l218 -878l218 878h482l-440 -1408h-522z" />
    <glyph glyph-name="W" unicode="W" horiz-adv-x="2028" 
d="M43 1408h460l134 -898l138 660h476l140 -660l132 898h462l-320 -1408h-478l-174 758l-174 -758h-476z" />
    <glyph glyph-name="X" unicode="X" horiz-adv-x="1296" 
d="M391 700l-378 708h464l166 -356l166 356h474l-382 -708l394 -700h-474l-178 350l-178 -350h-464z" />
    <glyph glyph-name="Y" unicode="Y" horiz-adv-x="1253" 
d="M400 392l-406 1016h428l198 -632l196 632h450l-426 -1016v-392h-440v392z" />
    <glyph glyph-name="Z" unicode="Z" horiz-adv-x="1107" 
d="M73 296l482 814h-462v298h920v-298l-470 -814h491v-296h-961v296z" />
    <glyph glyph-name="bracketleft" unicode="[" horiz-adv-x="915" 
d="M119 1408h726v-304h-286v-802h286v-302h-726v1408z" />
    <glyph glyph-name="backslash" unicode="\" horiz-adv-x="656" 
d="M597 0h-200l-340 1408h204z" />
    <glyph glyph-name="bracketright" unicode="]" horiz-adv-x="915" 
d="M70 302h286v802h-286v304h726v-1408h-726v302z" />
    <glyph glyph-name="asciicircum" unicode="^" horiz-adv-x="1204" 
d="M418 1376h366l350 -1026h-304l-226 834l-222 -834h-310z" />
    <glyph glyph-name="underscore" unicode="_" horiz-adv-x="844" 
d="M82 142h680v-174h-680v174z" />
    <glyph glyph-name="grave" unicode="`" horiz-adv-x="864" 
d="M238 1790l600 -420l-126 -220l-682 274z" />
    <glyph glyph-name="a" unicode="a" horiz-adv-x="1425" 
d="M890 190q-48 -100 -130 -153t-206 -53q-100 0 -191 40.5t-160 112t-110 169.5t-41 213q0 114 41.5 210t111 165.5t160 108t189.5 38.5q51 0 100.5 -13.5t94 -43t81 -74.5t60.5 -108v239h430v-1041h-430v190zM890 520q-2 40 -19 76t-44.5 62.5t-63.5 42t-75 15.5
q-44 0 -81.5 -16.5t-65 -44t-43.5 -64.5t-16 -79q0 -44 17 -81.5t45.5 -64.5t65.5 -42.5t78 -15.5q42 0 78 16t63 43t43 62.5t18 74.5v16z" />
    <glyph glyph-name="b" unicode="b" horiz-adv-x="1428" 
d="M875 -16q-236 0 -334 206v-190h-434v1350l434 64v-580q52 111 134.5 159t197.5 48q104 0 195.5 -40t159.5 -111t107.5 -167.5t39.5 -210.5t-41 -210.5t-110 -167t-159.5 -110.5t-189.5 -40zM541 512q0 -44 16 -81t44 -64.5t64.5 -43t77.5 -15.5q43 0 80.5 17t65 45t43 65
t15.5 77q0 44 -16.5 81.5t-44.5 64.5t-65 42.5t-78 15.5q-42 0 -78.5 -15.5t-63.5 -42.5t-43 -62.5t-17 -75.5v-8z" />
    <glyph glyph-name="c" unicode="c" horiz-adv-x="966" 
d="M882 686q-108 34 -200 34q-47 0 -84.5 -15t-64 -42t-41 -65.5t-14.5 -85.5t14.5 -85.5t41.5 -66.5t65.5 -43t86.5 -15q91 0 192 34l40 -286q-77 -40 -150.5 -53t-159.5 -13q-121 0 -223 38t-176 107t-115.5 166.5t-41.5 216.5t45 216.5t121.5 167t177.5 107.5t212 38
q49 0 88.5 -3.5t75.5 -13t72 -25.5t78 -41z" />
    <glyph glyph-name="d" unicode="d" horiz-adv-x="1428" 
d="M553 1041q116 0 200 -48t136 -159v516l432 64v-1414h-432v190q-48 -103 -131 -154.5t-207 -51.5q-107 0 -198 43.5t-157.5 116.5t-104.5 168.5t-38 199.5q0 112 40.5 209t109.5 168t159.5 111.5t190.5 40.5zM889 520q-2 40 -19 76t-44.5 62.5t-63.5 42t-75 15.5
q-44 0 -81.5 -16.5t-64.5 -44.5t-42.5 -65t-15.5 -78q0 -44 16.5 -81t44.5 -64.5t65 -43t78 -15.5q43 0 80 17t64 45t42.5 65t15.5 77v8z" />
    <glyph glyph-name="e" unicode="e" horiz-adv-x="1138" 
d="M698 271q140 0 302 72l50 -275q-186 -84 -418 -84q-129 0 -235.5 39.5t-183 110t-119 167.5t-42.5 211q0 120 44.5 217.5t121.5 167t180 107t220 37.5q118 0 207 -39.5t148.5 -108t89 -160t29.5 -195.5q0 -14 -1 -27t-3 -25l-614 -80q24 -72 80 -103.5t144 -31.5z
M774 664q-35 128 -156 128q-38 0 -68 -15t-50.5 -41.5t-31.5 -63t-12 -78.5z" />
    <glyph glyph-name="f" unicode="f" horiz-adv-x="890" 
d="M676 1264q-60 0 -93.5 -29.5t-33.5 -86.5q0 -54 35 -122h286v-254h-258v-772h-432v772h-128v254h128q0 143 20.5 246t65.5 170t116 98.5t172 31.5q158 0 334 -78l-14 -278q-117 48 -198 48z" />
    <glyph glyph-name="g" unicode="g" horiz-adv-x="1423" 
d="M917 170q-119 -170 -368 -170q-99 0 -189 39t-158 108.5t-108 164.5t-40 207q0 117 41.5 213t110 165t157.5 106.5t184 37.5q63 0 118.5 -17t99.5 -48.5t75.5 -75.5t46.5 -98v239h432v-781q0 -168 -37.5 -303.5t-115.5 -230t-198 -145.5t-285 -51q-48 0 -102 5t-114 15
l32 306q100 -12 140 -12q77 0 126 25t79 68.5t46 103t27 129.5zM887 520q-2 40 -19.5 75.5t-45.5 62.5t-64 42.5t-75 15.5q-44 0 -81.5 -16.5t-64.5 -44.5t-42.5 -65t-15.5 -78q0 -49 18.5 -87t48 -64t66 -39.5t71.5 -13.5q41 0 77.5 16t64 43t44 62.5t18.5 74.5v16z" />
    <glyph glyph-name="h" unicode="h" horiz-adv-x="1413" 
d="M107 1350l432 64v-616q52 127 137.5 185t200.5 58q93 0 173 -37.5t139.5 -106t93.5 -164.5t34 -213v-520h-430v512q0 39 -11 76t-30 65.5t-45.5 45.5t-57.5 17q-44 0 -81.5 -17.5t-64.5 -47.5t-42.5 -69.5t-15.5 -83.5v-498h-432v1350z" />
    <glyph glyph-name="i" unicode="i" horiz-adv-x="748" 
d="M91 1366q0 45 19.5 83t51.5 65.5t74 42.5t87 15q52 0 94.5 -18.5t72.5 -48t46.5 -66t16.5 -73.5q0 -46 -19 -84t-51 -65.5t-73.5 -43t-86.5 -15.5q-49 0 -91.5 16t-73.5 44.5t-49 66t-18 81.5zM731 54q-121 -70 -268 -70q-87 0 -155 29t-114.5 82.5t-70.5 129.5t-24 169
v632h434v-612q0 -49 26 -73.5t66 -24.5t84 24z" />
    <glyph glyph-name="j" unicode="j" horiz-adv-x="646" 
d="M-29 -110q136 0 136 170v966h432v-966q0 -117 -31.5 -210t-90 -158t-142.5 -99.5t-190 -34.5q-188 0 -350 108l94 254q94 -30 142 -30zM85 1366q0 44 19.5 82t51.5 65.5t73.5 43t85.5 15.5q52 0 95 -18t73.5 -47.5t47 -66.5t16.5 -74q0 -46 -19 -84t-50.5 -65.5t-74 -43
t-88.5 -15.5q-49 0 -91 16.5t-73 45t-48.5 66.5t-17.5 80z" />
    <glyph glyph-name="k" unicode="k" horiz-adv-x="1314" 
d="M973 592q22 -130 44 -175q46 -103 162 -103q29 0 88 12l-40 -336q-63 -6 -114 -6q-110 0 -183.5 22.5t-124 70.5t-83.5 122.5t-61 178.5l-120 -96v-282h-434v1350l434 64v-702l526 430l236 -320z" />
    <glyph glyph-name="l" unicode="l" horiz-adv-x="774" 
d="M771 54q-139 -70 -308 -70q-87 0 -155 28.5t-114.5 82t-70.5 129t-24 170.5v956l432 64v-990q0 -55 35 -81.5t95 -26.5q46 0 94 24z" />
    <glyph glyph-name="m" unicode="m" horiz-adv-x="2100" 
d="M1240 786q42 127 135 191t241 64q84 0 155 -39t123 -109t81 -167t29 -214v-512h-432v512q0 43 -9.5 79.5t-27.5 63.5t-44 42t-59 15q-43 0 -74 -19.5t-51 -49t-29.5 -65t-9.5 -66.5v-512h-428v512q0 42 -9.5 78.5t-28 63.5t-45.5 42.5t-61 15.5q-37 0 -66.5 -15
t-50.5 -41.5t-32.5 -61.5t-12.5 -74v-520h-432v1011h432v-209q57 127 144.5 183t205.5 56q57 0 110 -14.5t99.5 -45.5t84 -79.5t62.5 -115.5z" />
    <glyph glyph-name="n" unicode="n" horiz-adv-x="1407" 
d="M102 1011h412v-209q60 121 154.5 180t221.5 59q102 0 180 -38t131.5 -107.5t81 -167t27.5 -216.5v-512h-430v554q0 40 -7.5 74t-24 58.5t-41.5 38t-61 13.5q-44 0 -81 -21.5t-64.5 -52.5t-44.5 -64.5t-22 -57.5v-542h-432v1011z" />
    <glyph glyph-name="o" unicode="o" horiz-adv-x="1284" 
d="M452 514q0 -56 16.5 -98t43.5 -70t62 -42t71 -14t70.5 14t62 42t44 70t16.5 98t-16.5 98t-44 69.5t-62 41.5t-70.5 14t-71 -14t-62 -41.5t-43.5 -69.5t-16.5 -98zM52 514q5 129 53.5 227t128.5 165t185.5 101t224.5 34q130 0 238 -39t186 -108.5t121 -166.5t43 -213
q0 -94 -24.5 -170t-66.5 -134.5t-99 -101.5t-123 -70.5t-136.5 -40.5t-140.5 -13q-132 0 -240.5 38.5t-186.5 108.5t-120.5 167.5t-42.5 215.5z" />
    <glyph glyph-name="p" unicode="p" horiz-adv-x="1423" 
d="M870 -16q-113 0 -197 47.5t-139 158.5v-456l-432 -82v1359h432v-177q53 111 136.5 159t197.5 48q95 0 180.5 -29.5t161.5 -103.5q160 -157 160 -396q0 -236 -159 -395q-74 -74 -159.5 -103.5t-181.5 -29.5zM534 512q0 -44 16.5 -81t44.5 -64.5t64.5 -43t76.5 -15.5
q44 0 82 16.5t65.5 44.5t43 65t15.5 78q0 48 -18 86t-47.5 64t-66.5 40t-74 14q-48 0 -84.5 -18.5t-61.5 -47t-39 -63.5t-17 -67v-8z" />
    <glyph glyph-name="q" unicode="q" horiz-adv-x="1425" 
d="M555 1041q114 0 198 -48t138 -159v177h432v-1277l-432 -82v538q-55 -111 -139.5 -158.5t-198.5 -47.5t-206.5 43.5t-158 116.5t-100.5 168.5t-35 199.5q0 114 40 211t108.5 167.5t159.5 110.5t194 40zM891 520q-2 40 -19.5 76t-45.5 62.5t-63.5 42t-73.5 15.5
q-44 0 -81.5 -16.5t-65 -44.5t-43.5 -65t-16 -78q0 -44 17 -81t45.5 -64.5t65.5 -43t78 -15.5t77 16t63 43t43.5 62.5t18.5 74.5v16z" />
    <glyph glyph-name="r" unicode="r" horiz-adv-x="914" 
d="M102 1011h432v-209q49 124 130.5 181.5t187.5 57.5l60 -335q-195 0 -286.5 -41.5t-91.5 -132.5v-532h-432v1011z" />
    <glyph glyph-name="s" unicode="s" horiz-adv-x="947" 
d="M546 786q-122 0 -122 -42q0 -16 9 -28.5t24 -22t33 -15.5t36 -8q79 -12 146.5 -36.5t117 -65.5t78 -100.5t28.5 -141.5q0 -81 -28.5 -144.5t-79.5 -107.5t-120 -67t-150 -23q-131 0 -239.5 12t-198.5 52l46 236q33 -9 57.5 -16t40.5 -10q15 -3 38 -7.5t49.5 -8.5t53.5 -7
t49 -3q102 0 102 48q-3 19 -15.5 33.5t-31.5 25t-43.5 17.5t-51.5 12q-78 15 -137.5 40t-99.5 64.5t-60.5 97t-20.5 136.5q4 90 38 153.5t92 104t136.5 59t171.5 18.5q97 0 183 -10.5t161 -46.5l-44 -244q-150 46 -248 46z" />
    <glyph glyph-name="t" unicode="t" horiz-adv-x="890" 
d="M839 54q-139 -70 -308 -70q-87 0 -155 28.5t-114.5 82t-70.5 129t-24 170.5l2 378h-130v254h162l190 388h208v-388h236v-254h-236v-348q0 -54 35 -81t95 -27q47 0 94 24z" />
    <glyph glyph-name="u" unicode="u" horiz-adv-x="1286" 
d="M516 426q0 -27 10.5 -49.5t29 -38.5t43 -25t51.5 -9q26 0 49 9.5t40 26t27 38.5t10 48v600h414v-586q0 -106 -41 -190.5t-113.5 -143.5t-171.5 -90.5t-216 -31.5q-115 0 -216 30.5t-176 89t-118.5 143.5t-43.5 193v586h422v-600z" />
    <glyph glyph-name="v" unicode="v" horiz-adv-x="1168" 
d="M2 1026h476l162 -630l26 140l122 490h376l-326 -1026h-498z" />
    <glyph glyph-name="w" unicode="w" horiz-adv-x="1707" 
d="M41 1026h418l116 -666q12 50 23 100.5t22.5 105.5t24.5 117t28 134l44 209h352l102 -482l38 -200l40 200l80 482h336l-212 -1026h-496l-110 542l-108 -542h-472z" />
    <glyph glyph-name="x" unicode="x" horiz-adv-x="1136" 
d="M316 532l-292 494h432l116 -242l118 242h420l-286 -494l306 -532h-420l-138 262l-136 -262h-432z" />
    <glyph glyph-name="y" unicode="y" horiz-adv-x="1369" 
d="M852 170q-95 -170 -296 -170q-92 0 -175 32.5t-146 90.5t-100 137.5t-37 173.5v592h430v-572q0 -30 12.5 -56.5t32 -46.5t44.5 -31.5t51 -11.5q37 0 67.5 13.5t52 37t33 55t11.5 68.5v544h432v-766q0 -180 -37.5 -318t-110.5 -231.5t-180 -142t-246 -48.5q-32 0 -76 5
t-102 15l44 336q27 -7 52 -9.5t49 -2.5q58 0 93.5 27.5t56.5 71t30.5 98t14.5 109.5z" />
    <glyph glyph-name="z" unicode="z" horiz-adv-x="1003" 
d="M63 220l360 544h-346v262h852v-222l-318 -542h328v-262h-876v220z" />
    <glyph glyph-name="braceleft" unicode="{" horiz-adv-x="728" 
d="M138 488q0 57 -34.5 87.5t-91.5 36.5v160q57 6 91.5 35.5t34.5 86.5q0 125 37 225t105 172t164.5 114.5t215.5 52.5v-178q-68 -25 -97 -125.5t-29 -260.5q0 -70 -42 -117.5t-114 -84.5q73 -38 114.5 -85t41.5 -119q0 -166 31.5 -263t94.5 -121v-178q-122 9 -218.5 52.5
t-164 116.5t-103.5 172.5t-36 220.5z" />
    <glyph glyph-name="bar" unicode="|" horiz-adv-x="434" 
d="M119 1408h196v-1408h-196v1408z" />
    <glyph glyph-name="braceright" unicode="}" horiz-adv-x="728" 
d="M716 612q-57 -6 -91.5 -36.5t-34.5 -87.5q0 -125 -36.5 -224.5t-104.5 -171t-164.5 -114t-216.5 -52.5v178q67 25 96.5 124.5t29.5 259.5q0 72 41.5 119t114.5 85q-72 37 -114 84.5t-42 117.5q0 337 -126 386v178q123 -10 219.5 -54t164 -116.5t103 -172t35.5 -221.5
q0 -57 34.5 -86.5t91.5 -35.5v-160z" />
    <glyph glyph-name="asciitilde" unicode="~" horiz-adv-x="1188" 
d="M390 710q-22 0 -38 -9t-28 -23.5t-21.5 -33.5t-18.5 -40l-242 98q29 84 67.5 150t84 111t95.5 69t103 24q47 0 94.5 -11t77.5 -22q56 -22 91 -37t60.5 -24.5t47.5 -13.5t51 -4q42 0 65 25t39 67l238 -98q-57 -171 -139.5 -255.5t-194.5 -84.5q-36 0 -67 4t-59 10.5
t-55 16t-55 20.5l-100 43q-44 18 -96 18z" />
    <glyph glyph-name="uni00A0" unicode="&#xa0;" horiz-adv-x="383" 
 />
    <glyph glyph-name="exclamdown" unicode="&#xa1;" horiz-adv-x="626" 
d="M95 318.134v-317.961h432v317.961l-80 579.929h-270zM87 1238.02q0 -45.9941 19 -83.9902q19 -37.9951 51.5 -64.9912q32.5 -26.9971 74.5 -41.9951t87 -14.998q46 0 88 15.998t73.5 43.9941q31.5 27.9971 50 65.4922t18.5 80.4902q0 44.9941 -19.5 83.4902
q-19.5 38.4951 -51.5 65.9912q-32 27.4971 -73.5 42.9951t-85.5 15.498q-48 0 -90.5 -15.998t-74 -44.4941q-31.5 -28.4971 -49.5 -65.9922q-18 -37.4961 -18 -81.4902z" />
    <glyph glyph-name="cent" unicode="&#xa2;" horiz-adv-x="1008" 
d="M918 50q-31 -14 -70 -29.5t-90 -32.5v-174h-134v154h-18q-120 0 -221.5 40.5t-175.5 112.5t-115.5 172t-41.5 219q0 118 42.5 218t117 172.5t175.5 113t219 40.5h18v134h134v-156q91 -31 164 -76l-42 -272q-35 11 -65.5 17.5t-56.5 10.5v-406q60 6 118 28zM624 714
q-66 -16 -106 -70t-40 -132q0 -39 11 -73t30.5 -60.5t46 -44t58.5 -24.5v404z" />
    <glyph glyph-name="sterling" unicode="&#xa3;" horiz-adv-x="1074" 
d="M771 1132q-60 0 -93.5 -29.5t-33.5 -86.5v-226h256v-174h-256v-316h344v-300h-914v128q63 4 96.5 50t33.5 122v316h-130v174h130v104q0 130 21 231.5t72.5 171.5t137 106.5t214.5 36.5q168 0 354 -78l-34 -278q-117 48 -198 48z" />
    <glyph glyph-name="currency" unicode="&#xa4;" horiz-adv-x="1145" 
d="M219 378q-98 113 -98 266q0 76 24 142t70 120l-141 141l92 91l149 -149q112 67 253 67q139 0 258 -71l153 153l92 -91l-145 -145q94 -106 94 -258t-98 -262l149 -149l-91 -92l-161 160q-112 -64 -253 -64q-138 0 -244 61l-157 -157l-91 92zM446 518q47 -47 123 -47
q38 0 69 13t53.5 36t34.5 54.5t12 69.5q0 37 -12 69t-34 55t-53 36t-69 13t-69 -12.5t-53.5 -35t-35 -54.5t-12.5 -71q0 -80 46 -126z" />
    <glyph glyph-name="yen" unicode="&#xa5;" horiz-adv-x="1172" 
d="M158 298h308v90h-308v128h256l-366 860h268l270 -744l266 744h268l-364 -860h272v-128h-326v-90h326v-122h-326v-176h-236v176h-308v122z" />
    <glyph glyph-name="brokenbar" unicode="&#xa6;" horiz-adv-x="438" 
d="M121 552h196v-552h-196v552zM121 1408h196v-552h-196v552z" />
    <glyph glyph-name="section" unicode="&#xa7;" horiz-adv-x="1091" 
d="M883 516q124 -81 124 -234q0 -63 -21 -110.5t-56 -82t-82 -58t-99.5 -37.5t-107 -20t-104.5 -6q-222 0 -426 76l44 248q34 -11 75 -21.5t85.5 -19t90 -14t89.5 -5.5q94 0 94 46q0 12 -7 20.5t-24.5 17t-48 19t-76.5 27.5l-81 29q-33 12 -78.5 32.5t-87.5 53.5t-71.5 80.5
t-29.5 112.5q0 156 124 246q-124 79 -124 236q4 82 44.5 137.5t104.5 89t145.5 47.5t167.5 14q240 0 402 -76l-44 -228q-20 7 -53.5 15.5t-75.5 15.5t-90.5 12t-98.5 5q-96 0 -96 -40q0 -21 38.5 -39t96.5 -38t125 -45.5t125 -60.5t96.5 -83t38.5 -114q0 -85 -34 -148
t-94 -100zM491 804q-40 -3 -64 -26.5t-24 -65.5q0 -12 12.5 -26t35 -28.5t54.5 -28t70 -23.5q46 0 74 23t28 65q0 32 -48 58.5t-138 51.5z" />
    <glyph glyph-name="dieresis" unicode="&#xa8;" horiz-adv-x="1246" 
d="M702 1328q0 46 20 84t52.5 65.5t74 43t85.5 15.5q52 0 94 -18.5t72 -48.5t46 -67t16 -74q0 -45 -19 -83t-50.5 -65t-73 -42.5t-85.5 -15.5q-52 0 -94.5 17t-73 45.5t-47.5 65.5t-17 78zM84 1328q0 44 19 82t51 66t73.5 44t86.5 16q48 0 89.5 -17t73 -46t49.5 -66.5
t18 -78.5q0 -46 -19.5 -84t-51.5 -65t-73.5 -42t-85.5 -15q-48 0 -89.5 16t-73 43.5t-49.5 65t-18 81.5z" />
    <glyph glyph-name="copyright" unicode="&#xa9;" horiz-adv-x="1426" 
d="M711 90q103 0 194.5 41.5t160 112.5t108 166t39.5 202q0 116 -42.5 212t-113 165t-160.5 107t-186 38q-105 0 -196.5 -41t-159.5 -111.5t-107 -166t-39 -203.5q0 -110 39 -205t107 -165.5t159.5 -111t196.5 -40.5zM711 -32q-267 0 -454 192q-186 190 -186 459
q0 140 51.5 252t139.5 197q39 38 87.5 71.5t106 58.5t123 39.5t139.5 14.5q260 0 450 -190q187 -187 187 -450q0 -265 -189 -455q-188 -189 -455 -189zM505 610q0 -118 63 -184t181 -66q82 0 190 42l20 -120q-103 -52 -224 -52q-88 1 -160 28t-123 76.5t-79.5 119
t-29.5 156.5q0 88 32 158.5t85 119.5t123 75.5t146 26.5q131 0 232 -62l-18 -114q-95 48 -192 48q-118 0 -182 -67t-64 -185z" />
    <glyph glyph-name="ordfeminine" unicode="&#xaa;" horiz-adv-x="1425" 
d="M890 190q-48 -100 -130 -153t-206 -53q-100 0 -191 40.5t-160 112t-110 169.5t-41 213q0 114 41.5 210t111 165.5t160 108t189.5 38.5q51 0 100.5 -13.5t94 -43t81 -74.5t60.5 -108v239h430v-1041h-430v190zM890 520q-2 40 -19 76t-44.5 62.5t-63.5 42t-75 15.5
q-44 0 -81.5 -16.5t-65 -44t-43.5 -64.5t-16 -79q0 -44 17 -81.5t45.5 -64.5t65.5 -42.5t78 -15.5q42 0 78 16t63 43t43 62.5t18 74.5v16z" />
    <glyph glyph-name="guillemotleft" unicode="&#xab;" horiz-adv-x="1109" 
d="M585 810l430 306v-372l-198 -118l198 -124v-374l-430 314v368zM53 810l430 306v-372l-196 -118l196 -124v-374l-430 314v368z" />
    <glyph glyph-name="logicalnot" unicode="&#xac;" horiz-adv-x="1094" 
d="M982 852v-678h-220v356h-682v322h902z" />
    <glyph glyph-name="registered" unicode="&#xae;" horiz-adv-x="1426" 
d="M832 565q9 -41 19 -79t28.5 -67.5t49.5 -47.5t83 -18q10 0 25 5l-26 -102q-61 1 -104.5 13.5t-73.5 37t-49 61t-32 85.5l-37 143h-132v-324h-116v722h256q280 0 280 -198q0 -172 -178 -194zM877 796q0 31 -10 51t-30 31.5t-51 15.5t-73 4h-130v-208h158q33 2 58.5 5.5
t43 14.5t26 31t8.5 55zM711 90q103 0 194.5 41.5t160 112.5t108 166t39.5 202q0 116 -42.5 212t-113 165t-160.5 107t-186 38q-105 0 -196.5 -41t-159.5 -111.5t-107 -166t-39 -203.5q0 -110 39 -205t107 -165.5t159.5 -111t196.5 -40.5zM711 -32q-267 0 -454 192
q-186 190 -186 459q0 140 51.5 252t139.5 197q39 38 87.5 71.5t106 58.5t123 39.5t139.5 14.5q260 0 450 -190q187 -187 187 -450q0 -265 -189 -455q-188 -189 -455 -189z" />
    <glyph glyph-name="macron" unicode="&#xaf;" horiz-adv-x="680" 
d="M69 1412h550v-242h-550v242z" />
    <glyph glyph-name="degree" unicode="&#xb0;" horiz-adv-x="1278" 
d="M909 878q0 67 -21 120.5t-57.5 91t-85.5 57t-104 19.5q-62 0 -111.5 -22t-84.5 -60.5t-54 -91.5t-19 -114q0 -65 20 -118t55.5 -91t85 -59t108.5 -21q60 0 109.5 21.5t85 59.5t54.5 91.5t19 116.5zM662 1421q124 0 225 -40.5t172 -112t110 -170t39 -214.5
q0 -120 -41 -221.5t-115.5 -175t-179.5 -115t-233 -41.5q-120 0 -224 38.5t-181 109.5t-121 171.5t-44 225.5q0 120 41.5 220.5t117 172.5t180.5 112t233 40h21z" />
    <glyph glyph-name="plusminus" unicode="&#xb1;" horiz-adv-x="1140" 
d="M512 644h-440v116h440v452h120v-452h436v-116h-436v-458h-120v458zM72 114h996v-114h-996v114z" />
    <glyph glyph-name="twosuperior" unicode="&#xb2;" horiz-adv-x="666" 
d="M70 1376q146 64 278 64q55 0 100 -18t76.5 -50.5t48.5 -78.5t17 -101q0 -93 -67 -178t-195 -158h240v-170h-484v162q135 126 200.5 211.5t65.5 130.5q0 56 -82 56q-47 0 -138 -44z" />
    <glyph glyph-name="threesuperior" unicode="&#xb3;" horiz-adv-x="644" 
d="M444 1076q140 -62 140 -204q0 -53 -21 -93.5t-58.5 -67.5t-88 -41t-108.5 -14q-96 0 -240 48l38 164q108 -36 172 -36q36 0 60 12.5t24 39.5q0 106 -202 106v138q42 0 78 3.5t62.5 13t41 25.5t14.5 40q0 23 -17 34.5t-43 11.5q-76 0 -190 -34l-38 158q132 60 252 60
q46 0 88 -13.5t73.5 -37.5t50 -57.5t18.5 -73.5q0 -112 -106 -182z" />
    <glyph glyph-name="acute" unicode="&#xb4;" horiz-adv-x="818" 
d="M4 1370l600 420l208 -366l-682 -274z" />
    <glyph glyph-name="paragraph" unicode="&#xb6;" horiz-adv-x="1138" 
d="M529 728h-86q-86 0 -158.5 25t-125 70t-82.5 107.5t-30 137.5q0 74 34 136.5t97 107.5t152 70.5t199 25.5h458v-1408h-164v1254h-128v-1254h-166v728z" />
    <glyph glyph-name="periodcentered" unicode="&#xb7;" horiz-adv-x="630" 
d="M86 820q0 44 19 82t51 66t73.5 44t86.5 16q48 0 89.5 -17t73 -46t49.5 -66.5t18 -78.5q0 -46 -19.5 -84t-51.5 -65t-73.5 -42t-85.5 -15q-48 0 -89.5 16t-73 43.5t-49.5 65t-18 81.5z" />
    <glyph glyph-name="cedilla" unicode="&#xb8;" horiz-adv-x="560" 
d="M290 -274q0 48 -32 71t-86 23h-4l60 180h114l-40 -116q100 -11 156 -51t56 -109q0 -62 -31 -106t-76 -72t-96.5 -41t-92.5 -13q-89 0 -180 44l28 76q53 -14 92 -14q132 0 132 128z" />
    <glyph glyph-name="onesuperior" unicode="&#xb9;" horiz-adv-x="560" 
d="M86 1338q114 0 208 70h114v-566h90v-160h-412v160h90v362l-90 -8v142z" />
    <glyph glyph-name="ordmasculine" unicode="&#xba;" horiz-adv-x="1284" 
d="M452 514q0 -56 16.5 -98t43.5 -70t62 -42t71 -14t70.5 14t62 42t44 70t16.5 98t-16.5 98t-44 69.5t-62 41.5t-70.5 14t-71 -14t-62 -41.5t-43.5 -69.5t-16.5 -98zM52 514q5 129 53.5 227t128.5 165t185.5 101t224.5 34q130 0 238 -39t186 -108.5t121 -166.5t43 -213
q0 -94 -24.5 -170t-66.5 -134.5t-99 -101.5t-123 -70.5t-136.5 -40.5t-140.5 -13q-132 0 -240.5 38.5t-186.5 108.5t-120.5 167.5t-42.5 215.5z" />
    <glyph glyph-name="guillemotright" unicode="&#xbb;" horiz-adv-x="1107" 
d="M624 502l196 124l-196 118v372l430 -306v-368l-430 -314v374zM94 502l196 124l-196 118v372l430 -306v-368l-430 -314v374z" />
    <glyph glyph-name="onequarter" unicode="&#xbc;" horiz-adv-x="1553" 
d="M72 1338q114 0 208 70h114v-566h90v-160h-412v160h90v362l-90 -8v142zM801 1408h204l-340 -1408h-200zM851 331l302 398h256v-398h94v-156h-94v-172h-246v172h-312v156zM1163 331v202l-144 -202h144z" />
    <glyph glyph-name="onehalf" unicode="&#xbd;" horiz-adv-x="1331" 
d="M66 1338q114 0 208 70h114v-566h90v-160h-412v160h90v362l-90 -8v142zM725 1408h204l-340 -1408h-200zM757 729q146 64 278 64q55 0 100 -18t76.5 -50.5t48.5 -78.5t17 -101q0 -93 -67 -178t-195 -158h240v-170h-484v162q135 126 200.5 211.5t65.5 130.5q0 56 -82 56
q-47 0 -138 -44z" />
    <glyph glyph-name="threequarters" unicode="&#xbe;" horiz-adv-x="1588" 
d="M437 1076q140 -62 140 -204q0 -53 -21 -93.5t-58.5 -67.5t-88 -41t-108.5 -14q-96 0 -240 48l38 164q108 -36 172 -36q36 0 60 12.5t24 39.5q0 106 -202 106v138q42 0 78 3.5t62.5 13t41 25.5t14.5 40q0 23 -17 34.5t-43 11.5q-76 0 -190 -34l-38 158q132 60 252 60
q46 0 88 -13.5t73.5 -37.5t50 -57.5t18.5 -73.5q0 -112 -106 -182zM858 1408h204l-340 -1408h-200zM886 329l302 398h256v-398h94v-156h-94v-172h-246v172h-312v156zM1198 329v202l-144 -202h144z" />
    <glyph glyph-name="questiondown" unicode="&#xbf;" horiz-adv-x="1036" 
d="M501 382q0 -66 162 -66q158 0 266 54l28 -312q-219 -90 -412 -90q-104 0 -194 26t-157.5 75.5t-106 120t-38.5 160.5q0 62 18 110.5t48 85.5t68.5 64t79.5 47q82 40 131 62t74.5 40.5t33 40.5t7.5 62v26h286l23 -78q5 -16 9.5 -38t3.5 -44q-1 -38 -9 -67.5t-22.5 -53.5
t-34 -43t-43.5 -35q-29 -19 -67 -37.5t-72.5 -36.5t-58 -36.5t-23.5 -36.5zM887 1232q0 -45 -20 -83t-52.5 -65.5t-74.5 -42.5t-85 -15q-47 0 -88.5 16.5t-73 45t-50 65.5t-18.5 79q0 45 19 83.5t51 66t73.5 43t86.5 15.5q48 0 90 -16.5t73.5 -45t50 -66t18.5 -80.5z" />
    <glyph glyph-name="Agrave" unicode="&#xc0;" horiz-adv-x="1431" 
d="M238 2201l600 -420l-126 -220l-682 274zM400 1408h622l408 -1408h-482l-54 270h-364l-58 -270h-462zM846 522l-134 616l-138 -616h272z" />
    <glyph glyph-name="Aacute" unicode="&#xc1;" horiz-adv-x="1431" 
d="M585 1781l600 420l208 -366l-682 -274zM400 1408h622l408 -1408h-482l-54 270h-364l-58 -270h-462zM846 522l-134 616l-138 -616h272z" />
    <glyph glyph-name="Acircumflex" unicode="&#xc2;" horiz-adv-x="1431" 
d="M522 2071h378l252 -510h-340l-78 218l-24 78l-22 -78l-78 -218h-340zM400 1408h622l408 -1408h-482l-54 270h-364l-58 -270h-462zM846 522l-134 616l-138 -616h272z" />
    <glyph glyph-name="Atilde" unicode="&#xc3;" horiz-adv-x="1431" 
d="M565 1675q-23 0 -40 -9.5t-30 -25t-22 -35t-16 -38.5l-242 98q31 85 70 151t84.5 111.5t95.5 69.5t102 24q31 0 62.5 -10.5t48.5 -18.5l47 -28q2 -2 7 -5t12 -8l43 -25q18 -9 36.5 -14t41.5 -5q70 0 102 92l240 -98q-62 -177 -145.5 -258.5t-188.5 -81.5q-39 0 -69.5 8.5
t-56.5 21t-48 27.5t-43.5 27.5t-43.5 21t-47 8.5zM400 1408h622l408 -1408h-482l-54 270h-364l-58 -270h-462zM846 522l-134 616l-138 -616h272z" />
    <glyph glyph-name="Adieresis" unicode="&#xc4;" horiz-adv-x="1431" 
d="M790 1767q0 46 20 84t52.5 65.5t74 43t85.5 15.5q52 0 94 -18.5t72 -48.5t46 -67t16 -74q0 -45 -19 -83t-50.5 -65t-73 -42.5t-85.5 -15.5q-52 0 -94.5 17t-73 45.5t-47.5 65.5t-17 78zM172 1767q0 44 19 82t51 66t73.5 44t86.5 16q48 0 89.5 -17t73 -46t49.5 -66.5
t18 -78.5q0 -46 -19.5 -84t-51.5 -65t-73.5 -42t-85.5 -15q-48 0 -89.5 16t-73 43.5t-49.5 65t-18 81.5zM400 1408h622l408 -1408h-482l-54 270h-364l-58 -270h-462zM846 522l-134 616l-138 -616h272z" />
    <glyph glyph-name="Aring" unicode="&#xc5;" horiz-adv-x="1431" 
d="M708 1946q-27 0 -49.5 -9.5t-38.5 -26.5t-25 -40.5t-9 -51.5q0 -57 35.5 -90.5t90.5 -33.5q57 0 87.5 33.5t30.5 90.5t-33.5 92.5t-88.5 35.5zM360 1818q0 81 26.5 146t73.5 111.5t111.5 71.5t140.5 25q83 0 148 -28t110 -76t68.5 -112.5t23.5 -137.5q0 -80 -26 -144.5
t-72.5 -110t-111 -70.5t-140.5 -25q-78 0 -143 25.5t-111.5 72t-72 111t-25.5 141.5zM400 1408h622l408 -1408h-482l-54 270h-364l-58 -270h-462zM846 522l-134 616l-138 -616h272z" />
    <glyph glyph-name="AE" unicode="&#xc6;" horiz-adv-x="1914" 
d="M476 1408h1176l56 -310h-565l49 -256h510l50 -258h-498l60 -276h528l56 -308h-980l-46 270h-346l-84 -270h-448zM824 522l-84 514l-138 -514h222z" />
    <glyph glyph-name="Ccedilla" unicode="&#xc7;" horiz-adv-x="1237" 
d="M802 -287q0 48 -32 71t-86 23h-4l60 180h114l-40 -116q100 -11 156 -51t56 -109q0 -62 -31 -106t-76 -72t-96.5 -41t-92.5 -13q-89 0 -180 44l28 76q53 -14 92 -14q132 0 132 128zM875 338q35 0 65 3.5t59.5 10.5t60.5 18t69 26l56 -325q-178 -103 -388 -103
q-297 0 -509 200q-222 208 -225 537q0 160 55 295t152 232.5t229 152t286 54.5q219 0 398 -102l-54 -318q-147 56 -266 56q-167 0 -253.5 -96.5t-86.5 -271.5q0 -87 23.5 -155.5t68.5 -116t110.5 -72.5t149.5 -25z" />
    <glyph glyph-name="Egrave" unicode="&#xc8;" horiz-adv-x="1218" 
d="M156 2201l600 -420l-126 -220l-682 274zM134 1408h988v-310h-492v-256h450v-258h-450v-276h492v-308h-988v1408z" />
    <glyph glyph-name="Eacute" unicode="&#xc9;" horiz-adv-x="1218" 
d="M502 1781l600 420l208 -366l-682 -274zM134 1408h988v-310h-492v-256h450v-258h-450v-276h492v-308h-988v1408z" />
    <glyph glyph-name="Ecircumflex" unicode="&#xca;" horiz-adv-x="1218" 
d="M439 2071h378l252 -510h-340l-78 218l-24 78l-22 -78l-78 -218h-340zM134 1408h988v-310h-492v-256h450v-258h-450v-276h492v-308h-988v1408z" />
    <glyph glyph-name="Edieresis" unicode="&#xcb;" horiz-adv-x="1218" 
d="M707 1767q0 46 20 84t52.5 65.5t74 43t85.5 15.5q52 0 94 -18.5t72 -48.5t46 -67t16 -74q0 -45 -19 -83t-50.5 -65t-73 -42.5t-85.5 -15.5q-52 0 -94.5 17t-73 45.5t-47.5 65.5t-17 78zM89 1767q0 44 19 82t51 66t73.5 44t86.5 16q48 0 89.5 -17t73 -46t49.5 -66.5
t18 -78.5q0 -46 -19.5 -84t-51.5 -65t-73.5 -42t-85.5 -15q-48 0 -89.5 16t-73 43.5t-49.5 65t-18 81.5zM134 1408h988v-310h-492v-256h450v-258h-450v-276h492v-308h-988v1408z" />
    <glyph glyph-name="Igrave" unicode="&#xcc;" horiz-adv-x="740" 
d="M-102 2201l600 -420l-126 -220l-682 274zM134 1408h472v-1408h-472v1408z" />
    <glyph glyph-name="Iacute" unicode="&#xcd;" horiz-adv-x="740" 
d="M244 1781l600 420l208 -366l-682 -274zM134 1408h472v-1408h-472v1408z" />
    <glyph glyph-name="Icircumflex" unicode="&#xce;" horiz-adv-x="740" 
d="M183 2071h378l252 -510h-340l-78 218l-24 78l-22 -78l-78 -218h-340zM134 1408h472v-1408h-472v1408z" />
    <glyph glyph-name="Idieresis" unicode="&#xcf;" horiz-adv-x="740" 
d="M451 1767q0 46 20 84t52.5 65.5t74 43t85.5 15.5q52 0 94 -18.5t72 -48.5t46 -67t16 -74q0 -45 -19 -83t-50.5 -65t-73 -42.5t-85.5 -15.5q-52 0 -94.5 17t-73 45.5t-47.5 65.5t-17 78zM-167 1767q0 44 19 82t51 66t73.5 44t86.5 16q48 0 89.5 -17t73 -46t49.5 -66.5
t18 -78.5q0 -46 -19.5 -84t-51.5 -65t-73.5 -42t-85.5 -15q-48 0 -89.5 16t-73 43.5t-49.5 65t-18 81.5zM134 1408h472v-1408h-472v1408z" />
    <glyph glyph-name="Eth" unicode="&#xd0;" horiz-adv-x="1618" 
d="M3 618v174h184v584h612q167 0 306 -51t238.5 -141t154.5 -214.5t55 -271.5q0 -101 -24.5 -191.5t-71 -168t-113.5 -140t-150.5 -106.5t-183 -68t-211.5 -24h-612v618h-184zM799 368q68 0 122.5 26t92.5 71.5t58.5 106.5t20.5 130q0 67 -22.5 123.5t-61.5 97t-93 63
t-117 22.5h-160v-216h162v-174h-162v-250h160z" />
    <glyph glyph-name="Ntilde" unicode="&#xd1;" horiz-adv-x="1606" 
d="M657 1675q-23 0 -40 -9.5t-30 -25t-22 -35t-16 -38.5l-242 98q31 85 70 151t84.5 111.5t95.5 69.5t102 24q31 0 62.5 -10.5t48.5 -18.5l47 -28q2 -2 7 -5t12 -8l43 -25q18 -9 36.5 -14t41.5 -5q70 0 102 92l240 -98q-62 -177 -145.5 -258.5t-188.5 -81.5q-39 0 -69.5 8.5
t-56.5 21t-48 27.5t-43.5 27.5t-43.5 21t-47 8.5zM134 1408h410l562 -758v758h366v-1408h-410l-564 734v-734h-364v1408z" />
    <glyph glyph-name="Ograve" unicode="&#xd2;" 
d="M344 2201l600 -420l-126 -220l-682 274zM64 702q0 305 194 514q207 223 560 223q172 0 311 -55.5t237 -153.5t151 -233.5t53 -294.5q0 -96 -22 -188t-65.5 -173.5t-107.5 -150t-147.5 -118t-186 -77t-223.5 -27.5q-124 0 -227.5 28t-187.5 78t-147.5 119t-106 150.5
t-64 172.5t-21.5 186zM818 340q79 0 134.5 33.5t91 86t52 117.5t16.5 127q0 81 -20.5 148.5t-59 117t-93 78.5t-121.5 32q-80 -2 -136 -36t-91.5 -87.5t-52 -120t-16.5 -132.5q0 -78 20.5 -144.5t59 -115t93.5 -76.5t123 -28z" />
    <glyph glyph-name="Oacute" unicode="&#xd3;" 
d="M692 1781l600 420l208 -366l-682 -274zM64 702q0 305 194 514q207 223 560 223q172 0 311 -55.5t237 -153.5t151 -233.5t53 -294.5q0 -96 -22 -188t-65.5 -173.5t-107.5 -150t-147.5 -118t-186 -77t-223.5 -27.5q-124 0 -227.5 28t-187.5 78t-147.5 119t-106 150.5
t-64 172.5t-21.5 186zM818 340q79 0 134.5 33.5t91 86t52 117.5t16.5 127q0 81 -20.5 148.5t-59 117t-93 78.5t-121.5 32q-80 -2 -136 -36t-91.5 -87.5t-52 -120t-16.5 -132.5q0 -78 20.5 -144.5t59 -115t93.5 -76.5t123 -28z" />
    <glyph glyph-name="Ocircumflex" unicode="&#xd4;" 
d="M629 2071h378l252 -510h-340l-78 218l-24 78l-22 -78l-78 -218h-340zM64 702q0 305 194 514q207 223 560 223q172 0 311 -55.5t237 -153.5t151 -233.5t53 -294.5q0 -96 -22 -188t-65.5 -173.5t-107.5 -150t-147.5 -118t-186 -77t-223.5 -27.5q-124 0 -227.5 28t-187.5 78
t-147.5 119t-106 150.5t-64 172.5t-21.5 186zM818 340q79 0 134.5 33.5t91 86t52 117.5t16.5 127q0 81 -20.5 148.5t-59 117t-93 78.5t-121.5 32q-80 -2 -136 -36t-91.5 -87.5t-52 -120t-16.5 -132.5q0 -78 20.5 -144.5t59 -115t93.5 -76.5t123 -28z" />
    <glyph glyph-name="Otilde" unicode="&#xd5;" 
d="M672 1675q-23 0 -40 -9.5t-30 -25t-22 -35t-16 -38.5l-242 98q31 85 70 151t84.5 111.5t95.5 69.5t102 24q31 0 62.5 -10.5t48.5 -18.5l47 -28q2 -2 7 -5t12 -8l43 -25q18 -9 36.5 -14t41.5 -5q70 0 102 92l240 -98q-62 -177 -145.5 -258.5t-188.5 -81.5q-39 0 -69.5 8.5
t-56.5 21t-48 27.5t-43.5 27.5t-43.5 21t-47 8.5zM64 702q0 305 194 514q207 223 560 223q172 0 311 -55.5t237 -153.5t151 -233.5t53 -294.5q0 -96 -22 -188t-65.5 -173.5t-107.5 -150t-147.5 -118t-186 -77t-223.5 -27.5q-124 0 -227.5 28t-187.5 78t-147.5 119
t-106 150.5t-64 172.5t-21.5 186zM818 340q79 0 134.5 33.5t91 86t52 117.5t16.5 127q0 81 -20.5 148.5t-59 117t-93 78.5t-121.5 32q-80 -2 -136 -36t-91.5 -87.5t-52 -120t-16.5 -132.5q0 -78 20.5 -144.5t59 -115t93.5 -76.5t123 -28z" />
    <glyph glyph-name="Odieresis" unicode="&#xd6;" 
d="M897 1767q0 46 20 84t52.5 65.5t74 43t85.5 15.5q52 0 94 -18.5t72 -48.5t46 -67t16 -74q0 -45 -19 -83t-50.5 -65t-73 -42.5t-85.5 -15.5q-52 0 -94.5 17t-73 45.5t-47.5 65.5t-17 78zM279 1767q0 44 19 82t51 66t73.5 44t86.5 16q48 0 89.5 -17t73 -46t49.5 -66.5
t18 -78.5q0 -46 -19.5 -84t-51.5 -65t-73.5 -42t-85.5 -15q-48 0 -89.5 16t-73 43.5t-49.5 65t-18 81.5zM64 702q0 305 194 514q207 223 560 223q172 0 311 -55.5t237 -153.5t151 -233.5t53 -294.5q0 -96 -22 -188t-65.5 -173.5t-107.5 -150t-147.5 -118t-186 -77
t-223.5 -27.5q-124 0 -227.5 28t-187.5 78t-147.5 119t-106 150.5t-64 172.5t-21.5 186zM818 340q79 0 134.5 33.5t91 86t52 117.5t16.5 127q0 81 -20.5 148.5t-59 117t-93 78.5t-121.5 32q-80 -2 -136 -36t-91.5 -87.5t-52 -120t-16.5 -132.5q0 -78 20.5 -144.5t59 -115
t93.5 -76.5t123 -28z" />
    <glyph glyph-name="multiply" unicode="&#xd7;" horiz-adv-x="941" 
d="M386 514l-320 322l84 84l322 -320l320 320l84 -84l-318 -322l310 -312l-82 -80l-314 312l-316 -312l-82 80z" />
    <glyph glyph-name="Oslash" unicode="&#xd8;" horiz-adv-x="1636" 
d="M819 1439q32 0 63.5 -2t61.5 -6l63 246h140l-71 -275q111 -35 202 -99.5t156.5 -154.5t101 -202.5t35.5 -243.5q0 -97 -22 -189t-65.5 -173.5t-107.5 -149.5t-147.5 -117.5t-186 -77t-223.5 -27.5q-58 0 -110 6l-81 -314h-136l87 340q-116 33 -210.5 97.5t-162 155.5
t-104.5 204.5t-37 244.5q0 305 194 514q208 223 560 223zM853 1076q-1 0 -9.5 1t-24.5 3q-74 -1 -129.5 -32.5t-92.5 -83.5t-55.5 -119.5t-18.5 -140.5q0 -112 40 -196t112 -129zM819 340q79 0 134.5 33.5t91 86t52 117t16.5 127.5q0 109 -35.5 190.5t-98.5 129.5l-176 -684
h16z" />
    <glyph glyph-name="Ugrave" unicode="&#xd9;" 
d="M343 2201l600 -420l-126 -220l-682 274zM817 338q115 0 174.5 62.5t59.5 183.5v824h462v-824q0 -108 -28.5 -195.5t-78 -156t-116.5 -118.5t-144.5 -82.5t-161.5 -48t-167 -15.5q-285 0 -483 156q-213 166 -213 460v824h462v-824q0 -246 234 -246z" />
    <glyph glyph-name="Uacute" unicode="&#xda;" 
d="M691 1781l600 420l208 -366l-682 -274zM817 338q115 0 174.5 62.5t59.5 183.5v824h462v-824q0 -108 -28.5 -195.5t-78 -156t-116.5 -118.5t-144.5 -82.5t-161.5 -48t-167 -15.5q-285 0 -483 156q-213 166 -213 460v824h462v-824q0 -246 234 -246z" />
    <glyph glyph-name="Ucircumflex" unicode="&#xdb;" 
d="M628 2071h378l252 -510h-340l-78 218l-24 78l-22 -78l-78 -218h-340zM817 338q115 0 174.5 62.5t59.5 183.5v824h462v-824q0 -108 -28.5 -195.5t-78 -156t-116.5 -118.5t-144.5 -82.5t-161.5 -48t-167 -15.5q-285 0 -483 156q-213 166 -213 460v824h462v-824
q0 -246 234 -246z" />
    <glyph glyph-name="Udieresis" unicode="&#xdc;" 
d="M896 1767q0 46 20 84t52.5 65.5t74 43t85.5 15.5q52 0 94 -18.5t72 -48.5t46 -67t16 -74q0 -45 -19 -83t-50.5 -65t-73 -42.5t-85.5 -15.5q-52 0 -94.5 17t-73 45.5t-47.5 65.5t-17 78zM278 1767q0 44 19 82t51 66t73.5 44t86.5 16q48 0 89.5 -17t73 -46t49.5 -66.5
t18 -78.5q0 -46 -19.5 -84t-51.5 -65t-73.5 -42t-85.5 -15q-48 0 -89.5 16t-73 43.5t-49.5 65t-18 81.5zM817 338q115 0 174.5 62.5t59.5 183.5v824h462v-824q0 -108 -28.5 -195.5t-78 -156t-116.5 -118.5t-144.5 -82.5t-161.5 -48t-167 -15.5q-285 0 -483 156
q-213 166 -213 460v824h462v-824q0 -246 234 -246z" />
    <glyph glyph-name="Yacute" unicode="&#xdd;" horiz-adv-x="1253" 
d="M504 1781l600 420l208 -366l-682 -274zM400 392l-406 1016h428l198 -632l196 632h450l-426 -1016v-392h-440v392z" />
    <glyph glyph-name="Thorn" unicode="&#xde;" horiz-adv-x="1334" 
d="M134 1408h440v-142h68q158 0 281 -31t207 -91t128 -146.5t44 -197.5q0 -106 -49 -191t-135 -145t-203.5 -92t-254.5 -32h-86v-340h-440v1408zM662 624q104 0 166 44t62 132q0 41 -18 73t-48.5 54t-72 33.5t-89.5 11.5h-88v-344q16 -2 37.5 -3t50.5 -1z" />
    <glyph glyph-name="germandbls" unicode="&#xdf;" horiz-adv-x="1448" 
d="M694 1168q-67 0 -107.5 -37.5t-40.5 -100.5v-1030l-440 -32v1136q0 72 45 133.5t124 106.5t187.5 70.5t235.5 25.5q103 0 196.5 -23.5t164.5 -67.5t113 -108.5t42 -146.5q0 -97 -42 -167.5t-112 -112.5q73 -21 136.5 -61t111 -94t75 -120t27.5 -139q0 -130 -51 -223
t-136 -153t-195 -88t-228 -28q-11 0 -29.5 0.5t-39 0.5t-39 0.5t-28.5 0.5v330q26 -2 50.5 -3t49.5 -1q49 0 87.5 17.5t64.5 48.5t40 73.5t14 92.5q0 42 -17 81t-50 71.5t-83 57.5t-116 40v190q36 6 67 19t54 31t36 41.5t13 50.5q0 30 -14.5 52.5t-39.5 37t-57.5 21.5
t-68.5 7z" />
    <glyph glyph-name="agrave" unicode="&#xe0;" horiz-adv-x="1425" 
d="M500 1818l600 -420l-126 -220l-682 274zM890 190q-48 -100 -130 -153t-206 -53q-100 0 -191 40.5t-160 112t-110 169.5t-41 213q0 114 41.5 210t111 165.5t160 108t189.5 38.5q51 0 100.5 -13.5t94 -43t81 -74.5t60.5 -108v239h430v-1041h-430v190zM890 520q-2 40 -19 76
t-44.5 62.5t-63.5 42t-75 15.5q-44 0 -81.5 -16.5t-65 -44t-43.5 -64.5t-16 -79q0 -44 17 -81.5t45.5 -64.5t65.5 -42.5t78 -15.5q42 0 78 16t63 43t43 62.5t18 74.5v16z" />
    <glyph glyph-name="aacute" unicode="&#xe1;" horiz-adv-x="1425" 
d="M596 1398l600 420l208 -366l-682 -274zM890 190q-48 -100 -130 -153t-206 -53q-100 0 -191 40.5t-160 112t-110 169.5t-41 213q0 114 41.5 210t111 165.5t160 108t189.5 38.5q51 0 100.5 -13.5t94 -43t81 -74.5t60.5 -108v239h430v-1041h-430v190zM890 520q-2 40 -19 76
t-44.5 62.5t-63.5 42t-75 15.5q-44 0 -81.5 -16.5t-65 -44t-43.5 -64.5t-16 -79q0 -44 17 -81.5t45.5 -64.5t65.5 -42.5t78 -15.5q42 0 78 16t63 43t43 62.5t18 74.5v16z" />
    <glyph glyph-name="acircumflex" unicode="&#xe2;" horiz-adv-x="1425" 
d="M533 1688h378l252 -510h-340l-78 218l-24 78l-22 -78l-78 -218h-340zM890 190q-48 -100 -130 -153t-206 -53q-100 0 -191 40.5t-160 112t-110 169.5t-41 213q0 114 41.5 210t111 165.5t160 108t189.5 38.5q51 0 100.5 -13.5t94 -43t81 -74.5t60.5 -108v239h430v-1041
h-430v190zM890 520q-2 40 -19 76t-44.5 62.5t-63.5 42t-75 15.5q-44 0 -81.5 -16.5t-65 -44t-43.5 -64.5t-16 -79q0 -44 17 -81.5t45.5 -64.5t65.5 -42.5t78 -15.5q42 0 78 16t63 43t43 62.5t18 74.5v16z" />
    <glyph glyph-name="atilde" unicode="&#xe3;" horiz-adv-x="1425" 
d="M576 1292q-23 0 -40 -9.5t-30 -25t-22 -35t-16 -38.5l-242 98q31 85 70 151t84.5 111.5t95.5 69.5t102 24q31 0 62.5 -10.5t48.5 -18.5l47 -28q2 -2 7 -5t12 -8l43 -25q18 -9 36.5 -14t41.5 -5q70 0 102 92l240 -98q-62 -177 -145.5 -258.5t-188.5 -81.5q-39 0 -69.5 8.5
t-56.5 21t-48 27.5t-43.5 27.5t-43.5 21t-47 8.5zM890 190q-48 -100 -130 -153t-206 -53q-100 0 -191 40.5t-160 112t-110 169.5t-41 213q0 114 41.5 210t111 165.5t160 108t189.5 38.5q51 0 100.5 -13.5t94 -43t81 -74.5t60.5 -108v239h430v-1041h-430v190zM890 520
q-2 40 -19 76t-44.5 62.5t-63.5 42t-75 15.5q-44 0 -81.5 -16.5t-65 -44t-43.5 -64.5t-16 -79q0 -44 17 -81.5t45.5 -64.5t65.5 -42.5t78 -15.5q42 0 78 16t63 43t43 62.5t18 74.5v16z" />
    <glyph glyph-name="adieresis" unicode="&#xe4;" horiz-adv-x="1425" 
d="M801 1384q0 46 20 84t52.5 65.5t74 43t85.5 15.5q52 0 94 -18.5t72 -48.5t46 -67t16 -74q0 -45 -19 -83t-50.5 -65t-73 -42.5t-85.5 -15.5q-52 0 -94.5 17t-73 45.5t-47.5 65.5t-17 78zM183 1384q0 44 19 82t51 66t73.5 44t86.5 16q48 0 89.5 -17t73 -46t49.5 -66.5
t18 -78.5q0 -46 -19.5 -84t-51.5 -65t-73.5 -42t-85.5 -15q-48 0 -89.5 16t-73 43.5t-49.5 65t-18 81.5zM890 190q-48 -100 -130 -153t-206 -53q-100 0 -191 40.5t-160 112t-110 169.5t-41 213q0 114 41.5 210t111 165.5t160 108t189.5 38.5q51 0 100.5 -13.5t94 -43
t81 -74.5t60.5 -108v239h430v-1041h-430v190zM890 520q-2 40 -19 76t-44.5 62.5t-63.5 42t-75 15.5q-44 0 -81.5 -16.5t-65 -44t-43.5 -64.5t-16 -79q0 -44 17 -81.5t45.5 -64.5t65.5 -42.5t78 -15.5q42 0 78 16t63 43t43 62.5t18 74.5v16z" />
    <glyph glyph-name="aring" unicode="&#xe5;" horiz-adv-x="1425" 
d="M719 1656q-27 0 -49.5 -9.5t-38.5 -26.5t-25 -40.5t-9 -51.5q0 -57 35.5 -90.5t90.5 -33.5q57 0 87.5 33.5t30.5 90.5t-33.5 92.5t-88.5 35.5zM371 1528q0 81 26.5 146t73.5 111.5t111.5 71.5t140.5 25q83 0 148 -28t110 -76t68.5 -112.5t23.5 -137.5q0 -80 -26 -144.5
t-72.5 -110t-111 -70.5t-140.5 -25q-78 0 -143 25.5t-111.5 72t-72 111t-25.5 141.5zM890 190q-48 -100 -130 -153t-206 -53q-100 0 -191 40.5t-160 112t-110 169.5t-41 213q0 114 41.5 210t111 165.5t160 108t189.5 38.5q51 0 100.5 -13.5t94 -43t81 -74.5t60.5 -108v239
h430v-1041h-430v190zM890 520q-2 40 -19 76t-44.5 62.5t-63.5 42t-75 15.5q-44 0 -81.5 -16.5t-65 -44t-43.5 -64.5t-16 -79q0 -44 17 -81.5t45.5 -64.5t65.5 -42.5t78 -15.5q42 0 78 16t63 43t43 62.5t18 74.5v16z" />
    <glyph glyph-name="ae" unicode="&#xe6;" horiz-adv-x="2162" 
d="M2075 52q-215 -84 -478 -84q-38 0 -77.5 8t-79.5 23t-78 38t-72 53v-90l-400 -32v222q-24 -50 -56.5 -91t-74.5 -70t-93.5 -45t-113.5 -16q-100 0 -190.5 43t-159.5 117.5t-109.5 175t-40.5 215.5q0 114 41.5 212.5t111 170.5t160 113t189.5 41q51 0 100.5 -16t94 -48
t81 -79.5t60.5 -110.5v254l400 -30v-90q130 120 323 120q115 0 208 -38t159 -106.5t101.5 -163.5t35.5 -210q0 -14 -1 -27t-3 -25l-674 -80q55 -144 254 -144q158 0 332 72zM890 520q-2 40 -19 76t-44.5 62.5t-63.5 42t-75 15.5q-44 0 -81.5 -16.5t-65 -44t-43.5 -64.5
t-16 -79q0 -44 17 -81.5t45.5 -64.5t65.5 -42.5t78 -15.5q42 0 78 16t63 43t43 62.5t18 74.5v16zM1799 664q-20 61 -68 94.5t-118 33.5q-88 0 -138.5 -54t-53.5 -144z" />
    <glyph glyph-name="ccedilla" unicode="&#xe7;" horiz-adv-x="966" 
d="M613 -287q0 48 -32 71t-86 23h-4l60 180h114l-40 -116q100 -11 156 -51t56 -109q0 -62 -31 -106t-76 -72t-96.5 -41t-92.5 -13q-89 0 -180 44l28 76q53 -14 92 -14q132 0 132 128zM882 686q-108 34 -200 34q-47 0 -84.5 -15t-64 -42t-41 -65.5t-14.5 -85.5t14.5 -85.5
t41.5 -66.5t65.5 -43t86.5 -15q91 0 192 34l40 -286q-77 -40 -150.5 -53t-159.5 -13q-121 0 -223 38t-176 107t-115.5 166.5t-41.5 216.5t45 216.5t121.5 167t177.5 107.5t212 38q49 0 88.5 -3.5t75.5 -13t72 -25.5t78 -41z" />
    <glyph glyph-name="egrave" unicode="&#xe8;" horiz-adv-x="1138" 
d="M363 1818l600 -420l-126 -220l-682 274zM698 271q140 0 302 72l50 -275q-186 -84 -418 -84q-129 0 -235.5 39.5t-183 110t-119 167.5t-42.5 211q0 120 44.5 217.5t121.5 167t180 107t220 37.5q118 0 207 -39.5t148.5 -108t89 -160t29.5 -195.5q0 -14 -1 -27t-3 -25
l-614 -80q24 -72 80 -103.5t144 -31.5zM774 664q-35 128 -156 128q-38 0 -68 -15t-50.5 -41.5t-31.5 -63t-12 -78.5z" />
    <glyph glyph-name="eacute" unicode="&#xe9;" horiz-adv-x="1138" 
d="M246 1398l600 420l208 -366l-682 -274zM698 271q140 0 302 72l50 -275q-186 -84 -418 -84q-129 0 -235.5 39.5t-183 110t-119 167.5t-42.5 211q0 120 44.5 217.5t121.5 167t180 107t220 37.5q118 0 207 -39.5t148.5 -108t89 -160t29.5 -195.5q0 -14 -1 -27t-3 -25
l-614 -80q24 -72 80 -103.5t144 -31.5zM774 664q-35 128 -156 128q-38 0 -68 -15t-50.5 -41.5t-31.5 -63t-12 -78.5z" />
    <glyph glyph-name="ecircumflex" unicode="&#xea;" horiz-adv-x="1138" 
d="M429 1688h378l252 -510h-340l-78 218l-24 78l-22 -78l-78 -218h-340zM698 271q140 0 302 72l50 -275q-186 -84 -418 -84q-129 0 -235.5 39.5t-183 110t-119 167.5t-42.5 211q0 120 44.5 217.5t121.5 167t180 107t220 37.5q118 0 207 -39.5t148.5 -108t89 -160
t29.5 -195.5q0 -14 -1 -27t-3 -25l-614 -80q24 -72 80 -103.5t144 -31.5zM774 664q-35 128 -156 128q-38 0 -68 -15t-50.5 -41.5t-31.5 -63t-12 -78.5z" />
    <glyph glyph-name="edieresis" unicode="&#xeb;" horiz-adv-x="1138" 
d="M699 1384q0 46 20 84t52.5 65.5t74 43t85.5 15.5q52 0 94 -18.5t72 -48.5t46 -67t16 -74q0 -45 -19 -83t-50.5 -65t-73 -42.5t-85.5 -15.5q-52 0 -94.5 17t-73 45.5t-47.5 65.5t-17 78zM81 1384q0 44 19 82t51 66t73.5 44t86.5 16q48 0 89.5 -17t73 -46t49.5 -66.5
t18 -78.5q0 -46 -19.5 -84t-51.5 -65t-73.5 -42t-85.5 -15q-48 0 -89.5 16t-73 43.5t-49.5 65t-18 81.5zM698 271q140 0 302 72l50 -275q-186 -84 -418 -84q-129 0 -235.5 39.5t-183 110t-119 167.5t-42.5 211q0 120 44.5 217.5t121.5 167t180 107t220 37.5q118 0 207 -39.5
t148.5 -108t89 -160t29.5 -195.5q0 -14 -1 -27t-3 -25l-614 -80q24 -72 80 -103.5t144 -31.5zM774 664q-35 128 -156 128q-38 0 -68 -15t-50.5 -41.5t-31.5 -63t-12 -78.5z" />
    <glyph glyph-name="igrave" unicode="&#xec;" horiz-adv-x="748" 
d="M126 1818l600 -420l-126 -220l-682 274zM731 38q-121 -70 -268 -70q-87 0 -155 29t-114.5 82.5t-70.5 129.5t-24 169v648h434v-628q0 -49 26 -73.5t66 -24.5t84 24z" />
    <glyph glyph-name="iacute" unicode="&#xed;" horiz-adv-x="748" 
d="M100 1398l600 420l208 -366l-682 -274zM731 38q-121 -70 -268 -70q-87 0 -155 29t-114.5 82.5t-70.5 129.5t-24 169v648h434v-628q0 -49 26 -73.5t66 -24.5t84 24z" />
    <glyph glyph-name="icircumflex" unicode="&#xee;" horiz-adv-x="748" 
d="M129 1688h378l252 -510h-340l-78 218l-24 78l-22 -78l-78 -218h-340zM731 38q-121 -70 -268 -70q-87 0 -155 29t-114.5 82.5t-70.5 129.5t-24 169v648h434v-628q0 -49 26 -73.5t66 -24.5t84 24z" />
    <glyph glyph-name="idieresis" unicode="&#xef;" horiz-adv-x="748" 
d="M397 1384q0 46 20 84t52.5 65.5t74 43t85.5 15.5q52 0 94 -18.5t72 -48.5t46 -67t16 -74q0 -45 -19 -83t-50.5 -65t-73 -42.5t-85.5 -15.5q-52 0 -94.5 17t-73 45.5t-47.5 65.5t-17 78zM-221 1384q0 44 19 82t51 66t73.5 44t86.5 16q48 0 89.5 -17t73 -46t49.5 -66.5
t18 -78.5q0 -46 -19.5 -84t-51.5 -65t-73.5 -42t-85.5 -15q-48 0 -89.5 16t-73 43.5t-49.5 65t-18 81.5zM731 38q-121 -70 -268 -70q-87 0 -155 29t-114.5 82.5t-70.5 129.5t-24 169v648h434v-628q0 -49 26 -73.5t66 -24.5t84 24z" />
    <glyph glyph-name="eth" unicode="&#xf0;" horiz-adv-x="1324" 
d="M1170 1103q92 -179 92 -413q0 -164 -45.5 -297t-128 -227.5t-198.5 -146t-258 -51.5q-135 0 -245.5 35t-189 98t-121.5 150.5t-43 192.5t36 186t102 136.5t159.5 84.5t209.5 29q155 0 268 -92q-15 109 -46 170l-147 -52l-46 115l105 37q-43 22 -94 22q-129 0 -340 -54
l-108 304q258 110 500 110q293 0 470 -230l145 52l46 -115zM632 302q44 0 74.5 21t50.5 57t31.5 83.5t17.5 100.5q-81 30 -184 30q-34 0 -63.5 -10.5t-51.5 -30t-34.5 -47.5t-12.5 -62q0 -33 13 -59.5t35.5 -45t54 -28t69.5 -9.5z" />
    <glyph glyph-name="ntilde" unicode="&#xf1;" horiz-adv-x="1407" 
d="M560 1292q-23 0 -40 -9.5t-30 -25t-22 -35t-16 -38.5l-242 98q31 85 70 151t84.5 111.5t95.5 69.5t102 24q31 0 62.5 -10.5t48.5 -18.5l47 -28q2 -2 7 -5t12 -8l43 -25q18 -9 36.5 -14t41.5 -5q70 0 102 92l240 -98q-62 -177 -145.5 -258.5t-188.5 -81.5q-39 0 -69.5 8.5
t-56.5 21t-48 27.5t-43.5 27.5t-43.5 21t-47 8.5zM102 1011h412v-209q60 121 154.5 180t221.5 59q102 0 180 -38t131.5 -107.5t81 -167t27.5 -216.5v-512h-430v554q0 40 -7.5 74t-24 58.5t-41.5 38t-61 13.5q-44 0 -81 -21.5t-64.5 -52.5t-44.5 -64.5t-22 -57.5v-542h-432
v1011z" />
    <glyph glyph-name="ograve" unicode="&#xf2;" horiz-adv-x="1284" 
d="M452 1818l600 -420l-126 -220l-682 274zM452 514q0 -56 16.5 -98t43.5 -70t62 -42t71 -14t70.5 14t62 42t44 70t16.5 98t-16.5 98t-44 69.5t-62 41.5t-70.5 14t-71 -14t-62 -41.5t-43.5 -69.5t-16.5 -98zM52 514q5 129 53.5 227t128.5 165t185.5 101t224.5 34
q130 0 238 -39t186 -108.5t121 -166.5t43 -213q0 -94 -24.5 -170t-66.5 -134.5t-99 -101.5t-123 -70.5t-136.5 -40.5t-140.5 -13q-132 0 -240.5 38.5t-186.5 108.5t-120.5 167.5t-42.5 215.5z" />
    <glyph glyph-name="oacute" unicode="&#xf3;" horiz-adv-x="1284" 
d="M281 1398l600 420l208 -366l-682 -274zM452 514q0 -56 16.5 -98t43.5 -70t62 -42t71 -14t70.5 14t62 42t44 70t16.5 98t-16.5 98t-44 69.5t-62 41.5t-70.5 14t-71 -14t-62 -41.5t-43.5 -69.5t-16.5 -98zM52 514q5 129 53.5 227t128.5 165t185.5 101t224.5 34
q130 0 238 -39t186 -108.5t121 -166.5t43 -213q0 -94 -24.5 -170t-66.5 -134.5t-99 -101.5t-123 -70.5t-136.5 -40.5t-140.5 -13q-132 0 -240.5 38.5t-186.5 108.5t-120.5 167.5t-42.5 215.5z" />
    <glyph glyph-name="ocircumflex" unicode="&#xf4;" horiz-adv-x="1284" 
d="M455 1688h378l252 -510h-340l-78 218l-24 78l-22 -78l-78 -218h-340zM452 514q0 -56 16.5 -98t43.5 -70t62 -42t71 -14t70.5 14t62 42t44 70t16.5 98t-16.5 98t-44 69.5t-62 41.5t-70.5 14t-71 -14t-62 -41.5t-43.5 -69.5t-16.5 -98zM52 514q5 129 53.5 227t128.5 165
t185.5 101t224.5 34q130 0 238 -39t186 -108.5t121 -166.5t43 -213q0 -94 -24.5 -170t-66.5 -134.5t-99 -101.5t-123 -70.5t-136.5 -40.5t-140.5 -13q-132 0 -240.5 38.5t-186.5 108.5t-120.5 167.5t-42.5 215.5z" />
    <glyph glyph-name="otilde" unicode="&#xf5;" horiz-adv-x="1284" 
d="M498 1292q-23 0 -40 -9.5t-30 -25t-22 -35t-16 -38.5l-242 98q31 85 70 151t84.5 111.5t95.5 69.5t102 24q31 0 62.5 -10.5t48.5 -18.5l47 -28q2 -2 7 -5t12 -8l43 -25q18 -9 36.5 -14t41.5 -5q70 0 102 92l240 -98q-62 -177 -145.5 -258.5t-188.5 -81.5q-39 0 -69.5 8.5
t-56.5 21t-48 27.5t-43.5 27.5t-43.5 21t-47 8.5zM452 514q0 -56 16.5 -98t43.5 -70t62 -42t71 -14t70.5 14t62 42t44 70t16.5 98t-16.5 98t-44 69.5t-62 41.5t-70.5 14t-71 -14t-62 -41.5t-43.5 -69.5t-16.5 -98zM52 514q5 129 53.5 227t128.5 165t185.5 101t224.5 34
q130 0 238 -39t186 -108.5t121 -166.5t43 -213q0 -94 -24.5 -170t-66.5 -134.5t-99 -101.5t-123 -70.5t-136.5 -40.5t-140.5 -13q-132 0 -240.5 38.5t-186.5 108.5t-120.5 167.5t-42.5 215.5z" />
    <glyph glyph-name="odieresis" unicode="&#xf6;" horiz-adv-x="1284" 
d="M723 1384q0 46 20 84t52.5 65.5t74 43t85.5 15.5q52 0 94 -18.5t72 -48.5t46 -67t16 -74q0 -45 -19 -83t-50.5 -65t-73 -42.5t-85.5 -15.5q-52 0 -94.5 17t-73 45.5t-47.5 65.5t-17 78zM105 1384q0 44 19 82t51 66t73.5 44t86.5 16q48 0 89.5 -17t73 -46t49.5 -66.5
t18 -78.5q0 -46 -19.5 -84t-51.5 -65t-73.5 -42t-85.5 -15q-48 0 -89.5 16t-73 43.5t-49.5 65t-18 81.5zM452 514q0 -56 16.5 -98t43.5 -70t62 -42t71 -14t70.5 14t62 42t44 70t16.5 98t-16.5 98t-44 69.5t-62 41.5t-70.5 14t-71 -14t-62 -41.5t-43.5 -69.5t-16.5 -98z
M52 514q5 129 53.5 227t128.5 165t185.5 101t224.5 34q130 0 238 -39t186 -108.5t121 -166.5t43 -213q0 -94 -24.5 -170t-66.5 -134.5t-99 -101.5t-123 -70.5t-136.5 -40.5t-140.5 -13q-132 0 -240.5 38.5t-186.5 108.5t-120.5 167.5t-42.5 215.5z" />
    <glyph glyph-name="divide" unicode="&#xf7;" horiz-adv-x="926" 
d="M50 580h826v-114h-826v114zM259 200q0 40 17 73.5t45 57.5t65 37.5t76 13.5q41 0 77.5 -14.5t63.5 -39.5t43 -58t16 -70q0 -39 -16 -72t-43.5 -57t-64 -37.5t-76.5 -13.5q-42 0 -79 14t-64.5 38.5t-43.5 57t-16 70.5zM259 846q0 39 17 72.5t45.5 57.5t65 38t75.5 14
q41 0 77.5 -15t63.5 -40t43 -58t16 -69q0 -39 -16 -72t-43.5 -57t-64 -37.5t-76.5 -13.5q-44 0 -81 14t-64 38.5t-42.5 57t-15.5 70.5z" />
    <glyph glyph-name="oslash" unicode="&#xf8;" horiz-adv-x="1244" 
d="M432 -2q-84 27 -154 74.5t-119.5 113t-77 148t-27.5 180.5q0 94 23.5 170.5t65 137t98 104.5t123.5 73t141.5 43t150.5 14h9q5 0 10.5 -0.5t12.5 -1.5h2l36 148h118l-42 -170q85 -26 156.5 -73.5t123 -113.5t80 -149.5t28.5 -181.5q0 -95 -24.5 -172.5t-68 -138
t-102.5 -105t-127.5 -73.5t-143 -43t-149.5 -14h-16q-4 0 -9 0.5t-10 1.5l-34 -144h-116zM620 288q40 6 75 26.5t60.5 51t40 68.5t14.5 80q0 60 -25 108.5t-65 77.5zM614 738q-41 -2 -75 -20.5t-58 -49t-37.5 -70t-13.5 -84.5q0 -60 23.5 -108.5t60.5 -77.5z" />
    <glyph glyph-name="ugrave" unicode="&#xf9;" horiz-adv-x="1286" 
d="M441 1818l600 -420l-126 -220l-682 274zM516 426q0 -27 10.5 -49.5t29 -38.5t43 -25t51.5 -9q26 0 49 9.5t40 26t27 38.5t10 48v600h414v-586q0 -106 -41 -190.5t-113.5 -143.5t-171.5 -90.5t-216 -31.5q-115 0 -216 30.5t-176 89t-118.5 143.5t-43.5 193v586h422v-600z
" />
    <glyph glyph-name="uacute" unicode="&#xfa;" horiz-adv-x="1286" 
d="M288 1398l600 420l208 -366l-682 -274zM516 426q0 -27 10.5 -49.5t29 -38.5t43 -25t51.5 -9q26 0 49 9.5t40 26t27 38.5t10 48v600h414v-586q0 -106 -41 -190.5t-113.5 -143.5t-171.5 -90.5t-216 -31.5q-115 0 -216 30.5t-176 89t-118.5 143.5t-43.5 193v586h422v-600z
" />
    <glyph glyph-name="ucircumflex" unicode="&#xfb;" horiz-adv-x="1286" 
d="M453 1688h378l252 -510h-340l-78 218l-24 78l-22 -78l-78 -218h-340zM516 426q0 -27 10.5 -49.5t29 -38.5t43 -25t51.5 -9q26 0 49 9.5t40 26t27 38.5t10 48v600h414v-586q0 -106 -41 -190.5t-113.5 -143.5t-171.5 -90.5t-216 -31.5q-115 0 -216 30.5t-176 89
t-118.5 143.5t-43.5 193v586h422v-600z" />
    <glyph glyph-name="udieresis" unicode="&#xfc;" horiz-adv-x="1286" 
d="M721 1384q0 46 20 84t52.5 65.5t74 43t85.5 15.5q52 0 94 -18.5t72 -48.5t46 -67t16 -74q0 -45 -19 -83t-50.5 -65t-73 -42.5t-85.5 -15.5q-52 0 -94.5 17t-73 45.5t-47.5 65.5t-17 78zM103 1384q0 44 19 82t51 66t73.5 44t86.5 16q48 0 89.5 -17t73 -46t49.5 -66.5
t18 -78.5q0 -46 -19.5 -84t-51.5 -65t-73.5 -42t-85.5 -15q-48 0 -89.5 16t-73 43.5t-49.5 65t-18 81.5zM516 426q0 -27 10.5 -49.5t29 -38.5t43 -25t51.5 -9q26 0 49 9.5t40 26t27 38.5t10 48v600h414v-586q0 -106 -41 -190.5t-113.5 -143.5t-171.5 -90.5t-216 -31.5
q-115 0 -216 30.5t-176 89t-118.5 143.5t-43.5 193v586h422v-600z" />
    <glyph glyph-name="yacute" unicode="&#xfd;" horiz-adv-x="1369" 
d="M330 1398l600 420l208 -366l-682 -274zM852 170q-95 -170 -296 -170q-92 0 -175 32.5t-146 90.5t-100 137.5t-37 173.5v592h430v-572q0 -30 12.5 -56.5t32 -46.5t44.5 -31.5t51 -11.5q37 0 67.5 13.5t52 37t33 55t11.5 68.5v544h432v-766q0 -180 -37.5 -318
t-110.5 -231.5t-180 -142t-246 -48.5q-32 0 -76 5t-102 15l44 336q27 -7 52 -9.5t49 -2.5q58 0 93.5 27.5t56.5 71t30.5 98t14.5 109.5z" />
    <glyph glyph-name="thorn" unicode="&#xfe;" horiz-adv-x="1427" 
d="M875 -32q-120 0 -204 60t-132 162v-700h-432v1860l432 64v-580q103 222 334 222q104 0 195.5 -42.5t159.5 -116t107.5 -173t39.5 -212.5q0 -75 -18.5 -144.5t-52 -130t-80 -110t-102 -85t-118.5 -55t-129 -19.5zM539 512q0 -43 16.5 -80t44 -64.5t64 -43.5t77.5 -16
q43 0 81 16.5t65.5 45t43.5 65t16 77.5q0 49 -18.5 87t-48.5 64t-66.5 39.5t-72.5 13.5q-42 0 -78.5 -15.5t-63.5 -42.5t-43 -62.5t-17 -75.5v-8z" />
    <glyph glyph-name="ydieresis" unicode="&#xff;" horiz-adv-x="1369" 
d="M760 1384q0 46 20 84t52.5 65.5t74 43t85.5 15.5q52 0 94 -18.5t72 -48.5t46 -67t16 -74q0 -45 -19 -83t-50.5 -65t-73 -42.5t-85.5 -15.5q-52 0 -94.5 17t-73 45.5t-47.5 65.5t-17 78zM142 1384q0 44 19 82t51 66t73.5 44t86.5 16q48 0 89.5 -17t73 -46t49.5 -66.5
t18 -78.5q0 -46 -19.5 -84t-51.5 -65t-73.5 -42t-85.5 -15q-48 0 -89.5 16t-73 43.5t-49.5 65t-18 81.5zM852 170q-95 -170 -296 -170q-92 0 -175 32.5t-146 90.5t-100 137.5t-37 173.5v592h430v-572q0 -30 12.5 -56.5t32 -46.5t44.5 -31.5t51 -11.5q37 0 67.5 13.5t52 37
t33 55t11.5 68.5v544h432v-766q0 -180 -37.5 -318t-110.5 -231.5t-180 -142t-246 -48.5q-32 0 -76 5t-102 15l44 336q27 -7 52 -9.5t49 -2.5q58 0 93.5 27.5t56.5 71t30.5 98t14.5 109.5z" />
    <glyph glyph-name="Amacron" unicode="&#x100;" horiz-adv-x="1431" 
d="M436 1803h550v-242h-550v242zM400 1408h622l408 -1408h-482l-54 270h-364l-58 -270h-462zM846 522l-134 616l-138 -616h272z" />
    <glyph glyph-name="amacron" unicode="&#x101;" horiz-adv-x="1425" 
d="M447 1420h550v-242h-550v242zM890 190q-48 -100 -130 -153t-206 -53q-100 0 -191 40.5t-160 112t-110 169.5t-41 213q0 114 41.5 210t111 165.5t160 108t189.5 38.5q51 0 100.5 -13.5t94 -43t81 -74.5t60.5 -108v239h430v-1041h-430v190zM890 520q-2 40 -19 76
t-44.5 62.5t-63.5 42t-75 15.5q-44 0 -81.5 -16.5t-65 -44t-43.5 -64.5t-16 -79q0 -44 17 -81.5t45.5 -64.5t65.5 -42.5t78 -15.5q42 0 78 16t63 43t43 62.5t18 74.5v16z" />
    <glyph glyph-name="Abreve" unicode="&#x102;" horiz-adv-x="1431" 
d="M1062 1911q0 -80 -26 -144.5t-72.5 -110t-111 -70.5t-140.5 -25q-78 0 -143 25.5t-111.5 72t-72 111t-25.5 141.5h226q0 -55 35.5 -89.5t90.5 -34.5t86.5 33.5t31.5 90.5h232zM400 1408h622l408 -1408h-482l-54 270h-364l-58 -270h-462zM846 522l-134 616l-138 -616h272z
" />
    <glyph glyph-name="abreve" unicode="&#x103;" horiz-adv-x="1425" 
d="M1073 1528q0 -80 -26 -144.5t-72.5 -110t-111 -70.5t-140.5 -25q-78 0 -143 25.5t-111.5 72t-72 111t-25.5 141.5h226q0 -55 35.5 -89.5t90.5 -34.5t86.5 33.5t31.5 90.5h232zM890 190q-48 -100 -130 -153t-206 -53q-100 0 -191 40.5t-160 112t-110 169.5t-41 213
q0 114 41.5 210t111 165.5t160 108t189.5 38.5q51 0 100.5 -13.5t94 -43t81 -74.5t60.5 -108v239h430v-1041h-430v190zM890 520q-2 40 -19 76t-44.5 62.5t-63.5 42t-75 15.5q-44 0 -81.5 -16.5t-65 -44t-43.5 -64.5t-16 -79q0 -44 17 -81.5t45.5 -64.5t65.5 -42.5t78 -15.5
q42 0 78 16t63 43t43 62.5t18 74.5v16z" />
    <glyph glyph-name="Aogonek" unicode="&#x104;" horiz-adv-x="1431" 
d="M1005 -385q29 0 96 14l2 -76q-106 -44 -198 -44q-47 0 -88 11t-71 33t-47.5 55t-17.5 77q0 36 15.5 69t39.5 63t53 57t56 50l57 48q20 17 34 27t21 18h112q-32 -67 -64 -123t-64 -102l-20 -31q-6 -8 -12 -30t-6 -42q0 -74 102 -74zM400 1408h622l408 -1408h-482l-54 270
h-364l-58 -270h-462zM846 522l-134 616l-138 -616h272z" />
    <glyph glyph-name="aogonek" unicode="&#x105;" horiz-adv-x="1425" 
d="M1049 -415q29 0 96 14l2 -76q-106 -44 -198 -44q-47 0 -88 11t-71 33t-47.5 55t-17.5 77q0 36 15.5 69t39.5 63t53 57t56 50l57 48q20 17 34 27t21 18h112q-32 -67 -64 -123t-64 -102l-20 -31q-6 -8 -12 -30t-6 -42q0 -74 102 -74zM890 190q-48 -100 -130 -153t-206 -53
q-100 0 -191 40.5t-160 112t-110 169.5t-41 213q0 114 41.5 210t111 165.5t160 108t189.5 38.5q51 0 100.5 -13.5t94 -43t81 -74.5t60.5 -108v239h430v-1041h-430v190zM890 520q-2 40 -19 76t-44.5 62.5t-63.5 42t-75 15.5q-44 0 -81.5 -16.5t-65 -44t-43.5 -64.5t-16 -79
q0 -44 17 -81.5t45.5 -64.5t65.5 -42.5t78 -15.5q42 0 78 16t63 43t43 62.5t18 74.5v16z" />
    <glyph glyph-name="Cacute" unicode="&#x106;" horiz-adv-x="1237" 
d="M371 1781l600 420l208 -366l-682 -274zM875 338q35 0 65 3.5t59.5 10.5t60.5 18t69 26l56 -325q-178 -103 -388 -103q-297 0 -509 200q-222 208 -225 537q0 160 55 295t152 232.5t229 152t286 54.5q219 0 398 -102l-54 -318q-147 56 -266 56q-167 0 -253.5 -96.5
t-86.5 -271.5q0 -87 23.5 -155.5t68.5 -116t110.5 -72.5t149.5 -25z" />
    <glyph glyph-name="cacute" unicode="&#x107;" horiz-adv-x="966" 
d="M107 1398l600 420l208 -366l-682 -274zM882 686q-108 34 -200 34q-47 0 -84.5 -15t-64 -42t-41 -65.5t-14.5 -85.5t14.5 -85.5t41.5 -66.5t65.5 -43t86.5 -15q91 0 192 34l40 -286q-77 -40 -150.5 -53t-159.5 -13q-121 0 -223 38t-176 107t-115.5 166.5t-41.5 216.5
t45 216.5t121.5 167t177.5 107.5t212 38q49 0 88.5 -3.5t75.5 -13t72 -25.5t78 -41z" />
    <glyph glyph-name="Ccircumflex" unicode="&#x108;" horiz-adv-x="1237" 
d="M596 2071h378l252 -510h-340l-78 218l-24 78l-22 -78l-78 -218h-340zM875 338q35 0 65 3.5t59.5 10.5t60.5 18t69 26l56 -325q-178 -103 -388 -103q-297 0 -509 200q-222 208 -225 537q0 160 55 295t152 232.5t229 152t286 54.5q219 0 398 -102l-54 -318q-147 56 -266 56
q-167 0 -253.5 -96.5t-86.5 -271.5q0 -87 23.5 -155.5t68.5 -116t110.5 -72.5t149.5 -25z" />
    <glyph glyph-name="ccircumflex" unicode="&#x109;" horiz-adv-x="966" 
d="M419 1688h378l252 -510h-340l-78 218l-24 78l-22 -78l-78 -218h-340zM882 686q-108 34 -200 34q-47 0 -84.5 -15t-64 -42t-41 -65.5t-14.5 -85.5t14.5 -85.5t41.5 -66.5t65.5 -43t86.5 -15q91 0 192 34l40 -286q-77 -40 -150.5 -53t-159.5 -13q-121 0 -223 38t-176 107
t-115.5 166.5t-41.5 216.5t45 216.5t121.5 167t177.5 107.5t212 38q49 0 88.5 -3.5t75.5 -13t72 -25.5t78 -41z" />
    <glyph glyph-name="Cdotaccent" unicode="&#x10a;" horiz-adv-x="1237" 
d="M555 1769q0 45 19.5 83t51.5 65t73.5 42.5t85.5 15.5q46 0 88 -16.5t73.5 -45t50 -65.5t18.5 -79q0 -47 -19.5 -85t-51.5 -65.5t-73.5 -42.5t-85.5 -15q-48 0 -90 16t-73 44t-49 66t-18 82zM875 338q35 0 65 3.5t59.5 10.5t60.5 18t69 26l56 -325q-178 -103 -388 -103
q-297 0 -509 200q-222 208 -225 537q0 160 55 295t152 232.5t229 152t286 54.5q219 0 398 -102l-54 -318q-147 56 -266 56q-167 0 -253.5 -96.5t-86.5 -271.5q0 -87 23.5 -155.5t68.5 -116t110.5 -72.5t149.5 -25z" />
    <glyph glyph-name="cdotaccent" unicode="&#x10b;" horiz-adv-x="966" 
d="M378 1386q0 45 19.5 83t51.5 65t73.5 42.5t85.5 15.5q46 0 88 -16.5t73.5 -45t50 -65.5t18.5 -79q0 -47 -19.5 -85t-51.5 -65.5t-73.5 -42.5t-85.5 -15q-48 0 -90 16t-73 44t-49 66t-18 82zM882 686q-108 34 -200 34q-47 0 -84.5 -15t-64 -42t-41 -65.5t-14.5 -85.5
t14.5 -85.5t41.5 -66.5t65.5 -43t86.5 -15q91 0 192 34l40 -286q-77 -40 -150.5 -53t-159.5 -13q-121 0 -223 38t-176 107t-115.5 166.5t-41.5 216.5t45 216.5t121.5 167t177.5 107.5t212 38q49 0 88.5 -3.5t75.5 -13t72 -25.5t78 -41z" />
    <glyph glyph-name="Ccaron" unicode="&#x10c;" horiz-adv-x="1237" 
d="M344 2071h340l78 -218l22 -80q8 27 21.5 66.5t28.5 81.5t29 82t23 68h340l-252 -510h-378zM875 338q35 0 65 3.5t59.5 10.5t60.5 18t69 26l56 -325q-178 -103 -388 -103q-297 0 -509 200q-222 208 -225 537q0 160 55 295t152 232.5t229 152t286 54.5q219 0 398 -102
l-54 -318q-147 56 -266 56q-167 0 -253.5 -96.5t-86.5 -271.5q0 -87 23.5 -155.5t68.5 -116t110.5 -72.5t149.5 -25z" />
    <glyph glyph-name="ccaron" unicode="&#x10d;" horiz-adv-x="966" 
d="M167 1688h340l78 -218l22 -80q8 27 21.5 66.5t28.5 81.5t29 82t23 68h340l-252 -510h-378zM882 686q-108 34 -200 34q-47 0 -84.5 -15t-64 -42t-41 -65.5t-14.5 -85.5t14.5 -85.5t41.5 -66.5t65.5 -43t86.5 -15q91 0 192 34l40 -286q-77 -40 -150.5 -53t-159.5 -13
q-121 0 -223 38t-176 107t-115.5 166.5t-41.5 216.5t45 216.5t121.5 167t177.5 107.5t212 38q49 0 88.5 -3.5t75.5 -13t72 -25.5t78 -41z" />
    <glyph glyph-name="Dcaron" unicode="&#x10e;" horiz-adv-x="1565" 
d="M376 2071h340l78 -218l22 -80q8 27 21.5 66.5t28.5 81.5t29 82t23 68h340l-252 -510h-378zM134 1408h612q171 0 310 -51.5t237.5 -143.5t152.5 -219.5t54 -279.5q0 -160 -53.5 -291.5t-152.5 -225.5t-238 -145.5t-310 -51.5h-612v1408zM746 368q77 0 132.5 33t91.5 84
t53 113t17 120q0 70 -21.5 129t-60.5 102t-93 67t-119 24h-160v-672h160z" />
    <glyph glyph-name="dcaron" unicode="&#x10f;" horiz-adv-x="1428" 
d="M1504 926q69 0 107 1t56.5 11t22.5 31.5t4 62.5h-190v382h420l-4 -208q-2 -110 -8 -191.5t-21 -139.5t-42 -94.5t-72.5 -57.5t-112.5 -29t-160 -8v240zM553 1041q116 0 200 -48t136 -159v516l432 64v-1414h-432v190q-48 -103 -131 -154.5t-207 -51.5q-107 0 -198 43.5
t-157.5 116.5t-104.5 168.5t-38 199.5q0 112 40.5 209t109.5 168t159.5 111.5t190.5 40.5zM889 520q-2 40 -19 76t-44.5 62.5t-63.5 42t-75 15.5q-44 0 -81.5 -16.5t-64.5 -44.5t-42.5 -65t-15.5 -78q0 -44 16.5 -81t44.5 -64.5t65 -43t78 -15.5q43 0 80 17t64 45t42.5 65
t15.5 77v8z" />
    <glyph glyph-name="Dcroat" unicode="&#x110;" horiz-adv-x="1565" 
d="M78 766h56v610h612q167 0 305.5 -50.5t238.5 -140.5t155 -214.5t55 -272.5q0 -286 -190 -482q-209 -216 -564 -216h-612v592h-56v174zM746 368q68 0 122.5 26t92.5 71.5t58.5 106.5t20.5 130q0 67 -22.5 123t-61.5 96.5t-93 63.5t-117 23h-160v-242h132v-174h-132v-224
h160z" />
    <glyph glyph-name="dcroat" unicode="&#x111;" horiz-adv-x="1428" 
d="M553 1056q232 0 336 -222v272h-142v174h142v70l432 64v-134h66v-174h-66v-1106h-432v190q-48 -102 -132 -162t-206 -60q-190 0 -339 149q-159 159 -159 395q0 113 40.5 212t109.5 173t159.5 116.5t190.5 42.5zM889 520q-2 40 -19 76t-44.5 62.5t-63.5 42t-75 15.5
q-44 0 -81.5 -16.5t-64.5 -44.5t-42.5 -65t-15.5 -78q0 -44 16.5 -81t44.5 -64.5t65 -43t78 -15.5q43 0 80 17t64 45t42.5 65t15.5 77v8z" />
    <glyph glyph-name="Emacron" unicode="&#x112;" horiz-adv-x="1218" 
d="M353 1803h550v-242h-550v242zM134 1408h988v-310h-492v-256h450v-258h-450v-276h492v-308h-988v1408z" />
    <glyph glyph-name="emacron" unicode="&#x113;" horiz-adv-x="1138" 
d="M343 1420h550v-242h-550v242zM698 271q140 0 302 72l50 -275q-186 -84 -418 -84q-129 0 -235.5 39.5t-183 110t-119 167.5t-42.5 211q0 120 44.5 217.5t121.5 167t180 107t220 37.5q118 0 207 -39.5t148.5 -108t89 -160t29.5 -195.5q0 -14 -1 -27t-3 -25l-614 -80
q24 -72 80 -103.5t144 -31.5zM774 664q-35 128 -156 128q-38 0 -68 -15t-50.5 -41.5t-31.5 -63t-12 -78.5z" />
    <glyph glyph-name="Ebreve" unicode="&#x114;" horiz-adv-x="1218" 
d="M979 1911q0 -80 -26 -144.5t-72.5 -110t-111 -70.5t-140.5 -25q-78 0 -143 25.5t-111.5 72t-72 111t-25.5 141.5h226q0 -55 35.5 -89.5t90.5 -34.5t86.5 33.5t31.5 90.5h232zM134 1408h988v-310h-492v-256h450v-258h-450v-276h492v-308h-988v1408z" />
    <glyph glyph-name="ebreve" unicode="&#x115;" horiz-adv-x="1138" 
d="M969 1528q0 -80 -26 -144.5t-72.5 -110t-111 -70.5t-140.5 -25q-78 0 -143 25.5t-111.5 72t-72 111t-25.5 141.5h226q0 -55 35.5 -89.5t90.5 -34.5t86.5 33.5t31.5 90.5h232zM698 271q140 0 302 72l50 -275q-186 -84 -418 -84q-129 0 -235.5 39.5t-183 110t-119 167.5
t-42.5 211q0 120 44.5 217.5t121.5 167t180 107t220 37.5q118 0 207 -39.5t148.5 -108t89 -160t29.5 -195.5q0 -14 -1 -27t-3 -25l-614 -80q24 -72 80 -103.5t144 -31.5zM774 664q-35 128 -156 128q-38 0 -68 -15t-50.5 -41.5t-31.5 -63t-12 -78.5z" />
    <glyph glyph-name="Edotaccent" unicode="&#x116;" horiz-adv-x="1218" 
d="M398 1769q0 45 19.5 83t51.5 65t73.5 42.5t85.5 15.5q46 0 88 -16.5t73.5 -45t50 -65.5t18.5 -79q0 -47 -19.5 -85t-51.5 -65.5t-73.5 -42.5t-85.5 -15q-48 0 -90 16t-73 44t-49 66t-18 82zM134 1408h988v-310h-492v-256h450v-258h-450v-276h492v-308h-988v1408z" />
    <glyph glyph-name="edotaccent" unicode="&#x117;" horiz-adv-x="1138" 
d="M388 1386q0 45 19.5 83t51.5 65t73.5 42.5t85.5 15.5q46 0 88 -16.5t73.5 -45t50 -65.5t18.5 -79q0 -47 -19.5 -85t-51.5 -65.5t-73.5 -42.5t-85.5 -15q-48 0 -90 16t-73 44t-49 66t-18 82zM698 271q140 0 302 72l50 -275q-186 -84 -418 -84q-129 0 -235.5 39.5t-183 110
t-119 167.5t-42.5 211q0 120 44.5 217.5t121.5 167t180 107t220 37.5q118 0 207 -39.5t148.5 -108t89 -160t29.5 -195.5q0 -14 -1 -27t-3 -25l-614 -80q24 -72 80 -103.5t144 -31.5zM774 664q-35 128 -156 128q-38 0 -68 -15t-50.5 -41.5t-31.5 -63t-12 -78.5z" />
    <glyph glyph-name="Eogonek" unicode="&#x118;" horiz-adv-x="1218" 
d="M676 -385q29 0 96 14l2 -76q-106 -44 -198 -44q-47 0 -88 11t-71 33t-47.5 55t-17.5 77q0 36 15.5 69t39.5 63t53 57t56 50l57 48q20 17 34 27t21 18h112q-32 -67 -64 -123t-64 -102l-20 -31q-6 -8 -12 -30t-6 -42q0 -74 102 -74zM134 1408h988v-310h-492v-256h450v-258
h-450v-276h492v-308h-988v1408z" />
    <glyph glyph-name="eogonek" unicode="&#x119;" horiz-adv-x="1138" 
d="M624 -415q29 0 96 14l2 -76q-106 -44 -198 -44q-47 0 -88 11t-71 33t-47.5 55t-17.5 77q0 36 15.5 69t39.5 63t53 57t56 50l57 48q20 17 34 27t21 18h112q-32 -67 -64 -123t-64 -102l-20 -31q-6 -8 -12 -30t-6 -42q0 -74 102 -74zM698 271q140 0 302 72l50 -275
q-186 -84 -418 -84q-129 0 -235.5 39.5t-183 110t-119 167.5t-42.5 211q0 120 44.5 217.5t121.5 167t180 107t220 37.5q118 0 207 -39.5t148.5 -108t89 -160t29.5 -195.5q0 -14 -1 -27t-3 -25l-614 -80q24 -72 80 -103.5t144 -31.5zM774 664q-35 128 -156 128q-38 0 -68 -15
t-50.5 -41.5t-31.5 -63t-12 -78.5z" />
    <glyph glyph-name="Ecaron" unicode="&#x11a;" horiz-adv-x="1218" 
d="M187 2071h340l78 -218l22 -80q8 27 21.5 66.5t28.5 81.5t29 82t23 68h340l-252 -510h-378zM134 1408h988v-310h-492v-256h450v-258h-450v-276h492v-308h-988v1408z" />
    <glyph glyph-name="ecaron" unicode="&#x11b;" horiz-adv-x="1138" 
d="M177 1688h340l78 -218l22 -80q8 27 21.5 66.5t28.5 81.5t29 82t23 68h340l-252 -510h-378zM698 271q140 0 302 72l50 -275q-186 -84 -418 -84q-129 0 -235.5 39.5t-183 110t-119 167.5t-42.5 211q0 120 44.5 217.5t121.5 167t180 107t220 37.5q118 0 207 -39.5
t148.5 -108t89 -160t29.5 -195.5q0 -14 -1 -27t-3 -25l-614 -80q24 -72 80 -103.5t144 -31.5zM774 664q-35 128 -156 128q-38 0 -68 -15t-50.5 -41.5t-31.5 -63t-12 -78.5z" />
    <glyph glyph-name="Gcircumflex" unicode="&#x11c;" horiz-adv-x="1349" 
d="M578 2072h378l252 -510h-340l-78 218l-24 78l-22 -78l-78 -218h-340zM1105 1020q-178 58 -280 58q-75 0 -132.5 -31t-96.5 -82t-59 -117.5t-20 -136.5q0 -78 22.5 -146.5t63 -119t97.5 -80t125 -29.5q37 0 82 6v332l354 40v-640q-239 -106 -492 -106q-294 0 -501 218
q-207 219 -207 530q0 303 211 514q208 210 495 210q262 0 474 -102z" />
    <glyph glyph-name="gcircumflex" unicode="&#x11d;" horiz-adv-x="1423" 
d="M527 1688h378l252 -510h-340l-78 218l-24 78l-22 -78l-78 -218h-340zM917 170q-119 -170 -368 -170q-99 0 -189 39t-158 108.5t-108 164.5t-40 207q0 117 41.5 213t110 165t157.5 106.5t184 37.5q63 0 118.5 -17t99.5 -48.5t75.5 -75.5t46.5 -98v239h432v-781
q0 -168 -37.5 -303.5t-115.5 -230t-198 -145.5t-285 -51q-48 0 -102 5t-114 15l32 306q100 -12 140 -12q77 0 126 25t79 68.5t46 103t27 129.5zM887 520q-2 40 -19.5 75.5t-45.5 62.5t-64 42.5t-75 15.5q-44 0 -81.5 -16.5t-64.5 -44.5t-42.5 -65t-15.5 -78q0 -49 18.5 -87
t48 -64t66 -39.5t71.5 -13.5q41 0 77.5 16t64 43t44 62.5t18.5 74.5v16z" />
    <glyph glyph-name="Gbreve" unicode="&#x11e;" horiz-adv-x="1349" 
d="M1118 1912q0 -80 -26 -144.5t-72.5 -110t-111 -70.5t-140.5 -25q-78 0 -143 25.5t-111.5 72t-72 111t-25.5 141.5h226q0 -55 35.5 -89.5t90.5 -34.5t86.5 33.5t31.5 90.5h232zM1105 1020q-178 58 -280 58q-75 0 -132.5 -31t-96.5 -82t-59 -117.5t-20 -136.5
q0 -78 22.5 -146.5t63 -119t97.5 -80t125 -29.5q37 0 82 6v332l354 40v-640q-239 -106 -492 -106q-294 0 -501 218q-207 219 -207 530q0 303 211 514q208 210 495 210q262 0 474 -102z" />
    <glyph glyph-name="gbreve" unicode="&#x11f;" horiz-adv-x="1423" 
d="M1067 1528q0 -80 -26 -144.5t-72.5 -110t-111 -70.5t-140.5 -25q-78 0 -143 25.5t-111.5 72t-72 111t-25.5 141.5h226q0 -55 35.5 -89.5t90.5 -34.5t86.5 33.5t31.5 90.5h232zM917 170q-119 -170 -368 -170q-99 0 -189 39t-158 108.5t-108 164.5t-40 207q0 117 41.5 213
t110 165t157.5 106.5t184 37.5q63 0 118.5 -17t99.5 -48.5t75.5 -75.5t46.5 -98v239h432v-781q0 -168 -37.5 -303.5t-115.5 -230t-198 -145.5t-285 -51q-48 0 -102 5t-114 15l32 306q100 -12 140 -12q77 0 126 25t79 68.5t46 103t27 129.5zM887 520q-2 40 -19.5 75.5
t-45.5 62.5t-64 42.5t-75 15.5q-44 0 -81.5 -16.5t-64.5 -44.5t-42.5 -65t-15.5 -78q0 -49 18.5 -87t48 -64t66 -39.5t71.5 -13.5q41 0 77.5 16t64 43t44 62.5t18.5 74.5v16z" />
    <glyph glyph-name="Gdotaccent" unicode="&#x120;" horiz-adv-x="1349" 
d="M537 1770q0 45 19.5 83t51.5 65t73.5 42.5t85.5 15.5q46 0 88 -16.5t73.5 -45t50 -65.5t18.5 -79q0 -47 -19.5 -85t-51.5 -65.5t-73.5 -42.5t-85.5 -15q-48 0 -90 16t-73 44t-49 66t-18 82zM1105 1020q-178 58 -280 58q-75 0 -132.5 -31t-96.5 -82t-59 -117.5t-20 -136.5
q0 -78 22.5 -146.5t63 -119t97.5 -80t125 -29.5q37 0 82 6v332l354 40v-640q-239 -106 -492 -106q-294 0 -501 218q-207 219 -207 530q0 303 211 514q208 210 495 210q262 0 474 -102z" />
    <glyph glyph-name="gdotaccent" unicode="&#x121;" horiz-adv-x="1423" 
d="M486 1386q0 45 19.5 83t51.5 65t73.5 42.5t85.5 15.5q46 0 88 -16.5t73.5 -45t50 -65.5t18.5 -79q0 -47 -19.5 -85t-51.5 -65.5t-73.5 -42.5t-85.5 -15q-48 0 -90 16t-73 44t-49 66t-18 82zM917 170q-119 -170 -368 -170q-99 0 -189 39t-158 108.5t-108 164.5t-40 207
q0 117 41.5 213t110 165t157.5 106.5t184 37.5q63 0 118.5 -17t99.5 -48.5t75.5 -75.5t46.5 -98v239h432v-781q0 -168 -37.5 -303.5t-115.5 -230t-198 -145.5t-285 -51q-48 0 -102 5t-114 15l32 306q100 -12 140 -12q77 0 126 25t79 68.5t46 103t27 129.5zM887 520
q-2 40 -19.5 75.5t-45.5 62.5t-64 42.5t-75 15.5q-44 0 -81.5 -16.5t-64.5 -44.5t-42.5 -65t-15.5 -78q0 -49 18.5 -87t48 -64t66 -39.5t71.5 -13.5q41 0 77.5 16t64 43t44 62.5t18.5 74.5v16z" />
    <glyph glyph-name="Gcommaaccent" unicode="&#x122;" horiz-adv-x="1349" 
d="M559 -640q69 0 107 1t56.5 11t22.5 31.5t4 62.5h-190v382h420l-4 -208q-2 -110 -8 -191.5t-21 -139.5t-42 -94.5t-72.5 -57.5t-112.5 -29t-160 -8v240zM1105 1020q-178 58 -280 58q-75 0 -132.5 -31t-96.5 -82t-59 -117.5t-20 -136.5q0 -78 22.5 -146.5t63 -119t97.5 -80
t125 -29.5q37 0 82 6v332l354 40v-640q-239 -106 -492 -106q-294 0 -501 218q-207 219 -207 530q0 303 211 514q208 210 495 210q262 0 474 -102z" />
    <glyph glyph-name="gcommaaccent" unicode="&#x123;" horiz-adv-x="1423" 
d="M917 170q-119 -170 -368 -170q-99 0 -189 39t-158 108.5t-108 164.5t-40 207q0 117 41.5 213t110 165t157.5 106.5t184 37.5q63 0 118.5 -17t99.5 -48.5t75.5 -75.5t46.5 -98v239h432v-781q0 -168 -37.5 -303.5t-115.5 -230t-198 -145.5t-285 -51q-48 0 -102 5t-114 15
l32 306q100 -12 140 -12q77 0 126 25t79 68.5t46 103t27 129.5zM887 520q-2 40 -19.5 75.5t-45.5 62.5t-64 42.5t-75 15.5q-44 0 -81.5 -16.5t-64.5 -44.5t-42.5 -65t-15.5 -78q0 -49 18.5 -87t48 -64t66 -39.5t71.5 -13.5q41 0 77.5 16t64 43t44 62.5t18.5 74.5v16z
M650 1340q69 0 107 1t56.5 11t22.5 31.5t4 62.5h-190v382h420l-4 -208q-2 -110 -8 -191.5t-21 -139.5t-42 -94.5t-72.5 -57.5t-112.5 -29t-160 -8v240z" />
    <glyph glyph-name="Hcircumflex" unicode="&#x124;" horiz-adv-x="1626" 
d="M624 2071h378l252 -510h-340l-78 218l-24 78l-22 -78l-78 -218h-340zM134 1408h460v-560h436v560h462v-1408h-462v552h-436v-552h-460v1408z" />
    <glyph glyph-name="hcircumflex" unicode="&#x125;" horiz-adv-x="1413" 
d="M523 2046h378l252 -510h-340l-78 218l-24 78l-22 -78l-78 -218h-340zM107 1350l432 64v-616q52 127 137.5 185t200.5 58q93 0 173 -37.5t139.5 -106t93.5 -164.5t34 -213v-520h-430v512q0 39 -11 76t-30 65.5t-45.5 45.5t-57.5 17q-44 0 -81.5 -17.5t-64.5 -47.5
t-42.5 -69.5t-15.5 -83.5v-498h-432v1350z" />
    <glyph glyph-name="Hbar" unicode="&#x126;" horiz-adv-x="1647" 
d="M86 1152h58v224h460v-224h436v224h462v-224h60v-174h-60v-978h-462v552h-436v-552h-460v978h-58v174zM1040 848v130h-436v-130h436z" />
    <glyph glyph-name="hbar" unicode="&#x127;" horiz-adv-x="1413" 
d="M-15 1280h122v70l432 64v-134h214v-174h-214v-308q52 126 137.5 192t200.5 66q93 0 173 -40t139.5 -111.5t93.5 -169.5t34 -215v-520h-430v512q0 39 -11 76t-30 65.5t-45.5 45.5t-57.5 17q-44 0 -81.5 -17.5t-64.5 -47.5t-42.5 -69.5t-15.5 -83.5v-498h-432v1106h-122
v174z" />
    <glyph glyph-name="Itilde" unicode="&#x128;" horiz-adv-x="740" 
d="M226 1675q-23 0 -40 -9.5t-30 -25t-22 -35t-16 -38.5l-242 98q31 85 70 151t84.5 111.5t95.5 69.5t102 24q31 0 62.5 -10.5t48.5 -18.5l47 -28q2 -2 7 -5t12 -8l43 -25q18 -9 36.5 -14t41.5 -5q70 0 102 92l240 -98q-62 -177 -145.5 -258.5t-188.5 -81.5q-39 0 -69.5 8.5
t-56.5 21t-48 27.5t-43.5 27.5t-43.5 21t-47 8.5zM134 1408h472v-1408h-472v1408z" />
    <glyph glyph-name="itilde" unicode="&#x129;" horiz-adv-x="748" 
d="M172 1292q-23 0 -40 -9.5t-30 -25t-22 -35t-16 -38.5l-242 98q31 85 70 151t84.5 111.5t95.5 69.5t102 24q31 0 62.5 -10.5t48.5 -18.5l47 -28q2 -2 7 -5t12 -8l43 -25q18 -9 36.5 -14t41.5 -5q70 0 102 92l240 -98q-62 -177 -145.5 -258.5t-188.5 -81.5q-39 0 -69.5 8.5
t-56.5 21t-48 27.5t-43.5 27.5t-43.5 21t-47 8.5zM731 38q-121 -70 -268 -70q-87 0 -155 29t-114.5 82.5t-70.5 129.5t-24 169v648h434v-628q0 -49 26 -73.5t66 -24.5t84 24z" />
    <glyph glyph-name="Imacron" unicode="&#x12a;" horiz-adv-x="740" 
d="M95 1803h550v-242h-550v242zM134 1408h472v-1408h-472v1408z" />
    <glyph glyph-name="imacron" unicode="&#x12b;" horiz-adv-x="748" 
d="M43 1420h550v-242h-550v242zM731 38q-121 -70 -268 -70q-87 0 -155 29t-114.5 82.5t-70.5 129.5t-24 169v648h434v-628q0 -49 26 -73.5t66 -24.5t84 24z" />
    <glyph glyph-name="Ibreve" unicode="&#x12c;" horiz-adv-x="740" 
d="M723 1911q0 -80 -26 -144.5t-72.5 -110t-111 -70.5t-140.5 -25q-78 0 -143 25.5t-111.5 72t-72 111t-25.5 141.5h226q0 -55 35.5 -89.5t90.5 -34.5t86.5 33.5t31.5 90.5h232zM134 1408h472v-1408h-472v1408z" />
    <glyph glyph-name="ibreve" unicode="&#x12d;" horiz-adv-x="748" 
d="M669 1528q0 -80 -26 -144.5t-72.5 -110t-111 -70.5t-140.5 -25q-78 0 -143 25.5t-111.5 72t-72 111t-25.5 141.5h226q0 -55 35.5 -89.5t90.5 -34.5t86.5 33.5t31.5 90.5h232zM731 38q-121 -70 -268 -70q-87 0 -155 29t-114.5 82.5t-70.5 129.5t-24 169v648h434v-628
q0 -49 26 -73.5t66 -24.5t84 24z" />
    <glyph glyph-name="Iogonek" unicode="&#x12e;" horiz-adv-x="740" 
d="M364 -385q29 0 96 14l2 -76q-106 -44 -198 -44q-47 0 -88 11t-71 33t-47.5 55t-17.5 77q0 36 15.5 69t39.5 63t53 57t56 50l57 48q20 17 34 27t21 18h112q-32 -67 -64 -123t-64 -102l-20 -31q-6 -8 -12 -30t-6 -42q0 -74 102 -74zM134 1408h472v-1408h-472v1408z" />
    <glyph glyph-name="iogonek" unicode="&#x12f;" horiz-adv-x="748" 
d="M455 -415q29 0 96 14l2 -76q-106 -44 -198 -44q-47 0 -88 11t-71 33t-47.5 55t-17.5 77q0 36 15.5 69t39.5 63t53 57t56 50l57 48q20 17 34 27t21 18h112q-32 -67 -64 -123t-64 -102l-20 -31q-6 -8 -12 -30t-6 -42q0 -74 102 -74zM91 1366q0 45 19.5 83t51.5 65.5
t74 42.5t87 15q52 0 94.5 -18.5t72.5 -48t46.5 -66t16.5 -73.5q0 -46 -19 -84t-51 -65.5t-73.5 -43t-86.5 -15.5q-49 0 -91.5 16t-73.5 44.5t-49 66t-18 81.5zM731 54q-121 -70 -268 -70q-87 0 -155 29t-114.5 82.5t-70.5 129.5t-24 169v632h434v-612q0 -49 26 -73.5
t66 -24.5t84 24z" />
    <glyph glyph-name="Idotaccent" unicode="&#x130;" horiz-adv-x="740" 
d="M140 1769q0 45 19.5 83t51.5 65t73.5 42.5t85.5 15.5q46 0 88 -16.5t73.5 -45t50 -65.5t18.5 -79q0 -47 -19.5 -85t-51.5 -65.5t-73.5 -42.5t-85.5 -15q-48 0 -90 16t-73 44t-49 66t-18 82zM134 1408h472v-1408h-472v1408z" />
    <glyph glyph-name="dotlessi" unicode="&#x131;" horiz-adv-x="748" 
d="M731 38q-121 -70 -268 -70q-87 0 -155 29t-114.5 82.5t-70.5 129.5t-24 169v648h434v-628q0 -49 26 -73.5t66 -24.5t84 24z" />
    <glyph glyph-name="IJ" unicode="&#x132;" horiz-adv-x="1762" 
d="M134 1408h472v-1408h-472v1408zM1062 242q136 0 136 170v996h440v-996q0 -118 -32 -211.5t-91.5 -158.5t-145 -99.5t-191.5 -34.5q-190 0 -352 108l96 254q81 -28 140 -28z" />
    <glyph glyph-name="ij" unicode="&#x133;" horiz-adv-x="646" 
d="M-29 -110q136 0 136 170v966h432v-966q0 -117 -31.5 -210t-90 -158t-142.5 -99.5t-190 -34.5q-188 0 -350 108l94 254q94 -30 142 -30zM85 1366q0 44 19.5 82t51.5 65.5t73.5 43t85.5 15.5q52 0 95 -18t73.5 -47.5t47 -66.5t16.5 -74q0 -46 -19 -84t-50.5 -65.5t-74 -43
t-88.5 -15.5q-49 0 -91 16.5t-73 45t-48.5 66.5t-17.5 80z" />
    <glyph glyph-name="Jcircumflex" unicode="&#x134;" horiz-adv-x="934" 
d="M401 2071h378l252 -510h-340l-78 218l-24 78l-22 -78l-78 -218h-340zM234 242q136 0 136 170v996h440v-996q0 -118 -32 -211.5t-91.5 -158.5t-145 -99.5t-191.5 -34.5q-190 0 -352 108l96 254q81 -28 140 -28z" />
    <glyph glyph-name="jcircumflex" unicode="&#x135;" horiz-adv-x="646" 
d="M136 1688h378l252 -510h-340l-78 218l-24 78l-22 -78l-78 -218h-340zM-29 -110q136 0 136 170v966h432v-966q0 -117 -31.5 -210t-90 -158t-142.5 -99.5t-190 -34.5q-188 0 -350 108l94 254q94 -30 142 -30z" />
    <glyph glyph-name="Kcommaaccent" unicode="&#x136;" horiz-adv-x="1570" 
d="M631 -608q69 0 107 1t56.5 11t22.5 31.5t4 62.5h-190v382h420l-4 -208q-2 -110 -8 -191.5t-21 -139.5t-42 -94.5t-72.5 -57.5t-112.5 -29t-160 -8v240zM134 1408h474v-574h148l272 574h474v-92l-324 -606l370 -618v-92h-498l-302 560h-140v-560h-474v1408z" />
    <glyph glyph-name="kcommaaccent" unicode="&#x137;" horiz-adv-x="1314" 
d="M462 -638q69 0 107 1t56.5 11t22.5 31.5t4 62.5h-190v382h420l-4 -208q-2 -110 -8 -191.5t-21 -139.5t-42 -94.5t-72.5 -57.5t-112.5 -29t-160 -8v240zM973 592q22 -130 44 -175q46 -103 162 -103q29 0 88 12l-40 -336q-63 -6 -114 -6q-110 0 -183.5 22.5t-124 70.5
t-83.5 122.5t-61 178.5l-120 -96v-282h-434v1350l434 64v-702l526 430l236 -320z" />
    <glyph glyph-name="kgreenlandic" unicode="&#x138;" horiz-adv-x="1309" 
d="M1169 314q26 0 88 12l-32 -350q-60 -6 -112 -6q-108 0 -182 23.5t-125 71.5t-85 121t-62 172l-120 -96v-262h-432v1024h432v-332l386 332h220l148 -176l-342 -276l12 -59l15 -52q9 -30 23 -57t36.5 -47t54.5 -31.5t77 -11.5z" />
    <glyph glyph-name="Lacute" unicode="&#x139;" horiz-adv-x="1102" 
d="M145 1781l600 420l208 -366l-682 -274zM134 1408h442v-1106h488v-302h-930v1408z" />
    <glyph glyph-name="lacute" unicode="&#x13a;" horiz-adv-x="774" 
d="M102 1756l600 420l208 -366l-682 -274zM771 54q-139 -70 -308 -70q-87 0 -155 28.5t-114.5 82t-70.5 129t-24 170.5v956l432 64v-990q0 -55 35 -81.5t95 -26.5q46 0 94 24z" />
    <glyph glyph-name="Lcommaaccent" unicode="&#x13b;" horiz-adv-x="1102" 
d="M389 -608q69 0 107 1t56.5 11t22.5 31.5t4 62.5h-190v382h420l-4 -208q-2 -110 -8 -191.5t-21 -139.5t-42 -94.5t-72.5 -57.5t-112.5 -29t-160 -8v240zM134 1408h442v-1106h488v-302h-930v1408z" />
    <glyph glyph-name="lcommaaccent" unicode="&#x13c;" horiz-adv-x="774" 
d="M253 -640q69 0 107 1t56.5 11t22.5 31.5t4 62.5h-190v382h420l-4 -208q-2 -110 -8 -191.5t-21 -139.5t-42 -94.5t-72.5 -57.5t-112.5 -29t-160 -8v240zM771 54q-139 -70 -308 -70q-87 0 -155 28.5t-114.5 82t-70.5 129t-24 170.5v956l432 64v-990q0 -55 35 -81.5
t95 -26.5q46 0 94 24z" />
    <glyph glyph-name="Lcaron" unicode="&#x13d;" horiz-adv-x="1102" 
d="M1247 951q69 0 107 1t56.5 11t22.5 31.5t4 62.5h-190v382h420l-4 -208q-2 -110 -8 -191.5t-21 -139.5t-42 -94.5t-72.5 -57.5t-112.5 -29t-160 -8v240zM134 1408h442v-1106h488v-302h-930v1408z" />
    <glyph glyph-name="lcaron" unicode="&#x13e;" horiz-adv-x="774" 
d="M714 926q69 0 107 1t56.5 11t22.5 31.5t4 62.5h-190v382h420l-4 -208q-2 -110 -8 -191.5t-21 -139.5t-42 -94.5t-72.5 -57.5t-112.5 -29t-160 -8v240zM771 54q-139 -70 -308 -70q-87 0 -155 28.5t-114.5 82t-70.5 129t-24 170.5v956l432 64v-990q0 -55 35 -81.5t95 -26.5
q46 0 94 24z" />
    <glyph glyph-name="Ldot" unicode="&#x13f;" horiz-adv-x="1102" 
d="M603 720q0 44 19 82t51 66t73.5 44t86.5 16q48 0 89.5 -17t73 -46t49.5 -66.5t18 -78.5q0 -46 -19.5 -84t-51.5 -65t-73.5 -42t-85.5 -15q-48 0 -89.5 16t-73 43.5t-49.5 65t-18 81.5zM134 1408h442v-1106h488v-302h-930v1408z" />
    <glyph glyph-name="ldot" unicode="&#x140;" horiz-adv-x="1404" 
d="M860 820q0 44 19 82t51 66t73.5 44t86.5 16q48 0 89.5 -17t73 -46t49.5 -66.5t18 -78.5q0 -46 -19.5 -84t-51.5 -65t-73.5 -42t-85.5 -15q-48 0 -89.5 16t-73 43.5t-49.5 65t-18 81.5zM771 54q-139 -70 -308 -70q-87 0 -155 28.5t-114.5 82t-70.5 129t-24 170.5v956
l432 64v-990q0 -55 35 -81.5t95 -26.5q46 0 94 24z" />
    <glyph glyph-name="Lslash" unicode="&#x141;" horiz-adv-x="1156" 
d="M6 788l184 47v573h440v-461l306 79v-174l-306 -79v-471h490v-302h-930v661l-184 -47v174z" />
    <glyph glyph-name="lslash" unicode="&#x142;" horiz-adv-x="863" 
d="M828 38q-133 -70 -278 -70q-87 0 -154 29t-113.5 82.5t-70.5 129.5t-24 169v288l-172 -52v174l172 52v510l432 64v-442l176 54v-174l-176 -54v-390q0 -108 98 -108q43 0 88 24z" />
    <glyph glyph-name="Nacute" unicode="&#x143;" horiz-adv-x="1606" 
d="M441 1781l600 420l208 -366l-682 -274zM134 1408h410l562 -758v758h366v-1408h-410l-564 734v-734h-364v1408z" />
    <glyph glyph-name="nacute" unicode="&#x144;" horiz-adv-x="1407" 
d="M580 1398l600 420l208 -366l-682 -274zM102 1011h412v-209q60 121 154.5 180t221.5 59q102 0 180 -38t131.5 -107.5t81 -167t27.5 -216.5v-512h-430v554q0 40 -7.5 74t-24 58.5t-41.5 38t-61 13.5q-44 0 -81 -21.5t-64.5 -52.5t-44.5 -64.5t-22 -57.5v-542h-432v1011z
" />
    <glyph glyph-name="Ncommaaccent" unicode="&#x145;" horiz-adv-x="1606" 
d="M593 -608q69 0 107 1t56.5 11t22.5 31.5t4 62.5h-190v382h420l-4 -208q-2 -110 -8 -191.5t-21 -139.5t-42 -94.5t-72.5 -57.5t-112.5 -29t-160 -8v240zM134 1408h410l562 -758v758h366v-1408h-410l-564 734v-734h-364v1408z" />
    <glyph glyph-name="ncommaaccent" unicode="&#x146;" horiz-adv-x="1407" 
d="M496 -608q69 0 107 1t56.5 11t22.5 31.5t4 62.5h-190v382h420l-4 -208q-2 -110 -8 -191.5t-21 -139.5t-42 -94.5t-72.5 -57.5t-112.5 -29t-160 -8v240zM102 1011h412v-209q60 121 154.5 180t221.5 59q102 0 180 -38t131.5 -107.5t81 -167t27.5 -216.5v-512h-430v554
q0 40 -7.5 74t-24 58.5t-41.5 38t-61 13.5q-44 0 -81 -21.5t-64.5 -52.5t-44.5 -64.5t-22 -57.5v-542h-432v1011z" />
    <glyph glyph-name="Ncaron" unicode="&#x147;" horiz-adv-x="1606" 
d="M362 2071h340l78 -218l22 -80q8 27 21.5 66.5t28.5 81.5t29 82t23 68h340l-252 -510h-378zM134 1408h410l562 -758v758h366v-1408h-410l-564 734v-734h-364v1408z" />
    <glyph glyph-name="ncaron" unicode="&#x148;" horiz-adv-x="1407" 
d="M265 1688h340l78 -218l22 -80q8 27 21.5 66.5t28.5 81.5t29 82t23 68h340l-252 -510h-378zM102 1011h412v-209q60 121 154.5 180t221.5 59q102 0 180 -38t131.5 -107.5t81 -167t27.5 -216.5v-512h-430v554q0 40 -7.5 74t-24 58.5t-41.5 38t-61 13.5q-44 0 -81 -21.5
t-64.5 -52.5t-44.5 -64.5t-22 -57.5v-542h-432v1011z" />
    <glyph glyph-name="napostrophe" unicode="&#x149;" horiz-adv-x="1406" 
d="M102 1011h412v-209q60 121 154.5 180t221.5 59q102 0 180 -38t131.5 -107.5t81 -167t27.5 -216.5v-512h-430v554q0 40 -7.5 74t-24 58.5t-41.5 38t-61 13.5q-44 0 -81 -21.5t-64.5 -52.5t-44.5 -64.5t-22 -57.5v-542h-432v1011zM102 1356q69 0 107 1t56.5 11t22.5 31.5
t4 62.5h-190v382h420l-4 -208q-2 -110 -8 -191.5t-21 -139.5t-42 -94.5t-72.5 -57.5t-112.5 -29t-160 -8v240z" />
    <glyph glyph-name="Eng" unicode="&#x14a;" horiz-adv-x="1606" 
d="M832 -172q94 -30 142 -30q134 0 134 170l-610 766v-734h-364v1376h410l562 -726v726h366v-1408q0 -105 -26 -192.5t-75.5 -150.5t-121 -98t-161.5 -35q-152 0 -350 82z" />
    <glyph glyph-name="eng" unicode="&#x14b;" horiz-adv-x="1406" 
d="M742 -170q138 0 138 170v512q0 39 -11 76t-30 65.5t-45.5 45.5t-57.5 17q-42 0 -78.5 -16t-63.5 -43t-43 -62.5t-17 -74.5v-520h-432v990l432 66v-254q54 120 144.5 187t211.5 67q90 0 167 -42t133.5 -115.5t88 -172.5t31.5 -214v-512q0 -117 -30.5 -210.5t-89 -158.5
t-142.5 -100t-190 -35q-188 0 -350 108l94 254q81 -28 140 -28z" />
    <glyph glyph-name="Omacron" unicode="&#x14c;" 
d="M543 1803h550v-242h-550v242zM64 702q0 305 194 514q207 223 560 223q172 0 311 -55.5t237 -153.5t151 -233.5t53 -294.5q0 -96 -22 -188t-65.5 -173.5t-107.5 -150t-147.5 -118t-186 -77t-223.5 -27.5q-124 0 -227.5 28t-187.5 78t-147.5 119t-106 150.5t-64 172.5
t-21.5 186zM818 340q79 0 134.5 33.5t91 86t52 117.5t16.5 127q0 81 -20.5 148.5t-59 117t-93 78.5t-121.5 32q-80 -2 -136 -36t-91.5 -87.5t-52 -120t-16.5 -132.5q0 -78 20.5 -144.5t59 -115t93.5 -76.5t123 -28z" />
    <glyph glyph-name="omacron" unicode="&#x14d;" horiz-adv-x="1284" 
d="M369 1420h550v-242h-550v242zM452 514q0 -56 16.5 -98t43.5 -70t62 -42t71 -14t70.5 14t62 42t44 70t16.5 98t-16.5 98t-44 69.5t-62 41.5t-70.5 14t-71 -14t-62 -41.5t-43.5 -69.5t-16.5 -98zM52 514q5 129 53.5 227t128.5 165t185.5 101t224.5 34q130 0 238 -39
t186 -108.5t121 -166.5t43 -213q0 -94 -24.5 -170t-66.5 -134.5t-99 -101.5t-123 -70.5t-136.5 -40.5t-140.5 -13q-132 0 -240.5 38.5t-186.5 108.5t-120.5 167.5t-42.5 215.5z" />
    <glyph glyph-name="Obreve" unicode="&#x14e;" 
d="M1169 1911q0 -80 -26 -144.5t-72.5 -110t-111 -70.5t-140.5 -25q-78 0 -143 25.5t-111.5 72t-72 111t-25.5 141.5h226q0 -55 35.5 -89.5t90.5 -34.5t86.5 33.5t31.5 90.5h232zM64 702q0 305 194 514q207 223 560 223q172 0 311 -55.5t237 -153.5t151 -233.5t53 -294.5
q0 -96 -22 -188t-65.5 -173.5t-107.5 -150t-147.5 -118t-186 -77t-223.5 -27.5q-124 0 -227.5 28t-187.5 78t-147.5 119t-106 150.5t-64 172.5t-21.5 186zM818 340q79 0 134.5 33.5t91 86t52 117.5t16.5 127q0 81 -20.5 148.5t-59 117t-93 78.5t-121.5 32q-80 -2 -136 -36
t-91.5 -87.5t-52 -120t-16.5 -132.5q0 -78 20.5 -144.5t59 -115t93.5 -76.5t123 -28z" />
    <glyph glyph-name="obreve" unicode="&#x14f;" horiz-adv-x="1284" 
d="M995 1528q0 -80 -26 -144.5t-72.5 -110t-111 -70.5t-140.5 -25q-78 0 -143 25.5t-111.5 72t-72 111t-25.5 141.5h226q0 -55 35.5 -89.5t90.5 -34.5t86.5 33.5t31.5 90.5h232zM452 514q0 -56 16.5 -98t43.5 -70t62 -42t71 -14t70.5 14t62 42t44 70t16.5 98t-16.5 98
t-44 69.5t-62 41.5t-70.5 14t-71 -14t-62 -41.5t-43.5 -69.5t-16.5 -98zM52 514q5 129 53.5 227t128.5 165t185.5 101t224.5 34q130 0 238 -39t186 -108.5t121 -166.5t43 -213q0 -94 -24.5 -170t-66.5 -134.5t-99 -101.5t-123 -70.5t-136.5 -40.5t-140.5 -13
q-132 0 -240.5 38.5t-186.5 108.5t-120.5 167.5t-42.5 215.5z" />
    <glyph glyph-name="Ohungarumlaut" unicode="&#x150;" 
d="M488 2351l400 -118l-300 -670l-244 70zM1090 2355l374 -188l-416 -606l-226 112zM64 702q0 305 194 514q207 223 560 223q172 0 311 -55.5t237 -153.5t151 -233.5t53 -294.5q0 -96 -22 -188t-65.5 -173.5t-107.5 -150t-147.5 -118t-186 -77t-223.5 -27.5
q-124 0 -227.5 28t-187.5 78t-147.5 119t-106 150.5t-64 172.5t-21.5 186zM818 340q79 0 134.5 33.5t91 86t52 117.5t16.5 127q0 81 -20.5 148.5t-59 117t-93 78.5t-121.5 32q-80 -2 -136 -36t-91.5 -87.5t-52 -120t-16.5 -132.5q0 -78 20.5 -144.5t59 -115t93.5 -76.5
t123 -28z" />
    <glyph glyph-name="ohungarumlaut" unicode="&#x151;" horiz-adv-x="1284" 
d="M314 1970l400 -118l-300 -670l-244 70zM916 1974l374 -188l-416 -606l-226 112zM452 514q0 -56 16.5 -98t43.5 -70t62 -42t71 -14t70.5 14t62 42t44 70t16.5 98t-16.5 98t-44 69.5t-62 41.5t-70.5 14t-71 -14t-62 -41.5t-43.5 -69.5t-16.5 -98zM52 514q5 129 53.5 227
t128.5 165t185.5 101t224.5 34q130 0 238 -39t186 -108.5t121 -166.5t43 -213q0 -94 -24.5 -170t-66.5 -134.5t-99 -101.5t-123 -70.5t-136.5 -40.5t-140.5 -13q-132 0 -240.5 38.5t-186.5 108.5t-120.5 167.5t-42.5 215.5z" />
    <glyph glyph-name="OE" unicode="&#x152;" horiz-adv-x="2098" 
d="M712 1414q44 0 83 -6.5t76 -19t73.5 -31.5t75.5 -43v62h980v-310h-492v-224h450v-258h-450v-276h492v-308h-986v60q-176 -92 -318 -92q-291 0 -470 233q-162 211 -162 491q0 84 20.5 170.5t59.5 167t95.5 150.5t128.5 122t158.5 82t185.5 30zM748 338q150 0 266 30v650
q-145 32 -266 32q-50 0 -91.5 -26t-71.5 -72.5t-46.5 -112.5t-16.5 -145q0 -72 13.5 -136.5t41.5 -113t70.5 -77.5t100.5 -29z" />
    <glyph glyph-name="oe" unicode="&#x153;" horiz-adv-x="1894" 
d="M1454 262q29 0 57.5 3.5t58.5 9.5q34 7 54 12t38 10.5t38.5 14t55.5 22.5l50 -282q-186 -84 -420 -84q-221 0 -378 166q-151 -166 -366 -166q-132 0 -240.5 41t-186.5 114t-120.5 173t-42.5 218q0 133 50 233.5t135 170.5q73 60 177 99t230 39q206 0 364 -146
q158 146 366 146q106 0 193.5 -37t150 -104.5t96.5 -163.5t34 -213q0 -14 -1 -27t-3 -25l-616 -80q26 -73 79.5 -108.5t146.5 -35.5zM644 310q46 0 80.5 20.5t57.5 51.5t34.5 66.5t11.5 65.5q0 42 -15 79t-40 65t-58.5 44t-70.5 16q-41 0 -75 -16.5t-58 -45t-37.5 -65.5
t-13.5 -77q0 -43 14.5 -80t40 -64.5t58.5 -43.5t71 -16zM1530 664q-35 128 -156 128q-39 0 -68.5 -15t-49.5 -42t-31 -63t-13 -78z" />
    <glyph glyph-name="Racute" unicode="&#x154;" horiz-adv-x="1429" 
d="M321 1781l600 420l208 -366l-682 -274zM1389 4q-131 -36 -189 -36q-371 0 -466 338l-56 228h-96v-534h-448v1408h626q122 0 229 -27.5t186.5 -80t125 -129.5t45.5 -177q0 -74 -18.5 -132.5t-53.5 -105t-85.5 -82.5t-114.5 -64l9 -49q3 -17 6 -29l5 -20l11 -43
q12 -38 27.5 -64.5t39.5 -43t59.5 -24t86.5 -7.5q8 0 25.5 2t45.5 6v-334zM936 974q0 39 -16.5 64.5t-45.5 40t-68 20t-84 5.5h-140v-282h78l66 3q39 3 76.5 10.5t67.5 24t48 44t18 70.5z" />
    <glyph glyph-name="racute" unicode="&#x155;" horiz-adv-x="914" 
d="M87 1398l600 420l208 -366l-682 -274zM102 1011h432v-209q49 124 130.5 181.5t187.5 57.5l60 -335q-195 0 -286.5 -41.5t-91.5 -132.5v-532h-432v1011z" />
    <glyph glyph-name="Rcommaaccent" unicode="&#x156;" horiz-adv-x="1429" 
d="M534 -640q69 0 107 1t56.5 11t22.5 31.5t4 62.5h-190v382h420l-4 -208q-2 -110 -8 -191.5t-21 -139.5t-42 -94.5t-72.5 -57.5t-112.5 -29t-160 -8v240zM1389 4q-131 -36 -189 -36q-371 0 -466 338l-56 228h-96v-534h-448v1408h626q122 0 229 -27.5t186.5 -80t125 -129.5
t45.5 -177q0 -74 -18.5 -132.5t-53.5 -105t-85.5 -82.5t-114.5 -64l9 -49q3 -17 6 -29l5 -20l11 -43q12 -38 27.5 -64.5t39.5 -43t59.5 -24t86.5 -7.5q8 0 25.5 2t45.5 6v-334zM936 974q0 39 -16.5 64.5t-45.5 40t-68 20t-84 5.5h-140v-282h78l66 3q39 3 76.5 10.5t67.5 24
t48 44t18 70.5z" />
    <glyph glyph-name="rcommaaccent" unicode="&#x157;" horiz-adv-x="914" 
d="M108 -608q69 0 107 1t56.5 11t22.5 31.5t4 62.5h-190v382h420l-4 -208q-2 -110 -8 -191.5t-21 -139.5t-42 -94.5t-72.5 -57.5t-112.5 -29t-160 -8v240zM102 1011h432v-209q49 124 130.5 181.5t187.5 57.5l60 -335q-195 0 -286.5 -41.5t-91.5 -132.5v-532h-432v1011z" />
    <glyph glyph-name="Rcaron" unicode="&#x158;" horiz-adv-x="1429" 
d="M8 2071h340l78 -218l22 -80q8 27 21.5 66.5t28.5 81.5t29 82t23 68h340l-252 -510h-378zM1389 4q-131 -36 -189 -36q-371 0 -466 338l-56 228h-96v-534h-448v1408h626q122 0 229 -27.5t186.5 -80t125 -129.5t45.5 -177q0 -74 -18.5 -132.5t-53.5 -105t-85.5 -82.5
t-114.5 -64l9 -49q3 -17 6 -29l5 -20l11 -43q12 -38 27.5 -64.5t39.5 -43t59.5 -24t86.5 -7.5q8 0 25.5 2t45.5 6v-334zM936 974q0 39 -16.5 64.5t-45.5 40t-68 20t-84 5.5h-140v-282h78l66 3q39 3 76.5 10.5t67.5 24t48 44t18 70.5z" />
    <glyph glyph-name="rcaron" unicode="&#x159;" horiz-adv-x="914" 
d="M66 1688h340l78 -218l22 -80q8 27 21.5 66.5t28.5 81.5t29 82t23 68h340l-252 -510h-378zM102 1011h432v-209q49 124 130.5 181.5t187.5 57.5l60 -335q-195 0 -286.5 -41.5t-91.5 -132.5v-532h-432v1011z" />
    <glyph glyph-name="Sacute" unicode="&#x15a;" horiz-adv-x="1213" 
d="M288 1782l600 420l208 -366l-682 -274zM1152 460q0 -126 -38.5 -218.5t-110.5 -153t-176.5 -90.5t-236.5 -30q-293 0 -514 106q61 152 96 278q6 21 12 36l150 -37q27 -6 58 -13t62 -12.5t59 -9.5t49 -4q34 0 65.5 2.5t55.5 11.5t38.5 26t14.5 46q0 35 -33 59t-82.5 43
t-108.5 34.5t-110 33.5q-71 22 -132 60t-105.5 90.5t-69.5 119t-25 146.5q0 456 548 456q260 0 484 -108l-110 -306q-97 25 -153.5 39.5t-90.5 21.5t-54 9t-42 2h-34q-11 0 -18.5 0.5t-14.5 0.5q-45 0 -69 -13.5t-24 -55.5q0 -63 110 -96q271 -63 410.5 -183t139.5 -291z
" />
    <glyph glyph-name="sacute" unicode="&#x15b;" horiz-adv-x="947" 
d="M104 1398l600 420l208 -366l-682 -274zM546 786q-122 0 -122 -42q0 -16 9 -28.5t24 -22t33 -15.5t36 -8q79 -12 146.5 -36.5t117 -65.5t78 -100.5t28.5 -141.5q0 -81 -28.5 -144.5t-79.5 -107.5t-120 -67t-150 -23q-131 0 -239.5 12t-198.5 52l46 236q33 -9 57.5 -16
t40.5 -10q15 -3 38 -7.5t49.5 -8.5t53.5 -7t49 -3q102 0 102 48q-3 19 -15.5 33.5t-31.5 25t-43.5 17.5t-51.5 12q-78 15 -137.5 40t-99.5 64.5t-60.5 97t-20.5 136.5q4 90 38 153.5t92 104t136.5 59t171.5 18.5q97 0 183 -10.5t161 -46.5l-44 -244q-150 46 -248 46z" />
    <glyph glyph-name="Scircumflex" unicode="&#x15c;" horiz-adv-x="1213" 
d="M429 2072h378l252 -510h-340l-78 218l-24 78l-22 -78l-78 -218h-340zM1152 460q0 -126 -38.5 -218.5t-110.5 -153t-176.5 -90.5t-236.5 -30q-293 0 -514 106q61 152 96 278q6 21 12 36l150 -37q27 -6 58 -13t62 -12.5t59 -9.5t49 -4q34 0 65.5 2.5t55.5 11.5t38.5 26
t14.5 46q0 35 -33 59t-82.5 43t-108.5 34.5t-110 33.5q-71 22 -132 60t-105.5 90.5t-69.5 119t-25 146.5q0 456 548 456q260 0 484 -108l-110 -306q-97 25 -153.5 39.5t-90.5 21.5t-54 9t-42 2h-34q-11 0 -18.5 0.5t-14.5 0.5q-45 0 -69 -13.5t-24 -55.5q0 -63 110 -96
q271 -63 410.5 -183t139.5 -291z" />
    <glyph glyph-name="scircumflex" unicode="&#x15d;" horiz-adv-x="947" 
d="M305 1688h378l252 -510h-340l-78 218l-24 78l-22 -78l-78 -218h-340zM546 786q-122 0 -122 -42q0 -16 9 -28.5t24 -22t33 -15.5t36 -8q79 -12 146.5 -36.5t117 -65.5t78 -100.5t28.5 -141.5q0 -81 -28.5 -144.5t-79.5 -107.5t-120 -67t-150 -23q-131 0 -239.5 12
t-198.5 52l46 236q33 -9 57.5 -16t40.5 -10q15 -3 38 -7.5t49.5 -8.5t53.5 -7t49 -3q102 0 102 48q-3 19 -15.5 33.5t-31.5 25t-43.5 17.5t-51.5 12q-78 15 -137.5 40t-99.5 64.5t-60.5 97t-20.5 136.5q4 90 38 153.5t92 104t136.5 59t171.5 18.5q97 0 183 -10.5t161 -46.5
l-44 -244q-150 46 -248 46z" />
    <glyph glyph-name="Scedilla" unicode="&#x15e;" horiz-adv-x="1213" 
d="M595 -287q0 48 -32 71t-86 23h-4l60 180h114l-40 -116q100 -11 156 -51t56 -109q0 -62 -31 -106t-76 -72t-96.5 -41t-92.5 -13q-89 0 -180 44l28 76q53 -14 92 -14q132 0 132 128zM1152 460q0 -126 -38.5 -218.5t-110.5 -153t-176.5 -90.5t-236.5 -30q-293 0 -514 106
q61 152 96 278q6 21 12 36l150 -37q27 -6 58 -13t62 -12.5t59 -9.5t49 -4q34 0 65.5 2.5t55.5 11.5t38.5 26t14.5 46q0 35 -33 59t-82.5 43t-108.5 34.5t-110 33.5q-71 22 -132 60t-105.5 90.5t-69.5 119t-25 146.5q0 456 548 456q260 0 484 -108l-110 -306
q-97 25 -153.5 39.5t-90.5 21.5t-54 9t-42 2h-34q-11 0 -18.5 0.5t-14.5 0.5q-45 0 -69 -13.5t-24 -55.5q0 -63 110 -96q271 -63 410.5 -183t139.5 -291z" />
    <glyph glyph-name="scedilla" unicode="&#x15f;" horiz-adv-x="947" 
d="M523 -287q0 48 -32 71t-86 23h-4l60 180h114l-40 -116q100 -11 156 -51t56 -109q0 -62 -31 -106t-76 -72t-96.5 -41t-92.5 -13q-89 0 -180 44l28 76q53 -14 92 -14q132 0 132 128zM546 786q-122 0 -122 -42q0 -16 9 -28.5t24 -22t33 -15.5t36 -8q79 -12 146.5 -36.5
t117 -65.5t78 -100.5t28.5 -141.5q0 -81 -28.5 -144.5t-79.5 -107.5t-120 -67t-150 -23q-131 0 -239.5 12t-198.5 52l46 236q33 -9 57.5 -16t40.5 -10q15 -3 38 -7.5t49.5 -8.5t53.5 -7t49 -3q102 0 102 48q-3 19 -15.5 33.5t-31.5 25t-43.5 17.5t-51.5 12q-78 15 -137.5 40
t-99.5 64.5t-60.5 97t-20.5 136.5q4 90 38 153.5t92 104t136.5 59t171.5 18.5q97 0 183 -10.5t161 -46.5l-44 -244q-150 46 -248 46z" />
    <glyph glyph-name="Scaron" unicode="&#x160;" horiz-adv-x="1213" 
d="M177 2072h340l78 -218l22 -80q8 27 21.5 66.5t28.5 81.5t29 82t23 68h340l-252 -510h-378zM1152 460q0 -126 -38.5 -218.5t-110.5 -153t-176.5 -90.5t-236.5 -30q-293 0 -514 106q61 152 96 278q6 21 12 36l150 -37q27 -6 58 -13t62 -12.5t59 -9.5t49 -4q34 0 65.5 2.5
t55.5 11.5t38.5 26t14.5 46q0 35 -33 59t-82.5 43t-108.5 34.5t-110 33.5q-71 22 -132 60t-105.5 90.5t-69.5 119t-25 146.5q0 456 548 456q260 0 484 -108l-110 -306q-97 25 -153.5 39.5t-90.5 21.5t-54 9t-42 2h-34q-11 0 -18.5 0.5t-14.5 0.5q-45 0 -69 -13.5t-24 -55.5
q0 -63 110 -96q271 -63 410.5 -183t139.5 -291z" />
    <glyph glyph-name="scaron" unicode="&#x161;" horiz-adv-x="947" 
d="M53 1688h340l78 -218l22 -80q8 27 21.5 66.5t28.5 81.5t29 82t23 68h340l-252 -510h-378zM546 786q-122 0 -122 -42q0 -16 9 -28.5t24 -22t33 -15.5t36 -8q79 -12 146.5 -36.5t117 -65.5t78 -100.5t28.5 -141.5q0 -81 -28.5 -144.5t-79.5 -107.5t-120 -67t-150 -23
q-131 0 -239.5 12t-198.5 52l46 236q33 -9 57.5 -16t40.5 -10q15 -3 38 -7.5t49.5 -8.5t53.5 -7t49 -3q102 0 102 48q-3 19 -15.5 33.5t-31.5 25t-43.5 17.5t-51.5 12q-78 15 -137.5 40t-99.5 64.5t-60.5 97t-20.5 136.5q4 90 38 153.5t92 104t136.5 59t171.5 18.5
q97 0 183 -10.5t161 -46.5l-44 -244q-150 46 -248 46z" />
    <glyph glyph-name="Tcommaaccent" unicode="&#x162;" horiz-adv-x="1182" 
d="M596 -257q0 48 -32 71t-86 23h-4l60 180h114l-40 -116q100 -11 156 -51t56 -109q0 -62 -31 -106t-76 -72t-96.5 -41t-92.5 -13q-89 0 -180 44l28 76q53 -14 92 -14q132 0 132 128zM352 1110h-292v298h1062v-298h-292v-1110h-478v1110z" />
    <glyph glyph-name="tcommaaccent" unicode="&#x163;" horiz-adv-x="890" 
d="M536 -287q0 48 -32 71t-86 23h-4l60 180h114l-40 -116q100 -11 156 -51t56 -109q0 -62 -31 -106t-76 -72t-96.5 -41t-92.5 -13q-89 0 -180 44l28 76q53 -14 92 -14q132 0 132 128zM839 54q-139 -70 -308 -70q-87 0 -155 28.5t-114.5 82t-70.5 129t-24 170.5l2 378h-130
v254h162l190 388h208v-388h236v-254h-236v-348q0 -54 35 -81t95 -27q47 0 94 24z" />
    <glyph glyph-name="Tcaron" unicode="&#x164;" horiz-adv-x="1182" 
d="M150 2071h340l78 -218l22 -80q8 27 21.5 66.5t28.5 81.5t29 82t23 68h340l-252 -510h-378zM352 1110h-292v298h1062v-298h-292v-1110h-478v1110z" />
    <glyph glyph-name="tcaron" unicode="&#x165;" horiz-adv-x="890" 
d="M890 1024q69 0 107 1t56.5 11t22.5 31.5t4 62.5h-190v382h420l-4 -208q-2 -110 -8 -191.5t-21 -139.5t-42 -94.5t-72.5 -57.5t-112.5 -29t-160 -8v240zM839 54q-139 -70 -308 -70q-87 0 -155 28.5t-114.5 82t-70.5 129t-24 170.5l2 378h-130v254h162l190 388h208v-388
h236v-254h-236v-348q0 -54 35 -81t95 -27q47 0 94 24z" />
    <glyph glyph-name="Tbar" unicode="&#x166;" horiz-adv-x="1202" 
d="M362 518h-146v174h146v386h-292v298h1062v-298h-292v-386h146v-174h-146v-518h-478v518z" />
    <glyph glyph-name="tbar" unicode="&#x167;" horiz-adv-x="921" 
d="M856 38q-139 -70 -308 -70q-88 0 -155.5 29t-114 82t-70.5 129t-24 170v140h-114v174h116v80h-130v254h130v248l430 140v-388h236v-254h-236v-80h224v-174h-224v-110q0 -54 35 -81t95 -27q47 0 94 24z" />
    <glyph glyph-name="Utilde" unicode="&#x168;" 
d="M671 1675q-23 0 -40 -9.5t-30 -25t-22 -35t-16 -38.5l-242 98q31 85 70 151t84.5 111.5t95.5 69.5t102 24q31 0 62.5 -10.5t48.5 -18.5l47 -28q2 -2 7 -5t12 -8l43 -25q18 -9 36.5 -14t41.5 -5q70 0 102 92l240 -98q-62 -177 -145.5 -258.5t-188.5 -81.5q-39 0 -69.5 8.5
t-56.5 21t-48 27.5t-43.5 27.5t-43.5 21t-47 8.5zM817 338q115 0 174.5 62.5t59.5 183.5v824h462v-824q0 -108 -28.5 -195.5t-78 -156t-116.5 -118.5t-144.5 -82.5t-161.5 -48t-167 -15.5q-285 0 -483 156q-213 166 -213 460v824h462v-824q0 -246 234 -246z" />
    <glyph glyph-name="utilde" unicode="&#x169;" horiz-adv-x="1286" 
d="M496 1292q-23 0 -40 -9.5t-30 -25t-22 -35t-16 -38.5l-242 98q31 85 70 151t84.5 111.5t95.5 69.5t102 24q31 0 62.5 -10.5t48.5 -18.5l47 -28q2 -2 7 -5t12 -8l43 -25q18 -9 36.5 -14t41.5 -5q70 0 102 92l240 -98q-62 -177 -145.5 -258.5t-188.5 -81.5q-39 0 -69.5 8.5
t-56.5 21t-48 27.5t-43.5 27.5t-43.5 21t-47 8.5zM516 426q0 -27 10.5 -49.5t29 -38.5t43 -25t51.5 -9q26 0 49 9.5t40 26t27 38.5t10 48v600h414v-586q0 -106 -41 -190.5t-113.5 -143.5t-171.5 -90.5t-216 -31.5q-115 0 -216 30.5t-176 89t-118.5 143.5t-43.5 193v586h422
v-600z" />
    <glyph glyph-name="Umacron" unicode="&#x16a;" 
d="M542 1803h550v-242h-550v242zM817 338q115 0 174.5 62.5t59.5 183.5v824h462v-824q0 -108 -28.5 -195.5t-78 -156t-116.5 -118.5t-144.5 -82.5t-161.5 -48t-167 -15.5q-285 0 -483 156q-213 166 -213 460v824h462v-824q0 -246 234 -246z" />
    <glyph glyph-name="umacron" unicode="&#x16b;" horiz-adv-x="1286" 
d="M367 1420h550v-242h-550v242zM516 426q0 -27 10.5 -49.5t29 -38.5t43 -25t51.5 -9q26 0 49 9.5t40 26t27 38.5t10 48v600h414v-586q0 -106 -41 -190.5t-113.5 -143.5t-171.5 -90.5t-216 -31.5q-115 0 -216 30.5t-176 89t-118.5 143.5t-43.5 193v586h422v-600z" />
    <glyph glyph-name="Ubreve" unicode="&#x16c;" 
d="M1168 1911q0 -80 -26 -144.5t-72.5 -110t-111 -70.5t-140.5 -25q-78 0 -143 25.5t-111.5 72t-72 111t-25.5 141.5h226q0 -55 35.5 -89.5t90.5 -34.5t86.5 33.5t31.5 90.5h232zM817 338q115 0 174.5 62.5t59.5 183.5v824h462v-824q0 -108 -28.5 -195.5t-78 -156
t-116.5 -118.5t-144.5 -82.5t-161.5 -48t-167 -15.5q-285 0 -483 156q-213 166 -213 460v824h462v-824q0 -246 234 -246z" />
    <glyph glyph-name="ubreve" unicode="&#x16d;" horiz-adv-x="1286" 
d="M993 1528q0 -80 -26 -144.5t-72.5 -110t-111 -70.5t-140.5 -25q-78 0 -143 25.5t-111.5 72t-72 111t-25.5 141.5h226q0 -55 35.5 -89.5t90.5 -34.5t86.5 33.5t31.5 90.5h232zM516 426q0 -27 10.5 -49.5t29 -38.5t43 -25t51.5 -9q26 0 49 9.5t40 26t27 38.5t10 48v600h414
v-586q0 -106 -41 -190.5t-113.5 -143.5t-171.5 -90.5t-216 -31.5q-115 0 -216 30.5t-176 89t-118.5 143.5t-43.5 193v586h422v-600z" />
    <glyph glyph-name="Uring" unicode="&#x16e;" 
d="M814 2039q-27 0 -49.5 -9.5t-38.5 -26.5t-25 -40.5t-9 -51.5q0 -57 35.5 -90.5t90.5 -33.5q57 0 87.5 33.5t30.5 90.5t-33.5 92.5t-88.5 35.5zM466 1911q0 81 26.5 146t73.5 111.5t111.5 71.5t140.5 25q83 0 148 -28t110 -76t68.5 -112.5t23.5 -137.5q0 -80 -26 -144.5
t-72.5 -110t-111 -70.5t-140.5 -25q-78 0 -143 25.5t-111.5 72t-72 111t-25.5 141.5zM817 338q115 0 174.5 62.5t59.5 183.5v824h462v-824q0 -108 -28.5 -195.5t-78 -156t-116.5 -118.5t-144.5 -82.5t-161.5 -48t-167 -15.5q-285 0 -483 156q-213 166 -213 460v824h462v-824
q0 -246 234 -246z" />
    <glyph glyph-name="uring" unicode="&#x16f;" horiz-adv-x="1286" 
d="M639 1656q-27 0 -49.5 -9.5t-38.5 -26.5t-25 -40.5t-9 -51.5q0 -57 35.5 -90.5t90.5 -33.5q57 0 87.5 33.5t30.5 90.5t-33.5 92.5t-88.5 35.5zM291 1528q0 81 26.5 146t73.5 111.5t111.5 71.5t140.5 25q83 0 148 -28t110 -76t68.5 -112.5t23.5 -137.5q0 -80 -26 -144.5
t-72.5 -110t-111 -70.5t-140.5 -25q-78 0 -143 25.5t-111.5 72t-72 111t-25.5 141.5zM516 426q0 -27 10.5 -49.5t29 -38.5t43 -25t51.5 -9q26 0 49 9.5t40 26t27 38.5t10 48v600h414v-586q0 -106 -41 -190.5t-113.5 -143.5t-171.5 -90.5t-216 -31.5q-115 0 -216 30.5
t-176 89t-118.5 143.5t-43.5 193v586h422v-600z" />
    <glyph glyph-name="Uhungarumlaut" unicode="&#x170;" 
d="M487 2351l400 -118l-300 -670l-244 70zM1089 2355l374 -188l-416 -606l-226 112zM817 338q115 0 174.5 62.5t59.5 183.5v824h462v-824q0 -108 -28.5 -195.5t-78 -156t-116.5 -118.5t-144.5 -82.5t-161.5 -48t-167 -15.5q-285 0 -483 156q-213 166 -213 460v824h462v-824
q0 -246 234 -246z" />
    <glyph glyph-name="uhungarumlaut" unicode="&#x171;" horiz-adv-x="1286" 
d="M312 1970l400 -118l-300 -670l-244 70zM914 1974l374 -188l-416 -606l-226 112zM516 426q0 -27 10.5 -49.5t29 -38.5t43 -25t51.5 -9q26 0 49 9.5t40 26t27 38.5t10 48v600h414v-586q0 -106 -41 -190.5t-113.5 -143.5t-171.5 -90.5t-216 -31.5q-115 0 -216 30.5t-176 89
t-118.5 143.5t-43.5 193v586h422v-600z" />
    <glyph glyph-name="Uogonek" unicode="&#x172;" 
d="M809 -415q29 0 96 14l2 -76q-106 -44 -198 -44q-47 0 -88 11t-71 33t-47.5 55t-17.5 77q0 36 15.5 69t39.5 63t53 57t56 50l57 48q20 17 34 27t21 18h112q-32 -67 -64 -123t-64 -102l-20 -31q-6 -8 -12 -30t-6 -42q0 -74 102 -74zM817 338q115 0 174.5 62.5t59.5 183.5
v824h462v-824q0 -108 -28.5 -195.5t-78 -156t-116.5 -118.5t-144.5 -82.5t-161.5 -48t-167 -15.5q-285 0 -483 156q-213 166 -213 460v824h462v-824q0 -246 234 -246z" />
    <glyph glyph-name="uogonek" unicode="&#x173;" horiz-adv-x="1286" 
d="M696 -415q29 0 96 14l2 -76q-106 -44 -198 -44q-47 0 -88 11t-71 33t-47.5 55t-17.5 77q0 36 15.5 69t39.5 63t53 57t56 50l57 48q20 17 34 27t21 18h112q-32 -67 -64 -123t-64 -102l-20 -31q-6 -8 -12 -30t-6 -42q0 -74 102 -74zM516 426q0 -27 10.5 -49.5t29 -38.5
t43 -25t51.5 -9q26 0 49 9.5t40 26t27 38.5t10 48v600h414v-586q0 -106 -41 -190.5t-113.5 -143.5t-171.5 -90.5t-216 -31.5q-115 0 -216 30.5t-176 89t-118.5 143.5t-43.5 193v586h422v-600z" />
    <glyph glyph-name="Wcircumflex" unicode="&#x174;" horiz-adv-x="2028" 
d="M825 2071h378l252 -510h-340l-78 218l-24 78l-22 -78l-78 -218h-340zM43 1408h460l134 -898l138 660h476l140 -660l132 898h462l-320 -1408h-478l-174 758l-174 -758h-476z" />
    <glyph glyph-name="wcircumflex" unicode="&#x175;" horiz-adv-x="1707" 
d="M664 1688h378l252 -510h-340l-78 218l-24 78l-22 -78l-78 -218h-340zM41 1026h418l116 -666q12 50 23 100.5t22.5 105.5t24.5 117t28 134l44 209h352l102 -482l38 -200l40 200l80 482h336l-212 -1026h-496l-110 542l-108 -542h-472z" />
    <glyph glyph-name="Ycircumflex" unicode="&#x176;" horiz-adv-x="1253" 
d="M441 2071h378l252 -510h-340l-78 218l-24 78l-22 -78l-78 -218h-340zM400 392l-406 1016h428l198 -632l196 632h450l-426 -1016v-392h-440v392z" />
    <glyph glyph-name="ycircumflex" unicode="&#x177;" horiz-adv-x="1369" 
d="M492 1688h378l252 -510h-340l-78 218l-24 78l-22 -78l-78 -218h-340zM852 170q-95 -170 -296 -170q-92 0 -175 32.5t-146 90.5t-100 137.5t-37 173.5v592h430v-572q0 -30 12.5 -56.5t32 -46.5t44.5 -31.5t51 -11.5q37 0 67.5 13.5t52 37t33 55t11.5 68.5v544h432v-766
q0 -180 -37.5 -318t-110.5 -231.5t-180 -142t-246 -48.5q-32 0 -76 5t-102 15l44 336q27 -7 52 -9.5t49 -2.5q58 0 93.5 27.5t56.5 71t30.5 98t14.5 109.5z" />
    <glyph glyph-name="Ydieresis" unicode="&#x178;" horiz-adv-x="1253" 
d="M709 1767q0 46 20 84t52.5 65.5t74 43t85.5 15.5q52 0 94 -18.5t72 -48.5t46 -67t16 -74q0 -45 -19 -83t-50.5 -65t-73 -42.5t-85.5 -15.5q-52 0 -94.5 17t-73 45.5t-47.5 65.5t-17 78zM91 1767q0 44 19 82t51 66t73.5 44t86.5 16q48 0 89.5 -17t73 -46t49.5 -66.5
t18 -78.5q0 -46 -19.5 -84t-51.5 -65t-73.5 -42t-85.5 -15q-48 0 -89.5 16t-73 43.5t-49.5 65t-18 81.5zM400 392l-406 1016h428l198 -632l196 632h450l-426 -1016v-392h-440v392z" />
    <glyph glyph-name="Zacute" unicode="&#x179;" horiz-adv-x="1107" 
d="M223 1781l600 420l208 -366l-682 -274zM73 296l482 814h-462v298h920v-298l-470 -814h491v-296h-961v296z" />
    <glyph glyph-name="zacute" unicode="&#x17a;" horiz-adv-x="1003" 
d="M128 1398l600 420l208 -366l-682 -274zM63 220l360 544h-346v262h852v-222l-318 -542h328v-262h-876v220z" />
    <glyph glyph-name="Zdotaccent" unicode="&#x17b;" horiz-adv-x="1107" 
d="M323 1769q0 45 19.5 83t51.5 65t73.5 42.5t85.5 15.5q46 0 88 -16.5t73.5 -45t50 -65.5t18.5 -79q0 -47 -19.5 -85t-51.5 -65.5t-73.5 -42.5t-85.5 -15q-48 0 -90 16t-73 44t-49 66t-18 82zM73 296l482 814h-462v298h920v-298l-470 -814h491v-296h-961v296z" />
    <glyph glyph-name="zdotaccent" unicode="&#x17c;" horiz-adv-x="1003" 
d="M273 1386q0 45 19.5 83t51.5 65t73.5 42.5t85.5 15.5q46 0 88 -16.5t73.5 -45t50 -65.5t18.5 -79q0 -47 -19.5 -85t-51.5 -65.5t-73.5 -42.5t-85.5 -15q-48 0 -90 16t-73 44t-49 66t-18 82zM63 220l360 544h-346v262h852v-222l-318 -542h328v-262h-876v220z" />
    <glyph glyph-name="Zcaron" unicode="&#x17d;" horiz-adv-x="1107" 
d="M112 2071h340l78 -218l22 -80q8 27 21.5 66.5t28.5 81.5t29 82t23 68h340l-252 -510h-378zM73 296l482 814h-462v298h920v-298l-470 -814h491v-296h-961v296z" />
    <glyph glyph-name="zcaron" unicode="&#x17e;" horiz-adv-x="1003" 
d="M62 1688h340l78 -218l22 -80q8 27 21.5 66.5t28.5 81.5t29 82t23 68h340l-252 -510h-378zM63 220l360 544h-346v262h852v-222l-318 -542h328v-262h-876v220z" />
    <glyph glyph-name="longs" unicode="&#x17f;" horiz-adv-x="890" 
d="M676 1264q-60 0 -93.5 -29.5t-33.5 -86.5q0 -54 35 -122h286v-254h-258v-772h-432v772h-128v254h128q0 143 20.5 246t65.5 170t116 98.5t172 31.5q158 0 334 -78l-14 -278q-117 48 -198 48z" />
    <glyph glyph-name="florin" unicode="&#x192;" horiz-adv-x="891" 
d="M729 1246q-116 0 -116 -124v-96h258v-254h-258v-772h-434v772h-126v254h126v110q0 103 23 184.5t70 137t117.5 85t165.5 29.5q149 0 334 -78l-14 -278q-90 30 -146 30z" />
    <glyph glyph-name="uni0200" unicode="&#x200;" horiz-adv-x="1431" 
d="M642 2233l402 118l144 -718l-244 -70zM68 2167l374 188l268 -682l-228 -112zM400 1408h622l408 -1408h-482l-54 270h-364l-58 -270h-462zM846 522l-134 616l-138 -616h272z" />
    <glyph glyph-name="uni0201" unicode="&#x201;" horiz-adv-x="1425" 
d="M651 1852l402 118l144 -718l-244 -70zM77 1786l374 188l268 -682l-228 -112zM890 190q-48 -100 -130 -153t-206 -53q-100 0 -191 40.5t-160 112t-110 169.5t-41 213q0 114 41.5 210t111 165.5t160 108t189.5 38.5q51 0 100.5 -13.5t94 -43t81 -74.5t60.5 -108v239h430
v-1041h-430v190zM890 520q-2 40 -19 76t-44.5 62.5t-63.5 42t-75 15.5q-44 0 -81.5 -16.5t-65 -44t-43.5 -64.5t-16 -79q0 -44 17 -81.5t45.5 -64.5t65.5 -42.5t78 -15.5q42 0 78 16t63 43t43 62.5t18 74.5v16z" />
    <glyph glyph-name="uni0202" unicode="&#x202;" horiz-adv-x="1431" 
d="M837 1561q0 27 -9.5 50.5t-26.5 40t-40 26t-50 9.5t-50 -9.5t-40 -26t-26.5 -40t-9.5 -50.5h-246q0 87 27.5 157t77 119.5t117.5 76.5t150 27q84 0 152.5 -28t117 -78.5t75.5 -120t27 -153.5h-246zM400 1408h622l408 -1408h-482l-54 270h-364l-58 -270h-462zM846 522
l-134 616l-138 -616h272z" />
    <glyph glyph-name="uni0203" unicode="&#x203;" horiz-adv-x="1425" 
d="M848 1180q0 27 -9.5 50.5t-26.5 40t-40 26t-50 9.5t-50 -9.5t-40 -26t-26.5 -40t-9.5 -50.5h-246q0 87 27.5 157t77 119.5t117.5 76.5t150 27q84 0 152.5 -28t117 -78.5t75.5 -120t27 -153.5h-246zM890 190q-48 -100 -130 -153t-206 -53q-100 0 -191 40.5t-160 112
t-110 169.5t-41 213q0 114 41.5 210t111 165.5t160 108t189.5 38.5q51 0 100.5 -13.5t94 -43t81 -74.5t60.5 -108v239h430v-1041h-430v190zM890 520q-2 40 -19 76t-44.5 62.5t-63.5 42t-75 15.5q-44 0 -81.5 -16.5t-65 -44t-43.5 -64.5t-16 -79q0 -44 17 -81.5t45.5 -64.5
t65.5 -42.5t78 -15.5q42 0 78 16t63 43t43 62.5t18 74.5v16z" />
    <glyph glyph-name="uni0204" unicode="&#x204;" horiz-adv-x="1218" 
d="M559 2233l402 118l144 -718l-244 -70zM-15 2167l374 188l268 -682l-228 -112zM134 1408h988v-310h-492v-256h450v-258h-450v-276h492v-308h-988v1408z" />
    <glyph glyph-name="uni0205" unicode="&#x205;" horiz-adv-x="1138" 
d="M549 1852l402 118l144 -718l-244 -70zM-25 1786l374 188l268 -682l-228 -112zM698 271q140 0 302 72l50 -275q-186 -84 -418 -84q-129 0 -235.5 39.5t-183 110t-119 167.5t-42.5 211q0 120 44.5 217.5t121.5 167t180 107t220 37.5q118 0 207 -39.5t148.5 -108t89 -160
t29.5 -195.5q0 -14 -1 -27t-3 -25l-614 -80q24 -72 80 -103.5t144 -31.5zM774 664q-35 128 -156 128q-38 0 -68 -15t-50.5 -41.5t-31.5 -63t-12 -78.5z" />
    <glyph glyph-name="uni0206" unicode="&#x206;" horiz-adv-x="1218" 
d="M754 1561q0 27 -9.5 50.5t-26.5 40t-40 26t-50 9.5t-50 -9.5t-40 -26t-26.5 -40t-9.5 -50.5h-246q0 87 27.5 157t77 119.5t117.5 76.5t150 27q84 0 152.5 -28t117 -78.5t75.5 -120t27 -153.5h-246zM134 1408h988v-310h-492v-256h450v-258h-450v-276h492v-308h-988v1408z
" />
    <glyph glyph-name="uni0207" unicode="&#x207;" horiz-adv-x="1138" 
d="M744 1180q0 27 -9.5 50.5t-26.5 40t-40 26t-50 9.5t-50 -9.5t-40 -26t-26.5 -40t-9.5 -50.5h-246q0 87 27.5 157t77 119.5t117.5 76.5t150 27q84 0 152.5 -28t117 -78.5t75.5 -120t27 -153.5h-246zM698 271q140 0 302 72l50 -275q-186 -84 -418 -84q-129 0 -235.5 39.5
t-183 110t-119 167.5t-42.5 211q0 120 44.5 217.5t121.5 167t180 107t220 37.5q118 0 207 -39.5t148.5 -108t89 -160t29.5 -195.5q0 -14 -1 -27t-3 -25l-614 -80q24 -72 80 -103.5t144 -31.5zM774 664q-35 128 -156 128q-38 0 -68 -15t-50.5 -41.5t-31.5 -63t-12 -78.5z" />
    <glyph glyph-name="uni0208" unicode="&#x208;" horiz-adv-x="740" 
d="M301 2233l402 118l144 -718l-244 -70zM-273 2167l374 188l268 -682l-228 -112zM134 1408h472v-1408h-472v1408z" />
    <glyph glyph-name="uni0209" unicode="&#x209;" horiz-adv-x="748" 
d="M247 1852l402 118l144 -718l-244 -70zM-327 1786l374 188l268 -682l-228 -112zM731 38q-121 -70 -268 -70q-87 0 -155 29t-114.5 82.5t-70.5 129.5t-24 169v648h434v-628q0 -49 26 -73.5t66 -24.5t84 24z" />
    <glyph glyph-name="uni020A" unicode="&#x20a;" horiz-adv-x="740" 
d="M498 1561q0 27 -9.5 50.5t-26.5 40t-40 26t-50 9.5t-50 -9.5t-40 -26t-26.5 -40t-9.5 -50.5h-246q0 87 27.5 157t77 119.5t117.5 76.5t150 27q84 0 152.5 -28t117 -78.5t75.5 -120t27 -153.5h-246zM134 1408h472v-1408h-472v1408z" />
    <glyph glyph-name="uni020B" unicode="&#x20b;" horiz-adv-x="748" 
d="M444 1180q0 27 -9.5 50.5t-26.5 40t-40 26t-50 9.5t-50 -9.5t-40 -26t-26.5 -40t-9.5 -50.5h-246q0 87 27.5 157t77 119.5t117.5 76.5t150 27q84 0 152.5 -28t117 -78.5t75.5 -120t27 -153.5h-246zM731 38q-121 -70 -268 -70q-87 0 -155 29t-114.5 82.5t-70.5 129.5
t-24 169v648h434v-628q0 -49 26 -73.5t66 -24.5t84 24z" />
    <glyph glyph-name="uni020C" unicode="&#x20c;" 
d="M747 2233l402 118l144 -718l-244 -70zM173 2167l374 188l268 -682l-228 -112zM64 702q0 305 194 514q207 223 560 223q172 0 311 -55.5t237 -153.5t151 -233.5t53 -294.5q0 -96 -22 -188t-65.5 -173.5t-107.5 -150t-147.5 -118t-186 -77t-223.5 -27.5q-124 0 -227.5 28
t-187.5 78t-147.5 119t-106 150.5t-64 172.5t-21.5 186zM818 340q79 0 134.5 33.5t91 86t52 117.5t16.5 127q0 81 -20.5 148.5t-59 117t-93 78.5t-121.5 32q-80 -2 -136 -36t-91.5 -87.5t-52 -120t-16.5 -132.5q0 -78 20.5 -144.5t59 -115t93.5 -76.5t123 -28z" />
    <glyph glyph-name="uni020D" unicode="&#x20d;" horiz-adv-x="1284" 
d="M575 1852l402 118l144 -718l-244 -70zM1 1786l374 188l268 -682l-228 -112zM452 514q0 -56 16.5 -98t43.5 -70t62 -42t71 -14t70.5 14t62 42t44 70t16.5 98t-16.5 98t-44 69.5t-62 41.5t-70.5 14t-71 -14t-62 -41.5t-43.5 -69.5t-16.5 -98zM52 514q5 129 53.5 227
t128.5 165t185.5 101t224.5 34q130 0 238 -39t186 -108.5t121 -166.5t43 -213q0 -94 -24.5 -170t-66.5 -134.5t-99 -101.5t-123 -70.5t-136.5 -40.5t-140.5 -13q-132 0 -240.5 38.5t-186.5 108.5t-120.5 167.5t-42.5 215.5z" />
    <glyph glyph-name="uni020E" unicode="&#x20e;" 
d="M944 1561q0 27 -9.5 50.5t-26.5 40t-40 26t-50 9.5t-50 -9.5t-40 -26t-26.5 -40t-9.5 -50.5h-246q0 87 27.5 157t77 119.5t117.5 76.5t150 27q84 0 152.5 -28t117 -78.5t75.5 -120t27 -153.5h-246zM64 702q0 305 194 514q207 223 560 223q172 0 311 -55.5t237 -153.5
t151 -233.5t53 -294.5q0 -96 -22 -188t-65.5 -173.5t-107.5 -150t-147.5 -118t-186 -77t-223.5 -27.5q-124 0 -227.5 28t-187.5 78t-147.5 119t-106 150.5t-64 172.5t-21.5 186zM818 340q79 0 134.5 33.5t91 86t52 117.5t16.5 127q0 81 -20.5 148.5t-59 117t-93 78.5
t-121.5 32q-80 -2 -136 -36t-91.5 -87.5t-52 -120t-16.5 -132.5q0 -78 20.5 -144.5t59 -115t93.5 -76.5t123 -28z" />
    <glyph glyph-name="uni020F" unicode="&#x20f;" horiz-adv-x="1284" 
d="M770 1180q0 27 -9.5 50.5t-26.5 40t-40 26t-50 9.5t-50 -9.5t-40 -26t-26.5 -40t-9.5 -50.5h-246q0 87 27.5 157t77 119.5t117.5 76.5t150 27q84 0 152.5 -28t117 -78.5t75.5 -120t27 -153.5h-246zM452 514q0 -56 16.5 -98t43.5 -70t62 -42t71 -14t70.5 14t62 42t44 70
t16.5 98t-16.5 98t-44 69.5t-62 41.5t-70.5 14t-71 -14t-62 -41.5t-43.5 -69.5t-16.5 -98zM52 514q5 129 53.5 227t128.5 165t185.5 101t224.5 34q130 0 238 -39t186 -108.5t121 -166.5t43 -213q0 -94 -24.5 -170t-66.5 -134.5t-99 -101.5t-123 -70.5t-136.5 -40.5
t-140.5 -13q-132 0 -240.5 38.5t-186.5 108.5t-120.5 167.5t-42.5 215.5z" />
    <glyph glyph-name="uni0210" unicode="&#x210;" horiz-adv-x="1429" 
d="M378 2233l402 118l144 -718l-244 -70zM-196 2167l374 188l268 -682l-228 -112zM1389 4q-131 -36 -189 -36q-371 0 -466 338l-56 228h-96v-534h-448v1408h626q122 0 229 -27.5t186.5 -80t125 -129.5t45.5 -177q0 -74 -18.5 -132.5t-53.5 -105t-85.5 -82.5t-114.5 -64
l9 -49q3 -17 6 -29l5 -20l11 -43q12 -38 27.5 -64.5t39.5 -43t59.5 -24t86.5 -7.5q8 0 25.5 2t45.5 6v-334zM936 974q0 39 -16.5 64.5t-45.5 40t-68 20t-84 5.5h-140v-282h78l66 3q39 3 76.5 10.5t67.5 24t48 44t18 70.5z" />
    <glyph glyph-name="uni0211" unicode="&#x211;" horiz-adv-x="914" 
d="M438 1852l402 118l144 -718l-244 -70zM-136 1786l374 188l268 -682l-228 -112zM102 1011h432v-209q49 124 130.5 181.5t187.5 57.5l60 -335q-195 0 -286.5 -41.5t-91.5 -132.5v-532h-432v1011z" />
    <glyph glyph-name="uni0212" unicode="&#x212;" horiz-adv-x="1429" 
d="M573 1561q0 27 -9.5 50.5t-26.5 40t-40 26t-50 9.5t-50 -9.5t-40 -26t-26.5 -40t-9.5 -50.5h-246q0 87 27.5 157t77 119.5t117.5 76.5t150 27q84 0 152.5 -28t117 -78.5t75.5 -120t27 -153.5h-246zM1389 4q-131 -36 -189 -36q-371 0 -466 338l-56 228h-96v-534h-448v1408
h626q122 0 229 -27.5t186.5 -80t125 -129.5t45.5 -177q0 -74 -18.5 -132.5t-53.5 -105t-85.5 -82.5t-114.5 -64l9 -49q3 -17 6 -29l5 -20l11 -43q12 -38 27.5 -64.5t39.5 -43t59.5 -24t86.5 -7.5q8 0 25.5 2t45.5 6v-334zM936 974q0 39 -16.5 64.5t-45.5 40t-68 20t-84 5.5
h-140v-282h78l66 3q39 3 76.5 10.5t67.5 24t48 44t18 70.5z" />
    <glyph glyph-name="uni0213" unicode="&#x213;" horiz-adv-x="914" 
d="M633 1180q0 27 -9.5 50.5t-26.5 40t-40 26t-50 9.5t-50 -9.5t-40 -26t-26.5 -40t-9.5 -50.5h-246q0 87 27.5 157t77 119.5t117.5 76.5t150 27q84 0 152.5 -28t117 -78.5t75.5 -120t27 -153.5h-246zM102 1011h432v-209q49 124 130.5 181.5t187.5 57.5l60 -335
q-195 0 -286.5 -41.5t-91.5 -132.5v-532h-432v1011z" />
    <glyph glyph-name="uni0214" unicode="&#x214;" 
d="M746 2233l402 118l144 -718l-244 -70zM172 2167l374 188l268 -682l-228 -112zM817 338q115 0 174.5 62.5t59.5 183.5v824h462v-824q0 -108 -28.5 -195.5t-78 -156t-116.5 -118.5t-144.5 -82.5t-161.5 -48t-167 -15.5q-285 0 -483 156q-213 166 -213 460v824h462v-824
q0 -246 234 -246z" />
    <glyph glyph-name="uni0215" unicode="&#x215;" horiz-adv-x="1286" 
d="M573 1852l402 118l144 -718l-244 -70zM-1 1786l374 188l268 -682l-228 -112zM516 426q0 -27 10.5 -49.5t29 -38.5t43 -25t51.5 -9q26 0 49 9.5t40 26t27 38.5t10 48v600h414v-586q0 -106 -41 -190.5t-113.5 -143.5t-171.5 -90.5t-216 -31.5q-115 0 -216 30.5t-176 89
t-118.5 143.5t-43.5 193v586h422v-600z" />
    <glyph glyph-name="uni0216" unicode="&#x216;" 
d="M943 1561q0 27 -9.5 50.5t-26.5 40t-40 26t-50 9.5t-50 -9.5t-40 -26t-26.5 -40t-9.5 -50.5h-246q0 87 27.5 157t77 119.5t117.5 76.5t150 27q84 0 152.5 -28t117 -78.5t75.5 -120t27 -153.5h-246zM817 338q115 0 174.5 62.5t59.5 183.5v824h462v-824
q0 -108 -28.5 -195.5t-78 -156t-116.5 -118.5t-144.5 -82.5t-161.5 -48t-167 -15.5q-285 0 -483 156q-213 166 -213 460v824h462v-824q0 -246 234 -246z" />
    <glyph glyph-name="uni0217" unicode="&#x217;" horiz-adv-x="1286" 
d="M768 1180q0 27 -9.5 50.5t-26.5 40t-40 26t-50 9.5t-50 -9.5t-40 -26t-26.5 -40t-9.5 -50.5h-246q0 87 27.5 157t77 119.5t117.5 76.5t150 27q84 0 152.5 -28t117 -78.5t75.5 -120t27 -153.5h-246zM516 426q0 -27 10.5 -49.5t29 -38.5t43 -25t51.5 -9q26 0 49 9.5t40 26
t27 38.5t10 48v600h414v-586q0 -106 -41 -190.5t-113.5 -143.5t-171.5 -90.5t-216 -31.5q-115 0 -216 30.5t-176 89t-118.5 143.5t-43.5 193v586h422v-600z" />
    <glyph glyph-name="Scommaaccent" unicode="&#x218;" horiz-adv-x="1213" 
d="M380 -640q69 0 107 1t56.5 11t22.5 31.5t4 62.5h-190v382h420l-4 -208q-2 -110 -8 -191.5t-21 -139.5t-42 -94.5t-72.5 -57.5t-112.5 -29t-160 -8v240zM1152 460q0 -126 -38.5 -218.5t-110.5 -153t-176.5 -90.5t-236.5 -30q-293 0 -514 106q61 152 96 278q6 21 12 36
l150 -37q27 -6 58 -13t62 -12.5t59 -9.5t49 -4q34 0 65.5 2.5t55.5 11.5t38.5 26t14.5 46q0 35 -33 59t-82.5 43t-108.5 34.5t-110 33.5q-71 22 -132 60t-105.5 90.5t-69.5 119t-25 146.5q0 456 548 456q260 0 484 -108l-110 -306q-97 25 -153.5 39.5t-90.5 21.5t-54 9
t-42 2h-34q-11 0 -18.5 0.5t-14.5 0.5q-45 0 -69 -13.5t-24 -55.5q0 -63 110 -96q271 -63 410.5 -183t139.5 -291z" />
    <glyph glyph-name="scommaaccent" unicode="&#x219;" horiz-adv-x="947" 
d="M308 -640q69 0 107 1t56.5 11t22.5 31.5t4 62.5h-190v382h420l-4 -208q-2 -110 -8 -191.5t-21 -139.5t-42 -94.5t-72.5 -57.5t-112.5 -29t-160 -8v240zM546 786q-122 0 -122 -42q0 -16 9 -28.5t24 -22t33 -15.5t36 -8q79 -12 146.5 -36.5t117 -65.5t78 -100.5
t28.5 -141.5q0 -81 -28.5 -144.5t-79.5 -107.5t-120 -67t-150 -23q-131 0 -239.5 12t-198.5 52l46 236q33 -9 57.5 -16t40.5 -10q15 -3 38 -7.5t49.5 -8.5t53.5 -7t49 -3q102 0 102 48q-3 19 -15.5 33.5t-31.5 25t-43.5 17.5t-51.5 12q-78 15 -137.5 40t-99.5 64.5t-60.5 97
t-20.5 136.5q4 90 38 153.5t92 104t136.5 59t171.5 18.5q97 0 183 -10.5t161 -46.5l-44 -244q-150 46 -248 46z" />
    <glyph glyph-name="uni021A" unicode="&#x21a;" horiz-adv-x="1182" 
d="M381 -608q69 0 107 1t56.5 11t22.5 31.5t4 62.5h-190v382h420l-4 -208q-2 -110 -8 -191.5t-21 -139.5t-42 -94.5t-72.5 -57.5t-112.5 -29t-160 -8v240zM352 1110h-292v298h1062v-298h-292v-1110h-478v1110z" />
    <glyph glyph-name="uni021B" unicode="&#x21b;" horiz-adv-x="890" 
d="M321 -640q69 0 107 1t56.5 11t22.5 31.5t4 62.5h-190v382h420l-4 -208q-2 -110 -8 -191.5t-21 -139.5t-42 -94.5t-72.5 -57.5t-112.5 -29t-160 -8v240zM839 54q-139 -70 -308 -70q-87 0 -155 28.5t-114.5 82t-70.5 129t-24 170.5l2 378h-130v254h162l190 388h208v-388
h236v-254h-236v-348q0 -54 35 -81t95 -27q47 0 94 24z" />
    <glyph glyph-name="dotlessj" unicode="&#x237;" horiz-adv-x="646" 
d="M-29 -110q136 0 136 170v966h432v-966q0 -117 -31.5 -210t-90 -158t-142.5 -99.5t-190 -34.5q-188 0 -350 108l94 254q94 -30 142 -30z" />
    <glyph glyph-name="circumflex" unicode="&#x2c6;" horiz-adv-x="986" 
d="M300 1640h378l252 -510h-340l-78 218l-24 78l-22 -78l-78 -218h-340z" />
    <glyph glyph-name="caron" unicode="&#x2c7;" horiz-adv-x="986" 
d="M48 1640h340l78 -218l22 -80q8 27 21.5 66.5t28.5 81.5t29 82t23 68h340l-252 -510h-378z" />
    <glyph glyph-name="breve" unicode="&#x2d8;" horiz-adv-x="842" 
d="M772 1500q0 -80 -26 -144.5t-72.5 -110t-111 -70.5t-140.5 -25q-78 0 -143 25.5t-111.5 72t-72 111t-25.5 141.5h226q0 -55 35.5 -89.5t90.5 -34.5t86.5 33.5t31.5 90.5h232z" />
    <glyph glyph-name="dotaccent" unicode="&#x2d9;" horiz-adv-x="630" 
d="M86 1372q0 45 19.5 83t51.5 65t73.5 42.5t85.5 15.5q46 0 88 -16.5t73.5 -45t50 -65.5t18.5 -79q0 -47 -19.5 -85t-51.5 -65.5t-73.5 -42.5t-85.5 -15q-48 0 -90 16t-73 44t-49 66t-18 82z" />
    <glyph glyph-name="ring" unicode="&#x2da;" horiz-adv-x="842" 
d="M418 1628q-27 0 -49.5 -9.5t-38.5 -26.5t-25 -40.5t-9 -51.5q0 -57 35.5 -90.5t90.5 -33.5q57 0 87.5 33.5t30.5 90.5t-33.5 92.5t-88.5 35.5zM70 1500q0 81 26.5 146t73.5 111.5t111.5 71.5t140.5 25q83 0 148 -28t110 -76t68.5 -112.5t23.5 -137.5q0 -80 -26 -144.5
t-72.5 -110t-111 -70.5t-140.5 -25q-78 0 -143 25.5t-111.5 72t-72 111t-25.5 141.5z" />
    <glyph glyph-name="ogonek" unicode="&#x2db;" horiz-adv-x="642" 
d="M410 -402q29 0 96 14l2 -76q-106 -44 -198 -44q-47 0 -88 11t-71 33t-47.5 55t-17.5 77q0 36 15.5 69t39.5 63t53 57t56 50l57 48q20 17 34 27t21 18h112q-32 -67 -64 -123t-64 -102l-20 -31q-6 -8 -12 -30t-6 -42q0 -74 102 -74z" />
    <glyph glyph-name="tilde" unicode="&#x2dc;" horiz-adv-x="1112" 
d="M412 1266q-23 0 -40 -9.5t-30 -25t-22 -35t-16 -38.5l-242 98q31 85 70 151t84.5 111.5t95.5 69.5t102 24q31 0 62.5 -10.5t48.5 -18.5l47 -28q2 -2 7 -5t12 -8l43 -25q18 -9 36.5 -14t41.5 -5q70 0 102 92l240 -98q-62 -177 -145.5 -258.5t-188.5 -81.5q-39 0 -69.5 8.5
t-56.5 21t-48 27.5t-43.5 27.5t-43.5 21t-47 8.5z" />
    <glyph glyph-name="hungarumlaut" unicode="&#x2dd;" horiz-adv-x="1302" 
d="M258 2006l400 -118l-300 -670l-244 70zM860 2010l374 -188l-416 -606l-226 112z" />
    <glyph glyph-name="uni030F" unicode="&#x30f;" horiz-adv-x="1302" 
d="M642 1888l402 118l144 -718l-244 -70zM68 1822l374 188l268 -682l-228 -112z" />
    <glyph glyph-name="uni0311" unicode="&#x311;" horiz-adv-x="842" 
d="M548 1182q0 27 -9.5 50.5t-26.5 40t-40 26t-50 9.5t-50 -9.5t-40 -26t-26.5 -40t-9.5 -50.5h-246q0 87 27.5 157t77 119.5t117.5 76.5t150 27q84 0 152.5 -28t117 -78.5t75.5 -120t27 -153.5h-246z" />
    <glyph glyph-name="uni0326" unicode="&#x326;" horiz-adv-x="712" 
d="M184 -613q69 0 107 1t56.5 11t22.5 31.5t4 62.5h-190v382h420l-4 -208q-2 -110 -8 -191.5t-21 -139.5t-42 -94.5t-72.5 -57.5t-112.5 -29t-160 -8v240z" />
    <glyph glyph-name="Delta" unicode="&#x394;" horiz-adv-x="1210" 
d="M421 1376h364l376 -1376h-1110zM799 230l-194 830l-188 -830h382z" />
    <glyph glyph-name="Omega" unicode="&#x3a9;" horiz-adv-x="2451" 
 />
    <glyph glyph-name="Omega" unicode="&#x2126;" horiz-adv-x="2451" 
 />
    <glyph glyph-name="mu" unicode="&#x3bc;" horiz-adv-x="1272" 
d="M755 -32q-111 0 -229 56v-294l-410 -30v1326h422v-682q61 -40 128 -40q26 0 48.5 9.5t39.5 26t26.5 38.5t9.5 48v600h412v-586q0 -102 -34.5 -188.5t-94.5 -149.5t-142 -98.5t-176 -35.5z" />
    <glyph glyph-name="pi" unicode="&#x3c0;" horiz-adv-x="1432" 
d="M240 1026h1078v-1023h-432v849h-212v-474q0 -96 -25 -172t-72 -129t-114.5 -81t-152.5 -28q-147 0 -268 70l22 286q43 -24 84 -24q40 0 66 24.5t26 73.5v10v618z" />
    <glyph glyph-name="endash" unicode="&#x2013;" horiz-adv-x="972" 
d="M97 476h779v-174h-779v174z" />
    <glyph glyph-name="emdash" unicode="&#x2014;" horiz-adv-x="1244" 
d="M97 476h1050v-174h-1050v174z" />
    <glyph glyph-name="quoteleft" unicode="&#x2018;" horiz-adv-x="600" 
d="M504 1200h-69q-39 0 -63 -3t-37 -13.5t-17 -31.5t-4 -58h190v-384h-420q1 19 1 50.5t1 76.5l3 132q3 98 9.5 171t21.5 125.5t42.5 86.5t72.5 53.5t111 27t158 7.5v-240z" />
    <glyph glyph-name="quoteright" unicode="&#x2019;" horiz-adv-x="590" 
d="M100 918q68 0 106.5 1t57.5 11t23.5 31.5t4.5 62.5h-192v384h420l-3 -127q-2 -127 -5.5 -221.5t-16.5 -161.5t-38 -109.5t-71 -67t-115.5 -34t-170.5 -9.5v240z" />
    <glyph glyph-name="quotesinglbase" unicode="&#x201a;" horiz-adv-x="458" 
d="M82 253h296l-58 -508h-196z" />
    <glyph glyph-name="quotedblleft" unicode="&#x201c;" horiz-adv-x="1162" 
d="M504 1200h-69q-39 0 -63 -3t-37 -13.5t-17 -31.5t-4 -58h190v-384h-420q1 19 1 50.5t1 76.5l3 132q3 98 9.5 171t21.5 125.5t42.5 86.5t72.5 53.5t111 27t158 7.5v-240zM1066 1200h-68q-39 0 -63.5 -3t-38 -13.5t-18 -31.5t-4.5 -58h192v-384h-420q1 19 1 50.5t1 76.5
l3 132q2 104 9.5 179t24.5 127.5t46 84.5t74.5 50t109.5 24t151 6v-240z" />
    <glyph glyph-name="quotedblright" unicode="&#x201d;" horiz-adv-x="1152" 
d="M100 918q68 0 106.5 1t57.5 11t23.5 31.5t4.5 62.5h-192v384h420l-3 -127q-2 -127 -5.5 -221.5t-16.5 -161.5t-38 -109.5t-71 -67t-115.5 -34t-170.5 -9.5v240zM662 918q69 0 107 1t56.5 11t22.5 31.5t4 62.5h-190v384h420l-3 -127q-2 -128 -5.5 -222t-16.5 -161
t-38 -110t-71 -67t-115.5 -33.5t-170.5 -9.5v240z" />
    <glyph glyph-name="quotedblbase" unicode="&#x201e;" horiz-adv-x="838" 
d="M466 300h296l-58 -508h-196zM80 300h294l-58 -508h-196z" />
    <glyph glyph-name="dagger" unicode="&#x2020;" horiz-adv-x="720" 
d="M48 1027h246v349h132v-349h246v-126h-246v-901h-132v901h-246v126z" />
    <glyph glyph-name="daggerdbl" unicode="&#x2021;" horiz-adv-x="752" 
d="M64 530h246v371h-246v126h246v349h132v-349h246v-126h-246v-371h246v-124h-246v-406h-132v406h-246v124z" />
    <glyph glyph-name="bullet" unicode="&#x2022;" horiz-adv-x="1036" 
d="M67 530q0 88 33 164t92.5 132t142.5 88t184 32q98 0 180.5 -30.5t142.5 -85.5t93.5 -131.5t33.5 -168.5q0 -99 -36.5 -176.5t-98.5 -130.5t-144 -81t-173 -28q-97 0 -179.5 30.5t-142.5 85.5t-94 131.5t-34 168.5z" />
    <glyph glyph-name="ellipsis" unicode="&#x2026;" horiz-adv-x="1838" 
d="M58 176q0 45 19.5 83t51.5 65t73.5 42.5t85.5 15.5q46 0 88 -16.5t73.5 -45t50 -65.5t18.5 -79q0 -47 -19.5 -85t-51.5 -65.5t-73.5 -42.5t-85.5 -15q-48 0 -90 16t-73 44t-49 66t-18 82zM688 176q0 45 19.5 83t52 65.5t74 42.5t86.5 15q46 0 88 -16.5t73.5 -45t50 -65.5
t18.5 -79q0 -47 -19.5 -85t-51.5 -65.5t-73.5 -42.5t-85.5 -15q-49 0 -91 16t-73.5 44t-49.5 66t-18 82zM1320 176q0 45 19 83t51 65.5t73.5 42.5t86.5 15q46 0 88 -16.5t73.5 -44.5t50 -65.5t18.5 -79.5q0 -47 -19 -85t-51 -65.5t-73.5 -42.5t-86.5 -15q-48 0 -90 16
t-73 44t-49 66t-18 82z" />
    <glyph glyph-name="perthousand" unicode="&#x2030;" horiz-adv-x="2660" 
d="M998 1376h142l-340 -1376h-138zM1396 -32q-89 0 -158 32.5t-116 88t-71.5 127.5t-24.5 152q0 87 27.5 160.5t76.5 127.5t117 84t149 30q88 0 157 -33t117 -88.5t73 -128.5t25 -152q0 -88 -27 -161.5t-76 -126.5t-117.5 -82.5t-151.5 -29.5zM1396 172q31 0 53.5 17
t36.5 44.5t21 63t7 71.5q0 38 -7.5 73t-22.5 62t-37 43t-51 16q-32 0 -54.5 -17.5t-36 -45.5t-19.5 -62.5t-6 -68.5q0 -38 7.5 -73.5t22.5 -62.5t36.5 -43.5t49.5 -16.5zM420 614q-90 0 -159 32.5t-116 88t-71 127.5t-24 152q0 93 29.5 167t80.5 126t119 79.5t146 27.5
q92 0 161 -34.5t115.5 -91t69.5 -128t23 -146.5q0 -89 -27 -162.5t-76.5 -126t-118 -82t-152.5 -29.5zM420 816q33 0 56 18.5t37.5 47t20.5 63.5t6 69q0 37 -7.5 72t-22.5 62t-37.5 43.5t-52.5 16.5t-52 -16.5t-36.5 -43.5t-21 -62t-6.5 -72q0 -39 7.5 -75t22.5 -63
t36.5 -43.5t49.5 -16.5zM2238 -32q-89 0 -158 32.5t-116.5 88t-72.5 127.5t-25 152q0 87 27.5 161t77 127.5t118 83.5t149.5 30q87 0 156 -33t117 -88.5t73.5 -128.5t25.5 -152q0 -88 -27 -161.5t-76 -126.5t-117.5 -82.5t-151.5 -29.5zM2238 172q31 0 53.5 17t36.5 44.5
t21 63t7 71.5q0 38 -7.5 73t-22.5 62t-37 43t-51 16q-31 0 -53 -16.5t-36.5 -43.5t-21.5 -62t-7 -72q0 -39 7.5 -74.5t22.5 -62.5t37 -43t51 -16z" />
    <glyph glyph-name="guilsinglleft" unicode="&#x2039;" horiz-adv-x="577" 
d="M53 810l430 306v-372l-198 -118l198 -124v-374l-430 314v368z" />
    <glyph glyph-name="guilsinglright" unicode="&#x203a;" horiz-adv-x="577" 
d="M94 502l196 124l-196 118v372l430 -306v-368l-430 -314v374z" />
    <glyph glyph-name="fraction" unicode="&#x2044;" horiz-adv-x="562" 
d="M349 1408h204l-340 -1408h-200z" />
    <glyph glyph-name="foursuperior" unicode="&#x2074;" horiz-adv-x="746" 
d="M40 978l302 398h256v-398h94v-156h-94v-172h-246v172h-312v156zM352 978v202l-144 -202h144z" />
    <glyph glyph-name="Euro" unicode="&#x20ac;" horiz-adv-x="1360" 
d="M978 338q35 0 65 3.5t59.5 10.5t60.5 18t69 26l52 -322q-184 -106 -384 -106q-132 0 -247 39t-207.5 108.5t-157.5 166t-96 210.5h-138v122h116q-2 20 -3 40t-1 40q0 36 3 72h-115v126h137q30 115 95.5 211t157.5 165t205 107.5t239 38.5q209 0 398 -108l-54 -318
q-151 56 -266 56q-213 0 -297 -152h297v-126h-336q-2 -17 -3 -34.5t-1 -35.5q0 -45 6 -82h334v-122h-291q88 -154 303 -154z" />
    <glyph glyph-name="trademark" unicode="&#x2122;" horiz-adv-x="1988" 
d="M275 1162h-178v214h674v-214h-178v-548h-318v548zM889 1376h316l176 -306l174 306h314v-762h-314v404l-114 -220h-124l-112 220v-404h-316v762z" />
    <glyph glyph-name="partialdiff" unicode="&#x2202;" horiz-adv-x="2451" 
 />
    <glyph glyph-name="minus" unicode="&#x2212;" horiz-adv-x="1030" 
d="M102 114h826v-114h-826v114z" />
    <glyph glyph-name="radical" unicode="&#x221a;" horiz-adv-x="431" 
 />
    <glyph glyph-name="infinity" unicode="&#x221e;" horiz-adv-x="2451" 
 />
    <glyph glyph-name="integral" unicode="&#x222b;" horiz-adv-x="431" 
 />
    <glyph glyph-name="approxequal" unicode="&#x2248;" horiz-adv-x="1225" 
d="M409 710q-22 0 -38 -9t-28 -23.5t-21.5 -33.5t-18.5 -40l-242 98q29 84 67.5 150t84 111t95.5 69t103 24q47 0 94.5 -11t77.5 -22q56 -22 91 -37t60.5 -24.5t47.5 -13.5t51 -4q42 0 65 25t39 67l238 -98q-57 -171 -139.5 -255.5t-194.5 -84.5q-36 0 -67 4t-59 10.5
t-55 16t-55 20.5l-100 43q-44 18 -96 18zM409 710q-22 0 -38 -9t-28 -23.5t-21.5 -33.5t-18.5 -40l-242 98q29 84 67.5 150t84 111t95.5 69t103 24q47 0 94.5 -11t77.5 -22q56 -22 91 -37t60.5 -24.5t47.5 -13.5t51 -4q42 0 65 25t39 67l238 -98q-57 -171 -139.5 -255.5
t-194.5 -84.5q-36 0 -67 4t-59 10.5t-55 16t-55 20.5l-100 43q-44 18 -96 18z" />
    <glyph glyph-name="notequal" unicode="&#x2260;" horiz-adv-x="760" 
d="M68 442h222l40 152h-262v126h295l81 306h142l-82 -306h188v-126h-222l-40 -152h262v-124h-295l-85 -318h-138l83 318h-189v124z" />
    <glyph glyph-name="lessequal" unicode="&#x2264;" horiz-adv-x="986" 
d="M92 1154l780 428v-308l-608 -304l608 -288v-332l-780 456v348zM68 114h826v-114h-826v114z" />
    <glyph glyph-name="greaterequal" unicode="&#x2265;" horiz-adv-x="986" 
d="M114 682l608 288l-608 304v308l780 -428v-348l-780 -456v332zM90 114h826v-114h-826v114z" />
    <glyph glyph-name="lozenge" unicode="&#x25ca;" horiz-adv-x="1043" 
d="M686 710l-168 526l-184 -526l184 -538zM56 710l258 698h398l276 -698l-302 -710h-372z" />
    <glyph glyph-name="uniF8A0" unicode="&#xf8a0;" horiz-adv-x="0" 
 />
    <glyph glyph-name="fi" unicode="&#xfb01;" horiz-adv-x="1733" 
d="M1716 38q-121 -70 -268 -70q-87 0 -154 29t-113.5 82.5t-70.5 129.5t-24 169v394h-474v-772h-432v772h-128v254h128v110q0 207 92.5 321.5t281.5 114.5q158 0 334 -78l-14 -278q-90 30 -146 30q-116 0 -116 -124v-96h906v-628q0 -49 26 -73.5t66 -24.5t84 24zM1076 1366
q0 45 19.5 82.5t52 65t74.5 43t86 15.5q46 0 88 -16.5t73.5 -45t50 -65.5t18.5 -79q0 -47 -19.5 -85t-51.5 -65.5t-73.5 -42.5t-85.5 -15q-48 0 -90.5 16t-74 44t-49.5 66t-18 82z" />
    <glyph glyph-name="fl" unicode="&#xfb02;" horiz-adv-x="1709" 
d="M826 1246q-214 0 -214 -124v-96h258v-254h-258v-772h-432v772h-128v254h128v110q0 84 26 146t73 106t113 72.5t146 45t172.5 22.5t191.5 6q28 0 53 -1t55 -4.5t69 -10.5t94.5 -17.5t132.5 -26.5t182 -38v-1028q0 -108 98 -108q43 0 88 24l24 -286q-133 -70 -280 -70
q-92 0 -160 31.5t-113 87t-67 130t-22 161.5v850q-135 18 -230 18z" />
    <glyph glyph-name="_1" horiz-adv-x="0" 
 />
    <glyph glyph-name="NULL" horiz-adv-x="0" 
 />
    </font>
</defs>
</svg>
