<?xml version="1.0" standalone="no"?>
<!DOCTYPE svg PUBLIC "-//W3C//DTD SVG 1.1//EN" "http://www.w3.org/Graphics/SVG/1.1/DTD/svg11.dtd" >
<svg xmlns="http://www.w3.org/2000/svg" xmlns:xlink="http://www.w3.org/1999/xlink" version="1.1">
<metadata>
Created by FontForge 20161013 at Tue Jul 26 07:17:12 2011
 By ,,,
Copyright (c) 2011 by Jovanny Lemonad. All rights reserved.
</metadata>
<defs>
<font id="Philosopher" horiz-adv-x="530" >
  <font-face 
    font-family="Philosopher"
    font-weight="400"
    font-stretch="normal"
    units-per-em="1000"
    panose-1="2 0 5 3 0 0 0 2 0 4"
    ascent="800"
    descent="-200"
    x-height="470"
    cap-height="660"
    bbox="-32 -212 977 854"
    underline-thickness="50"
    underline-position="-250"
    unicode-range="U+0020-F406"
  />
<missing-glyph horiz-adv-x="250" 
 />
    <glyph glyph-name=".notdef" horiz-adv-x="250" 
 />
    <glyph glyph-name=".null" horiz-adv-x="0" 
 />
    <glyph glyph-name="nonmarkingreturn" horiz-adv-x="250" 
 />
    <glyph glyph-name="space" unicode=" " horiz-adv-x="250" 
 />
    <glyph glyph-name="exclam" unicode="!" horiz-adv-x="234" 
d="M146 155h-58l-18 505h94zM117 94q22 0 38 -15.5t16 -37.5q0 -23 -16 -39t-38 -16t-38 16t-16 39q0 22 16 37.5t38 15.5z" />
    <glyph glyph-name="quotedbl" unicode="&#x22;" horiz-adv-x="366" 
d="M243 390l-30 270h100l-30 -270h-40zM83 390l-30 270h100l-30 -270h-40z" />
    <glyph glyph-name="numbersign" unicode="#" horiz-adv-x="668" 
d="M126 0l35 175h-130v60h144l36 180h-120v60h133l42 200h65l-42 -200h145l42 200h65l-42 -200h137v-60h-150l-37 -180h127v-60h-140l-35 -175h-65l35 175h-145l-35 -175h-65zM239 235h146l36 180h-145z" />
    <glyph glyph-name="dollar" unicode="$" horiz-adv-x="526" 
d="M236 -80v65q-36 4 -69.5 14t-60 25t-42 35.5t-15.5 45.5v107h18q15 -91 57 -135.5t112 -52.5v270l-70 42q-64 38 -90.5 77t-26.5 95q0 38 13.5 69t38 53t59 34.5t76.5 13.5v57h40v-59q34 -3 66.5 -12.5t58.5 -24.5t42 -35.5t16 -45.5v-107h-18q-15 91 -55.5 134
t-109.5 51v-253l85 -50q32 -19 55.5 -36.5t38.5 -37t22.5 -41.5t7.5 -50q0 -85 -55.5 -135t-153.5 -50v-63h-40zM276 270v-247q24 1 46.5 8t39.5 20t27 31.5t10 42.5q0 44 -27.5 75t-82.5 63zM127 537q0 -22 7 -39t20.5 -32t34 -29t47.5 -30v231q-21 -1 -41 -8.5t-35 -21
t-24 -31.5t-9 -40z" />
    <glyph glyph-name="percent" unicode="%" horiz-adv-x="674" 
d="M72 0l455 660h75l-455 -660h-75zM582 130q0 100 -85 100t-85 -100t85 -100t85 100zM642 130q0 -64 -38.5 -99.5t-106.5 -35.5t-106.5 35.5t-38.5 99.5t38.5 99.5t106.5 35.5t106.5 -35.5t38.5 -99.5zM262 530q0 100 -85 100t-85 -100t85 -100t85 100zM322 530
q0 -64 -38.5 -99.5t-106.5 -35.5t-106.5 35.5t-38.5 99.5t38.5 99.5t106.5 35.5t106.5 -35.5t38.5 -99.5z" />
    <glyph glyph-name="ampersand" unicode="&#x26;" horiz-adv-x="616" 
d="M42 140q0 31 12 56.5t32 48t46 42t53 39.5q-29 25 -52 56q-20 26 -35.5 62.5t-15.5 79.5q0 72 48.5 114t131.5 42q79 0 122 -40t43 -100q0 -35 -12 -63t-32 -51.5t-46.5 -44.5t-55.5 -41l201 -220q21 23 37.5 45t28.5 40q13 21 24 40l20 -15q-9 -20 -22 -42
q-11 -19 -28 -43t-39 -48l89 -97h-110l-40 43q-36 -27 -83 -45t-107 -18q-53 0 -92 12.5t-65.5 34t-39.5 50.5t-13 63zM271 15q46 0 83 14t67 37l-206 225q-34 -29 -56 -62.5t-22 -78.5q0 -135 134 -135zM177 524q0 -30 10.5 -56t23.5 -46t24.5 -32.5t14.5 -14.5
q38 32 65 68.5t27 86.5q0 32 -7.5 54t-19.5 35.5t-26 19.5t-27 6q-15 0 -30 -6t-27.5 -20.5t-20 -37.5t-7.5 -57z" />
    <glyph glyph-name="quotesingle" unicode="'" horiz-adv-x="206" 
d="M83 390l-30 270h100l-30 -270h-40z" />
    <glyph glyph-name="parenleft" unicode="(" horiz-adv-x="309" 
d="M34 240q0 75 16.5 138t48.5 117t78.5 102t106.5 93l10 -15q-49 -43 -81.5 -94t-52 -106.5t-28 -115t-8.5 -119.5t8.5 -119.5t28 -115t52 -106.5t81.5 -94l-10 -15q-60 45 -106.5 93t-78.5 102t-48.5 117t-16.5 138z" />
    <glyph glyph-name="parenright" unicode=")" horiz-adv-x="309" 
d="M275 240q0 -75 -16.5 -138t-48.5 -117t-78.5 -102t-106.5 -93l-10 15q49 43 81.5 94t52 106.5t28 115t8.5 119.5t-8.5 119.5t-28 115t-52 106.5t-81.5 94l10 15q60 -45 106.5 -93t78.5 -102t48.5 -117t16.5 -138z" />
    <glyph glyph-name="asterisk" unicode="*" horiz-adv-x="424" 
d="M172 660h80l-30 -150l115 105l40 -70l-145 -50l145 -50l-40 -70l-115 105l30 -150h-80l30 150l-115 -105l-40 70l145 50l-145 50l40 70l115 -105z" />
    <glyph glyph-name="plus" unicode="+" 
d="M235 300h-200v60h200v200h60v-200h200v-60h-200v-200h-60v200z" />
    <glyph glyph-name="comma" unicode="," horiz-adv-x="237" 
d="M61 -140q38 26 59 58t21 77l-30 -10q-23 0 -39 16t-16 39q0 26 17 43t43 17q30 0 47.5 -18t17.5 -52q0 -64 -28.5 -109.5t-81.5 -75.5z" />
    <glyph glyph-name="hyphen" unicode="-" horiz-adv-x="387" 
d="M66 300h255v-70h-255v70z" />
    <glyph glyph-name="period" unicode="." horiz-adv-x="220" 
d="M110 95q23 0 38.5 -16t15.5 -38q0 -23 -16 -39t-38 -16t-38 16t-16 39q0 22 16 38t38 16z" />
    <glyph glyph-name="slash" unicode="/" horiz-adv-x="440" 
d="M23 0l321 660h73l-321 -660h-73z" />
    <glyph glyph-name="zero" unicode="0" horiz-adv-x="584" 
d="M292 640q-41 0 -68 -19t-43 -57.5t-22.5 -96.5t-6.5 -137t6.5 -137t22.5 -96.5t43 -57.5t68 -19t68 19t43 57.5t22.5 96.5t6.5 137t-6.5 137t-22.5 96.5t-43 57.5t-68 19zM292 680q66 0 111.5 -25t74 -71t41.5 -110.5t13 -143.5t-13 -143.5t-41.5 -110.5t-74 -71
t-111.5 -25t-111.5 25t-74 71t-41.5 110.5t-13 143.5t13 143.5t41.5 110.5t74 71t111.5 25z" />
    <glyph glyph-name="one" unicode="1" horiz-adv-x="305" 
d="M219 0h-90v560l-97 -63l-18 23l155 140h50v-660z" />
    <glyph glyph-name="two" unicode="2" 
d="M336 40q60 0 92.5 26t32.5 79h20v-65q0 -15 -3.5 -29.5t-13 -25.5t-26 -18t-42.5 -7h-355v50q79 77 139.5 134t101.5 106.5t62.5 96.5t21.5 103q0 37 -10.5 65.5t-28.5 47t-41.5 28t-49.5 9.5q-60 0 -105 -43.5t-60 -126.5h-20q0 38 3 72.5t21 57.5q27 33 79 56.5
t112 23.5q30 0 65 -7t65 -28t50 -58t20 -97q0 -64 -29.5 -117.5t-78.5 -105.5t-113.5 -106.5t-133.5 -120.5h225z" />
    <glyph glyph-name="three" unicode="3" 
d="M191 370q26 7 53.5 8.5t36.5 1.5q22 0 57.5 -7.5t69.5 -28.5t58.5 -59t24.5 -100q0 -66 -24.5 -106t-60 -62t-74 -29.5t-66.5 -7.5q-75 0 -129.5 29t-96.5 78l16 18q38 -42 83 -63.5t102 -21.5q30 0 57 9.5t48 30t33 51.5t12 74q0 39 -12 68.5t-30.5 48.5t-42 28.5
t-45.5 9.5q-23 0 -38 -1t-27.5 -3t-25 -4.5t-29.5 -6.5l-26 42l271 253h-185q-60 0 -92.5 -26t-32.5 -79h-20v65q0 15 3.5 29.5t13 25.5t26 18t42.5 7h318v-40z" />
    <glyph glyph-name="four" unicode="4" horiz-adv-x="546" 
d="M428 210h90v-40h-90v-170h-90v170h-320v40l330 450h80v-450zM338 210v354l-260 -354h260z" />
    <glyph glyph-name="five" unicode="5" 
d="M252 380q37 0 79.5 -8t78 -29.5t59 -59.5t23.5 -98q0 -64 -25 -104t-61 -62.5t-76.5 -30.5t-72.5 -8q-75 0 -124.5 28t-90.5 77l19 17q38 -42 82 -62t99 -20q30 0 57 9.5t48 30t33 51.5t12 74q0 79 -42.5 117t-117.5 38q-23 0 -45 -1.5t-40 -3.5l-40 -5l-40 40l10 290
h375v-40h-293l-9 -245q15 1 32 2q14 1 32.5 2t37.5 1z" />
    <glyph glyph-name="six" unicode="6" horiz-adv-x="537" 
d="M147 340q0 -86 10 -147t27.5 -99.5t42.5 -56t55 -17.5q28 0 50.5 15.5t38 41.5t23.5 59t8 69q0 86 -32 135.5t-103 49.5q-38 0 -66 -13.5t-54 -36.5zM52 330q0 174 61 262t189 88q49 0 87 -9.5t68 -20.5l-5 -20q-23 4 -57.5 7t-72.5 3q-45 0 -78 -18t-54.5 -51.5
t-32 -80.5t-10.5 -105q26 19 61.5 32t88.5 13q52 0 90 -16t62.5 -45.5t36 -71t11.5 -92.5q0 -43 -13 -83.5t-40 -72t-67.5 -50.5t-94.5 -19q-120 0 -175 88.5t-55 261.5z" />
    <glyph glyph-name="seven" unicode="7" horiz-adv-x="474" 
d="M211 0h-90l250 620h-200q-60 0 -92.5 -26t-32.5 -79h-20v65q0 15 3.5 29.5t13 25.5t26 18t42.5 7h350v-40z" />
    <glyph glyph-name="eight" unicode="8" horiz-adv-x="554" 
d="M482 520q0 -30 -10.5 -55t-28 -45.5t-40 -36.5t-46.5 -28q28 -17 55 -35t48 -41t34 -52t13 -67q0 -49 -18.5 -83t-50 -55.5t-73 -31.5t-88.5 -10t-88.5 9.5t-73 30.5t-50 53t-18.5 77q0 37 13.5 66t36 51t51.5 38.5t59 29.5q-26 15 -50.5 32t-43.5 37.5t-30 46.5t-11 59
q0 49 16.5 81.5t44.5 52t65.5 28t78.5 8.5t78.5 -8t65.5 -27t44.5 -49.5t16.5 -75.5zM412 140q0 32 -13 57t-35 46t-51 38t-61 34q-22 -11 -42 -24.5t-35 -33t-24 -45.5t-9 -62q0 -34 11 -58.5t30 -40.5t43.5 -23.5t50.5 -7.5t50.5 7.5t43 22.5t30 37.5t11.5 52.5zM167 530
q0 -24 12 -46t32.5 -40.5t46.5 -34.5t54 -29q30 22 52.5 53t22.5 87q0 36 -10 59t-26 36.5t-35.5 19t-38.5 5.5t-38.5 -5t-35.5 -18t-26 -34t-10 -53z" />
    <glyph glyph-name="nine" unicode="9" horiz-adv-x="536" 
d="M389 320q0 86 -10 147t-27.5 99.5t-42.5 56t-55 17.5q-28 0 -50.5 -15.5t-38 -41.5t-23.5 -59t-8 -69q0 -86 32 -135.5t103 -49.5q38 0 66 13.5t54 36.5zM484 330q0 -174 -61 -262t-189 -88q-49 0 -87 9.5t-68 20.5l5 20q23 -4 57.5 -7t72.5 -3q45 0 78 18t54.5 51.5
t32 80.5t10.5 105q-26 -19 -61.5 -32t-88.5 -13t-90.5 16t-62 45.5t-36 71t-11.5 92.5q0 43 13 83.5t40 72t67.5 50.5t94.5 19q120 0 175 -89t55 -261z" />
    <glyph glyph-name="colon" unicode=":" horiz-adv-x="241" 
d="M121 461q23 0 38.5 -16t15.5 -38q0 -23 -15.5 -38.5t-38.5 -15.5q-22 0 -38 15.5t-16 38.5q0 22 16 38t38 16zM120 95q23 0 39 -16t16 -38q0 -23 -16 -39t-39 -16q-22 0 -38 16t-16 39q0 22 16 38t38 16z" />
    <glyph glyph-name="semicolon" unicode=";" horiz-adv-x="258" 
d="M131 461q22 0 38 -15.5t16 -37.5q0 -23 -16 -38.5t-38 -15.5q-23 0 -39 15.5t-16 38.5q0 22 16 37.5t39 15.5zM70 -140q38 30 59.5 60.5t21.5 79.5q-4 -4 -12 -9.5t-23 -5.5q-23 0 -36.5 16t-13.5 39q0 22 17.5 41t47.5 19q26 0 43 -21t17 -59q0 -53 -25 -93t-85 -81z
" />
    <glyph glyph-name="less" unicode="&#x3c;" horiz-adv-x="618" 
d="M133 335l417 -180v-60l-520 225v30l520 225v-60z" />
    <glyph glyph-name="equal" unicode="=" horiz-adv-x="657" 
d="M66 450h525v-60h-525v60zM66 270h525v-60h-525v60z" />
    <glyph glyph-name="greater" unicode="&#x3e;" horiz-adv-x="618" 
d="M68 515v60l520 -225v-30l-520 -225v60l417 180z" />
    <glyph glyph-name="question" unicode="?" horiz-adv-x="478" 
d="M226 96q23 0 39 -16t16 -39q0 -22 -16.5 -38t-38.5 -16q-23 0 -38.5 16t-15.5 38q0 23 15.5 39t38.5 16zM206 156q1 41 12 71.5t26.5 55t33.5 46t33 45t25 51t10 65.5q0 37 -10.5 65.5t-28.5 47t-41.5 28t-49.5 9.5q-60 0 -105.5 -43.5t-60.5 -126.5h-20q0 38 3 72.5
t22 57.5q27 33 79 56.5t112 23.5q30 0 65 -7t65 -28t50 -58t20 -97q0 -42 -14.5 -74t-36.5 -58t-47.5 -48.5t-47.5 -45.5t-37.5 -49t-16.5 -59h-40z" />
    <glyph glyph-name="at" unicode="@" horiz-adv-x="856" 
d="M515 245h-30q-75 0 -117.5 -27.5t-42.5 -72.5q0 -24 8 -42t21 -30t30 -17.5t36 -5.5q37 0 58.5 18.5t36.5 41.5v135zM430 -180q-86 0 -158 28t-123.5 82t-80 134.5t-28.5 185.5t28.5 185.5t80 134.5t123.5 82t158 28t158 -27.5t123.5 -80t80 -129t28.5 -173.5
q0 -60 -11.5 -109t-35.5 -83.5t-60.5 -53.5t-87.5 -19q-42 0 -68 14.5t-37 40.5h-5q-15 -19 -49 -37t-91 -18q-21 0 -46 6.5t-47 22.5t-37 43t-15 68t21 68t56 43t81 22.5t97 6.5h30q0 52 -8 85.5t-22 52t-33.5 25.5t-41.5 7q-42 0 -70.5 -18t-39.5 -67h-45q0 26 3 48.5
t22 41.5q9 9 25.5 16t36.5 11t42.5 6t45.5 2q34 0 65.5 -7.5t56 -30t39 -64t14.5 -108.5v-180q0 -23 12 -41.5t38 -18.5q24 0 47 15.5t40 44.5t27.5 70.5t10.5 94.5q0 90 -25 159t-71 116t-110.5 71t-143.5 24t-143.5 -24.5t-110.5 -73t-71 -122t-25 -170.5q0 -98 25 -171
t71 -121.5t110.5 -73t143.5 -24.5q98 0 174 21.5t136 63.5l20 -30q-60 -42 -140.5 -68.5t-189.5 -26.5z" />
    <glyph glyph-name="A" unicode="A" horiz-adv-x="635" 
d="M662 0q-17 -5 -40 -5q-17 0 -39.5 4t-46 17.5t-46 39.5t-38.5 69l-25 65h-280l-80 -190h-45l280 660h30l220 -535q12 -28 22.5 -47.5t23.5 -31.5t28 -18t36 -8v-20zM162 230h245l-120 290z" />
    <glyph glyph-name="B" unicode="B" horiz-adv-x="622" 
d="M196 315v-266q23 -7 47.5 -10.5t47.5 -3.5q91 0 140.5 36t49.5 104t-48 104t-142 36h-95zM291 355q30 0 58.5 8.5t51 25.5t36.5 42t14 59q0 36 -17 61.5t-43 42t-58 24t-62 7.5q-19 0 -39.5 -3t-35.5 -7v-260h95zM276 660q39 0 86.5 -5.5t88 -24t68 -53t27.5 -92.5
q0 -45 -31 -83.5t-99 -61.5q49 -8 80.5 -22.5t50.5 -35t26.5 -46.5t7.5 -56q0 -56 -25.5 -91.5t-65 -55t-88.5 -26.5t-96 -7h-200v540q0 45 -12.5 72.5t-57.5 27.5h-20v20h260z" />
    <glyph glyph-name="C" unicode="C" horiz-adv-x="665" 
d="M589 450q-19 98 -70.5 144t-134.5 46q-49 0 -92.5 -16.5t-76.5 -54t-52 -98.5t-19 -151q0 -56 13.5 -110t42.5 -96t74.5 -68t109.5 -26q75 0 129 36t96 104l20 -15q-24 -47 -53.5 -78.5t-63.5 -51t-73.5 -27.5t-84.5 -8q-71 0 -128.5 26.5t-98 72.5t-62 108t-21.5 133
q0 75 24.5 140.5t66.5 114.5t98.5 77t120.5 28q83 0 143 -23.5t87 -56.5q19 -23 22 -64t3 -86h-20z" />
    <glyph glyph-name="D" unicode="D" horiz-adv-x="715" 
d="M199 48q59 -13 102 -13q55 0 103 20.5t83 59t55 93t20 122.5q0 66 -19.5 120.5t-54.5 93.5t-83.5 60t-105.5 21q-22 0 -47.5 -4t-52.5 -12v-561zM278 660q99 0 173 -23t122.5 -65t73 -102.5t24.5 -135.5q0 -73 -23.5 -134.5t-69.5 -105.5t-114.5 -69t-159.5 -25h-198v540
q0 45 -12.5 72.5t-57.5 27.5h-20v20h262z" />
    <glyph glyph-name="E" unicode="E" horiz-adv-x="590" 
d="M442 660q26 0 42.5 -7t26 -18t13 -25.5t3.5 -29.5v-75h-20q0 60 -32.5 87.5t-92.5 27.5h-186v-260h270v-40h-270v-280h175q68 0 107.5 25t62.5 85l20 -5l-35 -95q-8 -23 -26.5 -36.5t-48.5 -13.5h-345v540q0 45 -12.5 72.5t-57.5 27.5h-20v20h426z" />
    <glyph glyph-name="F" unicode="F" horiz-adv-x="527" 
d="M415 660q26 0 42.5 -7t26 -18t13 -25.5t3.5 -29.5v-75h-20q0 60 -32.5 87.5t-92.5 27.5h-159v-265h226v-40h-226v-315h-90v540q0 45 -12.5 72.5t-57.5 27.5h-20v20h399z" />
    <glyph glyph-name="G" unicode="G" horiz-adv-x="720" 
d="M384 640q-64 0 -109.5 -26t-74.5 -68t-42.5 -96t-13.5 -110q0 -90 19 -151.5t52 -99t76.5 -53.5t92.5 -16q54 0 90 9.5t65 25.5v174q0 21 4.5 41.5t21.5 37.5t50 27.5t89 10.5v-20q-24 0 -39 -6.5t-23 -19t-10.5 -30t-2.5 -39.5v-188q-54 -33 -113 -48t-132 -15
q-75 0 -137.5 28t-107.5 77t-70 114.5t-25 140.5q0 71 21.5 133t62 108t98 72.5t128.5 26.5q91 0 152 -23.5t88 -56.5q9 -11 14.5 -27.5t7.5 -34.5t2.5 -37t0.5 -36h-20q-19 87 -71.5 131t-143.5 44z" />
    <glyph glyph-name="H" unicode="H" horiz-adv-x="693" 
d="M586 120q0 -45 12.5 -72.5t57.5 -27.5h20v-20h-90q-26 0 -43.5 4.5t-28 18t-14.5 36.5t-4 61v200h-300v-320h-90v540q0 45 -12.5 72.5t-57.5 27.5h-20v20h90q26 0 43.5 -4.5t28 -18t14.5 -37t4 -60.5v-180h300v300h90v-540z" />
    <glyph glyph-name="I" unicode="I" horiz-adv-x="285" 
d="M89 660h90v-540q0 -45 12.5 -72.5t57.5 -27.5h20v-20h-90q-26 0 -43.5 4.5t-28 18t-14.5 36.5t-4 61v540z" />
    <glyph glyph-name="J" unicode="J" horiz-adv-x="261" 
d="M-9 -117q49 0 72 52t23 143v582h90v-582q0 -56 -8.5 -97t-29.5 -67t-57 -38.5t-90 -12.5v20z" />
    <glyph glyph-name="K" unicode="K" horiz-adv-x="677" 
d="M106 660q26 0 43.5 -4.5t28 -18t14.5 -37t4 -60.5v-195l210 210q19 19 36.5 37.5t37 33.5t43 24.5t53.5 9.5h50v-25q-41 0 -72.5 -14.5t-72.5 -55.5l-195 -195l230 -240q41 -43 86.5 -74.5t83.5 -36.5v-19q-11 -4 -26.5 -7t-38.5 -3q-21 0 -43.5 4.5t-49 18t-56.5 36.5
t-66 61l-210 220v-330h-90v540q0 45 -12.5 72.5t-57.5 27.5h-20v20h90z" />
    <glyph glyph-name="L" unicode="L" horiz-adv-x="558" 
d="M196 40h355v-40h-445v540q0 45 -12.5 72.5t-57.5 27.5h-20v20h90q26 0 43.5 -4.5t28 -18t14.5 -37t4 -60.5v-500z" />
    <glyph glyph-name="M" unicode="M" horiz-adv-x="855" 
d="M841 -45q-54 0 -90 12.5t-57 38.5t-29.5 67t-8.5 97v385l-250 -555h-20l-260 565v-565h-40v660h95l240 -520l235 520h90v-490q0 -91 23 -143t72 -52v-20z" />
    <glyph glyph-name="N" unicode="N" horiz-adv-x="685" 
d="M110 540q0 45 -19 72.5t-71 27.5h-10v20h65q49 0 80.5 -16t54.5 -44l350 -435v495h40v-670h-20l-430 535v-525h-40v540z" />
    <glyph glyph-name="O" unicode="O" horiz-adv-x="712" 
d="M566 330q0 71 -14.5 128.5t-41.5 98t-66 62t-88 21.5t-88 -21.5t-66 -62t-41.5 -98t-14.5 -128.5t14.5 -128.5t41.5 -98t66 -62t88 -21.5t88 21.5t66 62t41.5 98t14.5 128.5zM46 330q0 73 21.5 137t62 111.5t98 74.5t128.5 27t128.5 -27t98 -74.5t62 -111.5t21.5 -137
q0 -74 -21.5 -137.5t-62 -111t-98 -74.5t-128.5 -27t-128.5 27t-98 74.5t-62 111t-21.5 137.5z" />
    <glyph glyph-name="P" unicode="P" horiz-adv-x="552" 
d="M271 305q21 0 47.5 8t50.5 27t40.5 49.5t16.5 75.5t-16.5 75.5t-40.5 49.5t-50.5 27t-47.5 8q-19 0 -39.5 -3t-35.5 -7v-300q15 -4 35.5 -7t39.5 -3zM196 0h-90v540q0 45 -12.5 72.5t-57.5 27.5h-20v20h260q32 0 75 -6t82 -26.5t66 -60.5t27 -107q0 -43 -12.5 -73.5
t-32.5 -51.5t-44.5 -34t-49 -19.5t-46 -9t-35.5 -2.5h-110v-270z" />
    <glyph glyph-name="Q" unicode="Q" horiz-adv-x="714" 
d="M47 330q0 73 21.5 137t62 111.5t98 74.5t128.5 27t128.5 -27t98 -74.5t62 -111.5t21.5 -137q0 -62 -15.5 -117.5t-45 -100t-72 -76t-95.5 -45.5q12 -38 38.5 -70t60 -55.5t70.5 -37t69 -13.5v-20q-54 0 -108 9.5t-105.5 32t-101 61t-95.5 95.5q-51 15 -92 46.5t-69.5 76
t-43.5 99t-15 115.5zM567 330q0 71 -14.5 128.5t-41.5 98t-66 62t-88 21.5t-88 -21.5t-66 -62t-41.5 -98t-14.5 -128.5t14.5 -128.5t41.5 -98t66 -62t88 -21.5t88 21.5t66 62t41.5 98t14.5 128.5z" />
    <glyph glyph-name="R" unicode="R" horiz-adv-x="595" 
d="M271 340q21 0 47.5 8t50.5 24.5t40.5 43t16.5 64.5q0 39 -16.5 67t-40.5 45t-50.5 25t-47.5 8q-19 0 -39.5 -3t-35.5 -7v-265q15 -4 35.5 -7t39.5 -3zM266 305h-70v-305h-90v540q0 45 -12.5 72.5t-57.5 27.5h-20v20h260q32 0 75 -5.5t82 -24.5t66 -54.5t27 -95.5
q0 -43 -15 -73t-38.5 -49.5t-52 -30.5t-54.5 -17l105 -175q19 -32 35.5 -53t32.5 -34.5t32 -19.5t35 -8v-20q-8 -4 -24.5 -7t-35.5 -3q-26 0 -48.5 7t-43.5 24t-42.5 45t-45.5 69z" />
    <glyph glyph-name="S" unicode="S" horiz-adv-x="533" 
d="M490 168q0 -42 -14.5 -76t-41.5 -58.5t-65.5 -37.5t-86.5 -13q-41 0 -81.5 8.5t-73 24.5t-53 38.5t-20.5 50.5v107h18q17 -101 66.5 -145t134.5 -44q26 0 49.5 6.5t41.5 19.5t29 32t11 44q0 44 -27.5 75t-82.5 63l-123 73q-64 38 -90.5 77t-26.5 95q0 39 14 70t39.5 53.5
t61 34.5t79.5 12q37 0 75.5 -8t69.5 -23.5t51 -38t20 -50.5v-107h-18q-17 101 -65 144t-133 43q-22 0 -43 -7t-37 -20t-26 -32t-10 -42q0 -22 7 -39t21 -32t35 -29.5t48 -30.5l123 -73q32 -19 55.5 -36.5t38.5 -37t22.5 -41.5t7.5 -50z" />
    <glyph glyph-name="T" unicode="T" horiz-adv-x="583" 
d="M571 660v-40h-225v-620h-90v620h-90q-60 0 -92.5 -27.5t-32.5 -87.5h-20v75q0 15 3.5 29.5t13 25.5t26 18t42.5 7h465z" />
    <glyph glyph-name="U" unicode="U" horiz-adv-x="687" 
d="M99 540q0 45 -12.5 72.5t-57.5 27.5h-20v20h90q26 0 43.5 -4.5t28 -18t14.5 -37t4 -60.5v-285q0 -53 9 -94.5t30 -70.5t54.5 -44.5t83.5 -15.5q57 0 96 15t63 46.5t34 79.5t10 114v375h40v-375q0 -73 -11 -128.5t-39.5 -92.5t-78 -55.5t-126.5 -18.5q-73 0 -122 18.5
t-78.5 55.5t-42 92.5t-12.5 128.5v255z" />
    <glyph glyph-name="V" unicode="V" horiz-adv-x="640" 
d="M350 140q25 58 41.5 95t27 62t17.5 42t14 33.5t15 36.5t21.5 52t33.5 79.5t50 119.5h48l-287 -670h-18l-232 553q-12 28 -22.5 47.5t-23.5 31.5t-28 18t-36 8v20q4 0 15.5 1t18.5 1q18 0 41 -4t46.5 -17t46 -38t40.5 -68z" />
    <glyph glyph-name="W" unicode="W" horiz-adv-x="866" 
d="M78 543q-10 28 -20 47.5t-22.5 31.5t-29 18t-38.5 8v20q4 0 15.5 1t18.5 1q21 0 44.5 -3.5t46.5 -16.5t44 -38.5t36 -68.5l134 -386l107 317l-24 69q-10 28 -20 47.5t-22.5 31.5t-29 18t-38.5 8v20q4 0 15.5 1t18.5 1q21 0 44.5 -3.5t46.5 -16.5t44 -38.5t36 -68.5
l134 -386l171 503h43l-229 -670h-20l-148 421l-144 -421h-20z" />
    <glyph glyph-name="X" unicode="X" horiz-adv-x="667" 
d="M91 0h-50l250 325l-140 205q-13 19 -27 37.5t-32 34t-42.5 26t-58.5 12.5v20h120q24 0 44.5 -10t37.5 -26t31 -35.5t27 -38.5l100 -150l200 260h50l-225 -295l160 -235q13 -19 28 -37.5t33 -34t39 -26t45 -12.5v-20h-105q-24 0 -44.5 10t-37.5 26t-31.5 35.5t-26.5 38.5
l-120 180z" />
    <glyph glyph-name="Y" unicode="Y" horiz-adv-x="628" 
d="M360 325l209 335h45l-234 -380v-280h-90v273l-170 257q-15 22 -29.5 41.5t-31.5 34t-37.5 23.5t-46.5 11v20h90q28 0 50 -9.5t40 -25t32.5 -35t27.5 -40.5z" />
    <glyph glyph-name="Z" unicode="Z" horiz-adv-x="591" 
d="M574 660l-425 -620h410v-40h-535v20l415 600h-240q-60 0 -92.5 -27.5t-32.5 -87.5h-20v75q0 15 3.5 29.5t13 25.5t26 18t42.5 7h435z" />
    <glyph glyph-name="bracketleft" unicode="[" horiz-adv-x="316" 
d="M290 -200h-215v880h215v-40h-135v-800h135v-40z" />
    <glyph glyph-name="backslash" unicode="\" horiz-adv-x="440" 
d="M344 0l-321 660h73l321 -660h-73z" />
    <glyph glyph-name="bracketright" unicode="]" horiz-adv-x="316" 
d="M26 -160h135v800h-135v40h215v-880h-215v40z" />
    <glyph glyph-name="asciicircum" unicode="^" horiz-adv-x="490" 
d="M235 680h20l215 -350h-67l-158 257l-158 -257h-67z" />
    <glyph glyph-name="underscore" unicode="_" horiz-adv-x="432" 
d="M416 -60h-400v60h400v-60z" />
    <glyph glyph-name="grave" unicode="`" horiz-adv-x="200" 
d="M20 680h100l60 -200h-50z" />
    <glyph glyph-name="a" unicode="a" horiz-adv-x="481" 
d="M324 230h-30q-75 0 -117.5 -27.5t-42.5 -72.5q0 -24 8 -42t21 -30t30 -17.5t36 -5.5q37 0 58.5 18.5t36.5 41.5v135zM364 0l-35 45h-5q-15 -19 -49 -37t-91 -18q-21 0 -46 6.5t-47 22.5t-37 43t-15 68t21 68t56 43t81 22.5t97 6.5h30q0 52 -8 85.5t-22 52t-33.5 25.5
t-41.5 7q-42 0 -70.5 -18t-39.5 -67h-45q0 26 3 48.5t22 41.5q9 9 25.5 16t36.5 11t42.5 6t45.5 2q34 0 65.5 -7.5t56 -30t39 -64t14.5 -108.5v-270h-50z" />
    <glyph glyph-name="b" unicode="b" horiz-adv-x="523" 
d="M162 90q15 -23 39.5 -41.5t65.5 -18.5q30 0 51.5 16t36 43.5t21 65t6.5 80.5t-7 80.5t-22 65t-38.5 43.5t-57.5 16q-23 0 -47.5 -9.5t-47.5 -20.5v-320zM72 540q0 45 -12.5 72.5t-57.5 27.5h-20v20h90q26 0 43.5 -4.5t28 -18t14.5 -37t4 -60.5v-90q23 11 53 20.5t72 9.5
q49 0 84.5 -19.5t59 -52.5t35 -77.5t11.5 -95.5t-11.5 -95.5t-34 -77.5t-56 -52.5t-78.5 -19.5q-56 0 -88 18t-47 37h-5l-35 -45h-50v540z" />
    <glyph glyph-name="c" unicode="c" horiz-adv-x="483" 
d="M265 480q53 0 89.5 -8t55.5 -27q9 -9 14.5 -20t7.5 -26t2.5 -35.5t0.5 -48.5h-20q-4 64 -40.5 94.5t-89.5 30.5q-38 0 -65 -16t-45 -43.5t-26.5 -65t-8.5 -80.5t8.5 -80.5t26.5 -65t45 -43.5t65 -16q53 0 86 21t59 59l20 -15q-34 -57 -79.5 -81t-105.5 -24
q-56 0 -97.5 19.5t-68.5 52.5t-40.5 77.5t-13.5 95.5t13.5 95.5t40.5 77.5t68.5 52.5t97.5 19.5z" />
    <glyph glyph-name="d" unicode="d" horiz-adv-x="524" 
d="M362 410q-23 11 -47.5 20.5t-47.5 9.5q-34 0 -57.5 -16t-38.5 -43.5t-22 -65t-7 -80.5t6.5 -80.5t21 -65t36 -43.5t51.5 -16q22 0 38.5 5t29 13.5t21 19.5t16.5 22v320zM452 0h-50l-35 45h-5q-8 -9 -18.5 -19t-26.5 -18t-38 -13t-52 -5q-45 0 -79 19.5t-56.5 52.5
t-33.5 77.5t-11 95.5t11.5 95.5t35 77.5t59 52.5t84.5 19.5q42 0 72 -9.5t53 -20.5v90q0 45 -12.5 72.5t-57.5 27.5h-20v20h90q26 0 43.5 -4.5t28 -18t14.5 -37t4 -60.5v-540z" />
    <glyph glyph-name="e" unicode="e" horiz-adv-x="488" 
d="M443 220h-303q0 -41 9 -76t26.5 -60.5t42.5 -39.5t57 -14q49 0 81.5 21t58.5 59l20 -15q-34 -57 -78.5 -81t-101.5 -24q-53 0 -92 19.5t-65.5 52.5t-39.5 77.5t-13 95.5t13.5 95.5t39.5 77.5t63 52.5t84 19.5q102 0 151 -57t49 -163zM350 260q0 87 -26 133.5t-79 46.5
q-23 0 -42 -13.5t-33 -37.5t-22 -57t-8 -72h210z" />
    <glyph glyph-name="f" unicode="f" horiz-adv-x="337" 
d="M261 630q-17 0 -31.5 -6.5t-25.5 -21.5t-17 -40t-6 -62v-30h140v-40h-140v-430h-90v430h-70v40h70v30q0 52 15.5 85.5t40 52t56 25.5t63.5 7q62 0 85 -15q11 -8 19 -19t16 -26l-30 -25q-30 45 -95 45z" />
    <glyph glyph-name="g" unicode="g" horiz-adv-x="492" 
d="M56 330q0 43 15 72t40.5 46t60.5 24.5t74 7.5h185v-25l-65 -10v-5q30 -15 50 -43.5t20 -66.5q0 -43 -15 -72t-40.5 -46t-60.5 -24.5t-74 -7.5q-105 0 -105 -35t105 -35q45 0 85 -9t70 -27.5t47.5 -48t17.5 -70.5q0 -43 -17 -72.5t-46.5 -48t-69.5 -26.5t-87 -8t-87 8
t-69.5 26.5t-46.5 48t-17 72.5q0 49 32.5 82t77.5 48q-15 8 -27.5 22.5t-12.5 37.5t12 35t23 20q-30 15 -52.5 48t-22.5 82zM201 75q-38 -15 -61.5 -43t-23.5 -77q0 -60 36.5 -87.5t93.5 -27.5t93.5 27.5t36.5 87.5q0 100 -120 115zM346 330q0 60 -29 87.5t-71 27.5
q-21 0 -39 -6t-31.5 -19.5t-21.5 -35.5t-8 -54t8 -54t21.5 -35.5t31.5 -19.5t39 -6t39 6t31.5 19.5t21.5 35.5t8 54z" />
    <glyph glyph-name="h" unicode="h" horiz-adv-x="529" 
d="M162 430q19 19 52 34.5t78 15.5q32 0 62.5 -7.5t54.5 -28t38.5 -55.5t14.5 -89v-300h-90v300q0 37 -9.5 63t-25 42t-35 23t-40.5 7q-30 0 -55.5 -16t-44.5 -37v-382h-90v540q0 45 -12.5 72.5t-57.5 27.5h-20v20h90q26 0 43.5 -4.5t28 -18t14.5 -37t4 -60.5v-110z" />
    <glyph glyph-name="i" unicode="i" horiz-adv-x="246" 
d="M177 0h-90v350q0 45 -12.5 72.5t-57.5 27.5h-20v20h90q26 0 43.5 -4.5t28 -18t14.5 -37t4 -60.5v-350zM171 575q0 -21 -12.5 -33t-33.5 -12q-23 0 -39.5 19t-16.5 45q0 21 12.5 33t33.5 12q23 0 39.5 -19t16.5 -45z" />
    <glyph glyph-name="j" unicode="j" horiz-adv-x="246" 
d="M87 350q0 45 -12.5 72.5t-57.5 27.5h-20v20h90q26 0 43.5 -4.5t28 -18t14.5 -37t4 -60.5v-325q0 -56 -8.5 -97t-29.5 -67t-57 -38.5t-90 -12.5v20q49 0 72 52t23 143v325zM171 575q0 -21 -12.5 -33t-33.5 -12q-23 0 -39.5 19t-16.5 45q0 21 12.5 33t33.5 12
q23 0 39.5 -19t16.5 -45z" />
    <glyph glyph-name="k" unicode="k" horiz-adv-x="485" 
d="M162 245l125 160q23 29 52 47t78 18h30v-25q-26 0 -51 -11t-44 -34l-110 -140l125 -160q29 -38 54.5 -57t55.5 -24v-19q-8 -4 -21.5 -7t-28.5 -3q-38 0 -74.5 17.5t-70.5 62.5l-120 160v-230h-90v540q0 45 -12.5 72.5t-57.5 27.5h-20v20h90q26 0 43.5 -4.5t28 -18
t14.5 -37t4 -60.5v-295z" />
    <glyph glyph-name="l" unicode="l" horiz-adv-x="242" 
d="M166 0h-90v540q0 45 -12.5 72.5t-57.5 27.5h-20v20h90q26 0 43.5 -4.5t28 -18t14.5 -37t4 -60.5v-540z" />
    <glyph glyph-name="m" unicode="m" horiz-adv-x="785" 
d="M177 430q19 19 52 34.5t78 15.5q38 0 69.5 -14t50.5 -56q26 34 67 52t83 18q28 0 53.5 -7.5t44.5 -28t30.5 -55.5t11.5 -89v-300h-90v300q0 75 -21 105t-59 30q-15 0 -30.5 -6t-29.5 -15.5t-26 -21t-19 -22.5q4 -11 4.5 -33t0.5 -37v-300h-90v300q0 75 -21 105t-59 30
q-30 0 -55.5 -16t-44.5 -37v-382h-90v350q0 45 -12.5 72.5t-57.5 27.5h-20v20h90q38 0 57.5 -10.5t27.5 -29.5h5z" />
    <glyph glyph-name="n" unicode="n" horiz-adv-x="544" 
d="M87 350q0 45 -12.5 72.5t-57.5 27.5h-20v20h90q38 0 57.5 -10.5t27.5 -29.5h5q19 19 52 34.5t78 15.5q32 0 62.5 -7.5t54.5 -28t38.5 -55.5t14.5 -89v-300h-90v300q0 37 -9.5 63t-25 42t-35 23t-40.5 7q-30 0 -55.5 -16t-44.5 -37v-382h-90v350z" />
    <glyph glyph-name="o" unicode="o" 
d="M390 235q0 43 -9 80.5t-25.5 65t-39.5 43.5t-51 16t-51 -16t-39.5 -43.5t-25.5 -65t-9 -80.5t9 -80.5t25.5 -65t39.5 -43.5t51 -16t51 16t39.5 43.5t25.5 65t9 80.5zM45 235q0 51 14.5 95.5t43 77.5t69 52.5t93.5 19.5q52 0 93 -19.5t69.5 -52.5t43 -77.5t14.5 -95.5
t-14.5 -95.5t-43 -77.5t-69.5 -52.5t-93 -19.5q-53 0 -93.5 19.5t-69 52.5t-43 77.5t-14.5 95.5z" />
    <glyph glyph-name="p" unicode="p" horiz-adv-x="538" 
d="M177 60q23 -11 47.5 -20.5t47.5 -9.5q34 0 57.5 16t38.5 43.5t22 65t7 80.5t-6.5 80.5t-21 65t-36 43.5t-51.5 16q-21 0 -37 -5t-28.5 -13.5t-22.5 -19.5t-17 -22v-320zM87 350q0 45 -12.5 72.5t-57.5 27.5h-20v20h90q38 0 57.5 -11t27.5 -34h5q15 19 47 37t88 18
q45 0 78.5 -19.5t56 -52.5t34 -77.5t11.5 -95.5t-11.5 -95.5t-35 -77.5t-59 -52.5t-84.5 -19.5q-42 0 -72 9.5t-53 20.5v-210h-90v540z" />
    <glyph glyph-name="q" unicode="q" horiz-adv-x="524" 
d="M362 380q-8 11 -17.5 22t-22 19.5t-28.5 13.5t-37 5q-30 0 -51.5 -16t-36 -43.5t-21 -65t-6.5 -80.5t7 -80.5t22 -65t38.5 -43.5t57.5 -16q23 0 47.5 9.5t47.5 20.5v320zM362 20q-23 -11 -53 -20.5t-72 -9.5q-49 0 -84.5 19.5t-59 52.5t-35 77.5t-11.5 95.5t11 95.5
t33.5 77.5t56.5 52.5t79 19.5q56 0 88 -18t47 -37h5l35 45h50v-660h-90v210z" />
    <glyph glyph-name="r" unicode="r" horiz-adv-x="397" 
d="M80 350q0 45 -12.5 72.5t-57.5 27.5h-10v20h80q38 0 57.5 -11t27.5 -34h5q15 19 45 37t75 18q15 0 32 -3.5t28 -11.5t19 -19t16 -26l-40 -30q-11 15 -32.5 22.5t-47.5 7.5q-30 0 -55 -13.5t-40 -36.5v-370h-90v350z" />
    <glyph glyph-name="s" unicode="s" horiz-adv-x="446" 
d="M404 120q0 -32 -13.5 -56t-36.5 -40.5t-55.5 -25t-69.5 -8.5q-60 0 -98 10.5t-57 29.5t-22 43t-3 62h20q8 -49 42 -77t98 -28q57 0 83.5 20t26.5 50t-22.5 50.5t-67.5 39.5l-60 25q-57 23 -88.5 54.5t-31.5 80.5q0 32 12.5 56t34.5 40.5t52 25t66 8.5q57 0 94 -10.5
t56 -29.5t22 -43t3 -62h-20q-8 49 -41.5 77t-93.5 28q-49 0 -74.5 -20t-25.5 -50q0 -26 21 -47.5t59 -37.5l60 -25q64 -26 97 -57t33 -83z" />
    <glyph glyph-name="t" unicode="t" horiz-adv-x="338" 
d="M91 430h-70v40h70v90l50 60h40v-150h120v-40h-120v-310q0 -90 70 -90q26 0 43 6t32 14l10 -20q-8 -6 -18.5 -13t-25.5 -13t-35 -10t-46 -4q-53 0 -86.5 31t-33.5 99v310z" />
    <glyph glyph-name="u" unicode="u" horiz-adv-x="535" 
d="M463 0h-50l-35 40h-5q-19 -19 -52 -34.5t-78 -15.5q-32 0 -62.5 7.5t-54.5 28t-38.5 55.5t-14.5 89v180q0 45 -12.5 72.5t-57.5 27.5h-10v20h80q26 0 43.5 -4.5t28 -18t14.5 -37t4 -60.5v-180q0 -38 9.5 -63.5t25 -41.5t35 -23t40.5 -7q30 0 55.5 16t44.5 37v382h90v-470
z" />
    <glyph glyph-name="v" unicode="v" horiz-adv-x="497" 
d="M289 140l140 330h50l-205 -480h-20l-155 365q-12 28 -23 47t-23 31t-26 18t-32 7v20q4 0 15.5 1t18.5 1q22 0 45.5 -5t45.5 -18.5t42 -38t37 -63.5z" />
    <glyph glyph-name="w" unicode="w" horiz-adv-x="749" 
d="M550 145l130 325h50l-195 -480h-20l-125 310l-125 -310h-20l-145 365q-23 56 -45.5 78.5t-59.5 24.5v20q4 0 16 1t19 1q24 0 47.5 -5.5t44.5 -19.5t39.5 -38.5t33.5 -61.5l85 -210l85 215q-23 52 -44.5 74t-55.5 24v20q4 0 16 1t19 1q24 0 47.5 -5.5t44.5 -19.5
t39.5 -38.5t33.5 -61.5z" />
    <glyph glyph-name="x" unicode="x" horiz-adv-x="488" 
d="M218 185l-130 -185h-50l160 225l-87 145q-42 72 -103 80v20h85q34 0 62.5 -21.5t50.5 -58.5l62 -105l130 185h50l-160 -225l87 -145q42 -73 108 -80v-20h-90q-34 0 -62.5 21.5t-50.5 58.5z" />
    <glyph glyph-name="y" unicode="y" horiz-adv-x="514" 
d="M260 -10l-160 390q-15 38 -43.5 57t-66.5 23v20h85q45 0 74.5 -21t45.5 -59l114 -277l126 347h50l-195 -535q-15 -41 -31.5 -67.5t-35 -41.5t-40.5 -20.5t-48 -5.5h-30v30q22 0 42 4.5t36.5 16t30.5 32t26 52.5z" />
    <glyph glyph-name="z" unicode="z" horiz-adv-x="466" 
d="M434 470l-270 -430h270v-40h-390v19l260 411h-115q-64 0 -94.5 -24t-30.5 -66h-20v50q0 15 3.5 29.5t13 25.5t26 18t42.5 7h305z" />
    <glyph glyph-name="braceleft" unicode="{" horiz-adv-x="304" 
d="M11 255q28 4 47 14.5t31 26t17 34.5t5 40v140q0 67 37.5 112t127.5 68v-30q-26 -8 -42.5 -17.5t-26 -22.5t-13 -30.5t-3.5 -39.5v-170q0 -60 -26 -92.5t-79 -47.5q53 -15 79 -47.5t26 -92.5v-170q0 -23 3.5 -40t13 -30t26 -23t42.5 -17v-30q-90 22 -127.5 67t-37.5 113
v140q0 21 -5 40t-17 34.5t-31 26t-47 14.5v30z" />
    <glyph glyph-name="bar" unicode="|" horiz-adv-x="240" 
d="M165 680v-870h-90v870h90z" />
    <glyph glyph-name="braceright" unicode="}" horiz-adv-x="304" 
d="M293 225q-28 -4 -47 -14.5t-31 -26t-17 -34.5t-5 -40v-140q0 -68 -37.5 -113t-127.5 -67v30q26 7 42.5 17t26 23t13 30t3.5 40v170q0 60 26 92.5t79 47.5q-53 15 -79 47.5t-26 92.5v170q0 22 -3.5 39.5t-13 30.5t-26 22.5t-42.5 17.5v30q90 -23 127.5 -68t37.5 -112v-140
q0 -21 5 -40t17 -34.5t31 -26t47 -14.5v-30z" />
    <glyph glyph-name="asciitilde" unicode="~" horiz-adv-x="629" 
d="M450 180q-38 0 -73.5 12.5t-69 27.5t-65.5 27.5t-62 12.5q-38 0 -59 -20t-21 -50h-40q0 37 10.5 64t27 43.5t38 24.5t44.5 8q37 0 73 -12.5t69.5 -27.5t65.5 -27.5t62 -12.5q38 0 59 20t21 50h40q0 -38 -10.5 -64.5t-27 -43t-38.5 -24.5t-44 -8z" />
    <glyph glyph-name="uni00A0" unicode="&#xa0;" horiz-adv-x="250" 
 />
    <glyph glyph-name="exclamdown" unicode="&#xa1;" horiz-adv-x="220" 
d="M157 -194h-94l18 505h58zM110 372q-22 0 -38 15.5t-16 37.5q0 23 16 39t38 16t38 -16t16 -39q0 -22 -16 -37.5t-38 -15.5z" />
    <glyph glyph-name="cent" unicode="&#xa2;" horiz-adv-x="483" 
d="M280 520v-40q42 0 75 -9t50 -26q9 -9 14.5 -20t7.5 -26t2.5 -35.5t0.5 -48.5h-20q-4 64 -40.5 94.5t-89.5 30.5v-410q53 0 86 21t59 59l20 -15q-31 -52 -71.5 -76.5t-93.5 -28.5v-40h-40v40q-51 4 -88.5 24.5t-62 53.5t-37 76t-12.5 91t12.5 91t37 76t62 53.5t88.5 24.5
v40h40zM135 235q0 -37 6.5 -70t19.5 -59.5t33 -45t46 -25.5v400q-26 -8 -46 -26t-33 -44.5t-19.5 -59.5t-6.5 -70z" />
    <glyph glyph-name="sterling" unicode="&#xa3;" horiz-adv-x="528" 
d="M117 460q0 67 14.5 108.5t39 64t56 30t65.5 7.5q22 0 45 -2t43 -6t36.5 -11t25.5 -16q19 -19 22 -41.5t3 -48.5h-45q-11 49 -39.5 67t-70.5 18q-23 0 -42 -7t-33 -25.5t-22 -52t-8 -85.5v-100h140v-40h-140v-100q0 -72 -14.5 -114.5t-40.5 -65.5h185q60 0 92.5 27.5
t32.5 87.5h20v-75q0 -15 -3.5 -29.5t-13 -25.5t-26 -18t-42.5 -7h-365v25q21 6 36.5 18.5t26.5 35.5t16.5 57.5t5.5 83.5v100h-70v40h70v100z" />
    <glyph glyph-name="currency" unicode="&#xa4;" horiz-adv-x="576" 
d="M294 330q31 1 58.5 10t47.5 27t32 46t12 67q0 37 -12.5 64.5t-33.5 45.5t-49 26.5t-60 8.5q-19 0 -39.5 -3t-35.5 -7v-285h80zM474 200h-260v-200h-90v200h-60v40h60v50h-60v40h60v210q0 45 -12.5 72.5t-57.5 27.5h-20v20h260q49 0 94 -9t79.5 -30t55.5 -55.5t21 -85.5
q0 -54 -21 -90.5t-55.5 -58.5t-79.5 -31.5t-94 -9.5h-80v-50h260v-40z" />
    <glyph glyph-name="yen" unicode="&#xa5;" horiz-adv-x="687" 
d="M409 325l209 335h45l-234 -380v-15h95v-40h-95v-40h95v-40h-95v-145h-90v145h-95v40h95v40h-95v40h95v8l-170 257q-15 22 -29.5 41.5t-31.5 34t-37.5 23.5t-46.5 11v20h90q28 0 50 -9.5t40 -25t32.5 -35t27.5 -40.5z" />
    <glyph glyph-name="brokenbar" unicode="&#xa6;" horiz-adv-x="246" 
d="M168 680v-350h-90v350h90zM168 160v-350h-90v350h90z" />
    <glyph glyph-name="section" unicode="&#xa7;" horiz-adv-x="432" 
d="M151 540q0 -35 17 -59.5t42.5 -44.5t55.5 -38t55.5 -39t42.5 -48t17 -66q0 -58 -28 -92t-78 -53q38 -26 64.5 -62t26.5 -88q0 -39 -12.5 -67.5t-33.5 -47t-49 -27t-60 -8.5q-42 0 -76.5 10.5t-53.5 29.5t-22 43t-3 62h20q8 -49 35.5 -77t69.5 -28q45 0 72.5 22.5
t27.5 67.5q0 35 -17 59.5t-42.5 44.5t-55.5 38t-55.5 39t-42.5 48t-17 66q0 57 28 91.5t77 53.5q-38 25 -64 61.5t-26 88.5q0 39 12.5 67.5t33.5 47t49 27t60 8.5q42 0 76.5 -10.5t53.5 -29.5t22 -43t3 -62h-20q-8 49 -35.5 77t-69.5 28q-45 0 -72.5 -22.5t-27.5 -67.5z
M195 347q-29 -9 -49 -29.5t-20 -62.5t30.5 -73t80.5 -59q29 9 49 29.5t20 62.5t-30.5 73t-80.5 59z" />
    <glyph glyph-name="dieresis" unicode="&#xa8;" horiz-adv-x="310" 
d="M290 740q0 -23 -13.5 -36.5t-36.5 -13.5t-36.5 13.5t-13.5 36.5t13.5 36.5t36.5 13.5t36.5 -13.5t13.5 -36.5zM120 740q0 -23 -13.5 -36.5t-36.5 -13.5t-36.5 13.5t-13.5 36.5t13.5 36.5t36.5 13.5t36.5 -13.5t13.5 -36.5z" />
    <glyph glyph-name="copyright" unicode="&#xa9;" horiz-adv-x="790" 
d="M395 685q77 0 142 -26.5t112.5 -74t74 -112.5t26.5 -142t-26.5 -142t-74 -112.5t-112.5 -74t-142 -26.5t-142 26.5t-112.5 74t-74 112.5t-26.5 142t26.5 142t74 112.5t112.5 74t142 26.5zM395 15q69 0 127 23t100 65t65 100t23 127t-23 127t-65 100t-100 65t-127 23
t-127 -23t-100 -65t-65 -100t-23 -127t23 -127t65 -100t100 -65t127 -23zM548 412q-12 64 -45.5 94t-87.5 30q-32 0 -60 -10.5t-49.5 -35t-34 -64.5t-12.5 -99q0 -37 9 -72t28 -62.5t48.5 -44t70.5 -16.5q49 0 84 23t62 68l13 -10q-32 -61 -76 -84.5t-103 -23.5
q-46 0 -83 17t-63 47t-40 70.5t-14 87.5q0 49 16 92t43 74.5t63.5 50t77.5 18.5q54 0 93 -15.5t56 -36.5q13 -15 15 -42t2 -56h-13z" />
    <glyph glyph-name="ordfeminine" unicode="&#xaa;" horiz-adv-x="321" 
d="M205 525h-16q-41 0 -63.5 -17t-22.5 -42q0 -26 13 -37t33 -11t34 11.5t22 23.5v72zM227 401l-19 25h-3q-8 -11 -26.5 -20.5t-48.5 -9.5q-11 0 -25 2.5t-26 10t-20 21.5t-8 36t11.5 37.5t30.5 25.5t44 14t52 4h16q0 28 -4.5 46t-12 28t-17.5 13.5t-22 3.5q-23 0 -38 -9.5
t-21 -35.5h-25q0 14 1.5 25.5t12.5 22.5q10 11 33 15t47 4q18 0 36 -4t31.5 -16t22 -34.5t8.5 -58.5v-146h-30z" />
    <glyph glyph-name="guillemotleft" unicode="&#xab;" horiz-adv-x="372" 
d="M275 370h40l-60 -145l60 -145h-40l-100 145zM135 225l95 -195h-40l-155 195l155 195h40z" />
    <glyph glyph-name="logicalnot" unicode="&#xac;" horiz-adv-x="654" 
d="M528 230h-460v60h520v-160h-60v100z" />
    <glyph glyph-name="uni00AD" unicode="&#xad;" horiz-adv-x="387" 
d="M66 300h255v-70h-255v70z" />
    <glyph glyph-name="registered" unicode="&#xae;" horiz-adv-x="790" 
d="M395 685q77 0 142 -26.5t112.5 -74t74 -112.5t26.5 -142t-26.5 -142t-74 -112.5t-112.5 -74t-142 -26.5t-142 26.5t-112.5 74t-74 112.5t-26.5 142t26.5 142t74 112.5t112.5 74t142 26.5zM395 15q69 0 127 23t100 65t65 100t23 127t-23 127t-65 100t-100 65t-127 23
t-127 -23t-100 -65t-65 -100t-23 -127t23 -127t65 -100t100 -65t127 -23zM376 345q13 0 30.5 5t33 16.5t26 29t10.5 42.5t-10.5 42.5t-26 28.5t-33 16t-30.5 5q-12 0 -25.5 -2.5t-23.5 -4.5v-171q10 -2 23.5 -4.5t25.5 -2.5zM375 323h-48v-198h-58v349q0 29 -8 47t-37 18
h-13v13h168q21 0 48.5 -3.5t53 -16t43 -36t17.5 -62.5q0 -27 -9.5 -46t-24.5 -31.5t-33.5 -19.5t-35.5 -10l72 -116q25 -40 43 -55.5t42 -18.5v-12q-11 -7 -42 -7q-16 0 -29 4.5t-26 15.5t-26.5 29t-29.5 44z" />
    <glyph glyph-name="macron" unicode="&#xaf;" horiz-adv-x="250" 
 />
    <glyph glyph-name="degree" unicode="&#xb0;" horiz-adv-x="412" 
d="M206 625q-21 0 -39 -8t-31.5 -22t-21.5 -33.5t-8 -41.5q0 -23 8 -42t21.5 -33t31.5 -22t39 -8t39 8t31.5 22t21.5 33t8 42q0 22 -8 41.5t-21.5 33.5t-31.5 22t-39 8zM206 680q34 0 63 -12.5t50.5 -34t34 -50.5t12.5 -63t-12.5 -63t-34 -50.5t-50.5 -34t-63 -12.5
t-63 12.5t-50.5 34t-34 50.5t-12.5 63t12.5 63t34 50.5t50.5 34t63 12.5z" />
    <glyph glyph-name="plusminus" unicode="&#xb1;" horiz-adv-x="574" 
d="M57 60v60h200v180h-200v60h200v200h60v-200h200v-60h-200v-180h200v-60h-460z" />
    <glyph glyph-name="twosuperior" unicode="&#xb2;" horiz-adv-x="321" 
d="M192 399q28 0 42.5 10t14.5 34h12v-30q0 -14 -7.5 -25t-31.5 -11h-161v23q36 35 63 61.5t45 49t27 44t9 47.5q0 35 -16 50t-39 15q-28 0 -47 -18t-26 -56h-12q0 17 1.5 33t9.5 27q13 15 36.5 25.5t50.5 10.5q14 0 30.5 -3t30.5 -12.5t23.5 -26.5t9.5 -45
q0 -29 -12.5 -53.5t-34 -47.5t-50 -47.5t-59.5 -54.5h91z" />
    <glyph glyph-name="threesuperior" unicode="&#xb3;" horiz-adv-x="311" 
d="M121 547q12 3 24 3.5t17 0.5q15 0 33 -4.5t33 -14.5t25 -27.5t10 -42.5q0 -30 -12 -49t-29.5 -29t-37 -13.5t-33.5 -3.5q-35 0 -57 13t-41 36l10 9q33 -36 84 -36q27 0 45.5 18t18.5 55q0 36 -19 51.5t-39 15.5q-11 0 -25 -1t-28 -5l-14 24l123 111h-84q-27 0 -42 -10
t-15 -35h-9v30q0 14 7.5 25.5t31.5 11.5h151v-18z" />
    <glyph glyph-name="acute" unicode="&#xb4;" horiz-adv-x="175" 
d="M60 700h-40l40 130h95z" />
    <glyph glyph-name="mu" unicode="&#xb5;" horiz-adv-x="529" 
d="M74 -190v660h90v-235q0 -43 6.5 -80.5t21 -65t36 -43.5t51.5 -16q41 0 65.5 18.5t39.5 41.5v380h90v-470h-50l-35 45h-5q-8 -9 -17.5 -19t-23 -18t-32 -13t-42.5 -5q-60 0 -105 45v-225h-90z" />
    <glyph glyph-name="paragraph" unicode="&#xb6;" horiz-adv-x="601" 
d="M258 290q-49 0 -91 12.5t-73 36.5t-48.5 58.5t-17.5 77.5t17.5 77.5t48.5 58.5t73 36.5t91 12.5h300v-40h-55v-810h-90v810h-65v-810h-90v480z" />
    <glyph glyph-name="periodcentered" unicode="&#xb7;" horiz-adv-x="230" 
d="M115 385q23 0 38.5 -16t15.5 -38q0 -23 -16 -39t-38 -16t-38 16t-16 39q0 22 16 38t38 16z" />
    <glyph glyph-name="cedilla" unicode="&#xb8;" horiz-adv-x="180" 
d="M90 0v-50h10q34 0 57 -18.5t23 -54.5q0 -35 -23 -54t-57 -19h-60v41h50q40 0 40 32q0 33 -40 33h-45v90h45z" />
    <glyph glyph-name="onesuperior" unicode="&#xb9;" horiz-adv-x="212" 
d="M142 377h-52v247l-41 -24l-11 16l65 64h39v-303z" />
    <glyph glyph-name="ordmasculine" unicode="&#xba;" horiz-adv-x="335" 
d="M167 667q-30 0 -46.5 -33t-16.5 -106q0 -72 16.5 -105.5t46.5 -33.5q32 0 48 33.5t16 105.5q0 73 -16.5 106t-47.5 33zM167 689q60 0 88 -44t28 -117q0 -72 -28 -116.5t-88 -44.5t-87.5 44.5t-27.5 116.5q0 73 27.5 117t87.5 44z" />
    <glyph glyph-name="guillemotright" unicode="&#xbb;" horiz-adv-x="372" 
d="M197 225l-100 -145h-40l60 145l-60 145h40zM142 420h40l155 -195l-155 -195h-40l95 195z" />
    <glyph glyph-name="onequarter" unicode="&#xbc;" horiz-adv-x="596" 
d="M29 0l455 660h65l-455 -660h-65zM158 377h-52v247l-41 -24l-11 16l65 64h39v-303zM512 100h41v-22h-41v-78h-52v78h-152v19l157 207h47v-204zM460 100v155l-118 -155h118z" />
    <glyph glyph-name="onehalf" unicode="&#xbd;" horiz-adv-x="613" 
d="M29 0l455 660h65l-455 -660h-65zM158 377h-52v247l-41 -24l-11 16l65 64h39v-303zM494 22q28 0 42.5 10t14.5 34h12v-30q0 -14 -7.5 -25t-31.5 -11h-161v23q36 35 63 61.5t45 49t27 44t9 47.5q0 35 -16 50t-39 15q-28 0 -47 -18t-26 -56h-12q0 17 1.5 33t9.5 27
q13 15 36.5 25.5t50.5 10.5q14 0 30.5 -3t30.5 -12.5t23.5 -26.5t9.5 -45q0 -29 -12.5 -53.5t-34 -47.5t-50 -47.5t-59.5 -54.5h91z" />
    <glyph glyph-name="threequarters" unicode="&#xbe;" horiz-adv-x="614" 
d="M58 0l455 660h65l-455 -660h-65zM530 100h41v-22h-41v-78h-52v78h-152v19l157 207h47v-204zM478 100v155l-118 -155h118zM110 547q12 3 24 3.5t17 0.5q15 0 33 -4.5t33 -14.5t25 -27.5t10 -42.5q0 -30 -12 -49t-29.5 -29t-37 -13.5t-33.5 -3.5q-35 0 -57 13t-41 36l10 9
q33 -36 84 -36q27 0 45.5 18t18.5 55q0 36 -19 51.5t-39 15.5q-11 0 -25 -1t-28 -5l-14 24l123 111h-84q-27 0 -42 -10t-15 -35h-9v30q0 14 7.5 25.5t31.5 11.5h151v-18z" />
    <glyph glyph-name="questiondown" unicode="&#xbf;" horiz-adv-x="473" 
d="M259 372q-23 0 -39 16t-16 39q0 22 16.5 38t38.5 16q23 0 38.5 -16t15.5 -38q0 -23 -15.5 -39t-38.5 -16zM279 312q-1 -41 -12.5 -71.5t-28.5 -55t-36 -46t-35 -45t-27 -51.5t-11 -65q0 -38 10.5 -66t28.5 -46.5t41.5 -28t49.5 -9.5q60 0 105.5 43.5t60.5 126.5h20
q0 -38 -3 -72.5t-22 -57.5q-27 -33 -79 -56.5t-112 -23.5q-30 0 -65 7t-65 28t-50 58t-20 97q0 42 15 74t38 58t50 48.5t50.5 45.5t39.5 48.5t17 59.5h40z" />
    <glyph glyph-name="Agrave" unicode="&#xc0;" horiz-adv-x="635" 
d="M662 0q-17 -5 -40 -5q-17 0 -39.5 4t-46 17.5t-46 39.5t-38.5 69l-25 65h-280l-80 -190h-45l280 660h30l220 -535q12 -28 22.5 -47.5t23.5 -31.5t28 -18t36 -8v-20zM162 230h245l-120 290zM202 830h95l40 -130h-40z" />
    <glyph glyph-name="Aacute" unicode="&#xc1;" horiz-adv-x="635" 
d="M662 0q-17 -5 -40 -5q-17 0 -39.5 4t-46 17.5t-46 39.5t-38.5 69l-25 65h-280l-80 -190h-45l280 660h30l220 -535q12 -28 22.5 -47.5t23.5 -31.5t28 -18t36 -8v-20zM162 230h245l-120 290zM342 700h-40l40 130h95z" />
    <glyph glyph-name="Acircumflex" unicode="&#xc2;" horiz-adv-x="635" 
d="M662 0q-17 -5 -40 -5q-17 0 -39.5 4t-46 17.5t-46 39.5t-38.5 69l-25 65h-280l-80 -190h-45l280 660h30l220 -535q12 -28 22.5 -47.5t23.5 -31.5t28 -18t36 -8v-20zM162 230h245l-120 290zM317 765l-85 -80h-50l80 115h110l80 -115h-50z" />
    <glyph glyph-name="Atilde" unicode="&#xc3;" horiz-adv-x="635" 
d="M662 0q-17 -5 -40 -5q-17 0 -39.5 4t-46 17.5t-46 39.5t-38.5 69l-25 65h-280l-80 -190h-45l280 660h30l220 -535q12 -28 22.5 -47.5t23.5 -31.5t28 -18t36 -8v-20zM162 230h245l-120 290zM209 700q0 53 15 74t45 21q16 0 29 -6.5t25 -14t24 -13.5t27 -6q11 0 20.5 14.5
t9.5 25.5h30q0 -53 -15 -74t-45 -21q-16 0 -28.5 6t-24.5 13.5t-24.5 14t-27.5 6.5q-11 0 -20.5 -14.5t-9.5 -25.5h-30z" />
    <glyph glyph-name="Adieresis" unicode="&#xc4;" horiz-adv-x="635" 
d="M662 0q-17 -5 -40 -5q-17 0 -39.5 4t-46 17.5t-46 39.5t-38.5 69l-25 65h-280l-80 -190h-45l280 660h30l220 -535q12 -28 22.5 -47.5t23.5 -31.5t28 -18t36 -8v-20zM162 230h245l-120 290zM452 740q0 -23 -13.5 -36.5t-36.5 -13.5t-36.5 13.5t-13.5 36.5t13.5 36.5
t36.5 13.5t36.5 -13.5t13.5 -36.5zM282 740q0 -23 -13.5 -36.5t-36.5 -13.5t-36.5 13.5t-13.5 36.5t13.5 36.5t36.5 13.5t36.5 -13.5t13.5 -36.5z" />
    <glyph glyph-name="Aring" unicode="&#xc5;" horiz-adv-x="636" 
d="M232 705q0 17 7 32.5t18.5 27t27 18.5t32.5 7t32.5 -7t27 -18.5t18.5 -27t7 -32.5q0 -34 -18 -53t-37 -27l205 -500q12 -28 22.5 -47.5t23.5 -31.5t28 -18t36 -8v-20q-17 -5 -40 -5q-17 0 -39.5 4t-46 17.5t-46 39.5t-38.5 69l-25 65h-280l-80 -190h-45l265 625
q-19 8 -37 27t-18 53zM162 230h245l-120 290zM272 705q0 -15 7 -26t18 -19h40q11 8 18 19t7 26q0 23 -13 36.5t-32 13.5t-32 -13.5t-13 -36.5z" />
    <glyph glyph-name="AE" unicode="&#xc6;" horiz-adv-x="865" 
d="M717 660q26 0 42.5 -7t26 -18t13 -25.5t3.5 -29.5v-75h-20q0 60 -32.5 87.5t-92.5 27.5h-186v-260h270v-40h-270v-280h175q68 0 107.5 25t62.5 85l20 -5l-35 -95q-8 -23 -26.5 -36.5t-48.5 -13.5h-345v190h-240l-105 -190h-50l370 660h361zM166 230h215v385z" />
    <glyph glyph-name="Ccedilla" unicode="&#xc7;" horiz-adv-x="665" 
d="M324 -196v41h50q40 0 40 32q0 33 -40 33h-45v70q-66 4 -118.5 31.5t-89.5 73.5t-57 106t-20 129q0 75 24.5 140.5t66.5 114.5t98.5 77t120.5 28q83 0 143 -23.5t87 -56.5q19 -23 22 -64t3 -86h-20q-19 98 -70.5 144t-134.5 46q-49 0 -92.5 -16.5t-76.5 -54t-52 -98.5
t-19 -151q0 -56 13.5 -110t42.5 -96t74.5 -68t109.5 -26q75 0 129 36t96 104l20 -15q-23 -44 -50.5 -74.5t-59 -50t-68 -29t-77.5 -11.5v-30h10q34 0 57 -18.5t23 -54.5q0 -35 -23 -54t-57 -19h-60z" />
    <glyph glyph-name="Egrave" unicode="&#xc8;" horiz-adv-x="590" 
d="M442 660q26 0 42.5 -7t26 -18t13 -25.5t3.5 -29.5v-75h-20q0 60 -32.5 87.5t-92.5 27.5h-186v-260h270v-40h-270v-280h175q68 0 107.5 25t62.5 85l20 -5l-35 -95q-8 -23 -26.5 -36.5t-48.5 -13.5h-345v540q0 45 -12.5 72.5t-57.5 27.5h-20v20h426zM196 830h95l40 -130
h-40z" />
    <glyph glyph-name="Eacute" unicode="&#xc9;" horiz-adv-x="590" 
d="M442 660q26 0 42.5 -7t26 -18t13 -25.5t3.5 -29.5v-75h-20q0 60 -32.5 87.5t-92.5 27.5h-186v-260h270v-40h-270v-280h175q68 0 107.5 25t62.5 85l20 -5l-35 -95q-8 -23 -26.5 -36.5t-48.5 -13.5h-345v540q0 45 -12.5 72.5t-57.5 27.5h-20v20h426zM316 700h-40l40 130h95
z" />
    <glyph glyph-name="Ecircumflex" unicode="&#xca;" horiz-adv-x="590" 
d="M442 660q26 0 42.5 -7t26 -18t13 -25.5t3.5 -29.5v-75h-20q0 60 -32.5 87.5t-92.5 27.5h-186v-260h270v-40h-270v-280h175q68 0 107.5 25t62.5 85l20 -5l-35 -95q-8 -23 -26.5 -36.5t-48.5 -13.5h-345v540q0 45 -12.5 72.5t-57.5 27.5h-20v20h426zM301 801l-85 -80h-50
l80 115h110l80 -115h-50z" />
    <glyph glyph-name="Edieresis" unicode="&#xcb;" horiz-adv-x="590" 
d="M442 660q26 0 42.5 -7t26 -18t13 -25.5t3.5 -29.5v-75h-20q0 60 -32.5 87.5t-92.5 27.5h-186v-260h270v-40h-270v-280h175q68 0 107.5 25t62.5 85l20 -5l-35 -95q-8 -23 -26.5 -36.5t-48.5 -13.5h-345v540q0 45 -12.5 72.5t-57.5 27.5h-20v20h426zM426 780
q0 -23 -13.5 -36.5t-36.5 -13.5t-36.5 13.5t-13.5 36.5t13.5 36.5t36.5 13.5t36.5 -13.5t13.5 -36.5zM256 780q0 -23 -13.5 -36.5t-36.5 -13.5t-36.5 13.5t-13.5 36.5t13.5 36.5t36.5 13.5t36.5 -13.5t13.5 -36.5z" />
    <glyph glyph-name="Igrave" unicode="&#xcc;" horiz-adv-x="285" 
d="M89 660h90v-540q0 -45 12.5 -72.5t57.5 -27.5h20v-20h-90q-26 0 -43.5 4.5t-28 18t-14.5 36.5t-4 61v540zM30 830h95l40 -130h-40z" />
    <glyph glyph-name="Iacute" unicode="&#xcd;" horiz-adv-x="285" 
d="M89 660h90v-540q0 -45 12.5 -72.5t57.5 -27.5h20v-20h-90q-26 0 -43.5 4.5t-28 18t-14.5 36.5t-4 61v540zM149 700h-40l40 130h95z" />
    <glyph glyph-name="Icircumflex" unicode="&#xce;" horiz-adv-x="285" 
d="M89 660h90v-540q0 -45 12.5 -72.5t57.5 -27.5h20v-20h-90q-26 0 -43.5 4.5t-28 18t-14.5 36.5t-4 61v540zM135 775l-85 -80h-50l80 115h110l80 -115h-50z" />
    <glyph glyph-name="Idieresis" unicode="&#xcf;" horiz-adv-x="285" 
d="M89 660h90v-540q0 -45 12.5 -72.5t57.5 -27.5h20v-20h-90q-26 0 -43.5 4.5t-28 18t-14.5 36.5t-4 61v540zM261 765q0 -23 -13.5 -36.5t-36.5 -13.5t-36.5 13.5t-13.5 36.5t13.5 36.5t36.5 13.5t36.5 -13.5t13.5 -36.5zM107 765q0 -23 -13.5 -36.5t-36.5 -13.5t-36.5 13.5
t-13.5 36.5t13.5 36.5t36.5 13.5t36.5 -13.5t13.5 -36.5z" />
    <glyph glyph-name="Eth" unicode="&#xd0;" horiz-adv-x="715" 
d="M31 350h75v190q0 45 -12.5 72.5t-57.5 27.5h-20v20h262q99 0 173 -23t122.5 -65t73 -102.5t24.5 -135.5q0 -73 -23.5 -134.5t-69.5 -105.5t-114.5 -69t-159.5 -25h-198v310h-75v40zM199 350h87v-40h-87v-262q59 -13 102 -13q55 0 103 20.5t83 59t55 93t20 122.5
q0 66 -19.5 120.5t-54.5 93.5t-83.5 60t-105.5 21q-22 0 -47.5 -4t-52.5 -12v-259z" />
    <glyph glyph-name="Ntilde" unicode="&#xd1;" horiz-adv-x="685" 
d="M110 540q0 45 -19 72.5t-71 27.5h-10v20h65q49 0 80.5 -16t54.5 -44l350 -435v495h40v-670h-20l-430 535v-525h-40v540zM237 694q0 53 15 74t45 21q16 0 29 -6.5t25 -14t24 -13.5t27 -6q11 0 20.5 14.5t9.5 25.5h30q0 -53 -15 -74t-45 -21q-16 0 -28.5 6t-24.5 13.5
t-24.5 14t-27.5 6.5q-11 0 -20.5 -14.5t-9.5 -25.5h-30z" />
    <glyph glyph-name="Ograve" unicode="&#xd2;" horiz-adv-x="712" 
d="M566 330q0 71 -14.5 128.5t-41.5 98t-66 62t-88 21.5t-88 -21.5t-66 -62t-41.5 -98t-14.5 -128.5t14.5 -128.5t41.5 -98t66 -62t88 -21.5t88 21.5t66 62t41.5 98t14.5 128.5zM46 330q0 73 21.5 137t62 111.5t98 74.5t128.5 27t128.5 -27t98 -74.5t62 -111.5t21.5 -137
q0 -74 -21.5 -137.5t-62 -111t-98 -74.5t-128.5 -27t-128.5 27t-98 74.5t-62 111t-21.5 137.5zM246 854h95l40 -130h-40z" />
    <glyph glyph-name="Oacute" unicode="&#xd3;" horiz-adv-x="712" 
d="M566 330q0 71 -14.5 128.5t-41.5 98t-66 62t-88 21.5t-88 -21.5t-66 -62t-41.5 -98t-14.5 -128.5t14.5 -128.5t41.5 -98t66 -62t88 -21.5t88 21.5t66 62t41.5 98t14.5 128.5zM46 330q0 73 21.5 137t62 111.5t98 74.5t128.5 27t128.5 -27t98 -74.5t62 -111.5t21.5 -137
q0 -74 -21.5 -137.5t-62 -111t-98 -74.5t-128.5 -27t-128.5 27t-98 74.5t-62 111t-21.5 137.5zM375 720h-40l40 130h95z" />
    <glyph glyph-name="Ocircumflex" unicode="&#xd4;" horiz-adv-x="712" 
d="M566 330q0 71 -14.5 128.5t-41.5 98t-66 62t-88 21.5t-88 -21.5t-66 -62t-41.5 -98t-14.5 -128.5t14.5 -128.5t41.5 -98t66 -62t88 -21.5t88 21.5t66 62t41.5 98t14.5 128.5zM46 330q0 73 21.5 137t62 111.5t98 74.5t128.5 27t128.5 -27t98 -74.5t62 -111.5t21.5 -137
q0 -74 -21.5 -137.5t-62 -111t-98 -74.5t-128.5 -27t-128.5 27t-98 74.5t-62 111t-21.5 137.5zM351 800l-85 -80h-50l80 115h110l80 -115h-50z" />
    <glyph glyph-name="Otilde" unicode="&#xd5;" horiz-adv-x="712" 
d="M566 330q0 71 -14.5 128.5t-41.5 98t-66 62t-88 21.5t-88 -21.5t-66 -62t-41.5 -98t-14.5 -128.5t14.5 -128.5t41.5 -98t66 -62t88 -21.5t88 21.5t66 62t41.5 98t14.5 128.5zM46 330q0 73 21.5 137t62 111.5t98 74.5t128.5 27t128.5 -27t98 -74.5t62 -111.5t21.5 -137
q0 -74 -21.5 -137.5t-62 -111t-98 -74.5t-128.5 -27t-128.5 27t-98 74.5t-62 111t-21.5 137.5zM242 738q0 53 15 74t45 21q16 0 29 -6.5t25 -14t24 -13.5t27 -6q11 0 20.5 14.5t9.5 25.5h30q0 -53 -15 -74t-45 -21q-16 0 -28.5 6t-24.5 13.5t-24.5 14t-27.5 6.5
q-11 0 -20.5 -14.5t-9.5 -25.5h-30z" />
    <glyph glyph-name="Odieresis" unicode="&#xd6;" horiz-adv-x="712" 
d="M566 330q0 71 -14.5 128.5t-41.5 98t-66 62t-88 21.5t-88 -21.5t-66 -62t-41.5 -98t-14.5 -128.5t14.5 -128.5t41.5 -98t66 -62t88 -21.5t88 21.5t66 62t41.5 98t14.5 128.5zM46 330q0 73 21.5 137t62 111.5t98 74.5t128.5 27t128.5 -27t98 -74.5t62 -111.5t21.5 -137
q0 -74 -21.5 -137.5t-62 -111t-98 -74.5t-128.5 -27t-128.5 27t-98 74.5t-62 111t-21.5 137.5zM491 785q0 -23 -13.5 -36.5t-36.5 -13.5t-36.5 13.5t-13.5 36.5t13.5 36.5t36.5 13.5t36.5 -13.5t13.5 -36.5zM321 785q0 -23 -13.5 -36.5t-36.5 -13.5t-36.5 13.5t-13.5 36.5
t13.5 36.5t36.5 13.5t36.5 -13.5t13.5 -36.5z" />
    <glyph glyph-name="multiply" unicode="&#xd7;" horiz-adv-x="469" 
d="M234 291l-141 -142l-42 43l141 141l-141 142l42 42l142 -142l141 142l42 -43l-141 -141l141 -142l-42 -42z" />
    <glyph glyph-name="Oslash" unicode="&#xd8;" horiz-adv-x="712" 
d="M126 -20l37 68q-56 48 -86.5 121t-30.5 161q0 73 21.5 137t62 111.5t98 74.5t128.5 27q38 0 71.5 -8t62.5 -22l17 30h73l-36 -65q58 -48 90 -121.5t32 -163.5q0 -74 -21.5 -137.5t-62 -111t-98 -74.5t-128.5 -27q-78 0 -140 32l-17 -32h-73zM566 330q0 70 -14.5 126.5
t-40.5 97.5l-269 -495q50 -39 114 -39q49 0 88 21.5t66 62t41.5 98t14.5 128.5zM146 330q0 -69 13 -124t38 -95l268 493q-47 36 -109 36q-49 0 -88 -21.5t-66 -62t-41.5 -98t-14.5 -128.5z" />
    <glyph glyph-name="Ugrave" unicode="&#xd9;" horiz-adv-x="687" 
d="M99 540q0 45 -12.5 72.5t-57.5 27.5h-20v20h90q26 0 43.5 -4.5t28 -18t14.5 -37t4 -60.5v-285q0 -53 9 -94.5t30 -70.5t54.5 -44.5t83.5 -15.5q57 0 96 15t63 46.5t34 79.5t10 114v375h40v-375q0 -73 -11 -128.5t-39.5 -92.5t-78 -55.5t-126.5 -18.5q-73 0 -122 18.5
t-78.5 55.5t-42 92.5t-12.5 128.5v255zM269 810h95l40 -130h-40z" />
    <glyph glyph-name="Uacute" unicode="&#xda;" horiz-adv-x="687" 
d="M99 540q0 45 -12.5 72.5t-57.5 27.5h-20v20h90q26 0 43.5 -4.5t28 -18t14.5 -37t4 -60.5v-285q0 -53 9 -94.5t30 -70.5t54.5 -44.5t83.5 -15.5q57 0 96 15t63 46.5t34 79.5t10 114v375h40v-375q0 -73 -11 -128.5t-39.5 -92.5t-78 -55.5t-126.5 -18.5q-73 0 -122 18.5
t-78.5 55.5t-42 92.5t-12.5 128.5v255zM369 681h-40l40 130h95z" />
    <glyph glyph-name="Ucircumflex" unicode="&#xdb;" horiz-adv-x="687" 
d="M99 540q0 45 -12.5 72.5t-57.5 27.5h-20v20h90q26 0 43.5 -4.5t28 -18t14.5 -37t4 -60.5v-285q0 -53 9 -94.5t30 -70.5t54.5 -44.5t83.5 -15.5q57 0 96 15t63 46.5t34 79.5t10 114v375h40v-375q0 -73 -11 -128.5t-39.5 -92.5t-78 -55.5t-126.5 -18.5q-73 0 -122 18.5
t-78.5 55.5t-42 92.5t-12.5 128.5v255zM374 751l-85 -80h-50l80 115h110l80 -115h-50z" />
    <glyph glyph-name="Udieresis" unicode="&#xdc;" horiz-adv-x="687" 
d="M99 540q0 45 -12.5 72.5t-57.5 27.5h-20v20h90q26 0 43.5 -4.5t28 -18t14.5 -37t4 -60.5v-285q0 -53 9 -94.5t30 -70.5t54.5 -44.5t83.5 -15.5q57 0 96 15t63 46.5t34 79.5t10 114v375h40v-375q0 -73 -11 -128.5t-39.5 -92.5t-78 -55.5t-126.5 -18.5q-73 0 -122 18.5
t-78.5 55.5t-42 92.5t-12.5 128.5v255zM504 731q0 -23 -13.5 -36.5t-36.5 -13.5t-36.5 13.5t-13.5 36.5t13.5 36.5t36.5 13.5t36.5 -13.5t13.5 -36.5zM334 731q0 -23 -13.5 -36.5t-36.5 -13.5t-36.5 13.5t-13.5 36.5t13.5 36.5t36.5 13.5t36.5 -13.5t13.5 -36.5z" />
    <glyph glyph-name="Yacute" unicode="&#xdd;" horiz-adv-x="628" 
d="M360 325l209 335h45l-234 -380v-280h-90v273l-170 257q-15 22 -29.5 41.5t-31.5 34t-37.5 23.5t-46.5 11v20h90q28 0 50 -9.5t40 -25t32.5 -35t27.5 -40.5zM355 671h-40l40 130h95z" />
    <glyph glyph-name="Thorn" unicode="&#xde;" horiz-adv-x="535" 
d="M409 315q0 43 -11.5 79t-37 61.5t-65.5 40t-96 14.5v-390q56 0 96 14.5t65.5 40t37 61.5t11.5 79zM199 550q151 0 230.5 -59t79.5 -176t-79.5 -176t-230.5 -59v-110h-90v630q0 38 -16 54t-54 16h-20v20h90q52 0 71 -19t19 -71v-50z" />
    <glyph glyph-name="germandbls" unicode="&#xdf;" horiz-adv-x="554" 
d="M352 550q0 38 -22.5 59t-67.5 21q-49 0 -74.5 -27.5t-25.5 -102.5v-500h-90v500q0 52 15.5 85.5t42.5 52t62.5 25.5t74.5 7q83 0 126.5 -27.5t43.5 -72.5q0 -41 -18 -65t-39.5 -42.5t-39.5 -38.5t-18 -54q0 -27 15 -47t38 -36.5t49.5 -32t49.5 -34t38 -42.5t15 -58
q0 -68 -40.5 -99t-104.5 -31q-38 0 -72 10.5t-53 29.5t-22 40t-3 40h20q2 -15 11 -29.5t23.5 -25.5t33.5 -18t42 -7q38 0 59 20t21 50q0 27 -15 47t-38 36.5t-49.5 32t-49.5 34t-38 42.5t-15 58q0 41 18 65t39.5 42.5t39.5 38.5t18 54z" />
    <glyph glyph-name="agrave" unicode="&#xe0;" horiz-adv-x="481" 
d="M324 230h-30q-75 0 -117.5 -27.5t-42.5 -72.5q0 -24 8 -42t21 -30t30 -17.5t36 -5.5q37 0 58.5 18.5t36.5 41.5v135zM364 0l-35 45h-5q-15 -19 -49 -37t-91 -18q-21 0 -46 6.5t-47 22.5t-37 43t-15 68t21 68t56 43t81 22.5t97 6.5h30q0 52 -8 85.5t-22 52t-33.5 25.5
t-41.5 7q-42 0 -70.5 -18t-39.5 -67h-45q0 26 3 48.5t22 41.5q9 9 25.5 16t36.5 11t42.5 6t45.5 2q34 0 65.5 -7.5t56 -30t39 -64t14.5 -108.5v-270h-50zM124 655h95l40 -130h-40z" />
    <glyph glyph-name="aacute" unicode="&#xe1;" horiz-adv-x="481" 
d="M324 230h-30q-75 0 -117.5 -27.5t-42.5 -72.5q0 -24 8 -42t21 -30t30 -17.5t36 -5.5q37 0 58.5 18.5t36.5 41.5v135zM364 0l-35 45h-5q-15 -19 -49 -37t-91 -18q-21 0 -46 6.5t-47 22.5t-37 43t-15 68t21 68t56 43t81 22.5t97 6.5h30q0 52 -8 85.5t-22 52t-33.5 25.5
t-41.5 7q-42 0 -70.5 -18t-39.5 -67h-45q0 26 3 48.5t22 41.5q9 9 25.5 16t36.5 11t42.5 6t45.5 2q34 0 65.5 -7.5t56 -30t39 -64t14.5 -108.5v-270h-50zM238 525h-40l40 130h95z" />
    <glyph glyph-name="acircumflex" unicode="&#xe2;" horiz-adv-x="481" 
d="M324 230h-30q-75 0 -117.5 -27.5t-42.5 -72.5q0 -24 8 -42t21 -30t30 -17.5t36 -5.5q37 0 58.5 18.5t36.5 41.5v135zM364 0l-35 45h-5q-15 -19 -49 -37t-91 -18q-21 0 -46 6.5t-47 22.5t-37 43t-15 68t21 68t56 43t81 22.5t97 6.5h30q0 52 -8 85.5t-22 52t-33.5 25.5
t-41.5 7q-42 0 -70.5 -18t-39.5 -67h-45q0 26 3 48.5t22 41.5q9 9 25.5 16t36.5 11t42.5 6t45.5 2q34 0 65.5 -7.5t56 -30t39 -64t14.5 -108.5v-270h-50zM240 610l-85 -80h-50l80 115h110l80 -115h-50z" />
    <glyph glyph-name="atilde" unicode="&#xe3;" horiz-adv-x="481" 
d="M324 230h-30q-75 0 -117.5 -27.5t-42.5 -72.5q0 -24 8 -42t21 -30t30 -17.5t36 -5.5q37 0 58.5 18.5t36.5 41.5v135zM364 0l-35 45h-5q-15 -19 -49 -37t-91 -18q-21 0 -46 6.5t-47 22.5t-37 43t-15 68t21 68t56 43t81 22.5t97 6.5h30q0 52 -8 85.5t-22 52t-33.5 25.5
t-41.5 7q-42 0 -70.5 -18t-39.5 -67h-45q0 26 3 48.5t22 41.5q9 9 25.5 16t36.5 11t42.5 6t45.5 2q34 0 65.5 -7.5t56 -30t39 -64t14.5 -108.5v-270h-50zM123 536q0 53 15 74t45 21q16 0 29 -6.5t25 -14t24 -13.5t27 -6q11 0 20.5 14.5t9.5 25.5h30q0 -53 -15 -74t-45 -21
q-16 0 -28.5 6t-24.5 13.5t-24.5 14t-27.5 6.5q-11 0 -20.5 -14.5t-9.5 -25.5h-30z" />
    <glyph glyph-name="adieresis" unicode="&#xe4;" horiz-adv-x="481" 
d="M324 230h-30q-75 0 -117.5 -27.5t-42.5 -72.5q0 -24 8 -42t21 -30t30 -17.5t36 -5.5q37 0 58.5 18.5t36.5 41.5v135zM364 0l-35 45h-5q-15 -19 -49 -37t-91 -18q-21 0 -46 6.5t-47 22.5t-37 43t-15 68t21 68t56 43t81 22.5t97 6.5h30q0 52 -8 85.5t-22 52t-33.5 25.5
t-41.5 7q-42 0 -70.5 -18t-39.5 -67h-45q0 26 3 48.5t22 41.5q9 9 25.5 16t36.5 11t42.5 6t45.5 2q34 0 65.5 -7.5t56 -30t39 -64t14.5 -108.5v-270h-50zM369 580q0 -19 -13 -32t-32 -13t-32 13t-13 32t13 32t32 13t32 -13t13 -32zM199 580q0 -19 -13 -32t-32 -13t-32 13
t-13 32t13 32t32 13t32 -13t13 -32z" />
    <glyph glyph-name="aring" unicode="&#xe5;" horiz-adv-x="481" 
d="M324 230h-30q-75 0 -117.5 -27.5t-42.5 -72.5q0 -24 8 -42t21 -30t30 -17.5t36 -5.5q37 0 58.5 18.5t36.5 41.5v135zM364 0l-35 45h-5q-15 -19 -49 -37t-91 -18q-21 0 -46 6.5t-47 22.5t-37 43t-15 68t21 68t56 43t81 22.5t97 6.5h30q0 52 -8 85.5t-22 52t-33.5 25.5
t-41.5 7q-42 0 -70.5 -18t-39.5 -67h-45q0 26 3 48.5t22 41.5q9 9 25.5 16t36.5 11t42.5 6t45.5 2q34 0 65.5 -7.5t56 -30t39 -64t14.5 -108.5v-270h-50zM149 615q0 17 7 32.5t18.5 27t27 18.5t32.5 7t32.5 -7t27 -18.5t18.5 -27t7 -32.5t-7 -32.5t-18.5 -27t-27 -18.5
t-32.5 -7t-32.5 7t-27 18.5t-18.5 27t-7 32.5zM279 615q0 23 -13 36.5t-32 13.5t-32 -13.5t-13 -36.5t13 -36.5t32 -13.5t32 13.5t13 36.5z" />
    <glyph glyph-name="ae" unicode="&#xe6;" horiz-adv-x="759" 
d="M712 220h-298q0 -41 9 -76t26.5 -60.5t42.5 -39.5t57 -14q49 0 81.5 21t58.5 59l20 -15q-34 -57 -78.5 -81t-101.5 -24q-59 0 -101.5 21.5t-68.5 63.5q-11 -21 -25.5 -36.5t-33.5 -26.5t-43.5 -16.5t-57.5 -5.5q-26 0 -54.5 6.5t-52 22t-38.5 41.5t-15 65t21 65t56 41.5
t81 22t97 6.5h30q0 56 -8 91.5t-22 55t-33.5 26.5t-41.5 7q-42 0 -70.5 -18t-39.5 -67h-45q0 26 3 48.5t22 41.5q9 9 25.5 16t36.5 11t42.5 6t45.5 2q53 0 89 -26t51 -64q15 38 50.5 64t84.5 26q102 0 151 -57t49 -163zM624 260q0 83 -26 129t-79 46q-23 0 -42 -13.5
t-33 -36.5t-22 -55.5t-8 -69.5h210zM324 220h-30q-75 0 -117.5 -26.5t-42.5 -68.5q0 -45 28.5 -67.5t66.5 -22.5q37 0 58.5 18.5t36.5 41.5v125z" />
    <glyph glyph-name="ccedilla" unicode="&#xe7;" horiz-adv-x="483" 
d="M265 480q53 0 89.5 -8t55.5 -27q9 -9 14.5 -20t7.5 -26t2.5 -35.5t0.5 -48.5h-20q-4 64 -40.5 94.5t-89.5 30.5q-38 0 -65 -16t-45 -43.5t-26.5 -65t-8.5 -80.5t8.5 -80.5t26.5 -65t45 -43.5t65 -16q53 0 86 21t59 59l20 -15q-32 -54 -75 -78q-41 -22 -94 -26v-41h10
q34 0 57 -18.5t23 -54.5q0 -35 -23 -54t-57 -19h-60v41h50q40 0 40 32q0 33 -40 33h-45v80q-50 6 -85.5 27t-59 54t-35 75t-11.5 89q0 51 13.5 95.5t40.5 77.5t68.5 52.5t97.5 19.5z" />
    <glyph glyph-name="egrave" unicode="&#xe8;" horiz-adv-x="488" 
d="M443 220h-303q0 -41 9 -76t26.5 -60.5t42.5 -39.5t57 -14q49 0 81.5 21t58.5 59l20 -15q-34 -57 -78.5 -81t-101.5 -24q-53 0 -92 19.5t-65.5 52.5t-39.5 77.5t-13 95.5t13.5 95.5t39.5 77.5t63 52.5t84 19.5q102 0 151 -57t49 -163zM350 260q0 87 -26 133.5t-79 46.5
q-23 0 -42 -13.5t-33 -37.5t-22 -57t-8 -72h210zM135 655h95l40 -130h-40z" />
    <glyph glyph-name="eacute" unicode="&#xe9;" horiz-adv-x="488" 
d="M443 220h-303q0 -41 9 -76t26.5 -60.5t42.5 -39.5t57 -14q49 0 81.5 21t58.5 59l20 -15q-34 -57 -78.5 -81t-101.5 -24q-53 0 -92 19.5t-65.5 52.5t-39.5 77.5t-13 95.5t13.5 95.5t39.5 77.5t63 52.5t84 19.5q102 0 151 -57t49 -163zM350 260q0 87 -26 133.5t-79 46.5
q-23 0 -42 -13.5t-33 -37.5t-22 -57t-8 -72h210zM255 525h-40l40 130h95z" />
    <glyph glyph-name="ecircumflex" unicode="&#xea;" horiz-adv-x="488" 
d="M443 220h-303q0 -41 9 -76t26.5 -60.5t42.5 -39.5t57 -14q49 0 81.5 21t58.5 59l20 -15q-34 -57 -78.5 -81t-101.5 -24q-53 0 -92 19.5t-65.5 52.5t-39.5 77.5t-13 95.5t13.5 95.5t39.5 77.5t63 52.5t84 19.5q102 0 151 -57t49 -163zM350 260q0 87 -26 133.5t-79 46.5
q-23 0 -42 -13.5t-33 -37.5t-22 -57t-8 -72h210zM250 610l-85 -80h-50l80 115h110l80 -115h-50z" />
    <glyph glyph-name="edieresis" unicode="&#xeb;" horiz-adv-x="488" 
d="M443 220h-303q0 -41 9 -76t26.5 -60.5t42.5 -39.5t57 -14q49 0 81.5 21t58.5 59l20 -15q-34 -57 -78.5 -81t-101.5 -24q-53 0 -92 19.5t-65.5 52.5t-39.5 77.5t-13 95.5t13.5 95.5t39.5 77.5t63 52.5t84 19.5q102 0 151 -57t49 -163zM350 260q0 87 -26 133.5t-79 46.5
q-23 0 -42 -13.5t-33 -37.5t-22 -57t-8 -72h210zM370 590q0 -19 -13 -32t-32 -13t-32 13t-13 32t13 32t32 13t32 -13t13 -32zM200 590q0 -19 -13 -32t-32 -13t-32 13t-13 32t13 32t32 13t32 -13t13 -32z" />
    <glyph glyph-name="igrave" unicode="&#xec;" horiz-adv-x="246" 
d="M177 0h-90v350q0 45 -12.5 72.5t-57.5 27.5h-20v20h90q26 0 43.5 -4.5t28 -18t14.5 -37t4 -60.5v-350zM22 655h95l40 -130h-40z" />
    <glyph glyph-name="iacute" unicode="&#xed;" horiz-adv-x="246" 
d="M177 0h-90v350q0 45 -12.5 72.5t-57.5 27.5h-20v20h90q26 0 43.5 -4.5t28 -18t14.5 -37t4 -60.5v-350zM133 525h-40l40 130h95z" />
    <glyph glyph-name="icircumflex" unicode="&#xee;" horiz-adv-x="246" 
d="M177 0h-90v350q0 45 -12.5 72.5t-57.5 27.5h-20v20h90q26 0 43.5 -4.5t28 -18t14.5 -37t4 -60.5v-350zM132 610l-85 -80h-50l80 115h110l80 -115h-50z" />
    <glyph glyph-name="idieresis" unicode="&#xef;" horiz-adv-x="246" 
d="M177 0h-90v350q0 45 -12.5 72.5t-57.5 27.5h-20v20h90q26 0 43.5 -4.5t28 -18t14.5 -37t4 -60.5v-350zM98 585q0 -21 -12.5 -33t-33.5 -12q-23 0 -39.5 19t-16.5 45q0 21 12.5 33t33.5 12q23 0 39.5 -19t16.5 -45zM252 585q0 -21 -12.5 -33t-33.5 -12q-23 0 -39.5 19
t-16.5 45q0 21 12.5 33t33.5 12q23 0 39.5 -19t16.5 -45z" />
    <glyph glyph-name="eth" unicode="&#xf0;" horiz-adv-x="537" 
d="M254 550l40 40q-23 23 -47.5 34t-62.5 11q-12 0 -25 -2t-19 -4l-8 19q20 14 43 18t49 4q30 0 59.5 -10.5t55.5 -29.5l35 40l30 -30l-35 -35q53 -53 84 -137.5t31 -197.5q0 -64 -14.5 -115.5t-43 -88t-69.5 -56.5t-93 -20q-53 0 -93.5 19.5t-69 52.5t-43 77.5t-14.5 95.5
t14.5 95.5t43 77.5t69 52.5t93.5 19.5q42 0 76.5 -21t53.5 -59q-11 53 -27.5 91.5t-42.5 68.5l-40 -40zM389 235q0 43 -9 80.5t-25.5 65t-39.5 43.5t-51 16t-51 -16t-39.5 -43.5t-25.5 -65t-9 -80.5t9 -80.5t25.5 -65t39.5 -43.5t51 -16t51 16t39.5 43.5t25.5 65t9 80.5z
" />
    <glyph glyph-name="ntilde" unicode="&#xf1;" horiz-adv-x="544" 
d="M87 350q0 45 -12.5 72.5t-57.5 27.5h-20v20h90q38 0 57.5 -10.5t27.5 -29.5h5q19 19 52 34.5t78 15.5q32 0 62.5 -7.5t54.5 -28t38.5 -55.5t14.5 -89v-300h-90v300q0 37 -9.5 63t-25 42t-35 23t-40.5 7q-30 0 -55.5 -16t-44.5 -37v-382h-90v350zM169 545q0 53 15 74
t45 21q16 0 29 -6.5t25 -14t24 -13.5t27 -6q11 0 20.5 14.5t9.5 25.5h30q0 -53 -15 -74t-45 -21q-16 0 -28.5 6t-24.5 13.5t-24.5 14t-27.5 6.5q-11 0 -20.5 -14.5t-9.5 -25.5h-30z" />
    <glyph glyph-name="ograve" unicode="&#xf2;" 
d="M390 235q0 43 -9 80.5t-25.5 65t-39.5 43.5t-51 16t-51 -16t-39.5 -43.5t-25.5 -65t-9 -80.5t9 -80.5t25.5 -65t39.5 -43.5t51 -16t51 16t39.5 43.5t25.5 65t9 80.5zM45 235q0 51 14.5 95.5t43 77.5t69 52.5t93.5 19.5q52 0 93 -19.5t69.5 -52.5t43 -77.5t14.5 -95.5
t-14.5 -95.5t-43 -77.5t-69.5 -52.5t-93 -19.5q-53 0 -93.5 19.5t-69 52.5t-43 77.5t-14.5 95.5zM160 655h95l40 -130h-40z" />
    <glyph glyph-name="oacute" unicode="&#xf3;" 
d="M390 235q0 43 -9 80.5t-25.5 65t-39.5 43.5t-51 16t-51 -16t-39.5 -43.5t-25.5 -65t-9 -80.5t9 -80.5t25.5 -65t39.5 -43.5t51 -16t51 16t39.5 43.5t25.5 65t9 80.5zM45 235q0 51 14.5 95.5t43 77.5t69 52.5t93.5 19.5q52 0 93 -19.5t69.5 -52.5t43 -77.5t14.5 -95.5
t-14.5 -95.5t-43 -77.5t-69.5 -52.5t-93 -19.5q-53 0 -93.5 19.5t-69 52.5t-43 77.5t-14.5 95.5zM270 525h-40l40 130h95z" />
    <glyph glyph-name="ocircumflex" unicode="&#xf4;" 
d="M390 235q0 43 -9 80.5t-25.5 65t-39.5 43.5t-51 16t-51 -16t-39.5 -43.5t-25.5 -65t-9 -80.5t9 -80.5t25.5 -65t39.5 -43.5t51 -16t51 16t39.5 43.5t25.5 65t9 80.5zM45 235q0 51 14.5 95.5t43 77.5t69 52.5t93.5 19.5q52 0 93 -19.5t69.5 -52.5t43 -77.5t14.5 -95.5
t-14.5 -95.5t-43 -77.5t-69.5 -52.5t-93 -19.5q-53 0 -93.5 19.5t-69 52.5t-43 77.5t-14.5 95.5zM265 610l-85 -80h-50l80 115h110l80 -115h-50z" />
    <glyph glyph-name="otilde" unicode="&#xf5;" 
d="M390 235q0 43 -9 80.5t-25.5 65t-39.5 43.5t-51 16t-51 -16t-39.5 -43.5t-25.5 -65t-9 -80.5t9 -80.5t25.5 -65t39.5 -43.5t51 -16t51 16t39.5 43.5t25.5 65t9 80.5zM45 235q0 51 14.5 95.5t43 77.5t69 52.5t93.5 19.5q52 0 93 -19.5t69.5 -52.5t43 -77.5t14.5 -95.5
t-14.5 -95.5t-43 -77.5t-69.5 -52.5t-93 -19.5q-53 0 -93.5 19.5t-69 52.5t-43 77.5t-14.5 95.5zM153 536q0 53 15 74t45 21q16 0 29 -6.5t25 -14t24 -13.5t27 -6q11 0 20.5 14.5t9.5 25.5h30q0 -53 -15 -74t-45 -21q-16 0 -28.5 6t-24.5 13.5t-24.5 14t-27.5 6.5
q-11 0 -20.5 -14.5t-9.5 -25.5h-30z" />
    <glyph glyph-name="odieresis" unicode="&#xf6;" 
d="M390 235q0 43 -9 80.5t-25.5 65t-39.5 43.5t-51 16t-51 -16t-39.5 -43.5t-25.5 -65t-9 -80.5t9 -80.5t25.5 -65t39.5 -43.5t51 -16t51 16t39.5 43.5t25.5 65t9 80.5zM45 235q0 51 14.5 95.5t43 77.5t69 52.5t93.5 19.5q52 0 93 -19.5t69.5 -52.5t43 -77.5t14.5 -95.5
t-14.5 -95.5t-43 -77.5t-69.5 -52.5t-93 -19.5q-53 0 -93.5 19.5t-69 52.5t-43 77.5t-14.5 95.5zM395 580q0 -19 -13 -32t-32 -13t-32 13t-13 32t13 32t32 13t32 -13t13 -32zM225 580q0 -19 -13 -32t-32 -13t-32 13t-13 32t13 32t32 13t32 -13t13 -32z" />
    <glyph glyph-name="divide" unicode="&#xf7;" horiz-adv-x="564" 
d="M62 300v60h440v-60h-440zM327 190q0 -19 -13 -32t-32 -13t-32 13t-13 32t13 32t32 13t32 -13t13 -32zM327 470q0 -19 -13 -32t-32 -13t-32 13t-13 32t13 32t32 13t32 -13t13 -32z" />
    <glyph glyph-name="oslash" unicode="&#xf8;" 
d="M65 0l40 58q-29 34 -44.5 79t-15.5 98q0 51 14.5 95.5t43 77.5t69 52.5t93.5 19.5q33 0 61.5 -8t51.5 -22l14 20h73l-41 -59q29 -33 45 -78.5t16 -97.5q0 -51 -14.5 -95.5t-43 -77.5t-69.5 -52.5t-93 -19.5q-33 0 -61.5 8t-52.5 22l-13 -20h-73zM390 235q0 29 -4 55
t-12 49l-187 -268q32 -41 78 -41q28 0 51 16t39.5 43.5t25.5 65t9 80.5zM140 235q0 -29 4 -55t12 -49l187 268q-33 41 -78 41q-28 0 -51 -16t-39.5 -43.5t-25.5 -65t-9 -80.5z" />
    <glyph glyph-name="ugrave" unicode="&#xf9;" horiz-adv-x="535" 
d="M463 0h-50l-35 40h-5q-19 -19 -52 -34.5t-78 -15.5q-32 0 -62.5 7.5t-54.5 28t-38.5 55.5t-14.5 89v180q0 45 -12.5 72.5t-57.5 27.5h-10v20h80q26 0 43.5 -4.5t28 -18t14.5 -37t4 -60.5v-180q0 -38 9.5 -63.5t25 -41.5t35 -23t40.5 -7q30 0 55.5 16t44.5 37v382h90v-470
zM159 631h95l40 -130h-40z" />
    <glyph glyph-name="uacute" unicode="&#xfa;" horiz-adv-x="535" 
d="M463 0h-50l-35 40h-5q-19 -19 -52 -34.5t-78 -15.5q-32 0 -62.5 7.5t-54.5 28t-38.5 55.5t-14.5 89v180q0 45 -12.5 72.5t-57.5 27.5h-10v20h80q26 0 43.5 -4.5t28 -18t14.5 -37t4 -60.5v-180q0 -38 9.5 -63.5t25 -41.5t35 -23t40.5 -7q30 0 55.5 16t44.5 37v382h90v-470
zM280 501h-40l40 130h95z" />
    <glyph glyph-name="ucircumflex" unicode="&#xfb;" horiz-adv-x="535" 
d="M463 0h-50l-35 40h-5q-19 -19 -52 -34.5t-78 -15.5q-32 0 -62.5 7.5t-54.5 28t-38.5 55.5t-14.5 89v180q0 45 -12.5 72.5t-57.5 27.5h-10v20h80q26 0 43.5 -4.5t28 -18t14.5 -37t4 -60.5v-180q0 -38 9.5 -63.5t25 -41.5t35 -23t40.5 -7q30 0 55.5 16t44.5 37v382h90v-470
zM258 610l-85 -80h-50l80 115h110l80 -115h-50z" />
    <glyph glyph-name="udieresis" unicode="&#xfc;" horiz-adv-x="535" 
d="M463 0h-50l-35 40h-5q-19 -19 -52 -34.5t-78 -15.5q-32 0 -62.5 7.5t-54.5 28t-38.5 55.5t-14.5 89v180q0 45 -12.5 72.5t-57.5 27.5h-10v20h80q26 0 43.5 -4.5t28 -18t14.5 -37t4 -60.5v-180q0 -38 9.5 -63.5t25 -41.5t35 -23t40.5 -7q30 0 55.5 16t44.5 37v382h90v-470
zM388 566q0 -19 -13 -32t-32 -13t-32 13t-13 32t13 32t32 13t32 -13t13 -32zM218 566q0 -19 -13 -32t-32 -13t-32 13t-13 32t13 32t32 13t32 -13t13 -32z" />
    <glyph glyph-name="yacute" unicode="&#xfd;" horiz-adv-x="514" 
d="M260 -10l-160 390q-15 38 -43.5 57t-66.5 23v20h85q45 0 74.5 -21t45.5 -59l114 -277l126 347h50l-195 -535q-15 -41 -31.5 -67.5t-35 -41.5t-40.5 -20.5t-48 -5.5h-30v30q22 0 42 4.5t36.5 16t30.5 32t26 52.5zM299 501h-40l40 130h95z" />
    <glyph glyph-name="thorn" unicode="&#xfe;" horiz-adv-x="523" 
d="M162 60q23 -11 47.5 -20.5t47.5 -9.5q34 0 57.5 16t38.5 43.5t22 65t7 80.5t-6.5 80.5t-21 65t-36 43.5t-51.5 16q-21 0 -37 -5t-28.5 -13.5t-22.5 -19.5t-17 -22v-320zM162 425q15 19 47 37t88 18q45 0 78.5 -19.5t56 -52.5t34 -77.5t11.5 -95.5t-11.5 -95.5t-35 -77.5
t-59 -52.5t-84.5 -19.5q-42 0 -72 9.5t-53 20.5v-210h-90v730q0 45 -12.5 72.5t-57.5 27.5h-15v20h85q26 0 43.5 -4.5t28 -18t14.5 -37t4 -60.5v-60v-55z" />
    <glyph glyph-name="ydieresis" unicode="&#xff;" horiz-adv-x="514" 
d="M260 -10l-160 390q-15 38 -43.5 57t-66.5 23v20h85q45 0 74.5 -21t45.5 -59l114 -277l126 347h50l-195 -535q-15 -41 -31.5 -67.5t-35 -41.5t-40.5 -20.5t-48 -5.5h-30v30q22 0 42 4.5t36.5 16t30.5 32t26 52.5zM420 566q0 -19 -13 -32t-32 -13t-32 13t-13 32t13 32
t32 13t32 -13t13 -32zM250 566q0 -19 -13 -32t-32 -13t-32 13t-13 32t13 32t32 13t32 -13t13 -32z" />
    <glyph glyph-name="Gbreve" unicode="&#x11e;" horiz-adv-x="720" 
d="M384 640q-64 0 -109.5 -26t-74.5 -68t-42.5 -96t-13.5 -110q0 -90 19 -151.5t52 -99t76.5 -53.5t92.5 -16q54 0 90 9.5t65 25.5v174q0 21 4.5 41.5t21.5 37.5t50 27.5t89 10.5v-20q-24 0 -39 -6.5t-23 -19t-10.5 -30t-2.5 -39.5v-188q-54 -33 -113 -48t-132 -15
q-75 0 -137.5 28t-107.5 77t-70 114.5t-25 140.5q0 71 21.5 133t62 108t98 72.5t128.5 26.5q91 0 152 -23.5t88 -56.5q9 -11 14.5 -27.5t7.5 -34.5t2.5 -37t0.5 -36h-20q-19 87 -71.5 131t-143.5 44zM365 790q42 0 68.5 13t41.5 32l20 -15q-19 -42 -50 -66t-80 -24t-80 24
t-50 66l20 15q15 -19 41.5 -32t68.5 -13z" />
    <glyph glyph-name="gbreve" unicode="&#x11f;" horiz-adv-x="492" 
d="M56 330q0 43 15 72t40.5 46t60.5 24.5t74 7.5h185v-25l-65 -10v-5q30 -15 50 -43.5t20 -66.5q0 -43 -15 -72t-40.5 -46t-60.5 -24.5t-74 -7.5q-105 0 -105 -35t105 -35q45 0 85 -9t70 -27.5t47.5 -48t17.5 -70.5q0 -43 -17 -72.5t-46.5 -48t-69.5 -26.5t-87 -8t-87 8
t-69.5 26.5t-46.5 48t-17 72.5q0 49 32.5 82t77.5 48q-15 8 -27.5 22.5t-12.5 37.5t12 35t23 20q-30 15 -52.5 48t-22.5 82zM201 75q-38 -15 -61.5 -43t-23.5 -77q0 -60 36.5 -87.5t93.5 -27.5t93.5 27.5t36.5 87.5q0 100 -120 115zM346 330q0 60 -29 87.5t-71 27.5
q-21 0 -39 -6t-31.5 -19.5t-21.5 -35.5t-8 -54t8 -54t21.5 -35.5t31.5 -19.5t39 -6t39 6t31.5 19.5t21.5 35.5t8 54zM246 591q42 0 68.5 13t41.5 32l20 -15q-19 -42 -50 -66t-80 -24t-80 24t-50 66l20 15q15 -19 41.5 -32t68.5 -13z" />
    <glyph glyph-name="Idotaccent" unicode="&#x130;" horiz-adv-x="285" 
d="M89 660h90v-540q0 -45 12.5 -72.5t57.5 -27.5h20v-20h-90q-26 0 -43.5 4.5t-28 18t-14.5 36.5t-4 61v540zM183 755q0 -21 -12.5 -33t-33.5 -12q-23 0 -39.5 19t-16.5 45q0 21 12.5 33t33.5 12q23 0 39.5 -19t16.5 -45z" />
    <glyph glyph-name="dotlessi" unicode="&#x131;" horiz-adv-x="246" 
d="M177 0h-90v350q0 45 -12.5 72.5t-57.5 27.5h-20v20h90q26 0 43.5 -4.5t28 -18t14.5 -37t4 -60.5v-350z" />
    <glyph glyph-name="OE" unicode="&#x152;" horiz-adv-x="945" 
d="M46 330q0 73 21.5 137t62 111.5t98 74.5t128.5 27q30 0 57 -4.5t53 -15.5h331q26 0 42.5 -7t26 -18t13 -25.5t3.5 -29.5v-75h-20q0 60 -32.5 87.5t-92.5 27.5h-186v-260h270v-40h-270v-280h175q68 0 107.5 25t62.5 85l20 -5l-35 -95q-8 -23 -26.5 -36.5t-48.5 -13.5h-340
q-26 -11 -53 -15.5t-57 -4.5q-71 0 -128.5 27t-98 74.5t-62 111t-21.5 137.5zM356 20q61 0 105 32v558q-45 30 -105 30q-49 0 -88 -21.5t-66 -62t-41.5 -98t-14.5 -128.5t14.5 -128.5t41.5 -98t66 -62t88 -21.5z" />
    <glyph glyph-name="oe" unicode="&#x153;" horiz-adv-x="795" 
d="M748 220h-298q0 -41 9 -76t26.5 -60.5t42.5 -39.5t57 -14q49 0 81.5 21t58.5 59l20 -15q-34 -57 -78.5 -81t-101.5 -24q-49 0 -86.5 17t-63.5 43q-26 -26 -63.5 -43t-86.5 -17q-53 0 -93.5 19.5t-69 52.5t-43 77.5t-14.5 95.5t14.5 95.5t43 77.5t69 52.5t93.5 19.5
q97 0 151 -59q24 28 57.5 43.5t76.5 15.5q102 0 151 -57t49 -163zM265 30q38 0 64.5 25t45.5 70q-8 19 -14 47.5t-6 62.5t6 62.5t14 47.5q-15 42 -43.5 68.5t-66.5 26.5q-28 0 -51 -16t-39.5 -43.5t-25.5 -65t-9 -80.5t9 -80.5t25.5 -65t39.5 -43.5t51 -16zM660 260
q0 83 -26 129t-79 46q-23 0 -42 -13.5t-33 -36.5t-22 -55.5t-8 -69.5h210z" />
    <glyph glyph-name="Scedilla" unicode="&#x15e;" horiz-adv-x="533" 
d="M490 168q0 -42 -14.5 -76t-41.5 -58.5t-65.5 -37.5t-86.5 -13v-23h10q34 0 57 -18.5t23 -54.5q0 -35 -23 -54t-57 -19h-60v41h50q40 0 40 32q0 33 -40 33h-45v66q-36 4 -69 14t-58.5 25t-40.5 35.5t-15 44.5v107h18q17 -101 66.5 -145t134.5 -44q26 0 49.5 6.5t41.5 19.5
t29 32t11 44q0 44 -27.5 75t-82.5 63l-123 73q-64 38 -90.5 77t-26.5 95q0 39 14 70t39.5 53.5t61 34.5t79.5 12q37 0 75.5 -8t69.5 -23.5t51 -38t20 -50.5v-107h-18q-17 101 -65 144t-133 43q-22 0 -43 -7t-37 -20t-26 -32t-10 -42q0 -22 7 -39t21 -32t35 -29.5t48 -30.5
l123 -73q32 -19 55.5 -36.5t38.5 -37t22.5 -41.5t7.5 -50z" />
    <glyph glyph-name="scedilla" unicode="&#x15f;" horiz-adv-x="448" 
d="M405 120q0 -31 -13 -55t-35.5 -40.5t-53 -25t-66.5 -9.5v-20h10q34 0 57 -18.5t23 -54.5q0 -35 -23 -54t-57 -19h-60v41h50q40 0 40 32q0 33 -40 33h-45v61q-85 6 -117 39q-19 19 -22 43t-3 62h20q8 -49 42 -77t98 -28q57 0 83.5 20t26.5 50t-22.5 50.5t-67.5 39.5
l-60 25q-57 23 -88.5 54.5t-31.5 80.5q0 32 12.5 56t34.5 40.5t52 25t66 8.5q57 0 94 -10.5t56 -29.5t22 -43t3 -62h-20q-8 49 -41.5 77t-93.5 28q-49 0 -74.5 -20t-25.5 -50q0 -26 21 -47.5t59 -37.5l60 -25q64 -26 97 -57t33 -83z" />
    <glyph glyph-name="Scaron" unicode="&#x160;" horiz-adv-x="533" 
d="M490 168q0 -42 -14.5 -76t-41.5 -58.5t-65.5 -37.5t-86.5 -13q-41 0 -81.5 8.5t-73 24.5t-53 38.5t-20.5 50.5v107h18q17 -101 66.5 -145t134.5 -44q26 0 49.5 6.5t41.5 19.5t29 32t11 44q0 44 -27.5 75t-82.5 63l-123 73q-64 38 -90.5 77t-26.5 95q0 39 14 70t39.5 53.5
t61 34.5t79.5 12q37 0 75.5 -8t69.5 -23.5t51 -38t20 -50.5v-107h-18q-17 101 -65 144t-133 43q-22 0 -43 -7t-37 -20t-26 -32t-10 -42q0 -22 7 -39t21 -32t35 -29.5t48 -30.5l123 -73q32 -19 55.5 -36.5t38.5 -37t22.5 -41.5t7.5 -50zM339 835h50l-80 -115h-110l-80 115h50
l85 -80z" />
    <glyph glyph-name="scaron" unicode="&#x161;" horiz-adv-x="446" 
d="M404 120q0 -32 -13.5 -56t-36.5 -40.5t-55.5 -25t-69.5 -8.5q-60 0 -98 10.5t-57 29.5t-22 43t-3 62h20q8 -49 42 -77t98 -28q57 0 83.5 20t26.5 50t-22.5 50.5t-67.5 39.5l-60 25q-57 23 -88.5 54.5t-31.5 80.5q0 32 12.5 56t34.5 40.5t52 25t66 8.5q57 0 94 -10.5
t56 -29.5t22 -43t3 -62h-20q-8 49 -41.5 77t-93.5 28q-49 0 -74.5 -20t-25.5 -50q0 -26 21 -47.5t59 -37.5l60 -25q64 -26 97 -57t33 -83zM299 635h50l-80 -115h-110l-80 115h50l85 -80z" />
    <glyph glyph-name="Ydieresis" unicode="&#x178;" horiz-adv-x="628" 
d="M360 325l209 335h45l-234 -380v-280h-90v273l-170 257q-15 22 -29.5 41.5t-31.5 34t-37.5 23.5t-46.5 11v20h90q28 0 50 -9.5t40 -25t32.5 -35t27.5 -40.5zM485 740q0 -23 -13.5 -36.5t-36.5 -13.5t-36.5 13.5t-13.5 36.5t13.5 36.5t36.5 13.5t36.5 -13.5t13.5 -36.5z
M315 740q0 -23 -13.5 -36.5t-36.5 -13.5t-36.5 13.5t-13.5 36.5t13.5 36.5t36.5 13.5t36.5 -13.5t13.5 -36.5z" />
    <glyph glyph-name="Zcaron" unicode="&#x17d;" horiz-adv-x="591" 
d="M574 660l-425 -620h410v-40h-535v20l415 600h-240q-60 0 -92.5 -27.5t-32.5 -87.5h-20v75q0 15 3.5 29.5t13 25.5t26 18t42.5 7h435zM393 825h50l-80 -115h-110l-80 115h50l85 -80z" />
    <glyph glyph-name="zcaron" unicode="&#x17e;" horiz-adv-x="466" 
d="M434 470l-270 -430h270v-40h-390v19l260 411h-115q-64 0 -94.5 -24t-30.5 -66h-20v50q0 15 3.5 29.5t13 25.5t26 18t42.5 7h305zM328 635h50l-80 -115h-110l-80 115h50l85 -80z" />
    <glyph glyph-name="florin" unicode="&#x192;" horiz-adv-x="237" 
 />
    <glyph glyph-name="circumflex" unicode="&#x2c6;" horiz-adv-x="310" 
d="M155 740l-85 -80h-50l80 115h110l80 -115h-50z" />
    <glyph glyph-name="caron" unicode="&#x2c7;" horiz-adv-x="270" 
d="M220 635h50l-80 -115h-110l-80 115h50l85 -80z" />
    <glyph glyph-name="breve" unicode="&#x2d8;" horiz-adv-x="260" 
d="M130 576q42 0 66.5 10.5t43.5 29.5l20 -15q-19 -34 -50 -57t-80 -23t-80 23t-50 57l20 15q19 -19 43.5 -29.5t66.5 -10.5z" />
    <glyph glyph-name="ring" unicode="&#x2da;" horiz-adv-x="170" 
d="M0 615q0 17 7 32.5t18.5 27t27 18.5t32.5 7t32.5 -7t27 -18.5t18.5 -27t7 -32.5t-7 -32.5t-18.5 -27t-27 -18.5t-32.5 -7t-32.5 7t-27 18.5t-18.5 27t-7 32.5zM130 615q0 23 -13 36.5t-32 13.5t-32 -13.5t-13 -36.5t13 -36.5t32 -13.5t32 13.5t13 36.5z" />
    <glyph glyph-name="tilde" unicode="&#x2dc;" horiz-adv-x="265" 
d="M20 680q0 53 15 74t45 21q16 0 29 -6.5t25 -14t24 -13.5t27 -6q11 0 20.5 14.5t9.5 25.5h30q0 -53 -15 -74t-45 -21q-16 0 -28.5 6t-24.5 13.5t-24.5 14t-27.5 6.5q-11 0 -20.5 -14.5t-9.5 -25.5h-30z" />
    <glyph glyph-name="afii10023" unicode="&#x401;" horiz-adv-x="590" 
d="M442 660q26 0 42.5 -7t26 -18t13 -25.5t3.5 -29.5v-75h-20q0 60 -32.5 87.5t-92.5 27.5h-186v-260h270v-40h-270v-280h175q68 0 107.5 25t62.5 85l20 -5l-35 -95q-8 -23 -26.5 -36.5t-48.5 -13.5h-345v540q0 45 -12.5 72.5t-57.5 27.5h-20v20h426zM425 780
q0 -23 -13.5 -36.5t-36.5 -13.5t-36.5 13.5t-13.5 36.5t13.5 36.5t36.5 13.5t36.5 -13.5t13.5 -36.5zM255 780q0 -23 -13.5 -36.5t-36.5 -13.5t-36.5 13.5t-13.5 36.5t13.5 36.5t36.5 13.5t36.5 -13.5t13.5 -36.5z" />
    <glyph glyph-name="afii10051" unicode="&#x402;" horiz-adv-x="624" 
d="M499 200q0 56 -11.5 92t-30.5 56.5t-44.5 28.5t-53.5 8q-38 0 -77.5 -12.5t-62.5 -27.5v-345h-90v620h-130v40h350v-40h-130v-230q23 15 70 27.5t100 12.5q39 0 75.5 -8.5t64 -33.5t44 -70t16.5 -118q0 -66 -8.5 -111.5t-29.5 -74t-57 -41.5t-90 -13v20q95 0 95 220z" />
    <glyph glyph-name="afii10052" unicode="&#x403;" horiz-adv-x="537" 
d="M106 540q0 45 -12.5 72.5t-57.5 27.5h-20v20h415q26 0 42.5 -7t26 -18t13 -25.5t3.5 -29.5v-75h-20q0 60 -32.5 87.5t-92.5 27.5h-175v-620h-90v540zM286 700h-50l70 115h85z" />
    <glyph glyph-name="afii10053" unicode="&#x404;" horiz-adv-x="665" 
d="M589 450q-19 98 -70.5 144t-134.5 46q-47 0 -88.5 -15t-74 -49.5t-53 -89.5t-24.5 -136h331v-40h-331q2 -54 16.5 -106.5t43.5 -93t73.5 -65.5t106.5 -25q75 0 129 36t96 104l20 -15q-24 -47 -53.5 -78.5t-63.5 -51t-73.5 -27.5t-84.5 -8q-71 0 -128.5 26.5t-98 72.5
t-62 108t-21.5 133q0 75 24.5 140.5t66.5 114.5t98.5 77t120.5 28q83 0 143 -23.5t87 -56.5q19 -23 22 -64t3 -86h-20z" />
    <glyph glyph-name="afii10054" unicode="&#x405;" horiz-adv-x="533" 
d="M490 168q0 -42 -14.5 -76t-41.5 -58.5t-65.5 -37.5t-86.5 -13q-41 0 -81.5 8.5t-73 24.5t-53 38.5t-20.5 50.5v107h18q17 -101 66.5 -145t134.5 -44q26 0 49.5 6.5t41.5 19.5t29 32t11 44q0 44 -27.5 75t-82.5 63l-123 73q-64 38 -90.5 77t-26.5 95q0 39 14 70t39.5 53.5
t61 34.5t79.5 12q37 0 75.5 -8t69.5 -23.5t51 -38t20 -50.5v-107h-18q-17 101 -65 144t-133 43q-22 0 -43 -7t-37 -20t-26 -32t-10 -42q0 -22 7 -39t21 -32t35 -29.5t48 -30.5l123 -73q32 -19 55.5 -36.5t38.5 -37t22.5 -41.5t7.5 -50z" />
    <glyph glyph-name="afii10055" unicode="&#x406;" horiz-adv-x="285" 
d="M89 660h90v-540q0 -45 12.5 -72.5t57.5 -27.5h20v-20h-90q-26 0 -43.5 4.5t-28 18t-14.5 36.5t-4 61v540z" />
    <glyph glyph-name="afii10056" unicode="&#x407;" horiz-adv-x="285" 
d="M89 660h90v-540q0 -45 12.5 -72.5t57.5 -27.5h20v-20h-90q-26 0 -43.5 4.5t-28 18t-14.5 36.5t-4 61v540zM261 765q0 -23 -13.5 -36.5t-36.5 -13.5t-36.5 13.5t-13.5 36.5t13.5 36.5t36.5 13.5t36.5 -13.5t13.5 -36.5zM107 765q0 -23 -13.5 -36.5t-36.5 -13.5t-36.5 13.5
t-13.5 36.5t13.5 36.5t36.5 13.5t36.5 -13.5t13.5 -36.5z" />
    <glyph glyph-name="afii10057" unicode="&#x408;" horiz-adv-x="261" 
d="M-9 -117q49 0 72 52t23 143v582h90v-582q0 -56 -8.5 -97t-29.5 -67t-57 -38.5t-90 -12.5v20z" />
    <glyph glyph-name="afii10058" unicode="&#x409;" horiz-adv-x="964" 
d="M839 190q0 79 -48 117t-132 38q-23 0 -47.5 -3.5t-47.5 -11.5v-280q23 -8 47.5 -11.5t47.5 -3.5q84 0 132 38t48 117zM564 660v-280h110q43 0 90 -7t86 -28t64 -58t25 -97t-25 -97t-64 -58t-86 -28t-90 -7h-200v620h-240v-80q0 -171 -15.5 -278t-42 -167.5t-61 -82.5
t-71.5 -22q-11 0 -25 2.5t-25 6.5v25q22 1 43 9.5t39 29.5t33.5 57t26 92.5t17 137t6.5 190.5q0 45 -12.5 72.5t-57.5 27.5h-10v20h485z" />
    <glyph glyph-name="afii10059" unicode="&#x40a;" horiz-adv-x="974" 
d="M576 360h110q43 0 90 -7t86 -26.5t64 -55t25 -91.5t-25 -91.5t-64 -55t-86 -26.5t-90 -7h-200v320h-290v-320h-90v540q0 45 -12.5 72.5t-57.5 27.5h-20v20h90q26 0 43.5 -4.5t28 -18t14.5 -37t4 -60.5v-180h290v300h90v-300zM851 180q0 72 -48.5 108.5t-131.5 36.5
q-23 0 -47.5 -3.5t-47.5 -11.5v-260q23 -8 47.5 -11.5t47.5 -3.5q83 0 131.5 36.5t48.5 108.5z" />
    <glyph glyph-name="afii10060" unicode="&#x40b;" horiz-adv-x="633" 
d="M219 0h-90v620h-130v40h350v-40h-130v-230q23 15 70 27.5t100 12.5q39 0 75.5 -7.5t64 -28t44 -55.5t16.5 -89v-250h-90v250q0 37 -11.5 63t-30.5 42t-44.5 23t-53.5 7q-38 0 -77.5 -12.5t-62.5 -27.5v-345z" />
    <glyph glyph-name="afii10061" unicode="&#x40c;" horiz-adv-x="677" 
d="M106 660q26 0 43.5 -4.5t28 -18t14.5 -37t4 -60.5v-195l210 210q19 19 36.5 37.5t37 33.5t43 24.5t53.5 9.5h50v-25q-41 0 -72.5 -14.5t-72.5 -55.5l-195 -195l230 -240q21 -21 43 -40t43.5 -34t43 -24.5t40.5 -12.5v-19q-11 -4 -26.5 -7t-38.5 -3q-21 0 -43.5 4.5
t-49 18t-56.5 36.5t-66 61l-210 220v-330h-90v540q0 45 -12.5 72.5t-57.5 27.5h-20v20h90zM326 675h-50l70 115h85z" />
    <glyph glyph-name="afii10062" unicode="&#x40e;" horiz-adv-x="607" 
d="M292 120l-185 410q-9 21 -19 40t-24.5 34t-36 24.5t-55.5 11.5v20h120q24 0 42.5 -9.5t32.5 -25t25 -35t20 -40.5l135 -300l180 410h60l-246 -565q-21 -49 -60 -77t-99 -28h-50v30q22 0 45 3.5t43.5 11.5t36.5 22.5t25 37.5zM347 760q42 0 68.5 13t41.5 32l20 -15
q-19 -42 -50 -66t-80 -24t-80 24t-50 66l20 15q15 -19 41.5 -32t68.5 -13z" />
    <glyph glyph-name="afii10145" unicode="&#x40f;" horiz-adv-x="672" 
d="M321 -175l-15 175h-200v540q0 45 -12.5 72.5t-57.5 27.5h-20v20h90q26 0 43.5 -4.5t28 -18t14.5 -37t4 -60.5v-500h300v620h90v-660h-200l-15 -175h-50z" />
    <glyph glyph-name="afii10017" unicode="&#x410;" horiz-adv-x="635" 
d="M662 0q-17 -5 -40 -5q-17 0 -39.5 4t-46 17.5t-46 39.5t-38.5 69l-25 65h-280l-80 -190h-45l280 660h30l220 -535q12 -28 22.5 -47.5t23.5 -31.5t28 -18t36 -8v-20zM162 230h245l-120 290z" />
    <glyph glyph-name="afii10018" unicode="&#x411;" horiz-adv-x="608" 
d="M471 190q0 79 -48.5 117t-131.5 38q-23 0 -47.5 -3.5t-47.5 -10.5v-282q23 -7 47.5 -10.5t47.5 -3.5q83 0 131.5 38t48.5 117zM437 660q26 0 42.5 -7t26 -18t13 -25.5t3.5 -29.5v-75h-20q0 60 -32.5 87.5t-92.5 27.5h-181v-240h110q43 0 90 -7t86 -28t64 -58t25 -97
t-25 -97t-64 -58t-86 -28t-90 -7h-200v540q0 45 -12.5 72.5t-57.5 27.5h-20v20h421z" />
    <glyph glyph-name="afii10019" unicode="&#x412;" horiz-adv-x="622" 
d="M196 315v-266q23 -7 47.5 -10.5t47.5 -3.5q91 0 140.5 36t49.5 104t-48 104t-142 36h-95zM291 355q30 0 58.5 8.5t51 25.5t36.5 42t14 59q0 36 -17 61.5t-43 42t-58 24t-62 7.5q-19 0 -39.5 -3t-35.5 -7v-260h95zM276 660q39 0 86.5 -5.5t88 -24t68 -53t27.5 -92.5
q0 -45 -31 -83.5t-99 -61.5q49 -8 80.5 -22.5t50.5 -35t26.5 -46.5t7.5 -56q0 -56 -25.5 -91.5t-65 -55t-88.5 -26.5t-96 -7h-200v540q0 45 -12.5 72.5t-57.5 27.5h-20v20h260z" />
    <glyph glyph-name="afii10020" unicode="&#x413;" horiz-adv-x="537" 
d="M106 540q0 45 -12.5 72.5t-57.5 27.5h-20v20h415q26 0 42.5 -7t26 -18t13 -25.5t3.5 -29.5v-75h-20q0 60 -32.5 87.5t-92.5 27.5h-175v-620h-90v540z" />
    <glyph glyph-name="afii10021" unicode="&#x414;" horiz-adv-x="687" 
d="M488 40v580h-260q0 -101 -4 -185.5t-13.5 -155t-25 -129.5t-37.5 -110h340zM633 40q15 0 25 -10t10 -25v-185h-45q-6 51 -16 85.5t-25.5 55.5t-36.5 30t-47 9h-325q-26 0 -47 -9t-36.5 -30t-25.5 -55.5t-16 -85.5h-45v185q0 15 10 25t25 10h40q49 106 67 231.5t18 268.5
q0 45 -12.5 72.5t-57.5 27.5h-15v20h500v-620h55z" />
    <glyph glyph-name="afii10022" unicode="&#x415;" horiz-adv-x="590" 
d="M442 660q26 0 42.5 -7t26 -18t13 -25.5t3.5 -29.5v-75h-20q0 60 -32.5 87.5t-92.5 27.5h-186v-260h270v-40h-270v-280h175q68 0 107.5 25t62.5 85l20 -5l-35 -95q-8 -23 -26.5 -36.5t-48.5 -13.5h-345v540q0 45 -12.5 72.5t-57.5 27.5h-20v20h426z" />
    <glyph glyph-name="afii10024" unicode="&#x416;" horiz-adv-x="949" 
d="M341 370l-155 195q-34 43 -67.5 56.5t-67.5 13.5v25h50q26 0 48 -8.5t41.5 -23t36.5 -33.5t34 -40l170 -210v315h87v-315l170 210q16 21 33.5 40t37 33.5t41.5 23t48 8.5h50v-25q-34 0 -67.5 -13.5t-67.5 -56.5l-155 -195l190 -240q18 -22 38.5 -41.5t42 -34t42 -24
t37.5 -11.5v-19q-11 -4 -26.5 -7t-38.5 -3q-17 0 -40 4.5t-49.5 17t-56 36t-59.5 62.5l-170 220v-330h-87v330l-170 -220q-30 -39 -59.5 -62.5t-56 -36t-49.5 -17t-40 -4.5q-23 0 -38.5 3t-26.5 7v19q17 2 37.5 11.5t42 24t42 34t38.5 41.5z" />
    <glyph glyph-name="afii10025" unicode="&#x417;" horiz-adv-x="570" 
d="M165 355h75q34 0 64.5 9.5t54 27.5t37.5 45t14 63t-13 62t-34 43.5t-48 26t-55 8.5q-72 0 -121.5 -42.5t-68.5 -117.5h-20q0 45 3 76t22 54q13 16 34.5 29t47.5 22t54 14t54 5q37 0 79.5 -6.5t78 -26t59 -56t23.5 -96.5q0 -49 -34 -90.5t-106 -64.5q47 -9 78.5 -25
t51 -37.5t27.5 -49t8 -58.5q0 -58 -25 -95t-63.5 -58t-84.5 -29t-87 -8q-75 0 -135 27t-105 98l20 15q34 -45 83.5 -72.5t121.5 -27.5q79 0 127 38t48 107q0 72 -48 111t-142 39h-75v40z" />
    <glyph glyph-name="afii10026" unicode="&#x418;" horiz-adv-x="692" 
d="M516 570l-320 -570h-90v540q0 45 -12.5 72.5t-57.5 27.5h-20v20h90q26 0 43.5 -4.5t28 -18t14.5 -37t4 -60.5v-450l320 570h90v-660h-90v570z" />
    <glyph glyph-name="afii10027" unicode="&#x419;" horiz-adv-x="692" 
d="M516 570l-320 -570h-90v540q0 45 -12.5 72.5t-57.5 27.5h-20v20h90q26 0 43.5 -4.5t28 -18t14.5 -37t4 -60.5v-450l320 570h90v-660h-90v570zM356 770q42 0 68.5 13t41.5 32l20 -15q-19 -42 -50 -66t-80 -24t-80 24t-50 66l20 15q15 -19 41.5 -32t68.5 -13z" />
    <glyph glyph-name="afii10028" unicode="&#x41a;" horiz-adv-x="677" 
d="M106 660q26 0 43.5 -4.5t28 -18t14.5 -37t4 -60.5v-195l210 210q19 19 36.5 37.5t37 33.5t43 24.5t53.5 9.5h50v-25q-41 0 -72.5 -14.5t-72.5 -55.5l-195 -195l230 -240q41 -43 86.5 -74.5t83.5 -36.5v-19q-11 -4 -26.5 -7t-38.5 -3q-21 0 -43.5 4.5t-49 18t-56.5 36.5
t-66 61l-210 220v-330h-90v540q0 45 -12.5 72.5t-57.5 27.5h-20v20h90z" />
    <glyph glyph-name="afii10029" unicode="&#x41b;" horiz-adv-x="660" 
d="M159 540q0 45 -12.5 72.5t-57.5 27.5h-10v20h495v-660h-90v620h-250v-80q0 -171 -15.5 -278t-42 -167.5t-61 -82.5t-71.5 -22q-11 0 -25 2.5t-25 6.5v25q22 1 43 9.5t39 29.5t33.5 57t26 92.5t17 137t6.5 190.5z" />
    <glyph glyph-name="afii10030" unicode="&#x41c;" horiz-adv-x="855" 
d="M841 -45q-54 0 -90 12.5t-57 38.5t-29.5 67t-8.5 97v385l-250 -555h-20l-260 565v-565h-40v660h95l240 -520l235 520h90v-490q0 -91 23 -143t72 -52v-20z" />
    <glyph glyph-name="afii10031" unicode="&#x41d;" horiz-adv-x="693" 
d="M586 120q0 -45 12.5 -72.5t57.5 -27.5h20v-20h-90q-26 0 -43.5 4.5t-28 18t-14.5 36.5t-4 61v200h-300v-320h-90v540q0 45 -12.5 72.5t-57.5 27.5h-20v20h90q26 0 43.5 -4.5t28 -18t14.5 -37t4 -60.5v-180h300v300h90v-540z" />
    <glyph glyph-name="afii10032" unicode="&#x41e;" horiz-adv-x="712" 
d="M566 330q0 71 -14.5 128.5t-41.5 98t-66 62t-88 21.5t-88 -21.5t-66 -62t-41.5 -98t-14.5 -128.5t14.5 -128.5t41.5 -98t66 -62t88 -21.5t88 21.5t66 62t41.5 98t14.5 128.5zM46 330q0 73 21.5 137t62 111.5t98 74.5t128.5 27t128.5 -27t98 -74.5t62 -111.5t21.5 -137
q0 -74 -21.5 -137.5t-62 -111t-98 -74.5t-128.5 -27t-128.5 27t-98 74.5t-62 111t-21.5 137.5z" />
    <glyph glyph-name="afii10033" unicode="&#x41f;" horiz-adv-x="672" 
d="M586 0h-90v620h-300v-620h-90v540q0 45 -12.5 72.5t-57.5 27.5h-20v20h570v-660z" />
    <glyph glyph-name="afii10034" unicode="&#x420;" horiz-adv-x="552" 
d="M271 305q21 0 47.5 8t50.5 27t40.5 49.5t16.5 75.5t-16.5 75.5t-40.5 49.5t-50.5 27t-47.5 8q-19 0 -39.5 -3t-35.5 -7v-300q15 -4 35.5 -7t39.5 -3zM196 0h-90v540q0 45 -12.5 72.5t-57.5 27.5h-20v20h260q32 0 75 -6t82 -26.5t66 -60.5t27 -107q0 -43 -12.5 -73.5
t-32.5 -51.5t-44.5 -34t-49 -19.5t-46 -9t-35.5 -2.5h-110v-270z" />
    <glyph glyph-name="afii10035" unicode="&#x421;" horiz-adv-x="665" 
d="M589 450q-19 98 -70.5 144t-134.5 46q-49 0 -92.5 -16.5t-76.5 -54t-52 -98.5t-19 -151q0 -56 13.5 -110t42.5 -96t74.5 -68t109.5 -26q75 0 129 36t96 104l20 -15q-24 -47 -53.5 -78.5t-63.5 -51t-73.5 -27.5t-84.5 -8q-71 0 -128.5 26.5t-98 72.5t-62 108t-21.5 133
q0 75 24.5 140.5t66.5 114.5t98.5 77t120.5 28q83 0 143 -23.5t87 -56.5q19 -23 22 -64t3 -86h-20z" />
    <glyph glyph-name="afii10036" unicode="&#x422;" horiz-adv-x="583" 
d="M571 660v-40h-225v-620h-90v620h-90q-60 0 -92.5 -27.5t-32.5 -87.5h-20v75q0 15 3.5 29.5t13 25.5t26 18t42.5 7h465z" />
    <glyph glyph-name="afii10037" unicode="&#x423;" horiz-adv-x="607" 
d="M292 120l-185 410q-9 21 -19 40t-24.5 34t-36 24.5t-55.5 11.5v20h120q24 0 42.5 -9.5t32.5 -25t25 -35t20 -40.5l135 -300l180 410h60l-246 -565q-21 -49 -60 -77t-99 -28h-50v30q22 0 45 3.5t43.5 11.5t36.5 22.5t25 37.5z" />
    <glyph glyph-name="afii10038" unicode="&#x424;" horiz-adv-x="780" 
d="M135 315q0 -49 10.5 -92.5t34.5 -76.5t64.5 -52t100.5 -19v480q-60 0 -100.5 -19t-64.5 -52t-34.5 -76.5t-10.5 -92.5zM645 315q0 49 -10.5 92.5t-34.5 76.5t-64.5 52t-100.5 19v-480q60 0 100.5 19t64.5 52t34.5 76.5t10.5 92.5zM435 595q79 0 137 -20t96.5 -56.5
t57.5 -88t19 -115.5t-19 -115.5t-57.5 -88t-96.5 -56.5t-137 -20v-65h-90v65q-79 0 -137 20t-96.5 56.5t-57.5 88t-19 115.5t19 115.5t57.5 88t96.5 56.5t137 20v5q0 38 -16 54t-54 16h-20v20h90q52 0 71 -19t19 -71v-5z" />
    <glyph glyph-name="afii10039" unicode="&#x425;" horiz-adv-x="667" 
d="M91 0h-50l250 325l-140 205q-13 19 -27 37.5t-32 34t-42.5 26t-58.5 12.5v20h120q24 0 44.5 -10t37.5 -26t31 -35.5t27 -38.5l100 -150l200 260h50l-225 -295l160 -235q13 -19 28 -37.5t33 -34t39 -26t45 -12.5v-20h-105q-24 0 -44.5 10t-37.5 26t-31.5 35.5t-26.5 38.5
l-120 180z" />
    <glyph glyph-name="afii10040" unicode="&#x426;" horiz-adv-x="695" 
d="M106 0v540q0 45 -12.5 72.5t-57.5 27.5h-20v20h90q26 0 43.5 -4.5t28 -18t14.5 -37t4 -60.5v-500h300v620h90v-620h55q15 0 25 -10t10 -25v-185h-45q-6 51 -16 85.5t-25.5 55.5t-36.5 30t-47 9h-400z" />
    <glyph glyph-name="afii10041" unicode="&#x427;" horiz-adv-x="640" 
d="M334 290q30 0 67 4.5t63 15.5v350h90v-660h-90v270q-13 -6 -30 -9.5t-35.5 -6t-36.5 -3.5t-33 -1q-51 0 -95.5 7.5t-77.5 30t-52.5 63.5t-19.5 109v80q0 45 -12.5 72.5t-57.5 27.5h-10v20h90q26 0 43.5 -4.5t28 -18t14.5 -37t4 -60.5v-90q0 -49 9.5 -80t28 -49
t46.5 -24.5t66 -6.5z" />
    <glyph glyph-name="afii10042" unicode="&#x428;" horiz-adv-x="932" 
d="M106 0v540q0 45 -12.5 72.5t-57.5 27.5h-20v20h90q26 0 43.5 -4.5t28 -18t14.5 -37t4 -60.5v-500h235v620h90v-620h235v620h90v-660h-740z" />
    <glyph glyph-name="afii10043" unicode="&#x429;" horiz-adv-x="955" 
d="M106 0v540q0 45 -12.5 72.5t-57.5 27.5h-20v20h90q26 0 43.5 -4.5t28 -18t14.5 -37t4 -60.5v-500h235v620h90v-620h235v620h90v-620h55q15 0 25 -10t10 -25v-185h-45q-6 51 -16 85.5t-25.5 55.5t-36.5 30t-47 9h-660z" />
    <glyph glyph-name="afii10044" unicode="&#x42a;" horiz-adv-x="704" 
d="M579 190q0 79 -48.5 117t-131.5 38q-23 0 -47.5 -3.5t-47.5 -10.5v-282q23 -7 47.5 -10.5t47.5 -3.5q83 0 131.5 38t48.5 117zM29 625q0 15 10 25t25 10h240v-280h110q43 0 90 -7t86 -28t64 -58t25 -97t-25 -97t-64 -58t-86 -28t-90 -7h-200v620h-30q-32 0 -55 -7.5
t-38 -24.5t-22.5 -46t-9.5 -72h-30v155z" />
    <glyph glyph-name="afii10045" unicode="&#x42b;" horiz-adv-x="832" 
d="M196 380h110q37 0 81 -7t81.5 -28t62.5 -58t25 -97t-25 -97t-62.5 -58t-81.5 -28t-81 -7h-200v540q0 45 -12.5 72.5t-57.5 27.5h-20v20h90q26 0 43.5 -4.5t28 -18t14.5 -37t4 -60.5v-160zM456 190q0 39 -12.5 68.5t-34.5 48.5t-52 28.5t-66 9.5q-23 0 -47.5 -3.5
t-47.5 -10.5v-282q23 -7 47.5 -10.5t47.5 -3.5q36 0 66 9.5t52 28.5t34.5 48.5t12.5 68.5zM636 660h90v-540q0 -45 12.5 -72.5t57.5 -27.5h20v-20h-90q-26 0 -43.5 4.5t-28 18t-14.5 36.5t-4 61v540z" />
    <glyph glyph-name="afii10046" unicode="&#x42c;" horiz-adv-x="596" 
d="M471 190q0 79 -48.5 117t-131.5 38q-23 0 -47.5 -3.5t-47.5 -10.5v-282q23 -7 47.5 -10.5t47.5 -3.5q83 0 131.5 38t48.5 117zM196 380h110q43 0 90 -7t86 -28t64 -58t25 -97t-25 -97t-64 -58t-86 -28t-90 -7h-200v540q0 45 -12.5 72.5t-57.5 27.5h-20v20h90
q26 0 43.5 -4.5t28 -18t14.5 -37t4 -60.5v-160z" />
    <glyph glyph-name="afii10047" unicode="&#x42d;" horiz-adv-x="665" 
d="M55 450q0 45 3 86t22 64q27 33 87 56.5t143 23.5q64 0 120.5 -28t98.5 -77t66.5 -114.5t24.5 -140.5q0 -71 -21.5 -133t-62 -108t-98 -72.5t-128.5 -26.5q-45 0 -84.5 8t-73.5 27.5t-63.5 51t-53.5 78.5l20 15q42 -68 96 -104t129 -36q62 0 106.5 25t73.5 65.5t43.5 93
t16.5 106.5h-331v40h331q-4 81 -24.5 136t-53 89.5t-74.5 49.5t-88 15q-83 0 -134.5 -46t-70.5 -144h-20z" />
    <glyph glyph-name="afii10048" unicode="&#x42e;" horiz-adv-x="873" 
d="M546 680q60 0 111 -25t88.5 -71t59 -110.5t21.5 -143.5t-21.5 -143.5t-59 -110.5t-88.5 -71t-111 -25q-59 0 -109.5 24.5t-88 69t-59 107t-23.5 139.5h-70v-320h-90v540q0 45 -12.5 72.5t-57.5 27.5h-20v20h90q26 0 43.5 -4.5t28 -18t14.5 -37t4 -60.5v-180h71
q5 73 28 132t59.5 101t85.5 64.5t106 22.5zM546 640q-38 0 -70.5 -20.5t-57 -59.5t-38.5 -97t-14 -133t14 -133t38.5 -97t57 -59.5t70.5 -20.5q37 0 70 20.5t57.5 59.5t38.5 97t14 133t-14 133t-38.5 97t-57.5 59.5t-70 20.5z" />
    <glyph glyph-name="afii10049" unicode="&#x42f;" horiz-adv-x="608" 
d="M414 270h-97l-105 -190q-29 -53 -61.5 -71.5t-76.5 -18.5q-15 0 -32 3.5t-28 7.5v19q38 4 64 25t46 55l105 180q-24 6 -50 18t-47 33t-34.5 52.5t-13.5 76.5q0 67 27 107t66 60.5t82 26.5t75 6h250v-20h-10q-45 0 -57.5 -27.5t-12.5 -72.5v-540h-90v270zM339 305
q19 0 39.5 3t35.5 7v300q-15 4 -35.5 7t-39.5 3q-21 0 -47.5 -8t-50.5 -27t-40.5 -49.5t-16.5 -75.5t16.5 -75.5t40.5 -49.5t50.5 -27t47.5 -8z" />
    <glyph glyph-name="afii10065" unicode="&#x430;" horiz-adv-x="481" 
d="M324 230h-30q-75 0 -117.5 -27.5t-42.5 -72.5q0 -24 8 -42t21 -30t30 -17.5t36 -5.5q37 0 58.5 18.5t36.5 41.5v135zM364 0l-35 45h-5q-15 -19 -49 -37t-91 -18q-21 0 -46 6.5t-47 22.5t-37 43t-15 68t21 68t56 43t81 22.5t97 6.5h30q0 52 -8 85.5t-22 52t-33.5 25.5
t-41.5 7q-42 0 -70.5 -18t-39.5 -67h-45q0 26 3 48.5t22 41.5q9 9 25.5 16t36.5 11t42.5 6t45.5 2q34 0 65.5 -7.5t56 -30t39 -64t14.5 -108.5v-270h-50z" />
    <glyph glyph-name="afii10066" unicode="&#x431;" horiz-adv-x="528" 
d="M270 400q-23 0 -43.5 -9t-36.5 -31t-25.5 -57.5t-9.5 -87.5q0 -54 9.5 -90t25.5 -57t36.5 -29.5t43.5 -8.5q22 0 43 8.5t37 29.5t25.5 57t9.5 90q0 52 -9.5 87.5t-25.5 57.5t-37 31t-43 9zM245 530q-32 -8 -56.5 -21.5t-42 -39t-27.5 -66.5t-14 -103h5q19 75 62 107.5
t118 32.5q37 0 71.5 -13.5t61 -41t42 -70t15.5 -100.5t-16 -100.5t-44 -70t-66.5 -41t-83.5 -13.5t-83.5 13.5t-66.5 42.5t-44 74.5t-16 109.5v40q0 92 8 151.5t25 96t45 55t67 27.5l150 35q34 8 52.5 17t22.5 28h20v-65q0 -38 -30 -45z" />
    <glyph glyph-name="afii10067" unicode="&#x432;" horiz-adv-x="501" 
d="M172 225v-180q11 -4 30.5 -7t34.5 -3q60 0 92.5 23t32.5 72q0 95 -135 95h-55zM172 265h55q53 0 84 21.5t31 63.5t-30 63.5t-75 21.5q-15 0 -34.5 -3t-30.5 -7v-160zM247 470q37 0 71.5 -6t61 -20t42 -37t15.5 -57q0 -42 -23.5 -68t-76.5 -37q57 -11 88.5 -40.5
t31.5 -74.5q0 -38 -16 -63t-44 -40t-66.5 -21t-83.5 -6h-165v350q0 45 -12.5 72.5t-57.5 27.5h-10v20h245z" />
    <glyph glyph-name="afii10068" unicode="&#x433;" horiz-adv-x="435" 
d="M82 350q0 45 -12.5 72.5t-57.5 27.5h-10v20h330q22 0 37 -7t23 -18t11.5 -25.5t3.5 -29.5v-60h-20q0 49 -30 74.5t-75 25.5h-110v-430h-90v350z" />
    <glyph glyph-name="afii10069" unicode="&#x434;" horiz-adv-x="570" 
d="M141 350q0 45 -12.5 72.5t-57.5 27.5v20h400v-430h40q15 0 25 -10t10 -25v-160h-40q-8 83 -32 119t-73 36h-240q-49 0 -73 -36t-32 -119h-40v160q0 15 10 25t25 10h30q17 37 28.5 77.5t18.5 81t10 79t3 72.5zM381 40v390h-175q0 -128 -12.5 -221.5t-42.5 -168.5h230z" />
    <glyph glyph-name="afii10070" unicode="&#x435;" horiz-adv-x="488" 
d="M443 220h-303q0 -41 9 -76t26.5 -60.5t42.5 -39.5t57 -14q49 0 81.5 21t58.5 59l20 -15q-34 -57 -78.5 -81t-101.5 -24q-53 0 -92 19.5t-65.5 52.5t-39.5 77.5t-13 95.5t13.5 95.5t39.5 77.5t63 52.5t84 19.5q102 0 151 -57t49 -163zM350 260q0 87 -26 133.5t-79 46.5
q-23 0 -42 -13.5t-33 -37.5t-22 -57t-8 -72h210z" />
    <glyph glyph-name="afii10072" unicode="&#x436;" horiz-adv-x="686" 
d="M298 470h90v-240l105 175q19 31 50 48t80 17h25v-25q-30 0 -55.5 -11t-39.5 -34l-95 -155l105 -145q26 -37 53.5 -56.5t61.5 -24.5v-19q-8 -4 -21.5 -7t-28.5 -3q-38 0 -71.5 19t-63.5 61l-105 145v-215h-90v215l-105 -145q-30 -42 -63.5 -61t-71.5 -19q-15 0 -28.5 3
t-21.5 7v19q34 5 61.5 24.5t53.5 56.5l105 145l-95 155q-14 23 -39.5 34t-55.5 11v25h25q49 0 80 -17t50 -48l105 -175v240z" />
    <glyph glyph-name="afii10073" unicode="&#x437;" horiz-adv-x="455" 
d="M131 260h45q60 0 92.5 22.5t32.5 67.5t-29 67.5t-71 22.5q-54 0 -90.5 -28t-39.5 -77h-20q0 42 3 66.5t22 43.5t55 27t85 8q34 0 66 -6.5t57.5 -21.5t41 -40t15.5 -62q0 -45 -27.5 -72t-72.5 -38q54 -11 84.5 -40.5t30.5 -74.5q0 -39 -16 -65t-43 -41.5t-63.5 -22
t-77.5 -6.5q-34 0 -60.5 6t-47.5 17t-37.5 25.5t-29.5 31.5l20 15q9 -9 21 -19t28 -18t37 -13t49 -5q60 0 92.5 23t32.5 72q0 95 -140 95h-45v40z" />
    <glyph glyph-name="afii10074" unicode="&#x438;" horiz-adv-x="548" 
d="M386 380l-210 -380h-90v350q0 45 -12.5 72.5t-57.5 27.5h-15v20h85q26 0 43.5 -4.5t28 -18t14.5 -37t4 -60.5v-260l210 380h90v-470h-90v380z" />
    <glyph glyph-name="afii10075" unicode="&#x439;" horiz-adv-x="548" 
d="M386 380l-210 -380h-90v350q0 45 -12.5 72.5t-57.5 27.5h-15v20h85q26 0 43.5 -4.5t28 -18t14.5 -37t4 -60.5v-260l210 380h90v-470h-90v380zM281 576q42 0 66.5 10.5t43.5 29.5l20 -15q-19 -34 -50 -57t-80 -23t-80 23t-50 57l20 15q19 -19 43.5 -29.5t66.5 -10.5z" />
    <glyph glyph-name="afii10076" unicode="&#x43a;" horiz-adv-x="497" 
d="M179 230l125 175q22 30 51.5 47.5t78.5 17.5h25v-25q-23 0 -47 -9.5t-43 -35.5l-110 -155l115 -145q26 -34 53.5 -55t61.5 -26v-19q-8 -4 -21.5 -7t-28.5 -3q-38 0 -74.5 19t-70.5 61l-115 145v-215h-90v350q0 45 -12.5 72.5t-57.5 27.5h-20v20h90q26 0 43.5 -4.5t28 -18
t14.5 -37t4 -60.5v-120z" />
    <glyph glyph-name="afii10077" unicode="&#x43b;" horiz-adv-x="546" 
d="M208 350q0 -113 -13 -183t-34 -109.5t-48 -53.5t-55 -14q-8 0 -24.5 3t-24.5 6v25q24 0 47.5 12.5t42 47.5t29.5 99t11 167q0 22 -2.5 40.5t-10 32t-21.5 20.5t-37 7v20h406v-470h-90v430h-176v-80z" />
    <glyph glyph-name="afii10078" unicode="&#x43c;" horiz-adv-x="649" 
d="M302 0h-20l-170 375v-375h-40v470h95l150 -330l150 330h90v-320q0 -28 5.5 -55t15 -48t23.5 -34t31 -13v-20q-47 0 -78.5 12t-51 34t-27.5 53.5t-8 70.5v215z" />
    <glyph glyph-name="afii10079" unicode="&#x43d;" horiz-adv-x="553" 
d="M376 215h-200v-215h-90v350q0 45 -12.5 72.5t-57.5 27.5h-15v20h85q26 0 43.5 -4.5t28 -18t14.5 -37t4 -60.5v-95h200v215h90v-350q0 -45 12.5 -72.5t57.5 -27.5h15v-20h-85q-26 0 -43.5 4.5t-28 18t-14.5 36.5t-4 61v95z" />
    <glyph glyph-name="afii10080" unicode="&#x43e;" 
d="M390 235q0 43 -9 80.5t-25.5 65t-39.5 43.5t-51 16t-51 -16t-39.5 -43.5t-25.5 -65t-9 -80.5t9 -80.5t25.5 -65t39.5 -43.5t51 -16t51 16t39.5 43.5t25.5 65t9 80.5zM45 235q0 51 14.5 95.5t43 77.5t69 52.5t93.5 19.5q52 0 93 -19.5t69.5 -52.5t43 -77.5t14.5 -95.5
t-14.5 -95.5t-43 -77.5t-69.5 -52.5t-93 -19.5q-53 0 -93.5 19.5t-69 52.5t-43 77.5t-14.5 95.5z" />
    <glyph glyph-name="afii10081" unicode="&#x43f;" horiz-adv-x="534" 
d="M462 0h-90v430h-200v-430h-90v350q0 45 -12.5 72.5t-57.5 27.5h-10v20h460v-470z" />
    <glyph glyph-name="afii10082" unicode="&#x440;" horiz-adv-x="538" 
d="M177 60q23 -11 47.5 -20.5t47.5 -9.5q34 0 57.5 16t38.5 43.5t22 65t7 80.5t-6.5 80.5t-21 65t-36 43.5t-51.5 16q-21 0 -37 -5t-28.5 -13.5t-22.5 -19.5t-17 -22v-320zM87 350q0 45 -12.5 72.5t-57.5 27.5h-20v20h90q38 0 57.5 -11t27.5 -34h5q15 19 47 37t88 18
q45 0 78.5 -19.5t56 -52.5t34 -77.5t11.5 -95.5t-11.5 -95.5t-35 -77.5t-59 -52.5t-84.5 -19.5q-42 0 -72 9.5t-53 20.5v-210h-90v540z" />
    <glyph glyph-name="afii10083" unicode="&#x441;" horiz-adv-x="483" 
d="M265 480q53 0 89.5 -8t55.5 -27q9 -9 14.5 -20t7.5 -26t2.5 -35.5t0.5 -48.5h-20q-4 64 -40.5 94.5t-89.5 30.5q-38 0 -65 -16t-45 -43.5t-26.5 -65t-8.5 -80.5t8.5 -80.5t26.5 -65t45 -43.5t65 -16q53 0 86 21t59 59l20 -15q-34 -57 -79.5 -81t-105.5 -24
q-56 0 -97.5 19.5t-68.5 52.5t-40.5 77.5t-13.5 95.5t13.5 95.5t40.5 77.5t68.5 52.5t97.5 19.5z" />
    <glyph glyph-name="afii10084" unicode="&#x442;" horiz-adv-x="474" 
d="M154 430q-45 0 -75 -25.5t-30 -74.5h-20v60q0 15 3.5 29.5t11.5 25.5t22.5 18t37.5 7h355v-40h-165v-430h-90v430h-50z" />
    <glyph glyph-name="afii10085" unicode="&#x443;" horiz-adv-x="514" 
d="M260 -10l-160 390q-15 38 -43.5 57t-66.5 23v20h85q45 0 74.5 -21t45.5 -59l114 -277l126 347h50l-195 -535q-15 -41 -31.5 -67.5t-35 -41.5t-40.5 -20.5t-48 -5.5h-30v30q22 0 42 4.5t36.5 16t30.5 32t26 52.5z" />
    <glyph glyph-name="afii10086" unicode="&#x444;" horiz-adv-x="662" 
d="M375 25q76 8 111 63.5t35 146.5t-35 146.5t-111 63.5v-420zM286 540q0 45 -12.5 72.5t-57.5 27.5h-15v20h85q26 0 43.5 -4.5t28 -18t14.5 -37t4 -60.5v-60q60 -2 105 -21.5t75 -52.5t45 -76.5t15 -94.5t-15 -94.5t-45 -76.5t-75 -52.5t-105 -21.5v-180h-90v180
q-60 2 -105 21.5t-75 52.5t-45 76.5t-15 94.5t15 94.5t45 76.5t75 52.5t105 21.5v60zM287 445q-76 -8 -111 -63.5t-35 -146.5t35 -146.5t111 -63.5v420z" />
    <glyph glyph-name="afii10087" unicode="&#x445;" horiz-adv-x="488" 
d="M218 185l-130 -185h-50l160 225l-87 145q-42 72 -103 80v20h85q34 0 62.5 -21.5t50.5 -58.5l62 -105l130 185h50l-160 -225l87 -145q42 -73 108 -80v-20h-90q-34 0 -62.5 21.5t-50.5 58.5z" />
    <glyph glyph-name="afii10088" unicode="&#x446;" horiz-adv-x="565" 
d="M86 0v350q0 45 -12.5 72.5t-57.5 27.5h-15v20h85q26 0 43.5 -4.5t28 -18t14.5 -37t4 -60.5v-310h200v430h90v-430h40q15 0 25 -10t10 -25v-160h-40q-8 83 -32 119t-73 36h-310z" />
    <glyph glyph-name="afii10089" unicode="&#x447;" horiz-adv-x="533" 
d="M276 215q30 0 55 6t40 12v237h90v-470h-90v193q-15 -6 -40.5 -12t-59.5 -6q-32 0 -64 6t-58 21.5t-42 44t-16 73.5v30q0 45 -12.5 72.5t-57.5 27.5h-10v20h85q26 0 43.5 -4.5t28 -18t14.5 -37t4 -60.5v-40q0 -26 7.5 -44.5t20.5 -29.5t29 -16t33 -5z" />
    <glyph glyph-name="afii10090" unicode="&#x448;" horiz-adv-x="738" 
d="M86 0v350q0 45 -12.5 72.5t-57.5 27.5h-15v20h85q26 0 43.5 -4.5t28 -18t14.5 -37t4 -60.5v-310h155v430h90v-430h155v430h90v-470h-580z" />
    <glyph glyph-name="afii10091" unicode="&#x449;" horiz-adv-x="765" 
d="M86 0v350q0 45 -12.5 72.5t-57.5 27.5h-15v20h85q26 0 43.5 -4.5t28 -18t14.5 -37t4 -60.5v-310h155v430h90v-430h155v430h90v-430h40q15 0 25 -10t10 -25v-160h-40q-8 83 -32 119t-73 36h-510z" />
    <glyph glyph-name="afii10092" unicode="&#x44a;" horiz-adv-x="584" 
d="M275 45q11 -4 30.5 -7t34.5 -3q57 0 88.5 24t31.5 81t-31.5 81t-88.5 24q-15 0 -34.5 -3t-30.5 -7v-190zM35 435q0 15 10 25t25 10h205v-190h75q43 0 80.5 -6.5t65 -22.5t43.5 -43t16 -68t-16 -68t-43.5 -43t-65 -22.5t-80.5 -6.5h-165v430h-10q-53 0 -82 -31t-33 -99
h-25v135z" />
    <glyph glyph-name="afii10093" unicode="&#x44b;" horiz-adv-x="688" 
d="M176 45q11 -4 30.5 -7t34.5 -3q49 0 79.5 24t30.5 81t-30.5 81t-79.5 24q-15 0 -34.5 -3t-30.5 -7v-190zM176 280h75q39 0 74.5 -6.5t62.5 -22.5t42.5 -43t15.5 -68t-15.5 -68t-42.5 -43t-62.5 -22.5t-74.5 -6.5h-165v350q0 45 -12.5 72.5t-57.5 27.5h-15v20h85
q26 0 43.5 -4.5t28 -18t14.5 -37t4 -60.5v-70zM511 470h90v-350q0 -45 12.5 -72.5t57.5 -27.5h15v-20h-85q-26 0 -43.5 4.5t-28 18t-14.5 36.5t-4 61v350z" />
    <glyph glyph-name="afii10094" unicode="&#x44c;" horiz-adv-x="485" 
d="M176 45q11 -4 30.5 -7t34.5 -3q57 0 88.5 24t31.5 81t-31.5 81t-88.5 24q-15 0 -34.5 -3t-30.5 -7v-190zM176 280h75q43 0 80.5 -6.5t65 -22.5t43.5 -43t16 -68t-16 -68t-43.5 -43t-65 -22.5t-80.5 -6.5h-165v350q0 45 -12.5 72.5t-57.5 27.5h-15v20h85q26 0 43.5 -4.5
t28 -18t14.5 -37t4 -60.5v-70z" />
    <glyph glyph-name="afii10095" unicode="&#x44d;" horiz-adv-x="489" 
d="M224 480q56 0 97.5 -19.5t68.5 -52.5t40.5 -77.5t13.5 -95.5t-13.5 -95.5t-40.5 -77.5t-68.5 -52.5t-97.5 -19.5q-60 0 -105.5 24t-79.5 81l20 15q26 -38 59 -59t86 -21q34 0 60.5 13.5t44.5 37.5t28 57t12 72h-210v40h210q-2 39 -11.5 74t-27.5 60.5t-44 40.5t-62 15
q-53 0 -89.5 -30.5t-40.5 -94.5h-20q0 28 0.5 48.5t2.5 35.5t7.5 26t14.5 20q19 19 55.5 27t89.5 8z" />
    <glyph glyph-name="afii10096" unicode="&#x44e;" horiz-adv-x="691" 
d="M441 480q47 0 85 -18t64.5 -50t41 -77.5t14.5 -99.5t-14.5 -99.5t-41 -77.5t-64.5 -50t-85 -18q-45 0 -81.5 16t-63.5 45.5t-42.5 71t-17.5 92.5h-60v-215h-90v350q0 45 -12.5 72.5t-57.5 27.5h-15v20h85q26 0 43.5 -4.5t28 -18t14.5 -37t4 -60.5v-95h60q2 51 17.5 92.5
t42.5 71t63.5 45.5t81.5 16zM441 440q-49 0 -79.5 -51.5t-30.5 -153.5t30.5 -153.5t79.5 -51.5t79.5 51.5t30.5 153.5t-30.5 153.5t-79.5 51.5z" />
    <glyph glyph-name="afii10097" unicode="&#x44f;" horiz-adv-x="510" 
d="M422 0h-90v200h-78l-60 -120q-23 -45 -51 -67.5t-71 -22.5q-15 0 -29.5 3t-25.5 7v20q17 2 31 9.5t26 19t21 25t17 26.5l60 105q-23 4 -43.5 14t-36.5 26.5t-25.5 39t-9.5 50.5q0 39 16 65t43 41.5t63.5 22t77.5 6.5h235v-20q-45 0 -57.5 -27.5t-12.5 -72.5v-350z
M332 425q-11 4 -30.5 7t-34.5 3q-53 0 -84 -23.5t-31 -76.5t31 -76.5t84 -23.5q15 0 34.5 3t30.5 7v180z" />
    <glyph glyph-name="afii10071" unicode="&#x451;" horiz-adv-x="488" 
d="M443 220h-303q0 -41 9 -76t26.5 -60.5t42.5 -39.5t57 -14q49 0 81.5 21t58.5 59l20 -15q-34 -57 -78.5 -81t-101.5 -24q-53 0 -92 19.5t-65.5 52.5t-39.5 77.5t-13 95.5t13.5 95.5t39.5 77.5t63 52.5t84 19.5q102 0 151 -57t49 -163zM350 260q0 87 -26 133.5t-79 46.5
q-23 0 -42 -13.5t-33 -37.5t-22 -57t-8 -72h210zM380 580q0 -19 -13 -32t-32 -13t-32 13t-13 32t13 32t32 13t32 -13t13 -32zM210 580q0 -19 -13 -32t-32 -13t-32 13t-13 32t13 32t32 13t32 -13t13 -32z" />
    <glyph glyph-name="afii10099" unicode="&#x452;" 
d="M2 500v40h70v60l50 60h40v-120h120v-40h-120v-120q19 19 52 34.5t78 15.5q32 0 62.5 -7.5t54.5 -28t38.5 -55.5t14.5 -89v-175q0 -56 -8.5 -97t-29.5 -67t-57 -38.5t-90 -12.5v20q49 0 72 52t23 143v175q0 37 -9.5 63t-25 42t-35 23t-40.5 7q-30 0 -55.5 -16t-44.5 -37
v-332h-90v500h-70z" />
    <glyph glyph-name="afii10100" unicode="&#x453;" horiz-adv-x="435" 
d="M82 350q0 45 -12.5 72.5t-57.5 27.5h-10v20h330q22 0 37 -7t23 -18t11.5 -25.5t3.5 -29.5v-60h-20q0 49 -30 74.5t-75 25.5h-110v-430h-90v350zM222 511h-40l40 130h95z" />
    <glyph glyph-name="afii10101" unicode="&#x454;" horiz-adv-x="489" 
d="M265 480q53 0 89.5 -8t55.5 -27q9 -9 14.5 -20t7.5 -26t2.5 -35.5t0.5 -48.5h-20q-4 64 -40.5 94.5t-89.5 30.5q-36 0 -62 -15t-44 -40.5t-27.5 -60.5t-11.5 -74h210v-40h-210q2 -39 12 -72t28 -57t44 -37.5t61 -13.5q53 0 86 21t59 59l20 -15q-34 -57 -79.5 -81
t-105.5 -24q-56 0 -97.5 19.5t-68.5 52.5t-40.5 77.5t-13.5 95.5t13.5 95.5t40.5 77.5t68.5 52.5t97.5 19.5z" />
    <glyph glyph-name="afii10102" unicode="&#x455;" horiz-adv-x="446" 
d="M404 120q0 -32 -13.5 -56t-36.5 -40.5t-55.5 -25t-69.5 -8.5q-60 0 -98 10.5t-57 29.5t-22 43t-3 62h20q8 -49 42 -77t98 -28q57 0 83.5 20t26.5 50t-22.5 50.5t-67.5 39.5l-60 25q-57 23 -88.5 54.5t-31.5 80.5q0 32 12.5 56t34.5 40.5t52 25t66 8.5q57 0 94 -10.5
t56 -29.5t22 -43t3 -62h-20q-8 49 -41.5 77t-93.5 28q-49 0 -74.5 -20t-25.5 -50q0 -26 21 -47.5t59 -37.5l60 -25q64 -26 97 -57t33 -83z" />
    <glyph glyph-name="afii10103" unicode="&#x456;" horiz-adv-x="246" 
d="M177 0h-90v350q0 45 -12.5 72.5t-57.5 27.5h-20v20h90q26 0 43.5 -4.5t28 -18t14.5 -37t4 -60.5v-350zM171 575q0 -21 -12.5 -33t-33.5 -12q-23 0 -39.5 19t-16.5 45q0 21 12.5 33t33.5 12q23 0 39.5 -19t16.5 -45z" />
    <glyph glyph-name="afii10104" unicode="&#x457;" horiz-adv-x="246" 
d="M177 0h-90v350q0 45 -12.5 72.5t-57.5 27.5h-20v20h90q26 0 43.5 -4.5t28 -18t14.5 -37t4 -60.5v-350zM98 585q0 -21 -12.5 -33t-33.5 -12q-23 0 -39.5 19t-16.5 45q0 21 12.5 33t33.5 12q23 0 39.5 -19t16.5 -45zM252 585q0 -21 -12.5 -33t-33.5 -12q-23 0 -39.5 19
t-16.5 45q0 21 12.5 33t33.5 12q23 0 39.5 -19t16.5 -45z" />
    <glyph glyph-name="afii10105" unicode="&#x458;" horiz-adv-x="246" 
d="M87 350q0 45 -12.5 72.5t-57.5 27.5h-20v20h90q26 0 43.5 -4.5t28 -18t14.5 -37t4 -60.5v-325q0 -56 -8.5 -97t-29.5 -67t-57 -38.5t-90 -12.5v20q49 0 72 52t23 143v325zM171 575q0 -21 -12.5 -33t-33.5 -12q-23 0 -39.5 19t-16.5 45q0 21 12.5 33t33.5 12
q23 0 39.5 -19t16.5 -45z" />
    <glyph glyph-name="afii10106" unicode="&#x459;" horiz-adv-x="772" 
d="M463 45q11 -4 30.5 -7t34.5 -3q57 0 88.5 24t31.5 81t-31.5 81t-88.5 24q-15 0 -34.5 -3t-30.5 -7v-190zM463 470v-190h75q43 0 80.5 -6.5t65 -22.5t43.5 -43t16 -68t-16 -68t-43.5 -43t-65 -22.5t-80.5 -6.5h-165v430h-165v-80q0 -113 -13 -183t-34 -109.5t-48 -53.5
t-55 -14q-8 0 -24.5 3t-24.5 6v25q24 0 47.5 12.5t42 47.5t29.5 99t11 167q0 22 -2.5 40.5t-10 32t-21.5 20.5t-37 7v20h395z" />
    <glyph glyph-name="afii10107" unicode="&#x45a;" horiz-adv-x="763" 
d="M456 260h75q43 0 80.5 -6.5t65 -21.5t43.5 -40t16 -62q0 -38 -16 -63t-43.5 -40t-65 -21t-80.5 -6h-165v220h-190v-220h-90v350q0 45 -12.5 72.5t-57.5 27.5h-15v20h85q26 0 43.5 -4.5t28 -18t14.5 -37t4 -60.5v-90h190v210h90v-210zM456 45q11 -4 30.5 -7t34.5 -3
q57 0 88.5 23t31.5 72t-31.5 72t-88.5 23q-15 0 -34.5 -3t-30.5 -7v-170z" />
    <glyph glyph-name="afii10108" unicode="&#x45b;" 
d="M162 500v-120q19 19 52 34.5t78 15.5q32 0 62.5 -7.5t54.5 -28t38.5 -55.5t14.5 -89v-250h-90v250q0 37 -9.5 63t-25 42t-35 23t-40.5 7q-30 0 -55.5 -16t-44.5 -37v-332h-90v500h-70v40h70v60l50 60h40v-120h120v-40h-120z" />
    <glyph glyph-name="afii10109" unicode="&#x45c;" horiz-adv-x="497" 
d="M179 230l125 175q22 30 51.5 47.5t78.5 17.5h25v-25q-23 0 -47 -9.5t-43 -35.5l-110 -155l115 -145q26 -34 53.5 -55t61.5 -26v-19q-8 -4 -21.5 -7t-28.5 -3q-38 0 -74.5 19t-70.5 61l-115 145v-215h-90v350q0 45 -12.5 72.5t-57.5 27.5h-20v20h90q26 0 43.5 -4.5t28 -18
t14.5 -37t4 -60.5v-120zM249 487h-40l40 130h95z" />
    <glyph glyph-name="afii10110" unicode="&#x45e;" horiz-adv-x="514" 
d="M260 -10l-160 390q-15 38 -43.5 57t-66.5 23v20h85q45 0 74.5 -21t45.5 -59l114 -277l126 347h50l-195 -535q-15 -41 -31.5 -67.5t-35 -41.5t-40.5 -20.5t-48 -5.5h-30v30q22 0 42 4.5t36.5 16t30.5 32t26 52.5zM300 567q42 0 66.5 10.5t43.5 29.5l20 -15
q-19 -34 -50 -57t-80 -23t-80 23t-50 57l20 15q19 -19 43.5 -29.5t66.5 -10.5z" />
    <glyph glyph-name="afii10193" unicode="&#x45f;" horiz-adv-x="538" 
d="M86 0v350q0 45 -12.5 72.5t-57.5 27.5h-15v20h85q26 0 43.5 -4.5t28 -18t14.5 -37t4 -60.5v-310h200v430h90v-470h-155l-15 -150h-40l-15 150h-155z" />
    <glyph glyph-name="afii10050" unicode="&#x490;" horiz-adv-x="535" 
d="M196 620v-620h-90v540q0 45 -12.5 72.5t-57.5 27.5h-20v20h355q60 0 92.5 27.5t32.5 87.5h20v-110q0 -19 -13 -32t-32 -13h-275z" />
    <glyph glyph-name="afii10098" unicode="&#x491;" horiz-adv-x="432" 
d="M172 430v-430h-90v350q0 45 -12.5 72.5t-57.5 27.5h-10v20h280q45 0 75 25.5t30 74.5h20v-100q0 -40 -40 -40h-195z" />
    <glyph glyph-name="endash" unicode="&#x2013;" horiz-adv-x="610" 
d="M540 230h-470v60h470v-60z" />
    <glyph glyph-name="emdash" unicode="&#x2014;" horiz-adv-x="872" 
d="M806 230h-740v60h740v-60z" />
    <glyph glyph-name="quoteleft" unicode="&#x2018;" horiz-adv-x="226" 
d="M171 665q-38 -26 -59 -58t-21 -77l30 10q23 0 39 -16t16 -39q0 -26 -17 -43t-43 -17q-30 0 -47.5 18t-17.5 52q0 64 28.5 109.5t81.5 75.5z" />
    <glyph glyph-name="quoteright" unicode="&#x2019;" horiz-adv-x="228" 
d="M62 440q38 26 59 58t21 77l-30 -10q-23 0 -39 16t-16 39q0 26 17 43t43 17q30 0 47.5 -18t17.5 -52q0 -64 -28.5 -109.5t-81.5 -75.5z" />
    <glyph glyph-name="quotesinglbase" unicode="&#x201a;" horiz-adv-x="237" 
d="M61 -140q38 26 59 58t21 77l-30 -10q-23 0 -39 16t-16 39q0 26 17 43t43 17q30 0 47.5 -18t17.5 -52q0 -64 -28.5 -109.5t-81.5 -75.5z" />
    <glyph glyph-name="quotedblleft" unicode="&#x201c;" horiz-adv-x="406" 
d="M351 665q-38 -26 -59 -58t-21 -77l30 10q23 0 39 -16t16 -39q0 -26 -17 -43t-43 -17q-30 0 -47.5 18t-17.5 52q0 64 28.5 109.5t81.5 75.5zM171 665q-38 -26 -59 -58t-21 -77l30 10q23 0 39 -16t16 -39q0 -26 -17 -43t-43 -17q-30 0 -47.5 18t-17.5 52q0 64 28.5 109.5
t81.5 75.5z" />
    <glyph glyph-name="quotedblright" unicode="&#x201d;" horiz-adv-x="408" 
d="M62 440q38 26 59 58t21 77l-30 -10q-23 0 -39 16t-16 39q0 26 17 43t43 17q30 0 47.5 -18t17.5 -52q0 -64 -28.5 -109.5t-81.5 -75.5zM242 440q38 26 59 58t21 77l-30 -10q-23 0 -39 16t-16 39q0 26 17 43t43 17q30 0 47.5 -18t17.5 -52q0 -64 -28.5 -109.5t-81.5 -75.5z
" />
    <glyph glyph-name="quotedblbase" unicode="&#x201e;" horiz-adv-x="417" 
d="M61 -140q38 26 59 58t21 77l-30 -10q-23 0 -39 16t-16 39q0 26 17 43t43 17q30 0 47.5 -18t17.5 -52q0 -64 -28.5 -109.5t-81.5 -75.5zM241 -140q38 26 59 58t21 77l-30 -10q-23 0 -39 16t-16 39q0 26 17 43t43 17q30 0 47.5 -18t17.5 -52q0 -64 -28.5 -109.5
t-81.5 -75.5z" />
    <glyph glyph-name="dagger" unicode="&#x2020;" horiz-adv-x="523" 
d="M216 470v210h90v-210h190v-60h-190v-600h-90v600h-189v60h189z" />
    <glyph glyph-name="daggerdbl" unicode="&#x2021;" horiz-adv-x="555" 
d="M232 470v210h90v-210h190v-60h-190v-330h190v-60h-190v-210h-90v210h-189v60h189v330h-189v60h189z" />
    <glyph glyph-name="bullet" unicode="&#x2022;" horiz-adv-x="340" 
d="M170 450q53 0 86.5 -33.5t33.5 -86.5t-33.5 -86.5t-86.5 -33.5t-86.5 33.5t-33.5 86.5t33.5 86.5t86.5 33.5z" />
    <glyph glyph-name="ellipsis" unicode="&#x2026;" horiz-adv-x="640" 
d="M110 95q23 0 38.5 -16t15.5 -38q0 -23 -16 -39t-38 -16t-38 16t-16 39q0 22 16 38t38 16zM320 95q23 0 38.5 -16t15.5 -38q0 -23 -16 -39t-38 -16t-38 16t-16 39q0 22 16 38t38 16zM530 95q23 0 38.5 -16t15.5 -38q0 -23 -16 -39t-38 -16t-38 16t-16 39q0 22 16 38t38 16
z" />
    <glyph glyph-name="perthousand" unicode="&#x2030;" horiz-adv-x="1006" 
d="M77 0l455 660h75l-455 -660h-75zM587 130q0 100 -85 100t-85 -100t85 -100t85 100zM647 130q0 -64 -38.5 -99.5t-106.5 -35.5t-106.5 35.5t-38.5 99.5t38.5 99.5t106.5 35.5t106.5 -35.5t38.5 -99.5zM267 530q0 100 -85 100t-85 -100t85 -100t85 100zM327 530
q0 -64 -38.5 -99.5t-106.5 -35.5t-106.5 35.5t-38.5 99.5t38.5 99.5t106.5 35.5t106.5 -35.5t38.5 -99.5zM917 130q0 100 -85 100t-85 -100t85 -100t85 100zM977 130q0 -64 -38.5 -99.5t-106.5 -35.5t-106.5 35.5t-38.5 99.5t38.5 99.5t106.5 35.5t106.5 -35.5t38.5 -99.5z
" />
    <glyph glyph-name="guilsinglleft" unicode="&#x2039;" horiz-adv-x="302" 
d="M34 225l175 195h40l-110 -195l110 -195h-40z" />
    <glyph glyph-name="guilsinglright" unicode="&#x203a;" horiz-adv-x="302" 
d="M93 30h-40l110 195l-110 195h40l175 -195z" />
    <glyph glyph-name="Euro" unicode="&#x20ac;" horiz-adv-x="728" 
d="M378 255h-176q7 -47 24 -90t46 -75t70 -51t96 -19q75 0 129 36t96 104l20 -15q-24 -47 -53.5 -78.5t-63.5 -51t-73.5 -27.5t-84.5 -8q-63 0 -115 20.5t-91.5 57.5t-64.5 87.5t-34 109.5h-75l10 40h60v60h-55l10 40h52q11 61 39 113t68 90.5t90 60t106 21.5
q83 0 143 -23.5t87 -56.5q19 -23 22 -64t3 -86h-20q-19 98 -70.5 144t-134.5 46q-44 0 -83 -12.5t-70.5 -41.5t-53 -76t-29.5 -115h201l-10 -40h-195v-60h190z" />
    <glyph glyph-name="afii61352" unicode="&#x2116;" horiz-adv-x="981" 
d="M924 310h-240v40h240v-40zM114 540q0 45 -19 72.5t-71 27.5h-10v20h65q49 0 80.5 -16t54.5 -44l350 -435v495h40v-670h-20l-430 535v-525h-40v540zM889 535q0 100 -85 100t-85 -100t85 -100t85 100zM949 535q0 -64 -38 -99.5t-107 -35.5t-107 35.5t-38 99.5t38 99.5
t107 35.5t107 -35.5t38 -99.5z" />
    <glyph glyph-name="trademark" unicode="&#x2122;" horiz-adv-x="885" 
d="M146 630q-34 0 -56 -19t-22 -56h-15v45q0 23 11 41.5t45 18.5h273v-30h-131v-323h-67v323h-38zM588 307h-15l-127 282v-282h-30v353h71l112 -248l112 248h67v-240q0 -21 4 -41.5t12 -36.5t19 -25.5t25 -9.5v-15q-36 0 -60.5 9t-39.5 25.5t-21 40t-6 53.5v162z" />
    <glyph glyph-name="Breve" unicode="&#xf406;" horiz-adv-x="260" 
d="M130 760q42 0 68.5 13t41.5 32l20 -15q-19 -42 -50 -66t-80 -24t-80 24t-50 66l20 15q15 -19 41.5 -32t68.5 -13z" />
    <glyph glyph-name="dieresis.alt1" horiz-adv-x="260" 
d="M260 580q0 -19 -13 -32t-32 -13t-32 13t-13 32t13 32t32 13t32 -13t13 -32zM90 580q0 -19 -13 -32t-32 -13t-32 13t-13 32t13 32t32 13t32 -13t13 -32z" />
    <glyph glyph-name="acute.alt1" horiz-adv-x="135" 
d="M40 525h-40l40 130h95z" />
    <glyph glyph-name="grave.alt1" horiz-adv-x="135" 
d="M0 655h95l40 -130h-40z" />
    <glyph glyph-name="circumflex.alt1" horiz-adv-x="270" 
d="M135 610l-85 -80h-50l80 115h110l80 -115h-50z" />
    <glyph glyph-name="dieresis.alt2" horiz-adv-x="260" 
d="M260 760q0 -19 -13 -32t-32 -13t-32 13t-13 32t13 32t32 13t32 -13t13 -32zM90 760q0 -19 -13 -32t-32 -13t-32 13t-13 32t13 32t32 13t32 -13t13 -32z" />
    </font>
</defs>
</svg>
