<svg xmlns="http://www.w3.org/2000/svg">
<defs>
<font id="Podkova-Regular" horiz-adv-x="1089" >
  <font-face 
    font-family="Podkova"
    font-weight="400"
    font-stretch="normal"
    units-per-em="2048"
    panose-1="2 0 5 3 0 0 0 2 0 4"
    ascent="1638"
    descent="-410"
    x-height="879"
    cap-height="1206"
    bbox="-90 -563 3464 1648"
    underline-thickness="102"
    underline-position="-307"
    unicode-range="U+0020-F6CE"
  />
<missing-glyph horiz-adv-x="1976" 
d="M1165 532l191 -147q8 2 32 32q24 31 23 38q-14 13 -78 66q-32 27 -58 50t-48 43l59 79q34 45 56.5 74t33.5 46q-47 40 -76 53l-151 -190q-66 52 -115 89t-84 60q-41 -47 -53 -80l186 -147l-147 -190q1 -10 31 -34q31 -24 39 -22zM1935 1161l-131 -135l-2 2
q-4 -483 -493 -817q0 -5 -1.5 -13.5t-5.5 -16.5t-11 -13.5t-19 -5.5l-25 -25q117 -41 195 -78h9t18 1q22 1 34 0q20 -1 52 -9t57 -28q0 -8 -1.5 -9t-6.5 -6q-13 6 -22 10.5t-16 6.5q-13 6 -35 9.5t-46 0.5q48 -27 68 -51q2 -2 4 -5l4 -6q-3 -9 -19 -12q-68 68 -131 66
q-13 0 -22.5 -0.5t-21.5 -4.5l-15 -5l-22 -9q-8 -4 -14 -6.5t-9 -3.5q-5 5 -8 3t-5 9q10 11 20.5 18t17.5 9q7 3 23.5 8t26.5 8q-19 10 -39.5 19.5t-43.5 17.5q-46 17 -70.5 25.5t-24.5 15.5q0 13 23 31q-15 0 -25.5 14t-13.5 25h-55q-31 0 -59 2t-54 6q-20 -55 -55 -47
q-20 -10 -31 -21q5 -4 15.5 -10t24.5 -16q15 -9 26.5 -16.5t19.5 -12.5q17 -10 41.5 -27.5t44.5 -33.5l34 -7q13 -2 23 -4t17 -4q14 -4 35.5 -17.5t37.5 -35.5q0 -7 -2.5 -8t-7.5 -6q-26 23 -44 33q-18 8 -56 14q42 -28 55 -80q-4 -9 -16 -8q-52 85 -109 96q-65 9 -143 -10
q-6 9 -6 16q13 8 26 13t28 7l24 3q5 1 7.5 1h4.5q3 0 13.5 0.5t12.5 0.5q-14 11 -31 23t-37 25q-42 27 -63.5 42.5t-21.5 25.5q-2 9 7.5 15t18.5 14q-19 19 -14 66q-82 45 -151.5 104t-123.5 125q-26 33 -47.5 61.5t-38.5 53.5t-34 52t-35 57q-2 5 -4 8.5t-4 5.5
q-5 2 -17 5.5t-31 10.5l-50 17l-45 15l-48 18l-17.5 7.5t-24.5 9.5t-25 10t-19 9q-25 14 -55 30t-49 33q-15 13 -11 29.5t23 16.5l524 -46l160 32l137 26l110 22l92 20q34 9 69.5 19.5t55.5 21.5q21 11 38.5 24t28.5 30q30 54 61 92t64.5 62.5t71 35.5t81.5 11q52 0 96 -15
v2l152 54q6 0 6 -4v-2l-51 -142l143 6q7 0 4 -6z" />
    <glyph glyph-name=".notdef" horiz-adv-x="1976" 
d="M1165 532l191 -147q8 2 32 32q24 31 23 38q-14 13 -78 66q-32 27 -58 50t-48 43l59 79q34 45 56.5 74t33.5 46q-47 40 -76 53l-151 -190q-66 52 -115 89t-84 60q-41 -47 -53 -80l186 -147l-147 -190q1 -10 31 -34q31 -24 39 -22zM1935 1161l-131 -135l-2 2
q-4 -483 -493 -817q0 -5 -1.5 -13.5t-5.5 -16.5t-11 -13.5t-19 -5.5l-25 -25q117 -41 195 -78h9t18 1q22 1 34 0q20 -1 52 -9t57 -28q0 -8 -1.5 -9t-6.5 -6q-13 6 -22 10.5t-16 6.5q-13 6 -35 9.5t-46 0.5q48 -27 68 -51q2 -2 4 -5l4 -6q-3 -9 -19 -12q-68 68 -131 66
q-13 0 -22.5 -0.5t-21.5 -4.5l-15 -5l-22 -9q-8 -4 -14 -6.5t-9 -3.5q-5 5 -8 3t-5 9q10 11 20.5 18t17.5 9q7 3 23.5 8t26.5 8q-19 10 -39.5 19.5t-43.5 17.5q-46 17 -70.5 25.5t-24.5 15.5q0 13 23 31q-15 0 -25.5 14t-13.5 25h-55q-31 0 -59 2t-54 6q-20 -55 -55 -47
q-20 -10 -31 -21q5 -4 15.5 -10t24.5 -16q15 -9 26.5 -16.5t19.5 -12.5q17 -10 41.5 -27.5t44.5 -33.5l34 -7q13 -2 23 -4t17 -4q14 -4 35.5 -17.5t37.5 -35.5q0 -7 -2.5 -8t-7.5 -6q-26 23 -44 33q-18 8 -56 14q42 -28 55 -80q-4 -9 -16 -8q-52 85 -109 96q-65 9 -143 -10
q-6 9 -6 16q13 8 26 13t28 7l24 3q5 1 7.5 1h4.5q3 0 13.5 0.5t12.5 0.5q-14 11 -31 23t-37 25q-42 27 -63.5 42.5t-21.5 25.5q-2 9 7.5 15t18.5 14q-19 19 -14 66q-82 45 -151.5 104t-123.5 125q-26 33 -47.5 61.5t-38.5 53.5t-34 52t-35 57q-2 5 -4 8.5t-4 5.5
q-5 2 -17 5.5t-31 10.5l-50 17l-45 15l-48 18l-17.5 7.5t-24.5 9.5t-25 10t-19 9q-25 14 -55 30t-49 33q-15 13 -11 29.5t23 16.5l524 -46l160 32l137 26l110 22l92 20q34 9 69.5 19.5t55.5 21.5q21 11 38.5 24t28.5 30q30 54 61 92t64.5 62.5t71 35.5t81.5 11q52 0 96 -15
v2l152 54q6 0 6 -4v-2l-51 -142l143 6q7 0 4 -6z" />
    <glyph glyph-name=".null" horiz-adv-x="0" 
 />
    <glyph glyph-name="nonmarkingreturn" horiz-adv-x="0" 
 />
    <glyph glyph-name="space" unicode=" " horiz-adv-x="515" 
 />
    <glyph glyph-name="exclam" unicode="!" horiz-adv-x="506" 
d="M311 381h-119l-18 825h162zM379 96q0 -26 -10.5 -49t-28 -40.5t-40.5 -27.5t-48 -10q-26 0 -49.5 10t-40.5 27.5t-27 40.5t-10 49q0 25 10 48.5t27 40.5t40.5 27.5t49.5 10.5q25 0 48 -10.5t40.5 -27.5t28 -40.5t10.5 -48.5z" />
    <glyph glyph-name="quotedbl" unicode="&#x22;" horiz-adv-x="705" 
d="M125 1206h164l-39 -381h-86zM416 1206h164l-39 -381h-86z" />
    <glyph glyph-name="numbersign" unicode="#" horiz-adv-x="1347" 
d="M147 805h334l112 401h129l-110 -401h274l113 401h129l-111 -401h252v-111h-283l-92 -332h305v-110h-335l-107 -389h-131l106 389h-274l-106 -389h-132l107 389h-250v110h281l92 332h-303v111zM489 362h274l92 332h-274z" />
    <glyph glyph-name="dollar" unicode="$" horiz-adv-x="978" 
d="M551 1335v-182q67 -5 117 -16t83 -23t50.5 -21t21.5 -10h2l31 -229l-123 -12l-25 151q-26 11 -65.5 21.5t-91.5 15.5v-371l47 -6q78 -11 131.5 -39t87 -68t48.5 -90.5t15 -107.5q0 -88 -22.5 -152t-65 -106t-104 -64t-139.5 -26v-170h-131v172q-62 6 -115.5 19
t-92.5 26.5t-61.5 24t-23.5 10.5l-35 213l127 14l22 -143q39 -14 85.5 -26.5t93.5 -18.5v405q-79 10 -135.5 40t-93 72.5t-53.5 94.5t-17 107q0 60 14.5 112.5t49.5 94t92 68.5t143 36v184h133zM737 328q0 30 -8.5 60.5t-29.5 56t-57.5 42.5t-92.5 21v-387q86 14 137 63.5
t51 143.5zM248 862q0 -34 10.5 -64.5t31 -54.5t49 -40t64.5 -21l15 -2v350q-91 -12 -130.5 -55.5t-39.5 -112.5z" />
    <glyph glyph-name="percent" unicode="%" horiz-adv-x="1497" 
d="M512 -43h-152l599 1280h149zM209 877q0 -69 11 -112.5t30 -68t44 -34t54 -9.5q28 0 53.5 9.5t44.5 34t30 68t11 112.5t-11 113t-30 68.5t-44.5 34t-53.5 9.5q-29 0 -54 -9.5t-44 -34t-30 -68.5t-11 -113zM621 877q0 -100 -20 -168.5t-56 -111t-86 -61t-111 -18.5
q-60 0 -110 18.5t-86 61t-56 111t-20 168.5t20 169t56 111.5t86 61t110 18.5q61 0 111 -18.5t86 -61t56 -111.5t20 -169zM1008 326q0 -69 11 -112.5t30 -68t44 -34t54 -9.5q28 0 53.5 9.5t44.5 34t30 68t11 112.5t-11 113t-30 68.5t-44.5 34t-53.5 9.5q-29 0 -54 -9.5
t-44 -34t-30 -68.5t-11 -113zM1419 326q0 -100 -19.5 -168.5t-55.5 -111t-86 -61t-111 -18.5q-60 0 -110 18.5t-86 61t-56 111t-20 168.5t20 169t56 111.5t86 61t110 18.5q61 0 111 -18.5t86 -61t55.5 -111.5t19.5 -169z" />
    <glyph glyph-name="ampersand" unicode="&#x26;" horiz-adv-x="1408" 
d="M1306 723l-145 -49q-23 -81 -53.5 -179t-79.5 -194q100 -77 178 -132.5t125 -84.5l-68 -115q0 1 -23 16.5t-63.5 44t-96 68.5t-120.5 90q-35 -47 -79.5 -87t-99.5 -69.5t-121.5 -46t-147.5 -16.5q-35 0 -79.5 6.5t-91 22t-91 42t-79.5 67t-56 96.5t-21 131q0 76 26 134.5
t69 104t96.5 82t109.5 68.5q-54 72 -85.5 139t-31.5 129q0 51 12 89.5t32 65.5t46.5 45t55.5 28t59 14t57 4q54 0 101.5 -13.5t83.5 -41.5t56.5 -69.5t20.5 -98.5q0 -53 -18.5 -96t-49 -80t-71 -69t-84.5 -62q71 -84 161.5 -166.5t186.5 -159.5q44 93 70.5 194t46.5 197
l223 72zM466 631q-43 -29 -81.5 -60.5t-68 -67.5t-46.5 -77.5t-17 -91.5q0 -52 16 -90t41 -65t55.5 -44.5t60 -27.5t54 -13.5t38.5 -3.5q116 0 199.5 49t142.5 129q-104 82 -206.5 174.5t-187.5 188.5zM659 997q0 66 -26 96.5t-91 30.5q-63 0 -88.5 -35.5t-25.5 -95.5
q0 -45 21.5 -95t62.5 -105q31 21 58 42.5t46.5 46t31 52.5t11.5 63z" />
    <glyph glyph-name="quotesingle" unicode="'" horiz-adv-x="416" 
d="M126 1206h164l-39 -381h-86z" />
    <glyph glyph-name="parenleft" unicode="(" horiz-adv-x="582" 
d="M256 539q0 -56 9 -139.5t37.5 -178t81.5 -193t140 -184.5l-78 -100q-67 43 -130.5 122t-113 184t-80 229.5t-30.5 259.5t30.5 260t80 230t113 184t130.5 122l78 -100q-58 -57 -100.5 -120.5t-72.5 -128t-48.5 -128.5t-29 -122.5t-14 -108.5t-3.5 -88z" />
    <glyph glyph-name="parenright" unicode=")" horiz-adv-x="582" 
d="M326 539q0 38 -3.5 88t-14 108.5t-29 122.5t-48.5 128.5t-72.5 128t-100.5 120.5l78 100q67 -43 130.5 -122t113 -184t80 -230t30.5 -260t-30.5 -259.5t-80 -229.5t-113 -184t-130.5 -122l-78 100q87 86 140 184.5t81.5 193t37.5 178t9 139.5z" />
    <glyph glyph-name="asterisk" unicode="*" horiz-adv-x="965" 
d="M540 1036l285 111l51 -148l-297 -79l188 -232l-125 -94l-161 250l-162 -250l-129 90l194 238l-288 75l47 150l274 -109l-16 297h155z" />
    <glyph glyph-name="plus" unicode="+" horiz-adv-x="952" 
d="M95 692h303v309h154v-309h305v-141h-305v-311h-154v311h-303v141z" />
    <glyph glyph-name="comma" unicode="," horiz-adv-x="527" 
d="M401 84q0 -30 -7.5 -60t-20 -58.5t-28.5 -55.5t-44.5 -66.5t-79.5 -91.5l-72 62q17 26 35 54q14 24 30.5 52.5t28.5 56.5q-18 2 -37 8.5t-36.5 21t-29 38t-11.5 51.5t10 51.5t28 40.5t42 26t53 9q27 0 52.5 -11t44.5 -30t30.5 -44.5t11.5 -53.5z" />
    <glyph glyph-name="hyphen" unicode="-" horiz-adv-x="903" 
d="M138 545h627v-142h-627v142z" />
    <glyph glyph-name="period" unicode="." horiz-adv-x="507" 
d="M381 96q0 -26 -10.5 -49t-28 -40.5t-40.5 -27.5t-48 -10q-26 0 -49.5 10t-40.5 27.5t-27 40.5t-10 49q0 25 10 48.5t27 40.5t40.5 27.5t49.5 10.5q25 0 48 -10.5t40.5 -27.5t28 -40.5t10.5 -48.5z" />
    <glyph glyph-name="slash" unicode="/" horiz-adv-x="923" 
d="M202 -268h-151l671 1474h150z" />
    <glyph glyph-name="zero" unicode="0" horiz-adv-x="1202" 
d="M296 602q0 -150 24 -246t65 -151t97 -75.5t121 -20.5q64 0 119.5 20.5t96.5 75.5t65 151t24 246q0 152 -24 248.5t-65 151.5t-96.5 75.5t-119.5 20.5q-65 0 -121 -20.5t-97 -75.5t-65 -151.5t-24 -248.5zM1084 602q0 -177 -35.5 -298t-99 -195.5t-152.5 -107t-196 -32.5
t-195.5 32.5t-152.5 107t-99 195.5t-35 298q0 178 35 299.5t99 196t152.5 107t195.5 32.5t196 -32.5t152.5 -107t99 -196t35.5 -299.5z" />
    <glyph glyph-name="one" unicode="1" horiz-adv-x="968" 
d="M80 836l442 370h102l-4 -1065h320v-141h-819v141h340l2 826l-293 -242z" />
    <glyph glyph-name="two" unicode="2" 
d="M805 141l106 170l117 -61l-152 -250h-758l-34 90q18 78 55.5 140.5t87 113.5t107 93.5t114.5 81.5t110 77.5t94 80.5t65.5 91.5t25.5 110.5q1 37 -12 75.5t-43 70.5t-79 52.5t-120 20.5q-63 0 -113 -19.5t-85 -42.5q-41 -27 -72 -61l-117 110l10 11.5t31 28t53 36.5
t75 36.5t97 28t119 11.5q100 0 179.5 -27t135 -75t85.5 -113.5t30 -142.5q0 -68 -24 -125t-63.5 -105.5t-91.5 -91t-107.5 -82t-111 -77.5t-103 -78.5t-82.5 -84t-50 -94.5h521z" />
    <glyph glyph-name="three" unicode="3" horiz-adv-x="1059" 
d="M176 227q1 0 24.5 -18t66 -40t102.5 -40t134 -18q66 0 116 17t83.5 47t50.5 70t17 85q0 57 -16 96t-42.5 63.5t-60 37t-68.5 18t-68 6t-59 0.5h-94v141h139q55 0 99.5 10.5t76 34t48 61.5t16.5 93q0 61 -24 100.5t-61 62.5t-81.5 32t-85.5 10q-62 1 -110.5 -16
t-81.5 -37.5t-51 -38.5l-19 -19l-121 111l10.5 11t31.5 26.5t52.5 33.5t74.5 33.5t97 26t121 10.5q93 0 170.5 -24.5t133.5 -70t87 -109.5t31 -142q0 -55 -18.5 -98t-47.5 -75t-64 -53t-69 -32q40 -8 80.5 -31.5t73.5 -61.5t53.5 -90.5t20.5 -117.5q0 -68 -24.5 -133.5
t-77.5 -116.5t-138.5 -82t-206.5 -31q-105 0 -184 22t-133 49q-63 31 -109 71z" />
    <glyph glyph-name="four" unicode="4" horiz-adv-x="1083" 
d="M806 338v-197h186v-141h-563v141h215v197h-592l-2 76l389 860l135 -76q-179 -372 -245 -509t-83.5 -174t-17.5 -38h416v551h164l-2 -551l194 2v-141h-194z" />
    <glyph glyph-name="five" unicode="5" horiz-adv-x="1027" 
d="M862 1206v-143h-543v-326q34 25 83.5 42.5t115.5 17.5q76 0 135.5 -17t105.5 -46t78 -67t52 -80.5t29.5 -86.5t9.5 -84q0 -92 -28 -173.5t-84.5 -142.5t-140.5 -96t-196 -35q-90 0 -159 19.5t-117 42.5q-56 27 -99 63l99 113q1 0 20.5 -15.5t55.5 -33.5t88 -33.5
t118 -15.5q52 0 100.5 15.5t86 51.5t60 94t22.5 144q0 67 -20.5 113.5t-53.5 75.5t-75.5 41.5t-86.5 12.5q-69 0 -118.5 -14t-82.5 -32t-49.5 -33.5t-19.5 -18.5v-2l-94 45v604h708z" />
    <glyph glyph-name="six" unicode="6" horiz-adv-x="1126" 
d="M660 1098q-71 0 -125.5 -21t-95 -57.5t-68 -84.5t-44.5 -102.5t-25.5 -112t-9.5 -112.5q20 27 52 53.5t74 47.5t93 34t108 13q78 0 151.5 -18t131 -63t92.5 -121t35 -192q0 -36 -8 -79t-27.5 -86.5t-52 -84.5t-82 -73t-117.5 -51t-158 -19q-119 0 -207.5 42t-147 123
t-87.5 198.5t-29 267.5q0 132 38 248t109 202.5t171 136.5t225 50q69 0 126.5 -15t99.5 -32q49 -21 89 -47l-75 -119q-1 -1 -23.5 10.5t-57 25.5t-75.5 26t-80 12zM619 616q-57 0 -107.5 -9.5t-92.5 -28.5t-73.5 -46t-49.5 -61q9 -118 38 -189.5t71 -109.5t92.5 -50.5
t101.5 -12.5q67 0 116 23t81.5 59.5t48.5 81.5t16 89q0 120 -59.5 187t-182.5 67z" />
    <glyph glyph-name="seven" unicode="7" horiz-adv-x="937" 
d="M40 969l45 237h834v-88q-113 -145 -190 -297t-125.5 -298t-72 -280t-30.5 -243h-192q14 115 46 241.5t84 261.5t126.5 276.5t173.5 285.5h-529l-28 -127z" />
    <glyph glyph-name="eight" unicode="8" horiz-adv-x="1088" 
d="M542 1237q84 0 158 -22.5t129 -66.5t87 -108.5t32 -148.5q0 -43 -13.5 -85.5t-40 -79t-64.5 -63.5t-87 -40q49 -8 90.5 -34t72 -65t47.5 -87.5t17 -102.5q0 -92 -35 -160t-94 -114t-136 -68.5t-161 -22.5t-161 22.5t-136 68.5t-94 114t-35 160q0 54 17 102.5t47.5 87.5
t72.5 65t91 34q-49 13 -87 40t-64.5 63.5t-40 79t-13.5 85.5q0 84 32 148.5t86.5 108.5t127.5 66.5t155 22.5zM544 109q55 0 101 16.5t79 46.5t51.5 71.5t18.5 90.5q0 46 -15.5 86t-46.5 69.5t-78 46.5t-110 17t-110 -17t-78 -46.5t-46.5 -69.5t-15.5 -86q0 -49 18.5 -90.5
t51.5 -71.5t79 -46.5t101 -16.5zM544 684q55 0 97.5 15.5t72 43.5t45 65.5t15.5 82.5q0 44 -15.5 82t-45 65.5t-72 43.5t-97.5 16q-54 0 -97 -16t-72 -43.5t-44.5 -65.5t-15.5 -82q0 -45 15.5 -82.5t44.5 -65.5t72 -43.5t97 -15.5z" />
    <glyph glyph-name="nine" unicode="9" horiz-adv-x="1132" 
d="M504 109q67 0 117 18.5t86 50t59.5 74.5t38.5 92t21.5 101.5t9.5 103.5q-21 -28 -53 -55.5t-73.5 -50t-92 -36.5t-107.5 -14q-78 0 -151.5 20t-130.5 69.5t-92 134t-35 212.5q0 38 8 83t27 90.5t52 87.5t82 75t117 52.5t158 19.5q119 0 207.5 -41.5t147 -121.5
t87.5 -196.5t29 -267.5q0 -131 -24 -230t-64 -170t-93 -117.5t-111.5 -74t-118.5 -38.5t-115 -11q-75 0 -136 14.5t-105 32.5q-51 20 -91 47l76 119q1 1 24 -10.5t60.5 -25.5t86 -25.5t99.5 -11.5zM510 532q129 0 210.5 48.5t115.5 124.5q-7 129 -36 206.5t-71 119
t-93.5 54.5t-104.5 13q-67 0 -116 -23.5t-81.5 -63t-48.5 -93t-16 -113.5q0 -56 14.5 -105.5t44.5 -86.5t75 -59t107 -22z" />
    <glyph glyph-name="colon" unicode=":" horiz-adv-x="531" 
d="M393 96q0 -26 -10.5 -49t-28 -40.5t-40.5 -27.5t-48 -10q-26 0 -49.5 10t-40.5 27.5t-27 40.5t-10 49q0 25 10 48.5t27 40.5t40.5 27.5t49.5 10.5q25 0 48 -10.5t40.5 -27.5t28 -40.5t10.5 -48.5zM393 782q0 -26 -10.5 -49t-28 -40.5t-40.5 -27.5t-48 -10q-26 0 -49.5 10
t-40.5 27.5t-27 40.5t-10 49q0 25 10 48.5t27 40.5t40.5 27.5t49.5 10.5q25 0 48 -10.5t40.5 -27.5t28 -40.5t10.5 -48.5z" />
    <glyph glyph-name="semicolon" unicode=";" horiz-adv-x="554" 
d="M398 782q0 -26 -10.5 -49t-28 -40.5t-40.5 -27.5t-48 -10q-26 0 -49.5 10t-40.5 27.5t-27 40.5t-10 49q0 25 10 48.5t27 40.5t40.5 27.5t49.5 10.5q25 0 48 -10.5t40.5 -27.5t28 -40.5t10.5 -48.5zM416 84q0 -30 -7.5 -60t-20 -58.5t-28.5 -55.5t-33 -51
q-40 -55 -91 -107l-72 62q17 26 35 54q14 24 30.5 52.5t28.5 56.5q-18 2 -37 8.5t-34 18.5q-20 17 -31.5 40.5t-11.5 51.5t10 51.5t28 40.5t42 26t53 9q27 0 52.5 -11t44.5 -30t30.5 -44.5t11.5 -53.5z" />
    <glyph glyph-name="less" unicode="&#x3c;" horiz-adv-x="1066" 
d="M886 144l-819 439v125l798 395l66 -131l-664 -328v-12l684 -357z" />
    <glyph glyph-name="equal" unicode="=" horiz-adv-x="1054" 
d="M147 852h760v-141h-760v141zM147 528h760v-141h-760v141z" />
    <glyph glyph-name="greater" unicode="&#x3e;" horiz-adv-x="1060" 
d="M134 274l658 357v12l-678 328l65 131l813 -395v-125l-792 -439z" />
    <glyph glyph-name="question" unicode="?" horiz-adv-x="881" 
d="M68 905l34 252q31 21 79 39q41 14 104 26.5t153 12.5q103 0 175 -29t117 -71.5t65 -91.5t20 -89q0 -50 -14.5 -91t-44 -77t-73 -68t-101.5 -63q-31 -17 -59.5 -30.5t-51 -28t-36 -30.5t-13.5 -38q0 -20 9.5 -36t23 -28.5t29.5 -21.5t28 -16l-80 -109q-1 1 -13.5 7t-31 18
t-40 30t-39.5 42.5t-30 56.5t-12 72q0 49 22.5 85.5t53.5 62.5t63.5 43.5t53.5 29.5q99 53 124.5 74t41.5 49t16 69q0 21 -11.5 46t-36.5 46t-63.5 35.5t-93.5 14.5q-74 0 -124.5 -10.5t-82.5 -24.5l-26 -172zM551 96q0 -26 -10.5 -49t-27.5 -40.5t-40.5 -27.5t-48.5 -10
q-26 0 -49.5 10t-40.5 27.5t-27 40.5t-10 49q0 25 10 48.5t27 40.5t40.5 27.5t49.5 10.5q25 0 48.5 -10.5t40.5 -27.5t27.5 -40.5t10.5 -48.5z" />
    <glyph glyph-name="at" unicode="@" horiz-adv-x="1467" 
d="M1010 231q10 -18 33.5 -32.5t54.5 -14.5q25 0 50 13t45.5 44.5t33.5 85t13 134.5q0 58 -11 118t-34.5 116t-61 105.5t-91.5 86.5t-125 58.5t-161 21.5q-104 0 -194 -36.5t-156.5 -105t-104.5 -167t-38 -222.5q0 -153 40 -254t106.5 -161.5t153.5 -85.5t181 -25
q48 0 94 10t82 22q42 14 80 33l68 -98q-38 -27 -87 -47q-42 -18 -103 -32.5t-138 -14.5q-161 0 -280.5 50.5t-198.5 138t-117.5 207t-38.5 257.5q0 71 16 147t49.5 149t85.5 139t124.5 115.5t166 78.5t209.5 29q157 0 275.5 -53.5t197.5 -141.5t118.5 -202t39.5 -234
q0 -95 -25.5 -169.5t-66.5 -125.5t-93.5 -78t-107.5 -27q-48 0 -93.5 22.5t-82.5 70.5q-18 -23 -44 -41q-22 -16 -55.5 -28.5t-78.5 -12.5q-54 0 -106.5 18.5t-93.5 59t-66 104.5t-25 156q0 91 26 155t71 104t105 58.5t128 18.5q46 0 88 -11.5t76.5 -27t66.5 -35.5v-443z
M752 195q37 0 62 9.5t40.5 21.5t24.5 28v348q-14 7 -29.5 12t-34.5 9t-40 4q-87 0 -128.5 -51.5t-41.5 -165.5q0 -56 12 -97t32 -67t47 -38.5t56 -12.5z" />
    <glyph glyph-name="A" unicode="A" horiz-adv-x="1326" 
d="M1304 0h-498v141h129l-64 187h-442l-70 -187h130v-141h-476v141h195l340 924h-207v141h399l369 -1065h195v-141zM480 469h342l-163 530z" />
    <glyph glyph-name="B" unicode="B" horiz-adv-x="1231" 
d="M457 1065v-393h256q21 0 52.5 8.5t61 32t50 66t20.5 110.5q0 67 -21 102.5t-56 52t-81 19t-96 2.5h-186zM457 549l-2 -406h243q113 0 175.5 52t62.5 161q0 97 -57 145t-168 48h-254zM620 1206q116 0 201 -17t140.5 -54.5t82.5 -97.5t27 -146q0 -43 -13 -84t-34 -76.5
t-47 -63t-51 -44.5q41 -16 75 -44t58 -63.5t37.5 -76.5t13.5 -83q0 -75 -20.5 -140t-65 -113t-113 -75.5t-164.5 -27.5h-649v141h195v924h-195v141h522z" />
    <glyph glyph-name="C" unicode="C" horiz-adv-x="1216" 
d="M1109 283l-51 -238q-44 -21 -100 -38q-48 -14 -115.5 -26t-150.5 -12q-132 0 -239.5 44.5t-183 127t-117 200t-42.5 263.5q-1 144 40 261.5t117 200t183.5 127.5t239.5 44q101 -1 172.5 -15.5t117 -32.5t66.5 -32.5t22 -15.5l45 -238l-141 -31l-41 177q-31 17 -89.5 33
t-149.5 16q-99 0 -175 -34.5t-127.5 -98.5t-78.5 -155.5t-27 -205.5q0 -117 27.5 -208.5t80 -155.5t128 -97.5t172.5 -33.5q76 0 138.5 14.5t100.5 28.5l39 163z" />
    <glyph glyph-name="D" unicode="D" horiz-adv-x="1377" 
d="M643 1206q138 0 252.5 -30.5t196 -102.5t126.5 -191.5t45 -297.5q0 -135 -46.5 -243.5t-128 -184t-192 -116t-237.5 -40.5h-561v141h195v924h-195v141h545zM457 141h165q232 0 349.5 112.5t117.5 330.5q0 148 -29.5 241.5t-86 147t-139.5 73t-191 19.5h-186v-924z" />
    <glyph glyph-name="E" unicode="E" horiz-adv-x="1240" 
d="M1154 315l-106 -315h-951v141h195l2 924h-195v141h908l106 -315l-135 -45l-82 219h-438v-371h383v-141h-383l-2 -412h481l82 219z" />
    <glyph glyph-name="F" unicode="F" horiz-adv-x="1143" 
d="M976 846l-82 219h-438v-383h338v-141h-340v-400h250v-141h-607v141h195l2 924h-195v141h906l106 -315z" />
    <glyph glyph-name="G" unicode="G" horiz-adv-x="1249" 
d="M694 594h415v-465q0 -1 -27.5 -26t-84 -55t-141.5 -54.5t-199 -24.5q-104 0 -202.5 38.5t-175 117.5t-123 198.5t-46.5 280.5q0 146 41.5 263t114 199.5t172.5 126.5t217 44q102 0 179.5 -15t131.5 -33q62 -21 108 -48l46 -238l-142 -31l-41 175q-17 7 -42 16t-59.5 17
t-79 13t-99.5 5q-89 0 -158 -32.5t-117 -95.5t-73 -155t-25 -211q0 -134 29 -228.5t79.5 -153.5t118.5 -86t146 -27q65 0 120 12t94.5 27t62 27.5t22.5 14.5v263h-262v141z" />
    <glyph glyph-name="H" unicode="H" horiz-adv-x="1502" 
d="M915 141h131v406h-590l-2 -406h131v-141h-488v141h195l2 924h-195v141h490v-141h-131l-2 -377h590l2 377h-131v141h489v-141h-194l-5 -924h195v-141h-487v141z" />
    <glyph glyph-name="I" unicode="I" horiz-adv-x="750" 
d="M99 1206h553v-141h-192l-4 -924h196v-141h-555v141h197v924h-195v141z" />
    <glyph glyph-name="J" unicode="J" horiz-adv-x="985" 
d="M339 1206h586v-141h-192l-4 -561q-2 -100 -5 -178t-20 -138q-16 -56 -50.5 -97t-80.5 -68t-101.5 -40.5t-113.5 -13.5q-61 0 -110 12.5t-83.5 27.5t-53 28t-19.5 14l-52 238l140 33l43 -183q-1 1 9 -3.5t27.5 -10t41 -10.5t49.5 -6q27 -1 57.5 5t57.5 20t48.5 36.5
t32.5 54.5q17 48 19 117.5t2 165.5l2 557h-230v141z" />
    <glyph glyph-name="K" unicode="K" horiz-adv-x="1369" 
d="M774 141h148l-264 398h-205l2 -398h129v-141h-486v141h193v924h-193v141h486v-141h-131v-385h180l283 385h-142v141h504v-141h-186l-310 -420l338 -504h205v-141h-551v141z" />
    <glyph glyph-name="L" unicode="L" horiz-adv-x="1128" 
d="M1093 313l-107 -313h-889v141h232v924h-234v141h631v-141h-235v-924h387l80 217z" />
    <glyph glyph-name="M" unicode="M" horiz-adv-x="1774" 
d="M800 145l-262 658l-94 262l-5 -924h134v-141h-478v141h195l2 924h-190v141h454l344 -878l340 878h436v-141h-194v-924h194v-141h-489v141h131v924l-91 -266l-250 -654h-177z" />
    <glyph glyph-name="N" unicode="N" horiz-adv-x="1507" 
d="M902 1206h533v-141h-197v-1065h-201l-583 1065l4 -924h172v-141h-533v141h195l-2 924h-191v141h451l524 -956v815h-172v141z" />
    <glyph glyph-name="O" unicode="O" horiz-adv-x="1342" 
d="M671 1098q-98 0 -170.5 -33.5t-120.5 -97t-72 -155t-24 -208.5t24 -208.5t72 -155.5t120.5 -97.5t170.5 -33.5q97 0 170 33.5t121 97.5t72 155.5t24 208.5t-24 208.5t-72 155t-121 97t-170 33.5zM671 -31q-125 0 -228 44.5t-177 127t-115 200t-41 263.5t40.5 263
t114.5 199.5t176.5 126.5t227.5 44q126 0 229.5 -44t178 -126.5t115 -199.5t40.5 -263t-40.5 -263.5t-114 -200t-177 -127t-229.5 -44.5z" />
    <glyph glyph-name="P" unicode="P" horiz-adv-x="1165" 
d="M639 590q67 0 119.5 9t87.5 34.5t53.5 72t18.5 122.5q0 75 -18.5 121.5t-53.5 72t-87.5 34.5t-119.5 9h-184v-475h184zM453 446v-305h245v-141h-600v141h191v924h-191v141h543q125 0 211 -24t139.5 -71.5t77 -118t23.5 -163.5t-23.5 -164.5t-77 -120t-139.5 -73.5
t-211 -25h-188z" />
    <glyph glyph-name="Q" unicode="Q" horiz-adv-x="1344" 
d="M671 -31q-125 0 -228 44.5t-177 127t-115 200t-41 263.5t40.5 263t114.5 199.5t176.5 126.5t227.5 44q126 0 229.5 -44t178 -126.5t115 -199.5t40.5 -263q0 -149 -42 -267t-120 -202l273 -162l-109 -135l-256 217q-65 -42 -142 -64t-165 -22zM671 1098
q-98 0 -170.5 -33.5t-120.5 -97t-72 -155t-24 -208.5t24 -208.5t72 -155.5t120.5 -97.5t170.5 -33.5q97 0 170 33.5t121 97.5t72 155.5t24 208.5t-24 208.5t-72 155t-121 97t-170 33.5z" />
    <glyph glyph-name="R" unicode="R" horiz-adv-x="1279" 
d="M1225 0h-306l-258 473h-208v-332h131v-141h-486v141h191v924h-191v141h543q125 0 210 -21.5t136.5 -67t73.5 -117t22 -171.5q0 -66 -17.5 -120.5t-50 -97t-78.5 -72t-102 -45.5l203 -353h187v-141zM455 616h191q41 0 87.5 7t85.5 29.5t65 64t26 110.5q0 81 -17.5 128
t-51.5 71.5t-84.5 31.5t-116.5 7h-185v-449z" />
    <glyph glyph-name="S" unicode="S" horiz-adv-x="1131" 
d="M858 330q0 33 -7 63.5t-29 56t-63 44.5t-108 28l-155 21q-96 12 -164.5 43t-113 78t-65 109.5t-20.5 137.5q0 69 26 129t79.5 103.5t134.5 68.5t192 25q75 0 141 -8t117 -19.5t85 -23t46 -17.5l35 -262l-141 -14l-27 172q-42 15 -104 25t-150 10q-61 0 -110.5 -12
t-85 -35.5t-55 -58t-19.5 -79.5q0 -86 54 -133t145 -61l186 -29q102 -15 168 -45t104 -73.5t53 -99t15 -122.5q0 -103 -33 -175.5t-92 -118.5t-141 -67.5t-181 -21.5q-73 0 -136.5 7.5t-117.5 19t-98.5 25.5t-79.5 28l-39 249l141 22l28 -162q31 -10 61 -19t62.5 -15.5
t70 -10.5t82.5 -4q64 0 120 11.5t98 37.5t66.5 68t24.5 104z" />
    <glyph glyph-name="T" unicode="T" horiz-adv-x="1196" 
d="M971 870v195h-289l-4 -924h194v-141h-553v141h195l2 924h-289v-195h-156v336h1055v-336h-155z" />
    <glyph glyph-name="U" unicode="U" horiz-adv-x="1379" 
d="M680 109q82 0 137.5 26t89 75t48 119t14.5 158v578h-131v141h491v-141h-196v-584q0 -106 -18.5 -185.5t-50.5 -136.5t-75.5 -94t-94 -58t-105 -29.5t-109.5 -8.5q-53 0 -105.5 8.5t-100.5 29.5t-89 58t-71.5 94t-48 136t-17.5 186v584h-197v141h492v-141h-131v-598
q0 -89 13.5 -156t44.5 -112t82.5 -67.5t127.5 -22.5z" />
    <glyph glyph-name="V" unicode="V" horiz-adv-x="1359" 
d="M8 1206h503v-141h-131l210 -561l109 -322l96 305l198 578h-132v141h476v-141h-194l-361 -1065h-178l-401 1065h-195v141z" />
    <glyph glyph-name="W" unicode="W" horiz-adv-x="1899" 
d="M12 1206h498v-141h-131l172 -580l89 -299l63 289l167 578h181l143 -566l66 -299l88 299l190 578h-131v141h469v-141h-194l-336 -1065h-189l-145 551l-66 276l-79 -286l-144 -541h-176l-340 1065h-195v141z" />
    <glyph glyph-name="X" unicode="X" horiz-adv-x="1407" 
d="M65 1206h516v-141h-131l258 -326l242 326h-141v141h512v-141h-195l-325 -440l383 -484h174v-141h-535v141h152l-289 361l-268 -361h151v-141h-502v141h175l354 475l-357 449h-174v141z" />
    <glyph glyph-name="Y" unicode="Y" horiz-adv-x="1357" 
d="M22 1206h490v-141h-109l289 -360l275 360h-113v141h485v-141h-196l-379 -498l-4 -426h192v-141h-547v141h193l2 420l-406 504h-172v141z" />
    <glyph glyph-name="Z" unicode="Z" horiz-adv-x="1150" 
d="M124 885l58 321h837v-106l-690 -959h515l82 219l135 -45l-107 -315h-833v115l684 950h-509l-41 -199z" />
    <glyph glyph-name="bracketleft" unicode="[" horiz-adv-x="596" 
d="M317 -125h211v-129h-368v1589h368v-129h-211v-1331z" />
    <glyph glyph-name="backslash" unicode="\" horiz-adv-x="922" 
d="M51 1206h149l672 -1474h-152z" />
    <glyph glyph-name="bracketright" unicode="]" horiz-adv-x="596" 
d="M278 1206h-211v129h369v-1589h-369v129h211v1331z" />
    <glyph glyph-name="asciicircum" unicode="^" horiz-adv-x="1706" 
 />
    <glyph glyph-name="underscore" unicode="_" horiz-adv-x="1212" 
d="M136 -39h940v-141h-940v141z" />
    <glyph glyph-name="grave" unicode="`" horiz-adv-x="686" 
d="M600 1049l-37 -66l-477 217l72 135z" />
    <glyph glyph-name="a" unicode="a" horiz-adv-x="1047" 
d="M142 666l33 186q38 16 85 28q40 11 94 20t118 9q92 0 155.5 -17.5t104.5 -47t64 -68.5t33.5 -82.5t12.5 -89.5t2 -88v-356l195 -64l-41 -131l-277 94q-52 -35 -124.5 -62.5t-163.5 -27.5q-83 0 -148 20.5t-110.5 57.5t-69.5 86.5t-25 108.5q-1 71 25.5 122t73 83.5
t108.5 47.5t133 15l265 -2v16q0 26 0.5 54.5t-4 57t-15.5 54t-34 45.5t-60.5 31.5t-93.5 11.5q-65 0 -112 -8t-73 -16l-20 -113zM441 100q45 0 83 7.5t68.5 19t53.5 25.5t39 26v201l-260 2q-35 0 -67.5 -4.5t-58 -18.5t-40.5 -41.5t-15 -72.5q0 -37 16 -64t43 -45t63 -26.5
t75 -8.5z" />
    <glyph glyph-name="b" unicode="b" horiz-adv-x="1076" 
d="M-3 1329l311 -106v-381q48 26 107.5 46.5t128.5 20.5q95 0 175.5 -29t139 -85t91 -139.5t32.5 -192.5q0 -110 -32.5 -201t-91.5 -156t-141 -101t-181 -36q-89 0 -160 17.5t-122 39.5q-59 26 -105 58v1051l-195 67zM534 100q70 0 123.5 26.5t89 74.5t53.5 114.5t18 147.5
q0 155 -68 235t-208 80q-55 0 -98 -12t-73 -26q-35 -17 -63 -38v-550q25 -15 58 -26q29 -10 71 -18t97 -8z" />
    <glyph glyph-name="c" unicode="c" horiz-adv-x="962" 
d="M733 610l-26 142q-13 6 -52.5 16t-111.5 10q-142 0 -213.5 -88.5t-71.5 -249.5t71.5 -250.5t213.5 -89.5q57 0 107 13.5t88 30.5q44 19 81 44l68 -100q0 -1 -27.5 -19.5t-74.5 -40.5t-110 -40.5t-134 -18.5q-99 0 -181 32.5t-141.5 93t-92 148t-32.5 197.5t32.5 197
t92 147.5t141.5 92.5t181 32q72 0 124 -8t87 -17q40 -11 69 -24l43 -221z" />
    <glyph glyph-name="d" unicode="d" horiz-adv-x="1152" 
d="M1118 96l-41 -131l-272 94q-25 -18 -54.5 -34t-63 -28.5t-71 -20t-77.5 -7.5q-99 0 -181 35.5t-141.5 100t-92 154.5t-32.5 200q0 99 34.5 181.5t95 142.5t142 93t175.5 33q68 0 123.5 -12t103.5 -31v269l-194 67l43 127l311 -106v-1061zM541 778q-65 0 -118 -24
t-90 -66.5t-57 -100.5t-20 -126q0 -81 18 -147.5t53.5 -114t89 -73.5t124.5 -26q38 0 72 8t62.5 19.5t51.5 24.5t39 24v551q-25 14 -58 25q-29 10 -71 18t-96 8z" />
    <glyph glyph-name="e" unicode="e" horiz-adv-x="1028" 
d="M541 -31q-99 0 -181 32.5t-141.5 93t-92 148t-32.5 197.5t32.5 197t92 147.5t141.5 92.5t181 32q82 0 157.5 -23t129.5 -80t80.5 -155t11.5 -248l-660 -4q8 -143 79 -221t204 -78q72 0 129 15.5t98 34.5q48 22 84 51l74 -97q0 -1 -25.5 -22t-75 -46t-121.5 -46t-165 -21z
M543 778q-122 0 -192 -65.5t-89 -186.5l518 2q-2 124 -61.5 187t-175.5 63z" />
    <glyph glyph-name="f" unicode="f" horiz-adv-x="750" 
d="M96 127h172v625h-172v127h172v90q0 86 20.5 150.5t64.5 108t114 65.5t168 22q67 0 118 -11.5t86 -25.5q40 -17 70 -37l-61 -104q-23 12 -54 23q-26 9 -63.5 16.5t-85.5 7.5q-66 0 -108 -15.5t-66.5 -46.5t-33.5 -77.5t-9 -108.5v-57h254v-127h-254v-625h184v-127h-516
v127z" />
    <glyph glyph-name="g" unicode="g" horiz-adv-x="1099" 
d="M856 770q29 -37 45 -85t16 -105q0 -89 -34 -153t-90.5 -105t-130.5 -60.5t-154 -19.5q-47 0 -75 3q-17 1 -30 3v-193h230q327 0 327 -237q0 -75 -36 -127.5t-96.5 -85.5t-139.5 -47.5t-164 -14.5q-92 0 -170.5 14.5t-137 32.5t-92.5 33.5t-38 18.5l57 120q51 -26 112 -45
q52 -17 121 -31t148 -14q67 0 120 7.5t90 23.5t57 40.5t20 59.5q0 28 -10.5 51.5t-36 39.5t-68 25t-106.5 9h-334v371q-29 15 -56 40t-48 59t-33.5 77t-12.5 94q0 79 29 142t81.5 107t127 67.5t166.5 23.5q77 0 138 -14t112 -43l290 109l48 -136zM262 575q0 -55 20.5 -96
t55 -68.5t80 -41t94.5 -13.5t94.5 13.5t80 41t55 68.5t20.5 96q0 111 -67.5 165.5t-182.5 54.5q-116 0 -183 -54.5t-67 -165.5z" />
    <glyph glyph-name="h" unicode="h" horiz-adv-x="1233" 
d="M72 1331l311 -106v-402q21 14 49.5 29t62.5 28t73.5 21t82.5 8q98 0 167.5 -21.5t114 -65t65 -108.5t20.5 -151v-436h172v-127h-424v127h92v403q0 55 -9 100.5t-33.5 78.5t-66.5 51t-108 18q-56 0 -103 -11t-82 -24q-40 -15 -73 -34v-582h92v-127h-424v127h172v1010
l-194 67z" />
    <glyph glyph-name="i" unicode="i" horiz-adv-x="648" 
d="M95 879h330v-752h170v-127h-500v127h170v625h-170v127zM457 1188q0 -26 -10.5 -49.5t-27.5 -40.5t-40.5 -27t-48.5 -10q-26 0 -49 10t-40 27t-27 40.5t-10 49.5q0 25 10 48t27 40.5t40 28t49 10.5q25 0 48.5 -10.5t40.5 -28t27.5 -40.5t10.5 -48z" />
    <glyph glyph-name="j" unicode="j" horiz-adv-x="543" 
d="M51 879h332v-942q0 -43 -2 -88.5t-12.5 -89t-33.5 -83t-64.5 -69t-105 -47t-155.5 -17.5q-10 0 -23.5 1t-27.5 2.5t-27 2.5t-22 2l20 125q20 -2 40.5 -3t45.5 -1q83 0 125.5 25t60.5 62.5t19.5 82t1.5 82.5v828h-172v127zM418 1188q0 -26 -10.5 -49.5t-28 -40.5
t-40.5 -27t-48 -10q-26 0 -49.5 10t-40.5 27t-27 40.5t-10 49.5q0 25 10 48t27 40.5t40.5 28t49.5 10.5q25 0 48 -10.5t40.5 -28t28 -40.5t10.5 -48z" />
    <glyph glyph-name="k" unicode="k" horiz-adv-x="1127" 
d="M1034 752h-172l-172 -293h2l199 -332h176v-127h-272l-232 383h-180v-256h92v-127h-424v127h172v1012l-194 67l43 127l311 -106v-717h186l142 242h-107v127h430v-127z" />
    <glyph glyph-name="l" unicode="l" horiz-adv-x="606" 
d="M383 1260v-1133h172v-127h-504v127h172v1032l-204 45l34 131z" />
    <glyph glyph-name="m" unicode="m" horiz-adv-x="1820" 
d="M119 909l271 -94q13 10 37 26t59 31t80.5 26t99.5 11q109 0 180 -27t111 -81l4 2q34 29 79 53q38 20 91.5 36.5t120.5 16.5q98 0 165.5 -21.5t109 -65t59.5 -108.5t18 -151v-436h172v-127h-424v127h92v403q0 55 -7 100.5t-28.5 78.5t-61.5 51t-106 18q-56 0 -97.5 -11
t-69.5 -24q-33 -15 -56 -34v-582h92v-127h-344v127h92v403q0 55 -7 100.5t-28 78.5t-61 51t-106 18q-56 0 -97.5 -11t-69.5 -24q-33 -15 -56 -34v-582h92v-127h-424v127h172v588l-197 67z" />
    <glyph glyph-name="n" unicode="n" horiz-adv-x="1283" 
d="M119 909l272 -94q15 10 45 26t70.5 31t90 26t104.5 11q98 0 167.5 -21.5t113.5 -65t64.5 -108.5t20.5 -151v-436h172v-127h-424v127h92v403q0 55 -9 100.5t-33.5 78.5t-66.5 51t-108 18q-56 0 -102.5 -11t-81.5 -24q-40 -15 -74 -34v-582h92v-127h-424v127h173v588
l-197 67z" />
    <glyph glyph-name="o" unicode="o" 
d="M541 -31q-99 0 -181 32t-141.5 92.5t-92 147.5t-32.5 197t32.5 197.5t92 148t141.5 93t181 32.5q102 0 186 -32.5t143.5 -93t92.5 -148t33 -197.5t-33 -197t-92.5 -147.5t-143.5 -92.5t-186 -32zM543 778q-142 0 -213.5 -89.5t-71.5 -250.5t71.5 -249.5t213.5 -88.5
q145 0 217 88t72 250q0 161 -72.5 250.5t-216.5 89.5z" />
    <glyph glyph-name="p" unicode="p" horiz-adv-x="1149" 
d="M555 -426h-504v127h172v1020l-193 63l41 131l275 -94q24 16 54.5 32t65.5 28.5t73 20t79 7.5q97 0 177.5 -28.5t138.5 -84.5t90 -138.5t32 -190.5q0 -110 -32.5 -201.5t-91.5 -157.5t-141 -102.5t-181 -36.5q-69 0 -125 10t-102 25v-303h172v-127zM608 100q70 0 123.5 27
t89.5 76t54 116t18 148q0 311 -277 311q-55 0 -98 -12t-73 -26q-35 -17 -62 -38v-550q25 -15 58 -26q29 -10 70.5 -18t96.5 -8z" />
    <glyph glyph-name="q" unicode="q" horiz-adv-x="1077" 
d="M596 -299h172v334q-46 -26 -103.5 -46t-125.5 -20q-99 0 -181 35.5t-141.5 100t-92 154.5t-32.5 200q0 99 34.5 181.5t95 142.5t142 93t175.5 33q88 0 159.5 -18t122.5 -39.5t78.5 -39.5t28.5 -19v-1092h172v-127h-504v127zM541 778q-65 0 -118 -24t-90 -66.5t-57 -100.5
t-20 -126q0 -81 18 -147.5t53.5 -114t89 -73.5t124.5 -26q38 0 72.5 8t64 19.5t52.5 25t38 25.5v547q-1 1 -16 9t-44 18t-71 18t-96 8z" />
    <glyph glyph-name="r" unicode="r" horiz-adv-x="884" 
d="M119 907l273 -94q15 10 45.5 26.5t73.5 32t97.5 26.5t117.5 11q26 0 41.5 -0.5t23.5 -1.5q9 -1 12 -2l35 -215l-133 -28l-20 114q-51 0 -96 -11t-80 -24q-40 -15 -76 -34v-580h200v-127h-532v127h172v586l-197 67z" />
    <glyph glyph-name="s" unicode="s" horiz-adv-x="968" 
d="M722 629l-21 112q-31 11 -87 24t-128 13q-121 0 -178 -25.5t-57 -90.5q0 -62 37.5 -90.5t121.5 -37.5l179 -19q72 -8 125.5 -25t89 -48.5t53.5 -78.5t18 -113q0 -69 -28.5 -121.5t-79 -88t-120 -53.5t-151.5 -18q-103 0 -192.5 19t-168.5 55l-38 209l133 29l23 -137
q54 -28 114.5 -36t124.5 -8q118 0 175 39t57 111q0 44 -29 73t-100 37l-205 21q-69 7 -122 26t-89 51.5t-55 80t-19 112.5q0 60 24.5 107.5t72 81t115.5 51.5t155 18q64 0 112.5 -4t89 -11.5t75.5 -19t71 -25.5l35 -192z" />
    <glyph glyph-name="t" unicode="t" horiz-adv-x="698" 
d="M621 752h-256v-357q0 -41 1.5 -91.5t15 -95.5t45.5 -76.5t94 -35.5q40 0 69 5t31 5l31 -114q-18 -7 -40 -12q-19 -5 -44.5 -8t-54.5 -3q-71 0 -127.5 21t-96 63t-60.5 105t-21 147v447h-170v127h170v178l157 37v-215h256v-127z" />
    <glyph glyph-name="u" unicode="u" horiz-adv-x="1239" 
d="M676 879h332v-719l193 -66l-41 -131l-279 96q-18 -11 -48 -26t-69 -29.5t-86 -24.5t-98 -10q-98 0 -168 22t-114 65.5t-64.5 108t-20.5 150.5v437h-172v127h332v-531q0 -54 9 -99.5t33.5 -78.5t66.5 -51.5t108 -18.5q56 0 102.5 10.5t81.5 24.5q40 15 74 35v582h-172v127
z" />
    <glyph glyph-name="v" unicode="v" horiz-adv-x="1227" 
d="M28 879h432v-127h-95l258 -611l258 611h-90v127h402v-127h-160l-336 -752h-173l-326 752h-170v127z" />
    <glyph glyph-name="w" unicode="w" horiz-adv-x="1665" 
d="M30 879h422v-127h-92l208 -564l203 566h155l188 -570l211 568h-90v127h401v-127h-174l-285 -752h-155l-184 553l-200 -553h-158l-278 752h-172v127z" />
    <glyph glyph-name="x" unicode="x" horiz-adv-x="1247" 
d="M725 127h92l-213 223l-188 -223h90v-127h-434v127h178l266 317l-291 308h-153v127h465v-127h-111l219 -232l191 232h-91v127h410v-127h-154l-270 -322l289 -303h172v-127h-467v127z" />
    <glyph glyph-name="y" unicode="y" horiz-adv-x="1188" 
d="M30 879h426v-127h-116l276 -693l246 693h-113v127h410v-127h-148l-340 -955q-47 -130 -123 -192t-192 -62q-22 0 -45.5 3t-42.5 6.5t-31 7t-12 4.5l26 123q22 -6 42 -10q17 -4 36.5 -6.5t34.5 -2.5q17 0 38.5 5.5t43.5 21.5t43.5 45.5t38.5 77.5l16 47l-368 887h-146v127
z" />
    <glyph glyph-name="z" unicode="z" horiz-adv-x="954" 
d="M95 666l39 213h696v-103l-544 -649h430l22 123l137 -25l-43 -225h-729v109l539 643h-393l-21 -115z" />
    <glyph glyph-name="braceleft" unicode="{" horiz-adv-x="631" 
d="M542 -268q-164 12 -236.5 99t-72.5 245v229v47t-4.5 53.5t-16 43.5t-34.5 18h-148v113h148q23 0 34.5 18t16 43.5t4.5 53v46.5v250q0 158 72.5 245t236.5 99l18 -125q-58 -7 -94 -28.5t-55.5 -54.5t-26 -76.5t-6.5 -92.5v-258q0 -74 -28 -115t-76 -63q48 -20 76 -62
t28 -114v-237q0 -50 6.5 -93t26 -76t55.5 -54.5t94 -28.5z" />
    <glyph glyph-name="bar" unicode="|" horiz-adv-x="459" 
d="M157 1337h145v-1761h-145v1761z" />
    <glyph glyph-name="braceright" unicode="}" horiz-adv-x="632" 
d="M71 -143q58 7 94 28.5t56 54.5t26.5 76t6.5 93v237q0 72 28 114t76 62q-48 22 -76 63t-28 115v258q0 49 -6.5 92.5t-26.5 76.5t-56 54.5t-94 28.5l19 125q164 -12 236.5 -99t72.5 -245v-250v-46.5t4.5 -53t16 -43.5t34.5 -18h148v-113h-148q-23 0 -34.5 -18t-16 -43.5
t-4.5 -53.5v-47v-229q0 -158 -72.5 -245t-236.5 -99z" />
    <glyph glyph-name="asciitilde" unicode="~" horiz-adv-x="1057" 
d="M519 387q-32 17 -74 32.5t-81 15.5q-11 0 -20.5 -1t-18.5 -4q-26 -8 -48 -17.5t-37.5 -17.5t-24 -13t-7.5 -5l-70 110q21 14 48 29t57.5 27t63 20t64.5 8q58 0 100 -13t77.5 -29t69.5 -29t76 -13q9 0 18 1t18 4q26 8 48.5 18t38 18.5t24.5 14.5t8 6l70 -111l-44 -27
q-45 -26 -96 -44t-103 -18q-48 0 -88.5 11t-68.5 27z" />
    <glyph glyph-name="uni00A0" unicode="&#xa0;" horiz-adv-x="462" 
 />
    <glyph glyph-name="exclamdown" unicode="&#xa1;" horiz-adv-x="462" 
d="M314 -426h-162l18 924h119zM357 782q0 -25 -10.5 -48t-28 -40.5t-40.5 -28t-48 -10.5q-26 0 -49.5 10.5t-40.5 28t-27 40.5t-10 48q0 26 10 49t27 40.5t40.5 27.5t49.5 10q25 0 48 -10t40.5 -27.5t28 -40.5t10.5 -49z" />
    <glyph glyph-name="cent" unicode="&#xa2;" horiz-adv-x="939" 
d="M709 770l-27 141q-9 5 -34 12.5t-68 12.5v-670q45 7 84 21t68 28q34 17 63 35l67 -100q0 -1 -21.5 -16t-59.5 -34.5t-89.5 -38t-111.5 -26.5v-289h-142v289q-83 12 -151 49.5t-116 96.5t-74.5 139.5t-26.5 179.5q0 98 26.5 178.5t74.5 139.5t116 96t151 49v272h142v-268
q54 -4 95 -11.5t68 -15.5q32 -10 54 -20l43 -221zM234 600q0 -137 50.5 -222t153.5 -108v660q-103 -23 -153.5 -108t-50.5 -222z" />
    <glyph glyph-name="sterling" unicode="&#xa3;" horiz-adv-x="1017" 
d="M126 670h151q-5 69 -6.5 129t-1.5 112q0 72 24.5 132t68.5 103t105 67t134 24q45 0 78 -6t59.5 -16.5t48.5 -24.5t45 -31l37 -248l-137 -18l-31 188q-18 8 -41 13.5t-57 5.5q-75 0 -122.5 -47.5t-47.5 -137.5q0 -14 0.5 -39t2 -57.5t3.5 -70.5t4 -78h289v-142h-281l6 -59
q2 -12 2.5 -24.5t0.5 -24.5q0 -88 -25.5 -148t-63.5 -102q19 5 38.5 7.5t39.5 2.5q33 0 64 -10t62.5 -21.5t64.5 -21.5t69 -10q35 0 65 9.5t53 21.5q26 14 48 32l76 -119q-10 -7 -22 -15q-11 -7 -24.5 -15t-27.5 -15q-40 -18 -89.5 -32.5t-92.5 -14.5q-34 0 -63.5 5
t-53.5 11.5t-41 13.5t-24 11q-31 16 -69 30.5t-83 14.5q-34 0 -67 -11.5t-60 -26t-45 -28l-22 -16.5l-82 109q6 5 13 10q6 5 13.5 11t16.5 14q23 20 53 51.5t57 74t45.5 95.5t18.5 115q0 12 -1 25.5t-3 27.5l-4 22h-168v142z" />
    <glyph glyph-name="currency" unicode="&#xa4;" horiz-adv-x="1080" 
d="M192 479q0 59 18 110.5t50 94.5l-140 94l74 109l168 -115q38 23 84.5 35t95.5 12q50 0 94 -11.5t84 -33.5l166 113l72 -107l-135 -92q35 -43 54.5 -96t19.5 -113q0 -59 -18 -110t-50 -93l131 -86l-74 -108l-161 106q-41 -21 -86.5 -33t-96.5 -12t-97.5 12t-86.5 35
l-164 -110l-74 108l138 91q-31 42 -48.5 91.5t-17.5 108.5zM325 479q0 -45 17 -85t46 -70t69 -47t85 -17q47 0 87 17t69.5 47t46 70t16.5 85q0 46 -16.5 86.5t-46 71t-69.5 48t-87 17.5q-45 0 -85 -17.5t-69 -48t-46 -71t-17 -86.5z" />
    <glyph glyph-name="yen" unicode="&#xa5;" horiz-adv-x="1438" 
d="M61 1206h490v-141h-109l289 -360l275 360h-113v141h485v-141h-196l-355 -463h308v-119h-334v-94h334v-119h-334l-2 -129h192v-141h-547v141h193v129h-336v119h336v94h-336v119h307l-375 463h-172v141z" />
    <glyph glyph-name="brokenbar" unicode="&#xa6;" horiz-adv-x="472" 
d="M164 1337h144v-723h-144v723zM164 295h144v-723h-144v723z" />
    <glyph glyph-name="section" unicode="&#xa7;" horiz-adv-x="1000" 
d="M713 950l-25 137q-26 11 -70.5 22t-109.5 11q-48 0 -89 -8t-71.5 -24t-48 -40t-17.5 -55q0 -32 24 -56t58.5 -42.5t73.5 -31t70 -19.5q83 -22 153 -47.5t121 -60t80 -81t29 -110.5q0 -39 -22 -76.5t-53 -68t-64.5 -53t-55.5 -32.5q41 -17 74.5 -37.5t57.5 -47t37 -60
t13 -76.5q0 -67 -32.5 -120t-85 -90t-118 -57t-132.5 -20q-77 0 -138 16t-104 35.5t-67 36t-25 17.5l-33 180l125 25l23 -127q26 -19 75.5 -34t131.5 -15q37 0 77.5 9t74.5 26t55.5 42.5t21.5 57.5q0 40 -27.5 66.5t-70 44t-93.5 30t-98 25.5q-60 17 -117.5 38t-102 52.5
t-72 77t-27.5 110.5q0 53 20.5 91t50.5 63t64.5 39.5t62.5 21.5q-39 15 -73.5 35.5t-60 49t-40 66t-14.5 87.5q0 56 24.5 104t71 83.5t114 56t154.5 20.5q78 0 141 -15t105 -32q15 -6 27.5 -12t20.5 -11q10 -5 18 -10l32 -182zM739 518q0 42 -24 69.5t-63.5 46t-90 32
t-104.5 26.5q-28 -4 -60.5 -12.5t-60.5 -24t-47 -40.5t-19 -62q-1 -40 19.5 -69t51.5 -49.5t67 -33.5t67 -20q28 -8 54 -15.5t52 -13.5q24 9 51.5 25.5t51.5 38.5t39.5 47.5t15.5 54.5z" />
    <glyph glyph-name="dieresis" unicode="&#xa8;" horiz-adv-x="723" 
d="M291 1112q0 -24 -9.5 -44.5t-25 -36.5t-36.5 -25t-44 -9q-24 0 -44.5 9t-36.5 25t-25 36.5t-9 44.5q0 23 9 44t25 36.5t36.5 25t44.5 9.5q23 0 44 -9.5t36.5 -25t25 -36.5t9.5 -44zM655 1112q0 -24 -9 -44.5t-25 -36.5t-36.5 -25t-43.5 -9q-24 0 -45 9t-36.5 25
t-24.5 36.5t-9 44.5q0 23 9 44t24.5 36.5t36.5 25t45 9.5q23 0 43.5 -9.5t36.5 -25t25 -36.5t9 -44z" />
    <glyph glyph-name="copyright" unicode="&#xa9;" horiz-adv-x="1657" 
d="M1153 428l-53 -164q-29 -14 -67 -25q-32 -9 -77 -16.5t-100 -7.5q-89 0 -160 24.5t-121.5 73t-78 120.5t-29.5 167q0 97 27.5 170t78 122t122.5 74t161 25q60 0 106 -11t78 -25q37 -16 64 -35l47 -146l-113 -35l-37 99q-14 8 -33 15q-17 5 -41.5 10t-58.5 5
q-68 0 -116.5 -20t-79.5 -56t-45.5 -84.5t-14.5 -105.5q0 -56 15.5 -104.5t47 -84.5t80 -56.5t113.5 -20.5q26 0 50.5 4t43 9.5t30 10.5t11.5 7l31 96zM96 600q0 161 55 296t153 232.5t232.5 152t294.5 54.5q159 0 293 -54.5t230.5 -152t151 -232.5t54.5 -296
q0 -105 -24.5 -200t-70 -176t-111 -146t-146.5 -111t-176 -71t-201 -25q-160 0 -294.5 55t-232.5 152t-153 230.5t-55 291.5zM225 590q0 -125 43 -233t121.5 -187.5t189 -124.5t244.5 -45t245.5 45t192 124.5t125.5 187.5t45 233q0 130 -45 243t-125.5 195.5t-192 130
t-245.5 47.5t-244.5 -47.5t-189 -130t-121.5 -195.5t-43 -243z" />
    <glyph glyph-name="ordfeminine" unicode="&#xaa;" horiz-adv-x="799" 
d="M146 748l22 124q29 13 80 25t106 12q87 0 135 -23.5t71 -59t27.5 -78.5t4.5 -82v-211l121 -39l-31 -94l-176 59q-32 -25 -76 -40t-98 -15t-95 14t-68.5 38t-41.5 56.5t-14 70.5q0 44 17 75t46 50.5t67 28.5t81 9l151 -2q0 54 -3 72t-14.5 36.5t-36.5 28.5t-62 10
q-32 0 -58.5 -4.5t-42.5 -9.5l-16 -70zM338 420q50 0 84.5 18t52.5 33v104h-147q-19 0 -36.5 -2.5t-30.5 -10.5t-21 -23t-8 -39q0 -40 30.5 -60t75.5 -20z" />
    <glyph glyph-name="guillemotleft" unicode="&#xab;" horiz-adv-x="832" 
d="M507 76l-102 -72l-326 440l326 441l102 -72l-262 -369zM714 207l-113 -66l-207 303l207 304l113 -66l-160 -238z" />
    <glyph glyph-name="logicalnot" unicode="&#xac;" horiz-adv-x="1208" 
d="M115 874h936v-421h-160v280h-776v141z" />
    <glyph glyph-name="uni00AD" unicode="&#xad;" horiz-adv-x="785" 
d="M126 481v154h533v-154h-533z" />
    <glyph glyph-name="registered" unicode="&#xae;" horiz-adv-x="1291" 
d="M118 735q0 114 40 210.5t110.5 167.5t167 111t210.5 40t210.5 -40t167 -111t110 -167.5t39.5 -210.5t-39.5 -210t-110 -166.5t-167 -110t-210.5 -39.5t-210.5 39.5t-167 110t-110.5 166.5t-40 210zM237 727q0 -88 29.5 -164t83 -132t128.5 -88t166 -32q90 0 165.5 32
t129.5 88t84.5 132t30.5 164q0 91 -30.5 170t-84.5 137.5t-129.5 91.5t-165.5 33q-91 0 -166 -33t-128.5 -91.5t-83 -137.5t-29.5 -170zM937 461h-159l-115 209h-72v-119h62v-90h-246v90h84v385h-84v88h258q60 0 100.5 -11t65 -33t35 -56t10.5 -80q0 -62 -28.5 -100.5
t-78.5 -55.5l78 -137h90v-90zM593 936v-174h74q18 0 36.5 2.5t33.5 11t24.5 24.5t9.5 42q0 31 -7.5 49.5t-22 28.5t-34.5 13t-44 3h-70z" />
    <glyph glyph-name="macron" unicode="&#xaf;" horiz-adv-x="750" 
d="M74 1165h612v-141h-612v141z" />
    <glyph glyph-name="degree" unicode="&#xb0;" horiz-adv-x="639" 
d="M528 1026q0 -51 -17 -90t-46 -65.5t-66.5 -40t-79.5 -13.5q-41 0 -78.5 13.5t-66 40t-46 65.5t-17.5 90t17.5 90t46 66t66 41t78.5 14q42 0 79.5 -14t66.5 -41t46 -66t17 -90zM219 1026q0 -26 8.5 -46.5t22.5 -34t32 -20.5t37 -7q39 0 69 27.5t30 80.5t-30 81t-69 28
q-19 0 -37 -7t-32 -21t-22.5 -34.5t-8.5 -46.5z" />
    <glyph glyph-name="plusminus" unicode="&#xb1;" horiz-adv-x="1061" 
d="M150 862h304v309h153v-309h305v-141h-305v-311h-153v311h-304v141zM150 281h762v-142h-762v142z" />
    <glyph glyph-name="twosuperior" unicode="&#xb2;" horiz-adv-x="809" 
d="M558 579l65 105l91 -45l-101 -164h-469l-22 61q11 50 35.5 90t56 72.5t67 59.5t70.5 51q31 22 61 44.5t53.5 47t37.5 52t14 59.5q0 21 -7.5 42t-24 38.5t-43.5 28.5t-66 11q-37 0 -66.5 -12.5t-52.5 -29t-43 -37.5l-86 81q26 28 60 49.5t80 37.5t106 16q62 0 112 -16.5
t85 -46.5t54 -71.5t19 -90.5q0 -48 -19 -87.5t-49.5 -73t-68.5 -62t-76 -54.5q-28 -18 -53.5 -36t-47.5 -37t-38 -39.5t-25 -43.5h291z" />
    <glyph glyph-name="threesuperior" unicode="&#xb3;" horiz-adv-x="776" 
d="M186 635q24 -21 55 -37q26 -14 62 -25.5t79 -11.5q37 0 65 9.5t47 26t28.5 38.5t9.5 47q0 48 -20 73.5t-48 36.5t-58.5 12t-51.5 1h-68v106h94q62 0 97.5 24.5t35.5 84.5q0 34 -13.5 55.5t-33.5 34t-45 17.5t-47 6q-36 0 -64.5 -11.5t-48.5 -25t-30.5 -26t-11.5 -13.5
l-91 88q6 6 25 21t49.5 31t74 28t99.5 12q58 0 106 -15.5t82.5 -44t54 -68.5t19.5 -89q0 -29 -8 -53.5t-21.5 -44t-31 -34.5t-35.5 -24q22 -8 43 -24t37 -38.5t25.5 -52t9.5 -65.5q0 -43 -15 -84t-48.5 -72.5t-86.5 -51t-129 -19.5q-65 0 -115 14.5t-85 32.5q-40 20 -70 47z
" />
    <glyph glyph-name="acute" unicode="&#xb4;" horiz-adv-x="760" 
d="M510 1294l72 -135l-478 -217l-36 66z" />
    <glyph glyph-name="mu" unicode="&#xb5;" horiz-adv-x="1234" 
d="M348 -74q1 -68 9 -117t27.5 -80.5t52 -46t81.5 -14.5q20 0 39 2.5t34.5 6t29.5 8.5l26 -123q-32 -11 -72 -16t-77 -5q-127 0 -213 68q-33 26 -52 60t-28.5 74.5t-12 86.5t-2.5 94v955h160v-424q0 -92 9.5 -158.5t34 -110.5t66.5 -65t107 -21q56 0 102.5 11t84 26t71.5 35
v707h160v-717l193 -66l-41 -131l-279 96q-18 -11 -48 -26.5t-69 -30t-86 -25t-98 -10.5q-42 0 -76 8t-59.5 20.5t-44.5 27t-31 26.5z" />
    <glyph glyph-name="paragraph" unicode="&#xb6;" horiz-adv-x="1215" 
d="M643 0h-338v141h199v473h-74q-100 0 -168.5 19.5t-111 57.5t-61.5 95.5t-19 133.5q0 71 25 124.5t69.5 89.5t104.5 54t130 18h719v-141h-188v-924h180v-141h-320v1065h-147v-1065z" />
    <glyph glyph-name="periodcentered" unicode="&#xb7;" horiz-adv-x="530" 
d="M392 451q0 -26 -10.5 -49.5t-27.5 -40.5t-40 -27t-48 -10q-26 0 -49.5 10t-40.5 27t-27 40.5t-10 49.5t10 49t27 40.5t40.5 27.5t49.5 10q25 0 48 -10t40 -27.5t27.5 -40.5t10.5 -49z" />
    <glyph glyph-name="cedilla" unicode="&#xb8;" horiz-adv-x="520" 
d="M258 -129q106 0 163.5 -38t57.5 -122q0 -45 -18 -76.5t-48.5 -52t-70.5 -30t-84 -9.5q-50 0 -90 12t-68.5 26t-44 26t-16.5 12l45 76q23 -16 48 -26.5t56 -18.5t66 -8q59 0 86 17.5t27 51.5q0 15 -4.5 28t-19 22.5t-41 14.5t-71.5 5h-75v282q1 -1 102 -20v-172z" />
    <glyph glyph-name="onesuperior" unicode="&#xb9;" horiz-adv-x="755" 
d="M118 977l278 229h80l-2 -641h185v-104h-512v104h204l2 465l-167 -137z" />
    <glyph glyph-name="ordmasculine" unicode="&#xba;" horiz-adv-x="781" 
d="M389 330q-61 0 -112 19.5t-87.5 56.5t-57 90.5t-20.5 121.5q0 69 20.5 123.5t57 91.5t87.5 56.5t112 19.5q63 0 114.5 -19.5t88.5 -56.5t57 -91.5t20 -123.5q0 -68 -20 -121.5t-57 -90.5t-88.5 -56.5t-114.5 -19.5zM391 811q-81 0 -121.5 -50t-40.5 -143
q0 -91 40.5 -140.5t121.5 -49.5q80 0 121 49.5t41 140.5q0 93 -41 143t-121 50z" />
    <glyph glyph-name="guillemotright" unicode="&#xbb;" horiz-adv-x="832" 
d="M587 444l-262 369l102 72l326 -441l-326 -440l-102 72zM280 444l-162 238l113 66l207 -304l-207 -303l-113 66z" />
    <glyph glyph-name="onequarter" unicode="&#xbc;" horiz-adv-x="1629" 
d="M1446 203v-104h113v-99h-359v99h129v104h-356v61l237 527l101 -60l-146 -301l-59 -129h223v338h119l-2 -338l117 2v-100h-117zM617 -156h-133l596 1491h131zM70 977l278 229h80l-2 -641h185v-104h-512v104h204l2 465l-167 -137z" />
    <glyph glyph-name="onehalf" unicode="&#xbd;" horiz-adv-x="1703" 
d="M617 -156h-133l596 1491h131zM78 977l278 229h80l-2 -641h185v-104h-512v104h204l2 465l-167 -137zM1486 105l65 105l91 -45l-101 -164h-469l-22 61q11 50 35.5 90t56 72.5t67 59.5t70.5 51q31 22 61 44.5t53.5 47t37.5 52t14 59.5q0 21 -7.5 42t-24 38.5t-43.5 28.5
t-66 11q-37 0 -66.5 -12.5t-52.5 -29t-43 -37.5l-86 81q26 28 60 49.5t80 37.5t106 16q62 0 112 -16.5t85 -46.5t54 -71.5t19 -90.5q0 -48 -19 -87.5t-49.5 -73t-68.5 -62t-76 -54.5q-28 -18 -53.5 -36t-47.5 -37t-38 -39.5t-25 -43.5h291z" />
    <glyph glyph-name="threequarters" unicode="&#xbe;" horiz-adv-x="1616" 
d="M1434 203v-104h113v-99h-359v99h129v104h-356v61l237 527l101 -60l-146 -301l-59 -129h223v338h119l-2 -338l117 2v-100h-117zM590 -156h-133l596 1491h131zM144 635q24 -21 55 -37q26 -14 62 -25.5t79 -11.5q37 0 65 9.5t47 26t28.5 38.5t9.5 47q0 48 -20 73.5t-48 36.5
t-58.5 12t-51.5 1h-68v106h94q62 0 97.5 24.5t35.5 84.5q0 34 -13.5 55.5t-33.5 34t-45 17.5t-47 6q-36 0 -64.5 -11.5t-48.5 -25t-30.5 -26t-11.5 -13.5l-91 88q6 6 25 21t49.5 31t74 28t99.5 12q58 0 106 -15.5t82.5 -44t54 -68.5t19.5 -89q0 -29 -8 -53.5t-21.5 -44
t-31 -34.5t-35.5 -24q22 -8 43 -24t37 -38.5t25.5 -52t9.5 -65.5q0 -43 -15 -84t-48.5 -72.5t-86.5 -51t-129 -19.5q-65 0 -115 14.5t-85 32.5q-40 20 -70 47z" />
    <glyph glyph-name="questiondown" unicode="&#xbf;" horiz-adv-x="871" 
d="M295 164q31 17 59.5 30.5t51 28t36 30.5t13.5 38q0 20 -9.5 36t-23.5 28.5t-29.5 21.5t-27.5 16l79 109q1 -1 13.5 -7t31 -18t40 -29.5t39.5 -42.5t30 -57t12 -72q0 -49 -22.5 -85.5t-53 -62.5t-63 -43.5t-53.5 -29.5q-34 -19 -66.5 -37.5t-58.5 -41.5t-42 -52.5
t-16 -70.5q0 -21 11.5 -46t36.5 -46t64 -35.5t93 -14.5q73 0 123.5 10.5t81.5 22.5l29 174l135 -14l-35 -252q-2 0 -20 -12t-57 -27t-102.5 -27t-156.5 -12q-103 0 -174.5 29t-116.5 71.5t-65.5 91.5t-20.5 89q0 100 58 173t176 136zM580 752q0 -26 -10.5 -49.5t-28 -40.5
t-40.5 -27t-48 -10q-26 0 -49.5 10t-40.5 27t-27 40.5t-10 49.5q0 25 10 48t27 40.5t40.5 28t49.5 10.5q25 0 48 -10.5t40.5 -28t28 -40.5t10.5 -48z" />
    <glyph glyph-name="Agrave" unicode="&#xc0;" horiz-adv-x="1326" 
d="M1304 0h-498v141h129l-64 187h-442l-70 -187h130v-141h-476v141h195l340 924h-207v141h399l369 -1065h195v-141zM480 469h342l-163 530zM754 1389l-18 -74l-516 96l37 150z" />
    <glyph glyph-name="Aacute" unicode="&#xc1;" horiz-adv-x="1326" 
d="M1304 0h-498v141h129l-64 187h-442l-70 -187h130v-141h-476v141h195l340 924h-207v141h399l369 -1065h195v-141zM480 469h342l-163 530zM1056 1552l37 -149l-516 -96l-18 73z" />
    <glyph glyph-name="Acircumflex" unicode="&#xc2;" horiz-adv-x="1326" 
d="M1304 0h-498v141h129l-64 187h-442l-70 -187h130v-141h-476v141h195l340 924h-207v141h399l369 -1065h195v-141zM480 469h342l-163 530zM658 1593l309 -219l-37 -66l-272 136l-272 -136l-37 66z" />
    <glyph glyph-name="Atilde" unicode="&#xc3;" horiz-adv-x="1326" 
d="M1304 0h-498v141h129l-64 187h-442l-70 -187h130v-141h-476v141h195l340 924h-207v141h399l369 -1065h195v-141zM480 469h342l-163 530zM659 1491q17 -12 33.5 -24.5t33.5 -23t35.5 -17t40.5 -6.5q28 0 63 14t81 49l67 -80q-23 -19 -49.5 -39t-56 -36.5t-61.5 -27
t-66 -10.5q-29 0 -59 9.5t-62 31.5q-17 12 -33.5 24.5t-34 23t-36 17.5t-40.5 7q-28 0 -63 -14.5t-80 -49.5l-67 80q23 19 49.5 39t56 36t61 26.5t65.5 10.5q29 0 59.5 -9.5t62.5 -30.5z" />
    <glyph glyph-name="Adieresis" unicode="&#xc4;" horiz-adv-x="1326" 
d="M1304 0h-498v141h129l-64 187h-442l-70 -187h130v-141h-476v141h195l340 924h-207v141h399l369 -1065h195v-141zM480 469h342l-163 530zM591 1429q0 -24 -9.5 -44.5t-25 -36.5t-36.5 -25t-44 -9q-24 0 -44.5 9t-36.5 25t-25 36.5t-9 44.5q0 23 9 44t25 36.5t36.5 25
t44.5 9.5q23 0 44 -9.5t36.5 -25t25 -36.5t9.5 -44zM955 1429q0 -24 -9 -44.5t-25 -36.5t-36.5 -25t-43.5 -9q-24 0 -45 9t-36.5 25t-24.5 36.5t-9 44.5q0 23 9 44t24.5 36.5t36.5 25t45 9.5q23 0 43.5 -9.5t36.5 -25t25 -36.5t9 -44z" />
    <glyph glyph-name="Aring" unicode="&#xc5;" horiz-adv-x="1326" 
d="M1304 0h-498v141h129l-64 187h-442l-70 -187h130v-141h-476v141h195l340 924h-207v141h399l369 -1065h195v-141zM480 469h342l-163 530zM483 1472q0 36 14 68t38 56t56 38t68 14t68 -14t56 -38t38 -56t14 -68t-14 -68t-38 -56t-56 -38t-68 -14t-68 14t-56 38t-38 56
t-14 68zM579 1472q0 -16 6.5 -30.5t17.5 -25.5t25.5 -17.5t30.5 -6.5t30.5 6.5t25.5 17.5t17.5 25.5t6.5 30.5t-6.5 30.5t-17.5 25.5t-25.5 17.5t-30.5 6.5t-30.5 -6.5t-25.5 -17.5t-17.5 -25.5t-6.5 -30.5z" />
    <glyph glyph-name="AE" unicode="&#xc6;" horiz-adv-x="1856" 
d="M769 141h194v187h-463l-116 -187h120v-141h-491v141h205l585 924h-211v141h1031l106 -315l-135 -45l-82 219h-383v-391h328v-142h-330v-391h426l82 219l135 -45l-106 -315h-895v141zM961 1065l-373 -596h375l2 596h-4z" />
    <glyph glyph-name="Ccedilla" unicode="&#xc7;" horiz-adv-x="1217" 
d="M1111 283l-51 -238q-44 -21 -100 -38q-48 -14 -115.5 -26t-150.5 -12h-15t-20 2v-110h8q108 0 166.5 -37t58.5 -119q0 -43 -18.5 -74t-49.5 -50.5t-72.5 -28.5t-86.5 -9q-44 0 -81 10t-66 23t-48.5 26t-27.5 19l49 74q23 -17 51 -29q23 -11 54.5 -19.5t66.5 -8.5
q57 0 82.5 19.5t25.5 47.5q0 15 -4.5 27t-18 20.5t-39.5 13.5t-69 5h-80v213q-104 20 -186.5 72t-140.5 131.5t-89 184.5t-32 232q-1 144 40 261.5t117 200t183.5 127.5t239.5 44q101 -1 172.5 -15.5t117 -32.5t66.5 -32.5t22 -15.5l45 -238l-141 -31l-41 177
q-31 17 -89.5 33t-149.5 16q-99 0 -175 -34.5t-127.5 -98.5t-78.5 -155.5t-27 -205.5q0 -117 27.5 -208.5t80 -155.5t128 -97.5t172.5 -33.5q76 0 138.5 14.5t100.5 28.5l39 163z" />
    <glyph glyph-name="Egrave" unicode="&#xc8;" horiz-adv-x="1240" 
d="M1154 315l-106 -315h-951v141h195l2 924h-195v141h908l106 -315l-135 -45l-82 219h-438v-371h383v-141h-383l-2 -412h481l82 219zM658 1389l-18 -74l-516 96l37 150z" />
    <glyph glyph-name="Eacute" unicode="&#xc9;" horiz-adv-x="1240" 
d="M1154 315l-106 -315h-951v141h195l2 924h-195v141h908l106 -315l-135 -45l-82 219h-438v-371h383v-141h-383l-2 -412h481l82 219zM888 1552l37 -149l-516 -96l-18 73z" />
    <glyph glyph-name="Ecircumflex" unicode="&#xca;" horiz-adv-x="1240" 
d="M609 1593l309 -219l-37 -66l-272 136l-272 -136l-37 66zM1154 315l-106 -315h-951v141h195l2 924h-195v141h908l106 -315l-135 -45l-82 219h-438v-371h383v-141h-383l-2 -412h481l82 219z" />
    <glyph glyph-name="Edieresis" unicode="&#xcb;" horiz-adv-x="1240" 
d="M1154 315l-106 -315h-951v141h195l2 924h-195v141h908l106 -315l-135 -45l-82 219h-438v-371h383v-141h-383l-2 -412h481l82 219zM550 1429q0 -24 -9.5 -44.5t-25 -36.5t-36.5 -25t-44 -9q-24 0 -44.5 9t-36.5 25t-25 36.5t-9 44.5q0 23 9 44t25 36.5t36.5 25t44.5 9.5
q23 0 44 -9.5t36.5 -25t25 -36.5t9.5 -44zM914 1429q0 -24 -9 -44.5t-25 -36.5t-36.5 -25t-43.5 -9q-24 0 -45 9t-36.5 25t-24.5 36.5t-9 44.5q0 23 9 44t24.5 36.5t36.5 25t45 9.5q23 0 43.5 -9.5t36.5 -25t25 -36.5t9 -44z" />
    <glyph glyph-name="Igrave" unicode="&#xcc;" horiz-adv-x="750" 
d="M99 1206h553v-141h-192l-4 -924h196v-141h-555v141h197v924h-195v141zM479 1389l-18 -74l-516 96l37 150z" />
    <glyph glyph-name="Iacute" unicode="&#xcd;" horiz-adv-x="750" 
d="M99 1206h553v-141h-192l-4 -924h196v-141h-555v141h197v924h-195v141zM753 1552l37 -149l-516 -96l-18 73z" />
    <glyph glyph-name="Icircumflex" unicode="&#xce;" horiz-adv-x="750" 
d="M372 1593l309 -219l-37 -66l-272 136l-272 -136l-37 66zM99 1206h553v-141h-192l-4 -924h196v-141h-555v141h197v924h-195v141z" />
    <glyph glyph-name="Idieresis" unicode="&#xcf;" horiz-adv-x="750" 
d="M99 1206h553v-141h-192l-4 -924h196v-141h-555v141h197v924h-195v141zM306 1429q0 -24 -9.5 -44.5t-25 -36.5t-36.5 -25t-44 -9q-24 0 -44.5 9t-36.5 25t-25 36.5t-9 44.5q0 23 9 44t25 36.5t36.5 25t44.5 9.5q23 0 44 -9.5t36.5 -25t25 -36.5t9.5 -44zM670 1429
q0 -24 -9 -44.5t-25 -36.5t-36.5 -25t-43.5 -9q-24 0 -45 9t-36.5 25t-24.5 36.5t-9 44.5q0 23 9 44t24.5 36.5t36.5 25t45 9.5q23 0 43.5 -9.5t36.5 -25t25 -36.5t9 -44z" />
    <glyph glyph-name="Eth" unicode="&#xd0;" horiz-adv-x="1381" 
d="M102 688h195v377h-195v141h545q138 0 252.5 -30.5t196 -102.5t126.5 -191.5t45 -297.5q0 -135 -46.5 -243.5t-128 -184t-192 -116t-237.5 -40.5h-561v141h195v416h-195v131zM461 688h231v-131h-231v-416h165q232 0 349.5 112.5t117.5 330.5q0 148 -29.5 241.5t-86 147
t-139.5 73t-191 19.5h-186v-377z" />
    <glyph glyph-name="Ntilde" unicode="&#xd1;" horiz-adv-x="1507" 
d="M902 1206h533v-141h-197v-1065h-201l-583 1065l4 -924h172v-141h-533v141h195l-2 924h-191v141h451l524 -956v815h-172v141zM773 1491q17 -12 33.5 -24.5t33.5 -23t35.5 -17t40.5 -6.5q28 0 63 14t81 49l67 -80q-23 -19 -49.5 -39t-56 -36.5t-61.5 -27t-66 -10.5
q-29 0 -59 9.5t-62 31.5q-17 12 -33.5 24.5t-34 23t-36 17.5t-40.5 7q-28 0 -63 -14.5t-80 -49.5l-67 80q23 19 49.5 39t56 36t61 26.5t65.5 10.5q29 0 59.5 -9.5t62.5 -30.5z" />
    <glyph glyph-name="Ograve" unicode="&#xd2;" horiz-adv-x="1342" 
d="M671 1098q-98 0 -170.5 -33.5t-120.5 -97t-72 -155t-24 -208.5t24 -208.5t72 -155.5t120.5 -97.5t170.5 -33.5q97 0 170 33.5t121 97.5t72 155.5t24 208.5t-24 208.5t-72 155t-121 97t-170 33.5zM671 -31q-125 0 -228 44.5t-177 127t-115 200t-41 263.5t40.5 263
t114.5 199.5t176.5 126.5t227.5 44q126 0 229.5 -44t178 -126.5t115 -199.5t40.5 -263t-40.5 -263.5t-114 -200t-177 -127t-229.5 -44.5zM765 1389l-18 -74l-516 96l37 150z" />
    <glyph glyph-name="Oacute" unicode="&#xd3;" horiz-adv-x="1342" 
d="M671 1098q-98 0 -170.5 -33.5t-120.5 -97t-72 -155t-24 -208.5t24 -208.5t72 -155.5t120.5 -97.5t170.5 -33.5q97 0 170 33.5t121 97.5t72 155.5t24 208.5t-24 208.5t-72 155t-121 97t-170 33.5zM671 -31q-125 0 -228 44.5t-177 127t-115 200t-41 263.5t40.5 263
t114.5 199.5t176.5 126.5t227.5 44q126 0 229.5 -44t178 -126.5t115 -199.5t40.5 -263t-40.5 -263.5t-114 -200t-177 -127t-229.5 -44.5zM1039 1552l37 -149l-516 -96l-18 73z" />
    <glyph glyph-name="Ocircumflex" unicode="&#xd4;" horiz-adv-x="1342" 
d="M665 1593l309 -219l-37 -66l-272 136l-272 -136l-37 66zM671 1098q-98 0 -170.5 -33.5t-120.5 -97t-72 -155t-24 -208.5t24 -208.5t72 -155.5t120.5 -97.5t170.5 -33.5q97 0 170 33.5t121 97.5t72 155.5t24 208.5t-24 208.5t-72 155t-121 97t-170 33.5zM671 -31
q-125 0 -228 44.5t-177 127t-115 200t-41 263.5t40.5 263t114.5 199.5t176.5 126.5t227.5 44q126 0 229.5 -44t178 -126.5t115 -199.5t40.5 -263t-40.5 -263.5t-114 -200t-177 -127t-229.5 -44.5z" />
    <glyph glyph-name="Otilde" unicode="&#xd5;" horiz-adv-x="1342" 
d="M671 1098q-98 0 -170.5 -33.5t-120.5 -97t-72 -155t-24 -208.5t24 -208.5t72 -155.5t120.5 -97.5t170.5 -33.5q97 0 170 33.5t121 97.5t72 155.5t24 208.5t-24 208.5t-72 155t-121 97t-170 33.5zM671 -31q-125 0 -228 44.5t-177 127t-115 200t-41 263.5t40.5 263
t114.5 199.5t176.5 126.5t227.5 44q126 0 229.5 -44t178 -126.5t115 -199.5t40.5 -263t-40.5 -263.5t-114 -200t-177 -127t-229.5 -44.5zM667 1491q17 -12 33.5 -24.5t33.5 -23t35.5 -17t40.5 -6.5q28 0 63 14t81 49l67 -80q-23 -19 -49.5 -39t-56 -36.5t-61.5 -27
t-66 -10.5q-29 0 -59 9.5t-62 31.5q-17 12 -33.5 24.5t-34 23t-36 17.5t-40.5 7q-28 0 -63 -14.5t-80 -49.5l-67 80q23 19 49.5 39t56 36t61 26.5t65.5 10.5q29 0 59.5 -9.5t62.5 -30.5z" />
    <glyph glyph-name="Odieresis" unicode="&#xd6;" horiz-adv-x="1342" 
d="M671 1098q-98 0 -170.5 -33.5t-120.5 -97t-72 -155t-24 -208.5t24 -208.5t72 -155.5t120.5 -97.5t170.5 -33.5q97 0 170 33.5t121 97.5t72 155.5t24 208.5t-24 208.5t-72 155t-121 97t-170 33.5zM671 -31q-125 0 -228 44.5t-177 127t-115 200t-41 263.5t40.5 263
t114.5 199.5t176.5 126.5t227.5 44q126 0 229.5 -44t178 -126.5t115 -199.5t40.5 -263t-40.5 -263.5t-114 -200t-177 -127t-229.5 -44.5zM602 1429q0 -24 -9.5 -44.5t-25 -36.5t-36.5 -25t-44 -9q-24 0 -44.5 9t-36.5 25t-25 36.5t-9 44.5q0 23 9 44t25 36.5t36.5 25
t44.5 9.5q23 0 44 -9.5t36.5 -25t25 -36.5t9.5 -44zM966 1429q0 -24 -9 -44.5t-25 -36.5t-36.5 -25t-43.5 -9q-24 0 -45 9t-36.5 25t-24.5 36.5t-9 44.5q0 23 9 44t24.5 36.5t36.5 25t45 9.5q23 0 43.5 -9.5t36.5 -25t25 -36.5t9 -44z" />
    <glyph glyph-name="multiply" unicode="&#xd7;" horiz-adv-x="890" 
d="M132 432l209 201l-209 201l102 114l217 -209l209 201l98 -111l-200 -192l204 -197l-102 -114l-213 204l-217 -208z" />
    <glyph glyph-name="Oslash" unicode="&#xd8;" horiz-adv-x="1340" 
d="M1010 1127q105 -81 163 -213.5t58 -309.5q0 -146 -40.5 -263.5t-114 -200t-177 -127t-229.5 -44.5q-47 0 -90.5 6.5t-84.5 18.5l-61 -135h-151l87 192q-122 78 -191.5 219t-69.5 334q0 146 40.5 263t114.5 199.5t176.5 126.5t227.5 44q122 0 223 -42l63 138h150z
M670 1098q-98 0 -170.5 -33.5t-120.5 -97t-72 -155t-24 -208.5q0 -146 36.5 -251.5t111.5 -167.5l402 882q-35 15 -75.5 23t-87.5 8zM1057 604q0 126 -27.5 222t-83.5 159l-392 -862q26 -8 55 -11t61 -3q97 0 170 33.5t121 97.5t72 155.5t24 208.5z" />
    <glyph glyph-name="Ugrave" unicode="&#xd9;" horiz-adv-x="1379" 
d="M680 109q82 0 137.5 26t89 75t48 119t14.5 158v578h-131v141h491v-141h-196v-584q0 -106 -18.5 -185.5t-50.5 -136.5t-75.5 -94t-94 -58t-105 -29.5t-109.5 -8.5q-53 0 -105.5 8.5t-100.5 29.5t-89 58t-71.5 94t-48 136t-17.5 186v584h-197v141h492v-141h-131v-598
q0 -89 13.5 -156t44.5 -112t82.5 -67.5t127.5 -22.5zM717 1389l-18 -74l-516 96l37 150z" />
    <glyph glyph-name="Uacute" unicode="&#xda;" horiz-adv-x="1379" 
d="M680 109q82 0 137.5 26t89 75t48 119t14.5 158v578h-131v141h491v-141h-196v-584q0 -106 -18.5 -185.5t-50.5 -136.5t-75.5 -94t-94 -58t-105 -29.5t-109.5 -8.5q-53 0 -105.5 8.5t-100.5 29.5t-89 58t-71.5 94t-48 136t-17.5 186v584h-197v141h492v-141h-131v-598
q0 -89 13.5 -156t44.5 -112t82.5 -67.5t127.5 -22.5zM1110 1552l37 -149l-516 -96l-18 73z" />
    <glyph glyph-name="Ucircumflex" unicode="&#xdb;" horiz-adv-x="1379" 
d="M690 1593l309 -219l-37 -66l-272 136l-272 -136l-37 66zM680 109q82 0 137.5 26t89 75t48 119t14.5 158v578h-131v141h491v-141h-196v-584q0 -106 -18.5 -185.5t-50.5 -136.5t-75.5 -94t-94 -58t-105 -29.5t-109.5 -8.5q-53 0 -105.5 8.5t-100.5 29.5t-89 58t-71.5 94
t-48 136t-17.5 186v584h-197v141h492v-141h-131v-598q0 -89 13.5 -156t44.5 -112t82.5 -67.5t127.5 -22.5z" />
    <glyph glyph-name="Udieresis" unicode="&#xdc;" horiz-adv-x="1379" 
d="M680 109q82 0 137.5 26t89 75t48 119t14.5 158v578h-131v141h491v-141h-196v-584q0 -106 -18.5 -185.5t-50.5 -136.5t-75.5 -94t-94 -58t-105 -29.5t-109.5 -8.5q-53 0 -105.5 8.5t-100.5 29.5t-89 58t-71.5 94t-48 136t-17.5 186v584h-197v141h492v-141h-131v-598
q0 -89 13.5 -156t44.5 -112t82.5 -67.5t127.5 -22.5zM623 1429q0 -24 -9.5 -44.5t-25 -36.5t-36.5 -25t-44 -9q-24 0 -44.5 9t-36.5 25t-25 36.5t-9 44.5q0 23 9 44t25 36.5t36.5 25t44.5 9.5q23 0 44 -9.5t36.5 -25t25 -36.5t9.5 -44zM987 1429q0 -24 -9 -44.5t-25 -36.5
t-36.5 -25t-43.5 -9q-24 0 -45 9t-36.5 25t-24.5 36.5t-9 44.5q0 23 9 44t24.5 36.5t36.5 25t45 9.5q23 0 43.5 -9.5t36.5 -25t25 -36.5t9 -44z" />
    <glyph glyph-name="Yacute" unicode="&#xdd;" horiz-adv-x="1357" 
d="M22 1206h490v-141h-109l289 -360l275 360h-113v141h485v-141h-196l-379 -498l-4 -426h192v-141h-547v141h193l2 420l-406 504h-172v141zM1101 1552l37 -149l-516 -96l-18 73z" />
    <glyph glyph-name="Thorn" unicode="&#xde;" horiz-adv-x="1019" 
d="M455 778v-352h86q18 0 42 1t49.5 6t50 16.5t44 32.5t31.5 53.5t12 80.5q0 64 -22.5 97t-56.5 47.5t-75.5 16t-78.5 1.5h-82zM98 141h191v924h-191v141h598v-141h-241v-145h98q94 0 167 -14.5t123 -49.5t75.5 -93.5t25.5 -146.5q0 -81 -25.5 -143t-71.5 -104t-110 -64
t-141 -22h-143v-142h245v-141h-600v141z" />
    <glyph glyph-name="germandbls" unicode="&#xdf;" horiz-adv-x="1216" 
d="M96 127h172v625h-172v127h172v90q0 86 20.5 150.5t64.5 108t113.5 65.5t167.5 22q83 0 146.5 -19.5t106 -54.5t64 -83t21.5 -105q0 -51 -16.5 -90t-41.5 -70.5t-53.5 -57t-53.5 -50.5t-41.5 -50.5t-16.5 -56.5q0 -26 11.5 -45.5t34 -35.5t54 -29.5t77.5 -30.5t88 -43
t73 -62.5t48 -86.5t17 -116q0 -62 -23.5 -110.5t-63.5 -81.5t-92.5 -50.5t-110.5 -17.5q-66 0 -114.5 14t-84.5 32t-63 44l-33 183l133 28l20 -120q14 -14 32.5 -24.5t46 -18t65.5 -7.5q31 0 57 9.5t45 27t29 41t10 51.5q0 40 -15 68t-39 47.5t-53.5 32t-72.5 27.5
t-89.5 43.5t-79 62.5t-50 73t-17.5 81q0 58 17 99.5t43 73t56 55.5t56 48t43 50.5t17 62.5q0 22 -11 45.5t-33.5 42.5t-55.5 31t-76 12q-66 0 -108.5 -15.5t-66.5 -47t-33 -78t-9 -107.5v-936h-332v127z" />
    <glyph glyph-name="agrave" unicode="&#xe0;" horiz-adv-x="1047" 
d="M142 666l33 186q38 16 85 28q40 11 94 20t118 9q92 0 155.5 -17.5t104.5 -47t64 -68.5t33.5 -82.5t12.5 -89.5t2 -88v-356l195 -64l-41 -131l-277 94q-52 -35 -124.5 -62.5t-163.5 -27.5q-83 0 -148 20.5t-110.5 57.5t-69.5 86.5t-25 108.5q-1 71 25.5 122t73 83.5
t108.5 47.5t133 15l265 -2v16q0 26 0.5 54.5t-4 57t-15.5 54t-34 45.5t-60.5 31.5t-93.5 11.5q-65 0 -112 -8t-73 -16l-20 -113zM441 100q45 0 83 7.5t68.5 19t53.5 25.5t39 26v201l-260 2q-35 0 -67.5 -4.5t-58 -18.5t-40.5 -41.5t-15 -72.5q0 -37 16 -64t43 -45t63 -26.5
t75 -8.5zM656 1051l-37 -66l-477 217l72 135z" />
    <glyph glyph-name="aacute" unicode="&#xe1;" horiz-adv-x="1047" 
d="M142 666l33 186q38 16 85 28q40 11 94 20t118 9q92 0 155.5 -17.5t104.5 -47t64 -68.5t33.5 -82.5t12.5 -89.5t2 -88v-356l195 -64l-41 -131l-277 94q-52 -35 -124.5 -62.5t-163.5 -27.5q-83 0 -148 20.5t-110.5 57.5t-69.5 86.5t-25 108.5q-1 71 25.5 122t73 83.5
t108.5 47.5t133 15l265 -2v16q0 26 0.5 54.5t-4 57t-15.5 54t-34 45.5t-60.5 31.5t-93.5 11.5q-65 0 -112 -8t-73 -16l-20 -113zM441 100q45 0 83 7.5t68.5 19t53.5 25.5t39 26v201l-260 2q-35 0 -67.5 -4.5t-58 -18.5t-40.5 -41.5t-15 -72.5q0 -37 16 -64t43 -45t63 -26.5
t75 -8.5zM781 1335l72 -135l-478 -217l-36 66z" />
    <glyph glyph-name="acircumflex" unicode="&#xe2;" horiz-adv-x="1047" 
d="M142 666l33 186q38 16 85 28q40 11 94 20t118 9q92 0 155.5 -17.5t104.5 -47t64 -68.5t33.5 -82.5t12.5 -89.5t2 -88v-356l195 -64l-41 -131l-277 94q-52 -35 -124.5 -62.5t-163.5 -27.5q-83 0 -148 20.5t-110.5 57.5t-69.5 86.5t-25 108.5q-1 71 25.5 122t73 83.5
t108.5 47.5t133 15l265 -2v16q0 26 0.5 54.5t-4 57t-15.5 54t-34 45.5t-60.5 31.5t-93.5 11.5q-65 0 -112 -8t-73 -16l-20 -113zM441 100q45 0 83 7.5t68.5 19t53.5 25.5t39 26v201l-260 2q-35 0 -67.5 -4.5t-58 -18.5t-40.5 -41.5t-15 -72.5q0 -37 16 -64t43 -45t63 -26.5
t75 -8.5zM490 1337l309 -219l-37 -66l-272 136l-272 -136l-37 66z" />
    <glyph glyph-name="atilde" unicode="&#xe3;" horiz-adv-x="1047" 
d="M142 666l33 186q38 16 85 28q40 11 94 20t118 9q92 0 155.5 -17.5t104.5 -47t64 -68.5t33.5 -82.5t12.5 -89.5t2 -88v-356l195 -64l-41 -131l-277 94q-52 -35 -124.5 -62.5t-163.5 -27.5q-83 0 -148 20.5t-110.5 57.5t-69.5 86.5t-25 108.5q-1 71 25.5 122t73 83.5
t108.5 47.5t133 15l265 -2v16q0 26 0.5 54.5t-4 57t-15.5 54t-34 45.5t-60.5 31.5t-93.5 11.5q-65 0 -112 -8t-73 -16l-20 -113zM441 100q45 0 83 7.5t68.5 19t53.5 25.5t39 26v201l-260 2q-35 0 -67.5 -4.5t-58 -18.5t-40.5 -41.5t-15 -72.5q0 -37 16 -64t43 -45t63 -26.5
t75 -8.5zM532 1257q17 -12 33.5 -24.5t33.5 -23t35.5 -17t40.5 -6.5q28 0 63 14t81 49l67 -80q-23 -19 -49.5 -39t-56 -36.5t-61.5 -27t-66 -10.5q-29 0 -59 9.5t-62 31.5q-17 12 -33.5 24.5t-34 23t-36 17.5t-40.5 7q-28 0 -63 -14.5t-80 -49.5l-67 80q23 19 49.5 39t56 36
t61 26.5t65.5 10.5q29 0 59.5 -9.5t62.5 -30.5z" />
    <glyph glyph-name="adieresis" unicode="&#xe4;" horiz-adv-x="1047" 
d="M142 666l33 186q38 16 85 28q40 11 94 20t118 9q92 0 155.5 -17.5t104.5 -47t64 -68.5t33.5 -82.5t12.5 -89.5t2 -88v-356l195 -64l-41 -131l-277 94q-52 -35 -124.5 -62.5t-163.5 -27.5q-83 0 -148 20.5t-110.5 57.5t-69.5 86.5t-25 108.5q-1 71 25.5 122t73 83.5
t108.5 47.5t133 15l265 -2v16q0 26 0.5 54.5t-4 57t-15.5 54t-34 45.5t-60.5 31.5t-93.5 11.5q-65 0 -112 -8t-73 -16l-20 -113zM441 100q45 0 83 7.5t68.5 19t53.5 25.5t39 26v201l-260 2q-35 0 -67.5 -4.5t-58 -18.5t-40.5 -41.5t-15 -72.5q0 -37 16 -64t43 -45t63 -26.5
t75 -8.5zM427 1159q0 -24 -9.5 -44.5t-25 -36.5t-36.5 -25t-44 -9q-24 0 -44.5 9t-36.5 25t-25 36.5t-9 44.5q0 23 9 44t25 36.5t36.5 25t44.5 9.5q23 0 44 -9.5t36.5 -25t25 -36.5t9.5 -44zM791 1159q0 -24 -9 -44.5t-25 -36.5t-36.5 -25t-43.5 -9q-24 0 -45 9t-36.5 25
t-24.5 36.5t-9 44.5q0 23 9 44t24.5 36.5t36.5 25t45 9.5q23 0 43.5 -9.5t36.5 -25t25 -36.5t9 -44z" />
    <glyph glyph-name="aring" unicode="&#xe5;" horiz-adv-x="1047" 
d="M142 666l33 186q38 16 85 28q40 11 94 20t118 9q92 0 155.5 -17.5t104.5 -47t64 -68.5t33.5 -82.5t12.5 -89.5t2 -88v-356l195 -64l-41 -131l-277 94q-52 -35 -124.5 -62.5t-163.5 -27.5q-83 0 -148 20.5t-110.5 57.5t-69.5 86.5t-25 108.5q-1 71 25.5 122t73 83.5
t108.5 47.5t133 15l265 -2v16q0 26 0.5 54.5t-4 57t-15.5 54t-34 45.5t-60.5 31.5t-93.5 11.5q-65 0 -112 -8t-73 -16l-20 -113zM441 100q45 0 83 7.5t68.5 19t53.5 25.5t39 26v201l-260 2q-35 0 -67.5 -4.5t-58 -18.5t-40.5 -41.5t-15 -72.5q0 -37 16 -64t43 -45t63 -26.5
t75 -8.5zM325 1158q0 36 14 68t38 56t56 38t68 14t68 -14t56 -38t38 -56t14 -68t-14 -68t-38 -56t-56 -38t-68 -14t-68 14t-56 38t-38 56t-14 68zM421 1158q0 -16 6.5 -30.5t17.5 -25.5t25.5 -17.5t30.5 -6.5t30.5 6.5t25.5 17.5t17.5 25.5t6.5 30.5t-6.5 30.5t-17.5 25.5
t-25.5 17.5t-30.5 6.5t-30.5 -6.5t-25.5 -17.5t-17.5 -25.5t-6.5 -30.5z" />
    <glyph glyph-name="ae" unicode="&#xe6;" horiz-adv-x="1614" 
d="M1125 -31q-103 0 -185.5 33t-142.5 96q-26 -18 -69 -40t-94 -42t-104 -33.5t-97 -13.5q-84 0 -149.5 21t-111 58.5t-69 88.5t-23.5 110q0 70 27 119.5t73.5 81.5t108 47t131.5 15l265 -2v16v47q0 36 -5 73t-26 66.5t-62.5 48.5t-113.5 19q-66 0 -112.5 -8t-72.5 -16
l-20 -113l-131 25l33 186q45 20 119 38.5t178 18.5q66 0 117 -14.5t90 -38.5t66.5 -55.5t45.5 -65.5q30 37 67.5 69t82.5 55t97.5 36.5t111.5 13.5q74 0 139.5 -18.5t114.5 -64.5t77.5 -123t28.5 -194q0 -50 -6 -108l-660 -4q8 -144 78.5 -220.5t204.5 -76.5q58 0 106 10
t86.5 25t68 32t50.5 34l74 -97q0 -1 -25.5 -22t-75 -46t-121.5 -46t-165 -21zM441 100q36 0 75.5 8.5t78 22t74 30.5t63.5 34q-41 80 -51 184l-256 2q-35 0 -67.5 -4.5t-58 -19t-40.5 -41.5t-15 -72q0 -37 16 -64t43 -45t63 -26.5t75 -8.5zM1145 778q-60 0 -111 -17
t-89.5 -50t-64 -80t-34.5 -107l519 2q-2 124 -53.5 188t-166.5 64z" />
    <glyph glyph-name="ccedilla" unicode="&#xe7;" horiz-adv-x="964" 
d="M735 610l-26 142q-13 6 -52.5 16t-111.5 10q-142 0 -213.5 -88.5t-71.5 -249.5t71.5 -250.5t213.5 -89.5q45 0 85.5 8t75.5 20.5t63.5 28.5t51.5 31l68 -100q0 -1 -27.5 -19.5t-74.5 -40.5t-110 -40.5t-134 -18.5h-21v-78q108 0 165 -37.5t57 -121.5q0 -45 -18 -76.5
t-49 -52t-71 -30t-84 -9.5q-50 0 -90 12t-68.5 26t-44 26t-16.5 12l45 75q26 -19 69.5 -36t100.5 -17q60 0 86.5 18t26.5 52q0 15 -4.5 28t-18.5 22t-40.5 14t-71.5 5h-76v183q-74 18 -134 57t-102 97t-65 134t-23 168q0 110 32.5 197t92 147.5t141.5 92.5t181 32
q57 0 101.5 -4.5t78.5 -11.5t58.5 -16t41.5 -17l43 -221z" />
    <glyph glyph-name="egrave" unicode="&#xe8;" horiz-adv-x="1028" 
d="M541 -31q-99 0 -181 32.5t-141.5 93t-92 148t-32.5 197.5t32.5 197t92 147.5t141.5 92.5t181 32q82 0 157.5 -23t129.5 -80t80.5 -155t11.5 -248l-660 -4q8 -143 79 -221t204 -78q72 0 129 15.5t98 34.5q48 22 84 51l74 -97q0 -1 -25.5 -22t-75 -46t-121.5 -46t-165 -21z
M543 778q-122 0 -192 -65.5t-89 -186.5l518 2q-2 124 -61.5 187t-175.5 63zM682 1049l-37 -66l-477 217l72 135z" />
    <glyph glyph-name="eacute" unicode="&#xe9;" horiz-adv-x="1028" 
d="M826 1333l72 -135l-478 -217l-36 66zM541 -31q-99 0 -181 32.5t-141.5 93t-92 148t-32.5 197.5t32.5 197t92 147.5t141.5 92.5t181 32q82 0 157.5 -23t129.5 -80t80.5 -155t11.5 -248l-660 -4q8 -143 79 -221t204 -78q72 0 129 15.5t98 34.5q48 22 84 51l74 -97
q0 -1 -25.5 -22t-75 -46t-121.5 -46t-165 -21zM543 778q-122 0 -192 -65.5t-89 -186.5l518 2q-2 124 -61.5 187t-175.5 63z" />
    <glyph glyph-name="ecircumflex" unicode="&#xea;" horiz-adv-x="1028" 
d="M541 -31q-99 0 -181 32.5t-141.5 93t-92 148t-32.5 197.5t32.5 197t92 147.5t141.5 92.5t181 32q82 0 157.5 -23t129.5 -80t80.5 -155t11.5 -248l-660 -4q8 -143 79 -221t204 -78q72 0 129 15.5t98 34.5q48 22 84 51l74 -97q0 -1 -25.5 -22t-75 -46t-121.5 -46t-165 -21z
M543 778q-122 0 -192 -65.5t-89 -186.5l518 2q-2 124 -61.5 187t-175.5 63zM537 1337l309 -219l-37 -66l-272 136l-272 -136l-37 66z" />
    <glyph glyph-name="edieresis" unicode="&#xeb;" horiz-adv-x="1028" 
d="M541 -31q-99 0 -181 32.5t-141.5 93t-92 148t-32.5 197.5t32.5 197t92 147.5t141.5 92.5t181 32q82 0 157.5 -23t129.5 -80t80.5 -155t11.5 -248l-660 -4q8 -143 79 -221t204 -78q72 0 129 15.5t98 34.5q48 22 84 51l74 -97q0 -1 -25.5 -22t-75 -46t-121.5 -46t-165 -21z
M543 778q-122 0 -192 -65.5t-89 -186.5l518 2q-2 124 -61.5 187t-175.5 63zM461 1159q0 -24 -9.5 -44.5t-25 -36.5t-36.5 -25t-44 -9q-24 0 -44.5 9t-36.5 25t-25 36.5t-9 44.5q0 23 9 44t25 36.5t36.5 25t44.5 9.5q23 0 44 -9.5t36.5 -25t25 -36.5t9.5 -44zM825 1159
q0 -24 -9 -44.5t-25 -36.5t-36.5 -25t-43.5 -9q-24 0 -45 9t-36.5 25t-24.5 36.5t-9 44.5q0 23 9 44t24.5 36.5t36.5 25t45 9.5q23 0 43.5 -9.5t36.5 -25t25 -36.5t9 -44z" />
    <glyph glyph-name="igrave" unicode="&#xec;" horiz-adv-x="648" 
d="M95 879h330v-752h170v-127h-500v127h170v625h-170v127zM467 1049l-37 -66l-477 217l72 135z" />
    <glyph glyph-name="iacute" unicode="&#xed;" horiz-adv-x="647" 
d="M95 879h330v-752h170v-127h-500v127h170v625h-170v127zM607 1335l72 -135l-478 -217l-36 66z" />
    <glyph glyph-name="icircumflex" unicode="&#xee;" horiz-adv-x="648" 
d="M95 879h330v-752h170v-127h-500v127h170v625h-170v127zM329 1337l309 -219l-37 -66l-272 136l-272 -136l-37 66z" />
    <glyph glyph-name="idieresis" unicode="&#xef;" horiz-adv-x="648" 
d="M95 879h330v-752h170v-127h-500v127h170v625h-170v127zM276 1159q0 -24 -9.5 -44.5t-25 -36.5t-36.5 -25t-44 -9q-24 0 -44.5 9t-36.5 25t-25 36.5t-9 44.5q0 23 9 44t25 36.5t36.5 25t44.5 9.5q23 0 44 -9.5t36.5 -25t25 -36.5t9.5 -44zM640 1159q0 -24 -9 -44.5
t-25 -36.5t-36.5 -25t-43.5 -9q-24 0 -45 9t-36.5 25t-24.5 36.5t-9 44.5q0 23 9 44t24.5 36.5t36.5 25t45 9.5q23 0 43.5 -9.5t36.5 -25t25 -36.5t9 -44z" />
    <glyph glyph-name="eth" unicode="&#xf0;" horiz-adv-x="1111" 
d="M348 1065l70 78q-93 43 -205 80l27 112q85 -24 149.5 -46t118.5 -48l94 105l84 -82l-71 -80q98 -62 163.5 -131t112 -151t72 -174t28.5 -191q0 -146 -35 -253.5t-96 -178t-143 -104.5t-176 -34q-88 0 -168.5 29t-142.5 87.5t-99 146.5t-37 206q0 110 32.5 197t92 147.5
t141.5 92.5t181 32q18 0 41.5 -1.5t50 -6t55 -12t56.5 -19.5q-45 73 -98 126t-119 93l-95 -102zM543 774q-142 0 -213.5 -88.5t-71.5 -249.5t71.5 -249.5t213.5 -88.5q69 0 122.5 27t90 79t55.5 127t19 171q0 62 -9.5 108.5t-23.5 96.5q-21 15 -50 27.5t-62.5 21.5
t-69.5 13.5t-72 4.5z" />
    <glyph glyph-name="ntilde" unicode="&#xf1;" horiz-adv-x="1283" 
d="M119 909l272 -94q15 10 45 26t70.5 31t90 26t104.5 11q98 0 167.5 -21.5t113.5 -65t64.5 -108.5t20.5 -151v-436h172v-127h-424v127h92v403q0 55 -9 100.5t-33.5 78.5t-66.5 51t-108 18q-56 0 -102.5 -11t-81.5 -24q-40 -15 -74 -34v-582h92v-127h-424v127h173v588
l-197 67zM686 1257q17 -12 33.5 -24.5t33.5 -23t35.5 -17t40.5 -6.5q28 0 63 14t81 49l67 -80q-23 -19 -49.5 -39t-56 -36.5t-61.5 -27t-66 -10.5q-29 0 -59 9.5t-62 31.5q-17 12 -33.5 24.5t-34 23t-36 17.5t-40.5 7q-28 0 -63 -14.5t-80 -49.5l-67 80q23 19 49.5 39t56 36
t61 26.5t65.5 10.5q29 0 59.5 -9.5t62.5 -30.5z" />
    <glyph glyph-name="ograve" unicode="&#xf2;" 
d="M541 -31q-99 0 -181 32t-141.5 92.5t-92 147.5t-32.5 197t32.5 197.5t92 148t141.5 93t181 32.5q102 0 186 -32.5t143.5 -93t92.5 -148t33 -197.5t-33 -197t-92.5 -147.5t-143.5 -92.5t-186 -32zM543 778q-142 0 -213.5 -89.5t-71.5 -250.5t71.5 -249.5t213.5 -88.5
q145 0 217 88t72 250q0 161 -72.5 250.5t-216.5 89.5zM645 1049l-37 -66l-477 217l72 135z" />
    <glyph glyph-name="oacute" unicode="&#xf3;" 
d="M541 -31q-99 0 -181 32t-141.5 92.5t-92 147.5t-32.5 197t32.5 197.5t92 148t141.5 93t181 32.5q102 0 186 -32.5t143.5 -93t92.5 -148t33 -197.5t-33 -197t-92.5 -147.5t-143.5 -92.5t-186 -32zM543 778q-142 0 -213.5 -89.5t-71.5 -250.5t71.5 -249.5t213.5 -88.5
q145 0 217 88t72 250q0 161 -72.5 250.5t-216.5 89.5zM867 1335l72 -135l-478 -217l-36 66z" />
    <glyph glyph-name="ocircumflex" unicode="&#xf4;" 
d="M541 -31q-99 0 -181 32t-141.5 92.5t-92 147.5t-32.5 197t32.5 197.5t92 148t141.5 93t181 32.5q102 0 186 -32.5t143.5 -93t92.5 -148t33 -197.5t-33 -197t-92.5 -147.5t-143.5 -92.5t-186 -32zM543 778q-142 0 -213.5 -89.5t-71.5 -250.5t71.5 -249.5t213.5 -88.5
q145 0 217 88t72 250q0 161 -72.5 250.5t-216.5 89.5zM547 1337l309 -219l-37 -66l-272 136l-272 -136l-37 66z" />
    <glyph glyph-name="otilde" unicode="&#xf5;" 
d="M541 -31q-99 0 -181 32t-141.5 92.5t-92 147.5t-32.5 197t32.5 197.5t92 148t141.5 93t181 32.5q102 0 186 -32.5t143.5 -93t92.5 -148t33 -197.5t-33 -197t-92.5 -147.5t-143.5 -92.5t-186 -32zM543 778q-142 0 -213.5 -89.5t-71.5 -250.5t71.5 -249.5t213.5 -88.5
q145 0 217 88t72 250q0 161 -72.5 250.5t-216.5 89.5zM550 1257q17 -12 33.5 -24.5t33.5 -23t35.5 -17t40.5 -6.5q28 0 63 14t81 49l67 -80q-23 -19 -49.5 -39t-56 -36.5t-61.5 -27t-66 -10.5q-29 0 -59 9.5t-62 31.5q-17 12 -33.5 24.5t-34 23t-36 17.5t-40.5 7
q-28 0 -63 -14.5t-80 -49.5l-67 80q23 19 49.5 39t56 36t61 26.5t65.5 10.5q29 0 59.5 -9.5t62.5 -30.5z" />
    <glyph glyph-name="odieresis" unicode="&#xf6;" 
d="M541 -31q-99 0 -181 32t-141.5 92.5t-92 147.5t-32.5 197t32.5 197.5t92 148t141.5 93t181 32.5q102 0 186 -32.5t143.5 -93t92.5 -148t33 -197.5t-33 -197t-92.5 -147.5t-143.5 -92.5t-186 -32zM543 778q-142 0 -213.5 -89.5t-71.5 -250.5t71.5 -249.5t213.5 -88.5
q145 0 217 88t72 250q0 161 -72.5 250.5t-216.5 89.5zM478 1159q0 -24 -9.5 -44.5t-25 -36.5t-36.5 -25t-44 -9q-24 0 -44.5 9t-36.5 25t-25 36.5t-9 44.5q0 23 9 44t25 36.5t36.5 25t44.5 9.5q23 0 44 -9.5t36.5 -25t25 -36.5t9.5 -44zM842 1159q0 -24 -9 -44.5t-25 -36.5
t-36.5 -25t-43.5 -9q-24 0 -45 9t-36.5 25t-24.5 36.5t-9 44.5q0 23 9 44t24.5 36.5t36.5 25t45 9.5q23 0 43.5 -9.5t36.5 -25t25 -36.5t9 -44z" />
    <glyph glyph-name="divide" unicode="&#xf7;" horiz-adv-x="988" 
d="M113 682h762v-141h-762v141zM633 281q0 -26 -10.5 -49.5t-27.5 -40.5t-40.5 -27t-48.5 -10q-26 0 -49.5 10t-40.5 27t-27 40.5t-10 49.5q0 25 10 48t27 40.5t40.5 28t49.5 10.5q25 0 48.5 -10.5t40.5 -28t27.5 -40.5t10.5 -48zM633 934q0 -26 -10.5 -49.5t-27.5 -40.5
t-40.5 -27t-48.5 -10q-26 0 -49.5 10t-40.5 27t-27 40.5t-10 49.5q0 25 10 48t27 40.5t40.5 28t49.5 10.5q25 0 48.5 -10.5t40.5 -28t27.5 -40.5t10.5 -48z" />
    <glyph glyph-name="oslash" unicode="&#xf8;" 
d="M541 -31q-64 0 -115 13l-51 -129h-131l70 170q-105 54 -162.5 159.5t-57.5 255.5q0 110 32.5 197.5t92 148t141.5 93t181 32.5q69 0 129 -16l51 127h129l-70 -170q102 -57 159 -160.5t57 -251.5q0 -110 -33 -197t-92.5 -147.5t-143.5 -92.5t-186 -32zM543 778
q-142 0 -213.5 -89.5t-71.5 -250.5q0 -100 26 -172t83 -114l252 618q-17 5 -36.5 6.5t-39.5 1.5zM832 438q0 97 -25.5 168t-79.5 113l-250 -613q31 -6 66 -6q145 0 217 88t72 250z" />
    <glyph glyph-name="ugrave" unicode="&#xf9;" horiz-adv-x="1239" 
d="M676 879h332v-719l193 -66l-41 -131l-279 96q-18 -11 -48 -26t-69 -29.5t-86 -24.5t-98 -10q-98 0 -168 22t-114 65.5t-64.5 108t-20.5 150.5v437h-172v127h332v-531q0 -54 9 -99.5t33.5 -78.5t66.5 -51.5t108 -18.5q56 0 102.5 10.5t81.5 24.5q40 15 74 35v582h-172v127
zM599 1051l-37 -66l-477 217l72 135z" />
    <glyph glyph-name="uacute" unicode="&#xfa;" horiz-adv-x="1239" 
d="M676 879h332v-719l193 -66l-41 -131l-279 96q-18 -11 -48 -26t-69 -29.5t-86 -24.5t-98 -10q-98 0 -168 22t-114 65.5t-64.5 108t-20.5 150.5v437h-172v127h332v-531q0 -54 9 -99.5t33.5 -78.5t66.5 -51.5t108 -18.5q56 0 102.5 10.5t81.5 24.5q40 15 74 35v582h-172v127
zM969 1335l72 -135l-478 -217l-36 66z" />
    <glyph glyph-name="ucircumflex" unicode="&#xfb;" horiz-adv-x="1239" 
d="M676 879h332v-719l193 -66l-41 -131l-279 96q-18 -11 -48 -26t-69 -29.5t-86 -24.5t-98 -10q-98 0 -168 22t-114 65.5t-64.5 108t-20.5 150.5v437h-172v127h332v-531q0 -54 9 -99.5t33.5 -78.5t66.5 -51.5t108 -18.5q56 0 102.5 10.5t81.5 24.5q40 15 74 35v582h-172v127
zM596 1337l309 -219l-37 -66l-272 136l-272 -136l-37 66z" />
    <glyph glyph-name="udieresis" unicode="&#xfc;" horiz-adv-x="1239" 
d="M676 879h332v-719l193 -66l-41 -131l-279 96q-18 -11 -48 -26t-69 -29.5t-86 -24.5t-98 -10q-98 0 -168 22t-114 65.5t-64.5 108t-20.5 150.5v437h-172v127h332v-531q0 -54 9 -99.5t33.5 -78.5t66.5 -51.5t108 -18.5q56 0 102.5 10.5t81.5 24.5q40 15 74 35v582h-172v127
zM533 1159q0 -24 -9.5 -44.5t-25 -36.5t-36.5 -25t-44 -9q-24 0 -44.5 9t-36.5 25t-25 36.5t-9 44.5q0 23 9 44t25 36.5t36.5 25t44.5 9.5q23 0 44 -9.5t36.5 -25t25 -36.5t9.5 -44zM897 1159q0 -24 -9 -44.5t-25 -36.5t-36.5 -25t-43.5 -9q-24 0 -45 9t-36.5 25t-24.5 36.5
t-9 44.5q0 23 9 44t24.5 36.5t36.5 25t45 9.5q23 0 43.5 -9.5t36.5 -25t25 -36.5t9 -44z" />
    <glyph glyph-name="yacute" unicode="&#xfd;" horiz-adv-x="1188" 
d="M30 879h426v-127h-116l276 -693l246 693h-113v127h410v-127h-148l-340 -955q-47 -130 -123 -192t-192 -62q-22 0 -45.5 3t-42.5 6.5t-31 7t-12 4.5l26 123q22 -6 42 -10q17 -4 36.5 -6.5t34.5 -2.5q17 0 38.5 5.5t43.5 21.5t43.5 45.5t38.5 77.5l16 47l-368 887h-146v127
zM954 1335l72 -135l-478 -217l-36 66z" />
    <glyph glyph-name="thorn" unicode="&#xfe;" horiz-adv-x="1086" 
d="M491 -426h-503v127h172v1440l-193 63l41 131l311 -106v-385q48 26 107.5 45.5t128.5 19.5q97 0 177.5 -29t138.5 -85.5t90 -139t32 -190.5q0 -110 -32.5 -201t-91.5 -156.5t-141 -102t-181 -36.5q-69 0 -124.5 10t-103.5 25v-303h172v-127zM545 100q70 0 123.5 27t89 75
t53.5 115t18 148q0 313 -276 313q-44 0 -80 -7t-65 -18.5t-51 -25t-38 -25.5v-550q31 -19 85 -35.5t141 -16.5z" />
    <glyph glyph-name="ydieresis" unicode="&#xff;" horiz-adv-x="1188" 
d="M30 879h426v-127h-116l276 -693l246 693h-113v127h410v-127h-148l-340 -955q-47 -130 -123 -192t-192 -62q-22 0 -45.5 3t-42.5 6.5t-31 7t-12 4.5l26 123q22 -6 42 -10q17 -4 36.5 -6.5t34.5 -2.5q17 0 38.5 5.5t43.5 21.5t43.5 45.5t38.5 77.5l16 47l-368 887h-146v127
zM534 1159q0 -24 -9.5 -44.5t-25 -36.5t-36.5 -25t-44 -9q-24 0 -44.5 9t-36.5 25t-25 36.5t-9 44.5q0 23 9 44t25 36.5t36.5 25t44.5 9.5q23 0 44 -9.5t36.5 -25t25 -36.5t9.5 -44zM898 1159q0 -24 -9 -44.5t-25 -36.5t-36.5 -25t-43.5 -9q-24 0 -45 9t-36.5 25t-24.5 36.5
t-9 44.5q0 23 9 44t24.5 36.5t36.5 25t45 9.5q23 0 43.5 -9.5t36.5 -25t25 -36.5t9 -44z" />
    <glyph glyph-name="dotlessi" unicode="&#x131;" horiz-adv-x="648" 
d="M95 879h330v-752h170v-127h-500v127h170v625h-170v127z" />
    <glyph glyph-name="OE" unicode="&#x152;" horiz-adv-x="1824" 
d="M1738 315l-107 -315h-913q-128 0 -238 41t-191.5 118.5t-128 189.5t-46.5 255q0 178 45 294.5t127 184.5t196 95.5t252 27.5h856l107 -315l-135 -45l-82 219h-434v-371h379v-141h-381v-412h477l82 219zM734 1067q-103 0 -185.5 -15.5t-140.5 -64t-89 -140t-31 -243.5
q0 -236 117 -350.5t350 -114.5l125 2v926h-146z" />
    <glyph glyph-name="oe" unicode="&#x153;" horiz-adv-x="1565" 
d="M1077 -31q-84 0 -152.5 22t-125.5 64q-51 -34 -116.5 -60t-143.5 -26q-99 0 -181 35t-141.5 99t-92 154t-32.5 200q0 99 34.5 182t95 143t142 93.5t175.5 33.5t164 -21.5t121 -47.5q52 34 115 51.5t138 17.5q76 0 145.5 -19t122.5 -66t84.5 -126t31.5 -199
q0 -23 -1.5 -47.5t-3.5 -50.5l-659 -4q8 -144 78 -220.5t205 -76.5q58 0 106 9.5t86.5 24.5t68 32.5t50.5 34.5l74 -97q0 -1 -26 -22t-75.5 -46t-121.5 -46t-165 -21zM631 438q0 94 23.5 172t68.5 138q-29 11 -74 20.5t-108 9.5q-65 0 -118 -24.5t-90 -67t-57 -101
t-20 -126.5q0 -81 18 -147t53.5 -113t89 -73t124.5 -26q54 0 96 13.5t76 31.5q-40 57 -61 129.5t-21 163.5zM1080 778q-123 0 -192.5 -66.5t-88.5 -187.5l518 2q-2 125 -62 188.5t-175 63.5z" />
    <glyph glyph-name="circumflex" unicode="&#x2c6;" horiz-adv-x="702" 
d="M346 1286l309 -219l-37 -66l-272 136l-272 -136l-37 66z" />
    <glyph glyph-name="caron" unicode="&#x2c7;" horiz-adv-x="711" 
d="M37 1194l37 66l272 -136l272 136l37 -66l-309 -219z" />
    <glyph glyph-name="ring" unicode="&#x2da;" horiz-adv-x="494" 
d="M68 1456q0 36 14 68t38 56t56 38t68 14t68 -14t56 -38t38 -56t14 -68t-14 -68t-38 -56t-56 -38t-68 -14t-68 14t-56 38t-38 56t-14 68zM164 1456q0 -16 6.5 -30.5t17.5 -25.5t25.5 -17.5t30.5 -6.5t30.5 6.5t25.5 17.5t17.5 25.5t6.5 30.5t-6.5 30.5t-17.5 25.5
t-25.5 17.5t-30.5 6.5t-30.5 -6.5t-25.5 -17.5t-17.5 -25.5t-6.5 -30.5z" />
    <glyph glyph-name="tilde" unicode="&#x2dc;" horiz-adv-x="1182" 
d="M592 1196q17 -12 33.5 -24.5t33.5 -23t35.5 -17t40.5 -6.5q28 0 63 14t81 49l67 -80q-23 -19 -49.5 -39t-56 -36.5t-61.5 -27t-66 -10.5q-29 0 -59 9.5t-62 31.5q-17 12 -33.5 24.5t-34 23t-36 17.5t-40.5 7q-28 0 -63 -14.5t-80 -49.5l-67 80q23 19 49.5 39t56 36
t61 26.5t65.5 10.5q29 0 59.5 -9.5t62.5 -30.5z" />
    <glyph glyph-name="endash" unicode="&#x2013;" horiz-adv-x="1216" 
d="M138 545h940v-142h-940v142z" />
    <glyph glyph-name="emdash" unicode="&#x2014;" horiz-adv-x="1662" 
d="M135 543h1393v-142h-1393v142z" />
    <glyph glyph-name="quoteleft" unicode="&#x2018;" horiz-adv-x="503" 
d="M113 907q0 30 7.5 60t20 58.5t28.5 55.5t33 51q40 55 91 107l72 -61q-18 -27 -35 -55q-14 -24 -30.5 -53t-28.5 -56q18 -2 37 -8t35 -19q20 -17 31.5 -40.5t11.5 -51.5q0 -29 -10.5 -52t-28.5 -40t-42.5 -26t-52.5 -9q-27 0 -52.5 11t-44.5 30t-30.5 44t-11.5 54z" />
    <glyph glyph-name="quoteright" unicode="&#x2019;" horiz-adv-x="489" 
d="M393 1100q0 -30 -7.5 -60t-20 -58.5t-28.5 -55.5t-33 -51q-40 -55 -91 -107l-72 61q17 27 35 55q14 24 30.5 52.5t28.5 56.5q-18 2 -37 8.5t-34 18.5q-20 17 -31.5 40.5t-11.5 51.5t10 51.5t28 40.5t42 26t53 9q27 0 52.5 -11t44.5 -30t30.5 -44.5t11.5 -53.5z" />
    <glyph glyph-name="quotesinglbase" unicode="&#x201a;" horiz-adv-x="527" 
d="M401 84q0 -30 -7.5 -60t-20 -58.5t-28.5 -55.5t-44.5 -66.5t-79.5 -91.5l-72 62q17 26 35 54q14 24 30.5 52.5t28.5 56.5q-18 2 -37 8.5t-36.5 21t-29 38t-11.5 51.5t10 51.5t28 40.5t42 26t53 9q27 0 52.5 -11t44.5 -30t30.5 -44.5t11.5 -53.5z" />
    <glyph glyph-name="quotedblleft" unicode="&#x201c;" horiz-adv-x="882" 
d="M492 907q0 30 7.5 60t20 58.5t28.5 55.5t33 51q40 55 91 107l72 -61q-18 -27 -35 -55q-14 -24 -30.5 -53t-28.5 -56q18 -2 37 -8t35 -19q20 -17 31.5 -40.5t11.5 -51.5q0 -29 -10.5 -52t-28.5 -40t-42.5 -26t-52.5 -9q-27 0 -52.5 11t-44.5 30t-30.5 44t-11.5 54z
M113 907q0 30 7.5 60t20 58.5t28.5 55.5t33 51q40 55 91 107l72 -61q-18 -27 -35 -55q-14 -24 -30.5 -53t-28.5 -56q18 -2 37 -8t35 -19q20 -17 31.5 -40.5t11.5 -51.5q0 -29 -10.5 -52t-28.5 -40t-42.5 -26t-52.5 -9q-27 0 -52.5 11t-44.5 30t-30.5 44t-11.5 54z" />
    <glyph glyph-name="quotedblright" unicode="&#x201d;" horiz-adv-x="868" 
d="M772 1100q0 -30 -7.5 -60t-20 -58.5t-28.5 -55.5t-33 -51q-40 -55 -91 -107l-72 61q17 27 35 55q14 24 30.5 52.5t28.5 56.5q-18 2 -37 8.5t-34 18.5q-20 17 -31.5 40.5t-11.5 51.5t10 51.5t28 40.5t42 26t53 9q27 0 52.5 -11t44.5 -30t30.5 -44.5t11.5 -53.5zM393 1100
q0 -30 -7.5 -60t-20 -58.5t-28.5 -55.5t-33 -51q-40 -55 -91 -107l-72 61q17 27 35 55q14 24 30.5 52.5t28.5 56.5q-18 2 -37 8.5t-34 18.5q-20 17 -31.5 40.5t-11.5 51.5t10 51.5t28 40.5t42 26t53 9q27 0 52.5 -11t44.5 -30t30.5 -44.5t11.5 -53.5z" />
    <glyph glyph-name="quotedblbase" unicode="&#x201e;" horiz-adv-x="906" 
d="M780 84q0 -30 -7.5 -60t-20 -58.5t-28.5 -55.5t-44.5 -66.5t-79.5 -91.5l-72 62q17 26 35 54q14 24 30.5 52.5t28.5 56.5q-18 2 -37 8.5t-36.5 21t-29 38t-11.5 51.5t10 51.5t28 40.5t42 26t53 9q27 0 52.5 -11t44.5 -30t30.5 -44.5t11.5 -53.5zM401 84q0 -30 -7.5 -60
t-20 -58.5t-28.5 -55.5t-44.5 -66.5t-79.5 -91.5l-72 62q17 26 35 54q14 24 30.5 52.5t28.5 56.5q-18 2 -37 8.5t-36.5 21t-29 38t-11.5 51.5t10 51.5t28 40.5t42 26t53 9q27 0 52.5 -11t44.5 -30t30.5 -44.5t11.5 -53.5z" />
    <glyph glyph-name="bullet" unicode="&#x2022;" horiz-adv-x="698" 
d="M112 651q0 49 19 92.5t51 75.5t75.5 51t92.5 19t92 -19t75.5 -51t51 -75.5t18.5 -92.5t-18.5 -92t-51 -75.5t-75.5 -51t-92 -18.5t-92.5 18.5t-75.5 51t-51 75.5t-19 92z" />
    <glyph glyph-name="guilsinglleft" unicode="&#x2039;" horiz-adv-x="617" 
d="M507 76l-102 -72l-326 440l326 441l102 -72l-262 -369z" />
    <glyph glyph-name="guilsinglright" unicode="&#x203a;" horiz-adv-x="617" 
d="M372 444l-262 369l102 72l326 -441l-326 -440l-102 72z" />
    <glyph glyph-name="fraction" unicode="&#x2044;" horiz-adv-x="695" 
d="M115 -156h-133l596 1491h131z" />
    <glyph glyph-name="uni2074" unicode="&#x2074;" horiz-adv-x="797" 
d="M558 684v-104h113v-99h-359v99h129v104h-356v61l237 527l101 -60l-146 -301l-59 -129h223v338h119l-2 -338l117 2v-100h-117z" />
    <glyph glyph-name="Euro" unicode="&#x20ac;" horiz-adv-x="1427" 
d="M1310 283l-51 -238q-27 -13 -62.5 -26.5t-80.5 -24.5t-100.5 -18t-123.5 -7q-107 0 -197 29t-161 84t-121 133.5t-76 177.5h-258l35 142h197q-2 20 -3 40t-1 82h-228l33 142h219q24 103 74 184t121.5 137.5t163.5 86.5t200 30q102 -1 173.5 -16t117 -32.5t66.5 -32
t22 -15.5l45 -238l-141 -31l-41 177q-31 17 -90 33t-150 16q-152 0 -249 -78t-136 -221h504l-32 -142h-494v-83.5t2 -38.5h463l-33 -142h-403q40 -138 136 -211t242 -73q77 0 139.5 14.5t100.5 28.5l39 163z" />
    <glyph glyph-name="minus" unicode="&#x2212;" horiz-adv-x="1026" 
d="M147 678h732v-141h-732v141z" />
    <glyph glyph-name="uniF6C9" unicode="&#xf6c9;" horiz-adv-x="668" 
d="M563 1552l37 -149l-516 -96l-18 73z" />
    <glyph glyph-name="uniF6CE" unicode="&#xf6ce;" horiz-adv-x="686" 
d="M610 1389l-18 -74l-516 96l37 150z" />
    <glyph glyph-name="noBreak" horiz-adv-x="0" 
 />
    <glyph glyph-name="foundryicon" horiz-adv-x="3568" 
d="M1253 813q19 -163 22.5 -328.5t-12 -318.5t-50 -286t-90.5 -231.5t-134 -155t-180 -56.5q-54 0 -88.5 15t-55 43.5t-28.5 71t-8 97.5q0 50 9 95t21 87q50 0 105.5 -16.5t97.5 -58.5q-4 -29 -8 -63t-5.5 -68.5t0 -67.5t9.5 -61q64 41 99.5 96t55.5 125t30 155l22 187
q-8 -13 -24.5 -25t-36.5 -12q-75 0 -126 40.5t-83 106.5q-11 -31 -29.5 -63t-47 -58t-67.5 -42.5t-90 -16.5q-78 0 -140.5 23.5t-110.5 65t-83 97.5t-58 121.5t-35 137.5t-13 145q-1 125 14.5 249t51.5 237t94.5 210.5t142.5 171.5q46 -10 100 -26t100.5 -51t77.5 -94.5
t31 -155.5q0 -75 -36 -136t-93 -110q-9 -10 -14 -12t-6.5 0.5t-1.5 7.5t2 10q7 41 3.5 90.5t-13.5 96t-23.5 84t-26.5 53.5q-25 -23 -48 -77t-41 -128t-29.5 -162t-15 -180.5t3.5 -183.5t26 -170.5t51.5 -142t81.5 -97.5q40 13 72 39.5t57.5 58.5t43.5 64.5t30 58.5
q-22 71 -29.5 151.5t-7.5 161.5q0 78 10 131t29 88l40 -8t52.5 -14t54.5 -22t47 -31q-5 -83 -6.5 -164t3 -159t16.5 -152.5t34 -145.5q12 3 19.5 10t12 15t7 16.5t4.5 13.5q21 95 22.5 198t-6.5 199.5t-21.5 180.5t-22.5 141q27 3 60 -3.5t66 -20t63 -32.5t50 -40zM1286 850
q84 -5 131 -16q53 -11 88 -50q23 -42 41.5 -101t24.5 -140q35 66 58.5 114.5t37.5 90.5q0 13 2.5 31t7 36t10 35t11.5 29q32 -3 62.5 -9.5t56 -16.5t45 -24.5t30.5 -33.5q-7 -37 -11.5 -80t-6 -86.5t0.5 -86t9 -79.5q-172 -46 -196 123q-8 -21 -21.5 -42t-28 -44t-27.5 -48
t-20 -53q0 -26 -0.5 -58.5t-2 -65.5t-6 -64t-11.5 -53q-9 -32 -24.5 -58.5t-36.5 -45t-49 -26t-62 -1.5q-4 61 -7.5 130.5t-9 143t-13 148.5t-18.5 146t-27 136t-38 119zM2552 113q12 10 28 26t30 34.5t24 40t12 42.5q-14 56 -21 117t-9.5 117.5t-1.5 103.5t3 76
q-15 -19 -29.5 -55.5t-26.5 -84.5t-20 -102.5t-10 -110.5t2.5 -108.5t18.5 -95.5zM3154 535q34 50 57.5 130.5t35 170t11.5 175.5t-12 148q-15 -62 -30 -137.5t-27.5 -157t-21.5 -165.5t-13 -164zM2177 690q-28 -85 -41.5 -181.5t-13.5 -193.5q23 3 40 25t28 54.5t16.5 71.5
t5.5 77q0 45 -12 85.5t-23 61.5zM2441 1317q-15 -31 -31 -71t-35.5 -82.5t-43 -84.5t-53.5 -76.5t-68 -59t-86 -32.5q14 -28 27.5 -54t25.5 -48q0 -2 2 -4q56 -28 87.5 -85.5t31.5 -148.5q0 -52 -11 -105t-33 -98.5t-54 -79t-74 -46.5q11 -44 24.5 -82.5t42.5 -57.5
q30 12 53.5 35t42 50t32.5 56t24 54v109q2 55 10 108t23.5 102t40 93t59.5 82q35 0 74 -7.5t71 -19.5q3 7 8 29t11.5 46.5t13.5 44.5t13 25q17 5 43 0.5t52.5 -14.5t49.5 -23.5t35 -25.5q-12 -81 -20 -179.5t-9 -200t8 -198t31 -172.5q15 -4 30 9t29 32.5t25 40.5t18 33
l-6 29q-20 95 -29 198.5t-7.5 210.5t12.5 213t32 206t52 189t71 162q90 -15 149 -43t93.5 -75t48.5 -114.5t14 -160.5q0 -88 -15 -181t-44.5 -175t-73 -144t-100.5 -88q0 -106 20.5 -191.5t65.5 -150.5q62 47 110 131t80 215q11 5 17 4.5t12 -0.5q2 -40 0 -87t-11.5 -95
t-27.5 -92.5t-47 -79t-70 -55.5t-96 -21q-75 0 -130.5 32.5t-90.5 92.5q-6 -24 -18 -46.5t-29 -40t-39 -28t-47 -10.5q-29 0 -55 12t-47 30.5t-37 41t-25 43.5q-5 -21 -19.5 -39.5t-34 -32.5t-41.5 -23t-42 -11q-80 0 -124.5 35.5t-59.5 91.5q-13 -21 -31 -42t-41 -39
t-51 -30.5t-62 -15.5q-80 0 -134.5 32t-87 85.5t-45 123t-7.5 144.5q1 56 7.5 115t17.5 114t26.5 102t34.5 78q37 5 72 0q-10 19 -18.5 40t-14.5 42q-42 9 -81 30t-75.5 50.5t-70 64.5t-64.5 72q-15 13 -44.5 20t-63 13.5t-65.5 16.5t-52 28q-8 7 -6 14t10 7q1 -2 20 -4.5
t47 -5.5t62 -6t65.5 -5.5t55.5 -4t34 -1.5q74 14 145 27t128.5 25t97.5 23.5t51 22.5q13 45 47 70t72 25q16 0 29.5 -2.5t25.5 -10.5l35 13q2 0 2 -0.5t1 -0.5h1q-1 -1 -2 -1l-8 -39h35q1 -1 1 -2h-1zM2148 817q-14 19 -27 42.5t-24 49.5h-31l25 -80q15 -3 29 -5t28 -7z" />
  </font>
</defs>
</svg>
