<?xml version="1.0" standalone="no"?>
<!DOCTYPE svg PUBLIC "-//W3C//DTD SVG 1.1//EN" "http://www.w3.org/Graphics/SVG/1.1/DTD/svg11.dtd" >
<svg xmlns="http://www.w3.org/2000/svg" xmlns:xlink="http://www.w3.org/1999/xlink" version="1.1">
<metadata>
Created by FontForge 20161013 at Fri Nov 26 17:09:52 2010
 By ,,,
Copyright 1999-2010 Ben Weiner. Licensed under the Open Font License v1.1 (http://scripts.sil.org/OFL)
</metadata>
<defs>
<font id="Puritan-Regular" horiz-adv-x="512" >
  <font-face 
    font-family="Puritan"
    font-weight="400"
    font-stretch="normal"
    units-per-em="1024"
    panose-1="0 0 4 0 0 0 0 0 0 0"
    ascent="819"
    descent="-205"
    x-height="506"
    cap-height="657"
    bbox="-152 -238 996 881"
    underline-thickness="20"
    underline-position="-176"
    unicode-range="U+000C-F002"
  />
<missing-glyph 
d="M65 0v881h384v-881h-384zM128 65h256v752h-256v-752z" />
    <glyph glyph-name=".notdef" 
d="M65 0v881h384v-881h-384zM128 65h256v752h-256v-752z" />
    <glyph glyph-name=".null" horiz-adv-x="0" 
 />
    <glyph glyph-name=".null" horiz-adv-x="0" 
 />
    <glyph glyph-name="nonmarkingreturn" horiz-adv-x="279" 
 />
    <glyph glyph-name="space" unicode=" " horiz-adv-x="279" 
 />
    <glyph glyph-name="exclam" unicode="!" horiz-adv-x="240" 
d="M165 197h-87v526h87v-526zM116 -13q-25 0 -41.5 16.5t-16.5 41.5t16.5 42t41.5 17q26 0 43 -16.5t17 -42.5t-17 -42t-43 -16z" />
    <glyph glyph-name="quotedbl" unicode="&#x22;" horiz-adv-x="336" 
d="M264 697q-49 0 -49 -57q0 -25 15 -78t28 -76h14q11 23 25.5 76t14.5 78q0 57 -48 57zM119 697q-48 0 -48 -57q0 -25 14.5 -78t28.5 -76h13q11 23 25.5 76t14.5 78q0 57 -48 57z" />
    <glyph glyph-name="numbersign" unicode="#" horiz-adv-x="548" 
d="M456 573l-82 -9v-80l81 9v-54l-82 -8v-99l-59 -6l1 99l-82 -9l-1 -100l-58 -6l1 100l-104 -12v54l104 11v81l-103 -12v54l104 11v77l58 6l-1 -77l83 8v77l60 8l-2 -79l82 10v-54zM233 550v-81l82 9v80z" />
    <glyph glyph-name="dollar" unicode="$" horiz-adv-x="548" 
d="M322 -6v-96h-92v93q-104 14 -151 80l48 63q58 -69 142 -68q49 0 80.5 28t31.5 77t-48 77q-13 8 -91 36q-68 25 -99 54q-45 44 -45 121q0 58 37 100t95 56v92h92v-89q62 -11 122 -60l-45 -59q-57 48 -117 48q-91 0 -92 -93q0 -54 95 -86q102 -35 134 -62q49 -42 49 -133
q0 -148 -146 -179z" />
    <glyph glyph-name="percent" unicode="%" horiz-adv-x="548" 
d="M132 420q-53 0 -81 34.5t-28 89.5q0 51 29.5 86.5t79.5 35.5t80.5 -35.5t30.5 -86.5q0 -55 -28 -88q-29 -36 -83 -36zM110 -80l-76 26l386 697l70 -27zM411 -2q-56 0 -84.5 35t-28.5 92q0 52 30.5 88.5t82.5 36.5q51 0 81 -36.5t30 -88.5q0 -56 -26 -90q-30 -37 -85 -37z
M131 608q-23 0 -36 -23q-10 -19 -10 -44q0 -24 11 -43q13 -23 36 -23q47 0 47 66q0 25 -11 44q-14 23 -37 23zM410 190q-24 0 -37 -24q-10 -19 -11 -45q0 -66 49 -66q24 0 35 23q11 18 12 43q0 26 -12 45q-12 24 -36 24z" />
    <glyph glyph-name="ampersand" unicode="&#x26;" horiz-adv-x="568" 
d="M180 314q-80 -44 -80 -132q0 -54 36 -87t91 -33q68 0 114 59q-114 116 -161 193zM490 4q-40 13 -97 64q-75 -77 -161 -77q-89 0 -145 46q-61 50 -61 136q0 60 32.5 112.5t86.5 82.5q-46 63 -46 128q0 69 48 114t116 45q86 0 154 -73l-48 -50q-46 57 -113 58
q-76 0 -76 -79q0 -46 31 -107q54 23 114 25l14 -62q-54 0 -89 -17q80 -111 132 -164q14 51 14 72q0 24 -10 65l72 6q7 -46 7 -74q0 -56 -23 -123q27 -31 96 -64z" />
    <glyph glyph-name="quotesingle" unicode="'" horiz-adv-x="198" 
d="M112 699q-49 0 -50 -57q0 -27 18 -81q17 -57 33 -75q16 27 31 76t15 80q0 57 -47 57z" />
    <glyph glyph-name="parenleft" unicode="(" horiz-adv-x="325" 
d="M178 -141q-131 226 -131 472q0 257 131 471l65 -31q-106 -248 -107 -440q0 -118 32 -229q15 -55 78 -213z" />
    <glyph glyph-name="parenright" unicode=")" horiz-adv-x="323" 
d="M148 -141l-68 30q63 162 78 211q33 111 32 227q0 199 -107 444l65 31q127 -208 127 -468q0 -256 -127 -475z" />
    <glyph glyph-name="asterisk" unicode="*" horiz-adv-x="281" 
d="M224 486l-67 62l4 -91h-48l3 91l-68 -62l-28 45l83 52l-81 52l26 45l70 -63l-4 93l48 -1l-5 -92l67 63l26 -45l-79 -51l80 -53z" />
    <glyph glyph-name="plus" unicode="+" horiz-adv-x="509" 
d="M286 289v-191h-63v191h-169v64h169v181h63v-181h171v-64h-171z" />
    <glyph glyph-name="comma" unicode="," horiz-adv-x="260" 
d="M67 -74l45 -12q93 122 94 209h-100q0 -39 -12 -100q-12 -65 -27 -97z" />
    <glyph glyph-name="hyphen" unicode="-" horiz-adv-x="389" 
d="M51 273v96h287v-96h-287z" />
    <glyph glyph-name="hyphen" unicode="&#x2010;" horiz-adv-x="389" 
d="M51 273v96h287v-96h-287z" />
    <glyph glyph-name="period" unicode="." horiz-adv-x="238" 
d="M131 -9q-30 0 -49.5 22.5t-19.5 52.5t19.5 52t49.5 22t49 -22.5t19 -51.5q0 -30 -19 -52.5t-49 -22.5z" />
    <glyph glyph-name="slash" unicode="/" horiz-adv-x="394" 
d="M95 -174l-82 17l303 878l83 -18z" />
    <glyph glyph-name="zero" unicode="0" 
d="M494 263q0 -113 -60 -188q-65 -84 -177 -84t-177 79q-62 75 -63 192q0 112 66.5 187t172.5 75t174 -79q64 -73 64 -182zM429 263q0 84 -48 143t-125 59q-79 0 -129 -65q-45 -58 -45 -138t45 -141q50 -68 128 -68q86 0 133 66q41 56 41 144z" />
    <glyph glyph-name="one" unicode="1" 
d="M337 0h-78v458h-134v61h212v-519z" />
    <glyph glyph-name="two" unicode="2" 
d="M87 0l-1 79l169 145q49 43 69 72q23 35 22 76q-1 37 -26.5 62.5t-62.5 25.5q-69 0 -125 -74l-47 50q81 95 170 95q72 0 120.5 -43t48.5 -115q0 -103 -90 -178l-138 -116h267v-79h-376z" />
    <glyph glyph-name="three" unicode="3" 
d="M236 -183q-94 0 -163 79l39 54q66 -62 129 -63q63 0 99.5 37.5t36.5 108.5q0 52 -31 90q-38 46 -108 46q-19 0 -69 1v64q46 0 68 7q96 30 96 126q0 42 -26 68t-62 26q-69 0 -110 -71l-52 44q80 98 160 98q70 0 115 -39q51 -45 52 -124q0 -46 -21 -86q-22 -43 -60 -64
q60 -12 96 -66t36 -120q0 -94 -62 -155t-163 -61z" />
    <glyph glyph-name="four" unicode="4" 
d="M312 376l-191 -298h191v298zM379 0v-172h-67v172h-284v78l291 443h60v-443h102v-78h-102z" />
    <glyph glyph-name="five" unicode="5" horiz-adv-x="598" 
d="M244 -183q-55 0 -110.5 28.5t-80.5 68.5l36 47q62 -77 157 -77q70 0 109 54q36 48 36 116q0 65 -41 107q-37 38 -87 38q-57 0 -121 -51l-69 31v341h354v-62h-276v-229q51 51 141 52q65 0 120 -58q61 -65 61 -163q0 -92 -61 -163q-67 -80 -168 -80z" />
    <glyph glyph-name="six" unicode="6" 
d="M265 381q-58 0 -103 -43q-48 -46 -48 -116t38 -121q43 -58 114 -58q59 0 104 54q42 51 42 111q0 79 -42 126t-105 47zM266 -23q-103 0 -167 66q-75 77 -74 230q0 170 73 279q83 121 230 121q80 0 155 -39l-29 -63q-66 34 -127 34q-90 0 -150.5 -75t-64.5 -186
q75 106 171 107q80 0 139 -66q63 -70 63 -173q0 -93 -65 -164t-154 -71z" />
    <glyph glyph-name="seven" unicode="7" 
d="M461 454l-278 -627l-80 22l270 606h-294v61h382v-62z" />
    <glyph glyph-name="eight" unicode="8" 
d="M255 333q-63 -35 -90 -61q-41 -42 -41 -99q0 -70 50 -108q39 -30 86 -30q59 0 97 37t38 100q0 67 -42 107q-29 27 -98 54zM250 623q-103 0 -104 -97q0 -77 102 -123q112 44 111 119q1 101 -109 101zM254 -29q-85 0 -144 49q-66 55 -66 150q0 58 34 111q39 57 107 88
q-56 36 -79 63q-30 38 -29 90q0 80 56 122q48 36 124 36q68 0 118 -39q54 -43 54 -112q0 -99 -111 -158q155 -65 155 -199q0 -86 -52 -139q-59 -62 -167 -62z" />
    <glyph glyph-name="nine" unicode="9" 
d="M239 457q-58 0 -99 -59q-37 -52 -37 -113t39 -112q41 -55 101 -55q67 0 113.5 50.5t46.5 119.5q0 66 -45.5 117.5t-118.5 51.5zM227 -201q-119 0 -193 73l29 62q73 -68 173 -67q85 0 136 109q42 90 44 202q-37 -66 -70 -92q-43 -37 -106 -36q-91 1 -153 73
q-58 69 -58 159q0 100 55 168q59 73 155 72q96 0 165 -65q85 -79 85 -226q0 -159 -52 -275q-70 -157 -210 -157z" />
    <glyph glyph-name="colon" unicode=":" horiz-adv-x="249" 
d="M136 369q-29 0 -48.5 22.5t-19.5 51.5q0 30 20 52.5t48 22.5q30 0 49.5 -22.5t19.5 -52.5t-19.5 -52t-49.5 -22zM136 -9q-29 0 -48.5 22.5t-19.5 52.5t20 52t48 22q30 0 49.5 -22.5t19.5 -51.5q0 -30 -19.5 -52.5t-49.5 -22.5z" />
    <glyph glyph-name="semicolon" unicode=";" horiz-adv-x="260" 
d="M151 370q-30 0 -50.5 21.5t-20.5 50.5q0 30 20.5 52t50.5 22t48.5 -22t18.5 -52t-19 -51t-48 -21zM67 -74l45 -12q93 122 94 209h-100q0 -39 -12 -100q-12 -65 -27 -97z" />
    <glyph glyph-name="less" unicode="&#x3c;" horiz-adv-x="374" 
d="M135 292l192 -246l-75 -3l-224 253l223 246l76 -3z" />
    <glyph glyph-name="equal" unicode="=" horiz-adv-x="451" 
d="M52 294v66h346v-66h-346zM52 138v67h346v-67h-346z" />
    <glyph glyph-name="greater" unicode="&#x3e;" horiz-adv-x="373" 
d="M101 43l-75 3l191 246l-192 247l76 3l223 -246z" />
    <glyph glyph-name="question" unicode="?" horiz-adv-x="495" 
d="M351 380q-17 -12 -50 -39q-19 -16 -31 -45q-2 -4 -17 -52q-2 -6 2 -50h-71q-5 41 -5 65q0 48 21 83q17 30 59 65t53 49q29 33 29 65q0 45 -28.5 74t-73.5 29q-96 0 -131 -107l-69 36q58 144 197 144q78 0 131.5 -50t53.5 -127q0 -83 -70 -140zM224 -13q-25 0 -41 16.5
t-16 41.5t16.5 42t40.5 17q26 0 43.5 -16.5t17.5 -42.5t-17.5 -42t-43.5 -16z" />
    <glyph glyph-name="at" unicode="@" horiz-adv-x="1034" 
d="M505 -238q-195 0 -325 145q-126 140 -126 337t137.5 334t333.5 137t311.5 -122t115.5 -319q0 -109 -74 -192q-33 -37 -88 -65q-58 -30 -105 -29q-40 0 -62 31q-20 29 -17 70q-77 -100 -172 -100q-157 0 -156 216q0 115 70 212q79 108 194 107q35 0 68 -12q39 -15 56 -40
l3 42h74l-65 -418q1 -13 12.5 -23.5t25.5 -11.5q17 -1 54 22q33 19 48 37q24 26 44 73.5t20 80.5q0 167 -95.5 268.5t-261.5 101.5q-167 0 -283.5 -116.5t-116.5 -283.5q0 -168 104 -287q110 -124 276 -124q143 0 238 41q111 48 180 159l68 -44q-77 -129 -209 -183
q-107 -44 -277 -44zM653 408q-13 26 -50 39q-32 13 -64 14q-46 0 -99 -44q-78 -67 -78 -197q0 -68 13 -97q24 -57 95 -57q45 0 92 49t55 95z" />
    <glyph glyph-name="A" unicode="A" horiz-adv-x="581" 
d="M464 -10l-61 193h-230l-59 -193l-84 10l218 670h82l221 -666zM288 564l-93 -310h188z" />
    <glyph glyph-name="B" unicode="B" horiz-adv-x="536" 
d="M272 0l-207 2v654l169 3q2 0 14 1h14q79 0 125 -37q49 -41 49 -119q0 -86 -43 -117q-23 -15 -67 -28q157 -34 156 -171q0 -92 -60 -142q-56 -47 -150 -46zM241 599q-14 0 -85 -3v-212l70 -1q55 -1 90 27q39 31 39 84q0 105 -114 105zM250 319h-94v-250h96q142 0 142 120
q0 59 -42 94.5t-102 35.5z" />
    <glyph glyph-name="C" unicode="C" horiz-adv-x="551" 
d="M318 -8q-139 0 -217 106q-70 94 -69 239q0 139 72 234q80 103 217 105q48 0 113 -22q51 -17 81 -34l-39 -81q-93 57 -150 57q-101 0 -158 -97q-44 -77 -44 -174q0 -96 47 -168q54 -83 146 -83q87 0 164 44l40 -67q-60 -34 -98 -45q-47 -14 -105 -14z" />
    <glyph glyph-name="D" unicode="D" horiz-adv-x="578" 
d="M220 -2q-26 0 -78 2t-77 2v657q71 3 149 4q173 0 252 -79t80 -253q1 -160 -82.5 -246.5t-243.5 -86.5zM449 319q0 278 -208 278q-30 0 -85 -2v-519h92q97 0 151 76q50 67 50 167z" />
    <glyph glyph-name="E" unicode="E" horiz-adv-x="500" 
d="M156 582v-198h258v-77l-258 1v-230l273 1v-79h-364v655h367v-73h-276z" />
    <glyph glyph-name="F" unicode="F" horiz-adv-x="501" 
d="M156 582v-198h260v-77h-260v-307h-91v655h368v-73h-277z" />
    <glyph glyph-name="G" unicode="G" horiz-adv-x="595" 
d="M531 62q-61 -37 -102 -51q-51 -17 -117 -17q-133 0 -210 105q-70 94 -70 232q-1 125 66 226q79 119 210 119q49 0 109 -17q66 -17 98 -45l-38 -76q-85 58 -160 58q-97 0 -150 -99q-42 -78 -42 -172t44 -166q52 -85 140 -85q73 0 132 31v203h-145v76h235v-322z" />
    <glyph glyph-name="H" unicode="H" horiz-adv-x="595" 
d="M441 0v307h-285v-307h-91v655h91v-271h285v271h90v-655h-90z" />
    <glyph glyph-name="I" unicode="I" horiz-adv-x="220" 
d="M65 0v657h91v-657h-91z" />
    <glyph glyph-name="J" unicode="J" horiz-adv-x="220" 
d="M156 71q0 -233 -205 -234q-60 0 -103 51l48 69q34 -36 68 -36q100 0 101 141v591h91v-582z" />
    <glyph glyph-name="K" unicode="K" horiz-adv-x="543" 
d="M430 -22q-90 120 -226 305l-48 -72v-211h-91v655h91v-322q165 217 256 348l71 -51q-85 -105 -221 -287q42 -69 136 -179q42 -49 141 -162z" />
    <glyph glyph-name="L" unicode="L" horiz-adv-x="513" 
d="M65 0v656h91v-582h293v-74h-384z" />
    <glyph glyph-name="M" unicode="M" horiz-adv-x="812" 
d="M645 0v523l-199 -524h-85l-201 528v-527h-84v657h130l203 -527l207 527h120v-657h-91z" />
    <glyph glyph-name="N" unicode="N" horiz-adv-x="595" 
d="M467 -11q-92 166 -317 486v-474l-85 -1v659h75l307 -465v461h84v-644z" />
    <glyph glyph-name="O" unicode="O" horiz-adv-x="659" 
d="M327 -16q-143 0 -223 104q-72 93 -71 242q0 139 80 232q84 99 221 100q136 0 218 -100q76 -93 76 -232q0 -147 -76 -243q-82 -103 -225 -103zM332 586q-100 0 -161 -85q-53 -76 -53 -180q0 -100 53 -176q59 -83 156 -83t159 82q57 76 58 175q0 103 -54 181
q-59 86 -158 86z" />
    <glyph glyph-name="P" unicode="P" horiz-adv-x="470" 
d="M250 270q-39 0 -94 4v-274h-91v655l193 4q83 2 131 -51.5t48 -137.5q0 -82 -53 -141t-134 -59zM246 599l-90 -2v-259l80 1q51 1 81 40q30 36 30 88q0 134 -101 132z" />
    <glyph glyph-name="Q" unicode="Q" horiz-adv-x="673" 
d="M622 -72l-125 110q-77 -54 -171 -54q-142 0 -222 105q-73 95 -72 242q0 140 80 232q85 98 222 99q136 0 217 -98q76 -91 76 -230q0 -65 -16 -127q-19 -77 -55 -113l120 -105zM331 585q-100 0 -160 -84q-54 -75 -54 -178q0 -98 52 -175q59 -86 154 -86q56 0 109 33l-77 68
l56 59l78 -69q53 75 54 171q0 104 -53 178q-59 83 -159 83z" />
    <glyph glyph-name="R" unicode="R" horiz-adv-x="542" 
d="M424 -10q-52 52 -121 150q-47 67 -102 158l-45 -2v-296h-91v656l206 3q179 -2 178 -181q-1 -71 -43 -116t-114 -59q34 -47 110 -147q41 -53 136 -146zM245 597l-89 -2v-230h66q74 0 108.5 27t34.5 97q0 111 -120 108z" />
    <glyph glyph-name="S" unicode="S" horiz-adv-x="503" 
d="M245 -10q-58 0 -112 20q-60 23 -91 65l47 65q62 -73 159 -72q57 0 91 31t34 88q0 69 -81 103q-50 20 -151 62q-80 50 -79 155q1 78 62 128q56 47 136 47q94 0 173 -62l-43 -65q-54 49 -130 49q-104 0 -104 -103q0 -65 106 -101q112 -38 147 -67q52 -45 52 -144
q0 -95 -60 -147t-156 -52z" />
    <glyph glyph-name="T" unicode="T" horiz-adv-x="548" 
d="M326 586v-586h-92v586h-202v68h484v-68h-190z" />
    <glyph glyph-name="U" unicode="U" horiz-adv-x="584" 
d="M520 236q0 -114 -62.5 -183.5t-173.5 -69.5q-109 0 -166 73q-53 68 -53 180v419h91v-419q0 -176 130 -177q73 0 109 54q33 46 33 123v419h92v-419z" />
    <glyph glyph-name="V" unicode="V" horiz-adv-x="561" 
d="M318 -10h-66l-210 655l87 24l163 -535l163 535l75 -24z" />
    <glyph glyph-name="W" unicode="W" horiz-adv-x="807" 
d="M605 -6h-53l-145 476l-146 -476h-64l-181 647l89 19l136 -510l138 500h65l135 -499l139 509l69 -19z" />
    <glyph glyph-name="X" unicode="X" horiz-adv-x="565" 
d="M431 -15l-159 284l-142 -284l-93 20l190 320l-178 316l93 19l138 -248l132 250l76 -21l-169 -299l209 -337z" />
    <glyph glyph-name="Y" unicode="Y" horiz-adv-x="515" 
d="M303 279v-279h-92v279l-181 363l82 24l148 -305l147 305l77 -24z" />
    <glyph glyph-name="Z" unicode="Z" horiz-adv-x="557" 
d="M165 78h324v-78h-417l-7 79l329 509l-312 -2v68h402l9 -73z" />
    <glyph glyph-name="bracketleft" unicode="[" horiz-adv-x="275" 
d="M57 -117v875h157v-52h-73v-751h83v-72h-167z" />
    <glyph glyph-name="backslash" unicode="\" horiz-adv-x="394" 
d="M315 -174l-303 877l82 18l304 -878z" />
    <glyph glyph-name="bracketright" unicode="]" horiz-adv-x="272" 
d="M51 -117v72h83v751h-74v52h155v-875h-164z" />
    <glyph glyph-name="asciicircum" unicode="^" horiz-adv-x="548" 
d="M273 606l-117 -142l-43 53l160 177l163 -177l-43 -53z" />
    <glyph glyph-name="underscore" unicode="_" horiz-adv-x="548" 
d="M5 -112v61h538v-61h-538z" />
    <glyph glyph-name="grave" unicode="`" horiz-adv-x="336" 
d="M272 569l-214 93l48 66l216 -98z" />
    <glyph glyph-name="a" unicode="a" horiz-adv-x="502" 
d="M403 -11q-42 0 -64 49q-31 -24 -53 -34q-45 -20 -103 -20q-65 0 -103 41t-38 105q0 83 50 120q33 24 124 45q35 8 111 15v65q0 34 -26.5 55.5t-60.5 21.5q-56 0 -137 -66l-42 57q32 29 84 54q57 28 95 27q71 0 119 -44t48 -114v-289q5 -20 21 -21q11 -1 43 22l16 -53
q-34 -36 -84 -36zM327 239q-30 0 -78 -10q-28 -5 -59 -13q-74 -19 -74 -87q0 -37 21 -59t58 -22q40 0 81 22q50 26 51 65v104z" />
    <glyph glyph-name="b" unicode="b" horiz-adv-x="527" 
d="M279 -10q-66 0 -133 51l-14 -41h-66v717h80v-258q70 66 128 65q104 0 164 -80q54 -72 55 -179q0 -118 -48 -190q-54 -85 -166 -85zM273 454q-93 0 -127 -74v-269q18 -25 57 -39q35 -14 67 -15q130 0 130 205q0 75 -25 126q-34 66 -102 66z" />
    <glyph glyph-name="c" unicode="c" horiz-adv-x="490" 
d="M275 -12q-134 0 -195 103q-40 68 -40 157q0 118 59 191q65 81 179 80q90 -1 160 -54l-43 -68q-69 52 -129 53q-73 0 -110 -70q-31 -56 -31 -136q0 -75 37 -127q42 -58 113 -59q74 0 138 57l40 -54q-76 -73 -178 -73z" />
    <glyph glyph-name="d" unicode="d" horiz-adv-x="523" 
d="M459 0h-68l-12 43q-83 -56 -142 -56q-95 0 -151 87q-48 75 -48 175q0 115 51 189q59 86 169 86q72 0 121 -59v249h80v-714zM379 389q-29 39 -53 52t-72 13q-69 0 -100 -67q-25 -50 -25 -127t29 -130q35 -68 105 -68q62 0 116 47v280z" />
    <glyph glyph-name="e" unicode="e" horiz-adv-x="502" 
d="M127 263q0 -152 86 -190q34 -15 71 -16q60 0 134 66l41 -57q-82 -78 -183 -78q-139 0 -198 104q-38 67 -38 161q0 117 61 189q65 77 180 77q84 0 134 -54t50 -139v-63h-338zM384 340q0 112 -111 112q-61 0 -92 -30.5t-47 -93.5h250v12z" />
    <glyph glyph-name="f" unicode="f" horiz-adv-x="331" 
d="M344 667q-48 31 -88 31q-43 1 -65 -44q-15 -35 -15 -83v-64h142v-67h-142v-440h-78v440h-80v67h80v67q0 81 37 133q41 57 120 57q46 0 71 -10q7 -3 57 -35z" />
    <glyph glyph-name="g" unicode="g" horiz-adv-x="523" 
d="M520 408l-109 3q16 -35 16 -68q0 -77 -52 -128q-59 -57 -146 -57q-50 0 -67 12q-40 -25 -40 -55q0 -28 39 -36q18 -4 100 -4q105 0 143 -15q68 -26 68 -111q0 -88 -92 -139q-79 -44 -173 -44h-3q-65 0 -111 27q-55 34 -55 94q0 67 71 133q-23 8 -44 35.5t-21 50.5
q0 28 25 53l42 42q-63 54 -65 142q0 77 59 133q55 51 136 50q47 -1 90 -23q38 -20 56 -48l133 20v-67zM356 345q0 48 -35 85q-34 34 -84 34q-51 0 -82.5 -38t-31.5 -87t31 -84.5t79 -35.5q56 0 92 37q31 33 31 89zM393 -54q0 67 -117 66q-46 0 -101 -3q-26 -1 -46 -37
q-18 -32 -18 -59q0 -42 41 -66q34 -18 78 -18q58 0 107 29q56 34 56 88z" />
    <glyph glyph-name="h" unicode="h" horiz-adv-x="524" 
d="M380 0v333q0 50 -23 83q-26 38 -73 38q-40 0 -87 -33q-51 -35 -52 -73v-348h-80v713h80v-263q79 74 147 73q72 0 120 -52.5t48 -124.5v-346h-80z" />
    <glyph glyph-name="i" unicode="i" horiz-adv-x="238" 
d="M120 616q-24 0 -39.5 16.5t-15.5 40.5t15.5 39.5t39.5 15.5t39 -16t15 -39q0 -24 -15 -40.5t-39 -16.5zM73 0v507h83v-507h-83z" />
    <glyph glyph-name="j" unicode="j" horiz-adv-x="238" 
d="M133 618q-24 0 -39.5 16t-15.5 40t16 39.5t39 15.5q24 0 39.5 -16t15.5 -39q0 -24 -15.5 -40t-39.5 -16zM59 -112q-31 -23 -72 -34l32 -77q147 56 148 156v574h-81v-529q0 -71 -27 -90z" />
    <glyph glyph-name="k" unicode="k" horiz-adv-x="487" 
d="M404 -26l-224 257l-35 -34v-197h-80v714h80v-431l224 251l69 -48l-202 -207l240 -261z" />
    <glyph glyph-name="l" unicode="l" horiz-adv-x="239" 
d="M160 0h-80v715h80v-715z" />
    <glyph glyph-name="m" unicode="m" horiz-adv-x="794" 
d="M649 0v354q0 99 -90 100q-28 0 -71 -33q-52 -40 -52 -91v-330h-80v359q0 41 -22 67.5t-62 26.5t-83.5 -37t-43.5 -77v-339h-80v507h80v-72q78 84 144 84q42 0 75.5 -26.5t50.5 -66.5q86 98 162 98q63 0 108 -50t45 -115v-359h-81z" />
    <glyph glyph-name="n" unicode="n" horiz-adv-x="524" 
d="M380 0v333q0 50 -23 83q-26 38 -73 38q-42 0 -87 -33q-51 -37 -52 -85v-336h-80v507h80v-57q40 38 67 52q38 22 81 21q71 0 119 -52.5t48 -124.5v-346h-80z" />
    <glyph glyph-name="o" unicode="o" horiz-adv-x="559" 
d="M282 -11q-138 0 -200 103q-42 71 -42 166q0 132 83 206q68 60 160 60q91 0 156 -60q80 -74 80 -206q0 -92 -47 -167q-64 -102 -190 -102zM288 456q-81 0 -124 -64q-36 -55 -36 -140q0 -81 34 -133q40 -63 116 -64q79 0 118 65q35 54 35 137q0 79 -32 133q-37 66 -111 66z
" />
    <glyph glyph-name="p" unicode="p" horiz-adv-x="529" 
d="M264 -13q-65 0 -119 58v-247h-80v709h80v-48q68 66 120 65q226 0 227 -251q0 -123 -51 -198q-59 -88 -177 -88zM264 456q-38 0 -73 -24t-46 -59v-270q62 -48 124 -48q66 0 103 72q31 60 30 132q0 197 -138 197z" />
    <glyph glyph-name="q" unicode="q" horiz-adv-x="523" 
d="M377 -202v257q-95 -69 -147 -68q-96 0 -148 95q-44 78 -44 181t45 173q58 89 176 88q30 0 64.5 -17.5t53.5 -40.5v41h82v-709h-82zM377 374q-11 37 -43.5 60t-71.5 23q-75 0 -109 -69q-27 -52 -27 -134q0 -70 33 -126q39 -66 104 -66q54 0 114 47v265z" />
    <glyph glyph-name="r" unicode="r" horiz-adv-x="350" 
d="M305 420q-19 13 -55 12q-28 0 -66.5 -40t-38.5 -67v-325h-80v507h80v-84q60 95 127 95q17 0 58 -16z" />
    <glyph glyph-name="s" unicode="s" horiz-adv-x="447" 
d="M219 -14q-105 0 -170 59l41 63q53 -51 137 -52q36 0 67 27t31 61q0 56 -81 78q-62 16 -123 39q-59 31 -60 105q0 74 47.5 117.5t121.5 42.5q70 -1 148 -47l-27 -64q-72 46 -124 46q-89 0 -89 -75q0 -41 41 -55q28 -9 148 -48q82 -38 82 -120q0 -83 -53 -130t-137 -47z
" />
    <glyph glyph-name="t" unicode="t" horiz-adv-x="359" 
d="M219 -8q-57 0 -89 52q-28 44 -28 104v292h-80v68h80v103h81v-103h132v-69l-132 1v-304q0 -69 59 -68q32 0 80 46l39 -56q-57 -66 -142 -66z" />
    <glyph glyph-name="u" unicode="u" horiz-adv-x="523" 
d="M457 0h-73l-11 53q-76 -72 -157 -71q-70 0 -113 57q-39 53 -38 125v343h80v-339q0 -114 91 -114q43 0 92 36t49 78v339h80v-507z" />
    <glyph glyph-name="v" unicode="v" horiz-adv-x="475" 
d="M267 -12h-55l-189 502l80 23l140 -395l132 395l78 -23z" />
    <glyph glyph-name="w" unicode="w" horiz-adv-x="752" 
d="M574 -9h-62l-133 379l-135 -379h-65l-151 499l78 21l114 -405l126 398h72l131 -396l107 403l75 -21z" />
    <glyph glyph-name="x" unicode="x" horiz-adv-x="503" 
d="M421 -27l-168 222l-165 -220l-69 47l186 230l-166 223l76 45l144 -203l150 202l63 -36l-173 -226l190 -237z" />
    <glyph glyph-name="y" unicode="y" horiz-adv-x="491" 
d="M255 -86q-17 -48 -64 -81.5t-98 -33.5q-15 0 -70 19l25 72q29 -13 51 -14q47 -1 86 69q20 49 42 98l-196 446l79 22l154 -363l132 362l73 -17z" />
    <glyph glyph-name="z" unicode="z" horiz-adv-x="493" 
d="M54 0v68l234 310q17 24 52 62h-275v66h370v-72l-225 -306q-11 -15 -46 -56h286v-72h-396z" />
    <glyph glyph-name="braceleft" unicode="{" horiz-adv-x="548" 
d="M408 766q-42 13 -59 13q-46 0 -60 -21q-18 -28 -19 -118q0 -23 2.5 -67.5t2.5 -66.5q0 -74 -84 -150v-25q41 -30 68 -83.5t27 -105.5q0 -28 -4 -83t-4 -83q0 -60 5 -75q10 -30 47 -30q45 0 70 21l21 -76q-61 -19 -94 -18q-96 5 -125 89q-15 45 -16 165q0 20 2 62t2 62
q0 89 -75 151l1 41q39 40 51 59q24 37 23 82q0 24 -3 70t-3 69q0 206 163 206q27 0 76 -11z" />
    <glyph glyph-name="bar" unicode="|" horiz-adv-x="234" 
d="M87 -225v927h90v-927h-90z" />
    <glyph glyph-name="braceright" unicode="}" horiz-adv-x="548" 
d="M366 176q0 -20 2 -61.5t2 -62.5q0 -120 -18 -168q-30 -82 -123 -86q-31 -1 -94 18l21 76q26 -22 70 -21q52 0 53 63v42q0 28 -4.5 83.5t-4.5 82.5q0 51 27 105t68 84v25q-84 76 -84 150q0 23 2.5 67t2.5 67q0 90 -19 118q-14 22 -60 21q-16 0 -59 -13l-15 77q49 11 76 11
q163 0 163 -206q0 -24 -3 -70t-3 -69q0 -45 23 -82q12 -19 51 -59l1 -41q-75 -62 -75 -151z" />
    <glyph glyph-name="asciitilde" unicode="~" horiz-adv-x="404" 
d="M286 388q-23 0 -60.5 28t-54.5 28q-30 0 -67 -54l-19 74q38 45 89 45q36 0 84 -35q19 -14 36 -14q16 0 33 20q7 7 16 18l18 -72q-37 -38 -75 -38z" />
    <glyph glyph-name="nonbreakingspace" unicode="&#xa0;" horiz-adv-x="279" 
 />
    <glyph glyph-name="exclamdown" unicode="&#xa1;" horiz-adv-x="240" 
d="M70 513h86v-618h-86v618zM117 723q26 0 42.5 -16.5t16.5 -41.5q0 -26 -17 -43t-42 -17t-42 17.5t-17 42.5t17 41.5t42 16.5z" />
    <glyph glyph-name="cent" unicode="&#xa2;" horiz-adv-x="490" 
d="M230 -10q-110 16 -158 113q-33 65 -33 145q0 103 45 173q50 79 146 95v88h92v-87q65 -11 117 -52l-44 -70q-65 50 -129 50q-74 0 -110 -67q-30 -54 -30 -134q0 -75 37 -125q41 -56 112 -57q78 0 138 55l41 -56q-59 -58 -132 -70v-82h-92v81z" />
    <glyph glyph-name="sterling" unicode="&#xa3;" horiz-adv-x="487" 
d="M436 -7q-53 14 -132 14q-135 0 -222 -21l-11 69q16 4 40 14q6 2 17 13q35 34 35 93q0 67 -15 133h-61v71h54q-15 92 -15 108q0 81 45 133t125 52q63 0 121 -33l-31 -62q-61 30 -84 29q-47 0 -77 -39q-27 -35 -26 -84q0 -17 17 -104h139v-71h-122q6 -62 7 -126
q0 -79 -31 -104q81 11 112 11q70 0 132 -17z" />
    <glyph glyph-name="currency" unicode="&#xa4;" horiz-adv-x="500" 
d="M414 369h-183v-46h183v-77h-183v-168l198 1v-79h-289v246h-101l-1 77h102v47h-101l-1 75h102v210h292v-73h-201v-137h183v-76z" />
    <glyph glyph-name="yen" unicode="&#xa5;" horiz-adv-x="543" 
d="M307 290v-19h88v-60h-88v-61h88v-61h-88v-87h-91v87h-91v61h91v61h-91v60h91v19l-182 366h92l135 -270l135 270h93z" />
    <glyph glyph-name="brokenbar" unicode="&#xa6;" horiz-adv-x="186" 
d="M55 -18v280h79v-280h-79zM55 391v281h79v-281h-79z" />
    <glyph glyph-name="section" unicode="&#xa7;" horiz-adv-x="401" 
d="M190 -89q-79 0 -133 53l33 50q44 -46 106 -46q25 0 46 18t21 42q0 39 -66 56q-10 3 -39 10q-12 3 -18 6q-67 23 -66 87q0 61 47 94q-47 25 -47 78t35 86t89 32t110 -36l-22 -51q-55 35 -90 35q-33 0 -46.5 -13.5t-13.5 -45.5q0 -17 28 -30q17 -5 65 -19q99 -29 100 -104
q0 -62 -42 -93q42 -25 42 -79q0 -60 -39 -95t-100 -35zM186 259q-50 -6 -50 -65q0 -23 55 -38q13 -4 32 -10q40 17 40 54q0 27 -21 40q-16 9 -56 19z" />
    <glyph glyph-name="dieresis" unicode="&#xa8;" horiz-adv-x="313" 
d="M261 559q-23 0 -37 15.5t-14 37.5q0 23 14.5 38.5t36.5 15.5t36.5 -16t14.5 -38q0 -23 -14 -38t-37 -15zM46 559q-23 0 -37 15.5t-14 37.5q0 23 14.5 38.5t36.5 15.5q23 0 37 -15.5t14 -38.5t-14 -38t-37 -15z" />
    <glyph glyph-name="copyright" unicode="&#xa9;" horiz-adv-x="815" 
d="M406 104q-89 0 -140 68q-44 61 -44 154q0 90 47 150q51 66 139 67q60 0 123 -36l-24 -52q-60 37 -96 37q-66 0 -102 -63q-28 -48 -27 -112q0 -61 30 -107q35 -53 94 -53q54 0 104 28l26 -43q-72 -38 -130 -38zM135 324q0 -114 79.5 -193.5t193.5 -79.5t193 79.5t79 193.5
t-79.5 193t-192.5 79q-114 0 -193.5 -79t-79.5 -193zM69 324q0 141 98.5 240t240.5 99q141 0 239.5 -99t98.5 -240t-98.5 -240t-239.5 -99t-240 99t-99 240z" />
    <glyph glyph-name="guillemotleft" unicode="&#xab;" horiz-adv-x="399" 
d="M246 293l134 -165l-73 -3l-156 171l156 166l73 -3zM101 293l133 -165l-71 -3l-158 171l158 166l71 -3z" />
    <glyph glyph-name="logicalnot" unicode="&#xac;" horiz-adv-x="627" 
d="M485 29v227h-395v95h481v-322h-86z" />
    <glyph glyph-name="minus" unicode="&#xad;" horiz-adv-x="509" 
d="M53 292v64h404v-64h-404z" />
    <glyph glyph-name="minus" unicode="&#x2212;" horiz-adv-x="509" 
d="M53 292v64h404v-64h-404z" />
    <glyph glyph-name="registered" unicode="&#xae;" horiz-adv-x="815" 
d="M136 324h-1q0 -114 79.5 -193.5t193.5 -79.5t193 79.5t79 193.5t-79.5 193t-192.5 79q-114 0 -193 -79t-79 -193zM69 324q0 141 98.5 240t240.5 99q141 0 239.5 -99t98.5 -240t-98.5 -240t-239.5 -99t-240 99t-99 240zM503 111q-57 57 -143 196l-29 -1v-189h-59v420
q108 2 132 2q115 -1 114 -116q-1 -93 -100 -112q39 -54 70 -95q24 -31 87 -92zM388 499l-57 -1v-148h43q48 0 69.5 17t21.5 63q0 70 -77 69z" />
    <glyph glyph-name="macron" unicode="&#xaf;" horiz-adv-x="415" 
d="M108 608v67h239v-67h-239z" />
    <glyph glyph-name="macron" unicode="&#x2c9;" horiz-adv-x="415" 
d="M108 608v67h239v-67h-239z" />
    <glyph glyph-name="degree" unicode="&#xb0;" horiz-adv-x="279" 
d="M141 729q57 0 95 -38t38 -95t-37.5 -95t-95.5 -38q-57 0 -96.5 38t-39.5 95t39.5 95t96.5 38zM141 678q-36 0 -59 -23t-23 -59t23 -59t59 -23q35 0 57 23.5t22 58.5t-22 58.5t-57 23.5z" />
    <glyph glyph-name="plusminus" unicode="&#xb1;" horiz-adv-x="513" 
d="M286 287v-190h-64v189l-168 1v63h168v179h64v-179h171v-63h-171zM68 12v56h383v-56h-383z" />
    <glyph glyph-name="acute" unicode="&#xb4;" horiz-adv-x="336" 
d="M106 570l-48 61l215 98l49 -66z" />
    <glyph glyph-name="mu" unicode="&#xb5;" horiz-adv-x="520" 
d="M455 -62q-68 39 -82 124q-33 -31 -65 -62q-28 -23 -61 -23q-30 0 -59 14q-32 14 -44 39v-231h-74v699h74v-351q0 -99 119 -99q37 0 72.5 34t35.5 71v346h82v-380q0 -86 40 -112q20 -13 27 -20z" />
    <glyph glyph-name="mu" unicode="&#x3bc;" horiz-adv-x="520" 
d="M455 -62q-68 39 -82 124q-33 -31 -65 -62q-28 -23 -61 -23q-30 0 -59 14q-32 14 -44 39v-231h-74v699h74v-351q0 -99 119 -99q37 0 72.5 34t35.5 71v346h82v-380q0 -86 40 -112q20 -13 27 -20z" />
    <glyph glyph-name="paragraph" unicode="&#xb6;" horiz-adv-x="519" 
d="M447 0h-70v657h70v-657zM304 0h-71v345h-25q-158 0 -157 160q0 83 38 117.5t122 34.5h93v-657z" />
    <glyph glyph-name="periodcentered" unicode="&#xb7;" horiz-adv-x="241" 
d="M131 342q-31 0 -50 25t-19 56t19 56t50 25q30 0 50 -26q17 -25 18 -55q0 -31 -18 -55q-20 -26 -50 -26z" />
    <glyph glyph-name="periodcentered" unicode="&#x2219;" horiz-adv-x="241" 
d="M131 342q-31 0 -50 25t-19 56t19 56t50 25q30 0 50 -26q17 -25 18 -55q0 -31 -18 -55q-20 -26 -50 -26z" />
    <glyph glyph-name="cedilla" unicode="&#xb8;" horiz-adv-x="209" 
d="M103 -224q-67 0 -88 49l37 35q31 -33 52 -33q37 0 37 35q0 40 -35 40q-14 0 -35 -16l-47 22l5 96l59 1l-4 -53q9 4 26 4q40 0 66 -25.5t26 -65.5q0 -41 -28.5 -65t-70.5 -24z" />
    <glyph glyph-name="guillemotright" unicode="&#xbb;" horiz-adv-x="402" 
d="M220 125l-73 3l135 165l-135 166l73 3l157 -166zM76 125l-74 3l134 165l-134 166l74 3l155 -166z" />
    <glyph glyph-name="questiondown" unicode="&#xbf;" horiz-adv-x="470" 
d="M112 227q97 70 79 263h82q7 -38 8 -78q0 -155 -82 -226q-46 -40 -56 -50q-29 -32 -28 -65q0 -45 28.5 -74t73.5 -29q96 0 131 106l70 -35q-60 -144 -197 -144q-78 0 -132 49.5t-54 127.5q0 101 77 155zM231 697q25 0 41.5 -16.5t16.5 -41.5t-16.5 -42t-41.5 -17t-42.5 17
t-17.5 42q0 26 17 42t43 16z" />
    <glyph glyph-name="Agrave" unicode="&#xc0;" horiz-adv-x="593" 
d="M469 -10l-60 193h-231l-58 -193l-84 10l217 670h83l220 -666zM294 564l-94 -310h188zM374 702l-214 93l48 66l215 -98z" />
    <glyph glyph-name="Aacute" unicode="&#xc1;" horiz-adv-x="581" 
d="M469 -10l-60 193h-231l-58 -193l-84 10l217 670h83l220 -666zM294 564l-94 -310h188zM208 703l-48 61l215 98l48 -66z" />
    <glyph glyph-name="Acircumflex" unicode="&#xc2;" horiz-adv-x="581" 
d="M469 -10l-60 193h-231l-58 -193l-84 10l217 670h83l220 -666zM294 564l-94 -310h188zM290 767l-140 -95v72l140 116l145 -116v-72z" />
    <glyph glyph-name="Atilde" unicode="&#xc3;" horiz-adv-x="593" 
d="M469 -10l-60 193h-231l-58 -193l-84 10l217 670h83l220 -666zM294 564l-94 -310h188zM373 685q-26 0 -75.5 35.5t-63.5 35.5q-40 0 -71 -43l-28 60q14 22 43.5 36t55.5 15t72.5 -34t64.5 -35q26 0 51 25l27 -61q-9 -11 -35.5 -22.5t-40.5 -11.5z" />
    <glyph glyph-name="Adieresis" unicode="&#xc4;" horiz-adv-x="593" 
d="M469 -10l-60 193h-231l-58 -193l-84 10l217 670h83l220 -666zM294 564l-94 -310h188zM406 711q-51 0 -52 53q0 23 14.5 37.5t37.5 14.5q22 0 36.5 -15.5t14.5 -36.5q0 -23 -14 -38t-37 -15zM190 711q-51 0 -51 53q0 23 14.5 37.5t36.5 14.5t37 -15.5t15 -36.5
q0 -23 -14.5 -38t-37.5 -15z" />
    <glyph glyph-name="Aring" unicode="&#xc5;" horiz-adv-x="593" 
d="M469 -10l-60 193h-231l-58 -193l-84 10l217 670h83l220 -666zM294 564l-94 -310h188zM300 702q-40 0 -66.5 25t-26.5 65q0 39 26.5 63.5t66.5 24.5t66.5 -25t26.5 -63q0 -40 -26.5 -65t-66.5 -25zM300 836q-44 0 -44 -44q0 -45 44 -46q44 0 44 46q0 44 -44 44z" />
    <glyph glyph-name="AE" unicode="&#xc6;" horiz-adv-x="882" 
d="M288 564l-93 -310h188zM565 582v-198h258v-77l-258 1v-230l274 1v-79h-379l-57 183h-230l-59 -193l-84 10l218 670h82l144 -438v423h368v-73h-277z" />
    <glyph glyph-name="Ccedilla" unicode="&#xc7;" horiz-adv-x="583" 
d="M356 -224q-66 0 -89 49l38 35q29 -33 52 -33q36 0 36 35q0 40 -34 40q-14 0 -35 -16l-48 22l6 87q-120 15 -187 121q-57 92 -57 221q0 140 72 234q80 103 216 105q50 0 114 -22q47 -16 80 -34l-39 -81q-93 57 -150 57q-101 0 -158 -97q-44 -77 -44 -174q0 -96 47 -168
q54 -83 147 -83q87 0 164 44l39 -67q-59 -32 -92 -43q-42 -14 -94 -16l-3 -40q9 4 25 4q40 0 66.5 -25.5t26.5 -65.5q0 -41 -28.5 -65t-70.5 -24z" />
    <glyph glyph-name="Egrave" unicode="&#xc8;" horiz-adv-x="500" 
d="M161 582v-198h258v-77l-258 1v-230l273 1v-79h-364v655h367v-73h-276zM342 702l-213 93l47 66l216 -98z" />
    <glyph glyph-name="Eacute" unicode="&#xc9;" horiz-adv-x="480" 
d="M161 582v-198h258v-77l-258 1v-230l273 1v-79h-364v655h367v-73h-276zM176 703l-47 61l215 98l48 -66z" />
    <glyph glyph-name="Ecircumflex" unicode="&#xca;" horiz-adv-x="500" 
d="M161 582v-198h258v-77l-258 1v-230l273 1v-79h-364v655h367v-73h-276zM258 767l-141 -95v72l141 116l145 -116v-72z" />
    <glyph glyph-name="Edieresis" unicode="&#xcb;" horiz-adv-x="500" 
d="M161 582v-198h258v-77l-258 1v-230l273 1v-79h-364v655h367v-73h-276zM374 713q-23 0 -37 15t-14 38t14 38t37 15q22 0 36.5 -16t14.5 -37q0 -23 -14 -38t-37 -15zM160 713q-23 0 -37 15t-14 38t14 38t37 15t36.5 -15.5t13.5 -37.5q0 -23 -13.5 -38t-36.5 -15z" />
    <glyph glyph-name="Igrave" unicode="&#xcc;" horiz-adv-x="220" 
d="M70 0v657h91v-657h-91zM203 702l-214 93l48 66l215 -98z" />
    <glyph glyph-name="Iacute" unicode="&#xcd;" horiz-adv-x="220" 
d="M70 0v657h91v-657h-91zM37 703l-48 61l215 98l48 -66z" />
    <glyph glyph-name="Icircumflex" unicode="&#xce;" horiz-adv-x="220" 
d="M70 0v657h91v-657h-91zM118 767l-141 -95v72l141 116l145 -116v-72z" />
    <glyph glyph-name="Idieresis" unicode="&#xcf;" horiz-adv-x="220" 
d="M70 0v657h91v-657h-91zM223 713q-23 0 -37 15t-14 38t14.5 38t36.5 15t36.5 -16t14.5 -37q0 -23 -14 -38t-37 -15zM9 713q-23 0 -37 15t-14 38t14.5 38t36.5 15q23 0 36.5 -15.5t13.5 -37.5q0 -23 -13.5 -38t-36.5 -15z" />
    <glyph glyph-name="Eth" unicode="&#xd0;" horiz-adv-x="578" 
d="M156 343h69v-70h-69v-197h92q97 0 151 76q49 68 50 167q0 278 -208 278q-30 0 -85 -2v-252zM6 343h59v316q71 3 149 4q173 0 252 -79t80 -253q1 -160 -82.5 -246.5t-243.5 -86.5q-26 0 -78 2t-77 2v271h-59v70z" />
    <glyph glyph-name="Ntilde" unicode="&#xd1;" horiz-adv-x="583" 
d="M472 -11q-92 166 -317 486v-474l-85 -1v659h75l308 -465v461h84v-644zM394 675q-26 0 -75.5 35t-62.5 35q-40 0 -72 -43l-27 61q14 22 43 36t56 15q26 1 72.5 -34.5t63.5 -35.5q26 0 51 26l27 -61q-9 -11 -35.5 -22.5t-40.5 -11.5z" />
    <glyph glyph-name="Ograve" unicode="&#xd2;" horiz-adv-x="659" 
d="M332 -16q-143 0 -222 104q-72 93 -72 242q0 139 80 232q84 99 221 100q136 0 218 -100q76 -93 76 -232q0 -148 -75 -244q-82 -102 -226 -102zM337 586q-100 0 -161 -85q-53 -76 -53 -180q0 -100 53 -176q59 -83 156 -83t160 82q57 76 57 175q0 103 -53 181
q-60 86 -159 86zM418 702l-214 93l48 66l215 -98z" />
    <glyph glyph-name="Oacute" unicode="&#xd3;" horiz-adv-x="659" 
d="M332 -16q-143 0 -222 104q-72 93 -72 242q0 139 80 232q84 99 221 100q136 0 218 -100q76 -93 76 -232q0 -148 -75 -244q-82 -102 -226 -102zM337 586q-100 0 -161 -85q-53 -76 -53 -180q0 -100 53 -176q59 -83 156 -83t160 82q57 76 57 175q0 103 -53 181
q-60 86 -159 86zM252 703l-48 61l215 98l48 -66z" />
    <glyph glyph-name="Ocircumflex" unicode="&#xd4;" horiz-adv-x="659" 
d="M332 -16q-143 0 -222 104q-72 93 -72 242q0 139 80 232q84 99 221 100q136 0 218 -100q76 -93 76 -232q0 -148 -75 -244q-82 -102 -226 -102zM337 586q-100 0 -161 -85q-53 -76 -53 -180q0 -100 53 -176q59 -83 156 -83t160 82q57 76 57 175q0 103 -53 181
q-60 86 -159 86zM341 777l-141 -95v73l141 115l145 -115v-73z" />
    <glyph glyph-name="Otilde" unicode="&#xd5;" horiz-adv-x="663" 
d="M332 -16q-143 0 -222 104q-72 93 -72 242q0 139 80 232q84 99 221 100q136 0 218 -100q76 -93 76 -232q0 -148 -75 -244q-82 -102 -226 -102zM337 586q-100 0 -161 -85q-53 -76 -53 -180q0 -100 53 -176q59 -83 156 -83t160 82q57 76 57 175q0 103 -53 181
q-60 86 -159 86zM394 685q-26 0 -75.5 35.5t-62.5 35.5q-40 0 -72 -43l-27 60q14 22 43 36t56 15q26 1 72.5 -34t63.5 -35q26 0 51 25l27 -61q-9 -11 -35.5 -22.5t-40.5 -11.5z" />
    <glyph glyph-name="Odieresis" unicode="&#xd6;" horiz-adv-x="663" 
d="M332 -16q-143 0 -222 104q-72 93 -72 242q0 139 80 232q84 99 221 100q136 0 218 -100q76 -93 76 -232q0 -148 -75 -244q-82 -102 -226 -102zM337 586q-100 0 -161 -85q-53 -76 -53 -180q0 -100 53 -176q59 -83 156 -83t160 82q57 76 57 175q0 103 -53 181
q-60 86 -159 86zM450 713q-23 0 -37.5 15t-14.5 38t14.5 38t37.5 15q22 0 36.5 -16t14.5 -37q0 -23 -14 -38t-37 -15zM234 713q-23 0 -37 15t-14 38t14.5 38t36.5 15t37 -16t15 -37q0 -23 -14.5 -38t-37.5 -15z" />
    <glyph glyph-name="Oslash" unicode="&#xd8;" horiz-adv-x="659" 
d="M222 95l149 487q-16 4 -39 4q-100 0 -161 -85q-53 -76 -53 -180q0 -68 25 -126q28 -64 79 -100zM447 546l-147 -481l27 -3q97 0 159 82q57 76 58 175q-1 150 -97 227zM407 698l79 -24l-14 -47q78 -43 119 -126q37 -77 37 -171q0 -147 -76 -243q-82 -103 -225 -103
q-29 0 -51 4l-17 -59l-80 25l18 58q-164 81 -164 318q0 139 80 232q84 99 221 100q32 0 59 -7z" />
    <glyph glyph-name="Ugrave" unicode="&#xd9;" horiz-adv-x="584" 
d="M525 236q0 -114 -62.5 -183.5t-173.5 -69.5q-109 0 -166 73q-53 68 -53 180v419h91v-419q0 -176 131 -177q73 0 109 54q32 47 32 123v419h92v-419zM375 702l-214 93l48 66l215 -98z" />
    <glyph glyph-name="Uacute" unicode="&#xda;" horiz-adv-x="584" 
d="M525 236q0 -114 -62.5 -183.5t-173.5 -69.5q-109 0 -166 73q-53 68 -53 180v419h91v-419q0 -176 131 -177q73 0 109 54q32 47 32 123v419h92v-419zM209 703l-48 61l215 98l48 -66z" />
    <glyph glyph-name="Ucircumflex" unicode="&#xdb;" horiz-adv-x="584" 
d="M525 236q0 -114 -62.5 -183.5t-173.5 -69.5q-109 0 -166 73q-53 68 -53 180v419h91v-419q0 -176 131 -177q73 0 109 54q32 47 32 123v419h92v-419zM290 777l-142 -95v73l142 115l145 -115v-73z" />
    <glyph glyph-name="Udieresis" unicode="&#xdc;" horiz-adv-x="533" 
d="M525 236q0 -114 -62.5 -183.5t-173.5 -69.5q-109 0 -166 73q-53 68 -53 180v419h91v-419q0 -176 131 -177q73 0 109 54q32 47 32 123v419h92v-419zM395 713q-23 0 -37 15t-14 38t14.5 38t36.5 15t36.5 -16t14.5 -37q0 -23 -14 -38t-37 -15zM181 713q-23 0 -37 15t-14 38
t14.5 38t36.5 15q23 0 36.5 -15.5t13.5 -37.5q0 -23 -13.5 -38t-36.5 -15z" />
    <glyph glyph-name="Yacute" unicode="&#xdd;" horiz-adv-x="515" 
d="M308 279v-279h-91v279l-182 363l82 24l148 -305l147 305l77 -24zM198 642l-47 60l215 99l48 -67z" />
    <glyph glyph-name="Thorn" unicode="&#xde;" horiz-adv-x="556" 
d="M286 148q-72 0 -139 46v-305h-86v828h86v-100q49 75 137 75q105 0 167 -85q54 -76 55 -185q1 -121 -48 -192q-57 -82 -172 -82zM264 613q-81 0 -117 -75v-258q39 -61 134 -62q74 0 108 63q29 50 29 129q0 83 -34 138q-41 65 -120 65z" />
    <glyph glyph-name="germandbls" unicode="&#xdf;" horiz-adv-x="562" 
d="M342 -15q-63 0 -103 14q-47 17 -85 60l43 67q29 -40 60 -53q28 -12 80 -13q37 0 65.5 22.5t28.5 58.5q0 53 -80 80q-28 8 -83 26q-100 34 -100 122q0 76 41.5 116.5t117.5 40.5q20 0 40 -3q13 20 13 28q0 62 -43 90q-37 24 -82 24q-57 0 -89 -33t-32 -90v-542h-80v542
q0 190 206 190q88 0 143 -46q57 -49 58 -136q0 -50 -37 -112q-47 16 -98 20q-33 2 -56.5 -19.5t-23.5 -54.5q0 -25 28 -42q18 -11 71 -28q36 -11 81 -26q49 -20 69 -53t20 -88q0 -68 -52 -115t-121 -47z" />
    <glyph glyph-name="agrave" unicode="&#xe0;" horiz-adv-x="502" 
d="M409 -11q-42 0 -65 49q-34 -26 -52 -34q-44 -20 -104 -20q-65 0 -103 41t-38 105q0 83 50 120q33 24 124 45q35 8 111 15v65q0 34 -26 55.5t-61 21.5q-56 0 -136 -66l-42 57q32 29 84 54q57 28 94 27q71 0 119 -44t48 -114v-289q5 -20 21 -21q11 -1 43 22l17 -53
q-34 -36 -84 -36zM332 239q-32 0 -78 -10q-14 -3 -58 -13q-73 -18 -74 -87q0 -37 20.5 -59t57.5 -22q40 0 82 22q50 26 50 65v104zM353 569l-214 93l48 66l215 -98z" />
    <glyph glyph-name="aacute" unicode="&#xe1;" horiz-adv-x="502" 
d="M409 -11q-42 0 -65 49q-34 -26 -52 -34q-44 -20 -104 -20q-65 0 -103 41t-38 105q0 83 50 120q33 24 124 45q35 8 111 15v65q0 34 -26 55.5t-61 21.5q-56 0 -136 -66l-42 57q32 29 84 54q57 28 94 27q71 0 119 -44t48 -114v-289q5 -20 21 -21q11 -1 43 22l17 -53
q-34 -36 -84 -36zM332 239q-32 0 -78 -10q-14 -3 -58 -13q-73 -18 -74 -87q0 -37 20.5 -59t57.5 -22q40 0 82 22q50 26 50 65v104zM187 570l-48 61l215 98l48 -66z" />
    <glyph glyph-name="acircumflex" unicode="&#xe2;" horiz-adv-x="502" 
d="M409 -11q-42 0 -65 49q-34 -26 -52 -34q-44 -20 -104 -20q-65 0 -103 41t-38 105q0 83 50 120q33 24 124 45q35 8 111 15v65q0 34 -26 55.5t-61 21.5q-56 0 -136 -66l-42 57q32 29 84 54q57 28 94 27q71 0 119 -44t48 -114v-289q5 -20 21 -21q11 -1 43 22l17 -53
q-34 -36 -84 -36zM332 239q-32 0 -78 -10q-14 -3 -58 -13q-73 -18 -74 -87q0 -37 20.5 -59t57.5 -22q40 0 82 22q50 26 50 65v104zM258 634l-141 -95v72l141 116l145 -116v-72z" />
    <glyph glyph-name="atilde" unicode="&#xe3;" horiz-adv-x="502" 
d="M409 -11q-42 0 -65 49q-34 -26 -52 -34q-44 -20 -104 -20q-65 0 -103 41t-38 105q0 83 50 120q33 24 124 45q35 8 111 15v65q0 34 -26 55.5t-61 21.5q-56 0 -136 -66l-42 57q32 29 84 54q57 28 94 27q71 0 119 -44t48 -114v-289q5 -20 21 -21q11 -1 43 22l17 -53
q-34 -36 -84 -36zM332 239q-32 0 -78 -10q-14 -3 -58 -13q-73 -18 -74 -87q0 -37 20.5 -59t57.5 -22q40 0 82 22q50 26 50 65v104zM319 562q-27 0 -76.5 35.5t-62.5 35.5q-40 0 -71 -43l-27 60q14 20 43.5 35t54.5 16q26 1 73 -34t64 -35q24 0 52 25l26 -61
q-9 -10 -35.5 -22t-40.5 -12z" />
    <glyph glyph-name="adieresis" unicode="&#xe4;" horiz-adv-x="502" 
d="M409 -11q-42 0 -65 49q-34 -26 -52 -34q-44 -20 -104 -20q-65 0 -103 41t-38 105q0 83 50 120q33 24 124 45q35 8 111 15v65q0 34 -26 55.5t-61 21.5q-56 0 -136 -66l-42 57q32 29 84 54q57 28 94 27q71 0 119 -44t48 -114v-289q5 -20 21 -21q11 -1 43 22l17 -53
q-34 -36 -84 -36zM332 239q-32 0 -78 -10q-14 -3 -58 -13q-73 -18 -74 -87q0 -37 20.5 -59t57.5 -22q40 0 82 22q50 26 50 65v104zM364 559q-23 0 -37.5 15.5t-14.5 37.5q0 23 14.5 38.5t37.5 15.5q22 0 36.5 -16t14.5 -38q0 -23 -14 -38t-37 -15zM148 559q-23 0 -37 15.5
t-14 37.5q0 23 14.5 38.5t36.5 15.5t37 -16t15 -38q0 -23 -14.5 -38t-37.5 -15z" />
    <glyph glyph-name="aring" unicode="&#xe5;" horiz-adv-x="502" 
d="M409 -11q-42 0 -65 49q-34 -26 -52 -34q-44 -20 -104 -20q-65 0 -103 41t-38 105q0 83 50 120q33 24 124 45q35 8 111 15v65q0 34 -26 55.5t-61 21.5q-56 0 -136 -66l-42 57q32 29 84 54q57 28 94 27q71 0 119 -44t48 -114v-289q5 -20 21 -21q11 -1 43 22l17 -53
q-34 -36 -84 -36zM332 239q-32 0 -78 -10q-14 -3 -58 -13q-73 -18 -74 -87q0 -37 20.5 -59t57.5 -22q40 0 82 22q50 26 50 65v104zM246 580q-40 0 -66 24.5t-26 64.5q0 39 26 63.5t66 24.5t66.5 -24t26.5 -64t-26 -64.5t-67 -24.5zM246 713q-43 0 -43 -44q0 -45 43 -45
q44 0 44 45q0 44 -44 44z" />
    <glyph glyph-name="ae" unicode="&#xe6;" horiz-adv-x="793" 
d="M674 340q0 112 -111 112q-75 0 -106 -37q-24 -28 -43 -108h260v33zM339 38q-17 -12 -53 -34q-45 -20 -103 -20q-65 0 -103 41t-38 105q0 83 50 120q32 24 124 45q57 13 111 18v62q0 34 -26.5 55.5t-60.5 21.5q-56 0 -137 -66l-42 57q30 27 84 54q59 28 95 27
q105 0 149 -85q67 80 182 80q82 0 136 -67q48 -61 48 -147v-62h-348q0 -67 25 -115q17 -34 62 -53q39 -17 80 -18q30 0 72 23q36 18 63 43l41 -57q-84 -78 -184 -78q-128 0 -187 87zM327 239q-24 0 -86 -13q-66 -13 -83 -22q-42 -23 -42 -75q0 -81 79 -81q40 0 81 22
q50 26 51 65v104z" />
    <glyph glyph-name="ccedilla" unicode="&#xe7;" horiz-adv-x="494" 
d="M302 -224q-65 0 -88 49l38 35q29 -33 51 -33q37 0 37 35q0 40 -35 40q-14 0 -35 -16l-48 22l5 85q-103 18 -150 113q-32 65 -32 142q0 117 59 191q65 81 179 80q90 -1 160 -54l-43 -68q-68 52 -128 53q-74 0 -111 -70q-30 -55 -31 -136q-1 -75 37 -127q42 -58 114 -59
q74 0 137 57l40 -54q-74 -72 -172 -73l-3 -36q9 4 25 4q39 0 66 -26t27 -65q0 -41 -28.5 -65t-70.5 -24z" />
    <glyph glyph-name="egrave" unicode="&#xe8;" horiz-adv-x="508" 
d="M132 263q0 -151 87 -190q34 -15 71 -16q60 0 134 66l40 -57q-82 -78 -182 -78q-139 0 -199 104q-38 67 -38 161q0 117 61 189q65 77 180 77q84 0 134 -54t50 -139v-63h-338zM389 340q0 112 -110 112q-61 0 -95 -32q-29 -29 -45 -92h250v12zM364 569l-213 93l47 66
l216 -98z" />
    <glyph glyph-name="eacute" unicode="&#xe9;" horiz-adv-x="508" 
d="M132 263q0 -151 87 -190q34 -15 71 -16q60 0 134 66l40 -57q-82 -78 -182 -78q-139 0 -199 104q-38 67 -38 161q0 117 61 189q65 77 180 77q84 0 134 -54t50 -139v-63h-338zM389 340q0 112 -110 112q-61 0 -95 -32q-29 -29 -45 -92h250v12zM187 570l-48 61l215 98l48 -66
z" />
    <glyph glyph-name="ecircumflex" unicode="&#xea;" horiz-adv-x="508" 
d="M132 263q0 -151 87 -190q34 -15 71 -16q60 0 134 66l40 -57q-82 -78 -182 -78q-139 0 -199 104q-38 67 -38 161q0 117 61 189q65 77 180 77q84 0 134 -54t50 -139v-63h-338zM389 340q0 112 -110 112q-61 0 -95 -32q-29 -29 -45 -92h250v12zM280 634l-142 -95v72l142 116
l145 -116v-72z" />
    <glyph glyph-name="edieresis" unicode="&#xeb;" horiz-adv-x="508" 
d="M132 263q0 -151 87 -190q34 -15 71 -16q60 0 134 66l40 -57q-82 -78 -182 -78q-139 0 -199 104q-38 67 -38 161q0 117 61 189q65 77 180 77q84 0 134 -54t50 -139v-63h-338zM389 340q0 112 -110 112q-61 0 -95 -32q-29 -29 -45 -92h250v12zM374 559q-23 0 -37 15.5
t-14 37.5q0 23 14 38.5t37 15.5q22 0 36.5 -16t14.5 -38q0 -23 -14 -38t-37 -15zM160 559q-23 0 -37 15.5t-14 37.5q0 23 14 38.5t37 15.5t36.5 -15.5t13.5 -38.5t-13.5 -38t-36.5 -15z" />
    <glyph glyph-name="igrave" unicode="&#xec;" horiz-adv-x="254" 
d="M79 0v507h82v-507h-82zM213 569l-213 93l47 66l216 -98z" />
    <glyph glyph-name="iacute" unicode="&#xed;" horiz-adv-x="239" 
d="M79 0v507h82v-507h-82zM47 570l-47 61l215 98l48 -66z" />
    <glyph glyph-name="icircumflex" unicode="&#xee;" horiz-adv-x="215" 
d="M79 0v507h82v-507h-82zM118 634l-141 -95v72l141 116l145 -116v-72z" />
    <glyph glyph-name="idieresis" unicode="&#xef;" horiz-adv-x="211" 
d="M79 0v507h82v-507h-82zM220 559q-23 0 -37 15.5t-14 37.5q0 23 14.5 38.5t36.5 15.5t36.5 -16t14.5 -38q0 -23 -14 -38t-37 -15zM5 559q-23 0 -36.5 15.5t-13.5 37.5q0 23 14 38.5t36 15.5q23 0 37 -15.5t14 -38.5t-14 -38t-37 -15z" />
    <glyph glyph-name="eth" unicode="&#xf0;" horiz-adv-x="576" 
d="M438 367q-59 84 -154 84q-80 0 -122 -57q-38 -50 -39 -132q-1 -77 36 -133q41 -66 114 -66q85 0 131 62q42 56 42 143q0 54 -8 99zM217 628h96q-46 55 -69 74l68 47q53 -51 102 -121h139l-1 -71h-96q77 -140 75 -244q-2 -147 -59 -231q-69 -99 -209 -99q-104 0 -170 83
q-60 76 -60 183q0 125 65 198t187 73q79 0 123 -45q-10 30 -44 82h-147v71z" />
    <glyph glyph-name="ntilde" unicode="&#xf1;" horiz-adv-x="497" 
d="M385 0v333q0 50 -23 83q-26 38 -73 38q-42 0 -87 -33q-51 -37 -51 -85v-336h-81v507h81v-57q40 38 66 52q38 22 81 21q72 0 120 -52.5t48 -124.5v-346h-81zM341 562q-27 0 -77 35.5t-62 35.5q-40 0 -72 -43l-27 60q14 20 43.5 35t55.5 16t73 -34t64 -35q24 0 51 25
l27 -61q-9 -10 -35.5 -22t-40.5 -12z" />
    <glyph glyph-name="ograve" unicode="&#xf2;" horiz-adv-x="556" 
d="M287 -11q-137 0 -200 103q-42 70 -42 166q0 132 83 206q69 60 161 60q91 0 156 -60q80 -73 80 -206q0 -92 -47 -167q-64 -102 -191 -102zM293 456q-81 0 -124 -64q-36 -55 -36 -140q0 -81 34 -133q40 -63 116 -64q79 0 118 65q35 54 35 137q0 79 -32 133q-37 66 -111 66z
M396 569l-214 93l48 66l215 -98z" />
    <glyph glyph-name="oacute" unicode="&#xf3;" horiz-adv-x="556" 
d="M287 -11q-137 0 -200 103q-42 70 -42 166q0 132 83 206q69 60 161 60q91 0 156 -60q80 -73 80 -206q0 -92 -47 -167q-64 -102 -191 -102zM293 456q-81 0 -124 -64q-36 -55 -36 -140q0 -81 34 -133q40 -63 116 -64q79 0 118 65q35 54 35 137q0 79 -32 133q-37 66 -111 66z
M230 570l-48 61l215 98l48 -66z" />
    <glyph glyph-name="ocircumflex" unicode="&#xf4;" horiz-adv-x="556" 
d="M287 -11q-137 0 -200 103q-42 70 -42 166q0 132 83 206q69 60 161 60q91 0 156 -60q80 -73 80 -206q0 -92 -47 -167q-64 -102 -191 -102zM293 456q-81 0 -124 -64q-36 -55 -36 -140q0 -81 34 -133q40 -63 116 -64q79 0 118 65q35 54 35 137q0 79 -32 133q-37 66 -111 66z
M290 634l-140 -95v72l140 116l145 -116v-72z" />
    <glyph glyph-name="otilde" unicode="&#xf5;" horiz-adv-x="556" 
d="M287 -11q-137 0 -200 103q-42 70 -42 166q0 132 83 206q69 60 161 60q91 0 156 -60q80 -73 80 -206q0 -92 -47 -167q-64 -102 -191 -102zM293 456q-81 0 -124 -64q-36 -55 -36 -140q0 -81 34 -133q40 -63 116 -64q79 0 118 65q35 54 35 137q0 79 -32 133q-37 66 -111 66z
M373 562q-26 0 -75.5 35.5t-63.5 35.5q-40 0 -71 -43l-28 60q14 22 43.5 36t55.5 15t72.5 -34t64.5 -35q26 0 51 25l27 -61q-9 -11 -35.5 -22.5t-40.5 -11.5z" />
    <glyph glyph-name="odieresis" unicode="&#xf6;" horiz-adv-x="556" 
d="M287 -11q-137 0 -200 103q-42 70 -42 166q0 132 83 206q69 60 161 60q91 0 156 -60q80 -73 80 -206q0 -92 -47 -167q-64 -102 -191 -102zM293 456q-81 0 -124 -64q-36 -55 -36 -140q0 -81 34 -133q40 -63 116 -64q79 0 118 65q35 54 35 137q0 79 -32 133q-37 66 -111 66z
M395 559q-23 0 -37 15.5t-14 37.5q0 23 14.5 38.5t36.5 15.5t36.5 -16t14.5 -38q0 -23 -14 -38t-37 -15zM181 559q-23 0 -37 15.5t-14 37.5q0 23 14.5 38.5t36.5 15.5q23 0 36.5 -15.5t13.5 -38.5t-13.5 -38t-36.5 -15z" />
    <glyph glyph-name="divide" unicode="&#xf7;" horiz-adv-x="507" 
d="M270 407q-27 0 -44 19.5t-17 47.5t17.5 48t43.5 20q27 0 44.5 -20t17.5 -48t-17.5 -47.5t-44.5 -19.5zM54 282v71h403v-71h-403zM270 95q-27 0 -44 20t-17 48t17.5 47.5t43.5 19.5q27 0 44.5 -20t17.5 -47q0 -28 -17.5 -48t-44.5 -20z" />
    <glyph glyph-name="oslash" unicode="&#xf8;" horiz-adv-x="559" 
d="M181 94l110 362h-3q-81 0 -124 -64q-36 -55 -36 -140q0 -104 53 -158zM370 426l-113 -370q6 -1 21 -1q79 0 118 65q35 54 35 137q0 118 -61 169zM333 592l80 -25l-22 -69q128 -68 128 -240q0 -92 -47 -167q-65 -102 -190 -102q-24 0 -44 3l-20 -63l-80 25l20 63
q-59 33 -90 104q-28 61 -28 137q0 132 83 206q68 60 160 60q10 0 28 -2z" />
    <glyph glyph-name="ugrave" unicode="&#xf9;" horiz-adv-x="493" 
d="M462 0h-73q-3 14 -10 53q-77 -72 -158 -71q-70 0 -112 57q-39 53 -39 125v343h81v-339q0 -114 90 -114q43 0 92 36t49 78v339h80v-507zM364 569l-213 93l47 66l216 -98z" />
    <glyph glyph-name="uacute" unicode="&#xfa;" horiz-adv-x="493" 
d="M462 0h-73q-3 14 -10 53q-77 -72 -158 -71q-70 0 -112 57q-39 53 -39 125v343h81v-339q0 -114 90 -114q43 0 92 36t49 78v339h80v-507zM187 570l-48 61l215 98l48 -66z" />
    <glyph glyph-name="ucircumflex" unicode="&#xfb;" horiz-adv-x="493" 
d="M462 0h-73q-3 14 -10 53q-77 -72 -158 -71q-70 0 -112 57q-39 53 -39 125v343h81v-339q0 -114 90 -114q43 0 92 36t49 78v339h80v-507zM268 634l-140 -95v72l140 116l146 -116v-72z" />
    <glyph glyph-name="udieresis" unicode="&#xfc;" horiz-adv-x="493" 
d="M462 0h-73q-3 14 -10 53q-77 -72 -158 -71q-70 0 -112 57q-39 53 -39 125v343h81v-339q0 -114 90 -114q43 0 92 36t49 78v339h80v-507zM374 559q-23 0 -37 15.5t-14 37.5q0 23 14 38.5t37 15.5q22 0 36.5 -16t14.5 -38q0 -23 -14 -38t-37 -15zM160 559q-23 0 -37 15.5
t-14 37.5q0 23 14 38.5t37 15.5t36.5 -15.5t13.5 -38.5t-13.5 -38t-36.5 -15z" />
    <glyph glyph-name="yacute" unicode="&#xfd;" horiz-adv-x="491" 
d="M174 585l-48 61l215 98l49 -66zM255 -86q-17 -48 -64 -81.5t-98 -33.5q-15 0 -70 19l25 72q29 -13 51 -14q47 -1 86 69q20 49 42 98l-196 446l79 22l154 -363l132 362l73 -17z" />
    <glyph glyph-name="thorn" unicode="&#xfe;" horiz-adv-x="534" 
d="M279 -10q-41 0 -68 13l-61 39v-242h-89v901h85v-272q55 83 152 83q100 0 156 -73q50 -66 51 -169q1 -125 -49 -197q-58 -83 -177 -83zM284 440q-42 0 -79 -26t-55 -65l1 -250q15 -20 59 -31q36 -10 69 -11q73 0 109 69q29 54 29 133q0 76 -28 123q-34 58 -105 58z" />
    <glyph glyph-name="ydieresis" unicode="&#xff;" horiz-adv-x="478" 
d="M260 -86q-17 -48 -63.5 -81.5t-97.5 -33.5q-16 0 -71 19l25 72q29 -13 51 -14q47 -1 86 69q20 49 42 98l-195 446l78 22l155 -363l132 362l72 -17zM351 559q-23 0 -37 15.5t-14 37.5q0 23 14.5 38.5t36.5 15.5t36.5 -16t14.5 -38q0 -23 -14 -38t-37 -15zM137 559
q-23 0 -37 15.5t-14 37.5q0 23 14.5 38.5t36.5 15.5q23 0 36.5 -15.5t13.5 -38.5t-13.5 -38t-36.5 -15z" />
    <glyph glyph-name="dotlessi" unicode="&#x131;" horiz-adv-x="238" 
d="M73 0v507h83v-507h-83z" />
    <glyph glyph-name="Lslash" unicode="&#x141;" horiz-adv-x="513" 
d="M6 343l59 22v291h91v-257l69 26v-80l-69 -26v-245h293v-74h-384v285l-59 -22v80z" />
    <glyph glyph-name="lslash" unicode="&#x142;" horiz-adv-x="288" 
d="M170 371l1 -371h-90l-1 325l-65 -33l1 80l65 32v253h90v-206l78 39l1 -79z" />
    <glyph glyph-name="OE" unicode="&#x152;" horiz-adv-x="1052" 
d="M624 0v228q-91 -231 -287 -231q-143 0 -222 107q-72 96 -72 245q0 139 80 230q83 94 220 94q190 0 281 -213v205h363v-74h-271v-198h261v-77h-264l1 -230h273v-86h-363zM342 595q-100 0 -160 -80q-53 -73 -53 -176q0 -100 52 -176q59 -86 156 -86q96 0 159 85
q56 78 56 177q0 103 -52 175q-59 81 -158 81z" />
    <glyph glyph-name="oe" unicode="&#x153;" horiz-adv-x="953" 
d="M288 456q-81 0 -124 -64q-36 -55 -36 -140q0 -81 34 -133q40 -63 116 -64q79 0 118 65q35 54 35 137q0 79 -32 133q-37 66 -111 66zM578 263q0 -152 86 -190q34 -15 70 -16q60 0 134 66l41 -57q-82 -78 -182 -78q-181 0 -224 169q-56 -168 -221 -168q-138 0 -200 103
q-42 71 -42 166q0 132 83 206q68 60 160 60q79 0 139 -46t84 -122q25 78 84 120.5t141 42.5q84 0 134 -54t50 -139v-63h-337zM835 340q0 112 -111 112q-61 0 -92.5 -30.5t-46.5 -93.5h250v12z" />
    <glyph glyph-name="Scaron" unicode="&#x160;" horiz-adv-x="503" 
d="M245 -10q-58 0 -112 20q-60 23 -91 65l47 65q62 -73 159 -72q57 0 91 31t34 88q0 69 -81 103q-50 20 -151 62q-80 50 -79 155q1 78 62 128q56 47 136 47q94 0 173 -62l-43 -65q-54 49 -130 49q-104 0 -104 -103q0 -65 106 -101q112 -38 147 -67q52 -45 52 -144
q0 -95 -60 -147t-156 -52zM316 786l141 95v-73l-141 -115l-146 115v73z" />
    <glyph glyph-name="scaron" unicode="&#x161;" horiz-adv-x="447" 
d="M219 -14q-105 0 -170 59l41 63q53 -51 137 -52q36 0 67 27t31 61q0 56 -81 78q-62 16 -123 39q-59 31 -60 105q0 74 47.5 117.5t121.5 42.5q70 -1 148 -47l-27 -64q-72 46 -124 46q-89 0 -89 -75q0 -41 41 -55q28 -9 148 -48q82 -38 82 -120q0 -83 -53 -130t-137 -47z
M275 632l141 95v-73l-141 -115l-146 115v73z" />
    <glyph glyph-name="Ydieresis" unicode="&#x178;" horiz-adv-x="493" 
d="M308 279v-279h-91v279l-182 363l82 24l148 -305l147 305l77 -24zM385 713q-23 0 -37 15t-14 38t14 38t37 15q22 0 36.5 -16t14.5 -37q0 -23 -14 -38t-37 -15zM170 713q-23 0 -37 15t-14 38t14 38t37 15q22 0 36.5 -16t14.5 -37q0 -23 -14 -38t-37 -15z" />
    <glyph glyph-name="Zcaron" unicode="&#x17d;" horiz-adv-x="557" 
d="M170 78h325v-78h-417l-8 79l330 509l-313 -2v68h402l9 -73zM337 775l140 95v-72l-140 -116l-147 116v72z" />
    <glyph glyph-name="zcaron" unicode="&#x17e;" horiz-adv-x="493" 
d="M59 0v68l235 310q16 22 51 62h-275v66h370v-72l-225 -306q-11 -15 -46 -56h286v-72h-396zM314 632l141 95v-73l-141 -115l-146 115v73z" />
    <glyph glyph-name="florin" unicode="&#x192;" horiz-adv-x="369" 
d="M369 625q-49 32 -89 31q-76 0 -85 -113l-1 -4q-2 -31 -3 -38h141l-6 -67h-139l-53 -559l-80 -1l52 558l-80 -1l6 68l80 1l4 42q8 81 47 130q45 55 123 56q45 0 69 -10q6 -3 57 -36z" />
    <glyph glyph-name="circumflex" unicode="&#x2c6;" horiz-adv-x="345" 
d="M177 634l-141 -95v72l141 116l146 -116v-72z" />
    <glyph glyph-name="caron" unicode="&#x2c7;" horiz-adv-x="345" 
d="M182 632l141 95v-73l-141 -115l-146 115v73z" />
    <glyph glyph-name="breve" unicode="&#x2d8;" horiz-adv-x="353" 
d="M175 551q-51 0 -89.5 29t-53.5 78l50 8q27 -65 92 -65q60 0 87 65l49 -8q-13 -49 -49 -78t-86 -29z" />
    <glyph glyph-name="dotaccent" unicode="&#x2d9;" horiz-adv-x="242" 
d="M131 541q-22 0 -38 13.5t-16 35.5t16 35.5t38 13.5q23 0 38.5 -14t15.5 -35q0 -22 -16 -35.5t-38 -13.5z" />
    <glyph glyph-name="ring" unicode="&#x2da;" horiz-adv-x="312" 
d="M176 590q-40 0 -66.5 24.5t-26.5 64.5q0 39 26.5 63.5t66.5 24.5t66.5 -24.5t26.5 -63.5q0 -40 -26.5 -64.5t-66.5 -24.5zM176 723q-44 0 -44 -44q0 -45 44 -45t44 45q0 44 -44 44z" />
    <glyph glyph-name="tilde" unicode="&#x2dc;" horiz-adv-x="384" 
d="M282 562q-27 0 -76.5 35.5t-62.5 35.5q-40 0 -72 -43l-27 60q14 22 43.5 36t55.5 15t72.5 -34t64.5 -35q24 0 51 25l26 -61q-9 -11 -35 -22.5t-40 -11.5z" />
    <glyph glyph-name="hungarumlaut" unicode="&#x2dd;" horiz-adv-x="370" 
d="M229 574h-64l95 117h65zM103 574h-64l95 117h65z" />
    <glyph glyph-name="Delta" unicode="&#x394;" horiz-adv-x="705" 
d="M87 0l251 673h88l231 -673h-570zM382 579l-179 -522h339z" />
    <glyph glyph-name="Delta" unicode="&#x2206;" horiz-adv-x="705" 
d="M87 0l251 673h88l231 -673h-570zM382 579l-179 -522h339z" />
    <glyph glyph-name="Omega" unicode="&#x3a9;" horiz-adv-x="661" 
d="M415 133v-66h162v-67h-211v180q62 0 108 65q40 56 40 112q0 104 -41 166q-48 72 -147 72t-153 -71q-46 -63 -46 -167q0 -60 34 -112q42 -65 114 -65v-180h-212v67h159v65q-75 11 -129 86q-52 72 -52 150q0 139 73 211.5t213 72.5q273 0 273 -284q0 -77 -54 -150
q-56 -77 -131 -85z" />
    <glyph glyph-name="Omega" unicode="&#x2126;" horiz-adv-x="661" 
d="M415 133v-66h162v-67h-211v180q62 0 108 65q40 56 40 112q0 104 -41 166q-48 72 -147 72t-153 -71q-46 -63 -46 -167q0 -60 34 -112q42 -65 114 -65v-180h-212v67h159v65q-75 11 -129 86q-52 72 -52 150q0 139 73 211.5t213 72.5q273 0 273 -284q0 -77 -54 -150
q-56 -77 -131 -85z" />
    <glyph glyph-name="pi" unicode="&#x3c0;" horiz-adv-x="530" 
d="M383 0v453h-181v-453h-90v453h-41v67h402v-520h-90z" />
    <glyph glyph-name="endash" unicode="&#x2013;" 
d="M35 299v73h442v-73h-442z" />
    <glyph glyph-name="emdash" unicode="&#x2014;" horiz-adv-x="1024" 
d="M28 299v73h968v-73h-968z" />
    <glyph glyph-name="quoteleft" unicode="&#x2018;" horiz-adv-x="218" 
d="M190 725l-45 12q-93 -122 -94 -209h100q0 39 12 101.5t27 95.5z" />
    <glyph glyph-name="quoteright" unicode="&#x2019;" horiz-adv-x="246" 
d="M48 541l45 -13q93 122 94 209h-99q0 -39 -12 -100q-13 -64 -28 -96z" />
    <glyph glyph-name="quotesinglbase" unicode="&#x201a;" horiz-adv-x="219" 
d="M99 -131l-56 -4q1 1 30 46q18 29 22 49q-66 3 -65 74q0 28 21 49t48 21t48 -22t21 -48q-1 -46 -21 -88q-10 -22 -48 -77z" />
    <glyph glyph-name="quotedblleft" unicode="&#x201c;" horiz-adv-x="453" 
d="M435 725l-45 12q-93 -122 -94 -209h99q0 39 12.5 101.5t27.5 95.5zM230 725l-45 12q-93 -122 -94 -209h99q0 39 12.5 101.5t27.5 95.5z" />
    <glyph glyph-name="quotedblright" unicode="&#x201d;" horiz-adv-x="453" 
d="M32 541l45 -13q93 122 94 209h-99q0 -39 -13 -100q-12 -64 -27 -96zM237 541l45 -13q93 122 94 209h-100q0 -39 -12 -100q-12 -64 -27 -96z" />
    <glyph glyph-name="quotedblbase" unicode="&#x201e;" horiz-adv-x="427" 
d="M32 -74l45 -12q93 122 94 209h-99q0 -39 -13 -100q-12 -65 -27 -97zM237 -74l45 -12q93 122 94 209h-100q0 -39 -12 -100q-12 -65 -27 -97z" />
    <glyph glyph-name="dagger" unicode="&#x2020;" horiz-adv-x="226" 
d="M197 572h-72v-231h-40v231h-61v35h61v64h40v-64h72v-35z" />
    <glyph glyph-name="daggerdbl" unicode="&#x2021;" horiz-adv-x="226" 
d="M187 407h-63v-156h-38v156h-61v24h61v131h-61v25h61v84h38v-84h63v-25h-63v-131h63v-24z" />
    <glyph glyph-name="bullet" unicode="&#x2022;" horiz-adv-x="288" 
d="M143 195q-42 0 -68 30.5t-26 72.5t26.5 72t67.5 30t67.5 -30.5t26.5 -71.5t-26.5 -72t-67.5 -31z" />
    <glyph glyph-name="ellipsis" unicode="&#x2026;" horiz-adv-x="635" 
d="M517 -16q-31 0 -49.5 20t-18.5 50q0 32 18 51.5t50 19.5q31 0 49.5 -19.5t18.5 -51.5q0 -31 -18.5 -50.5t-49.5 -19.5zM324 -16q-31 0 -50 20t-19 50q0 32 18.5 51.5t50.5 19.5q31 0 49 -19.5t18 -51.5q0 -31 -18 -50.5t-49 -19.5zM130 -16q-31 0 -50 20t-19 50
q0 32 18.5 51.5t50.5 19.5q31 0 49.5 -19.5t18.5 -51.5q0 -31 -18.5 -50.5t-49.5 -19.5z" />
    <glyph glyph-name="perthousand" unicode="&#x2030;" horiz-adv-x="907" 
d="M752 -6q-54 0 -83 36q-28 33 -28 88q0 51 30 86.5t81 35.5q50 0 79.5 -35.5t29.5 -86.5q0 -55 -26 -88q-29 -36 -83 -36zM132 420q-53 0 -81 34.5t-28 89.5q0 51 29.5 86.5t79.5 35.5t80.5 -35.5t30.5 -86.5q0 -55 -28 -88q-29 -36 -83 -36zM468 -6q-54 0 -83 36
q-28 33 -28 88q0 51 30.5 86.5t80.5 35.5t80 -35.5t30 -86.5q0 -55 -27 -88q-29 -36 -83 -36zM110 -80l-76 26l386 697l70 -27zM751 182q-23 0 -36 -23q-10 -19 -10 -44q0 -26 10 -43q13 -23 37 -23q23 0 35 23q11 19 12 43q0 25 -12 44q-13 23 -36 23zM131 608
q-23 0 -36 -23q-10 -19 -10 -44q0 -24 11 -43q13 -23 36 -23q47 0 47 66q0 25 -11 44q-14 23 -37 23zM467 182q-23 0 -36 -23q-10 -19 -10 -44q0 -26 10 -43q13 -23 37 -23q23 0 36 23q11 19 11 43q0 25 -11 44q-14 23 -37 23z" />
    <glyph glyph-name="guilsinglleft" unicode="&#x2039;" horiz-adv-x="326" 
d="M152 293l134 -165l-73 -3l-156 171l156 166l73 -3z" />
    <glyph glyph-name="guilsinglright" unicode="&#x203a;" horiz-adv-x="324" 
d="M121 125l-73 3l133 165l-133 166l73 3l157 -166z" />
    <glyph glyph-name="fraction" unicode="&#x2044;" horiz-adv-x="549" 
d="M144 68l-81 51l380 483l80 -51z" />
    <glyph glyph-name="trademark" unicode="&#x2122;" horiz-adv-x="656" 
d="M178 323h-65v281h-98v53h254v-53h-91v-281zM568 526l-78 -203h-55l-79 205v-205h-61v336h80l91 -234l91 234h77v-336h-66v203z" />
    <glyph glyph-name="partialdiff" unicode="&#x2202;" horiz-adv-x="565" 
d="M275 -17q-104 0 -169 76q-61 73 -62 180q-1 125 56 195q61 76 184 76q39 0 80 -13q45 -15 69 -40q-4 39 -21 81q-20 47 -47 66q-44 32 -122 32q-73 0 -142 -30l-22 80q71 20 143 21q116 0 179 -45q121 -85 121 -359q0 -148 -48 -225q-60 -95 -199 -95zM441 358
q-68 92 -158 93q-77 0 -116 -64q-33 -53 -33 -135q0 -78 37 -134q42 -65 116 -65q161 0 160 215q0 45 -6 90z" />
    <glyph glyph-name="product" unicode="&#x220f;" horiz-adv-x="609" 
d="M523 0h-98v575h-202v-575h-97v657h397v-657z" />
    <glyph glyph-name="summation" unicode="&#x2211;" horiz-adv-x="502" 
d="M94 0v72l222 278l-222 220l10 78h355v-74h-256l220 -217l-222 -279l258 1v-79h-365z" />
    <glyph glyph-name="radical" unicode="&#x221a;" horiz-adv-x="515" 
d="M223 -10h-79l-88 314l77 41l44 -226l110 535h81z" />
    <glyph glyph-name="infinity" unicode="&#x221e;" horiz-adv-x="548" 
d="M392 270q-76 0 -118 58q-44 -57 -118 -58q-59 0 -103 39.5t-44 98.5q0 58 43.5 97t103.5 39q75 0 118 -57q43 56 118 57q59 0 103 -39t44 -97t-44 -98t-103 -40zM392 494q-36 0 -63 -25t-27 -60q0 -37 26.5 -61.5t63.5 -24.5t63.5 24.5t26.5 61.5t-26.5 61t-63.5 24z
M156 494q-36 0 -63 -25t-27 -60q0 -38 25.5 -61t64.5 -23t64.5 22.5t25.5 61.5q0 37 -26.5 61t-63.5 24z" />
    <glyph glyph-name="integral" unicode="&#x222b;" horiz-adv-x="310" 
d="M288 626q-25 19 -49 19q-38 0 -58 -32q-16 -27 -16 -66q0 -62 53.5 -234t53.5 -259q0 -198 -167 -197q-23 0 -83 19l19 84q47 -26 81 -19q55 10 55 130q0 55 -54 223t-54 254q0 182 171 182q38 0 87 -27z" />
    <glyph glyph-name="approxequal" unicode="&#x2248;" horiz-adv-x="548" 
d="M352 289q-23 0 -69 26.5t-64 26.5q-24 0 -50.5 -17.5t-40.5 -38.5l-25 64q18 22 55.5 39.5t64.5 17.5q31 0 76.5 -25t57.5 -25q35 0 66 34l28 -63q-14 -14 -45.5 -26.5t-53.5 -12.5zM352 84q-23 0 -67 26.5t-62 26.5q-25 0 -52.5 -17.5t-42.5 -38.5l-25 64
q18 22 55.5 39.5t64.5 17.5q31 0 76.5 -24.5t57.5 -24.5q35 0 66 33l28 -63q-14 -14 -45.5 -26.5t-53.5 -12.5z" />
    <glyph glyph-name="approxequal" unicode="&#x22f2;" horiz-adv-x="548" 
d="M352 289q-23 0 -69 26.5t-64 26.5q-24 0 -50.5 -17.5t-40.5 -38.5l-25 64q18 22 55.5 39.5t64.5 17.5q31 0 76.5 -25t57.5 -25q35 0 66 34l28 -63q-14 -14 -45.5 -26.5t-53.5 -12.5zM352 84q-23 0 -67 26.5t-62 26.5q-25 0 -52.5 -17.5t-42.5 -38.5l-25 64
q18 22 55.5 39.5t64.5 17.5q31 0 76.5 -24.5t57.5 -24.5q35 0 66 33l28 -63q-14 -14 -45.5 -26.5t-53.5 -12.5z" />
    <glyph glyph-name="notequal" unicode="&#x2260;" horiz-adv-x="451" 
d="M167 -15l-63 21l46 132h-98v67h120l31 89h-151v66h174l65 187l62 -22l-56 -165h101v-66h-125l-30 -89h155v-67h-178z" />
    <glyph glyph-name="lessequal" unicode="&#x2264;" horiz-adv-x="256" 
d="M115 290l135 -165l-74 -3l-157 171l157 166l74 -3zM22 35v41h226v-41h-226z" />
    <glyph glyph-name="greaterequal" unicode="&#x2265;" horiz-adv-x="256" 
d="M92 122l-72 3l134 165l-134 166l72 3l158 -166zM22 35v41h226v-41h-226z" />
    <glyph glyph-name="lozenge" unicode="&#x25ca;" horiz-adv-x="589" 
d="M282 87l-262 254l262 255l260 -255zM285 497l-160 -157l160 -156l159 156z" />
    <glyph glyph-name="apple" unicode="&#xf000;" horiz-adv-x="562" 
d="M333 587v57h73v69h60v-69h72v-57h-72v-70h-60v70h-73zM35 40v57h73v70h60v-70h73v-57h-73v-69h-60v69h-73zM169 223h35v-47h-35v47zM208 254h28v-21h-28v21zM239 291h92v-27h-92v27zM200 389h29v-85h-29v85zM400 462h-35v47h35v-47zM361 431h-27v21h27v-21zM331 394h-92
v27h92v-27zM370 296h-30v85h30v-85z" />
    <glyph glyph-name="fi" unicode="&#xf001;" horiz-adv-x="495" 
d="M359 0v501h83v-501h-83zM344 667q-48 31 -88 31q-43 1 -65 -44q-15 -35 -15 -83v-64h142v-67h-142v-440h-78v440h-80v67h80v67q0 71 30 122q41 70 127 70q46 0 71 -9q8 -4 57 -35z" />
    <glyph glyph-name="fl" unicode="&#xf002;" horiz-adv-x="506" 
d="M456 1h-83v615q-13 14 -43 38q-22 12 -74 14q-43 1 -65 -44q-16 -35 -15 -83q0 -22 1 -38h141v-68h-139l-1 -435h-80l1 434h-81v68h81v42q0 81 36 132q41 59 120 59q39 0 57.5 -5.5t53.5 -27.5l7 13h83v-714z" />
  </font>
</defs>
</svg>
