<?xml version="1.0" standalone="no"?>
<!DOCTYPE svg PUBLIC "-//W3C//DTD SVG 1.1//EN" "http://www.w3.org/Graphics/SVG/1.1/DTD/svg11.dtd" >
<svg xmlns="http://www.w3.org/2000/svg" xmlns:xlink="http://www.w3.org/1999/xlink" version="1.1">
<metadata>
Created by FontForge 20161013 at Fri Feb 10 01:43:12 2012
 By ,,,
Copyright (c) 2011, Pablo Impallari (www.impallari.com|impallari@gmail.com),Copyright (c) 2011, Igino Marini. (www.ikern.com|mail@iginomarini.com),Copyright (c) 2011, Brenda Gallo. (gbrenda1987@gmail.com),with Reserved Font Name Quattrocento Sans.
</metadata>
<defs>
<font id="QuattrocentoSans" horiz-adv-x="642" >
  <font-face 
    font-family="Quattrocento Sans"
    font-weight="400"
    font-stretch="normal"
    units-per-em="1000"
    panose-1="2 11 5 2 5 0 0 2 0 3"
    ascent="800"
    descent="-200"
    x-height="460"
    cap-height="660"
    bbox="-43 -260 1143 848"
    underline-thickness="48"
    underline-position="-143"
    unicode-range="U+000D-FB02"
  />
<missing-glyph horiz-adv-x="266" 
d="M65 243q0 27 19.5 48t48.5 21q13 0 25.5 -5.5t22 -15.5t15 -22.5t5.5 -25.5q0 -29 -21 -48t-47 -19q-29 0 -48.5 19t-19.5 48z" />
    <glyph glyph-name="fi" unicode="fi" horiz-adv-x="523" 
d="M102 413h-77v37l77 9q0 97 13 152.5t35 84.5q23 32 49.5 40.5t52.5 8.5q50 0 90 -16.5t67 -33.5l-34 -60q-45 28 -76 43t-60 15q-22 0 -35 -9.5t-20 -30.5t-9.5 -54t-2.5 -79v-60h108v-47h-108v-413h-70v413zM447 0h-70v460h70v-460z" />
    <glyph glyph-name="fl" unicode="fl" horiz-adv-x="537" 
d="M102 413h-77v37l77 9q0 54 5.5 93t14.5 67t19.5 46.5t21.5 30.5q25 29 51 39t49 10q10 0 26 -0.5t36.5 -3t44.5 -8t48 -14.5l35 21v-740h-70v665q-28 14 -65 21t-74 7q-16 0 -29.5 -9t-23 -29t-14.5 -53t-5 -82v-60h108v-47h-108v-413h-70v413z" />
    <glyph glyph-name=".notdef" horiz-adv-x="266" 
d="M65 243q0 27 19.5 48t48.5 21q13 0 25.5 -5.5t22 -15.5t15 -22.5t5.5 -25.5q0 -29 -21 -48t-47 -19q-29 0 -48.5 19t-19.5 48z" />
    <glyph glyph-name=".null" horiz-adv-x="0" 
 />
    <glyph glyph-name="nonmarkingreturn" unicode="&#xd;" horiz-adv-x="245" 
 />
    <glyph glyph-name="NULL" horiz-adv-x="0" 
 />
    <glyph glyph-name="NULL" horiz-adv-x="0" 
 />
    <glyph glyph-name="space" unicode=" " horiz-adv-x="245" 
 />
    <glyph glyph-name="exclam" unicode="!" horiz-adv-x="258" 
d="M83 35q0 19 13.5 33.5t33.5 14.5q18 0 32.5 -14.5t14.5 -33.5t-14.5 -32.5t-32.5 -13.5q-20 0 -33.5 13.5t-13.5 32.5zM105 150l-24 532h97l-26 -532h-47z" />
    <glyph glyph-name="quotedbl" unicode="&#x22;" horiz-adv-x="334" 
d="M80 516l-21 216h81l-24 -216h-36zM217 516l-21 216h81l-24 -216h-36z" />
    <glyph glyph-name="numbersign" unicode="#" horiz-adv-x="614" 
d="M456 446h121l-10 -52h-122l-26 -119h128l-10 -53h-129l-47 -222h-64l47 222h-126l-47 -222h-64l47 222h-116l10 53h117l26 119h-123l10 52h124l44 208h64l-44 -208h126l44 208h64zM229 275h126l26 119h-126z" />
    <glyph glyph-name="dollar" unicode="$" horiz-adv-x="529" 
d="M300 664q44 -3 83 -13t68 -24l-21 -77q-25 22 -60.5 33t-69.5 14v-219q35 -12 69 -27t60.5 -38t43 -56t16.5 -81q0 -46 -15 -79.5t-41 -56t-60.5 -34.5t-72.5 -16v-86h-60v85q-59 2 -109.5 17.5t-87.5 36.5l21 73q36 -25 75 -42.5t101 -19.5v259q-42 14 -75.5 30
t-57 37.5t-36 50t-12.5 67.5q0 40 13.5 70t38 50t57.5 31t72 14v87h60v-86zM412 162q0 26 -9.5 46t-25 35.5t-35.5 27t-42 20.5v-234q60 8 86 36.5t26 68.5zM132 501q0 -20 6.5 -35t19.5 -26.5t33.5 -21t48.5 -19.5v198q-51 -5 -79.5 -28t-28.5 -68z" />
    <glyph glyph-name="percent" unicode="%" horiz-adv-x="818" 
d="M186 665q35 0 62.5 -15t46 -40t28.5 -58.5t10 -70.5q0 -36 -10 -70t-29 -60t-47.5 -41.5t-64.5 -15.5q-35 0 -62 14.5t-45 39.5t-27 58.5t-9 70.5q0 39 10 73.5t29 60t46 40t62 14.5zM183 339q25 0 43 11t29.5 30t17 44.5t5.5 54.5q0 63 -23 102t-71 39q-49 0 -69 -38.5
t-20 -98.5q0 -72 23 -108t65 -36zM209 -24h-65l463 715h65zM634 364q35 0 62.5 -15t46 -40t28.5 -58.5t10 -70.5q0 -36 -10 -70t-29 -60t-47.5 -41.5t-64.5 -15.5q-35 0 -62 14.5t-45 39.5t-27 58.5t-9 70.5q0 39 10 73.5t29 60t46 40t62 14.5zM631 38q25 0 43 11t29.5 30
t17 44.5t5.5 54.5q0 63 -23 102t-71 39q-49 0 -69 -38.5t-20 -98.5q0 -72 23 -108t65 -36z" />
    <glyph glyph-name="ampersand" unicode="&#x26;" horiz-adv-x="701" 
d="M669 427v-62l-134 -12q31 -57 31 -118q0 -65 -34 -122l110 -113h-84l-64 65q-35 -35 -85.5 -56t-114.5 -21q-57 0 -100.5 15.5t-72.5 42t-43.5 60.5t-14.5 70q0 27 8.5 55.5t25 54.5t42 48t58.5 36q-29 34 -45 68t-16 78q0 37 11.5 64.5t32 46.5t47.5 28.5t57 9.5
q34 0 69.5 -11.5t69.5 -32.5l-20 -71q-23 22 -55 36t-62 14q-33 0 -56.5 -20.5t-23.5 -68.5q0 -33 13 -60t38 -53l228 -236q16 38 16 77q0 30 -8.5 56.5t-24.5 51.5l-50 -4v47zM303 54q48 0 84 15.5t62 41.5l-208 213q-47 -16 -74.5 -53t-27.5 -86q0 -32 12.5 -56t34 -41
t51.5 -25.5t66 -8.5z" />
    <glyph glyph-name="quotesingle" unicode="'" horiz-adv-x="197" 
d="M80 516l-21 216h81l-24 -216h-36z" />
    <glyph glyph-name="parenleft" unicode="(" horiz-adv-x="311" 
d="M290 758q-41 -46 -69.5 -94t-46.5 -100.5t-26 -111t-8 -125.5q0 -41 3.5 -90.5t18.5 -105t45 -115t82 -120.5l-37 -13q-96 86 -149 201t-53 243t53 242t149 202z" />
    <glyph glyph-name="parenright" unicode=")" horiz-adv-x="311" 
d="M59 771q96 -88 149 -202t53 -242t-53 -243t-149 -201l-37 13q52 61 82 120.5t45 115t18.5 105t3.5 90.5q0 67 -8 125.5t-26 111t-46.5 100.5t-69.5 94z" />
    <glyph glyph-name="asterisk" unicode="*" horiz-adv-x="439" 
d="M237 568l108 81l33 -58l-123 -54l123 -53l-32 -57l-109 79l15 -132h-65l14 132l-108 -79l-32 57l123 53l-123 54l33 58l107 -81l-14 134h66z" />
    <glyph glyph-name="plus" unicode="+" horiz-adv-x="497" 
d="M274 265h172v-52h-172v-172h-52v172h-171v52h171v162h52v-162z" />
    <glyph glyph-name="comma" unicode="," horiz-adv-x="243" 
d="M68 -78l39 73h-25v90h79v-105l-73 -77z" />
    <glyph glyph-name="hyphen" unicode="-" horiz-adv-x="486" 
d="M412 265v-52h-338v52h338z" />
    <glyph glyph-name="period" unicode="." horiz-adv-x="235" 
d="M71 35q0 19 13 33.5t33 14.5q19 0 33.5 -14.5t14.5 -33.5t-14.5 -32.5t-33.5 -13.5q-20 0 -33 13.5t-13 32.5z" />
    <glyph glyph-name="slash" unicode="/" horiz-adv-x="424" 
d="M111 -57h-75l278 759h75z" />
    <glyph glyph-name="zero" unicode="0" horiz-adv-x="649" 
d="M325 665q64 0 113.5 -27t83.5 -73.5t51.5 -107.5t17.5 -128q0 -66 -18 -127.5t-52.5 -109t-85.5 -76t-117 -28.5q-65 0 -113.5 27t-80.5 73t-48.5 106.5t-16.5 127.5q0 71 18 133.5t52 109t83.5 73.5t112.5 27zM320 54q49 0 85 21t59 58t34 86.5t11 106.5q0 61 -11.5 111
t-35 86t-58.5 56t-82 20q-48 0 -82.5 -19.5t-56 -55t-31.5 -84.5t-10 -108q0 -138 46.5 -208t131.5 -70z" />
    <glyph glyph-name="one" unicode="1" horiz-adv-x="317" 
d="M218 0h-75v526l-96 -46l-22 70l193 110v-660z" />
    <glyph glyph-name="two" unicode="2" horiz-adv-x="509" 
d="M56 616q19 10 43 19t49.5 16t52 10.5t50.5 3.5q43 0 79 -12t61.5 -33t39.5 -51t14 -66q0 -56 -31 -110t-77.5 -107.5t-101.5 -107.5t-103 -108h320v-70h-405v70q45 58 100 113.5t103 108.5t80 105t32 105q0 20 -5.5 37.5t-19 31t-35 21t-53.5 7.5q-22 0 -46.5 -3.5
t-48.5 -10.5t-45 -16t-35 -19z" />
    <glyph glyph-name="three" unicode="3" horiz-adv-x="535" 
d="M77 616q17 10 38.5 19t44.5 16t46 10.5t43 3.5q89 0 143 -43.5t54 -128.5q0 -42 -27.5 -77.5t-67.5 -56.5q60 -20 93.5 -60t33.5 -106q0 -42 -15 -79t-46 -65t-77 -44.5t-108 -16.5q-58 0 -107.5 16.5t-87.5 45.5l20 67q35 -29 78 -46t94 -17q81 0 123.5 37.5t42.5 109.5
q0 57 -38.5 90.5t-129.5 33.5h-27v57h31q63 0 97.5 32t34.5 87q0 44 -24 71t-84 27q-23 0 -46 -4t-44 -10.5t-39.5 -15.5t-30.5 -19z" />
    <glyph glyph-name="four" unicode="4" horiz-adv-x="508" 
d="M459 210h-69v-210h-75v210h-284v70l279 380h80v-380h69v-70zM315 280v271l-199 -271h199z" />
    <glyph glyph-name="five" unicode="5" horiz-adv-x="538" 
d="M77 317l37 348h339v-70h-276l-26 -213q31 7 65 11.5t63 4.5q45 0 83.5 -12.5t66 -36.5t43 -59.5t15.5 -81.5q0 -44 -15 -84t-45.5 -70t-76.5 -48t-108 -18q-58 0 -107.5 16.5t-87.5 45.5l21 70q37 -29 78 -47.5t97 -18.5q76 0 119 37.5t43 109.5q0 28 -7.5 51.5t-26 40
t-48.5 25.5t-75 9q-35 0 -72 -6t-70 -19z" />
    <glyph glyph-name="six" unicode="6" horiz-adv-x="551" 
d="M137 327q12 22 30 36t40 22.5t46 12t48 3.5q63 0 102 -21.5t60.5 -52.5t29.5 -66.5t8 -62.5q0 -36 -11.5 -73.5t-37 -68t-66 -49.5t-97.5 -19q-63 0 -106 22t-69.5 63t-38.5 98t-12 128q0 69 11.5 134.5t40 116.5t76.5 82.5t120 31.5q16 0 37 -2t43 -7.5t42.5 -15
t35.5 -23.5l-17 -66q-34 28 -72 38.5t-68 10.5q-52 0 -86.5 -21.5t-55 -56t-29 -78t-8.5 -86.5v-14.5t1 -14.5zM423 199q0 27 -6.5 52.5t-21 45t-39 31.5t-60.5 12q-75 0 -110 -42t-35 -105q0 -66 36 -105t102 -39q62 0 98 39.5t36 110.5z" />
    <glyph glyph-name="seven" unicode="7" horiz-adv-x="457" 
d="M80 0q-1 9 -1 19.5v19.5q0 63 26.5 138t67.5 150.5t91.5 145t97.5 122.5h-322v70h405v-70q-50 -50 -100 -121.5t-90 -149.5t-64.5 -153t-24.5 -131v-21t1 -19h-87z" />
    <glyph glyph-name="eight" unicode="8" horiz-adv-x="558" 
d="M379 362q58 -13 89.5 -60t31.5 -114q0 -42 -13 -78.5t-40.5 -63.5t-69.5 -42.5t-99 -15.5q-60 0 -102 16.5t-68 44t-38 63.5t-12 74q0 66 32 112t89 63v4q-35 13 -61.5 49t-26.5 91q0 72 49 116t139 44q88 0 138 -42.5t50 -114.5q0 -53 -25.5 -89.5t-62.5 -52.5v-4z
M417 181q0 28 -7.5 54.5t-24.5 47t-43.5 33t-63.5 12.5q-38 0 -64.5 -12.5t-43 -33t-24 -47t-7.5 -54.5q0 -63 35.5 -97.5t103.5 -34.5t103.5 34.5t35.5 97.5zM385 501q0 42 -23.5 71.5t-83.5 29.5q-59 0 -83 -28.5t-24 -72.5q0 -50 27.5 -81.5t79.5 -31.5t79.5 31.5
t27.5 81.5z" />
    <glyph glyph-name="nine" unicode="9" horiz-adv-x="552" 
d="M415 325q-12 -22 -30 -36t-40 -22.5t-46 -12t-48 -3.5q-63 0 -102 21.5t-60.5 52.5t-29.5 66.5t-8 62.5q0 36 11.5 73.5t37 68t66 49.5t97.5 19q63 0 106 -22t69.5 -63t38.5 -98.5t12 -127.5q0 -69 -11.5 -134.5t-40 -116.5t-76.5 -82.5t-120 -31.5q-16 0 -37 2t-43 7.5
t-42.5 15t-35.5 23.5l17 66q34 -28 72 -38.5t68 -10.5q52 0 86.5 21.5t55 56t29 78t8.5 86.5v14.5t-1 14.5zM129 453q0 -27 6.5 -52.5t21 -45t39 -31.5t60.5 -12q75 0 110 42t35 105q0 66 -36 105t-102 39q-62 0 -98 -39.5t-36 -110.5z" />
    <glyph glyph-name="colon" unicode=":" horiz-adv-x="242" 
d="M74 35q0 19 13 33.5t33 14.5q19 0 33.5 -14.5t14.5 -33.5t-14.5 -32.5t-33.5 -13.5q-20 0 -33 13.5t-13 32.5zM74 408q0 19 13 33t33 14q19 0 33.5 -14t14.5 -33q0 -20 -14.5 -33.5t-33.5 -13.5q-20 0 -33 13.5t-13 33.5z" />
    <glyph glyph-name="semicolon" unicode=";" horiz-adv-x="254" 
d="M83 408q0 19 13 33t33 14q19 0 33.5 -14t14.5 -33q0 -20 -14.5 -33.5t-33.5 -13.5q-20 0 -33 13.5t-13 33.5zM75 -78l39 73h-25v90h79v-105l-73 -77z" />
    <glyph glyph-name="less" unicode="&#x3c;" horiz-adv-x="408" 
d="M144 238l198 -133l-18 -64l-286 197v5l285 194l18 -63l-197 -131v-5z" />
    <glyph glyph-name="equal" unicode="=" horiz-adv-x="490" 
d="M414 189v-52h-338v52h338zM414 341v-52h-338v52h338z" />
    <glyph glyph-name="greater" unicode="&#x3e;" horiz-adv-x="408" 
d="M264 243l-197 131l18 63l285 -194v-5l-286 -197l-18 64l198 133v5z" />
    <glyph glyph-name="question" unicode="?" horiz-adv-x="412" 
d="M137 36q0 20 13.5 33.5t32.5 13.5t33.5 -13.5t14.5 -33.5q0 -19 -14.5 -33t-33.5 -14t-32.5 14t-13.5 33zM40 637q27 21 67 35t78 14q40 0 72.5 -12t55 -33t34.5 -51t12 -66q0 -30 -10.5 -56.5t-27 -53t-35 -53.5t-35 -58.5t-27.5 -68.5t-11 -83h-64q0 50 10 89
t25.5 70.5t33.5 57.5t33.5 50.5t25.5 50t10 56.5q0 40 -25.5 68t-77.5 28q-16 0 -34 -4t-35 -10.5t-32 -16t-25 -19.5z" />
    <glyph glyph-name="at" unicode="@" horiz-adv-x="723" 
d="M441 350q-6 6 -25 6q-33 0 -56.5 -18t-38.5 -44.5t-22 -57.5t-7 -56q0 -33 9 -48.5t23 -15.5q13 0 27.5 10.5t27.5 27t23.5 36.5t14.5 39zM578 -23q-10 -9 -31.5 -22.5t-51.5 -26t-67 -21t-78 -8.5q-60 0 -113 20t-93 56.5t-63.5 88.5t-23.5 116q0 57 20.5 121.5
t63.5 119.5t109.5 91t158.5 36q70 0 121.5 -22t85 -57t49.5 -79t16 -89q0 -44 -14.5 -85t-41.5 -72.5t-64.5 -50.5t-83.5 -19q-24 0 -38.5 5.5t-22 15t-10 23t-2.5 29.5q-17 -34 -42.5 -54t-51.5 -20q-15 0 -30 7.5t-27 22.5t-19.5 37.5t-7.5 52.5q0 45 17 81t44.5 61.5
t61.5 39.5t68 14q24 0 52.5 -8t45.5 -25l-37 -178q-2 -11 -3 -19.5t-1 -15.5q0 -14 6 -21t23 -7q26 0 47.5 15.5t37 41t24 58.5t8.5 67q0 37 -12 73.5t-37.5 65.5t-65.5 47t-97 18q-71 0 -125 -28.5t-90 -74.5t-54.5 -103t-18.5 -115q0 -62 19.5 -106t52.5 -72.5t76.5 -41.5
t91.5 -13q41 0 76 8.5t63 21t48 26.5t31 24v-50z" />
    <glyph glyph-name="A" unicode="A" 
d="M650 0h-85l-97 222h-295l-88 -222h-80l264 660h91zM201 292h236l-124 284z" />
    <glyph glyph-name="B" unicode="B" horiz-adv-x="559" 
d="M99 660q32 2 75 3.5t79 1.5q89 0 143 -43.5t54 -128.5q0 -40 -16.5 -72.5t-51.5 -55.5q60 -20 94 -63t34 -109q0 -42 -15 -79t-46 -65t-77 -44.5t-108 -16.5q-49 0 -91 3.5t-74 8.5v660zM261 54q81 0 123.5 37.5t42.5 109.5q0 57 -38.5 90.5t-129.5 33.5
q-22 0 -43.5 -0.5t-41.5 -1.5v-266q39 -3 87 -3zM235 382q63 0 97.5 32t34.5 87q0 44 -24 71t-84 27q-22 0 -43.5 -0.5t-41.5 -1.5v-214q14 -1 29.5 -1h31.5z" />
    <glyph glyph-name="C" unicode="C" 
d="M567 550q-32 21 -79 35t-107 14q-67 0 -113 -19.5t-74.5 -54.5t-41 -84.5t-12.5 -109.5q0 -137 60 -207t179 -70q63 0 116 18t85 44l20 -67q-40 -24 -96.5 -42.5t-127.5 -18.5q-82 0 -142 27t-99.5 73t-58.5 106.5t-19 128.5q0 71 21 133t62.5 108.5t103 73.5t143.5 27
q54 0 108 -11.5t93 -31.5z" />
    <glyph glyph-name="D" unicode="D" horiz-adv-x="704" 
d="M99 660h5q48 2 104 3.5t109 1.5q71 0 129.5 -20t99.5 -55q53 -48 77 -117t24 -150q0 -68 -19 -128.5t-58.5 -106.5t-99.5 -73t-142 -27q-71 0 -127.5 3.5t-101.5 8.5v660zM323 599q-40 0 -78.5 -0.5t-70.5 -2.5v-536q63 -6 151 -6q119 0 179 70t60 207q0 60 -12.5 109.5
t-41 84.5t-74.5 54.5t-113 19.5z" />
    <glyph glyph-name="E" unicode="E" horiz-adv-x="522" 
d="M481 0h-382v660h362v-70h-287v-205h220v-70h-220v-245h307v-70z" />
    <glyph glyph-name="F" unicode="F" horiz-adv-x="480" 
d="M383 315h-209v-315h-75v660h357v-70h-282v-205h209v-70z" />
    <glyph glyph-name="G" unicode="G" horiz-adv-x="672" 
d="M607 55q-45 -30 -102.5 -48.5t-128.5 -18.5q-82 0 -142 27t-99.5 73t-58.5 106.5t-19 128.5q0 71 21 133t62.5 108.5t103 73.5t143.5 27q58 0 113 -11.5t98 -31.5l-21 -72q-32 21 -82.5 35t-113.5 14q-67 0 -113 -19.5t-74.5 -54.5t-41 -84.5t-12.5 -109.5
q0 -137 60 -207t179 -70q44 0 82.5 9t70.5 23v186h75v-217z" />
    <glyph glyph-name="H" unicode="H" horiz-adv-x="704" 
d="M174 375h356v285h75v-660h-75v305h-356v-305h-75v660h75v-285z" />
    <glyph glyph-name="I" unicode="I" horiz-adv-x="273" 
d="M174 0h-75v660h75v-660z" />
    <glyph glyph-name="J" unicode="J" horiz-adv-x="272" 
d="M174 101q0 -53 -10.5 -99.5t-32 -81.5t-54 -55.5t-77.5 -20.5l-14 55q39 0 62 19t34 48.5t14 65.5t3 70v558h75v-559z" />
    <glyph glyph-name="K" unicode="K" horiz-adv-x="598" 
d="M174 348q28 19 50.5 38t51.5 47q49 48 99 107.5t92 119.5h86q-24 -35 -52.5 -71.5t-58.5 -72t-59.5 -67.5t-55.5 -58q-11 -11 -20.5 -20t-18.5 -17l306 -354h-93l-268 306l-59 -45v-261h-75v660h75v-312z" />
    <glyph glyph-name="L" unicode="L" horiz-adv-x="486" 
d="M469 0h-370v660h75v-590h295v-70z" />
    <glyph glyph-name="M" unicode="M" horiz-adv-x="843" 
d="M424 94l224 566h96v-660h-75v499l-202 -499h-90l-203 500v-500h-75v660h101z" />
    <glyph glyph-name="N" unicode="N" horiz-adv-x="704" 
d="M174 540v-540h-75v660h91l340 -541v541h75v-660h-91z" />
    <glyph glyph-name="O" unicode="O" horiz-adv-x="756" 
d="M378 665q78 0 138 -27t101 -73.5t62 -107.5t21 -128q0 -66 -20.5 -127.5t-62 -109t-103 -76t-143.5 -28.5q-80 0 -139 27t-98 73t-58.5 106.5t-19.5 127.5q0 71 21.5 133.5t62.5 109t101 73.5t137 27zM373 54q65 0 111.5 21t76 58t43.5 86.5t14 106.5q0 61 -14.5 111
t-44 86t-75.5 56t-109 20q-64 0 -109 -19.5t-73 -55t-41 -84.5t-13 -108q0 -138 60 -208t174 -70z" />
    <glyph glyph-name="P" unicode="P" horiz-adv-x="529" 
d="M99 660h4q32 2 71 3.5t74 1.5q54 0 98 -13.5t75.5 -40.5t49 -66.5t17.5 -91.5q0 -42 -14 -79t-42 -65t-71.5 -44.5t-101.5 -16.5q-48 0 -85 3v-251h-75v660zM254 599q-21 0 -41.5 -0.5t-38.5 -1.5v-280q36 -3 82 -3q74 0 111.5 37.5t37.5 109.5q0 31 -8 56.5t-25.5 43.5
t-46.5 28t-71 10z" />
    <glyph glyph-name="Q" unicode="Q" horiz-adv-x="759" 
d="M380 665q78 0 138 -27t101 -73.5t62 -107.5t21 -128q0 -64 -19.5 -124t-58 -106.5t-96.5 -76t-135 -33.5q35 -4 68.5 -16.5t67.5 -25.5t69 -23.5t73 -10.5q40 0 85 19l-19 -64q-19 -10 -38 -13t-36 -3q-42 0 -82 14t-77.5 30.5t-73 30.5t-68.5 14q-24 0 -58 -9t-65 -32
l-14 47q26 20 57 30t60 12q-72 5 -125 34t-88.5 74t-53 103t-17.5 122q0 71 21.5 133.5t62.5 109t101 73.5t137 27zM377 54q64 0 110.5 21t75.5 58t43 87.5t14 108.5q0 60 -14.5 109.5t-44.5 85t-76 55.5t-110 20q-63 0 -107.5 -19.5t-72.5 -55.5t-41 -85.5t-13 -109.5
q0 -136 60.5 -205.5t175.5 -69.5z" />
    <glyph glyph-name="R" unicode="R" horiz-adv-x="595" 
d="M99 660q35 2 74.5 3.5t74.5 1.5q54 0 98 -12.5t75.5 -36.5t49 -59.5t17.5 -81.5q0 -64 -36 -114t-111 -70l253 -291h-93l-247 282q-44 0 -80 3v-285h-75v660zM254 599q-21 0 -41.5 -0.5t-38.5 -1.5v-247q18 -2 38.5 -2h43.5q74 0 111.5 34.5t37.5 100.5q0 52 -33.5 84
t-117.5 32z" />
    <glyph glyph-name="S" unicode="S" horiz-adv-x="551" 
d="M138 501q0 -25 9.5 -41.5t30 -29.5t52 -24.5t75.5 -26.5q37 -12 73 -27.5t64.5 -38t45.5 -56t17 -81.5q0 -51 -20 -87t-53 -58.5t-76 -32.5t-89 -10q-65 0 -121 16t-97 39l21 73q19 -13 38 -24.5t41.5 -19.5t49.5 -13t62 -5q45 0 77 8t52 22.5t29 34.5t9 43
q0 34 -16 57.5t-41.5 40.5t-56 28.5t-60.5 21.5q-43 14 -78 30t-59.5 38t-38 51t-13.5 69q0 45 16.5 76.5t45 51.5t67.5 29.5t84 9.5q54 0 104 -11t85 -27l-21 -77q-16 14 -37.5 23.5t-45 15t-46.5 8t-43 2.5q-63 0 -99.5 -23.5t-36.5 -74.5z" />
    <glyph glyph-name="T" unicode="T" horiz-adv-x="533" 
d="M515 590h-211v-590h-75v590h-211v70h497v-70z" />
    <glyph glyph-name="U" unicode="U" horiz-adv-x="688" 
d="M167 256q0 -108 47.5 -155t131.5 -47t132 47t48 155v404h70v-438q0 -49 -15 -91.5t-46 -74t-78 -49.5t-111 -18q-70 0 -118.5 18t-78.5 49.5t-43.5 74t-13.5 91.5v438h75v-404z" />
    <glyph glyph-name="V" unicode="V" horiz-adv-x="644" 
d="M-7 660h85l251 -576l229 576h80l-262 -660h-95z" />
    <glyph glyph-name="W" unicode="W" horiz-adv-x="1081" 
d="M540 546l-186 -546h-95l-260 660h85l222 -565l193 565h85l205 -563l201 563h80l-235 -660h-95z" />
    <glyph glyph-name="X" unicode="X" horiz-adv-x="646" 
d="M320 285l-219 -285h-86l262 341l-247 319h89l206 -267l206 267h86l-249 -323l262 -337h-89z" />
    <glyph glyph-name="Y" unicode="Y" horiz-adv-x="566" 
d="M-11 660h89l209 -317l202 317h87l-255 -389v-271h-75v267z" />
    <glyph glyph-name="Z" unicode="Z" horiz-adv-x="554" 
d="M511 0h-468v70l368 520h-353v70h438v-70l-368 -520h383v-70z" />
    <glyph glyph-name="bracketleft" unicode="[" horiz-adv-x="286" 
d="M250 -95h-160v844h160v-42h-95v-760h95v-42z" />
    <glyph glyph-name="backslash" unicode="\" horiz-adv-x="422" 
d="M35 702h73l278 -759h-73z" />
    <glyph glyph-name="bracketright" unicode="]" horiz-adv-x="286" 
d="M36 749h160v-844h-160v42h95v760h-95v42z" />
    <glyph glyph-name="asciicircum" unicode="^" horiz-adv-x="348" 
d="M178 673l110 -99l3 -7l-6 -19l-7 -3l-104 61l-104 -61l-7 3l-6 19l3 7l110 99h8z" />
    <glyph glyph-name="underscore" unicode="_" horiz-adv-x="489" 
d="M461 0v-52h-433v52h433z" />
    <glyph glyph-name="grave" unicode="`" horiz-adv-x="219" 
d="M205 549l-201 77q-4 9 -4 19q0 14 9 24t26 11l181 -101l3 -7l-6 -20z" />
    <glyph glyph-name="a" unicode="a" horiz-adv-x="498" 
d="M370 0l-8 82h-4q-12 -19 -32 -36t-44.5 -30t-53 -20.5t-56.5 -7.5q-66 0 -99 38.5t-33 96.5q0 57 29 91t71 51t88.5 22t81.5 5h45v12q0 38 -10.5 58t-30.5 34q-17 11 -36.5 15.5t-51.5 4.5q-42 0 -74 -11t-62 -29l-16 60q67 39 160 39q37 0 70 -6.5t58 -22.5
q29 -18 46 -51t17 -82v-313h-55zM193 47q41 0 87 26t75 75v93h-9q-41 0 -82 -3t-74.5 -15t-54.5 -34.5t-21 -61.5t21.5 -59.5t57.5 -20.5z" />
    <glyph glyph-name="b" unicode="b" horiz-adv-x="575" 
d="M325 -12q-64 0 -110 28.5t-70 65.5h-4l-8 -82h-55v740h70v-366q13 43 57 72t109 29q53 0 93 -20t66.5 -53.5t40 -78.5t13.5 -94q0 -48 -12.5 -91.5t-37.5 -76.5t-63 -53t-89 -20zM317 47q38 0 64 16t42 41.5t23 57.5t7 64q0 42 -10.5 77t-29.5 60t-47 39t-62 14
q-53 0 -95.5 -32t-60.5 -89v-147q29 -48 75 -74.5t94 -26.5z" />
    <glyph glyph-name="c" unicode="c" horiz-adv-x="500" 
d="M437 376q-23 17 -66 30.5t-86 13.5q-44 0 -74.5 -15t-50.5 -40t-29 -57.5t-9 -67.5q0 -39 11 -75t32.5 -63t53 -43t73.5 -16q40 0 82.5 17t70.5 43l14 -65q-28 -18 -76.5 -34t-103.5 -16q-58 0 -101.5 20t-72 53.5t-43 78t-14.5 94.5q0 48 13.5 91.5t42.5 77t74 53
t108 19.5q48 0 94 -11t74 -29z" />
    <glyph glyph-name="d" unicode="d" horiz-adv-x="575" 
d="M250 -12q-51 0 -89 20t-63 53t-37.5 76.5t-12.5 91.5q0 49 13.5 94t40 78.5t66.5 53.5t93 20q67 0 110 -29t56 -72v366h70v-740h-55l-8 82h-4q-24 -37 -70 -65.5t-110 -28.5zM258 47q48 0 94.5 26t74.5 75v147q-18 57 -60.5 89t-95.5 32q-35 0 -62.5 -14t-46.5 -39
t-29.5 -60t-10.5 -77q0 -32 7 -64t23 -57.5t42 -41.5t64 -16z" />
    <glyph glyph-name="e" unicode="e" horiz-adv-x="517" 
d="M284 475q88 0 136 -44.5t48 -125.5q0 -17 -2 -34.5t-7 -25.5h-337v-10q0 -38 10 -73t30 -62t50.5 -43t72.5 -16q24 0 47 5.5t44 14t39 18.5t32 20l12 -57q-13 -8 -32 -17.5t-42 -17.5t-50.5 -13.5t-57.5 -5.5q-56 0 -99 19.5t-72 53t-44 77.5t-15 92q0 49 15.5 93.5
t45.5 78.5t74.5 53.5t101.5 19.5zM281 419q-66 0 -102.5 -34.5t-49.5 -86.5h273q1 5 1 9v9q0 25 -10 44.5t-27 32.5t-39 19.5t-46 6.5z" />
    <glyph glyph-name="f" unicode="f" horiz-adv-x="298" 
d="M102 413h-77v37l77 9q0 56 3.5 96t9.5 67.5t13.5 45t14.5 28.5q19 28 47 38.5t58 10.5q4 0 14 -0.5t22.5 -2t25.5 -5t25 -9.5l-17 -59q-3 0 -14 3.5t-24.5 8t-29 8.5t-27.5 4q-15 0 -25 -8.5t-15.5 -28t-8 -51.5t-2.5 -79v-66h108v-47h-108v-413h-70v413z" />
    <glyph glyph-name="g" unicode="g" horiz-adv-x="508" 
d="M141 142q-48 19 -69 60.5t-21 89.5q0 39 13 72t37.5 58t59 39t78.5 14q26 0 51.5 -5t44.5 -15q42 1 78.5 5t68.5 13l5 -4l-7 -55l-5 -5l-91 4l-1 -3q26 -21 38 -55t12 -66q0 -33 -12.5 -63t-36.5 -52.5t-59.5 -36t-81.5 -13.5q-11 0 -19 0.5t-15 0.5q-21 -7 -31.5 -19
t-10.5 -20q0 -10 13.5 -17.5t43.5 -10.5l97 -10q33 -3 61.5 -13.5t49.5 -27t33.5 -40t12.5 -53.5q0 -29 -13 -59.5t-39 -52.5t-72 -36t-106 -14q-51 0 -91.5 10.5t-68 29t-42 42.5t-14.5 51q0 20 8 39.5t21 36.5t30.5 30t36.5 20v4q-41 19 -41 52q0 21 15.5 38t38.5 33v4z
M243 174q28 0 49.5 9.5t36.5 25t23 36.5t8 44t-8 47t-23.5 43.5t-38.5 31.5t-53 12q-29 0 -50.5 -11.5t-36 -29.5t-21.5 -40t-7 -44q0 -23 7.5 -45t23 -39.5t38 -28.5t52.5 -11zM211 -5q-23 0 -42.5 -9t-34 -23t-23 -31.5t-8.5 -34.5q0 -38 40.5 -60.5t109.5 -22.5
q33 0 61.5 5.5t49 17t32.5 28t12 39.5q0 45 -48.5 64.5t-148.5 26.5z" />
    <glyph glyph-name="h" unicode="h" horiz-adv-x="545" 
d="M401 0v304q0 61 -27 86.5t-69 25.5q-25 0 -49.5 -8t-45.5 -23.5t-37 -38t-25 -51.5v-295h-70v740h70v-366q13 42 56.5 71.5t110.5 29.5q32 0 60.5 -8.5t49.5 -27.5t33.5 -50t12.5 -76v-313h-70z" />
    <glyph glyph-name="i" unicode="i" horiz-adv-x="226" 
d="M148 0h-70v460h70v-460zM63 628q0 20 14.5 36t35.5 16q20 0 36 -16t16 -36q0 -21 -16 -35.5t-36 -14.5q-21 0 -35.5 14.5t-14.5 35.5z" />
    <glyph glyph-name="j" unicode="j" horiz-adv-x="226" 
d="M148 -3q0 -51 -9.5 -97.5t-28.5 -81.5t-48 -55.5t-67 -20.5q-16 0 -22 3l-16 58q6 -3 22 -3q34 0 54 19.5t30 48.5t12.5 64t2.5 66v462h70v-463zM63 628q0 20 14.5 36t35.5 16q20 0 36 -16t16 -36q0 -21 -16 -35.5t-36 -14.5q-21 0 -35.5 14.5t-14.5 35.5z" />
    <glyph glyph-name="k" unicode="k" horiz-adv-x="474" 
d="M266 298l196 -298h-80l-165 250l-69 -69v-181h-70v740h70v-474l202 194h80z" />
    <glyph glyph-name="l" unicode="l" horiz-adv-x="238" 
d="M154 0h-70v740h70v-740z" />
    <glyph glyph-name="m" unicode="m" horiz-adv-x="859" 
d="M397 0v304q0 61 -28 86.5t-70 25.5q-51 0 -92 -31.5t-59 -89.5v-295h-70v460h55l8 -86h4q13 42 54.5 71.5t107.5 29.5q60 0 100.5 -26.5t51.5 -74.5q10 20 25 38t36 32t48 22.5t61 8.5q31 0 59.5 -8.5t50 -27.5t34.5 -50t13 -76v-313h-70v304q0 61 -28 86.5t-70 25.5
q-51 0 -92 -31.5t-59 -89.5v-295h-70z" />
    <glyph glyph-name="n" unicode="n" horiz-adv-x="545" 
d="M401 0v304q0 60 -27 86t-69 26q-25 0 -49.5 -8t-45.5 -23.5t-37 -38t-25 -51.5v-295h-70v460h55l8 -86h4q13 42 58 71.5t112 29.5q32 0 60.5 -8.5t49.5 -27.5t33.5 -50t12.5 -76v-313h-70z" />
    <glyph glyph-name="o" unicode="o" horiz-adv-x="561" 
d="M280 475q61 0 105 -20.5t72.5 -55t42 -79t13.5 -93.5t-13.5 -92.5t-41.5 -76t-71.5 -51.5t-102.5 -19q-61 0 -105.5 20t-73.5 53.5t-43 77.5t-14 93t14 93t42.5 77.5t72.5 53t103 19.5zM283 41q40 0 69.5 15t49 40.5t28.5 59t9 70.5q0 38 -9.5 73t-29.5 61.5t-50.5 42.5
t-72.5 16q-41 0 -70 -15t-48 -40t-28 -58.5t-9 -70.5q0 -38 9.5 -73t29 -62t50 -43t72.5 -16z" />
    <glyph glyph-name="p" unicode="p" horiz-adv-x="575" 
d="M325 475q51 0 89 -20t63 -53t37.5 -76.5t12.5 -91.5q0 -50 -13.5 -94.5t-40 -78t-66.5 -53.5t-93 -20q-67 0 -110 29t-56 72v-349h-70v720h55l8 -86h4q12 18 29.5 36.5t40.5 32.5t50.5 23t59.5 9zM307 416q-48 0 -89.5 -26t-69.5 -75v-147q9 -29 26 -51t39.5 -38t48 -24
t51.5 -8q35 0 61 14t43.5 39t26.5 58t9 71q0 36 -8.5 70t-26.5 60t-45.5 41.5t-65.5 15.5z" />
    <glyph glyph-name="q" unicode="q" horiz-adv-x="575" 
d="M247 475q33 0 61.5 -9t51 -23t40.5 -32t30 -37h4l8 86h55v-720h-70v349q-13 -43 -56 -72t-110 -29q-53 0 -93 20t-66.5 53.5t-40 78t-13.5 93.5q0 48 12.5 92t37.5 77t62 53t87 20zM268 416q-38 0 -65.5 -15.5t-45.5 -41.5t-26.5 -60t-8.5 -70q0 -38 9 -71t26.5 -58
t43.5 -39t61 -14q26 0 51.5 8t48 24t39.5 38t26 51v147q-28 49 -69.5 75t-89.5 26z" />
    <glyph glyph-name="r" unicode="r" horiz-adv-x="357" 
d="M326 386q-16 9 -32 14.5t-31 5.5q-20 0 -38 -11t-33 -30t-26.5 -44t-17.5 -52v-269h-70v460h55l8 -101h4q7 23 18.5 44t28 37t37.5 25.5t48 9.5q19 0 40 -6.5t30 -16.5z" />
    <glyph glyph-name="s" unicode="s" horiz-adv-x="441" 
d="M213 419q-48 0 -69.5 -17.5t-21.5 -47.5q0 -10 3 -21t11.5 -20.5t23 -18t38.5 -13.5l71 -16q42 -9 67.5 -24.5t39.5 -33.5t18.5 -36.5t4.5 -34.5q0 -31 -12.5 -58t-36 -47t-57.5 -31.5t-76 -11.5q-53 0 -98 15.5t-72 34.5l18 65q36 -33 80 -48t79 -15q50 0 76 24.5
t26 51.5q0 9 -1 20.5t-8 23.5t-21 22.5t-40 16.5l-96 24q-33 8 -54 21t-33 28.5t-17 33t-5 35.5q0 61 45.5 97.5t121.5 36.5q39 0 84 -10.5t76 -30.5l-19 -60q-20 17 -59.5 31t-86.5 14z" />
    <glyph glyph-name="t" unicode="t" horiz-adv-x="313" 
d="M99 413h-77v37l79 10l15 139h53v-139h108v-47h-108v-319q0 -32 9.5 -42t29.5 -10q23 0 41 7t32 17l14 -53q-17 -8 -44.5 -16t-60.5 -8q-32 0 -50 9t-27 24t-11.5 33.5t-2.5 36.5v321z" />
    <glyph glyph-name="u" unicode="u" horiz-adv-x="544" 
d="M143 460v-304q0 -31 7.5 -52t20 -33.5t30 -18t38.5 -5.5q25 0 49.5 7.5t45.5 22.5t37 37t25 51v295h70v-460h-55l-8 86h-4q-13 -42 -58 -70t-112 -28q-32 0 -60.5 8t-49.5 26.5t-33.5 49t-12.5 75.5v313h70z" />
    <glyph glyph-name="v" unicode="v" horiz-adv-x="521" 
d="M305 0h-89l-209 460h76l179 -394l179 394h73z" />
    <glyph glyph-name="w" unicode="w" horiz-adv-x="822" 
d="M632 0h-95l-125 360l-132 -360h-95l-169 460h74l144 -392l144 392h74l135 -392l153 392h71z" />
    <glyph glyph-name="x" unicode="x" horiz-adv-x="517" 
d="M259 285l145 175h85l-189 -223l199 -237h-85l-157 187l-154 -187h-85l198 235l-188 225h85z" />
    <glyph glyph-name="y" unicode="y" horiz-adv-x="519" 
d="M296 -4q-15 -32 -36 -75.5t-50 -82.5t-68 -66.5t-88 -27.5q-8 0 -12 0.5t-9 2.5l-13 66q3 -1 7 -2t14 -1q20 0 37.5 4t34.5 16q35 25 63.5 73t51.5 112l-230 445h83l183 -383l164 383h79z" />
    <glyph glyph-name="z" unicode="z" horiz-adv-x="417" 
d="M42 60l243 341h-233v59h314v-58l-245 -343h255v-59h-334v60z" />
    <glyph glyph-name="braceleft" unicode="{" horiz-adv-x="285" 
d="M242 739q-22 -2 -35 -11t-19.5 -22.5t-8.5 -31.5t-2 -37q0 -9 0.5 -28t0.5 -40t0.5 -41.5t0.5 -33.5q0 -31 -4.5 -58.5t-15 -49.5t-28.5 -37.5t-46 -21.5q28 -6 46 -21.5t28.5 -37.5t15 -49.5t4.5 -58.5q0 -13 -0.5 -33.5t-0.5 -41.5t-0.5 -40t-0.5 -28q0 -20 2 -37.5
t8.5 -31t19.5 -22.5t35 -11l-2 -21q-43 0 -69.5 10.5t-40.5 29t-19 44.5t-5 58q0 11 0.5 30t0.5 40.5t0.5 42.5t0.5 35q0 18 -1.5 40t-8 41t-21 32.5t-41.5 14.5v30q27 1 41.5 15t21.5 34t8 42t1 40q0 15 -0.5 35.5t-0.5 41.5t-0.5 39t-0.5 29q0 31 5 57.5t19 45t40.5 29
t69.5 10.5z" />
    <glyph glyph-name="bar" unicode="|" horiz-adv-x="240" 
d="M151 -114h-62v882h62v-882z" />
    <glyph glyph-name="braceright" unicode="}" horiz-adv-x="285" 
d="M45 760q43 0 69.5 -10.5t40.5 -29t19 -45t5 -57.5q0 -11 -0.5 -29t-0.5 -39t-0.5 -41.5t-0.5 -35.5q0 -18 1 -40t8 -42t21.5 -34t41.5 -15v-30q-27 -1 -41.5 -14.5t-21 -32.5t-8 -41t-1.5 -40q0 -14 0.5 -35t0.5 -42.5t0.5 -40.5t0.5 -30q0 -32 -5 -58t-19 -44.5
t-40.5 -29t-69.5 -10.5l-2 21q22 2 35 11t19.5 22.5t8.5 31t2 37.5q0 9 -0.5 28t-0.5 40t-0.5 41.5t-0.5 33.5q0 31 4.5 58.5t15 49.5t28.5 37.5t46 21.5q-28 6 -46 21.5t-28.5 37.5t-15 49.5t-4.5 58.5q0 13 0.5 33.5t0.5 41.5t0.5 40t0.5 28q0 19 -2 37t-8.5 31.5
t-19.5 22.5t-35 11z" />
    <glyph glyph-name="asciitilde" unicode="~" horiz-adv-x="496" 
d="M422 288q0 -3 -5 -15.5t-15.5 -26t-27 -24.5t-40.5 -11q-11 0 -36 1.5t-54.5 3t-57 3t-43.5 1.5q-25 0 -35 -6.5t-20 -18.5l-13 7q0 7 6 20t18 26t29 22t38 9q13 0 34.5 -1.5t46 -3t50.5 -3t48 -1.5q17 0 34.5 4t30.5 22z" />
    <glyph glyph-name="uni00A0" unicode="&#xa0;" horiz-adv-x="245" 
 />
    <glyph glyph-name="exclamdown" unicode="&#xa1;" horiz-adv-x="240" 
d="M74 429q0 19 13.5 32.5t33.5 13.5q18 0 32.5 -13.5t14.5 -32.5t-14.5 -33.5t-32.5 -14.5q-20 0 -33.5 14.5t-13.5 33.5zM143 314l26 -532h-97l24 532h47z" />
    <glyph glyph-name="cent" unicode="&#xa2;" horiz-adv-x="506" 
d="M317 443q40 -3 76.5 -13t59.5 -25l-17 -59q-19 14 -51.5 25t-67.5 16v-343q35 5 69.5 20.5t57.5 38.5l14 -65q-23 -15 -60 -29t-81 -19v-127h-60v126q-53 4 -92.5 23.5t-65.5 51t-39 71.5t-13 84q0 42 12 81t37.5 69.5t65.5 50t95 24.5v133h60v-134zM121 225
q0 -33 8.5 -63t26 -54t43 -40t58.5 -22v342q-36 -5 -62 -19.5t-42.5 -36.5t-24 -49.5t-7.5 -57.5z" />
    <glyph glyph-name="sterling" unicode="&#xa3;" horiz-adv-x="567" 
d="M181 51q31 -2 62.5 -8.5t63.5 -14t64 -13.5t65 -6q25 0 45.5 4.5t43.5 14.5l-19 -73q-25 -13 -42 -16.5t-39 -3.5q-36 0 -71 10.5t-69.5 22.5t-70 22.5t-74.5 10.5q-10 0 -37 -4.5t-55 -27.5l-14 47q39 17 66 42t43.5 55.5t24 65.5t7.5 71v15h-98v52h94q-5 46 -12 90
t-7 79q0 49 17 83t44.5 55.5t61.5 31t67 9.5q46 0 88 -14.5t68 -34.5l-18 -66q-20 20 -58 34.5t-78 14.5q-30 0 -49.5 -8.5t-31 -23.5t-16.5 -35.5t-5 -43.5q0 -34 6.5 -77.5t9.5 -93.5h139v-52h-137q-2 -51 -21.5 -107.5t-59.5 -103.5z" />
    <glyph glyph-name="currency" unicode="&#xa4;" horiz-adv-x="581" 
d="M136 107q-44 54 -44 123q0 32 10 61t35 60l-82 80l30 30l80 -79q32 23 61 33.5t63 10.5q35 0 64.5 -10.5t58.5 -33.5l81 78l30 -29l-79 -80q23 -31 33.5 -60t10.5 -63q0 -33 -10 -62t-33 -59l80 -80l-31 -30l-81 79q-29 -22 -59 -33.5t-63 -11.5q-32 0 -61.5 11t-62.5 34
l-80 -79l-29 30zM290 378q-30 0 -57 -11.5t-47.5 -31.5t-32 -47.5t-11.5 -58.5t11.5 -58t32 -47.5t47.5 -32t58 -11.5t57.5 11.5t46.5 32t31.5 47.5t11.5 58t-11.5 58t-31.5 47t-47 32t-58 12z" />
    <glyph glyph-name="yen" unicode="&#xa5;" horiz-adv-x="649" 
d="M288 255v12l-27 41h-145v52h111l-196 300h89l209 -317l202 317h87l-197 -300h114v-52h-148l-24 -37v-16h172v-52h-172v-203h-75v203h-172v52h172z" />
    <glyph glyph-name="brokenbar" unicode="&#xa6;" horiz-adv-x="244" 
d="M153 274v-388h-62v388h62zM91 380v388h62v-388h-62z" />
    <glyph glyph-name="section" unicode="&#xa7;" horiz-adv-x="440" 
d="M276 72q0 29 -17 52t-42.5 44t-55.5 42t-55.5 44.5t-42.5 52t-17 65.5q0 38 17.5 72.5t46.5 56.5q-12 27 -12 62q0 37 13.5 64.5t35 45.5t47.5 27t51 9q29 0 61 -11t54 -27l-25 -67q-18 20 -43.5 31t-50.5 11q-30 0 -53.5 -18.5t-23.5 -53.5q0 -29 17 -52t42.5 -44
t55.5 -42t55.5 -44.5t42.5 -52t17 -65.5q0 -38 -17.5 -73t-46.5 -56q5 -14 8.5 -29.5t3.5 -32.5q0 -37 -13.5 -64.5t-35 -45.5t-47.5 -27t-51 -9q-29 0 -61 11t-54 27l25 67q18 -20 43.5 -31t50.5 -11q30 0 53.5 18.5t23.5 53.5zM332 250q0 32 -22 57t-53 48.5t-65 48
t-58 56.5q-14 -13 -20 -30.5t-6 -33.5q0 -33 21.5 -58t52.5 -48t65 -48t59 -57q14 13 20 30.5t6 34.5z" />
    <glyph glyph-name="dieresis" unicode="&#xa8;" horiz-adv-x="220" 
d="M0 631q0 18 12 31.5t29 13.5t29.5 -13.5t12.5 -31.5q0 -19 -12.5 -31.5t-29.5 -12.5t-29 12.5t-12 31.5zM137 631q0 18 12 31.5t29 13.5t29.5 -13.5t12.5 -31.5q0 -19 -12.5 -31.5t-29.5 -12.5t-29 12.5t-12 31.5z" />
    <glyph glyph-name="copyright" unicode="&#xa9;" horiz-adv-x="725" 
d="M362 654q63 0 118.5 -23.5t96.5 -64.5t65 -95.5t24 -116.5q0 -63 -24 -118.5t-65.5 -96t-98 -64t-121.5 -23.5q-61 0 -115.5 24t-95 65t-64 96t-23.5 117t23.5 116.5t65 95.5t96.5 64.5t118 23.5zM362 613q-54 0 -101 -20t-81.5 -55.5t-54 -82.5t-19.5 -101
q0 -55 19.5 -102.5t54 -83t80 -55.5t98.5 -20q56 0 103.5 20t82.5 55t55 82.5t20 103.5q0 54 -20 101t-54.5 82.5t-81.5 55.5t-101 20zM468 442q-16 12 -46.5 21t-59.5 9q-28 0 -47.5 -9t-31.5 -24t-17.5 -35.5t-5.5 -43.5q0 -51 26.5 -87t79.5 -36q29 0 58.5 11.5
t49.5 30.5l9 -56q-20 -13 -54 -24t-72 -11q-41 0 -70.5 13.5t-49 36t-29 53t-9.5 65.5q0 34 9 64t28.5 52.5t50.5 35.5t75 13q33 0 65.5 -7.5t52.5 -20.5z" />
    <glyph glyph-name="ordfeminine" unicode="&#xaa;" horiz-adv-x="373" 
d="M258 369l-5 49h-4q-14 -23 -44.5 -40t-65.5 -17q-39 0 -59 23t-20 58q0 34 17.5 55t42.5 31.5t53 14t49 3.5h27v7q0 34 -21 50.5t-56 16.5q-26 0 -45 -6.5t-37 -17.5l-10 36q20 12 44 19t52 7q23 0 45 -5.5t39 -17.5t27.5 -31t10.5 -46v-189h-40zM152 402q24 0 52 16.5
t45 45.5v48h-5q-24 0 -48.5 -2t-44 -8.5t-31.5 -20t-12 -36.5t11 -33t33 -10z" />
    <glyph glyph-name="guillemotleft" unicode="&#xab;" horiz-adv-x="484" 
d="M121 238l144 -177h-80l-133 177v5l134 177h79l-144 -177v-5zM283 238l144 -177h-80l-133 177v5l134 177h79l-144 -177v-5z" />
    <glyph glyph-name="logicalnot" unicode="&#xac;" horiz-adv-x="632" 
d="M556 341v-224h-53v172h-427v52h480z" />
    <glyph glyph-name="uni00AD" unicode="&#xad;" horiz-adv-x="487" 
d="M412 265l-2 -52h-336l2 52h336z" />
    <glyph glyph-name="registered" unicode="&#xae;" horiz-adv-x="725" 
d="M362 654q63 0 118.5 -23.5t96.5 -64.5t65 -95.5t24 -116.5q0 -63 -24 -118.5t-65.5 -96t-98 -64t-121.5 -23.5q-61 0 -115.5 24t-95 65t-64 96t-23.5 117t23.5 116.5t65 95.5t96.5 64.5t118 23.5zM362 613q-54 0 -101 -20t-81.5 -55.5t-54 -82.5t-19.5 -101
q0 -55 19.5 -102.5t54 -83t80 -55.5t98.5 -20q56 0 103.5 20t82.5 55t55 82.5t20 103.5q0 54 -20 101t-54.5 82.5t-81.5 55.5t-101 20zM262 530q17 1 42 1.5t43 0.5q27 0 50 -4.5t39.5 -15t25.5 -28.5t9 -45q0 -31 -21 -55.5t-58 -34.5l101 -148h-55l-99 145h-29v-145h-48
v329zM349 494q-11 0 -20.5 -0.5t-18.5 -0.5v-111q9 -1 19 -1h21q33 0 52 16t19 46q0 23 -16.5 37t-55.5 14z" />
    <glyph glyph-name="degree" unicode="&#xb0;" horiz-adv-x="358" 
d="M178 658q61 0 92 -35t31 -83q0 -22 -7.5 -42t-22.5 -35.5t-38.5 -24.5t-54.5 -9q-32 0 -55 9.5t-37.5 25.5t-21.5 36.5t-7 42.5q0 24 8 44.5t23.5 36.5t38 25t51.5 9zM178 467q38 0 55.5 20.5t17.5 52.5t-18 54.5t-56 22.5q-39 0 -56 -21.5t-17 -51.5q0 -32 18.5 -54.5
t55.5 -22.5z" />
    <glyph glyph-name="plusminus" unicode="&#xb1;" horiz-adv-x="483" 
d="M267 351h134v-53h-134v-115h-52v115h-133v53h133v104h52v-104zM401 123v-53h-319v53h319z" />
    <glyph glyph-name="twosuperior" unicode="&#xb2;" horiz-adv-x="375" 
d="M80 616q23 21 51 35t57 14q53 0 81 -27t28 -70q0 -33 -15.5 -61.5t-40 -55.5t-55 -53.5t-60.5 -56.5h175v-42h-236v42q24 30 55 57.5t58.5 55t47 55.5t19.5 58q0 9 -2.5 19t-9 18.5t-17.5 14.5t-29 6q-26 0 -52.5 -15.5t-43.5 -37.5z" />
    <glyph glyph-name="threesuperior" unicode="&#xb3;" horiz-adv-x="357" 
d="M80 635q20 13 41.5 21.5t45.5 8.5q54 0 83 -24t29 -70q0 -22 -17 -40.5t-40 -29.5q35 -11 55.5 -32.5t20.5 -57.5q0 -23 -8 -44t-25.5 -37.5t-44 -26t-63.5 -9.5q-35 0 -56.5 10t-44.5 28l12 40q21 -17 39 -27.5t48 -10.5q49 0 71 22t22 60q0 30 -19.5 47.5t-74.5 17.5
h-12v34h15q37 0 54.5 16t17.5 45q0 22 -11 35.5t-47 13.5q-27 0 -46 -8.5t-34 -20.5z" />
    <glyph glyph-name="acute" unicode="&#xb4;" horiz-adv-x="219" 
d="M6 552l-6 20l3 7l180 101q17 -1 26.5 -11t9.5 -24q0 -10 -4 -19l-202 -77z" />
    <glyph glyph-name="mu" unicode="&#xb5;" horiz-adv-x="577" 
d="M186 460v-304q0 -31 7.5 -52t20 -33.5t30 -18t38.5 -5.5q25 0 49.5 7.5t45.5 22.5t37 37t25 51v295h70v-460h-55l-8 86h-4q-13 -42 -58 -70t-112 -28q-32 0 -61 8t-50 27l-3 -13q-17 -74 -54 -150l-64 29q18 34 32 64.5t23.5 61.5t15 63t5.5 69v313h70z" />
    <glyph glyph-name="paragraph" unicode="&#xb6;" horiz-adv-x="533" 
d="M285 248h-21q-59 0 -102 16.5t-71 44.5t-42 65t-14 79q0 52 17 91.5t48.5 66.5t76 40.5t98.5 13.5q35 0 75.5 -1.5t83.5 -3.5v-746h-45v685h-54v-685h-50v334z" />
    <glyph glyph-name="periodcentered" unicode="&#xb7;" horiz-adv-x="242" 
d="M74 243q0 19 13.5 33.5t33.5 14.5q18 0 32.5 -14.5t14.5 -33.5t-14.5 -32.5t-32.5 -13.5q-20 0 -33.5 13.5t-13.5 32.5z" />
    <glyph glyph-name="cedilla" unicode="&#xb8;" horiz-adv-x="202" 
d="M0 -178l13 23h7q12 -5 31 -8.5t38 -3.5q22 0 38 8.5t16 31.5q0 27 -15.5 36.5t-36.5 9.5q-12 0 -24.5 -2t-23.5 -5l-9 11l51 77h34l-30 -51q17 4 34 4q35 0 57 -20.5t22 -51.5q0 -17 -8.5 -32t-23 -26.5t-34.5 -18.5t-44 -7t-47.5 5.5t-43.5 13.5z" />
    <glyph glyph-name="onesuperior" unicode="&#xb9;" horiz-adv-x="248" 
d="M167 299h-54v286l-57 -28l-13 42l124 66v-366z" />
    <glyph glyph-name="ordmasculine" unicode="&#xba;" horiz-adv-x="390" 
d="M194 658q34 0 60 -12t44 -32.5t27 -47.5t9 -56q0 -27 -8.5 -52.5t-26 -45t-43.5 -31.5t-61 -12q-36 0 -62 12t-43 32.5t-25.5 46.5t-8.5 53q0 30 9.5 56t27.5 46t43.5 31.5t57.5 11.5zM195 410q47 0 67 28t20 72q0 43 -21.5 73.5t-68.5 30.5t-66 -28.5t-19 -71.5
q0 -44 21.5 -74t66.5 -30z" />
    <glyph glyph-name="guillemotright" unicode="&#xbb;" horiz-adv-x="484" 
d="M363 243l-144 177h79l134 -177v-5l-133 -177h-80l144 177v5zM201 243l-144 177h79l134 -177v-5l-133 -177h-80l144 177v5z" />
    <glyph glyph-name="onequarter" unicode="&#xbc;" horiz-adv-x="711" 
d="M668 110h-36v-111h-45v111h-150v42l147 213h48v-213h36v-42zM587 152v154l-99 -154h99zM144 -24h-65l463 715h65zM159 299h-54v286l-57 -28l-13 42l124 66v-366z" />
    <glyph glyph-name="onehalf" unicode="&#xbd;" horiz-adv-x="715" 
d="M161 299h-54v286l-57 -28l-13 42l124 66v-366zM126 -24h-65l463 715h65zM449 315q23 21 51 35t57 14q53 0 81 -27t28 -70q0 -33 -15.5 -61.5t-40 -55.5t-55 -53.5t-60.5 -56.5h175v-42h-236v42q24 30 55 57.5t58.5 55t47 55.5t19.5 58q0 9 -2.5 19t-9 18.5t-17.5 14.5
t-29 6q-26 0 -52.5 -15.5t-43.5 -37.5z" />
    <glyph glyph-name="threequarters" unicode="&#xbe;" horiz-adv-x="750" 
d="M61 634q20 13 41.5 21.5t45.5 8.5q54 0 83 -24t29 -70q0 -22 -17 -40.5t-40 -29.5q35 -11 55.5 -32.5t20.5 -57.5q0 -23 -8 -44t-25.5 -37.5t-44 -26t-63.5 -9.5q-35 0 -56.5 10t-44.5 28l12 40q21 -17 39 -27.5t48 -10.5q49 0 71 22t22 60q0 30 -19.5 47.5t-74.5 17.5
h-12v34h15q37 0 54.5 16t17.5 45q0 22 -11 35.5t-47 13.5q-27 0 -46 -8.5t-34 -20.5zM707 110h-36v-111h-45v111h-150v42l147 213h48v-213h36v-42zM626 152v154l-99 -154h99zM197 -24h-65l463 715h65z" />
    <glyph glyph-name="questiondown" unicode="&#xbf;" horiz-adv-x="402" 
d="M268 428q0 -20 -13.5 -33.5t-32.5 -13.5t-33.5 13.5t-14.5 33.5q0 19 14.5 33t33.5 14t32.5 -14t13.5 -33zM365 -173q-27 -21 -67 -35t-78 -14q-40 0 -72.5 12t-55 33t-34.5 51t-12 66q0 30 10.5 56.5t27 53t35 53.5t35 58.5t27.5 68.5t11 83h64q0 -50 -10 -89
t-25.5 -70.5t-33.5 -57.5t-33.5 -50.5t-25.5 -50.5t-10 -56q0 -40 25.5 -68t77.5 -28q16 0 34 4t35 10.5t31.5 15.5t25.5 20z" />
    <glyph glyph-name="Agrave" unicode="&#xc0;" 
d="M650 0h-85l-97 222h-295l-88 -222h-80l264 660h91zM201 292h236l-124 284zM419 718l-201 77q-4 9 -4 19q0 14 9 23.5t26 10.5l181 -100l2 -7l-5 -20z" />
    <glyph glyph-name="Aacute" unicode="&#xc1;" 
d="M650 0h-85l-97 222h-295l-88 -222h-80l264 660h91zM201 292h236l-124 284zM220 721l-6 20l3 7l180 100q17 -1 26 -10.5t9 -23.5q0 -5 -0.5 -9.5t-2.5 -9.5l-202 -77z" />
    <glyph glyph-name="Acircumflex" unicode="&#xc2;" 
d="M650 0h-85l-97 222h-295l-88 -222h-80l264 660h91zM201 292h236l-124 284zM330 842l110 -99l3 -7l-6 -20l-7 -3l-104 62l-104 -62l-7 3l-6 20l3 7l110 99h8z" />
    <glyph glyph-name="Atilde" unicode="&#xc3;" 
d="M650 0h-85l-97 222h-295l-88 -222h-80l264 660h91zM201 292h236l-124 284zM479 832q-3 -14 -9.5 -27.5t-17 -24.5t-25.5 -18t-36 -7q-40 0 -81.5 7t-73.5 7q-25 0 -35 -6.5t-20 -18.5l-13 8q4 13 11 27t17.5 24.5t26 17.5t36.5 7q25 0 43.5 -2t34.5 -5t31 -5t34 -2
q17 0 34 4t31 22z" />
    <glyph glyph-name="Adieresis" unicode="&#xc4;" 
d="M650 0h-85l-97 222h-295l-88 -222h-80l264 660h91zM201 292h236l-124 284zM204 794q0 18 12 31.5t29 13.5t29.5 -13.5t12.5 -31.5q0 -19 -12.5 -31.5t-29.5 -12.5t-29 12.5t-12 31.5zM361 794q0 18 12 31.5t29 13.5q16 0 28.5 -13.5t12.5 -31.5q0 -19 -12.5 -31.5
t-28.5 -12.5q-17 0 -29 12.5t-12 31.5z" />
    <glyph glyph-name="Aring" unicode="&#xc5;" 
d="M314 782q39 0 62.5 -24t23.5 -55q0 -19 -9.5 -34t-24.5 -24l284 -645h-85l-97 222h-295l-88 -222h-80l258 645q-17 9 -26.5 25t-9.5 35q0 31 24 54t63 23zM201 292h236l-124 284zM315 654q20 0 32.5 15t12.5 34q0 20 -13.5 34.5t-33.5 14.5q-22 0 -34.5 -13t-12.5 -33
t14.5 -36t34.5 -16z" />
    <glyph glyph-name="AE" unicode="&#xc6;" horiz-adv-x="759" 
d="M719 0h-332v222h-195l-117 -222h-82l352 660h354v-70h-237v-205h170v-70h-170v-245h257v-70zM387 292v296l-158 -296h158z" />
    <glyph glyph-name="Ccedilla" unicode="&#xc7;" 
d="M274 -178l13 23h7q12 -5 30.5 -8.5t38.5 -3.5q22 0 37.5 8.5t15.5 31.5q0 27 -15 36.5t-36 9.5q-12 0 -25 -2t-24 -5l-8 11l43 66q-75 4 -130.5 32.5t-92 74t-54 104t-17.5 123.5q0 71 21 133t62.5 108.5t103 73.5t143.5 27q54 0 108 -11.5t93 -31.5l-21 -72
q-32 21 -79 35t-107 14q-67 0 -113 -19.5t-74.5 -54.5t-41 -84.5t-12.5 -109.5q0 -137 60 -207t179 -70q63 0 116 18t85 44l20 -67q-38 -23 -92 -41t-121 -20l-24 -39q9 2 17.5 3t15.5 1q35 0 57 -20.5t22 -51.5q0 -17 -8 -32t-22.5 -26.5t-34.5 -18.5t-44 -7t-48 5.5
t-43 13.5z" />
    <glyph glyph-name="Egrave" unicode="&#xc8;" horiz-adv-x="522" 
d="M481 0h-382v660h362v-70h-287v-205h220v-70h-220v-245h307v-70zM373 718l-201 77q-4 9 -4 19q0 14 9 23.5t26 10.5l181 -100l3 -7l-6 -20z" />
    <glyph glyph-name="Eacute" unicode="&#xc9;" horiz-adv-x="522" 
d="M481 0h-382v660h362v-70h-287v-205h220v-70h-220v-245h307v-70zM184 721l-6 20l3 7l181 100q17 -1 26 -10.5t9 -23.5q0 -10 -4 -19l-202 -77z" />
    <glyph glyph-name="Ecircumflex" unicode="&#xca;" horiz-adv-x="522" 
d="M481 0h-382v660h362v-70h-287v-205h220v-70h-220v-245h307v-70zM291 842l110 -99l3 -7l-6 -20l-7 -3l-104 62l-104 -62l-7 3l-6 20l3 7l110 99h8z" />
    <glyph glyph-name="Edieresis" unicode="&#xcb;" horiz-adv-x="522" 
d="M481 0h-382v660h362v-70h-287v-205h220v-70h-220v-245h307v-70zM315 794q0 18 12 31.5t29 13.5t29.5 -13.5t12.5 -31.5q0 -19 -12.5 -31.5t-29.5 -12.5t-29 12.5t-12 31.5zM158 794q0 18 12 31.5t29 13.5t29.5 -13.5t12.5 -31.5q0 -19 -12.5 -31.5t-29.5 -12.5t-29 12.5
t-12 31.5z" />
    <glyph glyph-name="Igrave" unicode="&#xcc;" horiz-adv-x="273" 
d="M221 718l-202 77q-4 9 -4 19q0 14 9 23.5t26 10.5l181 -100l3 -7l-6 -20zM174 0h-75v660h75v-660z" />
    <glyph glyph-name="Iacute" unicode="&#xcd;" horiz-adv-x="273" 
d="M41 721l-6 20l3 7l181 100q17 -1 26 -10.5t9 -23.5q0 -10 -4 -19l-201 -77zM174 0h-75v660h75v-660z" />
    <glyph glyph-name="Icircumflex" unicode="&#xce;" horiz-adv-x="273" 
d="M138 842l111 -99l3 -7l-6 -20l-8 -3l-103 62l-104 -62l-8 3l-5 20l3 7l110 99h7zM174 0h-75v660h75v-660z" />
    <glyph glyph-name="Idieresis" unicode="&#xcf;" horiz-adv-x="273" 
d="M19 794q0 18 12 31.5t29 13.5t29.5 -13.5t12.5 -31.5q0 -19 -12.5 -31.5t-29.5 -12.5t-29 12.5t-12 31.5zM176 794q0 18 12 31.5t29 13.5t29.5 -13.5t12.5 -31.5q0 -19 -12.5 -31.5t-29.5 -12.5t-29 12.5t-12 31.5zM174 0h-75v660h75v-660z" />
    <glyph glyph-name="Eth" unicode="&#xd0;" horiz-adv-x="706" 
d="M14 326v44h87v290h5q48 2 104 3.5t109 1.5q71 0 129.5 -20t99.5 -55q53 -48 77 -117t24 -150q0 -68 -19 -128.5t-58.5 -106.5t-99.5 -73t-142 -27q-71 0 -127.5 3.5t-101.5 8.5v326h-87zM351 370v-44h-175v-266q63 -6 151 -6q119 0 179 70t60 207q0 60 -12.5 109.5
t-41 84.5t-74.5 54.5t-113 19.5q-40 0 -78.5 -0.5t-70.5 -2.5v-226h175z" />
    <glyph glyph-name="Ntilde" unicode="&#xd1;" horiz-adv-x="704" 
d="M530 117v543h75v-660h-85l-346 542v-542h-75v660h85zM494 832q-3 -14 -9.5 -27.5t-17 -24.5t-25.5 -18t-36 -7q-40 0 -81.5 7t-73.5 7q-25 0 -35 -6.5t-20 -18.5l-13 8q4 13 11 27t17.5 24.5t26 17.5t36.5 7q25 0 43.5 -2t34.5 -5t31 -5t34 -2q17 0 34 4t31 22z" />
    <glyph glyph-name="Ograve" unicode="&#xd2;" horiz-adv-x="756" 
d="M445 718l-201 77q-4 9 -4 19q0 14 9 23.5t26 10.5l180 -100l3 -7l-5 -20zM378 665q78 0 138 -27t101 -73.5t62 -107.5t21 -128q0 -66 -20.5 -127.5t-62 -109t-103 -76t-143.5 -28.5q-80 0 -139 27t-98 73t-58.5 106.5t-19.5 127.5q0 71 21.5 133.5t62.5 109t101 73.5
t137 27zM373 54q65 0 111.5 21t76 58t43.5 86.5t14 106.5q0 61 -14.5 111t-44 86t-75.5 56t-109 20q-64 0 -109 -19.5t-73 -55t-41 -84.5t-13 -108q0 -138 60 -208t174 -70z" />
    <glyph glyph-name="Oacute" unicode="&#xd3;" horiz-adv-x="756" 
d="M312 721l-5 20l3 7l180 100q17 -1 26 -10.5t9 -23.5q0 -9 -3 -19l-202 -77zM378 665q78 0 138 -27t101 -73.5t62 -107.5t21 -128q0 -66 -20.5 -127.5t-62 -109t-103 -76t-143.5 -28.5q-80 0 -139 27t-98 73t-58.5 106.5t-19.5 127.5q0 71 21.5 133.5t62.5 109t101 73.5
t137 27zM373 54q65 0 111.5 21t76 58t43.5 86.5t14 106.5q0 61 -14.5 111t-44 86t-75.5 56t-109 20q-64 0 -109 -19.5t-73 -55t-41 -84.5t-13 -108q0 -138 60 -208t174 -70z" />
    <glyph glyph-name="Ocircumflex" unicode="&#xd4;" horiz-adv-x="756" 
d="M392 842l110 -99l3 -7l-6 -20l-7 -3l-104 62l-104 -62l-7 3l-6 20l3 7l110 99h8zM378 665q78 0 138 -27t101 -73.5t62 -107.5t21 -128q0 -66 -20.5 -127.5t-62 -109t-103 -76t-143.5 -28.5q-80 0 -139 27t-98 73t-58.5 106.5t-19.5 127.5q0 71 21.5 133.5t62.5 109
t101 73.5t137 27zM373 54q65 0 111.5 21t76 58t43.5 86.5t14 106.5q0 61 -14.5 111t-44 86t-75.5 56t-109 20q-64 0 -109 -19.5t-73 -55t-41 -84.5t-13 -108q0 -138 60 -208t174 -70z" />
    <glyph glyph-name="Otilde" unicode="&#xd5;" horiz-adv-x="756" 
d="M535 832q-3 -14 -9.5 -27.5t-17 -24.5t-25.5 -18t-36 -7q-40 0 -81.5 7t-73.5 7q-25 0 -35 -6.5t-20 -18.5l-13 8q4 13 11 27t17.5 24.5t26 17.5t36.5 7q25 0 43.5 -2t34.5 -5t31 -5t34 -2q17 0 34 4t31 22zM378 665q78 0 138 -27t101 -73.5t62 -107.5t21 -128
q0 -66 -20.5 -127.5t-62 -109t-103 -76t-143.5 -28.5q-80 0 -139 27t-98 73t-58.5 106.5t-19.5 127.5q0 71 21.5 133.5t62.5 109t101 73.5t137 27zM373 54q65 0 111.5 21t76 58t43.5 86.5t14 106.5q0 61 -14.5 111t-44 86t-75.5 56t-109 20q-64 0 -109 -19.5t-73 -55
t-41 -84.5t-13 -108q0 -138 60 -208t174 -70z" />
    <glyph glyph-name="Odieresis" unicode="&#xd6;" horiz-adv-x="756" 
d="M259 794q0 18 12 31.5t29 13.5t29.5 -13.5t12.5 -31.5q0 -19 -12.5 -31.5t-29.5 -12.5t-29 12.5t-12 31.5zM416 794q0 18 12 31.5t29 13.5t29.5 -13.5t12.5 -31.5q0 -19 -12.5 -31.5t-29.5 -12.5t-29 12.5t-12 31.5zM378 665q78 0 138 -27t101 -73.5t62 -107.5t21 -128
q0 -66 -20.5 -127.5t-62 -109t-103 -76t-143.5 -28.5q-80 0 -139 27t-98 73t-58.5 106.5t-19.5 127.5q0 71 21.5 133.5t62.5 109t101 73.5t137 27zM373 54q65 0 111.5 21t76 58t43.5 86.5t14 106.5q0 61 -14.5 111t-44 86t-75.5 56t-109 20q-64 0 -109 -19.5t-73 -55
t-41 -84.5t-13 -108q0 -138 60 -208t174 -70z" />
    <glyph glyph-name="multiply" unicode="&#xd7;" horiz-adv-x="458" 
d="M228 202l-120 -121l-37 37l120 121l-120 120l37 37l120 -120l122 121l37 -37l-122 -121l122 -122l-37 -37z" />
    <glyph glyph-name="Oslash" unicode="&#xd8;" horiz-adv-x="756" 
d="M130 93q-37 46 -55 104.5t-18 124.5q0 71 21.5 133.5t62.5 109t101 73.5t137 27q56 0 102.5 -14t83.5 -40l65 76l51 -39l-67 -80q43 -47 65 -108.5t22 -130.5q0 -66 -20.5 -127.5t-62 -109t-103 -76t-143.5 -28.5q-61 0 -109.5 15.5t-86.5 44.5l-70 -83l-48 43zM374 54
q65 0 111.5 21t76 58t43.5 86.5t14 106.5q0 116 -51 188l-346 -412q57 -48 152 -48zM140 332q0 -112 40 -179l342 406q-57 40 -146 40q-64 0 -109 -19.5t-73 -55t-41 -84.5t-13 -108z" />
    <glyph glyph-name="Ugrave" unicode="&#xd9;" horiz-adv-x="688" 
d="M426 718l-201 77q-4 9 -4 19q0 14 9 23.5t26 10.5l181 -100l2 -7l-5 -20zM167 256q0 -108 47.5 -155t131.5 -47t132 47t48 155v404h70v-438q0 -49 -15 -91.5t-46 -74t-78 -49.5t-111 -18q-70 0 -118.5 18t-78.5 49.5t-43.5 74t-13.5 91.5v438h75v-404z" />
    <glyph glyph-name="Uacute" unicode="&#xda;" horiz-adv-x="688" 
d="M255 721l-6 20l3 7l181 100q17 -1 26 -10.5t9 -23.5q0 -10 -4 -19l-201 -77zM167 256q0 -108 47.5 -155t131.5 -47t132 47t48 155v404h70v-438q0 -49 -15 -91.5t-46 -74t-78 -49.5t-111 -18q-70 0 -118.5 18t-78.5 49.5t-43.5 74t-13.5 91.5v438h75v-404z" />
    <glyph glyph-name="Ucircumflex" unicode="&#xdb;" horiz-adv-x="688" 
d="M344 842l111 -99l2 -7l-5 -20l-8 -3l-103 62l-104 -62l-8 3l-5 20l2 7l111 99h7zM167 256q0 -108 47.5 -155t131.5 -47t132 47t48 155v404h70v-438q0 -49 -15 -91.5t-46 -74t-78 -49.5t-111 -18q-70 0 -118.5 18t-78.5 49.5t-43.5 74t-13.5 91.5v438h75v-404z" />
    <glyph glyph-name="Udieresis" unicode="&#xdc;" horiz-adv-x="688" 
d="M236 794q0 18 12 31.5t29 13.5t29.5 -13.5t12.5 -31.5q0 -19 -12.5 -31.5t-29.5 -12.5t-29 12.5t-12 31.5zM393 794q0 18 12 31.5t29 13.5t29.5 -13.5t12.5 -31.5q0 -19 -12.5 -31.5t-29.5 -12.5t-29 12.5t-12 31.5zM167 256q0 -108 47.5 -155t131.5 -47t132 47t48 155
v404h70v-438q0 -49 -15 -91.5t-46 -74t-78 -49.5t-111 -18q-70 0 -118.5 18t-78.5 49.5t-43.5 74t-13.5 91.5v438h75v-404z" />
    <glyph glyph-name="Yacute" unicode="&#xdd;" horiz-adv-x="566" 
d="M220 721l-5 20l3 7l180 100q17 -1 26 -10.5t9 -23.5q0 -9 -3 -19l-202 -77zM-11 660h89l209 -317l202 317h87l-255 -389v-271h-75v267z" />
    <glyph glyph-name="Thorn" unicode="&#xde;" horiz-adv-x="519" 
d="M169 533q20 1 40 1.5t33 0.5q108 0 171.5 -51.5t63.5 -148.5q0 -41 -12.5 -76.5t-40 -62.5t-71.5 -42.5t-106 -15.5q-14 0 -36 0.5t-42 2.5v-141h-70v660h70v-127zM244 469q-13 0 -34.5 -0.5t-40.5 -1.5v-259q19 -2 40.5 -3t33.5 -1q78 0 114.5 33.5t36.5 103.5
q0 30 -7.5 53.5t-25 40t-46 25.5t-71.5 9z" />
    <glyph glyph-name="germandbls" unicode="&#xdf;" horiz-adv-x="544" 
d="M148 0h-70v486q0 56 11.5 102t35 79t58 51t80.5 18q37 0 67 -11.5t51 -30t32.5 -43t11.5 -50.5q0 -34 -16 -62.5t-35 -54t-35 -49t-16 -45.5q0 -21 14 -36.5t35 -30.5t45 -31t45 -37.5t35 -49.5t14 -67q0 -41 -15.5 -69.5t-38 -46.5t-49 -26t-48.5 -8q-33 0 -61 13.5
t-46 30.5l20 71q15 -30 41 -46.5t53 -16.5q29 0 49.5 21.5t20.5 65.5q0 35 -13.5 59t-33.5 41.5t-43 32t-43 31t-33.5 38t-13.5 54.5q0 35 14.5 62t32 51t32 48t14.5 52q0 32 -22.5 55.5t-68.5 23.5q-36 0 -58 -16t-34 -42t-15.5 -60.5t-3.5 -70.5v-486z" />
    <glyph glyph-name="agrave" unicode="&#xe0;" horiz-adv-x="498" 
d="M310 549l-202 77q-3 10 -3 19q0 14 9 24t26 11l180 -101l3 -7l-5 -20zM370 0l-8 82h-4q-12 -19 -32 -36t-44.5 -30t-53 -20.5t-56.5 -7.5q-66 0 -99 38.5t-33 96.5q0 57 29 91t71 51t88.5 22t81.5 5h45v12q0 38 -10.5 58t-30.5 34q-17 11 -36.5 15.5t-51.5 4.5
q-42 0 -74 -11t-62 -29l-16 60q67 39 160 39q37 0 70 -6.5t58 -22.5q29 -18 46 -51t17 -82v-313h-55zM193 47q41 0 87 26t75 75v93h-9q-41 0 -82 -3t-74.5 -15t-54.5 -34.5t-21 -61.5t21.5 -59.5t57.5 -20.5z" />
    <glyph glyph-name="aacute" unicode="&#xe1;" horiz-adv-x="498" 
d="M185 552l-6 20l3 7l180 101q17 -1 26.5 -11t9.5 -24q0 -10 -4 -19l-202 -77zM370 0l-8 82h-4q-12 -19 -32 -36t-44.5 -30t-53 -20.5t-56.5 -7.5q-66 0 -99 38.5t-33 96.5q0 57 29 91t71 51t88.5 22t81.5 5h45v12q0 38 -10.5 58t-30.5 34q-17 11 -36.5 15.5t-51.5 4.5
q-42 0 -74 -11t-62 -29l-16 60q67 39 160 39q37 0 70 -6.5t58 -22.5q29 -18 46 -51t17 -82v-313h-55zM193 47q41 0 87 26t75 75v93h-9q-41 0 -82 -3t-74.5 -15t-54.5 -34.5t-21 -61.5t21.5 -59.5t57.5 -20.5z" />
    <glyph glyph-name="acircumflex" unicode="&#xe2;" horiz-adv-x="498" 
d="M244 673l110 -99l3 -7l-6 -19l-7 -3l-104 61l-103 -61l-8 3l-6 19l3 7l110 99h8zM370 0l-8 82h-4q-12 -19 -32 -36t-44.5 -30t-53 -20.5t-56.5 -7.5q-66 0 -99 38.5t-33 96.5q0 57 29 91t71 51t88.5 22t81.5 5h45v12q0 38 -10.5 58t-30.5 34q-17 11 -36.5 15.5t-51.5 4.5
q-42 0 -74 -11t-62 -29l-16 60q67 39 160 39q37 0 70 -6.5t58 -22.5q29 -18 46 -51t17 -82v-313h-55zM193 47q41 0 87 26t75 75v93h-9q-41 0 -82 -3t-74.5 -15t-54.5 -34.5t-21 -61.5t21.5 -59.5t57.5 -20.5z" />
    <glyph glyph-name="atilde" unicode="&#xe3;" horiz-adv-x="498" 
d="M406 668q0 -3 -5 -15.5t-15.5 -26t-27 -24.5t-40.5 -11q-11 0 -31.5 1.5t-44 3t-46.5 3t-39 1.5q-25 0 -35 -6.5t-20 -18.5l-13 8q0 7 6 20t18 25.5t29 21.5t38 9q26 0 65.5 -4.5t83.5 -4.5q17 0 34 4t31 22zM370 0l-8 82h-4q-12 -19 -32 -36t-44.5 -30t-53 -20.5
t-56.5 -7.5q-66 0 -99 38.5t-33 96.5q0 57 29 91t71 51t88.5 22t81.5 5h45v12q0 38 -10.5 58t-30.5 34q-17 11 -36.5 15.5t-51.5 4.5q-42 0 -74 -11t-62 -29l-16 60q67 39 160 39q37 0 70 -6.5t58 -22.5q29 -18 46 -51t17 -82v-313h-55zM193 47q41 0 87 26t75 75v93h-9
q-41 0 -82 -3t-74.5 -15t-54.5 -34.5t-21 -61.5t21.5 -59.5t57.5 -20.5z" />
    <glyph glyph-name="adieresis" unicode="&#xe4;" horiz-adv-x="498" 
d="M130 626q0 18 12 31.5t29 13.5q16 0 28.5 -13.5t12.5 -31.5q0 -19 -12.5 -31.5t-28.5 -12.5q-17 0 -29 12.5t-12 31.5zM287 626q0 18 11.5 31.5t28.5 13.5t29.5 -13.5t12.5 -31.5q0 -19 -12.5 -31.5t-29.5 -12.5t-28.5 12.5t-11.5 31.5zM370 0l-8 82h-4q-12 -19 -32 -36
t-44.5 -30t-53 -20.5t-56.5 -7.5q-66 0 -99 38.5t-33 96.5q0 57 29 91t71 51t88.5 22t81.5 5h45v12q0 38 -10.5 58t-30.5 34q-17 11 -36.5 15.5t-51.5 4.5q-42 0 -74 -11t-62 -29l-16 60q67 39 160 39q37 0 70 -6.5t58 -22.5q29 -18 46 -51t17 -82v-313h-55zM193 47
q41 0 87 26t75 75v93h-9q-41 0 -82 -3t-74.5 -15t-54.5 -34.5t-21 -61.5t21.5 -59.5t57.5 -20.5z" />
    <glyph glyph-name="aring" unicode="&#xe5;" horiz-adv-x="498" 
d="M254 683q39 0 61 -23.5t22 -51.5q0 -26 -21 -48t-61 -22q-21 0 -36.5 6.5t-26 17t-15.5 23t-5 25.5q0 28 22 50.5t60 22.5zM255 562q20 0 32 14.5t12 31.5q0 18 -12.5 34.5t-33.5 16.5t-32.5 -15.5t-11.5 -32.5q0 -18 13 -33.5t33 -15.5zM370 0l-8 82h-4q-12 -19 -32 -36
t-44.5 -30t-53 -20.5t-56.5 -7.5q-66 0 -99 38.5t-33 96.5q0 57 29 91t71 51t88.5 22t81.5 5h45v12q0 38 -10.5 58t-30.5 34q-17 11 -36.5 15.5t-51.5 4.5q-42 0 -74 -11t-62 -29l-16 60q67 39 160 39q37 0 70 -6.5t58 -22.5q29 -18 46 -51t17 -82v-313h-55zM193 47
q41 0 87 26t75 75v93h-9q-41 0 -82 -3t-74.5 -15t-54.5 -34.5t-21 -61.5t21.5 -59.5t57.5 -20.5z" />
    <glyph glyph-name="ae" unicode="&#xe6;" horiz-adv-x="819" 
d="M407 396q29 34 76 56.5t104 22.5q88 0 136 -44.5t48 -125.5q0 -17 -2 -34.5t-7 -25.5h-337v-18q1 -37 11 -71t30.5 -59.5t50.5 -40.5t71 -15q48 0 90.5 17t70.5 37l13 -53q-13 -8 -32 -17.5t-42 -17.5t-50.5 -13.5t-57.5 -5.5q-67 0 -115 27.5t-77 72.5h-4
q-40 -55 -97.5 -77.5t-114.5 -22.5q-66 0 -99 38.5t-33 96.5q0 57 29 91t71 51t88.5 22t81.5 5h45v12q0 38 -10.5 58t-30.5 34q-17 11 -36.5 15.5t-51.5 4.5q-42 0 -74 -11t-62 -29l-16 60q67 39 160 39q37 0 70 -6.5t58 -22.5q12 -8 24 -22t17 -28h4zM193 47q41 0 87 26
t75 75v93h-9q-41 0 -82 -3t-74.5 -15t-54.5 -34.5t-21 -61.5t21.5 -59.5t57.5 -20.5zM584 419q-66 0 -102.5 -34.5t-49.5 -86.5h273q1 5 1 9v9q0 25 -10 44.5t-27 32.5t-39 19.5t-46 6.5z" />
    <glyph glyph-name="ccedilla" unicode="&#xe7;" horiz-adv-x="500" 
d="M438 376q-23 17 -66 30.5t-86 13.5q-44 0 -74.5 -15t-50.5 -40t-29 -57.5t-9 -67.5q0 -39 11 -75t32.5 -63t53 -43t73.5 -16q40 0 81.5 15.5t69.5 41.5l16 -62q-26 -17 -71.5 -32.5t-97.5 -17.5l-24 -39q9 2 17.5 3t15.5 1q35 0 57 -20.5t22 -51.5q0 -17 -8 -32
t-22.5 -26.5t-34.5 -18.5t-44 -7t-48 5.5t-43 13.5l-1 6l13 23h7q12 -5 30.5 -8.5t38.5 -3.5q22 0 37.5 8.5t15.5 31.5q0 27 -15 36.5t-36 9.5q-12 0 -25 -2t-24 -5l-8 11l43 66q-52 4 -90.5 25.5t-64 54.5t-38.5 75.5t-13 89.5q0 48 13.5 91.5t42.5 77t74 53t108 19.5
q48 0 94 -11t74 -29z" />
    <glyph glyph-name="egrave" unicode="&#xe8;" horiz-adv-x="516" 
d="M284 475q88 0 136 -44.5t48 -125.5q0 -17 -2 -34.5t-7 -25.5h-337v-10q0 -38 10 -73t30 -62t50.5 -43t72.5 -16q48 0 90.5 17t70.5 37l13 -53q-13 -8 -32 -17.5t-42 -17.5t-50.5 -13.5t-57.5 -5.5q-56 0 -99 19.5t-72 53t-44 77.5t-15 92q0 49 15.5 93.5t45.5 78.5
t74.5 53.5t101.5 19.5zM281 419q-66 0 -102.5 -34.5t-49.5 -86.5h273q1 5 1 9v9q0 25 -10 44.5t-27 32.5t-39 19.5t-46 6.5zM343 549l-202 77q-3 10 -3 19q0 14 9 24t26 11l180 -101l3 -7l-5 -20z" />
    <glyph glyph-name="eacute" unicode="&#xe9;" horiz-adv-x="516" 
d="M284 475q88 0 136 -44.5t48 -125.5q0 -17 -2 -34.5t-7 -25.5h-337v-10q0 -38 10 -73t30 -62t50.5 -43t72.5 -16q48 0 90.5 17t70.5 37l13 -53q-13 -8 -32 -17.5t-42 -17.5t-50.5 -13.5t-57.5 -5.5q-56 0 -99 19.5t-72 53t-44 77.5t-15 92q0 49 15.5 93.5t45.5 78.5
t74.5 53.5t101.5 19.5zM281 419q-66 0 -102.5 -34.5t-49.5 -86.5h273q1 5 1 9v9q0 25 -10 44.5t-27 32.5t-39 19.5t-46 6.5zM199 552l-6 20l3 7l180 101q17 -1 26 -11t9 -24q0 -4 -0.5 -9t-2.5 -10l-202 -77z" />
    <glyph glyph-name="ecircumflex" unicode="&#xea;" horiz-adv-x="516" 
d="M284 475q88 0 136 -44.5t48 -125.5q0 -17 -2 -34.5t-7 -25.5h-337v-10q0 -38 10 -73t30 -62t50.5 -43t72.5 -16q48 0 90.5 17t70.5 37l13 -53q-13 -8 -32 -17.5t-42 -17.5t-50.5 -13.5t-57.5 -5.5q-56 0 -99 19.5t-72 53t-44 77.5t-15 92q0 49 15.5 93.5t45.5 78.5
t74.5 53.5t101.5 19.5zM281 419q-66 0 -102.5 -34.5t-49.5 -86.5h273q1 5 1 9v9q0 25 -10 44.5t-27 32.5t-39 19.5t-46 6.5zM275 673l111 -99l2 -7l-5 -19l-8 -3l-103 61l-104 -61l-8 3l-5 19l2 7l111 99h7z" />
    <glyph glyph-name="edieresis" unicode="&#xeb;" horiz-adv-x="516" 
d="M284 475q88 0 136 -44.5t48 -125.5q0 -17 -2 -34.5t-7 -25.5h-337v-10q0 -38 10 -73t30 -62t50.5 -43t72.5 -16q48 0 90.5 17t70.5 37l13 -53q-13 -8 -32 -17.5t-42 -17.5t-50.5 -13.5t-57.5 -5.5q-56 0 -99 19.5t-72 53t-44 77.5t-15 92q0 49 15.5 93.5t45.5 78.5
t74.5 53.5t101.5 19.5zM281 419q-66 0 -102.5 -34.5t-49.5 -86.5h273q1 5 1 9v9q0 25 -10 44.5t-27 32.5t-39 19.5t-46 6.5zM306 626q0 18 12 31.5t29 13.5t29.5 -13.5t12.5 -31.5q0 -19 -12.5 -31.5t-29.5 -12.5t-29 12.5t-12 31.5zM149 626q0 18 12 31.5t29 13.5
t29.5 -13.5t12.5 -31.5q0 -19 -12.5 -31.5t-29.5 -12.5t-29 12.5t-12 31.5z" />
    <glyph glyph-name="igrave" unicode="&#xec;" horiz-adv-x="226" 
d="M171 549l-201 77q-4 9 -4 19q0 14 9 24t26 11l181 -101l3 -7l-6 -20zM148 0h-70v460h70v-460z" />
    <glyph glyph-name="iacute" unicode="&#xed;" horiz-adv-x="226" 
d="M21 552l-6 20l3 7l180 101q17 -1 26.5 -11t9.5 -24q0 -10 -4 -19l-202 -77zM148 0h-70v460h70v-460z" />
    <glyph glyph-name="icircumflex" unicode="&#xee;" horiz-adv-x="226" 
d="M114 673l110 -99l3 -7l-6 -19l-7 -3l-104 61l-103 -61l-8 3l-6 19l3 7l110 99h8zM148 0h-70v460h70v-460z" />
    <glyph glyph-name="idieresis" unicode="&#xef;" horiz-adv-x="226" 
d="M-8 626q0 18 12 31.5t29 13.5t29.5 -13.5t12.5 -31.5q0 -19 -12.5 -31.5t-29.5 -12.5t-29 12.5t-12 31.5zM149 626q0 18 12 31.5t29 13.5t29.5 -13.5t12.5 -31.5q0 -19 -12.5 -31.5t-29.5 -12.5t-29 12.5t-12 31.5zM148 0h-70v460h70v-460z" />
    <glyph glyph-name="eth" unicode="&#xf0;" horiz-adv-x="564" 
d="M344 740q40 -36 74 -94l117 31l18 -48l-112 -29q31 -66 49 -146.5t18 -164.5q0 -58 -10.5 -112.5t-37 -96.5t-70.5 -67t-111 -25q-62 0 -106 21t-71.5 56t-40.5 79t-13 91q0 48 13.5 91.5t42 76.5t72.5 52.5t105 19.5q55 0 98 -18.5t63 -60.5l3 1q-14 60 -28 105.5
t-32 83.5l-125 -32l-17 46l118 31q-18 29 -40 55t-50 54h73zM279 41q41 0 70.5 16.5t49 44t29 63t9.5 74.5q0 90 -44.5 135.5t-115.5 45.5q-42 0 -71.5 -15.5t-47.5 -41t-26.5 -58.5t-8.5 -68q0 -38 9 -73t28 -62.5t48.5 -44t70.5 -16.5z" />
    <glyph glyph-name="ntilde" unicode="&#xf1;" horiz-adv-x="545" 
d="M431 663q-3 -14 -9.5 -27.5t-17 -24.5t-25.5 -18t-36 -7q-40 0 -81.5 7t-73.5 7q-25 0 -35 -6.5t-20 -18.5l-13 8q4 13 11 27t17.5 24.5t26 17.5t36.5 7q25 0 43.5 -2t34.5 -5t31 -5t34 -2q17 0 34 4t31 22zM401 0v304q0 61 -27 86.5t-69 25.5q-25 0 -49.5 -8
t-45.5 -23.5t-37 -38t-25 -51.5v-295h-70v460h55l8 -86h4q13 42 58 71.5t112 29.5q32 0 60.5 -8.5t49.5 -27.5t33.5 -50t12.5 -76v-313h-70z" />
    <glyph glyph-name="ograve" unicode="&#xf2;" horiz-adv-x="561" 
d="M342 549l-202 77q-4 9 -4 19q0 14 9 24t26 11l181 -101l3 -7l-6 -20zM280 475q61 0 105 -20.5t72.5 -55t42 -79t13.5 -93.5t-13.5 -92.5t-41.5 -76t-71.5 -51.5t-102.5 -19q-61 0 -105.5 20t-73.5 53.5t-43 77.5t-14 93t14 93t42.5 77.5t72.5 53t103 19.5zM283 41
q40 0 69.5 15t49 40.5t28.5 59t9 70.5q0 38 -9.5 73t-29.5 61.5t-50.5 42.5t-72.5 16q-41 0 -70 -15t-48 -40t-28 -58.5t-9 -70.5q0 -38 9.5 -73t29 -62t50 -43t72.5 -16z" />
    <glyph glyph-name="oacute" unicode="&#xf3;" horiz-adv-x="561" 
d="M206 552l-6 20l3 7l180 101q17 -1 26.5 -11t9.5 -24q0 -10 -4 -19l-202 -77zM280 475q61 0 105 -20.5t72.5 -55t42 -79t13.5 -93.5t-13.5 -92.5t-41.5 -76t-71.5 -51.5t-102.5 -19q-61 0 -105.5 20t-73.5 53.5t-43 77.5t-14 93t14 93t42.5 77.5t72.5 53t103 19.5zM283 41
q40 0 69.5 15t49 40.5t28.5 59t9 70.5q0 38 -9.5 73t-29.5 61.5t-50.5 42.5t-72.5 16q-41 0 -70 -15t-48 -40t-28 -58.5t-9 -70.5q0 -38 9.5 -73t29 -62t50 -43t72.5 -16z" />
    <glyph glyph-name="ocircumflex" unicode="&#xf4;" horiz-adv-x="561" 
d="M292 673l110 -99l3 -7l-5 -19l-8 -3l-104 61l-103 -61l-8 3l-6 19l3 7l111 99h7zM280 475q61 0 105 -20.5t72.5 -55t42 -79t13.5 -93.5t-13.5 -92.5t-41.5 -76t-71.5 -51.5t-102.5 -19q-61 0 -105.5 20t-73.5 53.5t-43 77.5t-14 93t14 93t42.5 77.5t72.5 53t103 19.5z
M283 41q40 0 69.5 15t49 40.5t28.5 59t9 70.5q0 38 -9.5 73t-29.5 61.5t-50.5 42.5t-72.5 16q-41 0 -70 -15t-48 -40t-28 -58.5t-9 -70.5q0 -38 9.5 -73t29 -62t50 -43t72.5 -16z" />
    <glyph glyph-name="otilde" unicode="&#xf5;" horiz-adv-x="561" 
d="M427 663q-3 -14 -9.5 -27.5t-17 -24.5t-25.5 -18t-36 -7q-40 0 -81.5 7t-73.5 7q-25 0 -35 -6.5t-20 -18.5l-13 8q4 13 11 27t17.5 24.5t26 17.5t36.5 7q25 0 43.5 -2t34.5 -5t31 -5t34 -2q17 0 34 4t31 22zM280 475q61 0 105 -20.5t72.5 -55t42 -79t13.5 -93.5
t-13.5 -92.5t-41.5 -76t-71.5 -51.5t-102.5 -19q-61 0 -105.5 20t-73.5 53.5t-43 77.5t-14 93t14 93t42.5 77.5t72.5 53t103 19.5zM283 41q40 0 69.5 15t49 40.5t28.5 59t9 70.5q0 38 -9.5 73t-29.5 61.5t-50.5 42.5t-72.5 16q-41 0 -70 -15t-48 -40t-28 -58.5t-9 -70.5
q0 -38 9.5 -73t29 -62t50 -43t72.5 -16z" />
    <glyph glyph-name="odieresis" unicode="&#xf6;" horiz-adv-x="561" 
d="M161 626q0 18 12 31.5t29 13.5t29.5 -13.5t12.5 -31.5q0 -19 -12.5 -31.5t-29.5 -12.5t-29 12.5t-12 31.5zM318 626q0 18 12 31.5t29 13.5t29.5 -13.5t12.5 -31.5q0 -19 -12.5 -31.5t-29.5 -12.5t-29 12.5t-12 31.5zM280 475q61 0 105 -20.5t72.5 -55t42 -79t13.5 -93.5
t-13.5 -92.5t-41.5 -76t-71.5 -51.5t-102.5 -19q-61 0 -105.5 20t-73.5 53.5t-43 77.5t-14 93t14 93t42.5 77.5t72.5 53t103 19.5zM283 41q40 0 69.5 15t49 40.5t28.5 59t9 70.5q0 38 -9.5 73t-29.5 61.5t-50.5 42.5t-72.5 16q-41 0 -70 -15t-48 -40t-28 -58.5t-9 -70.5
q0 -38 9.5 -73t29 -62t50 -43t72.5 -16z" />
    <glyph glyph-name="divide" unicode="&#xf7;" horiz-adv-x="566" 
d="M491 265v-52h-414v52h414zM248 80q0 19 13.5 33t33.5 14q18 0 32.5 -14t14.5 -33q0 -20 -14.5 -33.5t-32.5 -13.5q-20 0 -33.5 13.5t-13.5 33.5zM248 397q0 19 13.5 33.5t33.5 14.5q18 0 32.5 -14.5t14.5 -33.5t-14.5 -32.5t-32.5 -13.5q-20 0 -33.5 13.5t-13.5 32.5z
" />
    <glyph glyph-name="oslash" unicode="&#xf8;" horiz-adv-x="561" 
d="M97 71q-25 33 -37 74.5t-12 86.5q0 49 14 93t42.5 77.5t72.5 53t103 19.5q42 0 76.5 -10.5t60.5 -28.5l51 58l51 -39l-56 -63q26 -34 38 -76.5t12 -88.5q0 -49 -13.5 -92.5t-41.5 -76t-71.5 -51.5t-102.5 -19q-85 0 -141 39l-54 -62l-48 43zM283 41q40 0 69.5 15t49 40.5
t28.5 59t9 70.5q0 62 -24 110l-230 -262q39 -33 98 -33zM122 235q0 -29 5.5 -57t17.5 -52l229 261q-19 15 -43 23.5t-54 8.5q-41 0 -70 -15t-48 -40t-28 -58.5t-9 -70.5z" />
    <glyph glyph-name="ugrave" unicode="&#xf9;" horiz-adv-x="544" 
d="M333 549l-201 77q-4 9 -4 19q0 14 9 24t26 11l180 -101l3 -7l-5 -20zM143 460v-304q0 -31 7.5 -52t20 -33.5t30 -18t38.5 -5.5q25 0 49.5 7.5t45.5 22.5t37 37t25 51v295h70v-460h-55l-8 86h-4q-13 -42 -58 -70t-112 -28q-32 0 -60.5 8t-49.5 26.5t-33.5 49t-12.5 75.5
v313h70z" />
    <glyph glyph-name="uacute" unicode="&#xfa;" horiz-adv-x="544" 
d="M171 552l-5 20l3 7l180 101q17 -1 26 -11t9 -24q0 -9 -3 -19l-202 -77zM143 460v-304q0 -31 7.5 -52t20 -33.5t30 -18t38.5 -5.5q25 0 49.5 7.5t45.5 22.5t37 37t25 51v295h70v-460h-55l-8 86h-4q-13 -42 -58 -70t-112 -28q-32 0 -60.5 8t-49.5 26.5t-33.5 49t-12.5 75.5
v313h70z" />
    <glyph glyph-name="ucircumflex" unicode="&#xfb;" horiz-adv-x="544" 
d="M270 673l111 -99l2 -7l-5 -19l-8 -3l-104 61l-103 -61l-8 3l-5 19l2 7l111 99h7zM143 460v-304q0 -31 7.5 -52t20 -33.5t30 -18t38.5 -5.5q25 0 49.5 7.5t45.5 22.5t37 37t25 51v295h70v-460h-55l-8 86h-4q-13 -42 -58 -70t-112 -28q-32 0 -60.5 8t-49.5 26.5t-33.5 49
t-12.5 75.5v313h70z" />
    <glyph glyph-name="udieresis" unicode="&#xfc;" horiz-adv-x="544" 
d="M146 626q0 18 12 31.5t29 13.5t29.5 -13.5t12.5 -31.5q0 -19 -12.5 -31.5t-29.5 -12.5t-29 12.5t-12 31.5zM303 626q0 18 12 31.5t29 13.5t29.5 -13.5t12.5 -31.5q0 -19 -12.5 -31.5t-29.5 -12.5t-29 12.5t-12 31.5zM143 460v-304q0 -31 7.5 -52t20 -33.5t30 -18
t38.5 -5.5q25 0 49.5 7.5t45.5 22.5t37 37t25 51v295h70v-460h-55l-8 86h-4q-13 -42 -58 -70t-112 -28q-32 0 -60.5 8t-49.5 26.5t-33.5 49t-12.5 75.5v313h70z" />
    <glyph glyph-name="yacute" unicode="&#xfd;" horiz-adv-x="519" 
d="M197 552l-6 20l3 7l180 101q17 -1 26 -11t9 -24q0 -4 -0.5 -9t-2.5 -10l-202 -77zM296 -4q-15 -32 -36 -75.5t-50 -82.5t-68 -66.5t-88 -27.5q-8 0 -12 0.5t-9 2.5l-13 66q3 -1 7 -2t14 -1q20 0 37.5 4t34.5 16q35 25 63.5 73t51.5 112l-230 445h83l183 -383l164 383h79z
" />
    <glyph glyph-name="thorn" unicode="&#xfe;" horiz-adv-x="575" 
d="M325 475q51 0 89 -20t63 -53t37.5 -76.5t12.5 -91.5q0 -50 -13.5 -94.5t-40 -78t-66.5 -53.5t-93 -20q-67 0 -110 29t-56 72v-349h-70v1000h70v-366q10 17 27.5 35t40 32.5t50 24t59.5 9.5zM307 416q-48 0 -89.5 -26t-69.5 -75v-147q9 -29 26 -51t39.5 -38t48 -24
t51.5 -8q35 0 61 14t43.5 39t26.5 58t9 71q0 36 -8.5 70t-26.5 60t-45.5 41.5t-65.5 15.5z" />
    <glyph glyph-name="ydieresis" unicode="&#xff;" horiz-adv-x="519" 
d="M133 626q0 18 12 31.5t29 13.5t29.5 -13.5t12.5 -31.5q0 -19 -12.5 -31.5t-29.5 -12.5t-29 12.5t-12 31.5zM290 626q0 18 12 31.5t29 13.5t29.5 -13.5t12.5 -31.5q0 -19 -12.5 -31.5t-29.5 -12.5t-29 12.5t-12 31.5zM296 -4q-15 -32 -36 -75.5t-50 -82.5t-68 -66.5
t-88 -27.5q-8 0 -12 0.5t-9 2.5l-13 66q3 -1 7 -2t14 -1q20 0 37.5 4t34.5 16q35 25 63.5 73t51.5 112l-230 445h83l183 -383l164 383h79z" />
    <glyph glyph-name="Dcroat" unicode="&#x110;" horiz-adv-x="706" 
d="M14 326v44h87v290h5q48 2 104 3.5t109 1.5q71 0 129.5 -20t99.5 -55q53 -48 77 -117t24 -150q0 -68 -19 -128.5t-58.5 -106.5t-99.5 -73t-142 -27q-71 0 -127.5 3.5t-101.5 8.5v326h-87zM351 370v-44h-175v-266q63 -6 151 -6q119 0 179 70t60 207q0 60 -12.5 109.5
t-41 84.5t-74.5 54.5t-113 19.5q-40 0 -78.5 -0.5t-70.5 -2.5v-226h175z" />
    <glyph glyph-name="dotlessi" unicode="&#x131;" horiz-adv-x="226" 
d="M148 0h-70v460h70v-460z" />
    <glyph glyph-name="IJ" unicode="&#x132;" horiz-adv-x="546" 
d="M174 0h-75v660h75v-660zM448 101q0 -53 -10.5 -99.5t-32 -81.5t-54 -55.5t-77.5 -20.5l-14 55q39 0 62 19t34 48.5t14 65.5t3 70v558h75v-559z" />
    <glyph glyph-name="ij" unicode="&#x133;" horiz-adv-x="454" 
d="M148 0h-70v460h70v-460zM63 628q0 20 14.5 36t35.5 16q20 0 36 -16t16 -36q0 -21 -16 -35.5t-36 -14.5q-21 0 -35.5 14.5t-14.5 35.5zM376 -3q0 -51 -9.5 -97.5t-28.5 -81.5t-48 -55.5t-67 -20.5q-16 0 -22 3l-16 58q6 -3 22 -3q34 0 54 19.5t30 48.5t12.5 64t2.5 66v462
h70v-463zM291 628q0 20 14.5 36t35.5 16q20 0 36 -16t16 -36q0 -21 -16 -35.5t-36 -14.5q-21 0 -35.5 14.5t-14.5 35.5z" />
    <glyph glyph-name="kgreenlandic" unicode="&#x138;" horiz-adv-x="474" 
d="M266 298l196 -298h-80l-165 250l-69 -69v-181h-70v460h70v-194l202 194h80z" />
    <glyph glyph-name="OE" unicode="&#x152;" horiz-adv-x="854" 
d="M813 0h-346q-44 -12 -96 -12q-80 0 -139 27t-98 73t-58.5 106.5t-19.5 127.5q0 71 21.5 133.5t62.5 109t101 73.5t137 27q19 0 37 -1.5t35 -3.5h343v-70h-268v-205h201v-70h-201v-245h288v-70zM373 54q42 0 77 9v527q-35 9 -75 9q-64 0 -109 -19.5t-73 -55t-41 -84.5
t-13 -108q0 -138 60 -208t174 -70z" />
    <glyph glyph-name="oe" unicode="&#x153;" horiz-adv-x="912" 
d="M680 474q88 0 136 -44.5t48 -125.5q0 -17 -2 -34.5t-7 -25.5h-337v-10q0 -38 10 -73t30 -62t50.5 -43t72.5 -16q48 0 90.5 17t70.5 37l13 -53q-13 -8 -32 -17.5t-42 -17.5t-50.5 -13.5t-57.5 -5.5q-68 0 -117.5 28t-77.5 74q-26 -46 -73.5 -74t-120.5 -28
q-61 0 -105.5 20t-73.5 53.5t-43 77.5t-14 93t14 93t42.5 77.5t72.5 53t103 19.5q74 0 122 -29.5t75 -77.5q29 48 80 77.5t123 29.5zM283 40q40 0 69.5 15t49 40.5t28.5 59t9 70.5q0 38 -9.5 73t-29.5 61.5t-50.5 42.5t-72.5 16q-41 0 -70 -15t-48 -40t-28 -58.5t-9 -70.5
q0 -38 9.5 -73t29 -62t50 -43t72.5 -16zM677 418q-66 0 -102.5 -34.5t-49.5 -86.5h273q1 5 1 9v9q0 25 -10 44.5t-27 32.5t-39 19.5t-46 6.5z" />
    <glyph glyph-name="Scaron" unicode="&#x160;" horiz-adv-x="551" 
d="M274 713l-111 99l-2 7l5 20l8 3l103 -62l104 62l8 -3l5 -20l-2 -7l-111 -99h-7zM138 501q0 -25 9.5 -41.5t30 -29.5t52 -24.5t75.5 -26.5q37 -12 73 -27.5t64.5 -38t45.5 -56t17 -81.5q0 -51 -20 -87t-53 -58.5t-76 -32.5t-89 -10q-65 0 -121 16t-97 39l21 73
q19 -13 38 -24.5t41.5 -19.5t49.5 -13t62 -5q45 0 77 8t52 22.5t29 34.5t9 43q0 34 -16 57.5t-41.5 40.5t-56 28.5t-60.5 21.5q-43 14 -78 30t-59.5 38t-38 51t-13.5 69q0 45 16.5 76.5t45 51.5t67.5 29.5t84 9.5q54 0 104 -11t85 -27l-21 -77q-16 14 -37.5 23.5t-45 15
t-46.5 8t-43 2.5q-63 0 -99.5 -23.5t-36.5 -74.5z" />
    <glyph glyph-name="scaron" unicode="&#x161;" horiz-adv-x="441" 
d="M212 545l-111 99l-2 6l5 20l8 3l103 -62l104 62l8 -3l5 -20l-2 -6l-111 -99h-7zM213 419q-48 0 -69.5 -17.5t-21.5 -47.5q0 -10 3 -21t11.5 -20.5t23 -18t38.5 -13.5l71 -16q42 -9 67.5 -24.5t39.5 -33.5t18.5 -36.5t4.5 -34.5q0 -31 -12.5 -58t-36 -47t-57.5 -31.5
t-76 -11.5q-53 0 -98 15.5t-72 34.5l18 65q36 -33 80 -48t79 -15q50 0 76 24.5t26 51.5q0 9 -1 20.5t-8 23.5t-21 22.5t-40 16.5l-96 24q-33 8 -54 21t-33 28.5t-17 33t-5 35.5q0 61 45.5 97.5t121.5 36.5q39 0 84 -10.5t76 -30.5l-19 -60q-20 17 -59.5 31t-86.5 14z" />
    <glyph glyph-name="Ydieresis" unicode="&#x178;" horiz-adv-x="566" 
d="M167 794q0 18 12 31.5t29 13.5q16 0 28.5 -13.5t12.5 -31.5q0 -19 -12.5 -31.5t-28.5 -12.5q-17 0 -29 12.5t-12 31.5zM324 794q0 18 11.5 31.5t28.5 13.5t29.5 -13.5t12.5 -31.5q0 -19 -12.5 -31.5t-29.5 -12.5t-28.5 12.5t-11.5 31.5zM-11 660h89l209 -317l202 317h87
l-255 -389v-271h-75v267z" />
    <glyph glyph-name="Zcaron" unicode="&#x17d;" horiz-adv-x="554" 
d="M270 713l-110 99l-3 7l6 20l8 3l103 -62l104 62l7 -3l6 -20l-3 -7l-110 -99h-8zM511 0h-468v70l368 520h-353v70h438v-70l-368 -520h383v-70z" />
    <glyph glyph-name="zcaron" unicode="&#x17e;" horiz-adv-x="417" 
d="M200 545l-110 99l-3 6l6 20l7 3l104 -62l104 62l7 -3l6 -20l-3 -6l-110 -99h-8zM42 60l243 341h-233v59h314v-58l-245 -343h255v-59h-334v60z" />
    <glyph glyph-name="florin" unicode="&#x192;" horiz-adv-x="609" 
d="M351 413l-85 -416q-11 -51 -31 -97.5t-47.5 -81.5t-61.5 -55.5t-72 -20.5q-7 0 -13 0.5t-8 2.5l-4 58q6 -3 21 -3q34 0 58.5 18.5t41 47t27.5 64t18 70.5l85 413h-67v37l77 10l19 90q13 61 33 99t44 59.5t51.5 29t54.5 7.5q5 0 16 -0.5t24.5 -2t27.5 -5t25 -9.5l-30 -63
q-11 11 -32.5 19.5t-50.5 8.5q-19 0 -32 -5.5t-24 -23.5t-20.5 -51t-20.5 -87l-14 -66h107v-47h-117z" />
    <glyph glyph-name="schwa" unicode="&#x259;" horiz-adv-x="517" 
d="M233 -12q-88 0 -136 44.5t-48 125.5q0 17 2 34.5t7 25.5h337v10q0 38 -10 73t-30 62t-50.5 43t-72.5 16q-24 0 -47 -5.5t-44 -14t-39 -18.5t-32 -20l-12 57q13 8 32 17.5t42 17.5t50.5 13.5t57.5 5.5q56 0 99 -19.5t72 -53t44 -77.5t15 -92q0 -50 -15.5 -94t-45.5 -78
t-74.5 -53.5t-101.5 -19.5zM236 44q65 0 101.5 34t49.5 87h-272q-1 -5 -1 -9v-9q0 -26 10 -45t27 -32t39 -19.5t46 -6.5z" />
    <glyph glyph-name="circumflex" unicode="&#x2c6;" horiz-adv-x="234" 
d="M121 673l110 -99l3 -7l-6 -19l-7 -3l-104 61l-104 -61l-7 3l-6 19l3 7l110 99h8z" />
    <glyph glyph-name="caron" unicode="&#x2c7;" horiz-adv-x="234" 
d="M113 545l-110 99l-3 6l6 20l7 3l104 -62l104 62l7 -3l6 -20l-3 -6l-110 -99h-8z" />
    <glyph glyph-name="ring" unicode="&#x2da;" horiz-adv-x="164" 
d="M82 683q39 0 60.5 -23.5t21.5 -51.5q0 -26 -20.5 -48t-60.5 -22q-21 0 -36.5 6.5t-26 17t-15.5 23t-5 25.5q0 28 21.5 50.5t60.5 22.5zM83 562q20 0 31.5 14.5t11.5 31.5q0 18 -12.5 34.5t-32.5 16.5q-22 0 -33 -15.5t-11 -32.5q0 -18 13 -33.5t33 -15.5z" />
    <glyph glyph-name="tilde" unicode="&#x2dc;" horiz-adv-x="311" 
d="M311 663q-3 -14 -9.5 -27.5t-17 -24.5t-25.5 -18t-36 -7q-40 0 -81.5 7t-73.5 7q-25 0 -35 -6.5t-20 -18.5l-13 8q4 13 11 27t17.5 24.5t26 17.5t36.5 7q25 0 43.5 -2t34.5 -5t31 -5t34 -2q17 0 34 4t31 22z" />
    <glyph glyph-name="uni03BC" unicode="&#x3bc;" horiz-adv-x="552" 
d="M151 460v-304q0 -31 7.5 -52t20 -33.5t30 -18t38.5 -5.5q25 0 49.5 7.5t45.5 22.5t37 37t25 51v295h70v-460h-55l-8 86h-4q-13 -42 -58 -70t-112 -28q-32 0 -61 8t-50 27l-3 -13q-17 -74 -54 -150l-64 29q18 34 32 64.5t23.5 61.5t15 63t5.5 69v313h70z" />
    <glyph glyph-name="endash" unicode="&#x2013;" horiz-adv-x="562" 
d="M488 265v-52h-414v52h414z" />
    <glyph glyph-name="emdash" unicode="&#x2014;" horiz-adv-x="790" 
d="M716 265v-52h-642v52h642z" />
    <glyph glyph-name="quoteleft" unicode="&#x2018;" horiz-adv-x="225" 
d="M166 715l-39 -73h25v-90h-79v105l73 77z" />
    <glyph glyph-name="quoteright" unicode="&#x2019;" horiz-adv-x="205" 
d="M62 571l39 73h-25v90h79v-105l-73 -77z" />
    <glyph glyph-name="quotesinglbase" unicode="&#x201a;" horiz-adv-x="243" 
d="M68 -78l39 73h-25v90h79v-105l-73 -77z" />
    <glyph glyph-name="quotedblleft" unicode="&#x201c;" horiz-adv-x="375" 
d="M166 715l-39 -73h25v-90h-79v105l73 77zM316 715l-39 -73h25v-90h-79v105l73 77z" />
    <glyph glyph-name="quotedblright" unicode="&#x201d;" horiz-adv-x="355" 
d="M212 571l39 73h-25v90h79v-105l-73 -77zM62 571l39 73h-25v90h79v-105l-73 -77z" />
    <glyph glyph-name="quotedblbase" unicode="&#x201e;" horiz-adv-x="404" 
d="M68 -78l39 73h-25v90h79v-105l-73 -77zM229 -78l39 73h-25v90h79v-105l-73 -77z" />
    <glyph glyph-name="dagger" unicode="&#x2020;" horiz-adv-x="466" 
d="M188 109l12 228v97h-10l-154 -12v73l154 -12h10l-12 209h90l-12 -209h9l155 12v-73l-155 12h-9v-97l12 -228h-90z" />
    <glyph glyph-name="daggerdbl" unicode="&#x2021;" horiz-adv-x="508" 
d="M209 -71l11 209h-9l-154 -13v74l154 -13h10v248h-10l-154 -12v73l154 -12h10l-12 209h90l-12 -209h9l155 12v-73l-155 12h-9v-248h9l155 13v-74l-155 13h-9l12 -209h-90z" />
    <glyph glyph-name="bullet" unicode="&#x2022;" horiz-adv-x="328" 
d="M96 243q0 27 19.5 48t48.5 21q13 0 25.5 -5.5t22 -15.5t15 -22.5t5.5 -25.5q0 -29 -21 -48t-47 -19q-29 0 -48.5 19t-19.5 48z" />
    <glyph glyph-name="ellipsis" unicode="&#x2026;" horiz-adv-x="613" 
d="M71 35q0 19 13 33.5t33 14.5q19 0 33.5 -14.5t14.5 -33.5t-14.5 -32.5t-33.5 -13.5q-20 0 -33 13.5t-13 32.5zM260 35q0 19 13.5 33.5t32.5 14.5t33.5 -14.5t14.5 -33.5t-14.5 -32.5t-33.5 -13.5t-32.5 13.5t-13.5 32.5zM449 35q0 19 13.5 33.5t32.5 14.5t33.5 -14.5
t14.5 -33.5t-14.5 -32.5t-33.5 -13.5t-32.5 13.5t-13.5 32.5z" />
    <glyph glyph-name="perthousand" unicode="&#x2030;" horiz-adv-x="1178" 
d="M188 665q35 0 62.5 -15t46 -40t28.5 -58.5t10 -70.5q0 -36 -10 -70t-29 -60t-47.5 -41.5t-64.5 -15.5q-35 0 -62 14.5t-45 39.5t-27 58.5t-9 70.5q0 39 10 73.5t29 60t46 40t62 14.5zM185 339q25 0 43 11t29.5 30t17 44.5t5.5 54.5q0 63 -23 102t-71 39q-49 0 -69 -38.5
t-20 -98.5q0 -72 23 -108t65 -36zM211 -24h-65l463 715h65zM636 364q35 0 62.5 -15t46 -40t28.5 -58.5t10 -70.5q0 -36 -10 -70t-29 -60t-47.5 -41.5t-64.5 -15.5q-35 0 -62 14.5t-45 39.5t-27 58.5t-9 70.5q0 39 10 73.5t29 60t46 40t62 14.5zM633 38q25 0 43 11t29.5 30
t17 44.5t5.5 54.5q0 63 -23 102t-71 39q-49 0 -69 -38.5t-20 -98.5q0 -72 23 -108t65 -36zM996 364q35 0 62.5 -15t46 -40t28.5 -58.5t10 -70.5q0 -36 -10 -70t-29 -60t-47.5 -41.5t-64.5 -15.5q-35 0 -62 14.5t-45 39.5t-27 58.5t-9 70.5q0 39 10 73.5t29 60t46 40t62 14.5
zM993 38q25 0 43 11t29.5 30t17 44.5t5.5 54.5q0 63 -23 102t-71 39q-49 0 -69 -38.5t-20 -98.5q0 -72 23 -108t65 -36z" />
    <glyph glyph-name="guilsinglleft" unicode="&#x2039;" horiz-adv-x="322" 
d="M121 238l144 -177h-80l-133 177v5l134 177h79l-144 -177v-5z" />
    <glyph glyph-name="guilsinglright" unicode="&#x203a;" horiz-adv-x="322" 
d="M201 243l-144 177h79l134 -177v-5l-133 -177h-80l144 177v5z" />
    <glyph glyph-name="fraction" unicode="&#x2044;" horiz-adv-x="509" 
d="M56 -24h-65l463 715h65z" />
    <glyph glyph-name="zerosuperior" unicode="&#x2070;" horiz-adv-x="407" 
d="M204 665q35 0 62.5 -15t46 -40t28.5 -58.5t10 -70.5q0 -36 -10 -70t-29 -60t-47.5 -41.5t-64.5 -15.5q-35 0 -62 14.5t-45 39.5t-27 58.5t-9 70.5q0 39 10 73.5t29 60t46 40t62 14.5zM201 339q25 0 43 11t29.5 30t17 44.5t5.5 54.5q0 63 -23 102t-71 39q-49 0 -69 -38.5
t-20 -98.5q0 -72 23 -108t65 -36z" />
    <glyph glyph-name="foursuperior" unicode="&#x2074;" horiz-adv-x="331" 
d="M273 410h-36v-111h-45v111h-150v42l147 213h48v-213h36v-42zM192 452v154l-99 -154h99z" />
    <glyph glyph-name="zeroinferior" unicode="&#x2080;" horiz-adv-x="421" 
d="M211 366q35 0 62.5 -15t46 -40t28.5 -58.5t10 -70.5q0 -36 -10 -70t-29 -60t-47.5 -41.5t-64.5 -15.5q-35 0 -62 14.5t-45 39.5t-27 58.5t-9 70.5q0 39 10 73.5t29 60t46 40t62 14.5zM208 40q25 0 43 11t29.5 30t17 44.5t5.5 54.5q0 63 -23 102t-71 39q-49 0 -69 -38.5
t-20 -98.5q0 -72 23 -108t65 -36z" />
    <glyph glyph-name="oneinferior" unicode="&#x2081;" horiz-adv-x="257" 
d="M170 0h-54v286l-57 -28l-13 42l124 66v-366z" />
    <glyph glyph-name="twoinferior" unicode="&#x2082;" horiz-adv-x="354" 
d="M70 317q23 21 51 35t57 14q53 0 81 -27t28 -70q0 -33 -15.5 -61.5t-40 -55.5t-55 -53.5t-60.5 -56.5h175v-42h-236v42q24 30 55 57.5t58.5 55t47 55.5t19.5 58q0 9 -2.5 19t-9 18.5t-17.5 14.5t-29 6q-26 0 -52.5 -15.5t-43.5 -37.5z" />
    <glyph glyph-name="threeinferior" unicode="&#x2083;" horiz-adv-x="358" 
d="M76 336q20 13 41.5 21.5t45.5 8.5q54 0 83 -24t29 -70q0 -22 -17 -40.5t-40 -29.5q35 -11 55.5 -32.5t20.5 -57.5q0 -23 -8 -44t-25.5 -37.5t-44 -26t-63.5 -9.5q-35 0 -56.5 10t-44.5 28l12 40q21 -17 39 -27.5t48 -10.5q49 0 71 22t22 60q0 30 -19.5 47.5t-74.5 17.5
h-12v34h15q37 0 54.5 16t17.5 45q0 22 -11 35.5t-47 13.5q-27 0 -46 -8.5t-34 -20.5z" />
    <glyph glyph-name="fourinferior" unicode="&#x2084;" horiz-adv-x="332" 
d="M272 111h-36v-111h-45v111h-150v42l147 213h48v-213h36v-42zM191 153v154l-99 -154h99z" />
    <glyph glyph-name="Euro" unicode="&#x20ac;" horiz-adv-x="623" 
d="M126 412q10 55 31.5 101t55.5 80t79 53t102 19q45 0 92 -11.5t79 -31.5l-21 -72q-27 21 -66 35t-90 14q-43 0 -75 -13t-53.5 -37.5t-34.5 -59t-19 -77.5h255v-52h-260v-53h260v-52h-256q26 -201 181 -201q54 0 98.5 18t72.5 44l20 -67q-35 -24 -83.5 -42.5t-110.5 -18.5
q-59 0 -104.5 20.5t-78 56.5t-52 85t-26.5 105h-80v52h76v26.5t1 26.5h-77v52h84z" />
    <glyph glyph-name="trademark" unicode="&#x2122;" horiz-adv-x="691" 
d="M354 579v-210h-38v284h48l98 -242l97 242h47v-284h-39v209l-84 -209h-45zM279 614h-84v-245h-47v245h-84v39h215v-39z" />
    <glyph glyph-name="onethird" unicode="&#x2153;" horiz-adv-x="711" 
d="M452 336q20 13 41.5 21.5t45.5 8.5q54 0 83 -24t29 -70q0 -22 -17 -40.5t-40 -29.5q35 -11 55.5 -32.5t20.5 -57.5q0 -23 -8 -44t-25.5 -37.5t-44 -26t-63.5 -9.5q-35 0 -56.5 10t-44.5 28l12 40q21 -17 39 -27.5t48 -10.5q49 0 71 22t22 60q0 30 -19.5 47.5t-74.5 17.5
h-12v34h15q37 0 54.5 16t17.5 45q0 22 -11 35.5t-47 13.5q-27 0 -46 -8.5t-34 -20.5zM126 -24h-65l463 715h65zM161 299h-54v286l-57 -28l-13 42l124 66v-366z" />
    <glyph glyph-name="twothirds" unicode="&#x2154;" horiz-adv-x="759" 
d="M60 616q23 21 51 35t57 14q53 0 81 -27t28 -70q0 -33 -15.5 -61.5t-40 -55.5t-55 -53.5t-60.5 -56.5h175v-42h-236v42q24 30 55 57.5t58.5 55t47 55.5t19.5 58q0 9 -2.5 19t-9 18.5t-17.5 14.5t-29 6q-26 0 -52.5 -15.5t-43.5 -37.5zM196 -24h-65l463 715h65zM497 336
q20 13 41.5 21.5t45.5 8.5q54 0 83 -24t29 -70q0 -22 -17 -40.5t-40 -29.5q35 -11 55.5 -32.5t20.5 -57.5q0 -23 -8 -44t-25.5 -37.5t-44 -26t-63.5 -9.5q-35 0 -56.5 10t-44.5 28l12 40q21 -17 39 -27.5t48 -10.5q49 0 71 22t22 60q0 30 -19.5 47.5t-74.5 17.5h-12v34h15
q37 0 54.5 16t17.5 45q0 22 -11 35.5t-47 13.5q-27 0 -46 -8.5t-34 -20.5z" />
    <glyph glyph-name="minus" unicode="&#x2212;" horiz-adv-x="566" 
d="M490 265v-52h-414v52h414z" />
    <glyph glyph-name="uni2215" unicode="&#x2215;" horiz-adv-x="517" 
d="M60 -24h-65l463 715h65z" />
    </font>
</defs>
</svg>
