<?xml version="1.0" standalone="no"?>
<!DOCTYPE svg PUBLIC "-//W3C//DTD SVG 1.1//EN" "http://www.w3.org/Graphics/SVG/1.1/DTD/svg11.dtd" >
<svg xmlns="http://www.w3.org/2000/svg" xmlns:xlink="http://www.w3.org/1999/xlink" version="1.1">
<metadata>
Created by FontForge 20161013 at Fri Dec  9 16:31:48 2011
 By ,,,
Copyright (c) 2011 by vernon adams. All rights reserved.
</metadata>
<defs>
<font id="Radley" horiz-adv-x="963" >
  <font-face 
    font-family="Radley"
    font-weight="400"
    font-stretch="normal"
    units-per-em="2048"
    panose-1="2 0 5 3 0 0 0 2 0 3"
    ascent="1638"
    descent="-410"
    x-height="899"
    cap-height="1302"
    bbox="-147 -615 2816 1973"
    underline-thickness="102"
    underline-position="-409"
    unicode-range="U+000D-FB06"
  />
<missing-glyph horiz-adv-x="1226" 
 />
    <glyph glyph-name="fi" unicode="fi" horiz-adv-x="1257" 
d="M714 0q-2 8 -2 18v32q17 9 44.5 17t53.5 21q66 32 66 93v532q-3 60 -6 75l-6 30h-467v-559q0 -101 22 -147q11 -36 129 -50q27 -4 47 -12v-24q0 -12 -1 -26h-546q-2 28 -2 50q14 8 36 11.5t44 8.5q55 12 64 43q21 40 21 102v603h-158v81h69q52 0 64 9q21 14 22 87
t32 148.5t89 126.5q118 105 328 105q184 0 262 -21.5t114 -52t36 -79.5q0 -62 -59 -88q-22 -10 -54.5 -9.5t-52.5 14t-36.5 33.5t-34 42.5t-44.5 41.5q-63 46 -174 46q-117 0 -164 -55q-53 -61 -53 -226v-122h604l61 6v-685q0 -49 7 -79.5t25.5 -44t41 -21.5t43.5 -13
t32 -12v-25q0 -12 -1 -25h-496z" />
    <glyph glyph-name="fl" unicode="fl" horiz-adv-x="1219" 
d="M638 0q-4 12 -4 21.5t13.5 16.5t34 11t44.5 8t44 11q48 16 48 58l-1 683h-406v-699q0 -47 89 -59q58 -8 73.5 -15t15.5 -15.5t-4 -20.5h-536q-4 12 -4 20.5t12 14.5t29.5 9.5t38.5 6.5t39 9q41 14 41 50v699h-143v59h143v97q0 185 131 273q107 73 280 73q374 0 405 -143
q5 -23 5 -45l-1 -501v-502q0 -47 89 -64q62 -13 75.5 -19.5t13.5 -18t-4 -18.5h-561zM817 868l4 207q0 105 -27 133.5t-65.5 38t-88.5 9.5t-88.5 -9.5t-69.5 -41.5q-71 -73 -71 -258v-79h406z" />
    <glyph glyph-name="ck" unicode="ck" horiz-adv-x="2041" 
d="M944 0q-3 9 -3 16t13 14t32 12.5t41.5 11t41.5 14.5q45 20 45 52v1105h-64q-163 0 -218 -116q-19 -40 -19 -89.5t12.5 -91.5t26.5 -81q40 -106 40 -134.5t-9 -47t-24 -32.5q-31 -29 -73 -29t-66.5 23.5t-24.5 55t10 51t10 41t-13 35.5t-32 22q-32 14 -93 14t-118 -32.5
t-95 -85.5q-76 -106 -76 -256q0 -259 154 -346q56 -31 116.5 -31t99 5.5t74.5 12.5q93 18 117 18q13 0 13 -13t-2.5 -19t-3.5 -9q-114 -107 -320 -107q-203 0 -329 128q-125 127 -125 331q0 210 148 338q141 122 353 122q104 0 185 -36q-50 124 -50 208t30.5 131.5
t79.5 74.5q88 49 211.5 49t280.5 -31v-823h62l350 303l2 11q0 24 -20 31.5t-44.5 9.5t-44.5 5.5t-20 19.5q0 4 3 13h394q3 -9 3 -15.5t-24 -16t-55 -19.5q-88 -28 -106 -43l-296 -252l334 -428q13 -16 70 -33q106 -33 106 -48q0 -4 -3 -13h-495l-5 12q0 21 58.5 26.5
t58.5 35.5q0 8 -45 66t-77 99.5t-62 78.5q-72 93 -79 102h-65v-304q0 -50 76 -65t76 -37q0 -2 -4 -14h-524z" />
    <glyph glyph-name="ffi" unicode="ffi" horiz-adv-x="1786" 
d="M314 1271q103 103 298 103t292 -97q118 98 321 98q166 0 236.5 -21.5t103 -52t32.5 -79.5q0 -62 -57 -88q-20 -10 -50.5 -10t-49 13t-33.5 33t-30.5 43t-39.5 43q-55 46 -133 46t-119 -12t-67 -43q-53 -61 -53 -226v-122h564l61 6v-685q10 -30 10 -85q8 -49 107 -73
q21 -5 32 -12v-25q0 -12 -1 -25h-496q-2 8 -2 18v32q17 9 44.5 17t53.5 21q66 32 66 93v532q-3 60 -6 75l-6 30h-427l1 -559q0 -115 39 -158q41 -45 159 -51v-24q0 -12 -1 -26h-526q-2 28 -2 50q145 12 145 165v603h-383v-559q0 -112 26 -146t61 -47.5t91 -15.5v-24
q0 -12 -1 -26h-526q-2 28 -2 50q82 7 123.5 44t41.5 121v603h-158v81h69q52 0 64 9q21 14 21 63q4 197 107 300zM780 899q0 137 11 182.5t21 79.5q-37 63 -74 89q-76 52 -174 52q-90 0 -126 -55q-41 -61 -41 -226v-122h383z" />
    <glyph glyph-name="ffl" unicode="ffl" horiz-adv-x="1806" 
d="M1418 228l-1 962q0 33 -82 70q-90 42 -202 42q-90 0 -127 -55q-40 -61 -40 -226v-122h230v-81h-230v-559q0 -115 39 -158q41 -45 159 -51v-24q0 -12 -1 -26h-526q-2 28 -2 50q145 12 145 165v603h-383v-559q0 -107 24 -142.5t57 -50t87 -16.5v-24q0 -12 -1 -26h-516
q-2 28 -2 50q82 7 123.5 44t41.5 121v603h-158v81h69q52 0 64 9q21 14 21 63q4 197 110 300t300 103q146 0 227 -53q26 -17 40 -39q94 92 252 92q309 0 430 -100q38 -32 38 -74v-966q0 -81 33 -128t116 -56l-2 -50h-492q-1 5 -1 10v40q82 13 121 53.5t39 124.5zM780 899
q0 173 22 243q-67 113 -168 148q-32 11 -65 11t-64.5 -16t-55.5 -50q-52 -74 -52 -214v-122h383z" />
    <glyph glyph-name="ff" unicode="ff" horiz-adv-x="1232" 
d="M48 0q-2 28 -2 50q82 7 123.5 44t41.5 121v603h-158v81h69q52 0 64 9q21 14 21 63q4 197 107 300t293 103q149 0 239 -48q30 -15 48 -35q92 83 242 83q103 0 153.5 -27.5t69.5 -54.5t19 -63.5t-24.5 -62.5t-60.5 -26t-53.5 12t-30 30t-22.5 39t-22 39q-28 42 -66 42
t-62 -12t-40 -43q-31 -60 -31 -226v-122h230v-81h-230v-559q0 -115 39 -158q41 -45 159 -51v-24q0 -12 -1 -26h-526q-2 28 -2 50q145 12 145 165v603h-383v-559q0 -112 26 -146t61 -47.5t91 -15.5v-24q0 -12 -1 -26h-526zM780 899q0 137 11 182.5t21 79.5q-37 63 -74 89
q-76 52 -174 52q-90 0 -126 -55q-41 -61 -41 -226v-122h383z" />
    <glyph glyph-name="tt" unicode="tt" horiz-adv-x="1226" 
d="M904 1149q23 0 23 -39v-211h251v-84h-249v-501q0 -145 15.5 -176t42 -41.5t87.5 -10.5t127 22l8 -73q-107 -55 -203.5 -55t-143 17.5t-72.5 56.5q-48 71 -48 263v498h-375v-501q0 -145 15.5 -176t42 -41.5t78.5 -10.5t96 22l8 -73q-89 -55 -174.5 -55t-132 17.5
t-72.5 56.5q-48 71 -48 263v498h-149v44q133 54 215 170q24 34 45.5 68t31 43t19.5 9q23 0 23 -39v-211h378q61 65 113 202q30 48 48 48z" />
    <glyph glyph-name=".notdef" horiz-adv-x="1226" 
 />
    <glyph glyph-name=".null" horiz-adv-x="0" 
 />
    <glyph glyph-name="nonmarkingreturn" unicode="&#xd;" horiz-adv-x="1364" 
 />
    <glyph glyph-name="NULL" horiz-adv-x="0" 
 />
    <glyph glyph-name="NULL" horiz-adv-x="0" 
 />
    <glyph glyph-name="space" unicode=" " horiz-adv-x="480" 
 />
    <glyph glyph-name="exclam" unicode="!" horiz-adv-x="567" 
d="M187 1287.5q34 24.5 90.5 24.5t94 -27t37.5 -78.5t-5 -110.5t-13 -125t-17.5 -136.5t-20 -137t-20 -126.5t-13.5 -86t-5.5 -44t-4.5 -37q-9 -48 -24.5 -48t-22 11.5t-9.5 27t-4 31t-4.5 44t-13 90t-20 129t-21 138t-19.5 137.5q-19 154 -19 226.5t34 97zM162 92
q0 50 26 77q44 47 95 47t77 -26q47 -47 47 -85.5t-10 -60.5t-27 -38q-37 -35 -87 -35t-76 26q-45 45 -45 95z" />
    <glyph glyph-name="quotedbl" unicode="&#x22;" horiz-adv-x="748" 
d="M519 753q-47 111 -85 397q-4 34 -4 66t27 59t75 27t75 -27t27 -75q0 -59 -22 -175.5t-35 -162.5q-30 -109 -58 -109zM203 753q-47 105 -85 398q-5 34 -5 65.5t27 58.5t75 27t75 -27t27 -63t-4.5 -78t-13 -91.5t-19.5 -101t-24 -93.5q-28 -95 -53 -95z" />
    <glyph glyph-name="numbersign" unicode="#" horiz-adv-x="1136" 
d="M884 384l-124 6q-34 -136 -61 -269t-56 -270q-19 -90 -92 -90q-43 0 -61 61q-4 15 -4 26.5t10 50.5t26 93.5t35 117t37 118.5q39 129 49 162h-273q-34 -137 -61 -270.5t-46 -220t-36.5 -112.5t-45 -26t-39.5 9t-20 22q-18 28 -18 61.5t148 536.5l-76 -3q-109 0 -109 58.5
t128 58.5l88 -3l48 173l-91 -4q-118 0 -118 59.5t138 59.5l102 -4q19 66 38.5 131.5t37.5 131.5q37 142 52 268q4 46 84 46q43 0 53 -16q14 -22 14 -48t-11 -61.5t-27.5 -86t-37 -109t-38.5 -111.5q-45 -130 -49 -145h269q29 121 59 243t41 195.5t16 89.5t15 27q20 22 68 22
q77 0 77 -82q0 -36 -62 -219q-85 -249 -92 -276l80 2q126 0 126 -55q0 -63 -131 -63l-108 5l-48 -173l90 3q143 0 143 -63q0 -57 -137 -57zM445 674l-47 -173h276l45 173h-274z" />
    <glyph glyph-name="dollar" unicode="$" horiz-adv-x="1072" 
d="M550 1136q-6 -198 -9 -404l154 -91q138 -82 189 -152q47 -66 47 -162.5t-32 -160.5t-87 -106q-103 -78 -276 -87v-98q0 -80 -34 -98q-10 -5 -21.5 -5t-26 22.5t-15.5 64.5l2 115q-219 13 -368 106l21 286q20 5 25 5t12.5 -9t12.5 -22q10 -23 15.5 -63.5t31 -79.5
t65.5 -69q79 -62 193 -83v457l-139 79q-112 63 -163.5 137t-51.5 160.5t29.5 143.5t79.5 95q96 72 256 83q-1 24 -1 46v39q0 75 9 106t39 31q23 0 31 -21q14 -37 14 -90v-72q0 -19 -1 -38q154 -8 280 -63l30 -257q-22 -5 -29.5 -5t-16.5 8.5t-17 21.5q-13 24 -21 59
t-29.5 65t-51.5 52q-59 41 -146 54zM538 452q-2 -176 -2 -416q152 0 204 103q17 35 17 77t-12.5 70t-38.5 54q-41 40 -168 112zM454 1138q-133 -10 -185 -90q-17 -26 -17 -63q0 -79 107 -143l95 -57v353z" />
    <glyph glyph-name="percent" unicode="%" horiz-adv-x="1772" 
d="M1493 215.5q9 54.5 9 126t-10 134.5t-30 108q-44 93 -124 93q-110 0 -140 -184q-10 -58 -10 -130q0 -229 92 -299q32 -23 71.5 -23t67.5 21t46.5 60t27.5 93.5zM1035 358q0 158 83 266q85 111 224 111t228 -115q85 -110 85 -271q0 -153 -81 -259q-84 -110 -220 -112
q-145 0 -234 113q-85 108 -85 267zM491 -138q-46 0 -81 30q37 66 81 142l529 983q26 45 49.5 98t48.5 105q62 127 121 176q51 0 93 -28l-77 -130q-48 -84 -119.5 -205.5t-156.5 -276.5q-213 -391 -368 -738q-36 -72 -120 -156zM115 950q0 159 83 266q87 111 225 111
q139 0 228 -115q85 -110 85 -271q0 -154 -81 -259q-85 -109 -220 -111q-144 0 -235 113q-85 106 -85 266zM574 807.5q9 54.5 9 126t-10 134.5t-31 108q-42 94 -123 94q-111 0 -141 -184q-10 -58 -10 -130q0 -230 92 -300q32 -23 72 -23t68 21t46.5 60t27.5 93.5z" />
    <glyph glyph-name="ampersand" unicode="&#x26;" horiz-adv-x="1468" 
d="M984 832q-2 12 -2 25t2 29h409q1 -14 1 -26v-25q-9 -8 -48 -19q-71 -19 -85 -40q-38 -59 -85 -168q-92 -209 -156 -312q46 -58 88 -94.5t89 -36.5q85 0 190 153l59 -43q-55 -230 -184 -286q-40 -17 -98.5 -17t-133 47.5t-134.5 132.5q-97 -95 -169 -127
q-119 -51 -228.5 -51t-186.5 28t-130 76q-109 97 -109 241q0 131 84 233q70 85 254 206q-147 164 -147 284t120 202q113 78 250 78q177 0 237 -129q21 -45 21 -97t-19 -86t-56 -67q-51 -46 -215 -144q56 -63 138 -164q150 -186 229 -278q90 157 129 335q12 30 12 47.5
t-11.5 31t-29.5 25.5q-29 18 -85 36zM845 209q-239 309 -388 493q-98 -68 -144.5 -131.5t-46.5 -133t25.5 -130t70.5 -105.5q100 -100 249 -100q94 0 173 58q29 20 61 49zM440 1160q-13 -26 -13 -67q0 -82 131 -244q90 52 140.5 104.5t50.5 117.5q0 63 -31 104
q-57 75 -121 75q-113 0 -157 -90z" />
    <glyph glyph-name="quotesingle" unicode="'" horiz-adv-x="370" 
d="M172 753q-46 108 -84 397q-5 34 -5 66t27 59t75 27t74.5 -27t26.5 -63t-4.5 -78t-12.5 -92t-19 -101t-24 -93q-28 -95 -54 -95z" />
    <glyph glyph-name="parenleft" unicode="(" horiz-adv-x="687" 
d="M613 -268q-233 106 -355 347q-111 217 -111 492q0 433 255 693q88 89 211 145l53 -59q-197 -116 -298 -336q-89 -196 -89 -443q0 -385 209 -630q74 -86 178 -149z" />
    <glyph glyph-name="parenright" unicode=")" horiz-adv-x="687" 
d="M21 1350q11 28 53 59q233 -106 356 -346q110 -217 110 -492q0 -432 -255 -693q-88 -90 -211 -146q-41 31 -53 60q294 185 365 550q22 112 22 228.5t-22 229t-68 213.5q-99 214 -297 337z" />
    <glyph glyph-name="asterisk" unicode="*" horiz-adv-x="1218" 
d="M673.5 1284q26.5 -25 26.5 -67.5t-5.5 -93.5t-13.5 -102.5t-16.5 -102.5t-14.5 -98q16 8 47 25.5t69.5 38.5t80.5 43t80 41q85 41 108.5 41t40.5 -8.5t29 -22.5q26 -29 26 -64t-21 -59t-52 -31l-380 -83q12 -14 38 -40.5t57 -59t64.5 -68.5t60.5 -71q62 -79 62 -105.5
t-8 -43.5t-22 -30q-29 -28 -61 -28q-63 0 -87 51l-173 349l-174 -349q-24 -51 -81 -51q-38 0 -60 21q-37 35 -37 73q0 61 187 253q31 33 56.5 59t38.5 40l-380 83q-31 7 -52 31t-21 49.5t7 43t19 30.5q27 31 53.5 31t56.5 -11.5t68 -30t80 -40.5t80.5 -43t69.5 -38.5
t47 -25.5q-6 48 -15 99.5t-17 103.5q-20 130 -20 176t8 61t21 26q29 23 66 23t63.5 -25z" />
    <glyph glyph-name="plus" unicode="+" horiz-adv-x="1099" 
d="M107 618q56 21 184 21h191v189q0 125 8 184q27 3 52 3q45 0 66 -3q9 -65 9 -182v-191h189q110 0 184 -10q3 -27 3 -58.5t-3 -58.5q-52 -7 -184 -7h-189v-190q0 -109 -10 -183q-29 -3 -60 -3t-58 3q-7 52 -7 183v190h-323q-48 28 -51 78q-1 16 -1 35z" />
    <glyph glyph-name="comma" unicode="," horiz-adv-x="563" 
d="M116 -268q-18 28 -18 60q39 13 78 25t70 31q72 45 72 129q-27 66 -102 79q-98 16 -98 118q0 93 82 126q26 11 62 11t71 -17.5t61 -51.5q57 -73 57 -173.5t-27.5 -159t-73.5 -97.5q-92 -78 -234 -80z" />
    <glyph glyph-name="hyphen" unicode="-" horiz-adv-x="772" 
d="M89 402v128h602v-128h-602z" />
    <glyph glyph-name="period" unicode="." horiz-adv-x="556" 
d="M277 251q56 0 98 -41q40 -38 40 -94q0 -55 -40 -95q-41 -41 -98 -41q-55 0 -97 40q-40 39 -40 81t10.5 66.5t29.5 42.5q42 41 97 41z" />
    <glyph glyph-name="slash" unicode="/" horiz-adv-x="673" 
d="M45 -70q-5 20 -5 52q0 50 29 127l369 980q10 27 24 74.5t32 96.5q43 122 81 142q45 0 80 -24q-67 -237 -178.5 -521.5t-175.5 -447.5t-98 -261q-46 -132 -82 -213q-20 -5 -48 -5h-28z" />
    <glyph glyph-name="zero" unicode="0" horiz-adv-x="1156" 
d="M587 858q-72 0 -130 -35t-97 -91q-77 -112 -77 -276q0 -155 70 -263q77 -119 208 -119q151 0 233 119q74 106 74 266q0 157 -72 273q-78 126 -209 126zM579 -20q-124 0 -217 41t-154 107q-124 134 -124 327q0 191 122 323q137 148 370 148q234 0 372 -148
q124 -134 124 -327q0 -191 -122 -323q-137 -148 -371 -148z" />
    <glyph glyph-name="one" unicode="1" horiz-adv-x="743" 
d="M465 126q0 -66 103 -74q68 -5 85 -12.5t17 -23.5q0 -1 -5 -19h-588q-4 11 -4 21.5t14.5 17t37 10t48 7t47.5 11.5q52 17 52 63v642q0 61 -100 75q-67 9 -83 16t-16 17.5t4 21.5h588q5 -18 5 -26.5t-15 -15t-38 -9t-49.5 -4.5t-49.5 -8q-53 -15 -53 -66v-644z" />
    <glyph glyph-name="two" unicode="2" horiz-adv-x="921" 
d="M520 664q0 143 -158 143q-99 0 -190 -42q-26 -12 -44 -25l-22 73q85 82 242 107q48 7 100.5 7t104 -17t90.5 -49q85 -70 85 -181q0 -145 -206 -357l-171 -177h238q108 2 131 86q15 56 26.5 70t33.5 14l27 -3l-50 -313h-625l-11 39l283 336q72 87 105 210q11 41 11 79z
" />
    <glyph glyph-name="three" unicode="3" horiz-adv-x="935" 
d="M139 711q-17 17 -17 47l3 16q82 109 237 142q46 10 94.5 10t97.5 -13t88 -41q84 -60 84 -169q0 -111 -72 -189q-67 -71 -163 -82q154 0 241 -96q82 -90 82 -233q0 -141 -108 -241q-122 -111 -324 -111q-133 0 -187 21q-82 31 -82 65q0 63 43 88q14 8 25.5 8t33.5 -19.5
t49 -43.5q71 -63 95 -63q121 0 192 87q65 81 65 192q0 108 -62 182q-68 81 -187 81q-46 0 -100 -13l-45 52q267 89 334 234q16 36 16 77q0 123 -142 123q-71 0 -128 -28t-90.5 -47.5t-72.5 -35.5z" />
    <glyph glyph-name="four" unicode="4" horiz-adv-x="1001" 
d="M876 178q30 0 30 -52t-15 -52h-147v-203q0 -50 86.5 -62t86.5 -32q0 -9 -4 -16h-538q-4 9 -4 19t13.5 16.5t33 10t43 7t43.5 10.5q46 15 46 52v198h-471l-14 47l474 773q82 17 204 17v-733h133zM550 757l-354 -579h354v579z" />
    <glyph glyph-name="five" unicode="5" horiz-adv-x="888" 
d="M260 -193q128 0 196 86q60 75 60 196q0 137 -89 235q-100 109 -290 134q-26 6 -26 23l93 418h547l-36 -135h-435l-62 -218q216 0 364 -130q141 -123 141 -292q0 -153 -109 -257q-121 -116 -331 -116q-133 0 -187 21q-82 31 -82 65q0 63 43 88q14 8 25.5 8t33.5 -19.5
t49 -43.5q71 -63 95 -63z" />
    <glyph glyph-name="six" unicode="6" horiz-adv-x="1035" 
d="M330 728q110 52 210.5 52t173 -26t126.5 -76q114 -107 114 -292q0 -176 -132 -294q-126 -112 -296 -112q-218 0 -332 138q-101 122 -101 326q0 267 158 510q103 158 252 238q105 56 196 56q16 0 21.5 -5.5t5.5 -18.5t-3 -19t-38 -19.5t-93 -58t-110 -105.5
q-113 -133 -152 -294zM754 391q0 84 -18 144.5t-50 100.5q-65 78 -181 78q-90 0 -184 -55q-24 -124 -24 -214.5t19 -167t52 -127.5q65 -101 177 -101q90 0 147 87q62 95 62 255z" />
    <glyph glyph-name="seven" unicode="7" horiz-adv-x="856" 
d="M832 847q-211 -428 -375 -1149h-210q203 732 441 1097l-432 -28q-107 -7 -130 -113q-15 -71 -25 -88t-22 -17t-28 4l23 335l10 11h733z" />
    <glyph glyph-name="eight" unicode="8" horiz-adv-x="1013" 
d="M110.5 165q-28.5 55 -28.5 115t22 108.5t58 90.5q59 68 187 152q-98 72 -138 125q-74 98 -74 195q0 116 97 187q103 77 282 77q163 0 252 -81q73 -66 73 -154q0 -129 -121 -235q-36 -32 -78 -64q142 -90 192 -150q101 -119 101 -259q0 -196 -230 -266q-86 -26 -197.5 -26
t-186.5 23.5t-128.5 65t-82 96.5zM586 486q-44 30 -92 61l-20 13q-131 -83 -175 -124q-85 -79 -85 -151q0 -104 73 -165t206 -61t187.5 67.5t54.5 163t-149 196.5zM713 986q0 156 -197 156q-97 0 -149 -35.5t-52 -89t16.5 -88t45.5 -64.5q46 -48 149 -111q97 63 129 99
q58 65 58 133z" />
    <glyph glyph-name="nine" unicode="9" horiz-adv-x="1084" 
d="M712 178q-110 -52 -210.5 -52t-173 26t-126.5 76q-114 107 -114 292q0 176 132 294q126 112 296 112q218 0 332 -138q101 -122 101 -326q0 -267 -158 -510q-103 -158 -252 -238q-105 -56 -196 -56q-16 0 -21.5 5.5t-5.5 18.5t3 18.5t38 19.5t93 58.5t110 105.5
q113 133 152 294zM288 514q0 -83 18 -143.5t50 -100.5q65 -78 181 -78q90 0 184 55q24 124 24 214.5t-19 167t-52 127.5q-65 101 -177 101q-90 0 -147 -87q-62 -95 -62 -256z" />
    <glyph glyph-name="colon" unicode=":" horiz-adv-x="590" 
d="M294 251q58 0 98.5 -40.5t40.5 -94.5q0 -53 -41 -95q-39 -41 -98 -41q-55 0 -97 40q-40 39 -40 81t10.5 66.5t29.5 42.5q42 41 97 41zM294 1039q58 0 98.5 -40.5t40.5 -94.5q0 -53 -41 -95q-39 -41 -98 -41q-55 0 -97 40q-40 39 -40 81t10.5 66.5t29.5 42.5q42 41 97 41z
" />
    <glyph glyph-name="semicolon" unicode=";" horiz-adv-x="594" 
d="M294 1039q58 0 98.5 -40.5t40.5 -94.5q0 -53 -41 -95q-39 -41 -98 -41q-55 0 -97 40q-40 39 -40 81t10.5 66.5t29.5 42.5q42 41 97 41zM133 -268q-17 27 -17 60q39 13 78 25.5t70 31.5q71 43 71 128q-27 66 -102 79q-98 16 -98 118q0 93 83 126q26 11 61.5 11t70.5 -17.5
t62 -51.5q56 -71 56 -173t-27 -160t-73 -97q-92 -78 -235 -80z" />
    <glyph glyph-name="less" unicode="&#x3c;" horiz-adv-x="626" 
d="M524 69q0 -51 -48 -51q-44 0 -73 41l-339 494q28 37 92 128.5t103 145t77 101.5q83 106 133 140q44 0 66 -34q7 -11 7 -25q-44 -97 -160 -235q-49 -58 -98 -114t-89 -107q18 -25 81.5 -106.5t102.5 -134t71 -100.5q74 -111 74 -143z" />
    <glyph glyph-name="equal" unicode="=" horiz-adv-x="845" 
d="M221 636q-90 0 -90 46.5t96 46.5h375q111 0 111 -50q0 -44 -84 -44l-51 2h-312zM221 394q-90 0 -90 46.5t96 46.5h375q111 0 111 -50q0 -44 -84 -44l-51 2h-312z" />
    <glyph glyph-name="greater" unicode="&#x3e;" horiz-adv-x="626" 
d="M223 59q-29 -41 -63 -41q-58 0 -58 51q0 64 286 429q30 37 43 55q-40 51 -89 107t-98 114q-116 138 -160 235q0 40 48 55q13 4 25 4q50 -34 110.5 -111t99.5 -130.5t75 -104.5q92 -132 120 -169z" />
    <glyph glyph-name="question" unicode="?" horiz-adv-x="806" 
d="M256 226q22 10 47.5 10t48.5 -10t40 -27q38 -36 38 -75t-10.5 -61.5t-27.5 -38.5q-38 -37 -88 -37q-51 0 -77 27q-46 48 -46 97q0 50 26.5 77.5t48.5 37.5zM257 358q-6 55 -19 108.5t-13 95.5t27.5 67.5t68 52t88.5 55.5t89 65q95 85 95 182q0 94 -74 164t-167 70
q-33 0 -57.5 -19t-47 -42t-46.5 -42t-49 -19t-38.5 7t-23.5 19q-22 25 -22 62.5t25 66.5t63 46q73 32 157 32t156.5 -29t130.5 -78q130 -111 130 -252q0 -203 -196 -326q-122 -76 -159 -130t-37 -117v-39h-81z" />
    <glyph glyph-name="at" unicode="@" horiz-adv-x="1799" 
d="M634 -18q102 -30 244.5 -30t344.5 55l-7 -73q-194 -91 -414 -91q-285 0 -477 142q-213 157 -213 435q0 240 124 444q120 197 326 312q210 119 453 119q280 0 459 -163q191 -175 191 -475q0 -111 -34.5 -207t-68.5 -153.5t-78 -101.5q-95 -97 -213 -97q-76 0 -131 58
q-46 51 -64 133q-110 -139 -287 -139q-137 0 -215 96q-71 88 -71 231q0 212 135 375q142 172 352 172q223 0 263 -211q12 -63 12 -123.5t-5 -109t-10 -96.5q-16 -137 -16 -195q0 -101 65 -101q119 0 171 289q17 94 17 199.5t-39 209t-104 170.5q-127 132 -332 132
q-168 0 -330 -92q-263 -149 -348 -445q-30 -102 -30 -220.5t40.5 -208.5t114 -150t175.5 -90zM1095 529.5q12 86.5 12 146t-4 100.5t-18 78q-34 91 -116 91q-127 0 -221 -159q-87 -150 -87 -311q0 -159 91 -209q32 -18 71 -18t72 9t65 23q59 28 113 75q10 88 22 174.5z" />
    <glyph glyph-name="A" unicode="A" horiz-adv-x="1376" 
d="M810 620l-197 492l-183 -492h380zM950 129q18 21 18 42t-7.5 47.5t-19 60.5t-26 72t-27.5 73q-34 86 -41 108h-451q-5 -14 -15.5 -40t-23.5 -59.5t-26.5 -70.5t-24.5 -72q-26 -78 -26 -111.5t17.5 -53t43.5 -31.5q34 -17 130 -37v-57h-472v52q20 17 41.5 25.5t42.5 17.5
q52 22 71 58t29.5 64t21.5 56l374 958q4 10 4.5 22.5t1.5 24.5q3 33 13 46q94 0 156 -47l459 -1101q24 -56 73 -82q23 -11 48 -19.5t52 -22.5l-2 -52h-582l-2 52q80 26 106 41t44 36z" />
    <glyph glyph-name="B" unicode="B" horiz-adv-x="1386" 
d="M284 1023q0 103 -16.5 131.5t-33.5 39t-41 17.5t-55 15.5t-70 24.5l2 51h568q252 0 384 -44q209 -71 209 -283q0 -139 -116 -219q-89 -60 -245 -87q163 -7 284 -79q143 -85 143 -241q0 -183 -171 -275q-139 -74 -336 -74h-720l-2 52q36 10 74 20t70 28q72 40 72 121v802z
M524 630q-25 -22 -25 -88v-268q0 -118 55 -168q21 -19 55 -19h162q118 0 195 65q81 70 81 184q0 194 -182 256q-98 33 -193 35.5t-148 2.5zM712 700q320 0 320 243q0 188 -166 247q-87 32 -178 34.5t-143 2.5h-46v-497q32 -30 80 -30h133z" />
    <glyph glyph-name="C" unicode="C" horiz-adv-x="1426" 
d="M878 81q286 0 405 223l49 -7l-9 -189q-165 -93 -389 -124q-68 -10 -128 -10q-301 0 -494 177q-200 184 -200 489q0 293 204 487q211 200 548 200q203 0 416 -82l41 -302l-47 -2q-19 19 -46 66q-50 88 -72 110q-133 133 -320 133q-202 0 -341 -147q-149 -158 -149 -423
q0 -274 144 -436q146 -163 388 -163z" />
    <glyph glyph-name="D" unicode="D" horiz-adv-x="1604" 
d="M507 1225v-954q0 -87 24 -123q43 -64 124 -68q42 -3 143.5 -3t196.5 47t157 122q122 149 122 363q0 275 -142 437q-156 179 -457 179h-168zM292 1010q0 138 -40 170q-43 34 -100 48t-84 23l2 51h592q598 0 784 -344q66 -123 66 -274.5t-46 -270t-136 -210.5
q-200 -203 -541 -203h-719l-2 52q36 11 75.5 19t72.5 23q76 36 76 125v791z" />
    <glyph glyph-name="E" unicode="E" horiz-adv-x="1386" 
d="M1198 1312q19 0 37 -4v-311l-52 -2q-24 22 -37 54t-26 63t-32 57t-53 37t-76 16.5t-87 8.5q-60 4 -142 4q-154 0 -230 -9q-4 -52 -4 -103v-406h288q113 0 145.5 23.5t50.5 51.5t42 72l15 27h57v-429l-57 -3q-32 87 -67 120q-64 62 -147 62h-327v-337q0 -150 58 -198
q42 -36 170 -36h98q126 0 187 19t101 47.5t60.5 69.5t34.5 75t41 61h63l-66 -351q-17 -3 -32 -3l-115 12h-1026l-2 49q46 25 94.5 33.5t66 14.5t29.5 23q23 36 23 147v757q0 132 -49 166q-25 18 -65.5 28t-98.5 33l2 51h1020z" />
    <glyph glyph-name="F" unicode="F" horiz-adv-x="1262" 
d="M506 733l213 -4q195 0 237 45q26 27 42 68t28 61l59 -2v-435q-29 -3 -57 -3q-33 68 -57 107t-52 58.5t-65.5 24t-98.5 4.5h-249v-399q0 -143 65 -166q25 -9 83 -18t96 -22v-52h-674l-2 52q37 17 90 28t71.5 18t30.5 25q25 37 25 138v760q0 100 -17 130.5t-34.5 41.5
t-42.5 19t-57 16t-72 23v51l1001 3h168v-310l-45 -2q-24 27 -42.5 64t-39.5 71q-51 84 -112 93q-74 11 -219 11h-192q-53 0 -64 -8q-17 -14 -17 -64v-427z" />
    <glyph glyph-name="G" unicode="G" horiz-adv-x="1576" 
d="M1552 684l2 -52q-31 -12 -61 -22.5t-54 -27.5q-53 -38 -53 -119v-368q-233 -121 -516 -121q-343 0 -550 182q-208 183 -208 482q0 202 110 364q104 151 288 239q182 86 397 86q214 0 439 -80l30 -302q-32 -3 -58 -3q-20 17 -41 58q-45 86 -57 100q-128 150 -339 150
q-231 0 -380.5 -164.5t-149.5 -410.5q0 -266 149 -439q149 -174 387 -174q162 0 267 65q12 102 12 201q0 147 -28 225q-15 41 -84 56q-27 6 -55.5 10t-48.5 13v26q0 14 2 26h600z" />
    <glyph glyph-name="H" unicode="H" horiz-adv-x="1705" 
d="M495 625v-370q0 -98 19.5 -125t38 -34.5t43.5 -12.5l55 -11q30 -6 66 -20l-2 -52h-644l-2 26t-1 26q38 16 92 27.5t71 19.5t28 27q21 35 21 139v773q0 96 -17.5 124t-35 36.5t-41 15t-53 14t-64.5 23.5l2 51h643l2 -52q-38 -18 -91.5 -29.5t-72 -20t-31.5 -26.5
q-26 -36 -26 -137v-325h714v335q0 91 -18 117t-35.5 34.5t-39.5 14.5q-72 19 -110 38l2 51h627l2 -52q-39 -14 -69.5 -21.5t-54.5 -15t-40.5 -18t-27.5 -30.5q-21 -38 -21 -135v-763q0 -99 15.5 -128t32 -38.5t40 -15.5t54.5 -12.5t71 -20.5v-52h-629l-2 52q37 20 83.5 29.5
t64.5 15.5t30 23q25 34 25 132v373h-714z" />
    <glyph glyph-name="I" unicode="I" horiz-adv-x="807" 
d="M509 260q0 -99 19 -127t38.5 -36t45 -13t57.5 -11t70 -20l-2 -53h-665v52q45 21 96.5 28t70 13.5t31.5 26.5q24 38 24 158v752q0 159 -67 178q-21 6 -46 10q-73 10 -113 33l2 51h663l2 -52q-36 -12 -76 -21t-73 -25q-77 -37 -77 -123v-821z" />
    <glyph glyph-name="J" unicode="J" horiz-adv-x="726" 
d="M195 -251q79 0 79 257v1029q0 100 -18.5 129t-37.5 38t-44 15t-57 12.5t-71 20.5l3 52h667v-51q-40 -17 -93.5 -27.5t-73 -18t-33.5 -25.5q-27 -37 -27 -136v-874q0 -390 -225 -482q-53 -21 -102 -21t-83.5 6t-64.5 21q-72 33 -72 99q0 39 25.5 62t64 23t58 -20t33 -44.5
t28.5 -44.5t44 -20z" />
    <glyph glyph-name="K" unicode="K" horiz-adv-x="1467" 
d="M68 1284l5 18h666q4 -12 4 -22t-17 -17t-43 -11.5t-56 -8.5t-56 -13q-60 -19 -60 -64v-440h86l456 452q4 11 4 26t-13 25t-32 14.5t-41.5 6.5t-41.5 4q-45 6 -45 30l5 18h564l4 -18q0 -18 -57.5 -32.5t-96.5 -23.5q-82 -17 -130 -56l-388 -398l468 -644q20 -22 93 -44.5
t96 -31.5q55 -21 55 -34t-4 -20h-684q-6 12 -6 20.5t13 15t32 10.5t42 6.5t42 7.5q45 14 45 42q0 10 -17 32l-359 526h-90v-536q0 -66 119 -72q78 -3 98 -10t20 -23q0 -1 -5 -19h-670q-4 11 -4 21.5t17 17t42 10t54.5 7t54.5 10.5q59 18 59 64v1036q0 62 -114 77t-114 41z
" />
    <glyph glyph-name="L" unicode="L" horiz-adv-x="1296" 
d="M1242 -11q-121 11 -219 11h-953l-2 54q41 14 82.5 23.5t74.5 26.5q74 38 74 136v794q0 103 -17.5 131.5t-36 38.5t-44 16t-58.5 12t-74 19l2 51h676v-52q-42 -18 -98 -27.5t-75.5 -17t-32.5 -25.5q-26 -36 -26 -140v-728q0 -87 11 -135.5t48 -71t106 -27t150 -4.5
t125.5 4.5t84.5 19.5q85 32 131 119q17 32 32.5 66t41.5 61l60 -2z" />
    <glyph glyph-name="M" unicode="M" horiz-adv-x="1925" 
d="M1678 271q10 -103 56 -154q11 -34 74 -43q76 -10 91 -22l-2 -52h-623l-2 52q31 10 65.5 20.5t62.5 27.5q66 39 66 111l-62 857l-382 -863q-31 -69 -73 -205h-79q-39 86 -110 233.5t-115.5 240t-88.5 186.5q-104 227 -161 369q-9 -99 -20.5 -198.5t-20.5 -200.5
q-24 -248 -24 -347.5t15.5 -129t42 -48t61 -29.5t72.5 -24l-2 -52h-484l-2 52q35 14 69 24.5t62 26.5q63 35 72 117l76 748q7 72 7 123t-17.5 75t-45 37.5t-60 22.5t-62.5 25l2 51h389q43 -174 87 -268l360 -767l357 814q48 110 48 221h414v-52q-103 -34 -129 -55
q-56 -44 -56 -113z" />
    <glyph glyph-name="N" unicode="N" horiz-adv-x="1724" 
d="M1463 -9q-41 -17 -106 0q-89 107 -164 187l-790 831v-702q0 -156 53 -193q42 -29 102 -37.5t89 -23.5q0 -26 -3 -53h-564q-2 8 -2 16v38q42 12 83.5 21.5t76.5 27.5q76 40 85 136v852q-46 74 -113 107q-31 14 -66 24.5t-76 27.5v52h349l941 -973v629q0 92 -20 151t-43 77
t-51.5 27t-59 15.5t-58.5 20.5q0 26 3 53h527v-54q-44 -20 -77 -33.5t-56.5 -27t-38.5 -29.5t-24 -42q-15 -46 -17.5 -293t-2.5 -405t10.5 -247t12.5 -180z" />
    <glyph glyph-name="O" unicode="O" horiz-adv-x="1603" 
d="M345 714q0 -137 36.5 -259t102.5 -212q139 -192 353 -192q185 0 301 141q120 146 120 393q0 284 -136 473q-138 192 -353 192q-180 0 -297 -134q-127 -143 -127 -402zM112 642q0 109 27.5 205t75.5 172.5t114 134t143 96.5q155 77 332 77q288 0 484 -184
q128 -120 178 -301q25 -90 25 -218.5t-56.5 -253t-153.5 -212.5q-203 -184 -497 -184q-274 0 -467 176q-205 188 -205 492z" />
    <glyph glyph-name="P" unicode="P" horiz-adv-x="1305" 
d="M611 1232q-55 0 -115 -5v-952q0 -112 17 -141t35 -37t43 -13q90 -16 132 -32l-2 -52h-650l-3 52q110 31 142 48q70 40 70 122v809q0 97 -17 125t-34 38t-40.5 17t-53.5 15.5t-66 24.5l2 51h496q289 0 441 -50q239 -77 239 -313q0 -192 -138 -297q-123 -94 -323 -94
q-81 0 -131.5 18.5t-63.5 27.5t-13 20q0 18 44 18h15q185 0 269 51q108 67 108 242q0 163 -136 242q-113 65 -267 65z" />
    <glyph glyph-name="Q" unicode="Q" horiz-adv-x="1592" 
d="M346 712q0 -139 38.5 -264t105.5 -214q137 -183 345 -183q182 0 297 135q126 148 126 401q0 280 -136 469q-139 194 -352 194q-182 0 -300 -140q-124 -144 -124 -398zM1602 -285q-85 -29 -170.5 -29t-127.5 4t-80 13q-88 21 -195 76t-169 89q-149 81 -210 121
q-244 65 -386 224q-152 171 -152 428q0 307 204 501q196 185 488 185q290 0 484 -183q203 -193 203 -493q0 -258 -165 -441q-156 -173 -402 -221q208 -101 291.5 -128.5t135.5 -38.5q103 -23 239 -35z" />
    <glyph glyph-name="R" unicode="R" horiz-adv-x="1437" 
d="M1441 -2q-196 -48 -306 4q-114 55 -211 182q-75 100 -135.5 204.5t-85 141t-37.5 53t-28 27.5q-26 18 -86 22l-63 4v-385q0 -98 20 -124t39 -33t43 -11q72 -12 114 -31l-2 -52h-633l-2 52q42 23 88.5 30t64 13.5t29.5 25.5q24 38 24 156v758q0 93 -17 120.5t-33.5 37.5
t-39.5 17.5t-52 16t-64 24.5l2 52h461q188 0 276.5 -11t160.5 -31t128 -57q123 -81 123 -234q0 -139 -117 -228q-99 -74 -247 -95q45 -61 90.5 -125t90.5 -128q109 -152 156 -207.5t67 -73.5t45 -31q54 -28 137 -28v-56zM489 703q151 0 210.5 6.5t110.5 21t90 43.5
q86 62 86 184q0 181 -163 235q-88 29 -175 31.5t-137 2.5h-22v-524z" />
    <glyph glyph-name="S" unicode="S" horiz-adv-x="1167" 
d="M137 400l59 2q14 -24 22 -51t21 -70.5t48.5 -88.5t82.5 -74q96 -60 221 -60q107 0 183 51q89 59 89 159q0 124 -225 251q-63 36 -129.5 73.5t-130 78t-113.5 88.5q-111 107 -111 232q0 171 146 261q124 75 304 75q199 0 381 -93l13 -285h-62q-13 24 -21 50t-21.5 64.5
t-45 76t-72.5 62.5q-80 48 -188 48q-91 0 -145 -31.5t-78 -64.5t-24 -80t31 -88t81 -78.5t114.5 -73.5t132 -74t132 -80t114.5 -92q112 -112 112 -244q0 -185 -154 -284q-131 -86 -326 -86q-180 0 -345 58q-55 20 -96 45v323z" />
    <glyph glyph-name="T" unicode="T" horiz-adv-x="1395" 
d="M954 1229l-134 -1h-19v-987q0 -110 61 -149q42 -26 165 -40v-36q0 -8 -2 -16h-662l-2 52q40 14 80.5 25t72.5 29q72 40 72 135v987h-146q-90 0 -138 -7t-77.5 -34.5t-54 -63.5t-46 -74.5t-44.5 -66.5h-46l25 326q255 -10 678 -10t596 12l32 -329h-48q-23 28 -43.5 66.5
t-44.5 74.5q-58 88 -120 98q-57 9 -155 9z" />
    <glyph glyph-name="U" unicode="U" horiz-adv-x="1639" 
d="M239 664l5 360q0 75 -8.5 110t-33 53t-55.5 29t-64 18.5t-57 16.5l3 51h660l2 -52q-42 -15 -75.5 -22t-59 -13t-44 -15.5t-30.5 -29.5q-23 -38 -23 -147v-427q0 -242 89 -367q106 -147 340 -147q429 0 429 531v393q0 110 -16 142t-34 44t-44 20t-60.5 16t-78.5 23v51h539
l2 -52q-24 -13 -56.5 -18t-62.5 -12q-75 -17 -91 -70q-16 -55 -16 -128l4 -308q0 -229 -27.5 -337t-66.5 -177t-103 -120q-137 -106 -385 -106q-225 0 -377 101q-170 114 -193 326q-12 99 -12 263z" />
    <glyph glyph-name="V" unicode="V" horiz-adv-x="1405" 
d="M581 1302l6 -60q-20 -6 -51 -13t-61 -18q-73 -27 -73 -73q0 -38 98.5 -256t140.5 -311q97 -215 138 -320q20 53 52 128t68 159.5t72 172.5t65 166q66 178 66 227t-20 70t-50 32.5t-64.5 18t-62.5 15.5q-3 13 -3 29t3 33h516q3 -27 3 -55q-29 -20 -63 -35.5t-68.5 -31.5
t-62.5 -59t-50 -95t-39.5 -104.5t-44 -115t-69 -166t-85.5 -212.5q-121 -303 -172 -439q-46 -10 -58.5 -9t-18.5 1t-13 2q-121 279 -244 552.5t-194.5 433t-90 185t-41.5 41.5q-33 24 -120 50l2 57h589z" />
    <glyph glyph-name="W" unicode="W" horiz-adv-x="1933" 
d="M547 1302l5 -20q0 -32 -88.5 -41.5t-88.5 -58.5q0 -11 48.5 -150t72.5 -208t49 -139t47 -133q34 -94 73 -199l269 718q-13 30 -24.5 60.5t-24.5 60.5q-10 8 -40 20l-63 25q-82 33 -82 45q0 6 7 20h642q6 -18 6 -28t-14 -18t-35.5 -11t-46.5 -4.5t-47 -6.5
q-49 -10 -49 -46q0 -33 127.5 -424.5t133.5 -408.5q6 19 20.5 62.5t34 102.5t42.5 129t46 140.5t44.5 138t38.5 122.5q36 120 36 142t-23.5 34.5t-56 18.5t-66.5 10.5t-55 15.5l-6 11l6 20h517q12 0 18 -11q0 -22 -45 -32t-78.5 -17t-63.5 -17q-71 -24 -86.5 -67
t-26.5 -83.5t-24 -82.5l-299 -991q-6 -20 -31 -20q-43 0 -54 20q-19 36 -30.5 81.5t-25.5 84.5l-284 827l-259 -745q-10 -29 -19.5 -61.5t-19.5 -64.5q-41 -130 -65 -140q-10 -4 -27.5 -4t-34 22.5t-29 52.5t-21.5 60.5t-57.5 160t-137.5 370.5t-182 483q-15 39 -42.5 58.5
t-60 32.5t-64.5 25t-56 36l7 22h643z" />
    <glyph glyph-name="X" unicode="X" horiz-adv-x="1463" 
d="M861 1246q-2 5 -2 20v26q0 5 2 10h513q2 -8 2 -16v-36q-16 -6 -45 -14.5t-63 -23.5q-85 -36 -132 -86q-39 -41 -83 -97l-242 -304l371 -489q57 -77 85 -101q49 -42 88.5 -53t66 -18t40.5 -12q0 -24 -2 -52h-652q-2 8 -2 15v37q156 33 156 104q0 35 -20 60l-263 349
l-223 -271q-79 -95 -79 -150q0 -54 164 -87q1 -7 1 -17v-24q0 -8 -1 -16h-521q-2 8 -2 15v37q20 8 48.5 16.5t59.5 21.5q76 30 106 62q41 42 87 100l313 376l-359 469q-68 90 -196 129q-31 10 -56 20v36q0 9 2 20h642q2 -26 2 -52q-104 -21 -141 -69q-14 -17 -14 -33
q0 -21 17 -53l233 -307l183 226q54 68 58 85.5t4 30.5q0 40 -38.5 71t-107.5 45z" />
    <glyph glyph-name="Y" unicode="Y" horiz-adv-x="1345" 
d="M837 1273q0 13 2 29h502v-52q-104 -43 -136 -63q-62 -42 -102 -101l-328 -503v-337q0 -95 20.5 -120t40 -31.5t43.5 -10.5q76 -15 113 -32l-2 -52h-646l-2 52q38 21 86.5 28t68.5 13t34 23q29 34 29 138v308l-365 572q-36 56 -147 100q-29 12 -50 17v51h620l2 -52
q-99 -15 -144 -63q-17 -19 -17 -40t18 -57t46 -82.5t62 -99t65.5 -100t57 -85.5t36.5 -56q7 11 29 43t50.5 76t60.5 95t58 100q62 114 62 150t-18.5 53.5t-44.5 29t-54.5 19t-47.5 13.5z" />
    <glyph glyph-name="Z" unicode="Z" horiz-adv-x="1305" 
d="M381 89q47 -15 90 -15h139q274 0 352 30q41 17 61 45t38 62q50 94 102 148l56 -2l-60 -367h-41l-144 10h-877l-4 43l834 1182h-396q-102 0 -139 -13q-74 -24 -116 -100q-20 -35 -38.5 -71t-41.5 -69q-26 0 -53 3l27 332h32l986 -5q13 -6 13 -30l-1 -27l-745 -1047
q-48 -65 -74 -109z" />
    <glyph glyph-name="bracketleft" unicode="[" horiz-adv-x="662" 
d="M184 292l-11 1157q0 25 22 43q37 32 65 32l457 5q64 0 90 -40q9 -14 9 -34q0 -75 -95 -75h-392q0 -212 -9 -424t-9 -427.5t5 -590.5l366 6q25 0 43 -22q32 -37 32 -73q0 -63 -88 -63l-426 15q-40 0 -52 22.5t-12 57.5z" />
    <glyph glyph-name="backslash" unicode="\" horiz-adv-x="689" 
d="M17 1378q29 24 80 24q42 -40 64 -98.5t32.5 -93.5t22.5 -68l401 -1070q16 -42 19.5 -93t7.5 -96h-19q-41 0 -58 5q-38 84 -80 208t-106 288.5t-127 329.5q-165 426 -237 664z" />
    <glyph glyph-name="bracketright" unicode="]" horiz-adv-x="664" 
d="M426 -199l-426 -15q-38 0 -63 14t-25 57q0 89 147 89l149 -9h145q5 375 5 591t-8.5 428t-9.5 424h-406q-32 0 -56.5 21t-24.5 47.5t9 40.5t23 23q26 17 67 17l457 -5q46 0 78 -48q9 -14 9 -27l-8 -1009q0 -166 8.5 -287.5t8.5 -199.5t-16 -115t-63 -37z" />
    <glyph glyph-name="asciicircum" unicode="^" horiz-adv-x="1192" 
d="M994 738q-41 -16 -95 -16q-76 88 -137 189t-96.5 162.5t-71.5 119.5q-38 -59 -74.5 -119t-73.5 -120q-87 -142 -158 -232q-53 0 -94 16q56 130 161.5 314t130.5 229q39 73 87 111q42 0 80 -23q42 -73 88 -152.5t91 -160.5q106 -191 162 -318z" />
    <glyph glyph-name="underscore" unicode="_" horiz-adv-x="935" 
d="M44 -68q46 19 152 19h639q58 -25 58 -80q-39 -18 -125 -18h-666q-29 12 -43.5 29t-14.5 50z" />
    <glyph glyph-name="grave" unicode="`" horiz-adv-x="968" 
d="M671 1122q0 -26 -23 -26q-17 0 -41.5 21.5t-69 62t-95 87t-101.5 93.5t-80.5 73.5t-29.5 48t6.5 36t18.5 26.5q24 26 48 26q43 0 68 -33.5t61.5 -82.5t76.5 -102l115.5 -154t42.5 -62t3 -14z" />
    <glyph glyph-name="a" unicode="a" horiz-adv-x="1013" 
d="M412 93q106 0 218 107v255q-26 -9 -61 -20t-73 -25.5t-75.5 -32.5t-66.5 -41q-66 -53 -66 -114.5t32 -95t92 -33.5zM633 129q-140 -149 -312 -149q-153 0 -211 112q-19 37 -19 90.5t28 98.5t73.5 78.5t103.5 57.5t118 42t116.5 31t99.5 24v95q0 116 -25.5 160t-61.5 63.5
t-74.5 19.5t-65.5 -6t-53 -17q-62 -27 -62 -67q0 -16 12 -38q22 -43 22 -71t-24.5 -54.5t-58.5 -26.5t-54.5 10.5t-34.5 27.5q-28 36 -28 83t18.5 80t48.5 58.5t69 43.5t80 29q77 22 170 22t157 -24t98 -72.5t44 -120.5t10 -168l-6 -217q0 -225 47 -225q34 0 88 69l42 -45
q-46 -75 -75 -99q-55 -44 -123.5 -44t-110.5 41.5t-46 107.5z" />
    <glyph glyph-name="b" unicode="b" horiz-adv-x="1134" 
d="M344 665v-541q0 -44 120 -61q35 -5 82 -5t105.5 17t106.5 57q108 93 108 280q0 170 -75 276q-76 106 -207.5 106t-239.5 -129zM344 758q154 168 323 168t281 -146q104 -137 104 -318q0 -329 -288 -439q-112 -43 -217 -43t-169.5 12t-113.5 33q-106 46 -106 109v1029
q-27 42 -168 91l2 34l266 79l86 9v-618z" />
    <glyph glyph-name="c" unicode="c" 
d="M879 188q-30 -99 -136 -156q-96 -52 -210.5 -52t-197.5 38.5t-139 103.5q-114 132 -114 326q0 203 134 338q138 140 356 140q215 0 292 -104q26 -36 26 -73t-10 -55t-24 -30q-29 -22 -64 -22t-51 15.5t-23 39t-11 50.5t-18 51q-32 54 -132 54q-121 0 -203 -88
q-89 -97 -89 -262q0 -161 81 -268q87 -114 236 -114q124 0 206 50q29 18 59 41z" />
    <glyph glyph-name="d" unicode="d" horiz-adv-x="1183" 
d="M799 222v288q0 143 -41 210q-43 69 -130 106q-46 20 -101 20t-104.5 -30.5t-84.5 -81.5q-72 -107 -72 -257t73 -257q83 -121 225.5 -121t234.5 123zM804 143q-145 -163 -316 -163q-174 0 -289 119q-119 123 -119 315q0 225 132.5 367t331.5 142q69 0 130 -22t125 -52v326
q-26 41 -170 91l2 35l282 68l72 7v-1177q0 -60 59 -89q45 -23 103 -23v-55l-267 -44h-67z" />
    <glyph glyph-name="e" unicode="e" 
d="M693 610q-15 249 -193 249q-97 0 -160 -81q-59 -74 -74 -193l353 9q47 2 74 16zM840 193l29 -28q-37 -87 -144 -138q-98 -47 -198.5 -47t-181 34t-139.5 96q-124 130 -124 337q0 208 134 347q126 132 307 132q144 0 241 -86q96 -84 116 -220q11 -51 11 -85v-9h-632
q-1 -8 -1 -15v-14q0 -187 100 -286q91 -90 226.5 -90t255.5 72z" />
    <glyph glyph-name="f" unicode="f" horiz-adv-x="663" 
d="M48 0q-2 28 -2 50q14 8 36 11.5t44 8.5q55 12 64 43q21 40 21 102v603h-158v81h69q52 0 64 9q21 14 21 63q4 197 96 300t264 103q103 0 153.5 -27.5t69.5 -54.5t19 -63.5t-24.5 -62.5t-60.5 -26t-53.5 12t-30 30t-22.5 39t-22 39q-28 42 -66 42t-62 -12t-40 -43
q-31 -60 -31 -226v-122h230v-81h-230v-559q0 -101 22 -147q11 -36 129 -50q27 -4 47 -12v-24q0 -12 -1 -26h-546z" />
    <glyph glyph-name="g" unicode="g" horiz-adv-x="1001" 
d="M300 15q-97 -81 -97 -152q0 -109 213 -129q28 -2 63.5 -2t94 8.5t108.5 27.5q118 43 118 114q0 115 -243 119l-79 1q-68 2 -178 13zM285 632q0 -52 11 -99t34 -83q51 -76 144 -76q120 0 150 133q10 41 10 96.5t-14.5 103t-39.5 79.5q-52 66 -134 66q-69 0 -114 -60
q-47 -62 -47 -160zM476 926q96 0 198 -53l74 9q80 10 116 10q44 0 74 -4l-15 -127q-52 13 -116 27l-77 15q57 -76 68 -113t11 -90t-31 -112.5t-82 -99.5q-100 -80 -241 -80q-50 0 -128 18q-12 -9 -24.5 -16t-22.5 -16q-24 -20 -24 -48.5t26.5 -40.5t77.5 -17t124.5 -7.5
t151 -8.5t129.5 -22t90 -44q81 -58 81 -158q0 -136 -148 -220q-140 -79 -349 -79q-168 0 -273 54q-93 48 -93 113q0 97 153 208q-119 50 -119 139q0 78 99 147q30 21 66 42q-165 95 -165 261q0 137 98 225q97 88 271 88z" />
    <glyph glyph-name="h" unicode="h" horiz-adv-x="1217" 
d="M40 50q175 14 175 183v931q-25 37 -133 82q-25 10 -38 12v35l286 76l72 7v-608q81 79 134 107q96 51 178.5 51t138.5 -20.5t97 -63.5q89 -93 89 -274v-347q0 -156 152 -171l-2 -50h-492q-2 11 -2 26v24q40 18 70 24.5t49 19.5q39 24 39 120v363q0 171 -103 223
q-37 18 -89 18q-130 0 -259 -134v-451q0 -90 41 -132.5t133 -50.5l-1 -31v-19h-533q-2 11 -2 26v24z" />
    <glyph glyph-name="i" unicode="i" horiz-adv-x="594" 
d="M177 1260q0 47 25 73q41 43 91 43q48 0 73 -25q43 -43 43 -91q0 -50 -25 -74q-44 -42 -91 -42q-49 0 -73 24q-43 43 -43 92zM51 0q-2 8 -2 18v32q17 9 44.5 17t54.5 21q65 32 65 93v532q-29 49 -152 84l2 35l277 80l59 6v-698q0 -49 7 -79.5t25.5 -44t41 -21.5t43.5 -13
t32 -12v-25q0 -12 -1 -25h-496z" />
    <glyph glyph-name="j" unicode="j" horiz-adv-x="553" 
d="M165 1260q0 47 25 73q41 43 90 43q50 0 74 -25q42 -44 42 -91q0 -49 -24 -74q-43 -42 -92 -42q-48 0 -72 24q-43 43 -43 92zM201 710q-29 45 -137 80q-21 7 -25 7v35l280 79l68 7v-793q0 -309 -215 -395q-69 -28 -158 -38l-15 58q61 28 99 52.5t60 59.5q35 59 43 226v622
z" />
    <glyph glyph-name="k" unicode="k" horiz-adv-x="1169" 
d="M66 0q-3 8 -3 15.5t13 14.5t32 12.5t41.5 11t41.5 14.5q45 20 45 52v1002q0 41 -98 66q-65 17 -81.5 24t-16.5 16t4 16l398 70v-839h62l320 314q2 3 2 13.5t-9.5 19.5t-24 13t-31 5.5t-31.5 3.5q-33 5 -33 20t3 35h424l3 -33q0 -21 -60 -34q-92 -19 -125 -47l-276 -283
l314 -408q15 -18 67 -33t69 -21q40 -15 40 -25.5t-3 -14.5h-495l-5 12q0 16 21.5 20t37 6t28.5 6q30 9 30 30q0 8 -13 23l-250 323h-65v-304q0 -50 76 -65t76 -37q0 -6 -4 -14h-524z" />
    <glyph glyph-name="l" unicode="l" horiz-adv-x="594" 
d="M206 228l-1 941q-28 43 -165 89l2 35l278 76l72 7v-1142q0 -81 33 -128t116 -56l-2 -50h-492q-1 5 -1 10v40q15 10 39 16t47 14q58 20 66 60t8 88z" />
    <glyph glyph-name="m" unicode="m" horiz-adv-x="1757" 
d="M1145 50l-2 -50h-500q-2 11 -2 26v24q12 8 33.5 12.5t43.5 10.5q54 15 64 44q22 43 22 112v348q0 117 -26.5 161.5t-58.5 62t-76 17.5t-78 -11.5t-64 -30.5q-49 -31 -109 -98v-443q0 -111 22 -129t44 -26.5t45.5 -14.5t40.5 -15l-2 -50h-493q-1 5 -1 10v40q13 8 36 13.5
t46 13.5q56 20 64 59q11 41 11 86v502q-30 54 -165 89l3 34l279 68h61l9 -144q107 117 223 145q44 10 97 10q192 0 260 -161q73 80 121 108q87 51 168 51t133.5 -14.5t91.5 -44.5q82 -62 94 -189q8 -90 8 -189v-262q0 -52 5.5 -80.5t21.5 -42t36.5 -22t42 -15t37.5 -15.5
l-2 -50h-481q-2 11 -2 26v24q16 9 39 15t45 15q55 20 63 58q8 43 8 87v397q0 94 -47 145.5t-138 51.5q-117 0 -231 -125q6 -62 6 -222v-242q0 -58 5 -85t22.5 -41t40 -23t46 -15.5t40.5 -15.5z" />
    <glyph glyph-name="n" unicode="n" horiz-adv-x="1200" 
d="M651 818q-126 0 -266 -150v-446q0 -125 101 -158q33 -10 75 -14l-2 -50h-515q-1 3 -1 10v34q0 5 1 10q85 20 108 35q47 31 47 96v542q-23 45 -159 84l3 34l273 68l61 4l11 -162q86 116 225 157q48 14 100 14q144 0 224.5 -80.5t87.5 -246.5q3 -65 3 -131v-223
q0 -116 30 -146q17 -16 45 -23.5t70 -21.5q1 -5 1 -10v-12l-1 -22v-10h-493q-2 11 -2 26v24q19 7 44.5 13t49.5 16q55 24 64 70q5 28 5 77v223q0 197 -21 254.5t-59.5 86t-109.5 28.5z" />
    <glyph glyph-name="o" unicode="o" horiz-adv-x="1111" 
d="M302 670q-20 -65 -20 -152t20 -169t58 -147q84 -144 213 -144q126 0 195 94q64 87 64 236q0 197 -78 330q-81 141 -211 141q-183 0 -241 -189zM82 456q0 208 140 342q135 128 327 128q205 0 339 -126q141 -132 141 -343t-140 -347q-133 -130 -329 -130t-334 132
q-144 137 -144 344z" />
    <glyph glyph-name="p" unicode="p" horiz-adv-x="1175" 
d="M392 677v-330q0 -124 68 -201q71 -81 192 -81q188 0 239 213q16 67 16 155.5t-23 158t-61 114.5q-75 90 -193.5 90t-237.5 -119zM637 -19q-135 0 -245 94v-219q0 -133 104 -168q34 -11 80 -16l-2 -50h-527q-2 11 -2 26v24q161 23 161 175v867q-26 48 -166 100v34l270 70
h68l8 -164q74 83 126 114q99 58 189 58t161 -31t122 -89q109 -122 109 -329q0 -219 -131 -359q-127 -137 -325 -137z" />
    <glyph glyph-name="q" unicode="q" horiz-adv-x="1132" 
d="M789 236v388q-19 161 -159 212q-47 17 -107 17t-108.5 -27t-82.5 -75q-69 -97 -69 -256q0 -174 83 -281q78 -101 199 -101t244 123zM1129 -329l-2 -49h-517q-2 13 -2 26v23q25 9 56.5 17t59.5 22q66 35 66 104v330q-90 -92 -145 -120q-177 -91 -335 -8q-145 76 -201 246
q-27 82 -27 186t35.5 196t98.5 154q127 126 332 126q167 0 319 -76v37q12 27 63 38q13 3 24 3q21 0 21 -28v-1036q0 -84 33.5 -130t120.5 -61z" />
    <glyph glyph-name="r" unicode="r" horiz-adv-x="799" 
d="M197 723q-28 47 -157 82l2 35l266 76h57l16 -184q83 151 183 180q34 9 68.5 9t60.5 -10t45 -26q40 -34 40 -74q0 -31 -16 -60q-30 -59 -66.5 -59t-54.5 16t-31 35t-26.5 35t-39.5 16t-48.5 -14.5t-41.5 -37.5t-36 -52t-34 -57v-372q0 -93 8.5 -125t29 -44.5t48 -19
t57.5 -10.5t53 -12l-1 -31v-19h-536q-1 4 -1 12v35q0 5 1 7q34 10 62.5 16t48.5 20q43 29 43 125v508z" />
    <glyph glyph-name="s" unicode="s" horiz-adv-x="854" 
d="M132 296q38 5 53 5q35 -174 147 -231q41 -20 86 -20t76 9.5t54 26.5q49 36 49 87.5t-26 81.5t-70.5 57.5t-104 57t-128.5 72.5q-151 95 -151 242q0 115 86 180q81 62 210 62q153 0 272 -73l6 -222q-11 -1 -23 -1h-24q-66 229 -237 229q-61 0 -98.5 -30t-37.5 -80.5
t25.5 -81.5t64.5 -57.5t86.5 -50t96.5 -50t89.5 -56t67.5 -61.5q54 -66 54 -142.5t-24 -124.5t-67 -81q-85 -64 -228 -64q-190 0 -304 72v244z" />
    <glyph glyph-name="t" unicode="t" horiz-adv-x="684" 
d="M342 1149q23 0 23 -39v-211h251v-84h-249v-501q0 -145 15.5 -176t42 -41.5t87.5 -10.5t127 22l8 -73q-107 -55 -203.5 -55t-143 17.5t-72.5 56.5q-48 71 -48 263v498h-149v44q133 54 215 170q24 34 45.5 68t31 43t19.5 9z" />
    <glyph glyph-name="u" unicode="u" horiz-adv-x="1191" 
d="M554 98q140 0 262 122v423q0 62 -8 104q-12 65 -166 82v49l360 26v-703q0 -82 100 -105q28 -6 58 -11l-3 -53l-328 -47l-8 160q-148 -165 -331 -165q-251 0 -288 281q-10 81 -10 168v216q0 112 -30 137q-45 36 -136 46v50l352 26v-464q0 -190 38 -264q39 -78 138 -78z
" />
    <glyph glyph-name="v" unicode="v" horiz-adv-x="987" 
d="M427 899l5 -54q-97 -26 -113 -46t-16 -34t5 -32l204 -503l172 419q28 71 26.5 107t-35 54.5t-93.5 32.5q-1 5 -1 11v35q0 7 1 10h372q2 -8 2 -15v-36q-18 -11 -38 -18.5t-42 -20.5q-50 -31 -82 -103l-310 -718q-12 -6 -31 -6t-29 6l-306 736q-31 74 -54 87.5t-41.5 18
t-45.5 17.5v52h450z" />
    <glyph glyph-name="w" unicode="w" horiz-adv-x="1425" 
d="M292 760q0 -29 6 -41l185 -476l183 445q-47 156 -168 163l2 48h442q2 -26 2 -48q-19 -9 -39 -15t-37 -14q-39 -18 -39 -54q0 -25 18 -70l163 -447l156 421q19 50 19 80.5t-8 45.5t-23.5 23t-38 13t-51.5 14q-2 10 -2 24q0 13 2 27h351v-53q-69 -9 -133 -90
q-18 -22 -25 -42l-270 -728q-11 -6 -30 -6t-31 6l-227 610l-241 -610q-12 -6 -32.5 -6t-30.5 6l-279 713q-28 70 -47 94q-35 44 -91 57l2 49h412q1 -13 1 -25v-23q-101 -32 -101 -91z" />
    <glyph glyph-name="x" unicode="x" horiz-adv-x="1115" 
d="M436 30l-1 -21v-9h-383q-2 11 -2 24v24q13 7 33.5 15t44.5 19q61 30 96 70l247 279l-267 341q-33 42 -102 67q-16 6 -27 12v39q0 4 1 9h443v-18l1 -30q-88 -26 -88 -72q0 -9 9 -31l140 -187l122 149q31 37 31 63.5t-28 47t-73 27.5v51h370v-19l1 -30q-16 -6 -36.5 -13
t-43.5 -17q-54 -26 -88 -67l-206 -252l270 -342q42 -53 65 -69q32 -22 90 -43l-2 -47h-477q-1 5 -1 9v39q16 9 36.5 15t38.5 13q43 15 43 38t-25 51l-156 211l-136 -151q-56 -63 -56 -112q0 -42 115 -62q1 -5 1 -10v-11z" />
    <glyph glyph-name="y" unicode="y" horiz-adv-x="1000" 
d="M980 880l1 -32q-17 -14 -37.5 -20.5t-41.5 -18.5q-49 -29 -70 -102l-355 -874q-44 -110 -87 -152q-79 -76 -171 -76q-67 0 -99 23q-55 39 -55 87t28.5 73.5t63.5 25.5t51 -11t29 -25q34 -35 64.5 -35t55 22t45.5 58q29 51 68 177l-312 712q-41 92 -77 111q-17 9 -36 11
t-45 13v52h469l5 -32q0 -14 -38 -29q-8 -4 -14 -8q-83 -6 -83 -54q0 -11 4 -24.5t9 -30.5l207 -494l169 448q15 39 15 76q0 71 -130 92q-1 5 -1 11v35q0 7 1 10h367v-19z" />
    <glyph glyph-name="z" unicode="z" horiz-adv-x="949" 
d="M819 899q7 -1 16 -1t39 -3v-55l-545 -780h194q89 0 171 26q44 14 84 88q16 29 30 58t32 47q13 0 25.5 -1t25.5 -1l-29 -288l-159 11h-608l-14 33l577 805h-169q-88 0 -125 -9q-53 -6 -105 -71q-21 -26 -40.5 -52.5t-43.5 -43.5l-45 2l21 261q68 -26 167 -26h501z" />
    <glyph glyph-name="braceleft" unicode="{" horiz-adv-x="827" 
d="M191 619q0 33 22 48q91 8 140.5 60.5t49.5 143.5q0 42 -9 111q-19 133 -19 194.5t25.5 122.5t71.5 103q91 85 252 95q5 -17 5 -29.5t-5 -27.5q-92 -13 -127 -42q-65 -52 -65 -137q0 -51 14 -117q28 -125 28 -183.5t-20 -112t-56 -95.5q-70 -84 -194 -121
q191 -58 250 -217q20 -54 20 -105.5t-7 -89t-15 -74.5q-22 -104 -22 -148t16.5 -74t43.5 -50q47 -36 134 -50q8 -14 8 -28.5t-8 -28.5q-252 16 -324 207q-24 63 -24 122.5t4 95t8 71.5q13 100 13 143.5t-9 71.5t-24 46t-35.5 28t-44.5 19q-68 26 -97 48z" />
    <glyph glyph-name="bar" unicode="|" horiz-adv-x="824" 
d="M438 -315q-38 2 -84 32v1714q25 36 80 36h4q31 -124 31 -223v-1332q0 -154 -31 -227z" />
    <glyph glyph-name="braceright" unicode="}" horiz-adv-x="827" 
d="M104 1440q-6 12 -6 24t6 33q246 -16 322 -198q26 -61 26 -120t-4.5 -95t-9.5 -72q-14 -103 -14 -146q0 -90 51 -141t139 -58q23 -15 23 -48q-27 -18 -53 -28.5t-49.5 -20t-44 -20.5t-34.5 -30q-32 -40 -32 -98t4 -92t10 -68q13 -82 13 -135q0 -170 -89 -259.5
t-258 -100.5q-8 8 -8 19q0 27 8 38q193 31 193 172q0 46 -15 117q-29 136 -29 192t20 110t56 96q72 84 194 121q-193 58 -251 216q-19 54 -19 105t6.5 88t14.5 73q21 96 21 144t-14.5 79t-40.5 52q-47 38 -136 51z" />
    <glyph glyph-name="asciitilde" unicode="~" horiz-adv-x="858" 
d="M642 718q111 0 115 128h89q0 -186 -113 -244q-38 -19 -93.5 -19t-115 20.5t-115 44.5t-105 44.5t-90.5 20.5q-104 0 -117 -117h-91q14 177 120 234q40 21 95.5 21t112.5 -21t112.5 -45.5t106 -45.5t89.5 -21z" />
    <glyph glyph-name="exclamdown" unicode="&#xa1;" horiz-adv-x="567" 
d="M371.5 -2q-37.5 -27 -94 -27t-90.5 24.5t-34 79.5t5.5 116t14 128t19 137.5t21 138t20 128.5t13 90t4.5 44.5t4 30.5q7 39 29 39q24 0 31 -85q2 -21 15.5 -105.5t24 -151t20 -137t17.5 -136.5q18 -148 18 -217.5t-37.5 -96.5zM162 1191q0 50 26 76q45 45 95 45t77 -26
q47 -44 47 -82.5t-10 -61t-27 -38.5q-36 -37 -74.5 -37t-60.5 10t-38 27q-35 37 -35 87z" />
    <glyph glyph-name="cent" unicode="&#xa2;" horiz-adv-x="1049" 
d="M611 846q-127 0 -209 -80q-91 -89 -91 -239t43 -234.5t131 -127.5zM527 -29q-19 -150 -65 -224q-48 0 -66 52l52 207q-147 38 -234 156q-89 119 -89 285q0 189 119 324q132 152 352 152l31 -1l30 185q10 63 47 116h29.5t21.5 -2q0 -55 -12 -124l-29 -181
q155 -25 203 -115q16 -30 16 -70.5t-27 -66t-60 -25.5t-47 10.5t-20.5 27t-9 37.5t-9.5 42q-17 51 -69 74l-128 -691q48 -17 105 -17q133 0 223 90q16 -8 32 -23q-5 -21 -17 -51.5t-44.5 -59.5t-75.5 -50q-90 -45 -182 -47q-34 -10 -68 -10h-9z" />
    <glyph glyph-name="sterling" unicode="&#xa3;" horiz-adv-x="1238" 
d="M803 657q6 -18 6 -50t-6 -42h-228l15 -215q0 -57 -20 -117q26 -11 57.5 -25t64.5 -27q76 -30 120 -30t72 11.5t48 28t33 36.5t23 37q22 39 32.5 39t18.5 -5q-13 -159 -33 -203t-43 -67q-50 -48 -143 -48q-102 0 -238 78q-38 22 -72 42q-35 -51 -88 -85.5t-103 -34.5
t-80.5 13.5t-52.5 36.5q-47 49 -47 121q0 107 99 140q30 10 65 10q63 0 138 -22l-65 286l-37 -1q-112 0 -112 47t97 47l35 -1l-10 199q0 156 109 252q105 93 263 93q177 0 253 -111q27 -39 27 -79.5t-9 -60t-24 -32.5q-28 -26 -58 -26t-46.5 5.5t-29.5 16.5q-28 25 -28 56.5
t10 51t10 51t-27 57t-72 25.5t-77 -29t-52 -72q-34 -75 -34 -176q0 -19 11 -221h228zM433 146q-87 50 -120 50q-64 0 -64 -47q0 -35 17.5 -60t55.5 -25t67.5 24.5t43.5 57.5z" />
    <glyph glyph-name="currency" unicode="&#xa4;" horiz-adv-x="1188" 
d="M331 720q0 -56 19 -106.5t54 -87.5q74 -81 190 -81q109 0 186 77t77 185q0 116 -73 195q-76 81 -190 81q-110 0 -186 -77q-77 -79 -77 -186zM369 1042q107 67 225.5 67t222.5 -65q32 42 63.5 82t76.5 68q51 -31 82 -85q-26 -42 -60.5 -78t-66.5 -72q86 -111 86 -243
t-84 -246q15 -18 33.5 -36.5t36.5 -37.5q44 -46 62 -78q-37 -50 -87 -80q-48 29 -137 146q-102 -66 -223 -66t-226 64q-17 -21 -32.5 -42t-32.5 -40q-36 -44 -77 -67q-55 38 -82 84q27 42 61.5 78t66.5 72q-86 114 -86 247.5t84 243.5q-15 18 -33.5 36.5t-36.5 37.5
q-44 45 -63 78q42 53 88 80q45 -26 109 -110q16 -21 30 -38z" />
    <glyph glyph-name="yen" unicode="&#xa5;" horiz-adv-x="1340" 
d="M1088 265q0 -55 -93 -55h-240v-86q0 -60 117 -71q73 -7 94.5 -14.5t21.5 -21.5q0 -6 -4 -17h-670q-5 13 -5 23.5t17 17.5t43 9.5t55.5 4.5t55.5 9q60 16 60 66v80h-77q-191 0 -209 26q-5 8 -5 18.5t5 19t18 14.5q30 13 98 15h170v92l-151 -4q-64 0 -102 11.5t-38 49.5
q0 22 27 27q44 8 187 8h77v43l-280 500q-13 21 -77 53.5t-86 44.5q-51 26 -51 31t4 17h626q4 -8 4 -18q0 -20 -94.5 -45.5t-94.5 -53.5q0 -6 5 -19l230 -410l214 410q6 10 6 24t-20.5 24t-49.5 18q-89 22 -103.5 33.5t-14.5 18t4 18.5h496q4 -8 4 -16.5t-9.5 -14.5
t-23.5 -11q-21 -9 -66.5 -16.5t-82.5 -23.5t-59 -54l-266 -460v-93h229q62 0 82.5 -18t20.5 -33.5t-21 -29t-60 -13.5h-251v-86h256q40 0 58.5 -13.5t18.5 -28.5z" />
    <glyph glyph-name="brokenbar" unicode="&#xa6;" horiz-adv-x="826" 
d="M473 -17q0 -155 -35 -212q-32 0 -51.5 13t-31.5 19v604q22 36 83 36q39 -75 39 -260zM387 707q-32 93 -32 303v333q22 36 83 36q32 -75 32 -132v-508q-36 -32 -83 -32z" />
    <glyph glyph-name="section" unicode="&#xa7;" horiz-adv-x="856" 
d="M626 107q33 68 33 141.5t-19.5 144t-53 142t-76.5 141t-90 134.5q-76 105 -186 233q-47 -72 -47 -166t24.5 -165.5t64 -133t88 -116t96.5 -109.5q122 -138 164 -243zM148.5 571.5q-36.5 82.5 -36.5 210t83 291.5q-14 33 -14 80.5t19.5 86.5t51.5 66q67 54 165 54
q196 0 277 -88q33 -35 33 -91q0 -32 -45 -44q-11 -3 -24 -3t-30 12t-35 30t-37.5 39t-41.5 39q-51 42 -89.5 42t-65.5 -6.5t-49 -21.5q-49 -32 -49 -77.5t21 -79.5t54.5 -70.5t77 -76t89 -84.5t89 -97t76.5 -113q76 -139 76 -291.5t-86 -302.5q25 -52 25 -99t-23 -84.5
t-59 -62.5q-73 -52 -169 -52q-177 0 -268 71q-59 46 -59 117q0 32 20 48.5t47 16.5t40.5 -13.5t23.5 -33.5t21 -43t31 -43q47 -47 141 -47q113 0 159 62q17 23 17 69t-36.5 98.5t-91.5 105.5t-118.5 110t-118.5 125t-91.5 150.5z" />
    <glyph glyph-name="dieresis" unicode="&#xa8;" horiz-adv-x="1121" 
d="M295 1292.5q20 8.5 42.5 8.5t42.5 -8.5t35 -23.5q32 -32 32 -66t-8.5 -54t-23.5 -35q-33 -31 -66.5 -31t-53.5 8.5t-35 22.5q-31 32 -31 66t8.5 54t23 35t34.5 23.5zM777 1301q46 0 69 -23q41 -41 41 -75t-8.5 -54t-23.5 -35q-33 -31 -78 -31t-68 23q-40 40 -40 74
t8.5 54t22.5 35q31 32 77 32z" />
    <glyph glyph-name="copyright" unicode="&#xa9;" horiz-adv-x="1507" 
d="M1350 630q0 125 -43 238.5t-122 197.5q-171 183 -437 183q-255 0 -422 -173q-164 -170 -164 -410q0 -266 170 -444q172 -181 440 -181q242 0 409 171q169 172 169 418zM1379 917q56 -123 56 -270t-53.5 -269.5t-146 -211.5t-217 -139t-262 -50t-260 49.5t-217 138.5
t-150.5 211.5t-56 268.5t56 268.5t150 211.5t217 139t257.5 50t257.5 -49t217.5 -137t150.5 -211zM948 1060.5q23 -6.5 40.5 -6.5t27.5 26h64l21 -240q-5 -2 -12 -2h-18q-78 217 -296 217q-136 0 -220 -105t-84 -272q0 -289 191 -370q61 -26 124.5 -26t102.5 7.5t73 21.5
q55 23 126 81q14 -4 26 -16q-63 -121 -244 -160q-54 -11 -129 -11t-158 32.5t-143 90.5q-130 126 -130 319q0 187 131 314q127 123 315 135q66 0 117.5 -14.5t74.5 -21z" />
    <glyph glyph-name="ordfeminine" unicode="&#xaa;" horiz-adv-x="708" 
d="M289 619q70 0 150 69v167q-31 -11 -71.5 -22t-76.5 -28q-86 -41 -86 -112q0 -38 24.5 -56t59.5 -18zM441 644q-116 -98 -214 -98q-104 0 -143 71q-14 24 -14 60.5t19 66.5t50.5 51t71 35.5t80.5 25t79.5 19t68.5 18.5v66q0 75 -19 104q-34 54 -106 54q-57 0 -96 -33
q-13 -11 -13 -23t3.5 -19.5t7.5 -15.5q13 -20 13 -31t-9 -21.5t-22 -19.5q-28 -19 -44.5 -19t-26.5 9t-18 22q-17 26 -17 59t27.5 61.5t66.5 45.5q70 32 147 32t119.5 -13.5t67.5 -42.5q46 -50 46 -180l-6 -148q0 -117 11.5 -131.5t27 -14.5t47.5 17l16 -49
q-32 -56 -130 -56q-42 0 -65 29.5t-26 68.5z" />
    <glyph glyph-name="guillemotleft" unicode="&#xab;" horiz-adv-x="794" 
d="M442 85q-19 -22 -42 -22q-29 18 -61 61l-294 383l301 378q14 17 26.5 34t23.5 28q34 0 53 -25q-25 -80 -110.5 -223.5t-110.5 -191.5q25 -49 56.5 -104.5t61.5 -111.5q75 -137 96 -206zM369 507q211 288 296 391q35 0 53 -26q-11 -37 -25 -64l-153 -301l149 -307
q11 -23 21 -66q-18 -21 -41 -21q-24 15 -56 59z" />
    <glyph glyph-name="logicalnot" unicode="&#xac;" horiz-adv-x="1345" 
d="M230 742q-87 0 -121 31q0 35 11.5 61.5t20.5 58.5h173l734 2q67 0 135 -10q15 -99 15 -265v-217q0 -86 -31 -117q-33 0 -70.5 12.5t-53.5 15.5v428h-813z" />
    <glyph glyph-name="uni00AD" unicode="&#xad;" horiz-adv-x="772" 
d="M151 391q-29 15 -30 35.5t-1 36.5q0 43 4 62q35 5 97 5h365q57 0 99 -6q4 -20 4 -53q0 -58 -4 -77q-30 -3 -99 -3h-435z" />
    <glyph glyph-name="registered" unicode="&#xae;" horiz-adv-x="1507" 
d="M1350 632q0 126 -44 239.5t-124 197.5q-170 180 -434 180q-247 0 -416 -167q-170 -169 -170 -416q0 -268 171 -445q174 -180 439 -180q241 0 410 173q168 171 168 418zM1381 910q54 -122 54 -241t-24 -206t-68 -161t-106.5 -134.5t-138.5 -102.5q-158 -88 -345 -88
q-281 0 -479 194q-201 196 -201 475q0 141 54 263t147 212t216.5 141.5t263.5 51.5t264 -51t216.5 -141t146.5 -212zM630 680q128 3 177.5 24t76 55t26.5 87.5t-17.5 86t-46.5 53.5q-56 38 -149 38q-34 0 -67 -6v-338zM947 241q-176 275 -246 403h-71v-306q0 -51 79 -64
q20 -4 36 -8l-1 -25h-366l-2 25q18 6 37.5 10t34.5 12q37 19 37 61v602q0 53 -66 79q-18 7 -35 15l1 24h361q204 0 287 -110q31 -41 31 -95.5t-20 -89.5t-52 -60q-57 -43 -154 -62q12 -19 31.5 -52t44 -72.5t51.5 -81t53 -76.5q59 -79 91 -88q3 -8 9 -10.5t12 -5.5
q16 -8 16 -25h-199z" />
    <glyph glyph-name="macron" unicode="&#xaf;" horiz-adv-x="772" 
d="M89 1044v128h602v-128h-602z" />
    <glyph glyph-name="degree" unicode="&#xb0;" horiz-adv-x="703" 
d="M593 1045q0 -98 -71 -170q-70 -72 -171 -72q-103 0 -174 71t-71 171q0 99 71 170q72 72 174 72q101 0 171 -72q71 -72 71 -170zM543 1044q0 38 -15 72.5t-41 59.5q-58 57 -135 57q-78 0 -136 -57q-56 -54 -56 -131q0 -80 56 -135q57 -55 136 -55q78 0 135 57
q56 56 56 132z" />
    <glyph glyph-name="plusminus" unicode="&#xb1;" horiz-adv-x="1099" 
d="M480 312l2 193h-323q-36 21 -44 48t-8 65q65 24 214 24l161 -3l-2 192q0 106 10 181q30 3 52 3q45 0 66 -3q11 -72 11 -187l-2 -186l168 1q125 0 205 -11q3 -30 3 -59.5t-3 -57.5q-81 -9 -180 -9l-193 2l1 -168q0 -125 -11 -205q-30 -3 -59 -3t-59 3q-9 81 -9 180z" />
    <glyph glyph-name="acute" unicode="&#xb4;" horiz-adv-x="968" 
d="M254 1096q-23 0 -23 26q0 15 21 43t60.5 80.5t79.5 106.5q103 138 127 170q36 48 71 48q49 0 74 -52q7 -15 7 -36.5t-29.5 -48t-80.5 -73.5t-101 -94q-114 -104 -151.5 -137t-54.5 -33z" />
    <glyph glyph-name="paragraph" unicode="&#xb6;" horiz-adv-x="1029" 
d="M836 -112q0 -19 31.5 -24t53 -6.5t40.5 -3.5q44 -3 44 -12v-66h-261v1444h-140v-1444h-291v66q0 12 62.5 14.5t84.5 5.5q52 7 52 26v689q-219 0 -338 69q-152 88 -152 289q0 263 269 339q103 29 244 29h468l2 -39q-13 -12 -63 -19.5t-73.5 -15t-33.5 -25.5z" />
    <glyph glyph-name="cedilla" unicode="&#xb8;" horiz-adv-x="691" 
d="M380 -268q0 94 -152 104l47 175h83l24 -105q119 -17 152 -102q9 -25 9 -58.5t-18.5 -66.5t-50.5 -56q-67 -48 -162 -48q-64 0 -136 32l13 57q38 -20 82.5 -20t76.5 24.5t32 63.5z" />
    <glyph glyph-name="ordmasculine" unicode="&#xba;" horiz-adv-x="791" 
d="M258.5 1062q-49.5 -57 -49.5 -147t16 -144t43 -91q57 -78 140 -78q77 0 126 55q54 59 54 151q0 117 -49 206q-57 105 -144 105t-136.5 -57zM72 860q0 69 26.5 125t71.5 95q94 84 222 84q139 0 230 -82q97 -85 97 -224t-96 -228q-91 -83 -224 -83q-134 0 -228 86
q-99 90 -99 227z" />
    <glyph glyph-name="guillemotright" unicode="&#xbb;" horiz-adv-x="794" 
d="M352 85q36 118 156 320q31 51 58 102q-26 46 -57.5 96.5t-62.5 103.5q-75 129 -101 214q17 25 53 25q99 -105 203 -245t147 -194l-287 -375q-40 -50 -67 -69q-24 0 -42 22zM84 134q20 102 124 286q26 46 46 87q-19 37 -45.5 82.5t-52.5 93.5q-64 118 -80 189q19 25 53 25
q80 -90 169.5 -216t126.5 -174q-10 -13 -31 -43.5t-48 -69.5t-57.5 -83t-60.5 -83q-68 -90 -103 -116q-23 0 -41 22z" />
    <glyph glyph-name="onequarter" unicode="&#xbc;" horiz-adv-x="1894" 
d="M431 572q16 -11 32.5 -12t36.5 -1t26 -11v-36h-411v35q30 15 54 15.5t41 5.5q37 12 37 95v421q0 70 -39 88q-17 9 -40.5 12.5t-50.5 14.5l2 35q143 18 245 67q17 0 34 -6l-1 -610q0 -61 9 -81.5t25 -31.5zM543 -77q-19 -4 -54 -4h-33q14 42 26.5 88.5t32.5 83.5l509 954
q22 42 46 94t52 103q64 122 131 168q53 0 90 -24l-78 -132q-84 -143 -167 -280t-163 -287t-151 -304t-116.5 -252t-72.5 -135.5t-52 -72.5zM1465 325v391l-263 -391h263zM1774 367l-29 -116h-128v-96q0 -49 89 -63q21 -4 36 -8v-37h-400v36q15 6 36.5 9.5t41.5 9.5
q47 15 47 53v96h-351l-5 68l366 521l70 4t70 2v-518q70 0 85.5 11.5t22 22.5t20.5 24q22 0 29 -19z" />
    <glyph glyph-name="onehalf" unicode="&#xbd;" horiz-adv-x="1831" 
d="M116 1234q143 18 245 67q17 0 34 -6l-1 -610q0 -61 9 -82q18 -40 66 -42t56 -13l-2 -36h-409l-2 35q26 13 55.5 16t41 5.5t19.5 11.5q16 20 16 83v421q0 71 -38 88q-17 8 -40.5 12t-49.5 15v35zM1364 761q-109 0 -212 -125l-43 18q30 80 109 134q78 54 172 54
q173 0 240 -124q23 -42 23 -92.5t-21.5 -95.5t-56 -88t-78 -84.5t-88 -79t-85.5 -71t-71 -62.5h209q67 0 90 11q45 23 71 96q3 9 12 17h44l-43 -224h-65l-305 1h-76t-76 -1l-4 43q28 32 67.5 71.5t82 83.5t84 91.5t74.5 95.5q74 109 74 190q0 93 -74 130q-24 11 -54 11z
M543 -77q-19 -4 -54 -4h-33q14 43 25.5 86.5t33.5 85.5l509 954q23 43 46 95t50 103q63 119 133 167q53 0 90 -24q-103 -175 -207 -345.5t-176.5 -307t-117.5 -236t-90 -198.5q-111 -239 -209 -376z" />
    <glyph glyph-name="threequarters" unicode="&#xbe;" horiz-adv-x="1931" 
d="M643 -77q-19 -4 -54 -4h-33q14 42 26.5 88.5t32.5 83.5l509 954q22 42 46 94t52 103q64 122 131 168q53 0 90 -24l-78 -132q-84 -143 -167 -280t-163 -287t-151 -304t-116.5 -252t-72.5 -135.5t-52 -72.5zM1465 325v391l-263 -391h263zM1774 367l-29 -116h-128v-96
q0 -49 89 -63q21 -4 36 -8v-37h-400v36q15 6 36.5 9.5t41.5 9.5q47 15 47 53v96h-351l-5 68l366 521l70 4t70 2v-518q70 0 85.5 11.5t22 22.5t20.5 24q22 0 29 -19zM155 1182q-13 0 -13 19q0 3 3 12q54 80 177 107q35 7 71.5 7t74 -11t65.5 -33q62 -49 62 -132
q0 -82 -59 -139q-56 -54 -139 -62q125 0 201 -76q78 -78 78 -201q0 -128 -114 -203q-100 -65 -234 -65q-165 0 -240 75q-29 29 -29 67.5t23 62t45.5 23.5t34.5 -5.5t22 -15.5q21 -21 21 -42t-7.5 -36t-7.5 -30q0 -38 89 -54q20 -3 49.5 -3t67 18t62.5 49q53 62 53 156
q0 155 -101 208q-36 18 -77 18t-82 -9l-34 38q111 55 155 86q105 72 105 139q0 107 -105 107q-47 0 -92.5 -26t-71 -37.5t-53.5 -11.5z" />
    <glyph glyph-name="questiondown" unicode="&#xbf;" horiz-adv-x="806" 
d="M541.5 1090q-22.5 -10 -48 -10t-48 10t-39.5 27q-38 36 -38 74.5t10.5 61.5t27.5 39q38 37 88 37q51 0 77 -27q46 -48 46 -97q0 -50 -26.5 -77.5t-49 -37.5zM541 958q6 -55 19 -108.5t13 -95.5t-27.5 -67.5t-68 -52t-88.5 -55.5t-89 -65q-95 -85 -95 -182q0 -94 74 -164
t167 -70q33 0 57.5 19t47 42t46.5 42t48.5 19t38.5 -7t24 -19q22 -25 22 -62.5t-25 -66.5t-63 -46q-73 -32 -157 -32t-156.5 29t-130.5 78q-130 111 -130 252q0 203 196 326q122 76 159 130t37 117v39h81z" />
    <glyph glyph-name="Agrave" unicode="&#xc0;" horiz-adv-x="1366" 
d="M808 620l-197 492l-183 -492h380zM948 129q18 21 18 42t-7.5 47.5t-19 60.5t-26 72t-27.5 73q-34 86 -41 108h-451q-5 -14 -15.5 -40t-23.5 -59.5t-26.5 -70.5t-24.5 -72q-26 -78 -26 -111.5t17.5 -53t43.5 -31.5q34 -17 130 -37v-57h-472v52q20 17 41.5 25.5t42.5 17.5
q52 22 71 58t29.5 64t21.5 56l374 958q4 10 4.5 22.5t1.5 24.5q3 33 13 46q94 0 156 -47l459 -1101q24 -56 73 -82q23 -11 48 -19.5t52 -22.5l-2 -52h-582l-2 52q80 26 106 41t44 36zM909 1524q0 -26 -23 -26q-17 0 -41.5 21.5t-69 62t-95 87t-101.5 93.5t-80.5 73.5
t-29.5 48t6.5 36t18.5 26.5q24 26 48 26q43 0 68 -33.5t61.5 -82.5t76.5 -102l115.5 -154t42.5 -62t3 -14z" />
    <glyph glyph-name="Aacute" unicode="&#xc1;" horiz-adv-x="1366" 
d="M808 620l-197 492l-183 -492h380zM948 129q18 21 18 42t-7.5 47.5t-19 60.5t-26 72t-27.5 73q-34 86 -41 108h-451q-5 -14 -15.5 -40t-23.5 -59.5t-26.5 -70.5t-24.5 -72q-26 -78 -26 -111.5t17.5 -53t43.5 -31.5q34 -17 130 -37v-57h-472v52q20 17 41.5 25.5t42.5 17.5
q52 22 71 58t29.5 64t21.5 56l374 958q4 10 4.5 22.5t1.5 24.5q3 33 13 46q94 0 156 -47l459 -1101q24 -56 73 -82q23 -11 48 -19.5t52 -22.5l-2 -52h-582l-2 52q80 26 106 41t44 36zM492 1498q-23 0 -23 26q0 15 21 43t60.5 80.5t79.5 106.5q103 138 127 170q36 48 71 48
q49 0 74 -52q7 -15 7 -36.5t-29.5 -48t-80.5 -73.5t-101 -94q-114 -104 -151.5 -137t-54.5 -33z" />
    <glyph glyph-name="Acircumflex" unicode="&#xc2;" horiz-adv-x="1366" 
d="M808 620l-197 492l-183 -492h380zM948 129q18 21 18 42t-7.5 47.5t-19 60.5t-26 72t-27.5 73q-34 86 -41 108h-451q-5 -14 -15.5 -40t-23.5 -59.5t-26.5 -70.5t-24.5 -72q-26 -78 -26 -111.5t17.5 -53t43.5 -31.5q34 -17 130 -37v-57h-472v52q20 17 41.5 25.5t42.5 17.5
q52 22 71 58t29.5 64t21.5 56l374 958q4 10 4.5 22.5t1.5 24.5q3 33 13 46q94 0 156 -47l459 -1101q24 -56 73 -82q23 -11 48 -19.5t52 -22.5l-2 -52h-582l-2 52q80 26 106 41t44 36zM967 1470q-24 0 -278 282q-254 -282 -278 -282q-17 0 -17 17q0 18 101.5 215t111.5 214
q34 57 82 57q52 0 85 -64q5 -11 23 -45t41 -80l49 -97q97 -195 97 -206t-17 -11z" />
    <glyph glyph-name="Atilde" unicode="&#xc3;" horiz-adv-x="1366" 
d="M808 620l-197 492l-183 -492h380zM948 129q18 21 18 42t-7.5 47.5t-19 60.5t-26 72t-27.5 73q-34 86 -41 108h-451q-5 -14 -15.5 -40t-23.5 -59.5t-26.5 -70.5t-24.5 -72q-26 -78 -26 -111.5t17.5 -53t43.5 -31.5q34 -17 130 -37v-57h-472v52q20 17 41.5 25.5t42.5 17.5
q52 22 71 58t29.5 64t21.5 56l374 958q4 10 4.5 22.5t1.5 24.5q3 33 13 46q94 0 156 -47l459 -1101q24 -56 73 -82q23 -11 48 -19.5t52 -22.5l-2 -52h-582l-2 52q80 26 106 41t44 36zM508 1639q-61 0 -79 -106h-38q6 233 160 233q61 0 134.5 -38t110.5 -55t67 -17
q66 0 86 108h38q-2 -120 -44 -180.5t-117 -60.5q-61 0 -137.5 40t-114 58t-66.5 18z" />
    <glyph glyph-name="Adieresis" unicode="&#xc4;" horiz-adv-x="1366" 
d="M808 620l-197 492l-183 -492h380zM948 129q18 21 18 42t-7.5 47.5t-19 60.5t-26 72t-27.5 73q-34 86 -41 108h-451q-5 -14 -15.5 -40t-23.5 -59.5t-26.5 -70.5t-24.5 -72q-26 -78 -26 -111.5t17.5 -53t43.5 -31.5q34 -17 130 -37v-57h-472v52q20 17 41.5 25.5t42.5 17.5
q52 22 71 58t29.5 64t21.5 56l374 958q4 10 4.5 22.5t1.5 24.5q3 33 13 46q94 0 156 -47l459 -1101q24 -56 73 -82q23 -11 48 -19.5t52 -22.5l-2 -52h-582l-2 52q80 26 106 41t44 36zM426 1694.5q20 8.5 42.5 8.5t42.5 -8.5t35 -23.5q32 -32 32 -66t-8.5 -54t-23.5 -35
q-33 -31 -66.5 -31t-53.5 8.5t-35 22.5q-31 32 -31 66t8.5 54t23 35t34.5 23.5zM908 1703q46 0 69 -23q41 -41 41 -75t-8.5 -54t-23.5 -35q-33 -31 -78 -31t-68 23q-40 40 -40 74t8.5 54t22.5 35q31 32 77 32z" />
    <glyph glyph-name="Aring" unicode="&#xc5;" horiz-adv-x="1366" 
d="M808 620l-197 492l-183 -492h380zM948 129q18 21 18 42t-7.5 47.5t-19 60.5t-26 72t-27.5 73q-34 86 -41 108h-451q-5 -14 -15.5 -40t-23.5 -59.5t-26.5 -70.5t-24.5 -72q-26 -78 -26 -111.5t17.5 -53t43.5 -31.5q34 -17 130 -37v-57h-472v52q20 17 41.5 25.5t42.5 17.5
q52 22 71 58t29.5 64t21.5 56l374 958q4 10 4.5 22.5t1.5 24.5q3 33 13 46q94 0 156 -47l459 -1101q24 -56 73 -82q23 -11 48 -19.5t52 -22.5l-2 -52h-582l-2 52q80 26 106 41t44 36zM736 1813.5q-22 9.5 -47.5 9.5t-47 -9.5t-37.5 -25.5q-34 -36 -34 -83q0 -50 25 -75
q44 -44 81.5 -44t59.5 9.5t38 26.5q35 36 35 83q0 46 -25.5 72.5t-47.5 36zM689 1896q80 0 138 -57q57 -55 57 -134t-57 -135q-57 -58 -138 -58q-82 0 -138.5 56.5t-56.5 136.5q0 79 57 134q58 57 138 57z" />
    <glyph glyph-name="AE" unicode="&#xc6;" horiz-adv-x="1966" 
d="M1689 466q-30 -2 -58 -2q-68 84 -98 113q-61 59 -118 61h-355l82 -382q9 -33 16 -63t16 -53q21 -52 59 -62q23 -7 49 -7t59 -1l130 3q113 0 182 28q36 9 57 35.5t38 59.5t36 68t51 61q22 0 54 -3l-56 -342q-42 -2 -65 -2t-29 3.5t-12 7.5q-17 11 -35 11h-957v40q0 6 1 12
q87 21 118 41q63 39 63 100l-5 48l-67 368h-384l-138 -251q-13 -23 -26.5 -45.5t-24.5 -44.5q-27 -52 -27 -88t18 -56t46 -32t62 -19.5t67 -17.5q0 -8 -1 -15t-2 -15l-2 -25h-480l-1 25q0 13 2 27q20 11 45 21t51 25q61 34 94 94q305 552 447 814q45 86 45 139t-35 79
q45 90 55 100q100 0 152 -19h738q25 0 57 18q46 0 82 -3l56 -323q-26 -2 -51 -2q-31 20 -51 52t-38 64.5t-39 59.5t-54 36q-113 24 -284 24h-100q-120 0 -196 -22q26 -124 57 -245.5t60 -244.5h263q80 0 144 10q55 14 76 116q6 26 12 48q22 0 54 -2zM831 685l-86 445
l-243 -445h329z" />
    <glyph glyph-name="Ccedilla" unicode="&#xc7;" horiz-adv-x="1439" 
d="M878 81q286 0 405 223l49 -7l-9 -189q-165 -93 -389 -124q-68 -10 -128 -10q-301 0 -494 177q-200 184 -200 489q0 293 204 487q211 200 548 200q203 0 416 -82l41 -302l-47 -2q-19 19 -46 66q-50 88 -72 110q-133 133 -320 133q-202 0 -341 -147q-149 -158 -149 -423
q0 -274 144 -436q146 -163 388 -163zM833 -268q0 94 -152 104l47 175h83l24 -105q119 -17 152 -102q9 -25 9 -58.5t-18.5 -66.5t-50.5 -56q-67 -48 -162 -48q-64 0 -136 32l13 57q38 -20 82.5 -20t76.5 24.5t32 63.5z" />
    <glyph glyph-name="Egrave" unicode="&#xc8;" horiz-adv-x="1370" 
d="M1198 1312q19 0 37 -4v-311l-52 -2q-24 22 -37 54t-26 63t-32 57t-53 37t-76 16.5t-87 8.5q-60 4 -142 4q-154 0 -230 -9q-4 -52 -4 -103v-406h288q113 0 145.5 23.5t50.5 51.5t42 72l15 27h57v-429l-57 -3q-32 87 -67 120q-64 62 -147 62h-327v-337q0 -150 58 -198
q42 -36 170 -36h98q126 0 187 19t101 47.5t60.5 69.5t34.5 75t41 61h63l-66 -351q-17 -3 -32 -3l-115 12h-1026l-2 49q46 25 94.5 33.5t66 14.5t29.5 23q23 36 23 147v757q0 132 -49 166q-25 18 -65.5 28t-98.5 33l2 51h1020zM908 1524q0 -26 -23 -26q-17 0 -41.5 21.5
t-69 62t-95 87t-101.5 93.5t-80.5 73.5t-29.5 48t6.5 36t18.5 26.5q24 26 48 26q43 0 68 -33.5t61.5 -82.5t76.5 -102l115.5 -154t42.5 -62t3 -14z" />
    <glyph glyph-name="Eacute" unicode="&#xc9;" horiz-adv-x="1370" 
d="M1198 1312q19 0 37 -4v-311l-52 -2q-24 22 -37 54t-26 63t-32 57t-53 37t-76 16.5t-87 8.5q-60 4 -142 4q-154 0 -230 -9q-4 -52 -4 -103v-406h288q113 0 145.5 23.5t50.5 51.5t42 72l15 27h57v-429l-57 -3q-32 87 -67 120q-64 62 -147 62h-327v-337q0 -150 58 -198
q42 -36 170 -36h98q126 0 187 19t101 47.5t60.5 69.5t34.5 75t41 61h63l-66 -351q-17 -3 -32 -3l-115 12h-1026l-2 49q46 25 94.5 33.5t66 14.5t29.5 23q23 36 23 147v757q0 132 -49 166q-25 18 -65.5 28t-98.5 33l2 51h1020zM491 1498q-23 0 -23 26q0 15 21 43t60.5 80.5
t79.5 106.5q103 138 127 170q36 48 71 48q49 0 74 -52q7 -15 7 -36.5t-29.5 -48t-80.5 -73.5t-101 -94q-114 -104 -151.5 -137t-54.5 -33z" />
    <glyph glyph-name="Ecircumflex" unicode="&#xca;" horiz-adv-x="1370" 
d="M1198 1312q19 0 37 -4v-311l-52 -2q-24 22 -37 54t-26 63t-32 57t-53 37t-76 16.5t-87 8.5q-60 4 -142 4q-154 0 -230 -9q-4 -52 -4 -103v-406h288q113 0 145.5 23.5t50.5 51.5t42 72l15 27h57v-429l-57 -3q-32 87 -67 120q-64 62 -147 62h-327v-337q0 -150 58 -198
q42 -36 170 -36h98q126 0 187 19t101 47.5t60.5 69.5t34.5 75t41 61h63l-66 -351q-17 -3 -32 -3l-115 12h-1026l-2 49q46 25 94.5 33.5t66 14.5t29.5 23q23 36 23 147v757q0 132 -49 166q-25 18 -65.5 28t-98.5 33l2 51h1020zM966 1470q-24 0 -278 282q-254 -282 -278 -282
q-17 0 -17 17q0 18 101.5 215t111.5 214q34 57 82 57q52 0 85 -64q5 -11 23 -45t41 -80l49 -97q97 -195 97 -206t-17 -11z" />
    <glyph glyph-name="Edieresis" unicode="&#xcb;" horiz-adv-x="1370" 
d="M1198 1312q19 0 37 -4v-311l-52 -2q-24 22 -37 54t-26 63t-32 57t-53 37t-76 16.5t-87 8.5q-60 4 -142 4q-154 0 -230 -9q-4 -52 -4 -103v-406h288q113 0 145.5 23.5t50.5 51.5t42 72l15 27h57v-429l-57 -3q-32 87 -67 120q-64 62 -147 62h-327v-337q0 -150 58 -198
q42 -36 170 -36h98q126 0 187 19t101 47.5t60.5 69.5t34.5 75t41 61h63l-66 -351q-17 -3 -32 -3l-115 12h-1026l-2 49q46 25 94.5 33.5t66 14.5t29.5 23q23 36 23 147v757q0 132 -49 166q-25 18 -65.5 28t-98.5 33l2 51h1020zM425 1694.5q20 8.5 42.5 8.5t42.5 -8.5
t35 -23.5q32 -32 32 -66t-8.5 -54t-23.5 -35q-33 -31 -66.5 -31t-53.5 8.5t-35 22.5q-31 32 -31 66t8.5 54t23 35t34.5 23.5zM907 1703q46 0 69 -23q41 -41 41 -75t-8.5 -54t-23.5 -35q-33 -31 -78 -31t-68 23q-40 40 -40 74t8.5 54t22.5 35q31 32 77 32z" />
    <glyph glyph-name="Igrave" unicode="&#xcc;" horiz-adv-x="802" 
d="M509 260q0 -99 19 -127t38.5 -36t45 -13t57.5 -11t70 -20l-2 -53h-665v52q45 21 96.5 28t70 13.5t31.5 26.5q24 38 24 158v752q0 159 -67 178q-21 6 -46 10q-73 10 -113 33l2 51h663l2 -52q-36 -12 -76 -21t-73 -25q-77 -37 -77 -123v-821zM624 1524q0 -26 -23 -26
q-17 0 -41.5 21.5t-69 62t-95 87t-101.5 93.5t-80.5 73.5t-29.5 48t6.5 36t18.5 26.5q24 26 48 26q43 0 68 -33.5t61.5 -82.5t76.5 -102l115.5 -154t42.5 -62t3 -14z" />
    <glyph glyph-name="Iacute" unicode="&#xcd;" horiz-adv-x="802" 
d="M509 260q0 -99 19 -127t38.5 -36t45 -13t57.5 -11t70 -20l-2 -53h-665v52q45 21 96.5 28t70 13.5t31.5 26.5q24 38 24 158v752q0 159 -67 178q-21 6 -46 10q-73 10 -113 33l2 51h663l2 -52q-36 -12 -76 -21t-73 -25q-77 -37 -77 -123v-821zM207 1498q-23 0 -23 26
q0 15 21 43t60.5 80.5t79.5 106.5q103 138 127 170q36 48 71 48q49 0 74 -52q7 -15 7 -36.5t-29.5 -48t-80.5 -73.5t-101 -94q-114 -104 -151.5 -137t-54.5 -33z" />
    <glyph glyph-name="Icircumflex" unicode="&#xce;" horiz-adv-x="802" 
d="M509 260q0 -99 19 -127t38.5 -36t45 -13t57.5 -11t70 -20l-2 -53h-665v52q45 21 96.5 28t70 13.5t31.5 26.5q24 38 24 158v752q0 159 -67 178q-21 6 -46 10q-73 10 -113 33l2 51h663l2 -52q-36 -12 -76 -21t-73 -25q-77 -37 -77 -123v-821zM682 1470q-24 0 -278 282
q-254 -282 -278 -282q-17 0 -17 17q0 18 101.5 215t111.5 214q34 57 82 57q52 0 85 -64q5 -11 23 -45t41 -80l49 -97q97 -195 97 -206t-17 -11z" />
    <glyph glyph-name="Idieresis" unicode="&#xcf;" horiz-adv-x="802" 
d="M509 260q0 -99 19 -127t38.5 -36t45 -13t57.5 -11t70 -20l-2 -53h-665v52q45 21 96.5 28t70 13.5t31.5 26.5q24 38 24 158v752q0 159 -67 178q-21 6 -46 10q-73 10 -113 33l2 51h663l2 -52q-36 -12 -76 -21t-73 -25q-77 -37 -77 -123v-821zM141 1694.5q20 8.5 42.5 8.5
t42.5 -8.5t35 -23.5q32 -32 32 -66t-8.5 -54t-23.5 -35q-33 -31 -66.5 -31t-53.5 8.5t-35 22.5q-31 32 -31 66t8.5 54t23 35t34.5 23.5zM623 1703q46 0 69 -23q41 -41 41 -75t-8.5 -54t-23.5 -35q-33 -31 -78 -31t-68 23q-40 40 -40 74t8.5 54t22.5 35q31 32 77 32z" />
    <glyph glyph-name="Eth" unicode="&#xd0;" horiz-adv-x="1613" 
d="M292 637h-181v128h181v245q0 138 -40 170q-43 34 -100 48t-84 23l2 51h592q598 0 784 -344q66 -123 66 -274.5t-46 -270t-136 -210.5q-200 -203 -541 -203h-719l-2 52q36 11 75.5 19t72.5 23q76 36 76 125v418zM507 637v-366q0 -87 24 -123q43 -64 124 -68
q42 -3 143.5 -3t196.5 47t157 122q122 149 122 363q0 275 -142 437q-156 179 -457 179h-168v-460h206v-128h-206z" />
    <glyph glyph-name="Ntilde" unicode="&#xd1;" horiz-adv-x="1724" 
d="M1463 -9q-41 -17 -106 0q-89 107 -164 187l-790 831v-702q0 -156 53 -193q42 -29 102 -37.5t89 -23.5q0 -26 -3 -53h-564q-2 8 -2 16v38q42 12 83.5 21.5t76.5 27.5q76 40 85 136v852q-46 74 -113 107q-31 14 -66 24.5t-76 27.5v52h349l941 -973v629q0 92 -20 151t-43 77
t-51.5 27t-59 15.5t-58.5 20.5q0 26 3 53h527v-54q-44 -20 -77 -33.5t-56.5 -27t-38.5 -29.5t-24 -42q-15 -46 -17.5 -293t-2.5 -405t10.5 -247t12.5 -180zM681 1639q-61 0 -79 -106h-38q6 233 160 233q61 0 134.5 -38t110.5 -55t67 -17q66 0 86 108h38q-2 -120 -44 -180.5
t-117 -60.5q-61 0 -137.5 40t-114 58t-66.5 18z" />
    <glyph glyph-name="Ograve" unicode="&#xd2;" horiz-adv-x="1603" 
d="M345 714q0 -137 36.5 -259t102.5 -212q139 -192 353 -192q185 0 301 141q120 146 120 393q0 284 -136 473q-138 192 -353 192q-180 0 -297 -134q-127 -143 -127 -402zM112 642q0 109 27.5 205t75.5 172.5t114 134t143 96.5q155 77 332 77q288 0 484 -184
q128 -120 178 -301q25 -90 25 -218.5t-56.5 -253t-153.5 -212.5q-203 -184 -497 -184q-274 0 -467 176q-205 188 -205 492zM1021 1524q0 -26 -23 -26q-17 0 -41.5 21.5t-69 62t-95 87t-101.5 93.5t-80.5 73.5t-29.5 48t6.5 36t18.5 26.5q24 26 48 26q43 0 68 -33.5
t61.5 -82.5t76.5 -102l115.5 -154t42.5 -62t3 -14z" />
    <glyph glyph-name="Oacute" unicode="&#xd3;" horiz-adv-x="1603" 
d="M345 714q0 -137 36.5 -259t102.5 -212q139 -192 353 -192q185 0 301 141q120 146 120 393q0 284 -136 473q-138 192 -353 192q-180 0 -297 -134q-127 -143 -127 -402zM112 642q0 109 27.5 205t75.5 172.5t114 134t143 96.5q155 77 332 77q288 0 484 -184
q128 -120 178 -301q25 -90 25 -218.5t-56.5 -253t-153.5 -212.5q-203 -184 -497 -184q-274 0 -467 176q-205 188 -205 492zM604 1498q-23 0 -23 26q0 15 21 43t60.5 80.5t79.5 106.5q103 138 127 170q36 48 71 48q49 0 74 -52q7 -15 7 -36.5t-29.5 -48t-80.5 -73.5t-101 -94
q-114 -104 -151.5 -137t-54.5 -33z" />
    <glyph glyph-name="Ocircumflex" unicode="&#xd4;" horiz-adv-x="1603" 
d="M345 714q0 -137 36.5 -259t102.5 -212q139 -192 353 -192q185 0 301 141q120 146 120 393q0 284 -136 473q-138 192 -353 192q-180 0 -297 -134q-127 -143 -127 -402zM112 642q0 109 27.5 205t75.5 172.5t114 134t143 96.5q155 77 332 77q288 0 484 -184
q128 -120 178 -301q25 -90 25 -218.5t-56.5 -253t-153.5 -212.5q-203 -184 -497 -184q-274 0 -467 176q-205 188 -205 492zM1079 1470q-24 0 -278 282q-254 -282 -278 -282q-17 0 -17 17q0 18 101.5 215t111.5 214q34 57 82 57q52 0 85 -64q5 -11 23 -45t41 -80l49 -97
q97 -195 97 -206t-17 -11z" />
    <glyph glyph-name="Otilde" unicode="&#xd5;" horiz-adv-x="1603" 
d="M345 714q0 -137 36.5 -259t102.5 -212q139 -192 353 -192q185 0 301 141q120 146 120 393q0 284 -136 473q-138 192 -353 192q-180 0 -297 -134q-127 -143 -127 -402zM112 642q0 109 27.5 205t75.5 172.5t114 134t143 96.5q155 77 332 77q288 0 484 -184
q128 -120 178 -301q25 -90 25 -218.5t-56.5 -253t-153.5 -212.5q-203 -184 -497 -184q-274 0 -467 176q-205 188 -205 492zM620 1639q-61 0 -79 -106h-38q6 233 160 233q61 0 134.5 -38t110.5 -55t67 -17q66 0 86 108h38q-2 -120 -44 -180.5t-117 -60.5q-61 0 -137.5 40
t-114 58t-66.5 18z" />
    <glyph glyph-name="Odieresis" unicode="&#xd6;" horiz-adv-x="1603" 
d="M345 714q0 -137 36.5 -259t102.5 -212q139 -192 353 -192q185 0 301 141q120 146 120 393q0 284 -136 473q-138 192 -353 192q-180 0 -297 -134q-127 -143 -127 -402zM112 642q0 109 27.5 205t75.5 172.5t114 134t143 96.5q155 77 332 77q288 0 484 -184
q128 -120 178 -301q25 -90 25 -218.5t-56.5 -253t-153.5 -212.5q-203 -184 -497 -184q-274 0 -467 176q-205 188 -205 492zM538 1694.5q20 8.5 42.5 8.5t42.5 -8.5t35 -23.5q32 -32 32 -66t-8.5 -54t-23.5 -35q-33 -31 -66.5 -31t-53.5 8.5t-35 22.5q-31 32 -31 66t8.5 54
t23 35t34.5 23.5zM1020 1703q46 0 69 -23q41 -41 41 -75t-8.5 -54t-23.5 -35q-33 -31 -78 -31t-68 23q-40 40 -40 74t8.5 54t22.5 35q31 32 77 32z" />
    <glyph glyph-name="multiply" unicode="&#xd7;" horiz-adv-x="1098" 
d="M235 212q-53 39 -92 92q33 40 72 79l235 235l-235 235q-56 56 -74 79q36 50 93 91q77 -66 176.5 -166.5t138.5 -139.5q215 221 315 306q46 -33 93 -91q-17 -22 -74 -79l-235 -235q257 -257 308 -315q-39 -53 -92 -92q-23 16 -80 73l-235 235l-234 -234q-40 -40 -80 -73z
" />
    <glyph glyph-name="Oslash" unicode="&#xd8;" horiz-adv-x="1603" 
d="M569 171q108 -120 268 -120q185 0 301 141q120 146 120 394q0 269 -130 460q-287 -402 -559 -875zM1056 1127q-117 123 -287 123q-180 0 -298 -138q-126 -146 -126 -389q0 -296 145 -476zM826 1327q164 0 307 -86q16 29 28 55.5t25 49.5q30 48 81 67q40 -11 67 -57
l-107 -167q191 -143 245 -375q19 -79 19 -173.5t-26 -184.5t-72.5 -164.5t-112 -133.5t-144.5 -100q-160 -84 -342.5 -84t-304.5 83q-18 -33 -34 -63t-33 -54q-38 -55 -81 -76q-40 18 -59 65q20 32 44 66l67 110q-281 187 -281 536q0 307 204 500q198 186 510 186z" />
    <glyph glyph-name="Ugrave" unicode="&#xd9;" horiz-adv-x="1639" 
d="M239 664l5 360q0 75 -8.5 110t-33 53t-55.5 29t-64 18.5t-57 16.5l3 51h660l2 -52q-42 -15 -75.5 -22t-59 -13t-44 -15.5t-30.5 -29.5q-23 -38 -23 -147v-427q0 -242 89 -367q106 -147 340 -147q429 0 429 531v393q0 110 -16 142t-34 44t-44 20t-60.5 16t-78.5 23v51h539
l2 -52q-24 -13 -56.5 -18t-62.5 -12q-75 -17 -91 -70q-16 -55 -16 -128l4 -308q0 -229 -27.5 -337t-66.5 -177t-103 -120q-137 -106 -385 -106q-225 0 -377 101q-170 114 -193 326q-12 99 -12 263zM1045 1524q0 -26 -23 -26q-17 0 -41.5 21.5t-69 62t-95 87t-101.5 93.5
t-80.5 73.5t-29.5 48t6.5 36t18.5 26.5q24 26 48 26q43 0 68 -33.5t61.5 -82.5t76.5 -102l115.5 -154t42.5 -62t3 -14z" />
    <glyph glyph-name="Uacute" unicode="&#xda;" horiz-adv-x="1639" 
d="M239 664l5 360q0 75 -8.5 110t-33 53t-55.5 29t-64 18.5t-57 16.5l3 51h660l2 -52q-42 -15 -75.5 -22t-59 -13t-44 -15.5t-30.5 -29.5q-23 -38 -23 -147v-427q0 -242 89 -367q106 -147 340 -147q429 0 429 531v393q0 110 -16 142t-34 44t-44 20t-60.5 16t-78.5 23v51h539
l2 -52q-24 -13 -56.5 -18t-62.5 -12q-75 -17 -91 -70q-16 -55 -16 -128l4 -308q0 -229 -27.5 -337t-66.5 -177t-103 -120q-137 -106 -385 -106q-225 0 -377 101q-170 114 -193 326q-12 99 -12 263zM628 1498q-23 0 -23 26q0 15 21 43t60.5 80.5t79.5 106.5q103 138 127 170
q36 48 71 48q49 0 74 -52q7 -15 7 -36.5t-29.5 -48t-80.5 -73.5t-101 -94q-114 -104 -151.5 -137t-54.5 -33z" />
    <glyph glyph-name="Ucircumflex" unicode="&#xdb;" horiz-adv-x="1639" 
d="M239 664l5 360q0 75 -8.5 110t-33 53t-55.5 29t-64 18.5t-57 16.5l3 51h660l2 -52q-42 -15 -75.5 -22t-59 -13t-44 -15.5t-30.5 -29.5q-23 -38 -23 -147v-427q0 -242 89 -367q106 -147 340 -147q429 0 429 531v393q0 110 -16 142t-34 44t-44 20t-60.5 16t-78.5 23v51h539
l2 -52q-24 -13 -56.5 -18t-62.5 -12q-75 -17 -91 -70q-16 -55 -16 -128l4 -308q0 -229 -27.5 -337t-66.5 -177t-103 -120q-137 -106 -385 -106q-225 0 -377 101q-170 114 -193 326q-12 99 -12 263zM1103 1470q-24 0 -278 282q-254 -282 -278 -282q-17 0 -17 17
q0 18 101.5 215t111.5 214q34 57 82 57q52 0 85 -64q5 -11 23 -45t41 -80l49 -97q97 -195 97 -206t-17 -11z" />
    <glyph glyph-name="Udieresis" unicode="&#xdc;" horiz-adv-x="1639" 
d="M239 664l5 360q0 75 -8.5 110t-33 53t-55.5 29t-64 18.5t-57 16.5l3 51h660l2 -52q-42 -15 -75.5 -22t-59 -13t-44 -15.5t-30.5 -29.5q-23 -38 -23 -147v-427q0 -242 89 -367q106 -147 340 -147q429 0 429 531v393q0 110 -16 142t-34 44t-44 20t-60.5 16t-78.5 23v51h539
l2 -52q-24 -13 -56.5 -18t-62.5 -12q-75 -17 -91 -70q-16 -55 -16 -128l4 -308q0 -229 -27.5 -337t-66.5 -177t-103 -120q-137 -106 -385 -106q-225 0 -377 101q-170 114 -193 326q-12 99 -12 263zM562 1694.5q20 8.5 42.5 8.5t42.5 -8.5t35 -23.5q32 -32 32 -66t-8.5 -54
t-23.5 -35q-33 -31 -66.5 -31t-53.5 8.5t-35 22.5q-31 32 -31 66t8.5 54t23 35t34.5 23.5zM1044 1703q46 0 69 -23q41 -41 41 -75t-8.5 -54t-23.5 -35q-33 -31 -78 -31t-68 23q-40 40 -40 74t8.5 54t22.5 35q31 32 77 32z" />
    <glyph glyph-name="Yacute" unicode="&#xdd;" horiz-adv-x="1330" 
d="M837 1273q0 13 2 29h502v-52q-104 -43 -136 -63q-62 -42 -102 -101l-328 -503v-337q0 -95 20.5 -120t40 -31.5t43.5 -10.5q76 -15 113 -32l-2 -52h-646l-2 52q38 21 86.5 28t68.5 13t34 23q29 34 29 138v308l-365 572q-36 56 -147 100q-29 12 -50 17v51h620l2 -52
q-99 -15 -144 -63q-17 -19 -17 -40t18 -57t46 -82.5t62 -99t65.5 -100t57 -85.5t36.5 -56q7 11 29 43t50.5 76t60.5 95t58 100q62 114 62 150t-18.5 53.5t-44.5 29t-54.5 19t-47.5 13.5zM472 1498q-23 0 -23 26q0 15 21 43t60.5 80.5t79.5 106.5q103 138 127 170
q36 48 71 48q49 0 74 -52q7 -15 7 -36.5t-29.5 -48t-80.5 -73.5t-101 -94q-114 -104 -151.5 -137t-54.5 -33z" />
    <glyph glyph-name="Thorn" unicode="&#xde;" horiz-adv-x="1296" 
d="M491 380q112 -5 177.5 -5t127 15.5t108.5 49.5q104 72 104 214q0 200 -176 264q-96 34 -191 36.5t-150 2.5v-577zM491 308q0 -113 12 -145t28 -46.5t41.5 -24.5t62 -19t86.5 -22l-2 -51h-649l-2 52q34 12 70.5 21t67.5 25q69 35 69 116v834q0 95 -19 121t-37 33t-41 12
q-73 18 -108 37v51h633l2 -52q-37 -14 -75 -24t-69 -27q-70 -38 -70 -127v-39h79q287 0 440 -52q232 -79 232 -313q0 -250 -282 -336q-108 -32 -231.5 -32t-237.5 8z" />
    <glyph glyph-name="germandbls" unicode="&#xdf;" horiz-adv-x="1200" 
d="M41 0q-2 8 -2 18v34q15 12 38.5 18.5t46.5 15.5q54 22 64 70q9 52 9 96v543h-90l-1 26q0 29 28 29h10q29 0 41 12q16 39 23.5 84.5t19.5 92.5q29 114 93 173.5t133.5 84.5t160.5 25t164.5 -21t126.5 -60q115 -83 115 -205.5t-64.5 -189t-192.5 -102.5v-3
q165 -22 264 -131q95 -104 95 -245q0 -148 -91 -259q-102 -123 -268 -123q-142 0 -190 91q-15 27 -15 60.5t24 57t54.5 23.5t44 -9.5t19 -24.5t6.5 -32.5t3 -33.5q6 -37 35 -42q12 -14 43.5 -14t57.5 19t46 52q44 74 44 197.5t-68.5 219t-204.5 127.5q-33 13 -79 33
q0 35 13 62q243 23 243 251q0 105 -72 168q-66 58 -147.5 58t-123 -24.5t-67.5 -72.5q-47 -89 -47 -283v-617q0 -96 24 -133q3 -26 18.5 -34t32.5 -11.5t30.5 -10t13.5 -22.5v-23q0 -7 -2 -15h-459z" />
    <glyph glyph-name="agrave" unicode="&#xe0;" horiz-adv-x="1013" 
d="M412 93q106 0 218 107v255q-26 -9 -61 -20t-73 -25.5t-75.5 -32.5t-66.5 -41q-66 -53 -66 -114.5t32 -95t92 -33.5zM633 129q-140 -149 -312 -149q-153 0 -211 112q-19 37 -19 90.5t28 98.5t73.5 78.5t103.5 57.5t118 42t116.5 31t99.5 24v95q0 116 -25.5 160t-61.5 63.5
t-74.5 19.5t-65.5 -6t-53 -17q-62 -27 -62 -67q0 -16 12 -38q22 -43 22 -71t-24.5 -54.5t-58.5 -26.5t-54.5 10.5t-34.5 27.5q-28 36 -28 83t18.5 80t48.5 58.5t69 43.5t80 29q77 22 170 22t157 -24t98 -72.5t44 -120.5t10 -168l-6 -217q0 -225 47 -225q34 0 88 69l42 -45
q-46 -75 -75 -99q-55 -44 -123.5 -44t-110.5 41.5t-46 107.5zM759 1122q0 -26 -23 -26q-17 0 -41.5 21.5t-69 62t-95 87t-101.5 93.5t-80.5 73.5t-29.5 48t6.5 36t18.5 26.5q24 26 48 26q43 0 68 -33.5t61.5 -82.5t76.5 -102l115.5 -154t42.5 -62t3 -14z" />
    <glyph glyph-name="aacute" unicode="&#xe1;" horiz-adv-x="1013" 
d="M412 93q106 0 218 107v255q-26 -9 -61 -20t-73 -25.5t-75.5 -32.5t-66.5 -41q-66 -53 -66 -114.5t32 -95t92 -33.5zM633 129q-140 -149 -312 -149q-153 0 -211 112q-19 37 -19 90.5t28 98.5t73.5 78.5t103.5 57.5t118 42t116.5 31t99.5 24v95q0 116 -25.5 160t-61.5 63.5
t-74.5 19.5t-65.5 -6t-53 -17q-62 -27 -62 -67q0 -16 12 -38q22 -43 22 -71t-24.5 -54.5t-58.5 -26.5t-54.5 10.5t-34.5 27.5q-28 36 -28 83t18.5 80t48.5 58.5t69 43.5t80 29q77 22 170 22t157 -24t98 -72.5t44 -120.5t10 -168l-6 -217q0 -225 47 -225q34 0 88 69l42 -45
q-46 -75 -75 -99q-55 -44 -123.5 -44t-110.5 41.5t-46 107.5zM342 1096q-23 0 -23 26q0 15 21 43t60.5 80.5t79.5 106.5q103 138 127 170q36 48 71 48q49 0 74 -52q7 -15 7 -36.5t-29.5 -48t-80.5 -73.5t-101 -94q-114 -104 -151.5 -137t-54.5 -33z" />
    <glyph glyph-name="acircumflex" unicode="&#xe2;" horiz-adv-x="1013" 
d="M412 93q106 0 218 107v255q-26 -9 -61 -20t-73 -25.5t-75.5 -32.5t-66.5 -41q-66 -53 -66 -114.5t32 -95t92 -33.5zM633 129q-140 -149 -312 -149q-153 0 -211 112q-19 37 -19 90.5t28 98.5t73.5 78.5t103.5 57.5t118 42t116.5 31t99.5 24v95q0 116 -25.5 160t-61.5 63.5
t-74.5 19.5t-65.5 -6t-53 -17q-62 -27 -62 -67q0 -16 12 -38q22 -43 22 -71t-24.5 -54.5t-58.5 -26.5t-54.5 10.5t-34.5 27.5q-28 36 -28 83t18.5 80t48.5 58.5t69 43.5t80 29q77 22 170 22t157 -24t98 -72.5t44 -120.5t10 -168l-6 -217q0 -225 47 -225q34 0 88 69l42 -45
q-46 -75 -75 -99q-55 -44 -123.5 -44t-110.5 41.5t-46 107.5zM817 1068q-24 0 -278 282q-254 -282 -278 -282q-17 0 -17 17q0 18 101.5 215t111.5 214q34 57 82 57q52 0 85 -64q5 -11 23 -45t41 -80l49 -97q97 -195 97 -206t-17 -11z" />
    <glyph glyph-name="atilde" unicode="&#xe3;" horiz-adv-x="1013" 
d="M412 93q106 0 218 107v255q-26 -9 -61 -20t-73 -25.5t-75.5 -32.5t-66.5 -41q-66 -53 -66 -114.5t32 -95t92 -33.5zM633 129q-140 -149 -312 -149q-153 0 -211 112q-19 37 -19 90.5t28 98.5t73.5 78.5t103.5 57.5t118 42t116.5 31t99.5 24v95q0 116 -25.5 160t-61.5 63.5
t-74.5 19.5t-65.5 -6t-53 -17q-62 -27 -62 -67q0 -16 12 -38q22 -43 22 -71t-24.5 -54.5t-58.5 -26.5t-54.5 10.5t-34.5 27.5q-28 36 -28 83t18.5 80t48.5 58.5t69 43.5t80 29q77 22 170 22t157 -24t98 -72.5t44 -120.5t10 -168l-6 -217q0 -225 47 -225q34 0 88 69l42 -45
q-46 -75 -75 -99q-55 -44 -123.5 -44t-110.5 41.5t-46 107.5zM334 1237q-61 0 -79 -106h-38q6 233 160 233q61 0 134.5 -38t110.5 -55t67 -17q66 0 86 108h38q-2 -120 -44 -180.5t-117 -60.5q-61 0 -137.5 40t-114 58t-66.5 18z" />
    <glyph glyph-name="adieresis" unicode="&#xe4;" horiz-adv-x="1013" 
d="M412 93q106 0 218 107v255q-26 -9 -61 -20t-73 -25.5t-75.5 -32.5t-66.5 -41q-66 -53 -66 -114.5t32 -95t92 -33.5zM633 129q-140 -149 -312 -149q-153 0 -211 112q-19 37 -19 90.5t28 98.5t73.5 78.5t103.5 57.5t118 42t116.5 31t99.5 24v95q0 116 -25.5 160t-61.5 63.5
t-74.5 19.5t-65.5 -6t-53 -17q-62 -27 -62 -67q0 -16 12 -38q22 -43 22 -71t-24.5 -54.5t-58.5 -26.5t-54.5 10.5t-34.5 27.5q-28 36 -28 83t18.5 80t48.5 58.5t69 43.5t80 29q77 22 170 22t157 -24t98 -72.5t44 -120.5t10 -168l-6 -217q0 -225 47 -225q34 0 88 69l42 -45
q-46 -75 -75 -99q-55 -44 -123.5 -44t-110.5 41.5t-46 107.5zM229 1292.5q20 8.5 42.5 8.5t42.5 -8.5t35 -23.5q32 -32 32 -66t-8.5 -54t-23.5 -35q-33 -31 -66.5 -31t-53.5 8.5t-35 22.5q-31 32 -31 66t8.5 54t23 35t34.5 23.5zM711 1301q46 0 69 -23q41 -41 41 -75
t-8.5 -54t-23.5 -35q-33 -31 -78 -31t-68 23q-40 40 -40 74t8.5 54t22.5 35q31 32 77 32z" />
    <glyph glyph-name="aring" unicode="&#xe5;" horiz-adv-x="1013" 
d="M412 93q106 0 218 107v255q-26 -9 -61 -20t-73 -25.5t-75.5 -32.5t-66.5 -41q-66 -53 -66 -114.5t32 -95t92 -33.5zM633 129q-140 -149 -312 -149q-153 0 -211 112q-19 37 -19 90.5t28 98.5t73.5 78.5t103.5 57.5t118 42t116.5 31t99.5 24v95q0 116 -25.5 160t-61.5 63.5
t-74.5 19.5t-65.5 -6t-53 -17q-62 -27 -62 -67q0 -16 12 -38q22 -43 22 -71t-24.5 -54.5t-58.5 -26.5t-54.5 10.5t-34.5 27.5q-28 36 -28 83t18.5 80t48.5 58.5t69 43.5t80 29q77 22 170 22t157 -24t98 -72.5t44 -120.5t10 -168l-6 -217q0 -225 47 -225q34 0 88 69l42 -45
q-46 -75 -75 -99q-55 -44 -123.5 -44t-110.5 41.5t-46 107.5zM586 1411.5q-22 9.5 -47.5 9.5t-47 -9.5t-37.5 -25.5q-34 -36 -34 -83q0 -50 25 -75q44 -44 81.5 -44t59.5 9.5t38 26.5q35 36 35 83q0 46 -25.5 72.5t-47.5 36zM539 1494q80 0 138 -57q57 -55 57 -134t-57 -135
q-57 -58 -138 -58q-82 0 -138.5 56.5t-56.5 136.5q0 79 57 134q58 57 138 57z" />
    <glyph glyph-name="ae" unicode="&#xe6;" horiz-adv-x="1447" 
d="M1114 583q47 9 83 31q-14 117 -56 177.5t-127 60.5q-204 0 -209 -308zM657 185q-37 98 -40 261q-214 -54 -268 -89t-70.5 -69t-16.5 -72t10.5 -59.5t28.5 -35.5q77 -60 235 0q71 27 121 64zM759 791q95 135 290 135q152 0 245 -110q88 -105 88 -262l-578 -68v-24
q0 -178 56 -252q62 -82 223 -82q122 0 207 46q27 15 55 34q19 -14 29 -29q-38 -97 -143 -151q-95 -48 -210 -48q-202 0 -331 152q-124 -109 -294 -142q-51 -10 -99 -10q-158 0 -211 109q-17 36 -17 90.5t23 98.5t62 75t92.5 51.5t113.5 36.5t125 29.5t128 30.5v121
q0 230 -165 230q-46 0 -89 -16q-87 -31 -87 -76q0 -19 12 -40q23 -40 23 -50t-11 -25.5t-28 -30.5q-41 -36 -68 -36t-43 13.5t-28 34.5q-26 44 -26 85t20 73t53 55.5t74.5 40t83.5 26.5q83 18 152 18q208 0 273 -133z" />
    <glyph glyph-name="ccedilla" unicode="&#xe7;" 
d="M879 188q-30 -99 -136 -156q-96 -52 -210.5 -52t-197.5 38.5t-139 103.5q-114 132 -114 326q0 203 134 338q138 140 356 140q215 0 292 -104q26 -36 26 -73t-10 -55t-24 -30q-29 -22 -64 -22t-51 15.5t-23 39t-11 50.5t-18 51q-32 54 -132 54q-121 0 -203 -88
q-89 -97 -89 -262q0 -161 81 -268q87 -114 236 -114q124 0 206 50q29 18 59 41zM557 -268q0 94 -152 104l47 175h83l24 -105q119 -17 152 -102q9 -25 9 -58.5t-18.5 -66.5t-50.5 -56q-67 -48 -162 -48q-64 0 -136 32l13 57q38 -20 82.5 -20t76.5 24.5t32 63.5z" />
    <glyph glyph-name="egrave" unicode="&#xe8;" 
d="M693 610q-15 249 -193 249q-97 0 -160 -81q-59 -74 -74 -193l353 9q47 2 74 16zM840 193l29 -28q-37 -87 -144 -138q-98 -47 -198.5 -47t-181 34t-139.5 96q-124 130 -124 337q0 208 134 347q126 132 307 132q144 0 241 -86q96 -84 116 -220q11 -51 11 -85v-9h-632
q-1 -8 -1 -15v-14q0 -187 100 -286q91 -90 226.5 -90t255.5 72zM742 1122q0 -26 -23 -26q-17 0 -41.5 21.5t-69 62t-95 87t-101.5 93.5t-80.5 73.5t-29.5 48t6.5 36t18.5 26.5q24 26 48 26q43 0 68 -33.5t61.5 -82.5t76.5 -102l115.5 -154t42.5 -62t3 -14z" />
    <glyph glyph-name="eacute" unicode="&#xe9;" 
d="M693 610q-15 249 -193 249q-97 0 -160 -81q-59 -74 -74 -193l353 9q47 2 74 16zM840 193l29 -28q-37 -87 -144 -138q-98 -47 -198.5 -47t-181 34t-139.5 96q-124 130 -124 337q0 208 134 347q126 132 307 132q144 0 241 -86q96 -84 116 -220q11 -51 11 -85v-9h-632
q-1 -8 -1 -15v-14q0 -187 100 -286q91 -90 226.5 -90t255.5 72zM325 1096q-23 0 -23 26q0 15 21 43t60.5 80.5t79.5 106.5q103 138 127 170q36 48 71 48q49 0 74 -52q7 -15 7 -36.5t-29.5 -48t-80.5 -73.5t-101 -94q-114 -104 -151.5 -137t-54.5 -33z" />
    <glyph glyph-name="ecircumflex" unicode="&#xea;" 
d="M693 610q-15 249 -193 249q-97 0 -160 -81q-59 -74 -74 -193l353 9q47 2 74 16zM840 193l29 -28q-37 -87 -144 -138q-98 -47 -198.5 -47t-181 34t-139.5 96q-124 130 -124 337q0 208 134 347q126 132 307 132q144 0 241 -86q96 -84 116 -220q11 -51 11 -85v-9h-632
q-1 -8 -1 -15v-14q0 -187 100 -286q91 -90 226.5 -90t255.5 72zM800 1068q-24 0 -278 282q-254 -282 -278 -282q-17 0 -17 17q0 18 101.5 215t111.5 214q34 57 82 57q52 0 85 -64q5 -11 23 -45t41 -80l49 -97q97 -195 97 -206t-17 -11z" />
    <glyph glyph-name="edieresis" unicode="&#xeb;" 
d="M693 610q-15 249 -193 249q-97 0 -160 -81q-59 -74 -74 -193l353 9q47 2 74 16zM840 193l29 -28q-37 -87 -144 -138q-98 -47 -198.5 -47t-181 34t-139.5 96q-124 130 -124 337q0 208 134 347q126 132 307 132q144 0 241 -86q96 -84 116 -220q11 -51 11 -85v-9h-632
q-1 -8 -1 -15v-14q0 -187 100 -286q91 -90 226.5 -90t255.5 72zM260 1292.5q20 8.5 42.5 8.5t42.5 -8.5t35 -23.5q32 -32 32 -66t-8.5 -54t-23.5 -35q-33 -31 -66.5 -31t-53.5 8.5t-35 22.5q-31 32 -31 66t8.5 54t23 35t34.5 23.5zM742 1301q46 0 69 -23q41 -41 41 -75
t-8.5 -54t-23.5 -35q-33 -31 -78 -31t-68 23q-40 40 -40 74t8.5 54t22.5 35q31 32 77 32z" />
    <glyph glyph-name="igrave" unicode="&#xec;" horiz-adv-x="589" 
d="M49 0q-2 8 -2 18v32q16 9 45 17t58 21q69 32 69 93v526q-17 29 -58 42.5t-62 21t-32 20.5q0 15 2 35l277 80l59 6v-692q0 -52 7 -81t26 -42.5t42 -21t45.5 -12.5t33.5 -13q0 -24 -2 -50h-508zM516 1122q0 -26 -23 -26q-17 0 -41.5 21.5t-69 62t-95 87t-101.5 93.5
t-80.5 73.5t-29.5 48t6.5 36t18.5 26.5q24 26 48 26q43 0 68 -33.5t61.5 -82.5t76.5 -102l115.5 -154t42.5 -62t3 -14z" />
    <glyph glyph-name="iacute" unicode="&#xed;" horiz-adv-x="589" 
d="M49 0q-2 8 -2 18v32q16 9 45 17t58 21q69 32 69 93v526q-17 29 -58 42.5t-62 21t-32 20.5q0 15 2 35l277 80l59 6v-692q0 -52 7 -81t26 -42.5t42 -21t45.5 -12.5t33.5 -13q0 -24 -2 -50h-508zM99 1096q-23 0 -23 26q0 15 21 43t60.5 80.5t79.5 106.5q103 138 127 170
q36 48 71 48q49 0 74 -52q7 -15 7 -36.5t-29.5 -48t-80.5 -73.5t-101 -94q-114 -104 -151.5 -137t-54.5 -33z" />
    <glyph glyph-name="icircumflex" unicode="&#xee;" horiz-adv-x="589" 
d="M49 0q-2 8 -2 18v32q16 9 45 17t58 21q69 32 69 93v526q-17 29 -58 42.5t-62 21t-32 20.5q0 15 2 35l277 80l59 6v-692q0 -52 7 -81t26 -42.5t42 -21t45.5 -12.5t33.5 -13q0 -24 -2 -50h-508zM574 1068q-24 0 -278 282q-254 -282 -278 -282q-17 0 -17 17q0 18 101.5 215
t111.5 214q34 57 82 57q52 0 85 -64q5 -11 23 -45t41 -80l49 -97q97 -195 97 -206t-17 -11z" />
    <glyph glyph-name="idieresis" unicode="&#xef;" horiz-adv-x="589" 
d="M49 0q-2 8 -2 18v32q16 9 45 17t58 21q69 32 69 93v526q-17 29 -58 42.5t-62 21t-32 20.5q0 15 2 35l277 80l59 6v-692q0 -52 7 -81t26 -42.5t42 -21t45.5 -12.5t33.5 -13q0 -24 -2 -50h-508zM33 1292.5q20 8.5 42.5 8.5t42.5 -8.5t35 -23.5q32 -32 32 -66t-8.5 -54
t-23.5 -35q-33 -31 -66.5 -31t-53.5 8.5t-35 22.5q-31 32 -31 66t8.5 54t23 35t34.5 23.5zM515 1301q46 0 69 -23q41 -41 41 -75t-8.5 -54t-23.5 -35q-33 -31 -78 -31t-68 23q-40 40 -40 74t8.5 54t22.5 35q31 32 77 32z" />
    <glyph glyph-name="eth" unicode="&#xf0;" horiz-adv-x="1091" 
d="M416 1380q180 -69 277 -162l170 88q77 0 83 -44q-25 -29 -101 -61.5t-94 -41.5q189 -192 240 -474q16 -89 16 -185t-31.5 -191t-91.5 -169q-130 -161 -342 -161q-192 0 -326 136q-134 135 -134 328q0 202 117 339q124 144 321 144q121 0 228 -89l3 2q-27 138 -122 265
q-57 -23 -109.5 -49t-107.5 -51q-29 16 -39 51q40 42 155 89q29 11 53 23q-74 86 -212 180zM293 615q-11 -64 -11 -113.5t6 -96.5t19.5 -95t34.5 -93.5t50 -80.5q66 -79 148.5 -79t133 34.5t80.5 88.5q56 101 56 248q0 141 -15 195t-41.5 92t-61.5 67q-79 67 -157 67
t-126 -33t-76.5 -85t-39.5 -116z" />
    <glyph glyph-name="ntilde" unicode="&#xf1;" horiz-adv-x="1200" 
d="M651 818q-126 0 -266 -150v-446q0 -125 101 -158q33 -10 75 -14l-2 -50h-515q-1 3 -1 10v34q0 5 1 10q85 20 108 35q47 31 47 96v542q-23 45 -159 84l3 34l273 68l61 4l11 -162q86 116 225 157q48 14 100 14q144 0 224.5 -80.5t87.5 -246.5q3 -65 3 -131v-223
q0 -116 30 -146q17 -16 45 -23.5t70 -21.5q1 -5 1 -10v-12l-1 -22v-10h-493q-2 11 -2 26v24q19 7 44.5 13t49.5 16q55 24 64 70q5 28 5 77v223q0 197 -21 254.5t-59.5 86t-109.5 28.5zM426 1237q-61 0 -79 -106h-38q6 233 160 233q61 0 134.5 -38t110.5 -55t67 -17
q66 0 86 108h38q-2 -120 -44 -180.5t-117 -60.5q-61 0 -137.5 40t-114 58t-66.5 18z" />
    <glyph glyph-name="ograve" unicode="&#xf2;" horiz-adv-x="1111" 
d="M302 670q-20 -65 -20 -152t20 -169t58 -147q84 -144 213 -144q126 0 195 94q64 87 64 236q0 197 -78 330q-81 141 -211 141q-183 0 -241 -189zM82 456q0 208 140 342q135 128 327 128q205 0 339 -126q141 -132 141 -343t-140 -347q-133 -130 -329 -130t-334 132
q-144 137 -144 344zM775 1122q0 -26 -23 -26q-17 0 -41.5 21.5t-69 62t-95 87t-101.5 93.5t-80.5 73.5t-29.5 48t6.5 36t18.5 26.5q24 26 48 26q43 0 68 -33.5t61.5 -82.5t76.5 -102l115.5 -154t42.5 -62t3 -14z" />
    <glyph glyph-name="oacute" unicode="&#xf3;" horiz-adv-x="1111" 
d="M302 670q-20 -65 -20 -152t20 -169t58 -147q84 -144 213 -144q126 0 195 94q64 87 64 236q0 197 -78 330q-81 141 -211 141q-183 0 -241 -189zM82 456q0 208 140 342q135 128 327 128q205 0 339 -126q141 -132 141 -343t-140 -347q-133 -130 -329 -130t-334 132
q-144 137 -144 344zM358 1096q-23 0 -23 26q0 15 21 43t60.5 80.5t79.5 106.5q103 138 127 170q36 48 71 48q49 0 74 -52q7 -15 7 -36.5t-29.5 -48t-80.5 -73.5t-101 -94q-114 -104 -151.5 -137t-54.5 -33z" />
    <glyph glyph-name="ocircumflex" unicode="&#xf4;" horiz-adv-x="1111" 
d="M302 670q-20 -65 -20 -152t20 -169t58 -147q84 -144 213 -144q126 0 195 94q64 87 64 236q0 197 -78 330q-81 141 -211 141q-183 0 -241 -189zM82 456q0 208 140 342q135 128 327 128q205 0 339 -126q141 -132 141 -343t-140 -347q-133 -130 -329 -130t-334 132
q-144 137 -144 344zM833 1068q-24 0 -278 282q-254 -282 -278 -282q-17 0 -17 17q0 18 101.5 215t111.5 214q34 57 82 57q52 0 85 -64q5 -11 23 -45t41 -80l49 -97q97 -195 97 -206t-17 -11z" />
    <glyph glyph-name="otilde" unicode="&#xf5;" horiz-adv-x="1111" 
d="M302 670q-20 -65 -20 -152t20 -169t58 -147q84 -144 213 -144q126 0 195 94q64 87 64 236q0 197 -78 330q-81 141 -211 141q-183 0 -241 -189zM82 456q0 208 140 342q135 128 327 128q205 0 339 -126q141 -132 141 -343t-140 -347q-133 -130 -329 -130t-334 132
q-144 137 -144 344zM374 1237q-61 0 -79 -106h-38q6 233 160 233q61 0 134.5 -38t110.5 -55t67 -17q66 0 86 108h38q-2 -120 -44 -180.5t-117 -60.5q-61 0 -137.5 40t-114 58t-66.5 18z" />
    <glyph glyph-name="odieresis" unicode="&#xf6;" horiz-adv-x="1111" 
d="M302 670q-20 -65 -20 -152t20 -169t58 -147q84 -144 213 -144q126 0 195 94q64 87 64 236q0 197 -78 330q-81 141 -211 141q-183 0 -241 -189zM82 456q0 208 140 342q135 128 327 128q205 0 339 -126q141 -132 141 -343t-140 -347q-133 -130 -329 -130t-334 132
q-144 137 -144 344zM293 1292.5q20 8.5 42.5 8.5t42.5 -8.5t35 -23.5q32 -32 32 -66t-8.5 -54t-23.5 -35q-33 -31 -66.5 -31t-53.5 8.5t-35 22.5q-31 32 -31 66t8.5 54t23 35t34.5 23.5zM775 1301q46 0 69 -23q41 -41 41 -75t-8.5 -54t-23.5 -35q-33 -31 -78 -31t-68 23
q-40 40 -40 74t8.5 54t22.5 35q31 32 77 32z" />
    <glyph glyph-name="divide" unicode="&#xf7;" horiz-adv-x="1262" 
d="M630 888q-48 0 -75 26q-45 43 -45 92q0 48 26 74q46 46 94 46q50 0 76 -26q46 -46 46 -81.5t-9.5 -57t-26.5 -37.5q-35 -36 -86 -36zM630 125q-48 0 -75 25q-45 44 -45 93q0 48 26 74q45 45 94 45q51 0 77 -26q45 -45 45 -93q0 -47 -26 -73q-45 -45 -96 -45zM243 548
q-100 0 -137 31q0 43 14.5 76t17.5 44l880 1q64 0 137 -31q0 -86 -32 -118z" />
    <glyph glyph-name="oslash" unicode="&#xf8;" horiz-adv-x="1111" 
d="M417 144q68 -82 144 -82t125.5 25.5t82.5 68.5q66 86 66 194q0 211 -73 348q-160 -225 -345 -554zM708 772q-64 88 -173 88q-126 0 -195 -109q-58 -90 -58 -227q0 -179 72 -305zM554 -20q-107 0 -206 62q-10 -21 -20 -44.5t-23 -45.5q-30 -51 -69 -66q-34 11 -52 79
l78 126q-180 141 -180 369q0 196 134 332q133 134 333 134q121 0 227 -59q14 15 36 63q41 86 63 96q59 -15 74 -56q-20 -38 -47 -74.5t-50 -74.5q177 -129 177 -365q0 -205 -133 -340q-134 -136 -342 -136z" />
    <glyph glyph-name="ugrave" unicode="&#xf9;" horiz-adv-x="1191" 
d="M554 98q140 0 262 122v423q0 62 -8 104q-12 65 -166 82v49l360 26v-703q0 -82 100 -105q28 -6 58 -11l-3 -53l-328 -47l-8 160q-148 -165 -331 -165q-251 0 -288 281q-10 81 -10 168v216q0 112 -30 137q-45 36 -136 46v50l352 26v-464q0 -190 38 -264q39 -78 138 -78z
M813 1122q0 -26 -23 -26q-17 0 -41.5 21.5t-69 62t-95 87t-101.5 93.5t-80.5 73.5t-29.5 48t6.5 36t18.5 26.5q24 26 48 26q43 0 68 -33.5t61.5 -82.5t76.5 -102l115.5 -154t42.5 -62t3 -14z" />
    <glyph glyph-name="uacute" unicode="&#xfa;" horiz-adv-x="1191" 
d="M554 98q140 0 262 122v423q0 62 -8 104q-12 65 -166 82v49l360 26v-703q0 -82 100 -105q28 -6 58 -11l-3 -53l-328 -47l-8 160q-148 -165 -331 -165q-251 0 -288 281q-10 81 -10 168v216q0 112 -30 137q-45 36 -136 46v50l352 26v-464q0 -190 38 -264q39 -78 138 -78z
M396 1096q-23 0 -23 26q0 15 21 43t60.5 80.5t79.5 106.5q103 138 127 170q36 48 71 48q49 0 74 -52q7 -15 7 -36.5t-29.5 -48t-80.5 -73.5t-101 -94q-114 -104 -151.5 -137t-54.5 -33z" />
    <glyph glyph-name="ucircumflex" unicode="&#xfb;" horiz-adv-x="1191" 
d="M554 98q140 0 262 122v423q0 62 -8 104q-12 65 -166 82v49l360 26v-703q0 -82 100 -105q28 -6 58 -11l-3 -53l-328 -47l-8 160q-148 -165 -331 -165q-251 0 -288 281q-10 81 -10 168v216q0 112 -30 137q-45 36 -136 46v50l352 26v-464q0 -190 38 -264q39 -78 138 -78z
M871 1068q-24 0 -278 282q-254 -282 -278 -282q-17 0 -17 17q0 18 101.5 215t111.5 214q34 57 82 57q52 0 85 -64q5 -11 23 -45t41 -80l49 -97q97 -195 97 -206t-17 -11z" />
    <glyph glyph-name="udieresis" unicode="&#xfc;" horiz-adv-x="1191" 
d="M554 98q140 0 262 122v423q0 62 -8 104q-12 65 -166 82v49l360 26v-703q0 -82 100 -105q28 -6 58 -11l-3 -53l-328 -47l-8 160q-148 -165 -331 -165q-251 0 -288 281q-10 81 -10 168v216q0 112 -30 137q-45 36 -136 46v50l352 26v-464q0 -190 38 -264q39 -78 138 -78z
M330 1292.5q20 8.5 42.5 8.5t42.5 -8.5t35 -23.5q32 -32 32 -66t-8.5 -54t-23.5 -35q-33 -31 -66.5 -31t-53.5 8.5t-35 22.5q-31 32 -31 66t8.5 54t23 35t34.5 23.5zM812 1301q46 0 69 -23q41 -41 41 -75t-8.5 -54t-23.5 -35q-33 -31 -78 -31t-68 23q-40 40 -40 74t8.5 54
t22.5 35q31 32 77 32z" />
    <glyph glyph-name="yacute" unicode="&#xfd;" horiz-adv-x="1000" 
d="M980 880l1 -32q-17 -14 -37.5 -20.5t-41.5 -18.5q-49 -29 -70 -102l-355 -874q-44 -110 -87 -152q-79 -76 -171 -76q-67 0 -99 23q-55 39 -55 87t28.5 73.5t63.5 25.5t51 -11t29 -25q34 -35 64.5 -35t55 22t45.5 58q29 51 68 177l-312 712q-41 92 -77 111q-17 9 -36 11
t-45 13v52h469l5 -32q0 -14 -38 -29q-8 -4 -14 -8q-83 -6 -83 -54q0 -11 4 -24.5t9 -30.5l207 -494l169 448q15 39 15 76q0 71 -130 92q-1 5 -1 11v35q0 7 1 10h367v-19zM293 1096q-23 0 -23 26q0 15 21 43t60.5 80.5t79.5 106.5q103 138 127 170q36 48 71 48q49 0 74 -52
q7 -15 7 -36.5t-29.5 -48t-80.5 -73.5t-101 -94q-114 -104 -151.5 -137t-54.5 -33z" />
    <glyph glyph-name="thorn" unicode="&#xfe;" horiz-adv-x="1130" 
d="M352 677v-338q0 -134 46 -195q59 -78 207 -78q123 0 191 96q66 96 66 261q0 188 -85 287q-73 86 -187 86t-238 -119zM576 -18q-110 0 -224 53v-179q0 -114 38 -137q34 -20 81 -29t65 -18q0 -22 -2 -50h-526q-3 27 -3 50q11 8 32 12.5t43 11.5q56 16 64 49q22 48 22 109
v1311q-15 24 -62.5 43t-71 28t-33.5 20v24q0 5 2 10q70 20 139.5 39.5t139.5 39.5l72 7v-612q148 162 316 162q160 0 270 -125q110 -127 110 -320q0 -229 -136 -368q-127 -131 -336 -131z" />
    <glyph glyph-name="ydieresis" unicode="&#xff;" horiz-adv-x="1000" 
d="M980 880l1 -32q-17 -14 -37.5 -20.5t-41.5 -18.5q-49 -29 -70 -102l-355 -874q-44 -110 -87 -152q-79 -76 -171 -76q-67 0 -99 23q-55 39 -55 87t28.5 73.5t63.5 25.5t51 -11t29 -25q34 -35 64.5 -35t55 22t45.5 58q29 51 68 177l-312 712q-41 92 -77 111q-17 9 -36 11
t-45 13v52h469l5 -32q0 -14 -38 -29q-8 -4 -14 -8q-83 -6 -83 -54q0 -11 4 -24.5t9 -30.5l207 -494l169 448q15 39 15 76q0 71 -130 92q-1 5 -1 11v35q0 7 1 10h367v-19zM228 1292.5q20 8.5 42.5 8.5t42.5 -8.5t35 -23.5q32 -32 32 -66t-8.5 -54t-23.5 -35
q-33 -31 -66.5 -31t-53.5 8.5t-35 22.5q-31 32 -31 66t8.5 54t23 35t34.5 23.5zM710 1301q46 0 69 -23q41 -41 41 -75t-8.5 -54t-23.5 -35q-33 -31 -78 -31t-68 23q-40 40 -40 74t8.5 54t22.5 35q31 32 77 32z" />
    <glyph glyph-name="Amacron" unicode="&#x100;" horiz-adv-x="1366" 
d="M808 620l-197 492l-183 -492h380zM948 129q18 21 18 42t-7.5 47.5t-19 60.5t-26 72t-27.5 73q-34 86 -41 108h-451q-5 -14 -15.5 -40t-23.5 -59.5t-26.5 -70.5t-24.5 -72q-26 -78 -26 -111.5t17.5 -53t43.5 -31.5q34 -17 130 -37v-57h-472v52q20 17 41.5 25.5t42.5 17.5
q52 22 71 58t29.5 64t21.5 56l374 958q4 10 4.5 22.5t1.5 24.5q3 33 13 46q94 0 156 -47l459 -1101q24 -56 73 -82q23 -11 48 -19.5t52 -22.5l-2 -52h-582l-2 52q80 26 106 41t44 36zM382 1447v128h602v-128h-602z" />
    <glyph glyph-name="amacron" unicode="&#x101;" horiz-adv-x="1013" 
d="M412 93q106 0 218 107v255q-26 -9 -61 -20t-73 -25.5t-75.5 -32.5t-66.5 -41q-66 -53 -66 -114.5t32 -95t92 -33.5zM633 129q-140 -149 -312 -149q-153 0 -211 112q-19 37 -19 90.5t28 98.5t73.5 78.5t103.5 57.5t118 42t116.5 31t99.5 24v95q0 116 -25.5 160t-61.5 63.5
t-74.5 19.5t-65.5 -6t-53 -17q-62 -27 -62 -67q0 -16 12 -38q22 -43 22 -71t-24.5 -54.5t-58.5 -26.5t-54.5 10.5t-34.5 27.5q-28 36 -28 83t18.5 80t48.5 58.5t69 43.5t80 29q77 22 170 22t157 -24t98 -72.5t44 -120.5t10 -168l-6 -217q0 -225 47 -225q34 0 88 69l42 -45
q-46 -75 -75 -99q-55 -44 -123.5 -44t-110.5 41.5t-46 107.5zM203 1044v128h602v-128h-602z" />
    <glyph glyph-name="Abreve" unicode="&#x102;" horiz-adv-x="1366" 
d="M808 620l-197 492l-183 -492h380zM948 129q18 21 18 42t-7.5 47.5t-19 60.5t-26 72t-27.5 73q-34 86 -41 108h-451q-5 -14 -15.5 -40t-23.5 -59.5t-26.5 -70.5t-24.5 -72q-26 -78 -26 -111.5t17.5 -53t43.5 -31.5q34 -17 130 -37v-57h-472v52q20 17 41.5 25.5t42.5 17.5
q52 22 71 58t29.5 64t21.5 56l374 958q4 10 4.5 22.5t1.5 24.5q3 33 13 46q94 0 156 -47l459 -1101q24 -56 73 -82q23 -11 48 -19.5t52 -22.5l-2 -52h-582l-2 52q80 26 106 41t44 36zM520 1684q52 -116 198.5 -116t179.5 116h58q0 -113 -65 -180t-183 -67t-180 65t-65 182
h57z" />
    <glyph glyph-name="abreve" unicode="&#x103;" horiz-adv-x="1013" 
d="M412 93q106 0 218 107v255q-26 -9 -61 -20t-73 -25.5t-75.5 -32.5t-66.5 -41q-66 -53 -66 -114.5t32 -95t92 -33.5zM633 129q-140 -149 -312 -149q-153 0 -211 112q-19 37 -19 90.5t28 98.5t73.5 78.5t103.5 57.5t118 42t116.5 31t99.5 24v95q0 116 -25.5 160t-61.5 63.5
t-74.5 19.5t-65.5 -6t-53 -17q-62 -27 -62 -67q0 -16 12 -38q22 -43 22 -71t-24.5 -54.5t-58.5 -26.5t-54.5 10.5t-34.5 27.5q-28 36 -28 83t18.5 80t48.5 58.5t69 43.5t80 29q77 22 170 22t157 -24t98 -72.5t44 -120.5t10 -168l-6 -217q0 -225 47 -225q34 0 88 69l42 -45
q-46 -75 -75 -99q-55 -44 -123.5 -44t-110.5 41.5t-46 107.5zM370 1282q52 -116 198.5 -116t179.5 116h58q0 -113 -65 -180t-183 -67t-180 65t-65 182h57z" />
    <glyph glyph-name="Aogonek" unicode="&#x104;" horiz-adv-x="1366" 
d="M808 620l-197 492l-183 -492h380zM948 129q18 21 18 42t-7.5 47.5t-19 60.5t-26 72t-27.5 73q-34 86 -41 108h-451q-5 -14 -15.5 -40t-23.5 -59.5t-26.5 -70.5t-24.5 -72q-26 -78 -26 -111.5t17.5 -53t43.5 -31.5q34 -17 130 -37v-57h-472v52q20 17 41.5 25.5t42.5 17.5
q52 22 71 58t29.5 64t21.5 56l374 958q4 10 4.5 22.5t1.5 24.5q3 33 13 46q94 0 156 -47l459 -1101q24 -56 73 -82q23 -11 48 -19.5t52 -22.5l-2 -52h-582l-2 52q80 26 106 41t44 36zM1383 -314q-102 -57 -192 -57q-87 0 -147 47q-65 50 -65 136q0 88 61 145q51 48 143 66
q-6 -24 -18 -42l-24 -36q-30 -45 -30 -90q0 -85 93 -111q27 -8 63.5 -8t104.5 30z" />
    <glyph glyph-name="aogonek" unicode="&#x105;" horiz-adv-x="1013" 
d="M412 93q106 0 218 107v255q-26 -9 -61 -20t-73 -25.5t-75.5 -32.5t-66.5 -41q-66 -53 -66 -114.5t32 -95t92 -33.5zM633 129q-140 -149 -312 -149q-153 0 -211 112q-19 37 -19 90.5t28 98.5t73.5 78.5t103.5 57.5t118 42t116.5 31t99.5 24v95q0 116 -25.5 160t-61.5 63.5
t-74.5 19.5t-65.5 -6t-53 -17q-62 -27 -62 -67q0 -16 12 -38q22 -43 22 -71t-24.5 -54.5t-58.5 -26.5t-54.5 10.5t-34.5 27.5q-28 36 -28 83t18.5 80t48.5 58.5t69 43.5t80 29q77 22 170 22t157 -24t98 -72.5t44 -120.5t10 -168l-6 -217q0 -225 47 -225q34 0 88 69l42 -45
q-46 -75 -75 -99q-55 -44 -123.5 -44t-110.5 41.5t-46 107.5zM988 -314q-102 -57 -192 -57q-87 0 -147 47q-65 50 -65 136q0 88 61 145q51 48 143 66q-6 -24 -18 -42l-24 -36q-30 -45 -30 -90q0 -85 93 -111q27 -8 63.5 -8t104.5 30z" />
    <glyph glyph-name="Cacute" unicode="&#x106;" horiz-adv-x="1439" 
d="M878 81q286 0 405 223l49 -7l-9 -189q-165 -93 -389 -124q-68 -10 -128 -10q-301 0 -494 177q-200 184 -200 489q0 293 204 487q211 200 548 200q203 0 416 -82l41 -302l-47 -2q-19 19 -46 66q-50 88 -72 110q-133 133 -320 133q-202 0 -341 -147q-149 -158 -149 -423
q0 -274 144 -436q146 -163 388 -163zM525 1498q-23 0 -23 26q0 15 21 43t60.5 80.5t79.5 106.5q103 138 127 170q36 48 71 48q49 0 74 -52q7 -15 7 -36.5t-29.5 -48t-80.5 -73.5t-101 -94q-114 -104 -151.5 -137t-54.5 -33z" />
    <glyph glyph-name="cacute" unicode="&#x107;" 
d="M879 188q-30 -99 -136 -156q-96 -52 -210.5 -52t-197.5 38.5t-139 103.5q-114 132 -114 326q0 203 134 338q138 140 356 140q215 0 292 -104q26 -36 26 -73t-10 -55t-24 -30q-29 -22 -64 -22t-51 15.5t-23 39t-11 50.5t-18 51q-32 54 -132 54q-121 0 -203 -88
q-89 -97 -89 -262q0 -161 81 -268q87 -114 236 -114q124 0 206 50q29 18 59 41zM289 1096q-23 0 -23 26q0 15 21 43t60.5 80.5t79.5 106.5q103 138 127 170q36 48 71 48q49 0 74 -52q7 -15 7 -36.5t-29.5 -48t-80.5 -73.5t-101 -94q-114 -104 -151.5 -137t-54.5 -33z" />
    <glyph glyph-name="Cdotaccent" unicode="&#x10a;" horiz-adv-x="1439" 
d="M878 81q286 0 405 223l49 -7l-9 -189q-165 -93 -389 -124q-68 -10 -128 -10q-301 0 -494 177q-200 184 -200 489q0 293 204 487q211 200 548 200q203 0 416 -82l41 -302l-47 -2q-19 19 -46 66q-50 88 -72 110q-133 133 -320 133q-202 0 -341 -147q-149 -158 -149 -423
q0 -274 144 -436q146 -163 388 -163zM830 1676q46 0 70 -24q40 -40 40 -74t-8.5 -54t-23.5 -34q-33 -32 -78 -32q-44 0 -68 23q-41 39 -41 73.5t8.5 54.5t23.5 35q32 32 77 32z" />
    <glyph glyph-name="cdotaccent" unicode="&#x10b;" 
d="M879 188q-30 -99 -136 -156q-96 -52 -210.5 -52t-197.5 38.5t-139 103.5q-114 132 -114 326q0 203 134 338q138 140 356 140q215 0 292 -104q26 -36 26 -73t-10 -55t-24 -30q-29 -22 -64 -22t-51 15.5t-23 39t-11 50.5t-18 51q-32 54 -132 54q-121 0 -203 -88
q-89 -97 -89 -262q0 -161 81 -268q87 -114 236 -114q124 0 206 50q29 18 59 41zM481 1274q46 0 70 -24q40 -40 40 -74t-8.5 -54t-23.5 -34q-33 -32 -78 -32q-44 0 -68 23q-41 39 -41 73.5t8.5 54.5t23.5 35q32 32 77 32z" />
    <glyph glyph-name="Ccaron" unicode="&#x10c;" horiz-adv-x="1439" 
d="M878 81q286 0 405 223l49 -7l-9 -189q-165 -93 -389 -124q-68 -10 -128 -10q-301 0 -494 177q-200 184 -200 489q0 293 204 487q211 200 548 200q203 0 416 -82l41 -302l-47 -2q-19 19 -46 66q-50 88 -72 110q-133 133 -320 133q-202 0 -341 -147q-149 -158 -149 -423
q0 -274 144 -436q146 -163 388 -163zM434 1777q8 13 36 13q65 -34 201 -191q32 -37 53 -60q21 26 49.5 62t59.5 73q75 88 120 116q28 0 36 -13q-39 -98 -104 -209.5t-89 -156.5q-76 -20 -137 -20q-54 43 -166 262q-38 74 -59 124z" />
    <glyph glyph-name="ccaron" unicode="&#x10d;" 
d="M879 188q-30 -99 -136 -156q-96 -52 -210.5 -52t-197.5 38.5t-139 103.5q-114 132 -114 326q0 203 134 338q138 140 356 140q215 0 292 -104q26 -36 26 -73t-10 -55t-24 -30q-29 -22 -64 -22t-51 15.5t-23 39t-11 50.5t-18 51q-32 54 -132 54q-121 0 -203 -88
q-89 -97 -89 -262q0 -161 81 -268q87 -114 236 -114q124 0 206 50q29 18 59 41zM199 1375q8 13 36 13q65 -34 201 -191q32 -37 53 -60q21 26 49.5 62t59.5 73q75 88 120 116q28 0 36 -13q-39 -98 -104 -209.5t-89 -156.5q-76 -20 -137 -20q-54 43 -166 262q-38 74 -59 124z
" />
    <glyph glyph-name="Dcaron" unicode="&#x10e;" horiz-adv-x="1624" 
d="M507 1225v-954q0 -87 24 -123q43 -64 124 -68q42 -3 143.5 -3t196.5 47t157 122q122 149 122 363q0 275 -142 437q-156 179 -457 179h-168zM292 1010q0 138 -40 170q-43 34 -100 48t-84 23l2 51h592q598 0 784 -344q66 -123 66 -274.5t-46 -270t-136 -210.5
q-200 -203 -541 -203h-719l-2 52q36 11 75.5 19t72.5 23q76 36 76 125v791zM520 1778q8 13 36 13q65 -34 201 -191q32 -37 53 -60q21 26 49.5 62t59.5 73q75 88 120 116q28 0 36 -13q-39 -98 -104 -209.5t-89 -156.5q-76 -20 -137 -20q-54 43 -166 262q-38 74 -59 124z" />
    <glyph glyph-name="dcaron" unicode="&#x10f;" horiz-adv-x="1183" 
d="M799 222v288q0 143 -41 210q-43 69 -130 106q-46 20 -101 20t-104.5 -30.5t-84.5 -81.5q-72 -107 -72 -257t73 -257q83 -121 225.5 -121t234.5 123zM804 143q-145 -163 -316 -163q-174 0 -289 119q-119 123 -119 315q0 225 132.5 367t331.5 142q69 0 130 -22t125 -52v326
q-26 41 -170 91l2 35l282 68l72 7v-1177q0 -60 59 -89q45 -23 103 -23v-55l-267 -44h-67zM1345 793q-28 26 -36 57q32 18 64 34t57 36q58 45 58 113q-30 43 -86 52q-105 18 -105 114q0 87 83 119q25 10 61 10t69.5 -15t57.5 -42q49 -57 49 -129.5t-18 -126.5t-53 -99
q-77 -100 -201 -123z" />
    <glyph glyph-name="Dcroat" unicode="&#x110;" horiz-adv-x="1624" 
d="M507 1225v-954q0 -87 24 -123q43 -64 124 -68q42 -3 143.5 -3t196.5 47t157 122q122 149 122 363q0 275 -142 437q-156 179 -457 179h-168zM292 1010q0 138 -40 170q-43 34 -100 48t-84 23l2 51h592q598 0 784 -344q66 -123 66 -274.5t-46 -270t-136 -210.5
q-200 -203 -541 -203h-719l-2 52q36 11 75.5 19t72.5 23q76 36 76 125v791zM508 1447v128h602v-128h-602z" />
    <glyph glyph-name="dcroat" unicode="&#x111;" horiz-adv-x="0" 
 />
    <glyph glyph-name="Emacron" unicode="&#x112;" horiz-adv-x="1370" 
d="M1198 1312q19 0 37 -4v-311l-52 -2q-24 22 -37 54t-26 63t-32 57t-53 37t-76 16.5t-87 8.5q-60 4 -142 4q-154 0 -230 -9q-4 -52 -4 -103v-406h288q113 0 145.5 23.5t50.5 51.5t42 72l15 27h57v-429l-57 -3q-32 87 -67 120q-64 62 -147 62h-327v-337q0 -150 58 -198
q42 -36 170 -36h98q126 0 187 19t101 47.5t60.5 69.5t34.5 75t41 61h63l-66 -351q-17 -3 -32 -3l-115 12h-1026l-2 49q46 25 94.5 33.5t66 14.5t29.5 23q23 36 23 147v757q0 132 -49 166q-25 18 -65.5 28t-98.5 33l2 51h1020zM386 1447v128h602v-128h-602z" />
    <glyph glyph-name="emacron" unicode="&#x113;" 
d="M693 610q-15 249 -193 249q-97 0 -160 -81q-59 -74 -74 -193l353 9q47 2 74 16zM840 193l29 -28q-37 -87 -144 -138q-98 -47 -198.5 -47t-181 34t-139.5 96q-124 130 -124 337q0 208 134 347q126 132 307 132q144 0 241 -86q96 -84 116 -220q11 -51 11 -85v-9h-632
q-1 -8 -1 -15v-14q0 -187 100 -286q91 -90 226.5 -90t255.5 72zM178 1044v128h602v-128h-602z" />
    <glyph glyph-name="Eogonek" unicode="&#x118;" horiz-adv-x="1370" 
d="M1198 1312q19 0 37 -4v-311l-52 -2q-24 22 -37 54t-26 63t-32 57t-53 37t-76 16.5t-87 8.5q-60 4 -142 4q-154 0 -230 -9q-4 -52 -4 -103v-406h288q113 0 145.5 23.5t50.5 51.5t42 72l15 27h57v-429l-57 -3q-32 87 -67 120q-64 62 -147 62h-327v-337q0 -150 58 -198
q42 -36 170 -36h98q126 0 187 19t101 47.5t60.5 69.5t34.5 75t41 61h63l-66 -351q-17 -3 -32 -3l-115 12h-1026l-2 49q46 25 94.5 33.5t66 14.5t29.5 23q23 36 23 147v757q0 132 -49 166q-25 18 -65.5 28t-98.5 33l2 51h1020zM1309 -314q-102 -57 -192 -57q-87 0 -147 47
q-65 50 -65 136q0 88 61 145q51 48 143 66q-6 -24 -18 -42l-24 -36q-30 -45 -30 -90q0 -85 93 -111q27 -8 63.5 -8t104.5 30z" />
    <glyph glyph-name="eogonek" unicode="&#x119;" 
d="M693 610q-15 249 -193 249q-97 0 -160 -81q-59 -74 -74 -193l353 9q47 2 74 16zM840 193l29 -28q-37 -87 -144 -138q-98 -47 -198.5 -47t-181 34t-139.5 96q-124 130 -124 337q0 208 134 347q126 132 307 132q144 0 241 -86q96 -84 116 -220q11 -51 11 -85v-9h-632
q-1 -8 -1 -15v-14q0 -187 100 -286q91 -90 226.5 -90t255.5 72zM891 -314q-102 -57 -192 -57q-87 0 -147 47q-65 50 -65 136q0 88 61 145q51 48 143 66q-6 -24 -18 -42l-24 -36q-30 -45 -30 -90q0 -85 93 -111q27 -8 63.5 -8t104.5 30z" />
    <glyph glyph-name="Ecaron" unicode="&#x11a;" horiz-adv-x="1370" 
d="M1198 1312q19 0 37 -4v-311l-52 -2q-24 22 -37 54t-26 63t-32 57t-53 37t-76 16.5t-87 8.5q-60 4 -142 4q-154 0 -230 -9q-4 -52 -4 -103v-406h288q113 0 145.5 23.5t50.5 51.5t42 72l15 27h57v-429l-57 -3q-32 87 -67 120q-64 62 -147 62h-327v-337q0 -150 58 -198
q42 -36 170 -36h98q126 0 187 19t101 47.5t60.5 69.5t34.5 75t41 61h63l-66 -351q-17 -3 -32 -3l-115 12h-1026l-2 49q46 25 94.5 33.5t66 14.5t29.5 23q23 36 23 147v757q0 132 -49 166q-25 18 -65.5 28t-98.5 33l2 51h1020zM400 1777q8 13 36 13q65 -34 201 -191
q32 -37 53 -60q21 26 49.5 62t59.5 73q75 88 120 116q28 0 36 -13q-39 -98 -104 -209.5t-89 -156.5q-76 -20 -137 -20q-54 43 -166 262q-38 74 -59 124z" />
    <glyph glyph-name="ecaron" unicode="&#x11b;" 
d="M693 610q-15 249 -193 249q-97 0 -160 -81q-59 -74 -74 -193l353 9q47 2 74 16zM840 193l29 -28q-37 -87 -144 -138q-98 -47 -198.5 -47t-181 34t-139.5 96q-124 130 -124 337q0 208 134 347q126 132 307 132q144 0 241 -86q96 -84 116 -220q11 -51 11 -85v-9h-632
q-1 -8 -1 -15v-14q0 -187 100 -286q91 -90 226.5 -90t255.5 72zM234 1375q8 13 36 13q65 -34 201 -191q32 -37 53 -60q21 26 49.5 62t59.5 73q75 88 120 116q28 0 36 -13q-39 -98 -104 -209.5t-89 -156.5q-76 -20 -137 -20q-54 43 -166 262q-38 74 -59 124z" />
    <glyph glyph-name="Gbreve" unicode="&#x11e;" horiz-adv-x="1579" 
d="M1552 684l2 -52q-31 -12 -61 -22.5t-54 -27.5q-53 -38 -53 -119v-368q-233 -121 -516 -121q-343 0 -550 182q-208 183 -208 482q0 202 110 364q104 151 288 239q182 86 397 86q214 0 439 -80l30 -302q-32 -3 -58 -3q-20 17 -41 58q-45 86 -57 100q-128 150 -339 150
q-231 0 -380.5 -164.5t-149.5 -410.5q0 -266 149 -439q149 -174 387 -174q162 0 267 65q12 102 12 201q0 147 -28 225q-15 41 -84 56q-27 6 -55.5 10t-48.5 13v26q0 14 2 26h600zM664 1684q52 -116 198.5 -116t179.5 116h58q0 -113 -65 -180t-183 -67t-180 65t-65 182h57z
" />
    <glyph glyph-name="gbreve" unicode="&#x11f;" horiz-adv-x="999" 
d="M303 15q-97 -81 -97 -152q0 -109 213 -129q28 -2 63.5 -2t94 8.5t108.5 27.5q118 43 118 114q0 115 -243 119l-79 1q-68 2 -178 13zM288 632q0 -52 11 -99t34 -83q51 -76 144 -76q120 0 150 133q10 41 10 96.5t-14.5 103t-39.5 79.5q-52 66 -134 66q-69 0 -114 -60
q-47 -62 -47 -160zM479 926q96 0 198 -53l74 9q80 10 116 10q44 0 74 -4l-15 -127q-52 13 -116 27l-77 15q57 -76 68 -113t11 -90t-31 -112.5t-82 -99.5q-100 -80 -241 -80q-50 0 -128 18q-12 -9 -24.5 -16t-22.5 -16q-24 -20 -24 -48.5t26.5 -40.5t77.5 -17t124.5 -7.5
t151 -8.5t129.5 -22t90 -44q81 -58 81 -158q0 -136 -148 -220q-140 -79 -349 -79q-168 0 -273 54q-93 48 -93 113q0 97 153 208q-119 50 -119 139q0 78 99 147q30 21 66 42q-165 95 -165 261q0 137 98 225q97 88 271 88zM339 1282q52 -116 198.5 -116t179.5 116h58
q0 -113 -65 -180t-183 -67t-180 65t-65 182h57z" />
    <glyph glyph-name="Gdotaccent" unicode="&#x120;" horiz-adv-x="1579" 
d="M1552 684l2 -52q-31 -12 -61 -22.5t-54 -27.5q-53 -38 -53 -119v-368q-233 -121 -516 -121q-343 0 -550 182q-208 183 -208 482q0 202 110 364q104 151 288 239q182 86 397 86q214 0 439 -80l30 -302q-32 -3 -58 -3q-20 17 -41 58q-45 86 -57 100q-128 150 -339 150
q-231 0 -380.5 -164.5t-149.5 -410.5q0 -266 149 -439q149 -174 387 -174q162 0 267 65q12 102 12 201q0 147 -28 225q-15 41 -84 56q-27 6 -55.5 10t-48.5 13v26q0 14 2 26h600zM790 1677q46 0 70 -24q40 -40 40 -74t-8.5 -54t-23.5 -34q-33 -32 -78 -32q-44 0 -68 23
q-41 39 -41 73.5t8.5 54.5t23.5 35q32 32 77 32z" />
    <glyph glyph-name="gdotaccent" unicode="&#x121;" horiz-adv-x="999" 
d="M303 15q-97 -81 -97 -152q0 -109 213 -129q28 -2 63.5 -2t94 8.5t108.5 27.5q118 43 118 114q0 115 -243 119l-79 1q-68 2 -178 13zM288 632q0 -52 11 -99t34 -83q51 -76 144 -76q120 0 150 133q10 41 10 96.5t-14.5 103t-39.5 79.5q-52 66 -134 66q-69 0 -114 -60
q-47 -62 -47 -160zM479 926q96 0 198 -53l74 9q80 10 116 10q44 0 74 -4l-15 -127q-52 13 -116 27l-77 15q57 -76 68 -113t11 -90t-31 -112.5t-82 -99.5q-100 -80 -241 -80q-50 0 -128 18q-12 -9 -24.5 -16t-22.5 -16q-24 -20 -24 -48.5t26.5 -40.5t77.5 -17t124.5 -7.5
t151 -8.5t129.5 -22t90 -44q81 -58 81 -158q0 -136 -148 -220q-140 -79 -349 -79q-168 0 -273 54q-93 48 -93 113q0 97 153 208q-119 50 -119 139q0 78 99 147q30 21 66 42q-165 95 -165 261q0 137 98 225q97 88 271 88zM494 1274q46 0 70 -24q40 -40 40 -74t-8.5 -54
t-23.5 -34q-33 -32 -78 -32q-44 0 -68 23q-41 39 -41 73.5t8.5 54.5t23.5 35q32 32 77 32z" />
    <glyph glyph-name="Gcommaaccent" unicode="&#x122;" horiz-adv-x="1579" 
d="M757 -615q-42 0 -42 38q0 19 23 30t39.5 18t30.5 20q32 31 32 85q-120 0 -156 91q-10 27 -10 56t11 56t31 47q44 46 111 46q166 0 166 -222q0 -123 -87 -200q-72 -65 -149 -65zM1552 684l2 -52q-31 -12 -61 -22.5t-54 -27.5q-53 -38 -53 -119v-368q-233 -121 -516 -121
q-343 0 -550 182q-208 183 -208 482q0 202 110 364q104 151 288 239q182 86 397 86q214 0 439 -80l30 -302q-32 -3 -58 -3q-20 17 -41 58q-45 86 -57 100q-128 150 -339 150q-231 0 -380.5 -164.5t-149.5 -410.5q0 -266 149 -439q149 -174 387 -174q162 0 267 65
q12 102 12 201q0 147 -28 225q-15 41 -84 56q-27 6 -55.5 10t-48.5 13v26q0 14 2 26h600z" />
    <glyph glyph-name="gcommaaccent" unicode="&#x123;" horiz-adv-x="965" 
d="M303 15q-97 -81 -97 -152q0 -109 214 -129q27 -2 62.5 -2t94 8.5t109.5 27.5q117 43 117 114q0 115 -243 119l-79 1q-68 2 -178 13zM288 632q0 -52 11 -99t35 -83q50 -76 143 -76q120 0 151 133q9 41 9 96.5t-14.5 103t-40.5 79.5q-51 66 -133 66q-69 0 -115 -60
q-46 -62 -46 -160zM479 926q96 0 198 -53l74 9q80 10 115 10q45 0 75 -4l-15 -127q-52 13 -116 27l-77 15q57 -76 68 -113t11 -90t-31 -112.5t-81 -99.5q-102 -80 -242 -80q-50 0 -128 18q-12 -9 -24.5 -16t-23.5 -16q-23 -20 -23 -48.5t26.5 -40.5t77.5 -17t124.5 -7.5
t151 -8.5t129.5 -22t90 -44q81 -58 81 -158q0 -136 -148 -220q-140 -79 -349 -79q-168 0 -272 54q-94 48 -94 113q0 97 153 208q-119 50 -119 139q0 78 99 147q30 21 66 42q-165 95 -165 261q0 137 98 225q97 88 271 88zM617 1595q28 -23 36 -56q-32 -18 -63.5 -34
t-57.5 -37q-58 -45 -58 -112q31 -44 86 -53q105 -20 105 -113q0 -88 -82 -120q-26 -10 -62 -10t-69 15t-57 43q-50 57 -50 129.5t18 126.5t53 99q77 99 201 122z" />
    <glyph glyph-name="Hbar" unicode="&#x126;" horiz-adv-x="1635" 
d="M704 1176l5 -18q0 -23 -41 -31.5t-69.5 -13.5t-52.5 -15q-58 -22 -58 -68v-105h657v105q0 61 -105 82q-67 13 -85.5 22.5t-18.5 19.5t4 22h619l5 -18q0 -22 -38 -31t-64 -15t-49 -16q-53 -21 -53 -66v-906q0 -59 104 -71q65 -7 84 -14.5t19 -21.5q0 -6 -4 -17h-623
q-5 13 -5 23.5t15.5 17.5t39 9.5t50.5 4.5t50 9q55 16 55 66v446h-657v-452q0 -59 112 -71q72 -7 92 -14.5t20 -21.5q0 -6 -4 -17h-635q-5 13 -5 23.5t15 17.5t38 9.5t49.5 4.5t49.5 9q53 16 53 66v900q0 59 -102 80q-65 14 -83.5 24t-18.5 20t4 22h631zM1145 636v171h-657
v-171h657z" />
    <glyph glyph-name="hbar" unicode="&#x127;" horiz-adv-x="1190" 
d="M188 1164q-28 44 -172 94l1 35l286 76l72 7v-288h228v-87h-228v-233q81 79 134 107q96 51 178.5 51t138.5 -20.5t98 -63.5q88 -93 88 -274v-347q0 -51 8.5 -82t26.5 -44t40 -20.5t43.5 -12t33.5 -12.5l-2 -50h-492q-2 11 -2 26v24q16 7 39.5 12.5t46.5 13.5q55 21 63 60
q9 40 9 78v363q0 171 -103 223q-37 18 -89 18q-130 0 -259 -134v-451q0 -112 33 -135q32 -23 77.5 -31.5t63.5 -16.5l-1 -31v-19h-533q-2 11 -2 26v24q9 9 30 12.5t44 7.5q60 12 67 39q34 39 34 124v768h-187v87h187v76z" />
    <glyph glyph-name="Itilde" unicode="&#x128;" horiz-adv-x="807" 
d="M509 260q0 -99 19 -127t38.5 -36t45 -13t57.5 -11t70 -20l-2 -53h-665v52q45 21 96.5 28t70 13.5t31.5 26.5q24 38 24 158v752q0 159 -67 178q-21 6 -46 10q-73 10 -113 33l2 51h663l2 -52q-36 -12 -76 -21t-73 -25q-77 -37 -77 -123v-821zM223 1639q-61 0 -79 -106h-38
q6 233 160 233q61 0 134.5 -38t110.5 -55t67 -17q66 0 86 108h38q-2 -120 -44 -180.5t-117 -60.5q-61 0 -137.5 40t-114 58t-66.5 18z" />
    <glyph glyph-name="itilde" unicode="&#x129;" horiz-adv-x="589" 
d="M49 0q-2 8 -2 18v32q16 9 45 17t58 21q69 32 69 93v526q-17 29 -58 42.5t-62 21t-32 20.5q0 15 2 35l277 80l59 6v-692q0 -52 7 -81t26 -42.5t42 -21t45.5 -12.5t33.5 -13q0 -24 -2 -50h-508zM115 1237q-61 0 -79 -106h-38q6 233 160 233q61 0 134.5 -38t110.5 -55
t67 -17q66 0 86 108h38q-2 -120 -44 -180.5t-117 -60.5q-61 0 -137.5 40t-114 58t-66.5 18z" />
    <glyph glyph-name="Imacron" unicode="&#x12a;" horiz-adv-x="807" 
d="M509 260q0 -99 19 -127t38.5 -36t45 -13t57.5 -11t70 -20l-2 -53h-665v52q45 21 96.5 28t70 13.5t31.5 26.5q24 38 24 158v752q0 159 -67 178q-21 6 -46 10q-73 10 -113 33l2 51h663l2 -52q-36 -12 -76 -21t-73 -25q-77 -37 -77 -123v-821zM102 1446v128h602v-128h-602z
" />
    <glyph glyph-name="imacron" unicode="&#x12b;" horiz-adv-x="589" 
d="M49 0q-2 8 -2 18v32q16 9 45 17t58 21q69 32 69 93v526q-17 29 -58 42.5t-62 21t-32 20.5q0 15 2 35l277 80l59 6v-692q0 -52 7 -81t26 -42.5t42 -21t45.5 -12.5t33.5 -13q0 -24 -2 -50h-508zM-5 1044v128h602v-128h-602z" />
    <glyph glyph-name="Ibreve" unicode="&#x12c;" horiz-adv-x="807" 
d="M509 260q0 -99 19 -127t38.5 -36t45 -13t57.5 -11t70 -20l-2 -53h-665v52q45 21 96.5 28t70 13.5t31.5 26.5q24 38 24 158v752q0 159 -67 178q-21 6 -46 10q-73 10 -113 33l2 51h663l2 -52q-36 -12 -76 -21t-73 -25q-77 -37 -77 -123v-821zM234 1684q52 -116 198.5 -116
t179.5 116h58q0 -113 -65 -180t-183 -67t-180 65t-65 182h57z" />
    <glyph glyph-name="ibreve" unicode="&#x12d;" horiz-adv-x="589" 
d="M49 0q-2 8 -2 18v32q16 9 45 17t58 21q69 32 69 93v526q-17 29 -58 42.5t-62 21t-32 20.5q0 15 2 35l277 80l59 6v-692q0 -52 7 -81t26 -42.5t42 -21t45.5 -12.5t33.5 -13q0 -24 -2 -50h-508zM126 1282q52 -116 198.5 -116t179.5 116h58q0 -113 -65 -180t-183 -67
t-180 65t-65 182h57z" />
    <glyph glyph-name="Iogonek" unicode="&#x12e;" horiz-adv-x="807" 
d="M509 260q0 -99 19 -127t38.5 -36t45 -13t57.5 -11t70 -20l-2 -53h-665v52q45 21 96.5 28t70 13.5t31.5 26.5q24 38 24 158v752q0 159 -67 178q-21 6 -46 10q-73 10 -113 33l2 51h663l2 -52q-36 -12 -76 -21t-73 -25q-77 -37 -77 -123v-821zM649 -314q-102 -57 -192 -57
q-87 0 -147 47q-65 50 -65 136q0 88 61 145q51 48 143 66q-6 -24 -18 -42l-24 -36q-30 -45 -30 -90q0 -85 93 -111q27 -8 63.5 -8t104.5 30z" />
    <glyph glyph-name="iogonek" unicode="&#x12f;" horiz-adv-x="582" 
d="M177 1260q0 47 25 73q41 43 91 43q48 0 73 -25q43 -43 43 -91q0 -50 -25 -74q-44 -42 -91 -42q-49 0 -73 24q-43 43 -43 92zM51 0q-2 8 -2 18v32q17 9 44.5 17t54.5 21q65 32 65 93v532q-29 49 -152 84l2 35l277 80l59 6v-698q0 -49 7 -79.5t25.5 -44t41 -21.5t43.5 -13
t32 -12v-25q0 -12 -1 -25h-496zM547 -314q-102 -57 -192 -57q-87 0 -147 47q-65 50 -65 136q0 88 61 145q51 48 143 66q-6 -24 -18 -42l-24 -36q-30 -45 -30 -90q0 -85 93 -111q27 -8 63.5 -8t104.5 30z" />
    <glyph glyph-name="Idotaccent" unicode="&#x130;" horiz-adv-x="0" 
 />
    <glyph glyph-name="dotlessi" unicode="&#x131;" horiz-adv-x="589" 
d="M49 0q-2 8 -2 18v32q16 9 45 17t58 21q69 32 69 93v526q-17 29 -58 42.5t-62 21t-32 20.5q0 15 2 35l277 80l59 6v-692q0 -52 7 -81t26 -42.5t42 -21t45.5 -12.5t33.5 -13q0 -24 -2 -50h-508z" />
    <glyph glyph-name="IJ" unicode="&#x132;" horiz-adv-x="1586" 
d="M509 260q0 -99 19 -127t38.5 -36t45 -13t57.5 -11t70 -20l-2 -53h-665v52q45 21 96.5 28t70 13.5t31.5 26.5q24 38 24 158v752q0 159 -67 178q-21 6 -46 10q-73 10 -113 33l2 51h663l2 -52q-36 -12 -76 -21t-73 -25q-77 -37 -77 -123v-821zM997 -251q79 0 79 257v1029
q0 100 -18.5 129t-37.5 38t-44 15t-57 12.5t-71 20.5l3 52h667v-51q-40 -17 -93.5 -27.5t-73 -18t-33.5 -25.5q-27 -37 -27 -136v-874q0 -390 -225 -482q-53 -21 -102 -21t-83.5 6t-64.5 21q-72 33 -72 99q0 39 25.5 62t64 23t58 -20t33 -44.5t28.5 -44.5t44 -20z" />
    <glyph glyph-name="ij" unicode="&#x133;" horiz-adv-x="1122" 
d="M177 1260q0 47 25 73q41 43 91 43q48 0 73 -25q43 -43 43 -91q0 -50 -25 -74q-44 -42 -91 -42q-49 0 -73 24q-43 43 -43 92zM51 0q-2 8 -2 18v32q17 9 44.5 17t54.5 21q65 32 65 93v532q-29 49 -152 84l2 35l277 80l59 6v-698q0 -49 7 -79.5t25.5 -44t41 -21.5t43.5 -13
t32 -12v-25q0 -12 -1 -25h-496zM747 1260q0 47 25 73q41 43 90 43q50 0 74 -25q42 -44 42 -91q0 -49 -24 -74q-43 -42 -92 -42q-48 0 -72 24q-43 43 -43 92zM783 710q-29 45 -137 80q-21 7 -25 7v35l280 79l68 7v-793q0 -309 -215 -395q-69 -28 -158 -38l-15 58
q61 28 99 52.5t60 59.5q35 59 43 226v622z" />
    <glyph glyph-name="Jcircumflex" unicode="&#x134;" horiz-adv-x="784" 
d="M195 -251q79 0 79 257v1029q0 100 -18.5 129t-37.5 38t-44 15t-57 12.5t-71 20.5l3 52h667v-51q-40 -17 -93.5 -27.5t-73 -18t-33.5 -25.5q-27 -37 -27 -136v-874q0 -390 -225 -482q-53 -21 -102 -21t-83.5 6t-64.5 21q-72 33 -72 99q0 39 25.5 62t64 23t58 -20t33 -44.5
t28.5 -44.5t44 -20zM656 1470q-24 0 -278 282q-254 -282 -278 -282q-17 0 -17 17q0 18 101.5 215t111.5 214q34 57 82 57q52 0 85 -64q5 -11 23 -45t41 -80l49 -97q97 -195 97 -206t-17 -11z" />
    <glyph glyph-name="jcircumflex" unicode="&#x135;" horiz-adv-x="540" 
d="M201 710q-29 45 -137 80q-21 7 -25 7v35l280 79l68 7v-793q0 -309 -215 -395q-69 -28 -158 -38l-15 58q61 28 99 52.5t60 59.5q35 59 43 226v622zM549 1068q-24 0 -278 282q-254 -282 -278 -282q-17 0 -17 17q0 18 101.5 215t111.5 214q34 57 82 57q52 0 85 -64
q5 -11 23 -45t41 -80l49 -97q97 -195 97 -206t-17 -11z" />
    <glyph glyph-name="Kcommaaccent" unicode="&#x136;" horiz-adv-x="1481" 
d="M68 1284l5 18h666q4 -12 4 -22t-17 -17t-43 -11.5t-56 -8.5t-56 -13q-60 -19 -60 -64v-440h86l456 452q4 11 4 26t-13 25t-32 14.5t-41.5 6.5t-41.5 4q-45 6 -45 30l5 18h564l4 -18q0 -18 -57.5 -32.5t-96.5 -23.5q-82 -17 -130 -56l-388 -398l468 -644q20 -22 93 -44.5
t96 -31.5q55 -21 55 -34t-4 -20h-684q-6 12 -6 20.5t13 15t32 10.5t42 6.5t42 7.5q45 14 45 42q0 10 -17 32l-359 526h-90v-536q0 -66 119 -72q78 -3 98 -10t20 -23q0 -1 -5 -19h-670q-4 11 -4 21.5t17 17t42 10t54.5 7t54.5 10.5q59 18 59 64v1036q0 62 -114 77t-114 41z
M721 -577q-42 0 -42 38q0 19 23 30t39.5 18t29.5 20q33 31 33 85q-120 0 -155 91q-11 27 -11 56t11 56t31 47q44 46 111 46q166 0 166 -222q0 -123 -86 -200q-73 -65 -150 -65z" />
    <glyph glyph-name="kcommaaccent" unicode="&#x137;" horiz-adv-x="1169" 
d="M66 0q-3 8 -3 15.5t13 14.5t32 12.5t41.5 11t41.5 14.5q45 20 45 52v1002q0 41 -98 66q-65 17 -81.5 24t-16.5 16t4 16l398 70v-839h62l320 314q2 3 2 13.5t-9.5 19.5t-24 13t-31 5.5t-31.5 3.5q-33 5 -33 20t3 35h424l3 -33q0 -21 -60 -34q-92 -19 -125 -47l-276 -283
l314 -408q15 -18 67 -33t69 -21q40 -15 40 -25.5t-3 -14.5h-495l-5 12q0 16 21.5 20t37 6t28.5 6q30 9 30 30q0 8 -13 23l-250 323h-65v-304q0 -50 76 -65t76 -37q0 -6 -4 -14h-524zM483 -577q-42 0 -42 38q0 19 23 30t39.5 18t29.5 20q33 31 33 85q-120 0 -155 91
q-11 27 -11 56t11 56t31 47q44 46 111 46q166 0 166 -222q0 -123 -86 -200q-73 -65 -150 -65z" />
    <glyph glyph-name="kgreenlandic" unicode="&#x138;" horiz-adv-x="1140" 
d="M43 0q-3 8 -3 15.5t13 14.5t32 12.5t41.5 11t41.5 14.5q45 20 45 52v660q0 45 -86.5 66.5t-86.5 41.5q0 4 3 12h524q4 -8 4 -17t-11.5 -15t-28 -10.5t-36.5 -8.5t-37 -11q-39 -18 -39 -54v-309h62l350 335q2 3 2 13.5t-9.5 19.5t-24 13t-31 5.5t-30.5 3.5q-34 5 -34 22
q0 5 3 13h394l3 -13q0 -21 -60 -34q-92 -19 -125 -47l-296 -284l334 -428q15 -18 67 -33t70 -21q39 -15 39 -25.5t-3 -14.5h-495l-5 12q0 16 21.5 20t37 6t28.5 6q30 9 30 30q0 8 -13 23l-250 323h-65v-304q0 -50 76 -65t76 -37q0 -6 -4 -14h-524z" />
    <glyph glyph-name="Lacute" unicode="&#x139;" horiz-adv-x="1296" 
d="M1242 -11q-121 11 -219 11h-953l-2 54q41 14 82.5 23.5t74.5 26.5q74 38 74 136v794q0 103 -17.5 131.5t-36 38.5t-44 16t-58.5 12t-74 19l2 51h676v-52q-42 -18 -98 -27.5t-75.5 -17t-32.5 -25.5q-26 -36 -26 -140v-728q0 -87 11 -135.5t48 -71t106 -27t150 -4.5
t125.5 4.5t84.5 19.5q85 32 131 119q17 32 32.5 66t41.5 61l60 -2zM453 1499q-23 0 -23 26q0 15 21 43t60.5 80.5t79.5 106.5q103 138 127 170q36 48 71 48q49 0 74 -52q7 -15 7 -36.5t-29.5 -48t-80.5 -73.5t-101 -94q-114 -104 -151.5 -137t-54.5 -33z" />
    <glyph glyph-name="lacute" unicode="&#x13a;" horiz-adv-x="581" 
d="M206 228l-1 941q-28 43 -165 89l2 35l278 76l72 7v-1142q0 -81 33 -128t116 -56l-2 -50h-492q-1 5 -1 10v40q15 10 39 16t47 14q58 20 66 60t8 88zM95 1096q-23 0 -23 26q0 15 21 43t60.5 80.5t79.5 106.5q103 138 127 170q36 48 71 48q49 0 74 -52q7 -15 7 -36.5
t-29.5 -48t-80.5 -73.5t-101 -94q-114 -104 -151.5 -137t-54.5 -33z" />
    <glyph glyph-name="Lcommaaccent" unicode="&#x13b;" horiz-adv-x="1296" 
d="M1242 -11q-121 11 -219 11h-953l-2 54q41 14 82.5 23.5t74.5 26.5q74 38 74 136v794q0 103 -17.5 131.5t-36 38.5t-44 16t-58.5 12t-74 19l2 51h676v-52q-42 -18 -98 -27.5t-75.5 -17t-32.5 -25.5q-26 -36 -26 -140v-728q0 -87 11 -135.5t48 -71t106 -27t150 -4.5
t125.5 4.5t84.5 19.5q85 32 131 119q17 32 32.5 66t41.5 61l60 -2zM574 -577q-42 0 -42 38q0 19 23 30t39.5 18t29.5 20q33 31 33 85q-120 0 -155 91q-11 27 -11 56t11 56t31 47q44 46 111 46q166 0 166 -222q0 -123 -86 -200q-73 -65 -150 -65z" />
    <glyph glyph-name="lcommaaccent" unicode="&#x13c;" horiz-adv-x="581" 
d="M206 228l-1 941q-28 43 -165 89l2 35l278 76l72 7v-1142q0 -81 33 -128t116 -56l-2 -50h-492q-1 5 -1 10v40q15 10 39 16t47 14q58 20 66 60t8 88zM215 -577q-42 0 -42 38q0 19 23 30t39.5 18t29.5 20q33 31 33 85q-120 0 -155 91q-11 27 -11 56t11 56t31 47
q44 46 111 46q166 0 166 -222q0 -123 -86 -200q-73 -65 -150 -65z" />
    <glyph glyph-name="Lcaron" unicode="&#x13d;" horiz-adv-x="1296" 
d="M1242 -11q-121 11 -219 11h-953l-2 54q41 14 82.5 23.5t74.5 26.5q74 38 74 136v794q0 103 -17.5 131.5t-36 38.5t-44 16t-58.5 12t-74 19l2 51h676v-52q-42 -18 -98 -27.5t-75.5 -17t-32.5 -25.5q-26 -36 -26 -140v-728q0 -87 11 -135.5t48 -71t106 -27t150 -4.5
t125.5 4.5t84.5 19.5q85 32 131 119q17 32 32.5 66t41.5 61l60 -2zM538 1196q-28 26 -36 57q32 18 64 34t57 36q58 45 58 113q-30 43 -86 52q-105 18 -105 114q0 87 83 119q25 10 61 10t69.5 -15t57.5 -42q49 -57 49 -129.5t-18 -126.5t-53 -99q-77 -100 -201 -123z" />
    <glyph glyph-name="lcaron" unicode="&#x13e;" horiz-adv-x="1125" 
d="M206 228l-1 941q-28 43 -165 89l2 35l278 76l72 7v-1142q0 -81 33 -128t116 -56l-2 -50h-492q-1 5 -1 10v40q15 10 39 16t47 14q58 20 66 60t8 88zM746 793q-28 26 -36 57q32 18 64 34t57 36q58 45 58 113q-30 43 -86 52q-105 18 -105 114q0 87 83 119q25 10 61 10
t69.5 -15t57.5 -42q49 -57 49 -129.5t-18 -126.5t-53 -99q-77 -100 -201 -123z" />
    <glyph glyph-name="Ldot" unicode="&#x13f;" horiz-adv-x="1296" 
d="M1242 -11q-121 11 -219 11h-953l-2 54q41 14 82.5 23.5t74.5 26.5q74 38 74 136v794q0 103 -17.5 131.5t-36 38.5t-44 16t-58.5 12t-74 19l2 51h676v-52q-42 -18 -98 -27.5t-75.5 -17t-32.5 -25.5q-26 -36 -26 -140v-728q0 -87 11 -135.5t48 -71t106 -27t150 -4.5
t125.5 4.5t84.5 19.5q85 32 131 119q17 32 32.5 66t41.5 61l60 -2zM827 752q0 29 12 56t32 48q46 45 109 45t109 -45q44 -45 44 -103q0 -56 -44 -102q-45 -46 -109 -46q-63 0 -108 43q-45 44 -45 104z" />
    <glyph glyph-name="ldot" unicode="&#x140;" horiz-adv-x="1079" 
d="M206 228l-1 941q-28 43 -165 89l2 35l278 76l72 7v-1142q0 -81 33 -128t116 -56l-2 -50h-492q-1 5 -1 10v40q15 10 39 16t47 14q58 20 66 60t8 88zM677 754q0 29 12 56t32 48q46 45 109 45t109 -45q44 -45 44 -103q0 -56 -44 -102q-45 -46 -109 -46q-63 0 -108 43
q-45 44 -45 104z" />
    <glyph glyph-name="Lslash" unicode="&#x141;" horiz-adv-x="1294" 
d="M810 831q43 0 43 -44q0 -24 -61 -49q-21 -9 -52 -22l-227 -92v-488q0 -80 45 -80l306 11q66 2 90 23q38 32 60 117q33 139 65 139l24 -5l-28 -361q-3 -6 -8 -6q-88 26 -159 26h-836q-4 9 -4 25t17 24t42.5 12t55.5 6t55 9q60 16 60 66v395l-33 -13q-83 -33 -103 -33
t-32 12t-12 30.5t24 34.5t86 41l70 28v401q0 63 -96 76q-110 14 -132 45q0 5 4 17h670q4 -8 4 -22t-17.5 -21t-43.5 -10t-56.5 -5t-56.5 -9q-61 -16 -61 -65v-320l192 78q73 29 105 29z" />
    <glyph glyph-name="lslash" unicode="&#x142;" horiz-adv-x="578" 
d="M195 1122q0 41 -98 66q-65 17 -81.5 24t-16.5 16t4 16l399 70v-535l43 12q60 17 102.5 17t42.5 -41q0 -23 -18 -32q-20 -11 -103 -33l-67 -18v-564q0 -54 89 -68q60 -9 74.5 -15.5t14.5 -18t-4 -18.5h-560q-4 11 -4 21t13.5 17t34 11.5t44.5 8t44 10.5q48 18 48 58
l-1 503l-28 -8q-69 -20 -103 -20q-41 0 -41 44q0 26 61 47q22 7 57 17l54 15v398z" />
    <glyph glyph-name="Nacute" unicode="&#x143;" horiz-adv-x="1724" 
d="M1463 -9q-41 -17 -106 0q-89 107 -164 187l-790 831v-702q0 -156 53 -193q42 -29 102 -37.5t89 -23.5q0 -26 -3 -53h-564q-2 8 -2 16v38q42 12 83.5 21.5t76.5 27.5q76 40 85 136v852q-46 74 -113 107q-31 14 -66 24.5t-76 27.5v52h349l941 -973v629q0 92 -20 151t-43 77
t-51.5 27t-59 15.5t-58.5 20.5q0 26 3 53h527v-54q-44 -20 -77 -33.5t-56.5 -27t-38.5 -29.5t-24 -42q-15 -46 -17.5 -293t-2.5 -405t10.5 -247t12.5 -180zM665 1498q-23 0 -23 26q0 15 21 43t60.5 80.5t79.5 106.5q103 138 127 170q36 48 71 48q49 0 74 -52q7 -15 7 -36.5
t-29.5 -48t-80.5 -73.5t-101 -94q-114 -104 -151.5 -137t-54.5 -33z" />
    <glyph glyph-name="nacute" unicode="&#x144;" horiz-adv-x="1200" 
d="M651 818q-126 0 -266 -150v-446q0 -125 101 -158q33 -10 75 -14l-2 -50h-515q-1 3 -1 10v34q0 5 1 10q85 20 108 35q47 31 47 96v542q-23 45 -159 84l3 34l273 68l61 4l11 -162q86 116 225 157q48 14 100 14q144 0 224.5 -80.5t87.5 -246.5q3 -65 3 -131v-223
q0 -116 30 -146q17 -16 45 -23.5t70 -21.5q1 -5 1 -10v-12l-1 -22v-10h-493q-2 11 -2 26v24q19 7 44.5 13t49.5 16q55 24 64 70q5 28 5 77v223q0 197 -21 254.5t-59.5 86t-109.5 28.5zM410 1096q-23 0 -23 26q0 15 21 43t60.5 80.5t79.5 106.5q103 138 127 170q36 48 71 48
q49 0 74 -52q7 -15 7 -36.5t-29.5 -48t-80.5 -73.5t-101 -94q-114 -104 -151.5 -137t-54.5 -33z" />
    <glyph glyph-name="Ncommaaccent" unicode="&#x145;" horiz-adv-x="1724" 
d="M1463 -9q-41 -17 -106 0q-89 107 -164 187l-790 831v-702q0 -156 53 -193q42 -29 102 -37.5t89 -23.5q0 -26 -3 -53h-564q-2 8 -2 16v38q42 12 83.5 21.5t76.5 27.5q76 40 85 136v852q-46 74 -113 107q-31 14 -66 24.5t-76 27.5v52h349l941 -973v629q0 92 -20 151t-43 77
t-51.5 27t-59 15.5t-58.5 20.5q0 26 3 53h527v-54q-44 -20 -77 -33.5t-56.5 -27t-38.5 -29.5t-24 -42q-15 -46 -17.5 -293t-2.5 -405t10.5 -247t12.5 -180zM785 -577q-42 0 -42 38q0 19 23 30t39.5 18t29.5 20q33 31 33 85q-120 0 -155 91q-11 27 -11 56t11 56t31 47
q44 46 111 46q166 0 166 -222q0 -123 -86 -200q-73 -65 -150 -65z" />
    <glyph glyph-name="ncommaaccent" unicode="&#x146;" horiz-adv-x="1200" 
d="M651 818q-126 0 -266 -150v-446q0 -125 101 -158q33 -10 75 -14l-2 -50h-515q-1 3 -1 10v34q0 5 1 10q85 20 108 35q47 31 47 96v542q-23 45 -159 84l3 34l273 68l61 4l11 -162q86 116 225 157q48 14 100 14q144 0 224.5 -80.5t87.5 -246.5q3 -65 3 -131v-223
q0 -116 30 -146q17 -16 45 -23.5t70 -21.5q1 -5 1 -10v-12l-1 -22v-10h-493q-2 11 -2 26v24q19 7 44.5 13t49.5 16q55 24 64 70q5 28 5 77v223q0 197 -21 254.5t-59.5 86t-109.5 28.5zM525 -577q-42 0 -42 38q0 19 23 30t39.5 18t29.5 20q33 31 33 85q-120 0 -155 91
q-11 27 -11 56t11 56t31 47q44 46 111 46q166 0 166 -222q0 -123 -86 -200q-73 -65 -150 -65z" />
    <glyph glyph-name="Ncaron" unicode="&#x147;" horiz-adv-x="1724" 
d="M1463 -9q-41 -17 -106 0q-89 107 -164 187l-790 831v-702q0 -156 53 -193q42 -29 102 -37.5t89 -23.5q0 -26 -3 -53h-564q-2 8 -2 16v38q42 12 83.5 21.5t76.5 27.5q76 40 85 136v852q-46 74 -113 107q-31 14 -66 24.5t-76 27.5v52h349l941 -973v629q0 92 -20 151t-43 77
t-51.5 27t-59 15.5t-58.5 20.5q0 26 3 53h527v-54q-44 -20 -77 -33.5t-56.5 -27t-38.5 -29.5t-24 -42q-15 -46 -17.5 -293t-2.5 -405t10.5 -247t12.5 -180zM574 1777q8 13 36 13q65 -34 201 -191q32 -37 53 -60q21 26 49.5 62t59.5 73q75 88 120 116q28 0 36 -13
q-39 -98 -104 -209.5t-89 -156.5q-76 -20 -137 -20q-54 43 -166 262q-38 74 -59 124z" />
    <glyph glyph-name="ncaron" unicode="&#x148;" horiz-adv-x="1200" 
d="M651 818q-126 0 -266 -150v-446q0 -125 101 -158q33 -10 75 -14l-2 -50h-515q-1 3 -1 10v34q0 5 1 10q85 20 108 35q47 31 47 96v542q-23 45 -159 84l3 34l273 68l61 4l11 -162q86 116 225 157q48 14 100 14q144 0 224.5 -80.5t87.5 -246.5q3 -65 3 -131v-223
q0 -116 30 -146q17 -16 45 -23.5t70 -21.5q1 -5 1 -10v-12l-1 -22v-10h-493q-2 11 -2 26v24q19 7 44.5 13t49.5 16q55 24 64 70q5 28 5 77v223q0 197 -21 254.5t-59.5 86t-109.5 28.5zM319 1375q8 13 36 13q65 -34 201 -191q32 -37 53 -60q21 26 49.5 62t59.5 73
q75 88 120 116q28 0 36 -13q-39 -98 -104 -209.5t-89 -156.5q-76 -20 -137 -20q-54 43 -166 262q-38 74 -59 124z" />
    <glyph glyph-name="Eng" unicode="&#x14a;" horiz-adv-x="1545" 
d="M614 26.5q0 -12.5 -6 -26.5h-536q-4 7 -4 23t16 24t40.5 12.5t53.5 9t56 13.5q63 21 75 75v865q0 62 -99 85q-71 16 -94.5 26t-32.5 25l4 18h372l693 -771v635q0 62 -115 77t-115 41q0 3 5 18h546q4 -12 4 -17q0 -19 -45.5 -26.5t-77 -13t-58.5 -15.5q-64 -25 -64 -78
v-909q0 -230 -70 -340q-58 -89 -146 -89q-62 0 -112 40q-49 38 -49 71t21.5 54t55.5 21t58 -17t24 -39.5t13.5 -38.5t31 -16t36.5 14t37 50q40 83 40 252l-817 873l28 -802q2 -78 117 -88q75 -6 94.5 -14.5t19.5 -21z" />
    <glyph glyph-name="eng" unicode="&#x14b;" horiz-adv-x="1114" 
d="M594 -198q0 81 75 81q66 0 78 -53q8 -35 17.5 -44.5t26 -9.5t34 13.5t32.5 48.5q35 80 35 244v349q0 216 -23 280t-63 93t-111 29q-133 0 -262 -193v-520q0 -54 94 -68q63 -9 78.5 -15.5t15.5 -18t-4 -18.5h-550q-5 15 -5 20t16 14.5t44.5 14.5t51.5 11q53 13 53 66v606
q0 50 -93 61q-62 8 -78 14t-16 17q0 3 5 18l368 38l20 -148q132 170 310 170q345 0 345 -439v-344q0 -217 -105 -327q-84 -88 -211 -88q-72 0 -111 22q-67 36 -67 76z" />
    <glyph glyph-name="Omacron" unicode="&#x14c;" horiz-adv-x="1603" 
d="M345 714q0 -137 36.5 -259t102.5 -212q139 -192 353 -192q185 0 301 141q120 146 120 393q0 284 -136 473q-138 192 -353 192q-180 0 -297 -134q-127 -143 -127 -402zM112 642q0 109 27.5 205t75.5 172.5t114 134t143 96.5q155 77 332 77q288 0 484 -184
q128 -120 178 -301q25 -90 25 -218.5t-56.5 -253t-153.5 -212.5q-203 -184 -497 -184q-274 0 -467 176q-205 188 -205 492zM501 1447v128h602v-128h-602z" />
    <glyph glyph-name="omacron" unicode="&#x14d;" horiz-adv-x="1111" 
d="M302 670q-20 -65 -20 -152t20 -169t58 -147q84 -144 213 -144q126 0 195 94q64 87 64 236q0 197 -78 330q-81 141 -211 141q-183 0 -241 -189zM82 456q0 208 140 342q135 128 327 128q205 0 339 -126q141 -132 141 -343t-140 -347q-133 -130 -329 -130t-334 132
q-144 137 -144 344zM254 1044v128h602v-128h-602z" />
    <glyph glyph-name="Obreve" unicode="&#x14e;" horiz-adv-x="1603" 
d="M345 714q0 -137 36.5 -259t102.5 -212q139 -192 353 -192q185 0 301 141q120 146 120 393q0 284 -136 473q-138 192 -353 192q-180 0 -297 -134q-127 -143 -127 -402zM112 642q0 109 27.5 205t75.5 172.5t114 134t143 96.5q155 77 332 77q288 0 484 -184
q128 -120 178 -301q25 -90 25 -218.5t-56.5 -253t-153.5 -212.5q-203 -184 -497 -184q-274 0 -467 176q-205 188 -205 492zM632 1684q52 -116 198.5 -116t179.5 116h58q0 -113 -65 -180t-183 -67t-180 65t-65 182h57z" />
    <glyph glyph-name="obreve" unicode="&#x14f;" horiz-adv-x="1111" 
d="M302 670q-20 -65 -20 -152t20 -169t58 -147q84 -144 213 -144q126 0 195 94q64 87 64 236q0 197 -78 330q-81 141 -211 141q-183 0 -241 -189zM82 456q0 208 140 342q135 128 327 128q205 0 339 -126q141 -132 141 -343t-140 -347q-133 -130 -329 -130t-334 132
q-144 137 -144 344zM386 1282q52 -116 198.5 -116t179.5 116h58q0 -113 -65 -180t-183 -67t-180 65t-65 182h57z" />
    <glyph glyph-name="Ohungarumlaut" unicode="&#x150;" horiz-adv-x="1603" 
d="M345 714q0 -137 36.5 -259t102.5 -212q139 -192 353 -192q185 0 301 141q120 146 120 393q0 284 -136 473q-138 192 -353 192q-180 0 -297 -134q-127 -143 -127 -402zM112 642q0 109 27.5 205t75.5 172.5t114 134t143 96.5q155 77 332 77q288 0 484 -184
q128 -120 178 -301q25 -90 25 -218.5t-56.5 -253t-153.5 -212.5q-203 -184 -497 -184q-274 0 -467 176q-205 188 -205 492zM1236 1769q-18 -44 -120 -185q-135 -188 -151 -201q-24 0 -34 16q3 18 44.5 136t58.5 161q40 102 51 115q69 0 151 -42zM932 1768q-27 -54 -131 -187
q-143 -183 -162 -198q-22 0 -32 14q10 58 71 198q85 192 103 216q78 0 151 -43z" />
    <glyph glyph-name="ohungarumlaut" unicode="&#x151;" horiz-adv-x="1111" 
d="M302 670q-20 -65 -20 -152t20 -169t58 -147q84 -144 213 -144q126 0 195 94q64 87 64 236q0 197 -78 330q-81 141 -211 141q-183 0 -241 -189zM82 456q0 208 140 342q135 128 327 128q205 0 339 -126q141 -132 141 -343t-140 -347q-133 -130 -329 -130t-334 132
q-144 137 -144 344zM990 1367q-18 -44 -120 -185q-135 -188 -151 -201q-24 0 -34 16q3 18 44.5 136t58.5 161q40 102 51 115q69 0 151 -42zM686 1366q-27 -54 -131 -187q-143 -183 -162 -198q-22 0 -32 14q10 58 71 198q85 192 103 216q78 0 151 -43z" />
    <glyph glyph-name="OE" unicode="&#x152;" horiz-adv-x="2112" 
d="M790 80q258 0 298 21q0 451 -5 1108q-111 15 -337 15q-181 0 -290 -136q-110 -137 -110 -370q0 -247 104 -430q120 -208 340 -208zM1170 1195l5 -477q353 0 490 14q54 13 91 116q10 26 21 48h36.5t26.5 -2v-434q-32 -3 -63 -3q-11 24 -22 51.5t-25 52.5q-31 58 -72 67
q-61 14 -119 14h-362v-288q0 -131 -1 -249q0 -37 19 -37q103 1 203 1t176 1q228 5 276 58q30 31 66.5 99.5t66.5 94.5h33.5t25.5 -2l-52 -341l-22 -6q-8 -2 -19.5 -2t-26 4.5t-28.5 9.5q-41 14 -63 14h-1052q-304 0 -489 191q-178 184 -178 466q0 294 198 474
q192 172 484 172h503l277 -1q182 0 293 21q47 0 107 -3v-327q-27 -3 -51 -3q-23 23 -37 57.5t-30 68.5t-39 61t-65.5 34.5t-99 11.5t-118.5 6q-103 2 -233.5 2t-130.5 -35z" />
    <glyph glyph-name="oe" unicode="&#x153;" horiz-adv-x="1615" 
d="M1360 612q-10 248 -187 248q-92 0 -149 -77q-51 -71 -62 -193l314 7q56 2 84 15zM281 504q0 -458 278 -458q119 0 178 112q47 89 47 211.5t-14.5 207t-46.5 147.5q-69 136 -212 136q-112 0 -171 -91.5t-59 -264.5zM874 755q63 91 143 130.5t175 39.5t159 -30t108 -83
q88 -104 92 -283h-590q8 -408 312 -408q107 0 187 49q25 15 52 35q17 -7 30 -22q-26 -89 -132 -149q-95 -55 -198 -55q-219 0 -338 175q-127 -175 -331 -175q-195 0 -327 130q-134 133 -134 342q0 189 122 327q132 148 334 148t336 -171z" />
    <glyph glyph-name="Racute" unicode="&#x154;" horiz-adv-x="1409" 
d="M1441 -2q-196 -48 -306 4q-114 55 -211 182q-75 100 -135.5 204.5t-85 141t-37.5 53t-28 27.5q-26 18 -86 22l-63 4v-385q0 -98 20 -124t39 -33t43 -11q72 -12 114 -31l-2 -52h-633l-2 52q42 23 88.5 30t64 13.5t29.5 25.5q24 38 24 156v758q0 93 -17 120.5t-33.5 37.5
t-39.5 17.5t-52 16t-64 24.5l2 52h461q188 0 276.5 -11t160.5 -31t128 -57q123 -81 123 -234q0 -139 -117 -228q-99 -74 -247 -95q45 -61 90.5 -125t90.5 -128q109 -152 156 -207.5t67 -73.5t45 -31q54 -28 137 -28v-56zM489 703q151 0 210.5 6.5t110.5 21t90 43.5
q86 62 86 184q0 181 -163 235q-88 29 -175 31.5t-137 2.5h-22v-524zM557 1498q-23 0 -23 26q0 15 21 43t60.5 80.5t79.5 106.5q103 138 127 170q36 48 71 48q49 0 74 -52q7 -15 7 -36.5t-29.5 -48t-80.5 -73.5t-101 -94q-114 -104 -151.5 -137t-54.5 -33z" />
    <glyph glyph-name="racute" unicode="&#x155;" horiz-adv-x="799" 
d="M197 723q-28 47 -157 82l2 35l266 76h57l16 -184q83 151 183 180q34 9 68.5 9t60.5 -10t45 -26q40 -34 40 -74q0 -31 -16 -60q-30 -59 -66.5 -59t-54.5 16t-31 35t-26.5 35t-39.5 16t-48.5 -14.5t-41.5 -37.5t-36 -52t-34 -57v-372q0 -93 8.5 -125t29 -44.5t48 -19
t57.5 -10.5t53 -12l-1 -31v-19h-536q-1 4 -1 12v35q0 5 1 7q34 10 62.5 16t48.5 20q43 29 43 125v508zM213 1096q-23 0 -23 26q0 15 21 43t60.5 80.5t79.5 106.5q103 138 127 170q36 48 71 48q49 0 74 -52q7 -15 7 -36.5t-29.5 -48t-80.5 -73.5t-101 -94
q-114 -104 -151.5 -137t-54.5 -33z" />
    <glyph glyph-name="Rcommaaccent" unicode="&#x156;" horiz-adv-x="1409" 
d="M1441 -2q-196 -48 -306 4q-114 55 -211 182q-75 100 -135.5 204.5t-85 141t-37.5 53t-28 27.5q-26 18 -86 22l-63 4v-385q0 -98 20 -124t39 -33t43 -11q72 -12 114 -31l-2 -52h-633l-2 52q42 23 88.5 30t64 13.5t29.5 25.5q24 38 24 156v758q0 93 -17 120.5t-33.5 37.5
t-39.5 17.5t-52 16t-64 24.5l2 52h461q188 0 276.5 -11t160.5 -31t128 -57q123 -81 123 -234q0 -139 -117 -228q-99 -74 -247 -95q45 -61 90.5 -125t90.5 -128q109 -152 156 -207.5t67 -73.5t45 -31q54 -28 137 -28v-56zM489 703q151 0 210.5 6.5t110.5 21t90 43.5
q86 62 86 184q0 181 -163 235q-88 29 -175 31.5t-137 2.5h-22v-524zM630 -577q-42 0 -42 38q0 19 23 30t39.5 18t29.5 20q33 31 33 85q-120 0 -155 91q-11 27 -11 56t11 56t31 47q44 46 111 46q166 0 166 -222q0 -123 -86 -200q-73 -65 -150 -65z" />
    <glyph glyph-name="rcommaaccent" unicode="&#x157;" horiz-adv-x="799" 
d="M197 723q-28 47 -157 82l2 35l266 76h57l16 -184q83 151 183 180q34 9 68.5 9t60.5 -10t45 -26q40 -34 40 -74q0 -31 -16 -60q-30 -59 -66.5 -59t-54.5 16t-31 35t-26.5 35t-39.5 16t-48.5 -14.5t-41.5 -37.5t-36 -52t-34 -57v-372q0 -93 8.5 -125t29 -44.5t48 -19
t57.5 -10.5t53 -12l-1 -31v-19h-536q-1 4 -1 12v35q0 5 1 7q34 10 62.5 16t48.5 20q43 29 43 125v508zM314 -577q-42 0 -42 38q0 19 23 30t39.5 18t29.5 20q33 31 33 85q-120 0 -155 91q-11 27 -11 56t11 56t31 47q44 46 111 46q166 0 166 -222q0 -123 -86 -200
q-73 -65 -150 -65z" />
    <glyph glyph-name="Rcaron" unicode="&#x158;" horiz-adv-x="1409" 
d="M1441 -2q-196 -48 -306 4q-114 55 -211 182q-75 100 -135.5 204.5t-85 141t-37.5 53t-28 27.5q-26 18 -86 22l-63 4v-385q0 -98 20 -124t39 -33t43 -11q72 -12 114 -31l-2 -52h-633l-2 52q42 23 88.5 30t64 13.5t29.5 25.5q24 38 24 156v758q0 93 -17 120.5t-33.5 37.5
t-39.5 17.5t-52 16t-64 24.5l2 52h461q188 0 276.5 -11t160.5 -31t128 -57q123 -81 123 -234q0 -139 -117 -228q-99 -74 -247 -95q45 -61 90.5 -125t90.5 -128q109 -152 156 -207.5t67 -73.5t45 -31q54 -28 137 -28v-56zM489 703q151 0 210.5 6.5t110.5 21t90 43.5
q86 62 86 184q0 181 -163 235q-88 29 -175 31.5t-137 2.5h-22v-524zM466 1777q8 13 36 13q65 -34 201 -191q32 -37 53 -60q21 26 49.5 62t59.5 73q75 88 120 116q28 0 36 -13q-39 -98 -104 -209.5t-89 -156.5q-76 -20 -137 -20q-54 43 -166 262q-38 74 -59 124z" />
    <glyph glyph-name="rcaron" unicode="&#x159;" horiz-adv-x="799" 
d="M197 723q-28 47 -157 82l2 35l266 76h57l16 -184q83 151 183 180q34 9 68.5 9t60.5 -10t45 -26q40 -34 40 -74q0 -31 -16 -60q-30 -59 -66.5 -59t-54.5 16t-31 35t-26.5 35t-39.5 16t-48.5 -14.5t-41.5 -37.5t-36 -52t-34 -57v-372q0 -93 8.5 -125t29 -44.5t48 -19
t57.5 -10.5t53 -12l-1 -31v-19h-536q-1 4 -1 12v35q0 5 1 7q34 10 62.5 16t48.5 20q43 29 43 125v508zM122 1375q8 13 36 13q65 -34 201 -191q32 -37 53 -60q21 26 49.5 62t59.5 73q75 88 120 116q28 0 36 -13q-39 -98 -104 -209.5t-89 -156.5q-76 -20 -137 -20
q-54 43 -166 262q-38 74 -59 124z" />
    <glyph glyph-name="Sacute" unicode="&#x15a;" horiz-adv-x="1142" 
d="M121 400l59 2q14 -24 22 -51t21 -70.5t48.5 -88.5t82.5 -74q96 -60 221 -60q107 0 183 51q89 59 89 159q0 124 -225 251q-63 36 -129.5 73.5t-130 78t-113.5 88.5q-111 107 -111 232q0 171 146 261q124 75 304 75q199 0 381 -93l13 -285h-62q-13 24 -21 50t-21.5 64.5
t-45 76t-72.5 62.5q-80 48 -188 48q-91 0 -145 -31.5t-78 -64.5t-24 -80t31 -88t81 -78.5t114.5 -73.5t132 -74t132 -80t114.5 -92q112 -112 112 -244q0 -185 -154 -284q-131 -86 -326 -86q-180 0 -345 58q-55 20 -96 45v323zM383 1498q-23 0 -23 26q0 15 21 43t60.5 80.5
t79.5 106.5q103 138 127 170q36 48 71 48q49 0 74 -52q7 -15 7 -36.5t-29.5 -48t-80.5 -73.5t-101 -94q-114 -104 -151.5 -137t-54.5 -33z" />
    <glyph glyph-name="sacute" unicode="&#x15b;" horiz-adv-x="854" 
d="M132 296q38 5 53 5q35 -174 147 -231q41 -20 86 -20t76 9.5t54 26.5q49 36 49 87.5t-26 81.5t-70.5 57.5t-104 57t-128.5 72.5q-151 95 -151 242q0 115 86 180q81 62 210 62q153 0 272 -73l6 -222q-11 -1 -23 -1h-24q-66 229 -237 229q-61 0 -98.5 -30t-37.5 -80.5
t25.5 -81.5t64.5 -57.5t86.5 -50t96.5 -50t89.5 -56t67.5 -61.5q54 -66 54 -142.5t-24 -124.5t-67 -81q-85 -64 -228 -64q-190 0 -304 72v244zM240 1096q-23 0 -23 26q0 15 21 43t60.5 80.5t79.5 106.5q103 138 127 170q36 48 71 48q49 0 74 -52q7 -15 7 -36.5t-29.5 -48
t-80.5 -73.5t-101 -94q-114 -104 -151.5 -137t-54.5 -33z" />
    <glyph glyph-name="Scedilla" unicode="&#x15e;" horiz-adv-x="1142" 
d="M121 400l59 2q14 -24 22 -51t21 -70.5t48.5 -88.5t82.5 -74q96 -60 221 -60q107 0 183 51q89 59 89 159q0 124 -225 251q-63 36 -129.5 73.5t-130 78t-113.5 88.5q-111 107 -111 232q0 171 146 261q124 75 304 75q199 0 381 -93l13 -285h-62q-13 24 -21 50t-21.5 64.5
t-45 76t-72.5 62.5q-80 48 -188 48q-91 0 -145 -31.5t-78 -64.5t-24 -80t31 -88t81 -78.5t114.5 -73.5t132 -74t132 -80t114.5 -92q112 -112 112 -244q0 -185 -154 -284q-131 -86 -326 -86q-180 0 -345 58q-55 20 -96 45v323zM591 -268q0 94 -152 104l47 175h83l24 -105
q119 -17 152 -102q9 -25 9 -58.5t-18.5 -66.5t-50.5 -56q-67 -48 -162 -48q-64 0 -136 32l13 57q38 -20 82.5 -20t76.5 24.5t32 63.5z" />
    <glyph glyph-name="scedilla" unicode="&#x15f;" horiz-adv-x="854" 
d="M132 296q38 5 53 5q35 -174 147 -231q41 -20 86 -20t76 9.5t54 26.5q49 36 49 87.5t-26 81.5t-70.5 57.5t-104 57t-128.5 72.5q-151 95 -151 242q0 115 86 180q81 62 210 62q153 0 272 -73l6 -222q-11 -1 -23 -1h-24q-66 229 -237 229q-61 0 -98.5 -30t-37.5 -80.5
t25.5 -81.5t64.5 -57.5t86.5 -50t96.5 -50t89.5 -56t67.5 -61.5q54 -66 54 -142.5t-24 -124.5t-67 -81q-85 -64 -228 -64q-190 0 -304 72v244zM450 -268q0 94 -152 104l47 175h83l24 -105q119 -17 152 -102q9 -25 9 -58.5t-18.5 -66.5t-50.5 -56q-67 -48 -162 -48
q-64 0 -136 32l13 57q38 -20 82.5 -20t76.5 24.5t32 63.5z" />
    <glyph glyph-name="Scaron" unicode="&#x160;" horiz-adv-x="1142" 
d="M121 400l59 2q14 -24 22 -51t21 -70.5t48.5 -88.5t82.5 -74q96 -60 221 -60q107 0 183 51q89 59 89 159q0 124 -225 251q-63 36 -129.5 73.5t-130 78t-113.5 88.5q-111 107 -111 232q0 171 146 261q124 75 304 75q199 0 381 -93l13 -285h-62q-13 24 -21 50t-21.5 64.5
t-45 76t-72.5 62.5q-80 48 -188 48q-91 0 -145 -31.5t-78 -64.5t-24 -80t31 -88t81 -78.5t114.5 -73.5t132 -74t132 -80t114.5 -92q112 -112 112 -244q0 -185 -154 -284q-131 -86 -326 -86q-180 0 -345 58q-55 20 -96 45v323zM292 1777q8 13 36 13q65 -34 201 -191
q32 -37 53 -60q21 26 49.5 62t59.5 73q75 88 120 116q28 0 36 -13q-39 -98 -104 -209.5t-89 -156.5q-76 -20 -137 -20q-54 43 -166 262q-38 74 -59 124z" />
    <glyph glyph-name="scaron" unicode="&#x161;" horiz-adv-x="854" 
d="M132 296q38 5 53 5q35 -174 147 -231q41 -20 86 -20t76 9.5t54 26.5q49 36 49 87.5t-26 81.5t-70.5 57.5t-104 57t-128.5 72.5q-151 95 -151 242q0 115 86 180q81 62 210 62q153 0 272 -73l6 -222q-11 -1 -23 -1h-24q-66 229 -237 229q-61 0 -98.5 -30t-37.5 -80.5
t25.5 -81.5t64.5 -57.5t86.5 -50t96.5 -50t89.5 -56t67.5 -61.5q54 -66 54 -142.5t-24 -124.5t-67 -81q-85 -64 -228 -64q-190 0 -304 72v244zM149 1375q8 13 36 13q65 -34 201 -191q32 -37 53 -60q21 26 49.5 62t59.5 73q75 88 120 116q28 0 36 -13q-39 -98 -104 -209.5
t-89 -156.5q-76 -20 -137 -20q-54 43 -166 262q-38 74 -59 124z" />
    <glyph glyph-name="Tcommaaccent" unicode="&#x162;" horiz-adv-x="1395" 
d="M954 1229l-134 -1h-19v-987q0 -110 61 -149q42 -26 165 -40v-36q0 -8 -2 -16h-662l-2 52q40 14 80.5 25t72.5 29q72 40 72 135v987h-146q-90 0 -138 -7t-77.5 -34.5t-54 -63.5t-46 -74.5t-44.5 -66.5h-46l25 326q255 -10 678 -10t596 12l32 -329h-48q-23 28 -43.5 66.5
t-44.5 74.5q-58 88 -120 98q-57 9 -155 9zM621 -577q-42 0 -42 38q0 19 23 30t39.5 18t29.5 20q33 31 33 85q-120 0 -155 91q-11 27 -11 56t11 56t31 47q44 46 111 46q166 0 166 -222q0 -123 -86 -200q-73 -65 -150 -65z" />
    <glyph glyph-name="tcommaaccent" unicode="&#x163;" horiz-adv-x="670" 
d="M348 1149q23 0 23 -39v-211h251v-84h-249v-501q0 -145 15.5 -176t42 -41.5t87.5 -10.5t127 22l8 -73q-107 -55 -203.5 -55t-143 17.5t-72.5 56.5q-48 71 -48 263v498h-149v44q133 54 215 170q24 34 45.5 68t31 43t19.5 9zM260 -577q-42 0 -42 38q0 19 23 30t39.5 18
t29.5 20q33 31 33 85q-120 0 -155 91q-11 27 -11 56t11 56t31 47q44 46 111 46q166 0 166 -222q0 -123 -86 -200q-73 -65 -150 -65z" />
    <glyph glyph-name="Tcaron" unicode="&#x164;" horiz-adv-x="1395" 
d="M954 1229l-134 -1h-19v-987q0 -110 61 -149q42 -26 165 -40v-36q0 -8 -2 -16h-662l-2 52q40 14 80.5 25t72.5 29q72 40 72 135v987h-146q-90 0 -138 -7t-77.5 -34.5t-54 -63.5t-46 -74.5t-44.5 -66.5h-46l25 326q255 -10 678 -10t596 12l32 -329h-48q-23 28 -43.5 66.5
t-44.5 74.5q-58 88 -120 98q-57 9 -155 9zM409 1778q8 13 36 13q65 -34 201 -191q32 -37 53 -60q21 26 49.5 62t59.5 73q75 88 120 116q28 0 36 -13q-39 -98 -104 -209.5t-89 -156.5q-76 -20 -137 -20q-54 43 -166 262q-38 74 -59 124z" />
    <glyph glyph-name="tcaron" unicode="&#x165;" horiz-adv-x="1214" 
d="M348 1149q23 0 23 -39v-211h251v-84h-249v-501q0 -145 15.5 -176t42 -41.5t87.5 -10.5t127 22l8 -73q-107 -55 -203.5 -55t-143 17.5t-72.5 56.5q-48 71 -48 263v498h-149v44q133 54 215 170q24 34 45.5 68t31 43t19.5 9zM835 793q-28 26 -36 57q32 18 64 34t57 36
q58 45 58 113q-30 43 -86 52q-105 18 -105 114q0 87 83 119q25 10 61 10t69.5 -15t57.5 -42q49 -57 49 -129.5t-18 -126.5t-53 -99q-77 -100 -201 -123z" />
    <glyph glyph-name="Tbar" unicode="&#x166;" horiz-adv-x="1180" 
d="M979 1179l93 14h28l45 -321q-7 -4 -16 -4t-16.5 9.5t-14.5 24.5q-14 31 -24.5 65.5t-20.5 60.5t-23 44q-26 38 -72 40l-273 8v-421h203v-72h-203v-503q0 -60 117 -70q77 -6 97 -14t20 -23q0 -6 -4 -17h-670q-4 7 -4 21t17 20.5t42.5 9t55 4.5t54.5 9q60 15 60 66v497
h-214v72h214v421l-231 -8q-64 -3 -101 -86q-11 -26 -19.5 -50t-15.5 -42t-15 -32q-17 -34 -31 -34q-6 0 -17 4l33 317l36 2q31 0 57 -6.5t59 -11.5z" />
    <glyph glyph-name="tbar" unicode="&#x167;" horiz-adv-x="656" 
d="M349 1149q23 0 23 -39v-211h251v-84h-249v-285h256v-128h-256v-88q0 -145 15.5 -176t42 -41.5t87.5 -10.5t127 22l8 -73q-118 -55 -209 -55t-137.5 17.5t-73.5 56.5q-47 71 -47 263v85h-159v128h159v285h-149v44q142 57 230 193q56 86 64.5 91.5t16.5 5.5z" />
    <glyph glyph-name="Umacron" unicode="&#x16a;" horiz-adv-x="1639" 
d="M239 664l5 360q0 75 -8.5 110t-33 53t-55.5 29t-64 18.5t-57 16.5l3 51h660l2 -52q-42 -15 -75.5 -22t-59 -13t-44 -15.5t-30.5 -29.5q-23 -38 -23 -147v-427q0 -242 89 -367q106 -147 340 -147q429 0 429 531v393q0 110 -16 142t-34 44t-44 20t-60.5 16t-78.5 23v51h539
l2 -52q-24 -13 -56.5 -18t-62.5 -12q-75 -17 -91 -70q-16 -55 -16 -128l4 -308q0 -229 -27.5 -337t-66.5 -177t-103 -120q-137 -106 -385 -106q-225 0 -377 101q-170 114 -193 326q-12 99 -12 263zM518 1447v128h602v-128h-602z" />
    <glyph glyph-name="umacron" unicode="&#x16b;" horiz-adv-x="1191" 
d="M554 98q140 0 262 122v423q0 62 -8 104q-12 65 -166 82v49l360 26v-703q0 -82 100 -105q28 -6 58 -11l-3 -53l-328 -47l-8 160q-148 -165 -331 -165q-251 0 -288 281q-10 81 -10 168v216q0 112 -30 137q-45 36 -136 46v50l352 26v-464q0 -190 38 -264q39 -78 138 -78z
M294 1044v128h602v-128h-602z" />
    <glyph glyph-name="Ubreve" unicode="&#x16c;" horiz-adv-x="1639" 
d="M239 664l5 360q0 75 -8.5 110t-33 53t-55.5 29t-64 18.5t-57 16.5l3 51h660l2 -52q-42 -15 -75.5 -22t-59 -13t-44 -15.5t-30.5 -29.5q-23 -38 -23 -147v-427q0 -242 89 -367q106 -147 340 -147q429 0 429 531v393q0 110 -16 142t-34 44t-44 20t-60.5 16t-78.5 23v51h539
l2 -52q-24 -13 -56.5 -18t-62.5 -12q-75 -17 -91 -70q-16 -55 -16 -128l4 -308q0 -229 -27.5 -337t-66.5 -177t-103 -120q-137 -106 -385 -106q-225 0 -377 101q-170 114 -193 326q-12 99 -12 263zM656 1684q52 -116 198.5 -116t179.5 116h58q0 -113 -65 -180t-183 -67
t-180 65t-65 182h57z" />
    <glyph glyph-name="ubreve" unicode="&#x16d;" horiz-adv-x="1191" 
d="M554 98q140 0 262 122v423q0 62 -8 104q-12 65 -166 82v49l360 26v-703q0 -82 100 -105q28 -6 58 -11l-3 -53l-328 -47l-8 160q-148 -165 -331 -165q-251 0 -288 281q-10 81 -10 168v216q0 112 -30 137q-45 36 -136 46v50l352 26v-464q0 -190 38 -264q39 -78 138 -78z
M424 1282q52 -116 198.5 -116t179.5 116h58q0 -113 -65 -180t-183 -67t-180 65t-65 182h57z" />
    <glyph glyph-name="Uring" unicode="&#x16e;" horiz-adv-x="1639" 
d="M239 664l5 360q0 75 -8.5 110t-33 53t-55.5 29t-64 18.5t-57 16.5l3 51h660l2 -52q-42 -15 -75.5 -22t-59 -13t-44 -15.5t-30.5 -29.5q-23 -38 -23 -147v-427q0 -242 89 -367q106 -147 340 -147q429 0 429 531v393q0 110 -16 142t-34 44t-44 20t-60.5 16t-78.5 23v51h539
l2 -52q-24 -13 -56.5 -18t-62.5 -12q-75 -17 -91 -70q-16 -55 -16 -128l4 -308q0 -229 -27.5 -337t-66.5 -177t-103 -120q-137 -106 -385 -106q-225 0 -377 101q-170 114 -193 326q-12 99 -12 263zM872 1813.5q-22 9.5 -47.5 9.5t-47 -9.5t-37.5 -25.5q-34 -36 -34 -83
q0 -50 25 -75q44 -44 81.5 -44t59.5 9.5t38 26.5q35 36 35 83q0 46 -25.5 72.5t-47.5 36zM825 1896q80 0 138 -57q57 -55 57 -134t-57 -135q-57 -58 -138 -58q-82 0 -138.5 56.5t-56.5 136.5q0 79 57 134q58 57 138 57z" />
    <glyph glyph-name="uring" unicode="&#x16f;" horiz-adv-x="1191" 
d="M554 98q140 0 262 122v423q0 62 -8 104q-12 65 -166 82v49l360 26v-703q0 -82 100 -105q28 -6 58 -11l-3 -53l-328 -47l-8 160q-148 -165 -331 -165q-251 0 -288 281q-10 81 -10 168v216q0 112 -30 137q-45 36 -136 46v50l352 26v-464q0 -190 38 -264q39 -78 138 -78z
M640 1411.5q-22 9.5 -47.5 9.5t-47 -9.5t-37.5 -25.5q-34 -36 -34 -83q0 -50 25 -75q44 -44 81.5 -44t59.5 9.5t38 26.5q35 36 35 83q0 46 -25.5 72.5t-47.5 36zM593 1494q80 0 138 -57q57 -55 57 -134t-57 -135q-57 -58 -138 -58q-82 0 -138.5 56.5t-56.5 136.5
q0 79 57 134q58 57 138 57z" />
    <glyph glyph-name="Uhungarumlaut" unicode="&#x170;" horiz-adv-x="1639" 
d="M239 664l5 360q0 75 -8.5 110t-33 53t-55.5 29t-64 18.5t-57 16.5l3 51h660l2 -52q-42 -15 -75.5 -22t-59 -13t-44 -15.5t-30.5 -29.5q-23 -38 -23 -147v-427q0 -242 89 -367q106 -147 340 -147q429 0 429 531v393q0 110 -16 142t-34 44t-44 20t-60.5 16t-78.5 23v51h539
l2 -52q-24 -13 -56.5 -18t-62.5 -12q-75 -17 -91 -70q-16 -55 -16 -128l4 -308q0 -229 -27.5 -337t-66.5 -177t-103 -120q-137 -106 -385 -106q-225 0 -377 101q-170 114 -193 326q-12 99 -12 263zM1260 1769q-18 -44 -120 -185q-135 -188 -151 -201q-24 0 -34 16
q3 18 44.5 136t58.5 161q40 102 51 115q69 0 151 -42zM956 1768q-27 -54 -131 -187q-143 -183 -162 -198q-22 0 -32 14q10 58 71 198q85 192 103 216q78 0 151 -43z" />
    <glyph glyph-name="uhungarumlaut" unicode="&#x171;" horiz-adv-x="1191" 
d="M554 98q140 0 262 122v423q0 62 -8 104q-12 65 -166 82v49l360 26v-703q0 -82 100 -105q28 -6 58 -11l-3 -53l-328 -47l-8 160q-148 -165 -331 -165q-251 0 -288 281q-10 81 -10 168v216q0 112 -30 137q-45 36 -136 46v50l352 26v-464q0 -190 38 -264q39 -78 138 -78z
M1028 1367q-18 -44 -120 -185q-135 -188 -151 -201q-24 0 -34 16q3 18 44.5 136t58.5 161q40 102 51 115q69 0 151 -42zM724 1366q-27 -54 -131 -187q-143 -183 -162 -198q-22 0 -32 14q10 58 71 198q85 192 103 216q78 0 151 -43z" />
    <glyph glyph-name="Uogonek" unicode="&#x172;" horiz-adv-x="1639" 
d="M239 664l5 360q0 75 -8.5 110t-33 53t-55.5 29t-64 18.5t-57 16.5l3 51h660l2 -52q-42 -15 -75.5 -22t-59 -13t-44 -15.5t-30.5 -29.5q-23 -38 -23 -147v-427q0 -242 89 -367q106 -147 340 -147q429 0 429 531v393q0 110 -16 142t-34 44t-44 20t-60.5 16t-78.5 23v51h539
l2 -52q-24 -13 -56.5 -18t-62.5 -12q-75 -17 -91 -70q-16 -55 -16 -128l4 -308q0 -229 -27.5 -337t-66.5 -177t-103 -120q-137 -106 -385 -106q-225 0 -377 101q-170 114 -193 326q-12 99 -12 263zM1625 -314q-102 -57 -192 -57q-87 0 -147 47q-65 50 -65 136q0 88 61 145
q51 48 143 66q-6 -24 -18 -42l-24 -36q-30 -45 -30 -90q0 -85 93 -111q27 -8 63.5 -8t104.5 30z" />
    <glyph glyph-name="uogonek" unicode="&#x173;" horiz-adv-x="1191" 
d="M554 98q140 0 262 122v423q0 62 -8 104q-12 65 -166 82v49l360 26v-703q0 -82 100 -105q28 -6 58 -11l-3 -53l-328 -47l-8 160q-148 -165 -331 -165q-251 0 -288 281q-10 81 -10 168v216q0 112 -30 137q-45 36 -136 46v50l352 26v-464q0 -190 38 -264q39 -78 138 -78z
M1160 -314q-102 -57 -192 -57q-87 0 -147 47q-65 50 -65 136q0 88 61 145q51 48 143 66q-6 -24 -18 -42l-24 -36q-30 -45 -30 -90q0 -85 93 -111q27 -8 63.5 -8t104.5 30z" />
    <glyph glyph-name="Ydieresis" unicode="&#x178;" horiz-adv-x="1330" 
d="M837 1273q0 13 2 29h502v-52q-104 -43 -136 -63q-62 -42 -102 -101l-328 -503v-337q0 -95 20.5 -120t40 -31.5t43.5 -10.5q76 -15 113 -32l-2 -52h-646l-2 52q38 21 86.5 28t68.5 13t34 23q29 34 29 138v308l-365 572q-36 56 -147 100q-29 12 -50 17v51h620l2 -52
q-99 -15 -144 -63q-17 -19 -17 -40t18 -57t46 -82.5t62 -99t65.5 -100t57 -85.5t36.5 -56q7 11 29 43t50.5 76t60.5 95t58 100q62 114 62 150t-18.5 53.5t-44.5 29t-54.5 19t-47.5 13.5zM406 1694.5q20 8.5 42.5 8.5t42.5 -8.5t35 -23.5q32 -32 32 -66t-8.5 -54t-23.5 -35
q-33 -31 -66.5 -31t-53.5 8.5t-35 22.5q-31 32 -31 66t8.5 54t23 35t34.5 23.5zM888 1703q46 0 69 -23q41 -41 41 -75t-8.5 -54t-23.5 -35q-33 -31 -78 -31t-68 23q-40 40 -40 74t8.5 54t22.5 35q31 32 77 32z" />
    <glyph glyph-name="Zacute" unicode="&#x179;" horiz-adv-x="1285" 
d="M372 89q47 -15 90 -15h139q274 0 352 30q41 17 61 45t38 62q50 94 102 148l56 -2l-60 -367h-41l-144 10h-877l-4 43l834 1182h-396q-102 0 -139 -13q-74 -24 -116 -100q-20 -35 -38.5 -71t-41.5 -69q-26 0 -53 3l27 332h32l986 -5q13 -6 13 -30l-1 -27l-745 -1047
q-48 -65 -74 -109zM439 1498q-23 0 -23 26q0 15 21 43t60.5 80.5t79.5 106.5q103 138 127 170q36 48 71 48q49 0 74 -52q7 -15 7 -36.5t-29.5 -48t-80.5 -73.5t-101 -94q-114 -104 -151.5 -137t-54.5 -33z" />
    <glyph glyph-name="zacute" unicode="&#x17a;" horiz-adv-x="949" 
d="M819 899q7 -1 16 -1t39 -3v-55l-545 -780h194q89 0 171 26q44 14 84 88q16 29 30 58t32 47q13 0 25.5 -1t25.5 -1l-29 -288l-159 11h-608l-14 33l577 805h-169q-88 0 -125 -9q-53 -6 -105 -71q-21 -26 -40.5 -52.5t-43.5 -43.5l-45 2l21 261q68 -26 167 -26h501z
M289 1096q-23 0 -23 26q0 15 21 43t60.5 80.5t79.5 106.5q103 138 127 170q36 48 71 48q49 0 74 -52q7 -15 7 -36.5t-29.5 -48t-80.5 -73.5t-101 -94q-114 -104 -151.5 -137t-54.5 -33z" />
    <glyph glyph-name="Zdotaccent" unicode="&#x17b;" horiz-adv-x="1285" 
d="M372 89q47 -15 90 -15h139q274 0 352 30q41 17 61 45t38 62q50 94 102 148l56 -2l-60 -367h-41l-144 10h-877l-4 43l834 1182h-396q-102 0 -139 -13q-74 -24 -116 -100q-20 -35 -38.5 -71t-41.5 -69q-26 0 -53 3l27 332h32l986 -5q13 -6 13 -30l-1 -27l-745 -1047
q-48 -65 -74 -109zM637 1677q46 0 70 -24q40 -40 40 -74t-8.5 -54t-23.5 -34q-33 -32 -78 -32q-44 0 -68 23q-41 39 -41 73.5t8.5 54.5t23.5 35q32 32 77 32z" />
    <glyph glyph-name="zdotaccent" unicode="&#x17c;" horiz-adv-x="949" 
d="M819 899q7 -1 16 -1t39 -3v-55l-545 -780h194q89 0 171 26q44 14 84 88q16 29 30 58t32 47q13 0 25.5 -1t25.5 -1l-29 -288l-159 11h-608l-14 33l577 805h-169q-88 0 -125 -9q-53 -6 -105 -71q-21 -26 -40.5 -52.5t-43.5 -43.5l-45 2l21 261q68 -26 167 -26h501z
M491 1274q46 0 70 -24q40 -40 40 -74t-8.5 -54t-23.5 -34q-33 -32 -78 -32q-44 0 -68 23q-41 39 -41 73.5t8.5 54.5t23.5 35q32 32 77 32z" />
    <glyph glyph-name="Zcaron" unicode="&#x17d;" horiz-adv-x="1285" 
d="M372 89q47 -15 90 -15h139q274 0 352 30q41 17 61 45t38 62q50 94 102 148l56 -2l-60 -367h-41l-144 10h-877l-4 43l834 1182h-396q-102 0 -139 -13q-74 -24 -116 -100q-20 -35 -38.5 -71t-41.5 -69q-26 0 -53 3l27 332h32l986 -5q13 -6 13 -30l-1 -27l-745 -1047
q-48 -65 -74 -109zM348 1777q8 13 36 13q65 -34 201 -191q32 -37 53 -60q21 26 49.5 62t59.5 73q75 88 120 116q28 0 36 -13q-39 -98 -104 -209.5t-89 -156.5q-76 -20 -137 -20q-54 43 -166 262q-38 74 -59 124z" />
    <glyph glyph-name="zcaron" unicode="&#x17e;" horiz-adv-x="949" 
d="M819 899q7 -1 16 -1t39 -3v-55l-545 -780h194q89 0 171 26q44 14 84 88q16 29 30 58t32 47q13 0 25.5 -1t25.5 -1l-29 -288l-159 11h-608l-14 33l577 805h-169q-88 0 -125 -9q-53 -6 -105 -71q-21 -26 -40.5 -52.5t-43.5 -43.5l-45 2l21 261q68 -26 167 -26h501z
M199 1375q8 13 36 13q65 -34 201 -191q32 -37 53 -60q21 26 49.5 62t59.5 73q75 88 120 116q28 0 36 -13q-39 -98 -104 -209.5t-89 -156.5q-76 -20 -137 -20q-54 43 -166 262q-38 74 -59 124z" />
    <glyph glyph-name="florin" unicode="&#x192;" horiz-adv-x="952" 
d="M451 863q63 309 183 421q88 83 211 83q105 0 149 -59q16 -21 16 -46t-7 -40.5t-19 -27.5q-26 -24 -54.5 -24t-41.5 9t-21.5 23t-14.5 30t-13 30q-16 32 -45 32t-52 -27t-40 -68.5t-29.5 -92t-21 -98.5t-14 -87.5t-9.5 -57.5h194l-17 -69h-194l-125 -633
q-61 -297 -188 -411q-88 -80 -210 -80q-113 0 -158 56q-18 21 -18 56t24.5 59t57 24t49.5 -19t29.5 -42t26 -42t42 -19t52 26.5t39.5 64.5q19 45 43 158l159 802h-186l17 69h186z" />
    <glyph glyph-name="DZcaron" unicode="&#x1c4;" horiz-adv-x="2892" 
d="M1966 1815q8 13 36 13q65 -34 201 -191q32 -37 53 -60q21 26 49.5 62t59.5 73q75 88 120 116q28 0 36 -13q-39 -98 -104 -209.5t-89 -156.5q-76 -20 -137 -20q-54 43 -166 262q-38 74 -59 124zM1958 89q47 -15 90 -15h139q294 0 371 30q42 17 62 45t38 62q50 94 102 148
l56 -2l-60 -367h-41l-144 10h-897l-4 43l780 1076l74 106h-396q-102 0 -140 -13q-73 -24 -115 -100q-20 -35 -38.5 -71t-41.5 -69q-26 0 -53 3l27 332h32l986 -5q13 -6 13 -30l-1 -27l-765 -1047q-48 -65 -74 -109zM507 1225v-868q0 -147 24 -194.5t52.5 -64t64.5 -18.5
q53 -3 152.5 -3t194.5 47t157 122q122 149 122 363q0 275 -142 437q-156 179 -457 179h-168zM292 1010q0 138 -40 170q-43 34 -100 48t-84 23l2 51h592q598 0 784 -344q66 -123 66 -274.5t-46 -270t-136 -210.5q-200 -203 -541 -203h-719l-2 52q36 11 75.5 19t72.5 23
q76 36 76 125v791z" />
    <glyph glyph-name="Dzcaron" unicode="&#x1c5;" horiz-adv-x="2499" 
d="M1764 1414q8 13 36 13q65 -34 201 -191q32 -37 53 -60q21 26 49.5 62t59.5 72q75 89 120 117q28 0 36 -13q-39 -98 -104 -209.5t-89 -156.5q-76 -20 -137 -20q-54 43 -166 262q-38 74 -59 124zM2375 899q7 -1 16 -1t39 -3v-55l-545 -780h194q89 0 171 26q44 14 84 88
q16 29 30 58t32 47q13 0 25.5 -1t25.5 -1l-29 -288l-159 11h-608l-14 33l577 805h-169q-88 0 -125 -9q-53 -6 -105 -71q-21 -26 -40.5 -52.5t-43.5 -43.5l-45 2l21 261q68 -26 167 -26h501zM507 1225v-954q0 -87 24 -123q43 -64 124 -68q42 -3 143.5 -3t196.5 47t157 122
q122 149 122 363q0 275 -142 437q-156 179 -457 179h-168zM292 1010q0 138 -40 170q-43 34 -100 48t-84 23l2 51h592q598 0 784 -344q66 -123 66 -274.5t-46 -270t-136 -210.5q-200 -203 -541 -203h-719l-2 52q36 11 75.5 19t72.5 23q76 36 76 125v791z" />
    <glyph glyph-name="uni01C6" unicode="&#x1c6;" horiz-adv-x="1707" 
 />
    <glyph glyph-name="uni01C7" unicode="&#x1c7;" horiz-adv-x="2022" 
d="M1242 -11q-121 11 -219 11h-953l-2 54q41 14 82.5 23.5t74.5 26.5q74 38 74 136v794q0 103 -17.5 131.5t-36 38.5t-44 16t-58.5 12t-74 19l2 51h676v-52q-42 -18 -98 -27.5t-75.5 -17t-32.5 -25.5q-26 -36 -26 -140v-728q0 -87 11 -135.5t48 -71t106 -27t150 -4.5
t125.5 4.5t84.5 19.5q85 32 131 119q17 32 32.5 66t41.5 61l60 -2zM1491 -251q79 0 79 257v1029q0 100 -18.5 129t-37.5 38t-44 15t-57 12.5t-71 20.5l3 52h667v-51q-40 -17 -93.5 -27.5t-73 -18t-33.5 -25.5q-27 -37 -27 -136v-874q0 -390 -225 -482q-53 -21 -102 -21
t-83.5 6t-64.5 21q-72 33 -72 99q0 39 25.5 62t64 23t58 -20t33 -44.5t28.5 -44.5t44 -20z" />
    <glyph glyph-name="uni01C8" unicode="&#x1c8;" horiz-adv-x="1836" 
d="M1242 -11q-121 11 -219 11h-953l-2 54q41 14 82.5 23.5t74.5 26.5q74 38 74 136v794q0 103 -17.5 131.5t-36 38.5t-44 16t-58.5 12t-74 19l2 51h676v-52q-42 -18 -98 -27.5t-75.5 -17t-32.5 -25.5q-26 -36 -26 -140v-728q0 -87 11 -135.5t48 -71t106 -27t150 -4.5
t125.5 4.5t84.5 19.5q85 32 131 119q17 32 32.5 66t41.5 61l60 -2zM1461 1260q0 47 25 73q41 43 90 43q50 0 74 -25q42 -44 42 -91q0 -49 -24 -74q-43 -42 -92 -42q-48 0 -72 24q-43 43 -43 92zM1497 710q-29 45 -137 80q-21 7 -25 7v35l280 79l68 7v-793q0 -309 -215 -395
q-69 -28 -158 -38l-15 58q61 28 99 52.5t60 59.5q35 59 43 226v622z" />
    <glyph glyph-name="uni01C9" unicode="&#x1c9;" horiz-adv-x="1113" 
d="M199 228l-1 941q-28 43 -165 89l2 35l278 76l72 7v-1142q0 -81 33 -128t116 -56l-2 -50h-492q-1 5 -1 10v40q15 10 39 16t47 14q58 20 66 60t8 88zM738 1260q0 47 25 73q41 43 90 43q50 0 74 -25q42 -44 42 -91q0 -49 -24 -74q-43 -42 -92 -42q-48 0 -72 24
q-43 43 -43 92zM774 710q-29 45 -137 80q-21 7 -25 7v35l280 79l68 7v-793q0 -309 -215 -395q-69 -28 -158 -38l-15 58q61 28 99 52.5t60 59.5q35 59 43 226v622z" />
    <glyph glyph-name="uni01CA" unicode="&#x1ca;" horiz-adv-x="2419" 
d="M1463 -9q-41 -17 -106 0q-89 107 -164 187l-790 831v-702q0 -156 53 -193q42 -29 102 -37.5t89 -23.5q0 -26 -3 -53h-564q-2 8 -2 16v38q42 12 83.5 21.5t76.5 27.5q76 40 85 136v852q-46 74 -113 107q-31 14 -66 24.5t-76 27.5v52h349l941 -973v629q0 92 -20 151t-43 77
t-51.5 27t-59 15.5t-58.5 20.5q0 26 3 53h527v-54q-44 -20 -77 -33.5t-56.5 -27t-38.5 -29.5t-24 -42q-15 -46 -17.5 -293t-2.5 -405t10.5 -247t12.5 -180zM1888 -251q79 0 79 257v1029q0 100 -18.5 129t-37.5 38t-44 15t-57 12.5t-71 20.5l3 52h667v-51
q-40 -17 -93.5 -27.5t-73 -18t-33.5 -25.5q-27 -37 -27 -136v-874q0 -390 -225 -482q-53 -21 -102 -21t-83.5 6t-64.5 21q-72 33 -72 99q0 39 25.5 62t64 23t58 -20t33 -44.5t28.5 -44.5t44 -20z" />
    <glyph glyph-name="uni01CB" unicode="&#x1cb;" horiz-adv-x="2233" 
d="M1463 -9q-41 -17 -106 0q-89 107 -164 187l-790 831v-702q0 -156 53 -193q42 -29 102 -37.5t89 -23.5q0 -26 -3 -53h-564q-2 8 -2 16v38q42 12 83.5 21.5t76.5 27.5q76 40 85 136v852q-46 74 -113 107q-31 14 -66 24.5t-76 27.5v52h349l941 -973v629q0 92 -20 151t-43 77
t-51.5 27t-59 15.5t-58.5 20.5q0 26 3 53h527v-54q-44 -20 -77 -33.5t-56.5 -27t-38.5 -29.5t-24 -42q-15 -46 -17.5 -293t-2.5 -405t10.5 -247t12.5 -180zM1858 1260q0 47 25 73q41 43 90 43q50 0 74 -25q42 -44 42 -91q0 -49 -24 -74q-43 -42 -92 -42q-48 0 -72 24
q-43 43 -43 92zM1894 710q-29 45 -137 80q-21 7 -25 7v35l280 79l68 7v-793q0 -309 -215 -395q-69 -28 -158 -38l-15 58q61 28 99 52.5t60 59.5q35 59 43 226v622z" />
    <glyph glyph-name="uni01CC" unicode="&#x1cc;" horiz-adv-x="1200" 
d="M651 818q-126 0 -266 -150v-446q0 -125 101 -158q33 -10 75 -14l-2 -50h-515q-1 3 -1 10v34q0 5 1 10q85 20 108 35q47 31 47 96v542q-23 45 -159 84l3 34l273 68l61 4l11 -162q86 116 225 157q48 14 100 14q144 0 224.5 -80.5t87.5 -246.5q3 -65 3 -131v-223
q0 -116 30 -146q17 -16 45 -23.5t70 -21.5q1 -5 1 -10v-12l-1 -22v-10h-493q-2 11 -2 26v24q19 7 44.5 13t49.5 16q55 24 64 70q5 28 5 77v223q0 197 -21 254.5t-59.5 86t-109.5 28.5zM1369 1260q0 47 25 73q41 43 90 43q50 0 74 -25q42 -44 42 -91q0 -49 -24 -74
q-43 -42 -92 -42q-48 0 -72 24q-43 43 -43 92zM1405 710q-29 45 -137 80q-21 7 -25 7v35l280 79l68 7v-793q0 -309 -215 -395q-69 -28 -158 -38l-15 58q61 28 99 52.5t60 59.5q35 59 43 226v622z" />
    <glyph glyph-name="uni0200" unicode="&#x200;" horiz-adv-x="1366" 
d="M808 620l-197 492l-183 -492h380zM948 129q18 21 18 42t-7.5 47.5t-19 60.5t-26 72t-27.5 73q-34 86 -41 108h-451q-5 -14 -15.5 -40t-23.5 -59.5t-26.5 -70.5t-24.5 -72q-26 -78 -26 -111.5t17.5 -53t43.5 -31.5q34 -17 130 -37v-57h-472v52q20 17 41.5 25.5t42.5 17.5
q52 22 71 58t29.5 64t21.5 56l374 958q4 10 4.5 22.5t1.5 24.5q3 33 13 46q94 0 156 -47l459 -1101q24 -56 73 -82q23 -11 48 -19.5t52 -22.5l-2 -52h-582l-2 52q80 26 106 41t44 36zM884 1372q-11 -14 -32 -14q-36 29 -141 171q-135 184 -152 214q73 43 151 43
q36 -48 93 -193q77 -195 81 -221zM255 1744q82 42 151 42q35 -40 143 -374q10 -31 11 -38q-10 -16 -34 -16q-55 47 -246 343q-20 31 -25 43z" />
    <glyph glyph-name="uni0201" unicode="&#x201;" horiz-adv-x="1013" 
d="M412 93q106 0 218 107v255q-26 -9 -61 -20t-73 -25.5t-75.5 -32.5t-66.5 -41q-66 -53 -66 -114.5t32 -95t92 -33.5zM633 129q-140 -149 -312 -149q-153 0 -211 112q-19 37 -19 90.5t28 98.5t73.5 78.5t103.5 57.5t118 42t116.5 31t99.5 24v95q0 116 -25.5 160t-61.5 63.5
t-74.5 19.5t-65.5 -6t-53 -17q-62 -27 -62 -67q0 -16 12 -38q22 -43 22 -71t-24.5 -54.5t-58.5 -26.5t-54.5 10.5t-34.5 27.5q-28 36 -28 83t18.5 80t48.5 58.5t69 43.5t80 29q77 22 170 22t157 -24t98 -72.5t44 -120.5t10 -168l-6 -217q0 -225 47 -225q34 0 88 69l42 -45
q-46 -75 -75 -99q-55 -44 -123.5 -44t-110.5 41.5t-46 107.5zM734 970q-11 -14 -32 -14q-36 29 -141 171q-135 184 -152 214q73 43 151 43q36 -48 93 -193q77 -195 81 -221zM105 1342q82 42 151 42q35 -40 143 -374q10 -31 11 -38q-10 -16 -34 -16q-55 47 -246 343
q-20 31 -25 43z" />
    <glyph glyph-name="uni0202" unicode="&#x202;" horiz-adv-x="1366" 
d="M808 620l-197 492l-183 -492h380zM948 129q18 21 18 42t-7.5 47.5t-19 60.5t-26 72t-27.5 73q-34 86 -41 108h-451q-5 -14 -15.5 -40t-23.5 -59.5t-26.5 -70.5t-24.5 -72q-26 -78 -26 -111.5t17.5 -53t43.5 -31.5q34 -17 130 -37v-57h-472v52q20 17 41.5 25.5t42.5 17.5
q52 22 71 58t29.5 64t21.5 56l374 958q4 10 4.5 22.5t1.5 24.5q3 33 13 46q94 0 156 -47l459 -1101q24 -56 73 -82q23 -11 48 -19.5t52 -22.5l-2 -52h-582l-2 52q80 26 106 41t44 36zM852 1399q-33 116 -179.5 116t-198.5 -116h-57q3 117 65 182t182 65q175 0 229 -144
q17 -46 17 -103h-58z" />
    <glyph glyph-name="uni0203" unicode="&#x203;" horiz-adv-x="1013" 
d="M412 93q106 0 218 107v255q-26 -9 -61 -20t-73 -25.5t-75.5 -32.5t-66.5 -41q-66 -53 -66 -114.5t32 -95t92 -33.5zM633 129q-140 -149 -312 -149q-153 0 -211 112q-19 37 -19 90.5t28 98.5t73.5 78.5t103.5 57.5t118 42t116.5 31t99.5 24v95q0 116 -25.5 160t-61.5 63.5
t-74.5 19.5t-65.5 -6t-53 -17q-62 -27 -62 -67q0 -16 12 -38q22 -43 22 -71t-24.5 -54.5t-58.5 -26.5t-54.5 10.5t-34.5 27.5q-28 36 -28 83t18.5 80t48.5 58.5t69 43.5t80 29q77 22 170 22t157 -24t98 -72.5t44 -120.5t10 -168l-6 -217q0 -225 47 -225q34 0 88 69l42 -45
q-46 -75 -75 -99q-55 -44 -123.5 -44t-110.5 41.5t-46 107.5zM702 997q-33 116 -179.5 116t-198.5 -116h-57q3 117 65 182t182 65q175 0 229 -144q17 -46 17 -103h-58z" />
    <glyph glyph-name="uni0204" unicode="&#x204;" horiz-adv-x="1365" 
d="M1194 1312q19 0 37 -4v-311l-52 -2q-24 22 -37 54t-26 63t-32 57t-53 37t-76 16.5t-87 8.5q-60 4 -142 4q-154 0 -230 -9q-4 -52 -4 -103v-406h288q113 0 145.5 23.5t50.5 51.5t42 72l15 27h57v-429l-57 -3q-32 87 -67 120q-64 62 -147 62h-327v-337q0 -150 58 -198
q42 -36 170 -36h98q126 0 187 19t101 47.5t60.5 69.5t34.5 75t41 61h63l-66 -351q-17 -3 -32 -3l-115 12h-1026l-2 49q46 25 94.5 33.5t66 14.5t29.5 23q23 36 23 147v757q0 132 -49 166q-25 18 -65.5 28t-98.5 33l2 51h1020zM878 1372q-11 -14 -32 -14q-36 29 -141 171
q-135 184 -152 214q73 43 151 43q36 -48 93 -193q77 -195 81 -221zM249 1744q82 42 151 42q35 -40 143 -374q10 -31 11 -38q-10 -16 -34 -16q-55 47 -246 343q-20 31 -25 43z" />
    <glyph glyph-name="uni0205" unicode="&#x205;" 
d="M693 610q-15 249 -193 249q-97 0 -160 -81q-59 -74 -74 -193l353 9q47 2 74 16zM840 193l29 -28q-37 -87 -144 -138q-98 -47 -198.5 -47t-181 34t-139.5 96q-124 130 -124 337q0 208 134 347q126 132 307 132q144 0 241 -86q96 -84 116 -220q11 -51 11 -85v-9h-632
q-1 -8 -1 -15v-14q0 -187 100 -286q91 -90 226.5 -90t255.5 72zM717 970q-11 -14 -32 -14q-36 29 -141 171q-135 184 -152 214q73 43 151 43q36 -48 93 -193q77 -195 81 -221zM88 1342q82 42 151 42q35 -40 143 -374q10 -31 11 -38q-10 -16 -34 -16q-55 47 -246 343
q-20 31 -25 43z" />
    <glyph glyph-name="uni0206" unicode="&#x206;" horiz-adv-x="1370" 
d="M1198 1312q19 0 37 -4v-311l-52 -2q-24 22 -37 54t-26 63t-32 57t-53 37t-76 16.5t-87 8.5q-60 4 -142 4q-154 0 -230 -9q-4 -52 -4 -103v-406h288q113 0 145.5 23.5t50.5 51.5t42 72l15 27h57v-429l-57 -3q-32 87 -67 120q-64 62 -147 62h-327v-337q0 -150 58 -198
q42 -36 170 -36h98q126 0 187 19t101 47.5t60.5 69.5t34.5 75t41 61h63l-66 -351q-17 -3 -32 -3l-115 12h-1026l-2 49q46 25 94.5 33.5t66 14.5t29.5 23q23 36 23 147v757q0 132 -49 166q-25 18 -65.5 28t-98.5 33l2 51h1020zM851 1399q-33 116 -179.5 116t-198.5 -116h-57
q3 117 65 182t182 65q175 0 229 -144q17 -46 17 -103h-58z" />
    <glyph glyph-name="uni0207" unicode="&#x207;" 
d="M693 610q-15 249 -193 249q-97 0 -160 -81q-59 -74 -74 -193l353 9q47 2 74 16zM840 193l29 -28q-37 -87 -144 -138q-98 -47 -198.5 -47t-181 34t-139.5 96q-124 130 -124 337q0 208 134 347q126 132 307 132q144 0 241 -86q96 -84 116 -220q11 -51 11 -85v-9h-632
q-1 -8 -1 -15v-14q0 -187 100 -286q91 -90 226.5 -90t255.5 72zM685 997q-33 116 -179.5 116t-198.5 -116h-57q3 117 65 182t182 65q175 0 229 -144q17 -46 17 -103h-58z" />
    <glyph glyph-name="uni0208" unicode="&#x208;" horiz-adv-x="906" 
d="M608 260q0 -99 19 -127t38.5 -36t45 -13t57.5 -11t70 -20l-2 -53h-665v52q45 21 96.5 28t70 13.5t31.5 26.5q24 38 24 158v752q0 159 -67 178q-21 6 -46 10q-73 10 -113 33l2 51h663l2 -52q-36 -12 -76 -21t-73 -25q-77 -37 -77 -123v-821zM698 1372q-11 -14 -32 -14
q-36 29 -141 171q-135 184 -152 214q73 43 151 43q36 -48 93 -193q77 -195 81 -221zM69 1744q82 42 151 42q35 -40 143 -374q10 -31 11 -38q-10 -16 -34 -16q-55 47 -246 343q-20 31 -25 43z" />
    <glyph glyph-name="uni0209" unicode="&#x209;" horiz-adv-x="589" 
d="M49 0q-2 8 -2 18v32q16 9 45 17t58 21q69 32 69 93v526q-17 29 -58 42.5t-62 21t-32 20.5q0 15 2 35l277 80l59 6v-692q0 -52 7 -81t26 -42.5t42 -21t45.5 -12.5t33.5 -13q0 -24 -2 -50h-508zM610 970q-11 -14 -32 -14q-36 29 -141 171q-135 184 -152 214q73 43 151 43
q36 -48 93 -193q77 -195 81 -221zM-19 1342q82 42 151 42q35 -40 143 -374q10 -31 11 -38q-10 -16 -34 -16q-55 47 -246 343q-20 31 -25 43z" />
    <glyph glyph-name="uni020A" unicode="&#x20a;" horiz-adv-x="807" 
d="M509 260q0 -99 19 -127t38.5 -36t45 -13t57.5 -11t70 -20l-2 -53h-665v52q45 21 96.5 28t70 13.5t31.5 26.5q24 38 24 158v752q0 159 -67 178q-21 6 -46 10q-73 10 -113 33l2 51h663l2 -52q-36 -12 -76 -21t-73 -25q-77 -37 -77 -123v-821zM566 1399q-33 116 -179.5 116
t-198.5 -116h-57q3 117 65 182t182 65q175 0 229 -144q17 -46 17 -103h-58z" />
    <glyph glyph-name="uni020B" unicode="&#x20b;" horiz-adv-x="582" 
d="M49 0q-2 8 -2 18v32q16 9 45 17t58 21q69 32 69 93v526q-17 29 -58 42.5t-62 21t-32 20.5q0 15 2 35l277 80l59 6v-692q0 -52 7 -81t26 -42.5t42 -21t45.5 -12.5t33.5 -13q0 -24 -2 -50h-508zM481 997q-33 116 -179.5 116t-198.5 -116h-57q3 117 65 182t182 65
q175 0 229 -144q17 -46 17 -103h-58z" />
    <glyph glyph-name="uni020C" unicode="&#x20c;" horiz-adv-x="1603" 
d="M345 714q0 -137 36.5 -259t102.5 -212q139 -192 353 -192q185 0 301 141q120 146 120 393q0 284 -136 473q-138 192 -353 192q-180 0 -297 -134q-127 -143 -127 -402zM112 642q0 109 27.5 205t75.5 172.5t114 134t143 96.5q155 77 332 77q288 0 484 -184
q128 -120 178 -301q25 -90 25 -218.5t-56.5 -253t-153.5 -212.5q-203 -184 -497 -184q-274 0 -467 176q-205 188 -205 492zM996 1372q-11 -14 -32 -14q-36 29 -141 171q-135 184 -152 214q73 43 151 43q36 -48 93 -193q77 -195 81 -221zM367 1744q82 42 151 42
q35 -40 143 -374q10 -31 11 -38q-10 -16 -34 -16q-55 47 -246 343q-20 31 -25 43z" />
    <glyph glyph-name="uni020D" unicode="&#x20d;" horiz-adv-x="1111" 
d="M302 670q-20 -65 -20 -152t20 -169t58 -147q84 -144 213 -144q126 0 195 94q64 87 64 236q0 197 -78 330q-81 141 -211 141q-183 0 -241 -189zM82 456q0 208 140 342q135 128 327 128q205 0 339 -126q141 -132 141 -343t-140 -347q-133 -130 -329 -130t-334 132
q-144 137 -144 344zM750 970q-11 -14 -32 -14q-36 29 -141 171q-135 184 -152 214q73 43 151 43q36 -48 93 -193q77 -195 81 -221zM121 1342q82 42 151 42q35 -40 143 -374q10 -31 11 -38q-10 -16 -34 -16q-55 47 -246 343q-20 31 -25 43z" />
    <glyph glyph-name="uni020E" unicode="&#x20e;" horiz-adv-x="1603" 
d="M345 714q0 -137 36.5 -259t102.5 -212q139 -192 353 -192q185 0 301 141q120 146 120 393q0 284 -136 473q-138 192 -353 192q-180 0 -297 -134q-127 -143 -127 -402zM112 642q0 109 27.5 205t75.5 172.5t114 134t143 96.5q155 77 332 77q288 0 484 -184
q128 -120 178 -301q25 -90 25 -218.5t-56.5 -253t-153.5 -212.5q-203 -184 -497 -184q-274 0 -467 176q-205 188 -205 492zM964 1399q-33 116 -179.5 116t-198.5 -116h-57q3 117 65 182t182 65q175 0 229 -144q17 -46 17 -103h-58z" />
    <glyph glyph-name="uni020F" unicode="&#x20f;" horiz-adv-x="1111" 
d="M302 670q-20 -65 -20 -152t20 -169t58 -147q84 -144 213 -144q126 0 195 94q64 87 64 236q0 197 -78 330q-81 141 -211 141q-183 0 -241 -189zM82 456q0 208 140 342q135 128 327 128q205 0 339 -126q141 -132 141 -343t-140 -347q-133 -130 -329 -130t-334 132
q-144 137 -144 344zM718 997q-33 116 -179.5 116t-198.5 -116h-57q3 117 65 182t182 65q175 0 229 -144q17 -46 17 -103h-58z" />
    <glyph glyph-name="uni0210" unicode="&#x210;" horiz-adv-x="1409" 
d="M1441 -2q-196 -48 -306 4q-114 55 -211 182q-75 100 -135.5 204.5t-85 141t-37.5 53t-28 27.5q-26 18 -86 22l-63 4v-385q0 -98 20 -124t39 -33t43 -11q72 -12 114 -31l-2 -52h-633l-2 52q42 23 88.5 30t64 13.5t29.5 25.5q24 38 24 156v758q0 93 -17 120.5t-33.5 37.5
t-39.5 17.5t-52 16t-64 24.5l2 52h461q188 0 276.5 -11t160.5 -31t128 -57q123 -81 123 -234q0 -139 -117 -228q-99 -74 -247 -95q45 -61 90.5 -125t90.5 -128q109 -152 156 -207.5t67 -73.5t45 -31q54 -28 137 -28v-56zM489 703q151 0 210.5 6.5t110.5 21t90 43.5
q86 62 86 184q0 181 -163 235q-88 29 -175 31.5t-137 2.5h-22v-524zM949 1372q-11 -14 -32 -14q-36 29 -141 171q-135 184 -152 214q73 43 151 43q36 -48 93 -193q77 -195 81 -221zM320 1744q82 42 151 42q35 -40 143 -374q10 -31 11 -38q-10 -16 -34 -16q-55 47 -246 343
q-20 31 -25 43z" />
    <glyph glyph-name="uni0211" unicode="&#x211;" horiz-adv-x="799" 
d="M197 723q-28 47 -157 82l2 35l266 76h57l16 -184q83 151 183 180q34 9 68.5 9t60.5 -10t45 -26q40 -34 40 -74q0 -31 -16 -60q-30 -59 -66.5 -59t-54.5 16t-31 35t-26.5 35t-39.5 16t-48.5 -14.5t-41.5 -37.5t-36 -52t-34 -57v-372q0 -93 8.5 -125t29 -44.5t48 -19
t57.5 -10.5t53 -12l-1 -31v-19h-536q-1 4 -1 12v35q0 5 1 7q34 10 62.5 16t48.5 20q43 29 43 125v508zM605 970q-11 -14 -32 -14q-36 29 -141 171q-135 184 -152 214q73 43 151 43q36 -48 93 -193q77 -195 81 -221zM-24 1342q82 42 151 42q35 -40 143 -374q10 -31 11 -38
q-10 -16 -34 -16q-55 47 -246 343q-20 31 -25 43z" />
    <glyph glyph-name="uni0212" unicode="&#x212;" horiz-adv-x="1409" 
d="M1441 -2q-196 -48 -306 4q-114 55 -211 182q-75 100 -135.5 204.5t-85 141t-37.5 53t-28 27.5q-26 18 -86 22l-63 4v-385q0 -98 20 -124t39 -33t43 -11q72 -12 114 -31l-2 -52h-633l-2 52q42 23 88.5 30t64 13.5t29.5 25.5q24 38 24 156v758q0 93 -17 120.5t-33.5 37.5
t-39.5 17.5t-52 16t-64 24.5l2 52h461q188 0 276.5 -11t160.5 -31t128 -57q123 -81 123 -234q0 -139 -117 -228q-99 -74 -247 -95q45 -61 90.5 -125t90.5 -128q109 -152 156 -207.5t67 -73.5t45 -31q54 -28 137 -28v-56zM489 703q151 0 210.5 6.5t110.5 21t90 43.5
q86 62 86 184q0 181 -163 235q-88 29 -175 31.5t-137 2.5h-22v-524zM917 1399q-33 116 -179.5 116t-198.5 -116h-57q3 117 65 182t182 65q175 0 229 -144q17 -46 17 -103h-58z" />
    <glyph glyph-name="uni0213" unicode="&#x213;" horiz-adv-x="799" 
d="M197 723q-28 47 -157 82l2 35l266 76h57l16 -184q83 151 183 180q34 9 68.5 9t60.5 -10t45 -26q40 -34 40 -74q0 -31 -16 -60q-30 -59 -66.5 -59t-54.5 16t-31 35t-26.5 35t-39.5 16t-48.5 -14.5t-41.5 -37.5t-36 -52t-34 -57v-372q0 -93 8.5 -125t29 -44.5t48 -19
t57.5 -10.5t53 -12l-1 -31v-19h-536q-1 4 -1 12v35q0 5 1 7q34 10 62.5 16t48.5 20q43 29 43 125v508zM572 997q-33 116 -179.5 116t-198.5 -116h-57q3 117 65 182t182 65q175 0 229 -144q17 -46 17 -103h-58z" />
    <glyph glyph-name="uni0214" unicode="&#x214;" horiz-adv-x="1639" 
d="M239 664l5 360q0 75 -8.5 110t-33 53t-55.5 29t-64 18.5t-57 16.5l3 51h660l2 -52q-42 -15 -75.5 -22t-59 -13t-44 -15.5t-30.5 -29.5q-23 -38 -23 -147v-427q0 -242 89 -367q106 -147 340 -147q429 0 429 531v393q0 110 -16 142t-34 44t-44 20t-60.5 16t-78.5 23v51h539
l2 -52q-24 -13 -56.5 -18t-62.5 -12q-75 -17 -91 -70q-16 -55 -16 -128l4 -308q0 -229 -27.5 -337t-66.5 -177t-103 -120q-137 -106 -385 -106q-225 0 -377 101q-170 114 -193 326q-12 99 -12 263zM1020 1372q-11 -14 -32 -14q-36 29 -141 171q-135 184 -152 214
q73 43 151 43q36 -48 93 -193q77 -195 81 -221zM391 1744q82 42 151 42q35 -40 143 -374q10 -31 11 -38q-10 -16 -34 -16q-55 47 -246 343q-20 31 -25 43z" />
    <glyph glyph-name="uni0215" unicode="&#x215;" horiz-adv-x="1191" 
d="M554 98q140 0 262 122v423q0 62 -8 104q-12 65 -166 82v49l360 26v-703q0 -82 100 -105q28 -6 58 -11l-3 -53l-328 -47l-8 160q-148 -165 -331 -165q-251 0 -288 281q-10 81 -10 168v216q0 112 -30 137q-45 36 -136 46v50l352 26v-464q0 -190 38 -264q39 -78 138 -78z
M788 970q-11 -14 -32 -14q-36 29 -141 171q-135 184 -152 214q73 43 151 43q36 -48 93 -193q77 -195 81 -221zM159 1342q82 42 151 42q35 -40 143 -374q10 -31 11 -38q-10 -16 -34 -16q-55 47 -246 343q-20 31 -25 43z" />
    <glyph glyph-name="uni0216" unicode="&#x216;" horiz-adv-x="1639" 
d="M239 664l5 360q0 75 -8.5 110t-33 53t-55.5 29t-64 18.5t-57 16.5l3 51h660l2 -52q-42 -15 -75.5 -22t-59 -13t-44 -15.5t-30.5 -29.5q-23 -38 -23 -147v-427q0 -242 89 -367q106 -147 340 -147q429 0 429 531v393q0 110 -16 142t-34 44t-44 20t-60.5 16t-78.5 23v51h539
l2 -52q-24 -13 -56.5 -18t-62.5 -12q-75 -17 -91 -70q-16 -55 -16 -128l4 -308q0 -229 -27.5 -337t-66.5 -177t-103 -120q-137 -106 -385 -106q-225 0 -377 101q-170 114 -193 326q-12 99 -12 263zM988 1399q-33 116 -179.5 116t-198.5 -116h-57q3 117 65 182t182 65
q175 0 229 -144q17 -46 17 -103h-58z" />
    <glyph glyph-name="uni0217" unicode="&#x217;" horiz-adv-x="1191" 
d="M554 98q140 0 262 122v423q0 62 -8 104q-12 65 -166 82v49l360 26v-703q0 -82 100 -105q28 -6 58 -11l-3 -53l-328 -47l-8 160q-148 -165 -331 -165q-251 0 -288 281q-10 81 -10 168v216q0 112 -30 137q-45 36 -136 46v50l352 26v-464q0 -190 38 -264q39 -78 138 -78z
M756 997q-33 116 -179.5 116t-198.5 -116h-57q3 117 65 182t182 65q175 0 229 -144q17 -46 17 -103h-58z" />
    <glyph glyph-name="Scommaaccent" unicode="&#x218;" horiz-adv-x="1142" 
d="M121 400l59 2q14 -24 22 -51t21 -70.5t48.5 -88.5t82.5 -74q96 -60 221 -60q107 0 183 51q89 59 89 159q0 124 -225 251q-63 36 -129.5 73.5t-130 78t-113.5 88.5q-111 107 -111 232q0 171 146 261q124 75 304 75q199 0 381 -93l13 -285h-62q-13 24 -21 50t-21.5 64.5
t-45 76t-72.5 62.5q-80 48 -188 48q-91 0 -145 -31.5t-78 -64.5t-24 -80t31 -88t81 -78.5t114.5 -73.5t132 -74t132 -80t114.5 -92q112 -112 112 -244q0 -185 -154 -284q-131 -86 -326 -86q-180 0 -345 58q-55 20 -96 45v323zM494 -577q-42 0 -42 38q0 19 23 30t39.5 18
t29.5 20q33 31 33 85q-120 0 -155 91q-11 27 -11 56t11 56t31 47q44 46 111 46q166 0 166 -222q0 -123 -86 -200q-73 -65 -150 -65z" />
    <glyph glyph-name="scommaaccent" unicode="&#x219;" horiz-adv-x="854" 
d="M132 296q38 5 53 5q35 -174 147 -231q41 -20 86 -20t76 9.5t54 26.5q49 36 49 87.5t-26 81.5t-70.5 57.5t-104 57t-128.5 72.5q-151 95 -151 242q0 115 86 180q81 62 210 62q153 0 272 -73l6 -222q-11 -1 -23 -1h-24q-66 229 -237 229q-61 0 -98.5 -30t-37.5 -80.5
t25.5 -81.5t64.5 -57.5t86.5 -50t96.5 -50t89.5 -56t67.5 -61.5q54 -66 54 -142.5t-24 -124.5t-67 -81q-85 -64 -228 -64q-190 0 -304 72v244zM353 -577q-42 0 -42 38q0 19 23 30t39.5 18t29.5 20q33 31 33 85q-120 0 -155 91q-11 27 -11 56t11 56t31 47q44 46 111 46
q166 0 166 -222q0 -123 -86 -200q-73 -65 -150 -65z" />
    <glyph glyph-name="uni021A" unicode="&#x21a;" horiz-adv-x="1395" 
d="M954 1229l-134 -1h-19v-987q0 -110 61 -149q42 -26 165 -40v-36q0 -8 -2 -16h-662l-2 52q40 14 80.5 25t72.5 29q72 40 72 135v987h-146q-90 0 -138 -7t-77.5 -34.5t-54 -63.5t-46 -74.5t-44.5 -66.5h-46l25 326q255 -10 678 -10t596 12l32 -329h-48q-23 28 -43.5 66.5
t-44.5 74.5q-58 88 -120 98q-57 9 -155 9zM621 -577q-42 0 -42 38q0 19 23 30t39.5 18t29.5 20q33 31 33 85q-120 0 -155 91q-11 27 -11 56t11 56t31 47q44 46 111 46q166 0 166 -222q0 -123 -86 -200q-73 -65 -150 -65z" />
    <glyph glyph-name="uni021B" unicode="&#x21b;" horiz-adv-x="670" 
d="M348 1149q23 0 23 -39v-211h251v-84h-249v-501q0 -145 15.5 -176t42 -41.5t87.5 -10.5t127 22l8 -73q-107 -55 -203.5 -55t-143 17.5t-72.5 56.5q-48 71 -48 263v498h-149v44q133 54 215 170q24 34 45.5 68t31 43t19.5 9zM260 -577q-42 0 -42 38q0 19 23 30t39.5 18
t29.5 20q33 31 33 85q-120 0 -155 91q-11 27 -11 56t11 56t31 47q44 46 111 46q166 0 166 -222q0 -123 -86 -200q-73 -65 -150 -65z" />
    <glyph glyph-name="dotlessj" unicode="&#x237;" horiz-adv-x="540" 
d="M201 710q-29 45 -137 80q-21 7 -25 7v35l280 79l68 7v-793q0 -309 -215 -395q-69 -28 -158 -38l-15 58q61 28 99 52.5t60 59.5q35 59 43 226v622z" />
    <glyph glyph-name="circumflex" unicode="&#x2c6;" horiz-adv-x="1032" 
d="M786 1068q-24 0 -278 282q-254 -282 -278 -282q-17 0 -17 17q0 18 101.5 215t111.5 214q34 57 82 57q52 0 85 -64q5 -11 23 -45t41 -80l49 -97q97 -195 97 -206t-17 -11z" />
    <glyph glyph-name="caron" unicode="&#x2c7;" horiz-adv-x="1032" 
d="M226 1375q8 13 36 13q65 -34 201 -191q32 -37 53 -60q21 26 49.5 62t59.5 73q75 88 120 116q28 0 36 -13q-39 -98 -104 -209.5t-89 -156.5q-76 -20 -137 -20q-54 43 -166 262q-38 74 -59 124z" />
    <glyph glyph-name="breve" unicode="&#x2d8;" horiz-adv-x="691" 
d="M177 1282q52 -116 198.5 -116t179.5 116h58q0 -113 -65 -180t-183 -67t-180 65t-65 182h57z" />
    <glyph glyph-name="dotaccent" unicode="&#x2d9;" horiz-adv-x="691" 
d="M340 1274q46 0 70 -24q40 -40 40 -74t-8.5 -54t-23.5 -34q-33 -32 -78 -32q-44 0 -68 23q-41 39 -41 73.5t8.5 54.5t23.5 35q32 32 77 32z" />
    <glyph glyph-name="ring" unicode="&#x2da;" horiz-adv-x="691" 
d="M393 1411.5q-22 9.5 -47.5 9.5t-47 -9.5t-37.5 -25.5q-34 -36 -34 -83q0 -50 25 -75q44 -44 81.5 -44t59.5 9.5t38 26.5q35 36 35 83q0 46 -25.5 72.5t-47.5 36zM346 1494q80 0 138 -57q57 -55 57 -134t-57 -135q-57 -58 -138 -58q-82 0 -138.5 56.5t-56.5 136.5
q0 79 57 134q58 57 138 57z" />
    <glyph glyph-name="ogonek" unicode="&#x2db;" horiz-adv-x="691" 
d="M575 -314q-102 -57 -192 -57q-87 0 -147 47q-65 50 -65 136q0 88 61 145q51 48 143 66q-6 -24 -18 -42l-24 -36q-30 -45 -30 -90q0 -85 93 -111q27 -8 63.5 -8t104.5 30z" />
    <glyph glyph-name="tilde" unicode="&#x2dc;" horiz-adv-x="1121" 
d="M364 1237q-61 0 -79 -106h-38q6 233 160 233q61 0 134.5 -38t110.5 -55t67 -17q66 0 86 108h38q-2 -120 -44 -180.5t-117 -60.5q-61 0 -137.5 40t-114 58t-66.5 18z" />
    <glyph glyph-name="hungarumlaut" unicode="&#x2dd;" horiz-adv-x="968" 
d="M941 1367q-18 -44 -120 -185q-135 -188 -151 -201q-24 0 -34 16q3 18 44.5 136t58.5 161q40 102 51 115q69 0 151 -42zM637 1366q-27 -54 -131 -187q-143 -183 -162 -198q-22 0 -32 14q10 58 71 198q85 192 103 216q78 0 151 -43z" />
    <glyph glyph-name="dotaccentcmb" unicode="&#x307;" horiz-adv-x="691" 
d="M345 900q46 0 69 -24q41 -40 41 -74t-8.5 -54t-23.5 -34q-33 -32 -78 -32q-44 0 -68 23q-41 39 -41 73.5t8.5 54.5t23.5 35q32 32 77 32z" />
    <glyph glyph-name="uni030F" unicode="&#x30f;" horiz-adv-x="968" 
d="M701 970q-11 -14 -32 -14q-36 29 -141 171q-135 184 -152 214q73 43 151 43q36 -48 93 -193q77 -195 81 -221zM72 1342q82 42 151 42q35 -40 143 -374q10 -31 11 -38q-10 -16 -34 -16q-55 47 -246 343q-20 31 -25 43z" />
    <glyph glyph-name="uni0311" unicode="&#x311;" horiz-adv-x="691" 
d="M509 997q-33 116 -179.5 116t-198.5 -116h-57q3 117 65 182t182 65q175 0 229 -144q17 -46 17 -103h-58z" />
    <glyph glyph-name="uni0326" unicode="&#x326;" horiz-adv-x="734" 
d="M290 -577q-42 0 -42 38q0 19 23 30t39.5 18t29.5 20q33 31 33 85q-120 0 -155 91q-11 27 -11 56t11 56t31 47q44 46 111 46q166 0 166 -222q0 -123 -86 -200q-73 -65 -150 -65z" />
    <glyph glyph-name="endash" unicode="&#x2013;" horiz-adv-x="929" 
d="M889 453q-63 -18 -179 -18h-612q-39 0 -54 47q-4 12 -4 23q81 20 228 20h563q58 -22 58 -72z" />
    <glyph glyph-name="emdash" unicode="&#x2014;" horiz-adv-x="1649" 
d="M1608 455q-117 -20 -354 -20h-1156q-37 0 -54 45q-4 12 -4 23q129 22 353 22h1159q56 -19 56 -70z" />
    <glyph glyph-name="quoteleft" unicode="&#x2018;" horiz-adv-x="544" 
d="M382 1327q28 -23 36 -56q-32 -18 -63.5 -34t-57.5 -37q-58 -45 -58 -112q31 -44 86 -53q105 -20 105 -113q0 -88 -82 -120q-26 -10 -62 -10t-69 15t-57 43q-50 57 -50 129.5t18 126.5t53 99q77 99 201 122z" />
    <glyph glyph-name="quoteright" unicode="&#x2019;" horiz-adv-x="544" 
d="M165 793q-28 26 -36 57q32 18 64 34t57 36q58 45 58 113q-30 43 -86 52q-105 18 -105 114q0 87 83 119q25 10 61 10t69.5 -15t57.5 -42q49 -57 49 -129.5t-18 -126.5t-53 -99q-77 -100 -201 -123z" />
    <glyph glyph-name="quotesinglbase" unicode="&#x201a;" horiz-adv-x="572" 
d="M159 -179q29 16 60.5 32t58.5 37q60 46 60 114q-21 30 -58.5 43.5t-58.5 20t-37 18.5q-37 25 -37 69.5t11 68.5t30 41q41 35 92 35t84.5 -17t56.5 -45q46 -58 46 -131t-20.5 -128t-56.5 -99q-78 -95 -195 -115z" />
    <glyph glyph-name="quotedblleft" unicode="&#x201c;" horiz-adv-x="962" 
d="M379 1327q28 -23 36 -56q-32 -18 -64 -34t-57 -37q-58 -46 -58 -112q27 -42 86 -53q105 -20 105 -113q0 -88 -83 -120q-26 -10 -62 -10t-69 15t-57 43q-49 57 -49 129.5t18 126.5t53 99q77 99 201 122zM804 1327q28 -23 36 -56q-32 -18 -64 -34t-58 -37q-57 -46 -57 -112
q27 -42 86 -53q104 -18 104 -113q0 -88 -82 -120q-26 -10 -61.5 -10t-68.5 15t-57 43q-50 57 -50 129.5t18 126.5t53 99q77 99 201 122z" />
    <glyph glyph-name="quotedblright" unicode="&#x201d;" horiz-adv-x="968" 
d="M162 793q-30 27 -37 57q32 18 64 34t58 36q58 45 58 113q-30 43 -87 52q-104 18 -104 114q0 87 82 119q26 10 61.5 10t69 -15t57.5 -42q50 -56 50 -129t-18.5 -127t-53.5 -99q-75 -99 -200 -123zM593 793q-28 26 -36 57q31 18 63 34t58 36q58 46 58 113q-30 43 -86 52
q-104 18 -104 114q0 87 82 119q25 10 61 10t69 -15t57 -42q50 -56 50 -129t-18.5 -127t-52.5 -99q-76 -99 -201 -123z" />
    <glyph glyph-name="quotedblbase" unicode="&#x201e;" horiz-adv-x="889" 
d="M99 -179q29 16 60.5 32t58.5 37q60 46 60 114q-21 30 -58.5 43.5t-58.5 20t-37 18.5q-37 25 -37 69.5t11 68.5t30 41q41 35 92 35t84.5 -17t56.5 -45q46 -58 46 -131t-20.5 -128t-56.5 -99q-78 -95 -195 -115zM490 -179q29 16 60.5 32t57.5 37q61 46 61 114
q-21 30 -58.5 43.5t-58.5 20t-38 18.5q-36 25 -36 69.5t11 68.5t31 41q40 35 91 35t84.5 -17t56.5 -45q46 -58 46 -131t-20.5 -128t-56.5 -99q-78 -95 -195 -115z" />
    <glyph glyph-name="dagger" unicode="&#x2020;" horiz-adv-x="1051" 
d="M372 1290q0 22 52 22h196q52 0 52 -22q0 -3 -6.5 -9.5t-14.5 -16.5q-22 -25 -25 -57l-50 -406l323 45q17 1 20 26q3 24 19 24q49 0 49 -114v-50q0 -114 -48 -114q-17 0 -21 24q-4 25 -20 28l-322 44l57 -832q2 -36 36 -74q6 -6 6 -11.5t-6.5 -10t-14.5 -6.5
q-16 -5 -29 -5h-205q-27 0 -38.5 8t-11.5 13.5t6 11.5t14 16q19 26 22 58l56 832l-317 -45q-14 -2 -17 -19.5t-6 -25t-16 -7.5q-45 0 -45 83l-4 83q0 113 50 113q12 0 14.5 -7.5t4.5 -16.5q4 -25 19 -26l317 -45l-50 406q-6 36 -26 58t-20 25z" />
    <glyph glyph-name="bullet" unicode="&#x2022;" horiz-adv-x="736" 
d="M366 852q58 0 106.5 -23t83.5 -61q72 -81 72 -195q0 -106 -69 -181q-72 -77 -187 -77q-116 0 -192 83q-71 79 -71 191q0 109 69 184q74 79 188 79z" />
    <glyph glyph-name="ellipsis" unicode="&#x2026;" horiz-adv-x="1808" 
d="M249.5 240q24.5 11 53 11t54 -11t43.5 -30q41 -40 41 -94q0 -53 -41 -95q-39 -41 -82.5 -41t-68 11t-43.5 29q-40 39 -40 81t10.5 66.5t29.5 43t43.5 29.5zM851.5 240q24.5 11 53 11t54 -11t43.5 -30q41 -40 41 -94q0 -53 -41 -95q-39 -41 -82.5 -41t-68 11t-43.5 29
q-40 39 -40 81t10.5 66.5t29.5 43t43.5 29.5zM1506 251q56 0 98 -41q40 -38 40 -94q0 -55 -40 -95q-41 -41 -98 -41q-55 0 -97 40q-40 39 -40 81t10.5 66.5t29.5 42.5q42 41 97 41z" />
    <glyph glyph-name="guilsinglleft" unicode="&#x2039;" horiz-adv-x="539" 
d="M452 110q-19 -22 -41 -22q-29 18 -61 61l-294 383l300 378q14 17 27 34t23 28q36 0 54 -26q-12 -32 -33 -74l-189 -340l184 -347q21 -38 30 -75z" />
    <glyph glyph-name="guilsinglright" unicode="&#x203a;" horiz-adv-x="539" 
d="M87 110q31 115 157 324q32 52 56 98q-24 43 -56 94.5t-64 105.5q-74 127 -101 214q17 26 53 26q95 -101 201 -243.5t149 -196.5l-287 -375q-40 -50 -67 -69q-23 0 -41 22z" />
    <glyph glyph-name="Euro" unicode="&#x20ac;" horiz-adv-x="1179" 
d="M105 699q-49 19 -49 58q0 20 19.5 26t70.5 6h47q39 216 161 350q135 150 340 150q158 0 316 -112q41 -116 68 -237h-124q-86 273 -279 273q-114 0 -190 -113t-96 -311h183q172 0 290 -22q-4 -25 -18 -40t-53 -28h-408v-41q0 -45 3 -88h176q171 0 276 -21
q-3 -26 -17.5 -41t-53.5 -28h-372q43 -292 197 -385q53 -32 110 -32t98 16.5t74 42.5q64 51 94 119l116 -32q-68 -147 -247 -209q-63 -21 -152.5 -21t-175 38t-149.5 105q-132 135 -167 358h-52q-45 0 -65 3.5t-29 17.5q4 49 66 69h68q-2 22 -2 44v38v26q0 10 2 21h-76z" />
    <glyph glyph-name="trademark" unicode="&#x2122;" horiz-adv-x="1936" 
d="M1751 1136l-3 -275q0 -165 14 -254q6 -39 84 -47q19 -2 33 -8l-1 -24h-389l-1 24q35 15 58.5 17t37.5 8q25 11 25 93v501l-285 -643h-33l-292 604h-4v-449q0 -88 29 -105q15 -9 39 -11.5t58 -14.5l-1 -24h-302l-1 24q30 12 61 17.5t40 9.5t15 15q10 20 10 91v461
q0 78 -17.5 87.5t-41 12.5t-61.5 18l1 25h257l275 -570l249 570h265l1 -25q-37 -14 -60 -16.5t-37 -9.5q-23 -14 -23 -102zM328 1241l-68 1q-72 0 -121 -39.5t-70 -106.5l-23 1l20 204l91 -11h505l82 11l24 -204l-23 -1q-24 45 -37.5 73.5t-31.5 44.5q-31 27 -131 27h-64
v-558q0 -98 24 -106q9 -3 22 -5q41 -4 71 -20l-1 -24h-386v24q31 19 56 21t34.5 4.5t14.5 12.5q12 21 12 94v557z" />
    <glyph glyph-name="minus" unicode="&#x2212;" horiz-adv-x="1145" 
d="M1011 523q-77 -18 -208 -18h-611q-57 36 -57 110q47 20 154 20h664q58 -37 58 -112z" />
    <glyph glyph-name="uniFB00" unicode="&#xfb00;" horiz-adv-x="1240" 
d="M1181 1217q0 39 -74 39q-61 0 -85 -51q-31 -66 -31 -258v-79h211v-59h-211v-699q0 -47 89 -59q58 -8 73.5 -15t15.5 -15.5t-4 -20.5h-536q-4 12 -4 20.5t12 14.5t29.5 9.5t38.5 6.5t39 9q41 14 41 50v699h-374v-699q0 -47 89 -59q58 -8 73.5 -15t15.5 -15.5t-4 -20.5
h-536q-4 12 -4 20.5t12 14.5t29.5 9.5t38.5 6.5t39 9q41 14 41 50v699h-143v59h143v97q0 177 127 263q100 69 244 69q151 0 239 -48q31 -17 46 -41q82 89 235 89q175 0 236 -71q22 -25 22 -63t-24 -66.5t-72.5 -28.5t-69.5 24t-21 51t7 43.5t7 30.5zM785 965q0 60 10 104
q-5 -1 -11 -1h-10q-45 0 -66 24t-21 51t7 43.5t7 29t-11 20t-28 12.5q-32 8 -67 8t-65.5 -9.5t-57.5 -41.5q-61 -74 -61 -258v-79h374v97z" />
    <glyph glyph-name="uniFB01" unicode="&#xfb01;" horiz-adv-x="1219" 
d="M789.5 1056q-9.5 22 -9.5 51t14 55q-5 60 -82 84q-33 10 -77.5 10t-83 -9.5t-69.5 -41.5q-71 -73 -71 -258v-79h614v-748q0 -54 89 -68q60 -9 74.5 -15.5t14.5 -18t-4 -18.5h-561q-4 11 -4 21t13.5 17t34.5 11.5t44.5 8t44.5 10.5q48 18 48 58v683h-408v-699
q0 -47 89 -59q58 -8 73.5 -15t15.5 -15.5t-4 -20.5h-536q-4 12 -4 20.5t12 14.5t29.5 9.5t38.5 6.5t39 9q41 14 41 50v699h-143v59h143v97q0 180 131 263q106 69 280 69q304 0 387 -115q22 -31 22 -65.5t-9.5 -57.5t-25.5 -40q-35 -36 -75 -36t-62 9.5t-38 25.5t-25.5 38z
" />
    <glyph glyph-name="uniFB02" unicode="&#xfb02;" horiz-adv-x="1219" 
d="M638 0q-4 12 -4 21.5t13.5 16.5t34 11t44.5 8t44 11q48 16 48 58l-1 683h-406v-699q0 -47 89 -59q58 -8 73.5 -15t15.5 -15.5t-4 -20.5h-536q-4 12 -4 20.5t12 14.5t29.5 9.5t38.5 6.5t39 9q41 14 41 50v699h-143v59h143v97q0 180 131 263q106 69 280 69q374 0 405 -131
q5 -22 5 -43l-1 -501v-502q0 -47 89 -64q62 -13 75.5 -19.5t13.5 -18t-4 -18.5h-561zM817 1016l4 112q0 68 -27 89q-48 39 -167 39q-96 0 -145 -51q-71 -73 -71 -258v-79h406v148z" />
    <glyph glyph-name="uniFB03" unicode="&#xfb03;" horiz-adv-x="1804" 
d="M897 1212q106 85 304 85q304 0 387 -115q22 -31 22 -65.5t-9.5 -57.5t-26.5 -40q-34 -36 -74 -36t-62 9.5t-38 25.5q-35 35 -35 76.5t14 67.5q-5 60 -83 84q-32 10 -76.5 10t-83 -9.5t-69.5 -41.5q-71 -73 -71 -258v-79h614v-748q0 -54 89 -68q60 -9 74.5 -15.5t14.5 -18
t-4 -18.5h-561q-4 11 -4 21t13.5 17t34.5 11.5t44.5 8t44.5 10.5q48 18 48 58v683h-408v-699q0 -47 89 -59q58 -8 73.5 -15t15.5 -15.5t-4 -20.5h-536q-4 12 -4 20.5t12 14.5t29.5 9.5t38.5 6.5t38 9q42 14 42 50v699h-379v-699q0 -47 89 -59q58 -8 73.5 -15t15.5 -15.5
t-4 -20.5h-536q-4 12 -4 20.5t12 14.5t29.5 9.5t38.5 6.5t39 9q41 14 41 50v699h-143v59h143v97q0 224 229 303q81 29 146.5 29t110 -4.5t84.5 -14.5q90 -22 122 -66zM790 965q0 60 13 103q-38 4 -57 27t-19 49t7 42.5t7 29t-13 20t-32 12.5q-34 8 -70 8t-71.5 -9.5
t-67.5 -41.5q-76 -76 -76 -258v-79h379v97z" />
    <glyph glyph-name="uniFB04" unicode="&#xfb04;" horiz-adv-x="1805" 
d="M1224 0q-4 12 -4 22q0 23 70 32q68 8 91 26t23 46l-1 683h-406v-699q0 -47 89 -59q58 -8 73.5 -15t15.5 -15.5t-4 -20.5h-536q-4 12 -4 20.5t12 14.5t29.5 9.5t38.5 6.5t39 9q41 14 41 50v699h-380v-699q0 -47 89 -59q58 -8 73.5 -15t15.5 -15.5t-4 -20.5h-536
q-4 12 -4 20.5t12 14.5t29.5 9.5t38.5 6.5t39 9q41 14 41 50v699h-143v59h143v97q0 224 229 303q81 29 146.5 29t110 -4.5t84.5 -14.5q91 -24 123 -67q108 86 304 86q304 0 387 -115q22 -31 22 -73v-989q0 -54 89 -68q60 -9 74.5 -15.5t14.5 -18t-4 -18.5h-561zM1403 1016
l12 140q0 52 -29 69q-55 31 -173 31q-96 0 -145 -51q-71 -73 -71 -258v-79h406v148zM791 965q0 60 13 103q-39 3 -58 26.5t-19 49.5t7 42.5t7 29t-13 20t-32 12.5q-34 8 -70 8t-71.5 -9.5t-67.5 -41.5q-76 -76 -76 -258v-79h380v97z" />
    <glyph glyph-name="st" unicode="&#xfb06;" horiz-adv-x="0" 
 />
    <glyph glyph-name="periodcentered" horiz-adv-x="498" 
d="M96 754q0 29 12 56t32 48q46 45 109 45t109 -45q44 -45 44 -103q0 -56 -44 -102q-45 -46 -109 -46q-63 0 -108 43q-45 44 -45 104z" />
    <glyph glyph-name="onesuperior" horiz-adv-x="610" 
d="M394 1278l-3 -91v-700q0 -51 79 -55q51 -3 64.5 -8t13.5 -14.5t-4 -17.5h-466q-3 12 -3 13q0 17 28 22t48 7.5t37 8.5q39 14 39 48v612q0 45 -77 59q-49 8 -62.5 14t-13.5 14.5t4 15.5l310 85q6 0 6 -13z" />
    <glyph glyph-name="mu" horiz-adv-x="1325" 
d="M883 136q-133 -153 -308 -153q-121 0 -195 107q-22 32 -40 69q11 -50 25 -102.5t26 -106.5q29 -129 29 -179.5t-1.5 -68.5t-8.5 -32q-14 -33 -54 -33t-62 25t-32 60q-14 46 -14 143v856q0 52 -86 71q-55 12 -70 20t-15 16.5t3 20.5q94 5 187 14.5t187 16.5v-492
q0 -322 161 -322q79 0 149 39.5t116 102.5v516q0 50 -87 67.5t-87 42.5q0 7 3 15q94 2 188.5 13t188.5 18v-738q0 -50 88 -61t88 -31q0 -10 -5 -18l-354 -50z" />
    <glyph glyph-name="twosuperior" horiz-adv-x="766" 
d="M95 1151q-13 5 -13 13.5t3 17.5q55 82 187 108q36 8 82.5 8t100.5 -14t95 -44q89 -65 89 -190q0 -137 -155 -313q-59 -67 -140 -148t-113 -120l262 23q79 7 98 87q13 54 20.5 66.5t17.5 12.5t19 -3l-17 -272l-14 -1l-345 1h-86t-86 -1l-11 40q31 43 70.5 91t80.5 98.5
t80.5 104t69.5 108.5q68 122 68 224q0 121 -70 164q-25 15 -62.5 15t-66 -8.5t-54.5 -20.5t-52.5 -25t-57.5 -22z" />
    <glyph glyph-name="threesuperior" horiz-adv-x="762" 
d="M162 1149q-13 0 -13 19q0 3 3 12q54 80 177 106q35 8 71.5 8t74 -11t65.5 -33q62 -49 62 -132q0 -82 -59 -139q-56 -54 -139 -62q125 0 202 -77t77 -200q0 -128 -115 -203q-99 -65 -233 -65q-165 0 -240 75q-29 29 -29 67.5t23 62t45.5 23.5t34.5 -5.5t21 -14.5
q22 -22 22 -43t-7.5 -36t-7.5 -30q0 -38 89 -53q20 -4 49.5 -4t67 18t63.5 48q52 63 52 157q0 155 -102 207q-35 19 -76 19t-82 -9l-34 38q111 55 155 86q105 72 105 139q0 107 -105 107q-47 0 -92.5 -26t-71 -37.5t-53.5 -11.5z" />
    <glyph glyph-name="foursuperior" horiz-adv-x="862" 
d="M759 409.5q0 -10.5 -3 -16.5h-462q-2 2 -2 11t11 15.5t27.5 10t35.5 6t36 6.5q38 11 38 42v126h-380l-11 66l383 625l70 6q29 2 57 4.5t45 2.5v-612h99q79 0 79 -43q0 -15 -19 -49h-159v-130q0 -39 78 -47q51 -5 64 -9t13 -14.5zM440 1184l-286 -488h286v488z" />
    <glyph glyph-name="commaaccent" horiz-adv-x="734" 
d="M290 -577q-42 0 -42 38q0 19 23 30t39.5 18t29.5 20q33 31 33 85q-120 0 -155 91q-11 27 -11 56t11 56t31 47q44 46 111 46q166 0 166 -222q0 -123 -86 -200q-73 -65 -150 -65z" />
    <glyph glyph-name="foundryicon" horiz-adv-x="1251" 
d="M960.5 210q14.5 -52 14.5 -95t-33 -43q-21 0 -67 56t-77.5 95.5t-64.5 72.5q-77 79 -129 79h-12q-34 -29 -82.5 -68t-88 -71t-73.5 -59q-76 -62 -81 -62q-35 0 -35 26q0 44 39 141.5t53 133.5q32 81 32 95.5t-14 31t-36 38.5t-48.5 46.5t-51.5 46.5q-75 68 -98 80.5
t-42 25.5q-48 30 -48 60t46.5 30t103 -10t111.5 -12l190 -8l94 235q6 15 16 42t23 53q32 65 64 65q25 0 44 -31q5 -9 5 -33.5t6.5 -67.5t16.5 -86t21 -85.5t20 -83.5q61 -6 201 -6l135 7q110 0 110 -42q0 -9 -45.5 -38.5t-64.5 -45t-47 -45t-56 -58.5q-69 -68 -131 -98
q0 -72 32.5 -166t47 -146z" />
    <glyph glyph-name="gcedilla" horiz-adv-x="999" 
d="M509 1502q42 0 42 -38q0 -19 -23 -30t-39.5 -18t-30.5 -20q-32 -31 -32 -85q120 0 156 -91q10 -27 10 -56.5t-11 -56t-31 -47.5q-44 -45 -111 -45q-166 0 -166 222q0 123 87 201q72 64 149 64zM303 15q-97 -81 -97 -152q0 -109 214 -129q27 -2 62.5 -2t94 8.5t109.5 27.5
q117 43 117 114q0 115 -243 119l-79 1q-68 2 -178 13zM288 632q0 -52 11 -99t35 -83q50 -76 143 -76q120 0 151 133q9 41 9 96.5t-14.5 103t-40.5 79.5q-51 66 -133 66q-69 0 -115 -60q-46 -62 -46 -160zM479 926q96 0 198 -53l74 9q80 10 115 10q45 0 75 -4l-15 -127
q-52 13 -116 27l-77 15q57 -76 68 -113t11 -90t-31 -112.5t-81 -99.5q-102 -80 -242 -80q-50 0 -128 18q-12 -9 -24.5 -16t-23.5 -16q-23 -20 -23 -48.5t26.5 -40.5t77.5 -17t124.5 -7.5t151 -8.5t129.5 -22t90 -44q81 -58 81 -158q0 -136 -148 -220q-140 -79 -349 -79
q-168 0 -272 54q-94 48 -94 113q0 97 153 208q-119 50 -119 139q0 78 99 147q30 21 66 42q-165 95 -165 261q0 137 98 225q97 88 271 88z" />
    <glyph glyph-name="Gcedilla" horiz-adv-x="1579" 
d="M1552 684l2 -52q-31 -12 -61 -22.5t-54 -27.5q-53 -38 -53 -119v-368q-233 -121 -516 -121q-343 0 -550 182q-208 183 -208 482q0 202 110 364q104 151 288 239q182 86 397 86q214 0 439 -80l30 -302q-32 -3 -58 -3q-20 17 -41 58q-45 86 -57 100q-128 150 -339 150
q-231 0 -380.5 -164.5t-149.5 -410.5q0 -266 149 -439q149 -174 387 -174q162 0 267 65q12 102 12 201q0 147 -28 225q-15 41 -84 56q-27 6 -55.5 10t-48.5 13v26q0 14 2 26h600zM800 -577q-42 0 -42 38q0 19 23 30t39.5 18t29.5 20q33 31 33 85q-120 0 -155 91
q-11 27 -11 56t11 56t31 47q44 46 111 46q166 0 166 -222q0 -123 -86 -200q-73 -65 -150 -65z" />
    <glyph glyph-name="Ldotaccent" horiz-adv-x="1273" 
d="M1220 -11q-121 11 -219 11h-953l-2 54q41 14 82.5 23.5t74.5 26.5q74 38 74 136v794q0 103 -17.5 131.5t-36 38.5t-44 16t-58.5 12t-74 19l2 51h676v-52q-42 -18 -98 -27.5t-75.5 -17t-32.5 -25.5q-26 -36 -26 -140v-728q0 -87 11 -135.5t48 -71t106 -27t150 -4.5
t125.5 4.5t84.5 19.5q85 32 131 119q17 32 32.5 66t41.5 61l60 -2zM864 754q0 29 12 56t32 48q46 45 109 45t109 -45q44 -45 44 -103q0 -56 -44 -102q-45 -46 -109 -46q-63 0 -108 43q-45 44 -45 104z" />
    <glyph glyph-name="c_k" horiz-adv-x="2041" 
d="M944 0q-3 9 -3 16t13 14t32 12.5t41.5 11t41.5 14.5q45 20 45 52v1105h-64q-163 0 -218 -116q-19 -40 -19 -89.5t12.5 -91.5t26.5 -81q40 -106 40 -134.5t-9 -47t-24 -32.5q-31 -29 -73 -29t-66.5 23.5t-24.5 55t10 51t10 41t-13 35.5t-32 22q-32 14 -93 14t-118 -32.5
t-95 -85.5q-76 -106 -76 -256q0 -259 154 -346q56 -31 116.5 -31t99 5.5t74.5 12.5q93 18 117 18q13 0 13 -13t-2.5 -19t-3.5 -9q-114 -107 -320 -107q-203 0 -329 128q-125 127 -125 331q0 210 148 338q141 122 353 122q104 0 185 -36q-50 124 -50 208t30.5 131.5
t79.5 74.5q88 49 211.5 49t280.5 -31v-823h62l350 303l2 11q0 24 -20 31.5t-44.5 9.5t-44.5 5.5t-20 19.5q0 4 3 13h394q3 -9 3 -15.5t-24 -16t-55 -19.5q-88 -28 -106 -43l-296 -252l334 -428q13 -16 70 -33q106 -33 106 -48q0 -4 -3 -13h-495l-5 12q0 21 58.5 26.5
t58.5 35.5q0 8 -45 66t-77 99.5t-62 78.5q-72 93 -79 102h-65v-304q0 -50 76 -65t76 -37q0 -2 -4 -14h-524z" />
    </font>
</defs>
</svg>
