<?xml version="1.0" standalone="no"?>
<!DOCTYPE svg PUBLIC "-//W3C//DTD SVG 1.1//EN" "http://www.w3.org/Graphics/SVG/1.1/DTD/svg11.dtd" >
<svg xmlns="http://www.w3.org/2000/svg" xmlns:xlink="http://www.w3.org/1999/xlink" version="1.1">
<metadata>
Created by FontForge 20161013 at Fri Jul 15 19:23:51 2011
 By ,,,
Copyright (c) 2011 by vernon adams. All rights reserved.
</metadata>
<defs>
<font id="Rokkitt" horiz-adv-x="0" >
  <font-face 
    font-family="Rokkitt"
    font-weight="400"
    font-stretch="normal"
    units-per-em="2048"
    panose-1="2 0 5 3 5 0 0 2 0 3"
    ascent="1638"
    descent="-410"
    x-height="805"
    cap-height="1153"
    bbox="-82 -594 1832 1552"
    underline-thickness="102"
    underline-position="-307"
    unicode-range="U+0001-2122"
  />
<missing-glyph horiz-adv-x="748" 
d="M68 0v1365h544v-1365h-544zM136 68h408v1229h-408v-1229z" />
    <glyph glyph-name=".notdef" horiz-adv-x="748" 
d="M68 0v1365h544v-1365h-544zM136 68h408v1229h-408v-1229z" />
    <glyph glyph-name=".null" 
 />
    <glyph glyph-name="nonmarkingreturn" 
 />
    <glyph glyph-name="uni0001" 
 />
    <glyph glyph-name="uni0002" 
 />
    <glyph glyph-name="uni0003" 
 />
    <glyph glyph-name="uni0004" 
 />
    <glyph glyph-name="uni0005" 
 />
    <glyph glyph-name="uni0006" 
 />
    <glyph glyph-name="uni0007" 
 />
    <glyph glyph-name="uni0008" 
 />
    <glyph glyph-name="uni0009" unicode="&#x9;" 
 />
    <glyph glyph-name="uni0010" 
 />
    <glyph glyph-name="uni0011" 
 />
    <glyph glyph-name="uni0012" 
 />
    <glyph glyph-name="uni0013" 
 />
    <glyph glyph-name="uni0014" 
 />
    <glyph glyph-name="uni0015" 
 />
    <glyph glyph-name="uni0016" 
 />
    <glyph glyph-name="uni0017" 
 />
    <glyph glyph-name="uni0018" 
 />
    <glyph glyph-name="uni0019" 
 />
    <glyph glyph-name="space" unicode=" " horiz-adv-x="430" 
 />
    <glyph glyph-name="exclam" unicode="!" horiz-adv-x="466" 
d="M147 821v350h172v-350l-42 -497h-88zM127 212h212v-212h-212v212z" />
    <glyph glyph-name="quotedbl" unicode="&#x22;" horiz-adv-x="665" 
d="M557 756h-130l-45 415h217zM234 756h-130l-45 415h217z" />
    <glyph glyph-name="numbersign" unicode="#" horiz-adv-x="1186" 
d="M236 0l32 333h-178l12 109h182l33 291h-207l12 111h211l34 327h123l-34 -327h325l38 327h123l-37 -327h197l-12 -111h-201l-29 -291h222l-12 -109h-226l-35 -333h-121l31 333h-327l-35 -333h-121zM408 442h327l30 291h-326z" />
    <glyph glyph-name="dollar" unicode="$" horiz-adv-x="940" 
d="M411 -4q-99 22 -180 91v-87h-135v387h135v-116q39 -54 82.5 -87.5t97.5 -50.5v399q-66 15 -125 38t-103 60.5t-69.5 93t-25.5 135.5q0 72 24.5 127.5t68 94.5t102.5 61t128 27v136h131v-144q94 -23 171 -82v74h135v-327h-135v82q-35 48 -76 78t-95 41v-365
q71 -15 137.5 -41t117.5 -68t82 -102.5t31 -144.5q0 -68 -26.5 -126t-75 -101t-116.5 -68.5t-150 -27.5v-126h-131v139zM745 304q0 42 -15 73t-42 54t-64 39t-82 29v-382q46 3 84 18t64 40t40.5 58t14.5 71zM244 867q0 -38 12.5 -65t35 -47.5t53 -34.5t66.5 -25v335
q-85 -13 -126 -57.5t-41 -105.5z" />
    <glyph glyph-name="percent" unicode="%" horiz-adv-x="1579" 
d="M586 863q0 -82 -22.5 -140t-59 -95t-83 -54t-95.5 -17t-95.5 17t-83 54t-59 95t-22.5 140t22.5 140t59 95t83 54.5t95.5 17.5t95.5 -17.5t83 -54.5t59 -95t22.5 -140zM447 863q0 56 -10.5 94.5t-27.5 62.5t-39 34.5t-44 10.5q-23 0 -44.5 -10.5t-38.5 -34.5t-27.5 -62.5
t-10.5 -94.5t10.5 -94.5t27.5 -62.5t38.5 -35t44.5 -11q22 0 44 11t39 35t27.5 62.5t10.5 94.5zM1223 1196l61 -50l-943 -1196l-68 50zM1519 287q0 -82 -22.5 -140t-59 -95t-83 -54t-95.5 -17t-95.5 17t-83 54t-59 95t-22.5 140t22.5 140t59 95t83 54.5t95.5 17.5
t95.5 -17.5t83 -54.5t59 -95t22.5 -140zM1380 287q0 56 -10.5 94.5t-27.5 62.5t-39 34.5t-44 10.5q-23 0 -44.5 -10.5t-38.5 -34.5t-27.5 -62.5t-10.5 -94.5t10.5 -94.5t27.5 -62.5t38.5 -35t44.5 -11q22 0 44 11t39 35t27.5 62.5t10.5 94.5z" />
    <glyph glyph-name="ampersand" unicode="&#x26;" horiz-adv-x="1201" 
d="M797 115q-81 -69 -159.5 -101.5t-166.5 -32.5q-89 0 -165 26.5t-131.5 72.5t-87 109t-31.5 136q0 121 77.5 205.5t228.5 139.5q-55 70 -86 129.5t-31 121.5q0 52 22.5 97.5t61.5 79t91.5 53t112.5 19.5q59 0 110 -18.5t89 -51t59.5 -76t21.5 -94.5q0 -49 -13.5 -92
t-43 -81.5t-76.5 -72t-114 -63.5l240 -289q38 52 64.5 113.5t42.5 137.5h230v-127h-129q-26 -79 -56 -134t-72 -99l73 -98h184v-125h-260zM438 573q-228 -80 -228 -238q0 -43 20.5 -82.5t57 -69.5t87.5 -48t112 -18q64 0 121.5 24t111.5 78zM494 720q94 49 139.5 97.5
t45.5 114.5q0 54 -41.5 83.5t-104.5 29.5q-66 0 -107 -30t-41 -87q0 -42 27.5 -89t81.5 -119z" />
    <glyph glyph-name="quotesingle" unicode="'" horiz-adv-x="337" 
d="M242 756h-130l-45 415h217z" />
    <glyph glyph-name="parenleft" unicode="(" horiz-adv-x="522" 
d="M34 517q0 129 35 232t95 183t140.5 137.5t171.5 95.5v-128q-57 -34 -108 -80t-89.5 -108.5t-61 -144t-22.5 -187.5t22.5 -187.5t61 -144t89.5 -108t108 -78.5v-131q-91 37 -171.5 95t-140.5 138.5t-95 184t-35 231.5z" />
    <glyph glyph-name="parenright" unicode=")" horiz-adv-x="522" 
d="M476 517q0 -128 -35 -231.5t-95 -184t-140.5 -138.5t-171.5 -95v131q57 33 108 78.5t89.5 108t61 144t22.5 187.5t-22.5 187.5t-61 144t-89.5 108.5t-108 80v128q91 -38 171.5 -95.5t140.5 -137.5t95 -183t35 -232z" />
    <glyph glyph-name="asterisk" unicode="*" horiz-adv-x="916" 
d="M282 351l-141 99l96 132l174 147l-228 14l-151 54l50 163l155 -51l200 -126l-58 230v158h169v-158l-60 -230l200 126l156 51l50 -163l-150 -54l-229 -14l173 -147l95 -132l-139 -99l-96 132l-85 215l-84 -215z" />
    <glyph glyph-name="plus" unicode="+" horiz-adv-x="1047" 
d="M990 602v-117h-405v-392h-124v392h-404v117h404v392h124v-392h405z" />
    <glyph glyph-name="comma" unicode="," horiz-adv-x="414" 
d="M86 211h227v-211q0 -57 -11.5 -101.5t-38 -74.5t-70 -45.5t-107.5 -15.5v87q34 7 57 17.5t37 28t20.5 43t6.5 61.5h-121v211z" />
    <glyph glyph-name="hyphen" unicode="-" horiz-adv-x="719" 
d="M101 484h517v-144h-517v144z" />
    <glyph glyph-name="period" unicode="." horiz-adv-x="414" 
d="M86 211h227v-211h-227v211z" />
    <glyph glyph-name="slash" unicode="/" horiz-adv-x="793" 
d="M692 1171l-434 -1189h-129l434 1189h129z" />
    <glyph glyph-name="zero" unicode="0" horiz-adv-x="1004" 
d="M502 -19q-107 0 -185 43t-129 121t-76 188t-25 244q0 133 25 242.5t76 187.5t129 121t185 43q106 0 184.5 -43t129.5 -121t76 -187.5t25 -242.5q0 -134 -25 -244t-76 -188t-129.5 -121t-184.5 -43zM501 101q67 0 116.5 27.5t82 85.5t48 148t15.5 215q0 246 -63 360
t-199 114q-74 0 -124 -33t-80 -94.5t-43 -149.5t-13 -197q0 -112 13 -200t43 -149.5t80 -94t124 -32.5z" />
    <glyph glyph-name="one" unicode="1" horiz-adv-x="584" 
d="M65 125h166v901h-174v127h323v-1028h154v-125h-469v125z" />
    <glyph glyph-name="two" unicode="2" horiz-adv-x="936" 
d="M700 378h127v-378h-761q-3 27 -3 52q0 83 26 150t68.5 122.5t96.5 102t110.5 88t110.5 80t96.5 79t68.5 84.5t26 97q0 85 -52 132.5t-161 47.5q-60 0 -100.5 -16.5t-66 -52t-36.5 -90.5t-11 -132h-144q0 219 89.5 322.5t267.5 103.5q108 0 181 -29t117.5 -74.5t63 -101
t18.5 -107.5q0 -66 -23.5 -120t-62 -100t-88.5 -86.5t-104 -78t-107 -74.5t-97.5 -77.5t-77 -86t-44.5 -99.5h472v242z" />
    <glyph glyph-name="three" unicode="3" horiz-adv-x="953" 
d="M198 350q10 -112 73 -172.5t172 -60.5q66 0 115.5 15t82.5 42t50 63.5t17 79.5q0 64 -28 106t-77.5 66t-116 33.5t-144.5 9.5v132h87q121 0 180.5 43.5t59.5 140.5q0 39 -14.5 73.5t-43.5 59.5t-74 39.5t-105 14.5q-50 0 -87 -14.5t-62.5 -40.5t-39 -62.5t-16.5 -80.5
l-148 26q3 70 29 127t71.5 97t108.5 62t140 22q91 0 164 -20.5t124.5 -60t79 -96.5t27.5 -130q0 -42 -9.5 -82.5t-32 -75t-60 -61.5t-93.5 -43q59 -11 104 -36t75.5 -61t46 -82t15.5 -98q0 -76 -29.5 -139t-85 -108.5t-137 -70.5t-184.5 -25q-83 0 -153 22.5t-121 67.5
t-79.5 113.5t-28.5 160.5z" />
    <glyph glyph-name="four" unicode="4" horiz-adv-x="875" 
d="M319 125h164v190h-459v121l463 717h138v-717h190v-121h-190v-190h149v-125h-455v125zM483 947l-315 -511h315v511z" />
    <glyph glyph-name="five" unicode="5" horiz-adv-x="947" 
d="M235 330q19 -106 78.5 -164t156.5 -58q60 0 105.5 19.5t76 53t46 79.5t15.5 100q0 67 -18 116.5t-49 82.5t-72.5 49.5t-88.5 16.5q-63 0 -126 -27.5t-121 -85.5l-83 45v596h645v-237h-138v100h-379q-8 -94 -15 -182.5t-14 -182.5q43 60 104.5 86.5t139.5 26.5
q86 0 155.5 -29.5t118 -83t75 -127.5t26.5 -163q0 -77 -23.5 -145.5t-73 -121t-125.5 -83t-181 -30.5q-86 0 -153.5 24t-115.5 69t-75.5 109.5t-33.5 145.5z" />
    <glyph glyph-name="six" unicode="6" horiz-adv-x="947" 
d="M710 848q-5 45 -23 81t-45.5 62t-62 40t-71.5 14q-63 0 -113.5 -26.5t-86 -78.5t-54 -127.5t-18.5 -173.5q51 42 127 63t161 21q78 0 141 -26.5t108 -74t69.5 -111.5t24.5 -139q0 -83 -25 -154t-72 -123.5t-116 -82.5t-156 -30q-102 0 -179.5 39.5t-129 115t-78 185
t-26.5 249.5q0 136 25.5 247t76.5 189.5t128.5 121t181.5 42.5q78 0 141.5 -23.5t109.5 -66.5t71.5 -102t27.5 -131h-137zM507 592q-27 0 -61 -5t-70 -15.5t-71 -26t-63 -36.5q14 -194 72 -293t178 -99q57 0 100 19t72 52t43.5 77.5t14.5 96.5q0 50 -14.5 92.5t-42 73
t-67.5 47.5t-91 17z" />
    <glyph glyph-name="seven" unicode="7" horiz-adv-x="819" 
d="M809 1153v-128q-93 -93 -160.5 -200.5t-112 -223.5t-65.5 -236.5t-21 -239.5h182v-125h-511v125h172q0 136 25.5 264t70.5 243t107 214.5t135 179.5h-443v-166h-137v293h758z" />
    <glyph glyph-name="eight" unicode="8" horiz-adv-x="1007" 
d="M499 -18q-95 0 -173 24t-133.5 67.5t-86 105t-30.5 136.5q0 102 55.5 178t171.5 106q-56 21 -93 49t-59.5 62t-32 73.5t-9.5 83.5q0 67 27.5 123t78.5 96.5t123 62.5t161 22t161 -22t123 -62.5t78.5 -96.5t27.5 -123q0 -44 -9.5 -83.5t-32 -73.5t-60 -62t-92.5 -49
q115 -30 171 -106t56 -178q0 -75 -30.5 -136.5t-86 -105t-133.5 -67.5t-173 -24zM499 533q-129 0 -193.5 -56t-64.5 -156q0 -45 19 -82.5t53 -64.5t81.5 -42t104.5 -15t104.5 15t81.5 42t53 64.5t19 82.5q0 100 -64.5 156t-193.5 56zM499 1040q-112 0 -174 -50.5t-62 -135.5
q0 -42 17.5 -76.5t49 -60t75 -40.5t94.5 -18q51 3 94 18t74.5 40.5t49.5 60t18 76.5q0 85 -62 135.5t-174 50.5z" />
    <glyph glyph-name="nine" unicode="9" horiz-adv-x="949" 
d="M235 305q6 -45 25.5 -81t49 -62t67 -40t78.5 -14q58 0 105 26t80 78.5t51 133t18 188.5q-51 -51 -127 -77.5t-161 -26.5q-78 0 -141 26.5t-108 74t-69.5 111.5t-24.5 139q0 84 25 155.5t72 123.5t116 81.5t156 29.5q204 0 308.5 -152t104.5 -437q0 -137 -25.5 -247.5
t-76.5 -189t-128.5 -121t-181.5 -42.5q-78 0 -141.5 23.5t-109.5 66.5t-71.5 102t-27.5 131h137zM438 571q27 0 61 7.5t70 22.5t71 38t63 55q-8 84 -25 147.5t-47 106.5t-73.5 65t-104.5 22q-57 0 -100 -18.5t-72 -51.5t-43.5 -77.5t-14.5 -96.5q0 -48 14.5 -88.5t42 -69.5
t67.5 -45.5t91 -16.5z" />
    <glyph glyph-name="colon" unicode=":" horiz-adv-x="414" 
d="M93 211h227v-211h-227v211zM93 820h227v-211h-227v211z" />
    <glyph glyph-name="semicolon" unicode=";" horiz-adv-x="414" 
d="M93 820h227v-211h-227v211zM100 211h227v-211q0 -57 -11.5 -101.5t-38 -74.5t-70 -45.5t-107.5 -15.5v87q34 7 57 17.5t37 28t20.5 43t6.5 61.5h-121v211z" />
    <glyph glyph-name="less" unicode="&#x3c;" horiz-adv-x="1109" 
d="M212 572l779 -320v-128l-936 394v107l936 394v-128z" />
    <glyph glyph-name="equal" unicode="=" horiz-adv-x="1152" 
d="M931 673v-118h-711v118h711zM931 299v-117h-711v117h711z" />
    <glyph glyph-name="greater" unicode="&#x3e;" horiz-adv-x="1108" 
d="M117 891v128l936 -394v-107l-936 -394v128l779 320z" />
    <glyph glyph-name="question" unicode="?" horiz-adv-x="796" 
d="M319 323q0 8 -0.5 15.5t-0.5 15.5q0 85 12 144t31.5 100t44.5 67t51.5 45.5t51.5 36t44.5 38t31.5 51.5t12 76q0 41 -15.5 74.5t-42 57.5t-62.5 37t-76 13q-100 0 -156 -58.5t-56 -170.5v-10q0 -5 1 -6h-134q-1 6 -1.5 11.5t-0.5 11.5q0 93 30.5 158.5t79 106.5
t110.5 59.5t125 18.5q71 0 133 -21.5t107.5 -61t72 -95.5t26.5 -125q0 -61 -13.5 -102t-35.5 -70t-51 -50t-59 -42.5t-60 -46t-54 -61.5t-40.5 -89t-20.5 -128h-85zM452 0h-172v197h172v-197z" />
    <glyph glyph-name="at" unicode="@" horiz-adv-x="1418" 
d="M1202 -3q-87 -67 -196 -103.5t-251 -36.5q-120 0 -218.5 24.5t-176.5 68t-135.5 103.5t-95.5 130t-56.5 148t-18.5 158q0 84 20 167.5t60 159t98.5 140.5t135 113t171 75t206.5 27q104 0 188 -21.5t149.5 -59t113.5 -89t78.5 -111.5t45.5 -125.5t15 -131.5
q0 -94 -28 -182.5t-81 -157.5t-128.5 -110.5t-169.5 -41.5q-39 0 -67 28t-35 94q-45 -66 -102 -94t-117 -28q-51 0 -100 21t-86.5 62t-60.5 101t-23 138q0 77 23 154.5t69.5 139.5t116 101t162.5 39q123 0 200 -131q1 3 2.5 8.5t3.5 17.5t6 32.5t10 54.5h136
q-31 -144 -52.5 -243t-35 -163.5t-21.5 -100t-11.5 -52.5t-4 -20.5t-0.5 -4.5q0 -15 7 -26t22 -11q17 0 41.5 11t51 32t53 52.5t47.5 73t34 93t13 112.5q0 83 -30.5 160t-90 136.5t-147.5 95t-202 35.5q-120 0 -221.5 -42.5t-175 -118.5t-115 -181t-41.5 -230
q0 -117 37.5 -213t109.5 -164t178 -105.5t243 -37.5q229 0 378 114zM866 600q0 84 -46.5 134t-124.5 50q-54 0 -95.5 -29.5t-69.5 -76t-42.5 -104t-14.5 -113.5q0 -42 10 -80t30.5 -67.5t51.5 -46.5t73 -17q48 0 89.5 32t72 82t48.5 112.5t18 123.5z" />
    <glyph glyph-name="A" unicode="A" horiz-adv-x="1196" 
d="M878 1153v-118h-101q69 -204 108.5 -325t52.5 -159q38 -115 72 -225t61 -209h137v-117h-453v117h150l-85 307h-445l-84 -307h149v-117h-453v117h138q29 107 64.5 223t74 234.5t78 235t76.5 225.5h-100v118h560zM790 545q-20 66 -55.5 186.5t-99.5 303.5h-74
q-64 -183 -100.5 -303.5t-55.5 -186.5h385z" />
    <glyph glyph-name="B" unicode="B" horiz-adv-x="1047" 
d="M214 117v918h-148v118h486q104 0 175.5 -24.5t116 -66t64 -95t19.5 -110.5q0 -46 -12.5 -85.5t-34 -71t-50.5 -55t-63 -38.5q46 -15 85.5 -41.5t68 -62.5t45 -81.5t16.5 -99.5q0 -52 -18.5 -108.5t-67 -104t-134.5 -78.5t-221 -31h-475v117h148zM374 117h166
q76 0 128.5 15.5t85 43.5t47 67.5t14.5 88.5q0 39 -13.5 75t-44.5 63.5t-83 44.5t-128 17h-172v-415zM537 661q63 0 106 15t69.5 40.5t38 59t11.5 71.5q0 45 -13.5 80t-43 59t-77 36.5t-115.5 12.5h-139v-374h163z" />
    <glyph glyph-name="C" unicode="C" horiz-adv-x="1249" 
d="M643 -19q-132 0 -238.5 43.5t-181 121.5t-114.5 187.5t-40 241.5t40 242t117 188.5t189 122t255 43.5q115 0 204.5 -41.5t152.5 -107.5v131h130v-349h-125q-58 117 -158 174t-226 57q-95 0 -169.5 -34.5t-126 -95.5t-79 -144.5t-27.5 -180.5q0 -96 22.5 -180.5
t71.5 -147.5t126.5 -99t187.5 -36q63 0 124 13t114 44t94.5 80.5t66.5 123.5l135 -71q-41 -99 -103 -162t-135.5 -99.5t-152.5 -50.5t-154 -14z" />
    <glyph glyph-name="D" unicode="D" horiz-adv-x="1271" 
d="M59 117h159v918h-159v118h554q114 0 202 -23t153 -63.5t109.5 -95t71.5 -117.5t38.5 -131.5t11.5 -135.5q0 -133 -33.5 -241t-105.5 -185t-186 -119t-275 -42h-540v117zM380 117h245q108 0 185.5 36.5t127 99.5t73 147.5t23.5 180.5q0 94 -22.5 177t-73 144.5t-131.5 97
t-198 35.5h-229v-918z" />
    <glyph glyph-name="E" unicode="E" horiz-adv-x="1119" 
d="M60 117h156v918h-156v118h971v-321h-131v203h-525v-380h362v114h100v-359h-101v116h-359v-409h525v211h129v-328h-971v117z" />
    <glyph glyph-name="F" unicode="F" horiz-adv-x="1006" 
d="M375 528v-411h156v-117h-469v117h152v918h-152v118h917v-321h-132v203h-473v-378h314v114h100v-359h-101v116h-312z" />
    <glyph glyph-name="G" unicode="G" horiz-adv-x="1294" 
d="M653 1171q125 0 223 -41.5t164 -107.5v131h130v-349h-124q-60 118 -158 174.5t-226 56.5q-100 0 -177.5 -34t-131 -95t-81 -144.5t-27.5 -182.5t27.5 -183.5t82 -146.5t135 -97t187.5 -35q99 0 169 21t115 61.5t68.5 100t29.5 136.5h-227v127h407q-3 -158 -47 -268
t-119.5 -180t-177 -101.5t-219.5 -31.5q-125 0 -218.5 28.5t-161 76t-112 109t-70.5 128t-36.5 133t-10.5 123.5q0 66 13 135.5t42 135.5t74.5 124t110.5 101.5t151 69t195 25.5z" />
    <glyph glyph-name="H" unicode="H" horiz-adv-x="1294" 
d="M72 117h139v918h-139v118h443v-118h-144v-368h551v368h-142v118h442v-118h-139v-918h139v-117h-442v117h143v421h-551v-421h143v-117h-443v117z" />
    <glyph glyph-name="I" unicode="I" horiz-adv-x="581" 
d="M75 117h134v918h-134v118h428v-118h-132v-918h132v-117h-428v117z" />
    <glyph glyph-name="J" unicode="J" horiz-adv-x="557" 
d="M-64 -61q23 -2 51.5 -3t68.5 -1q78 0 109.5 39.5t31.5 121.5v939h-155v118h471v-118h-153v-957q0 -84 -25 -139.5t-65 -88.5t-89.5 -46.5t-97.5 -13.5q-37 0 -77 4.5t-70 11.5v133z" />
    <glyph glyph-name="K" unicode="K" horiz-adv-x="1139" 
d="M655 117h128l-408 470v-470h139v-117h-450v117h150v918h-150v118h466v-118h-156v-417l421 417h-136v118h451v-118h-129l-421 -430l430 -488h131v-117h-466v117z" />
    <glyph glyph-name="L" unicode="L" horiz-adv-x="984" 
d="M59 117h158v918h-158v118h474v-118h-155v-918h410v335h145v-452h-874v117z" />
    <glyph glyph-name="M" unicode="M" horiz-adv-x="1577" 
d="M213 1035h-148v118h385l168 -417l165 -419l338 836h390v-118h-147v-918h147v-117h-428v117h133v906l-415 -1023h-42l-412 1022v-905h133v-117h-415v117h148v918z" />
    <glyph glyph-name="N" unicode="N" horiz-adv-x="1322" 
d="M56 117h169v918h-169v118h382l548 -942v824h-165v118h472v-118h-173v-1035h-183l-578 997v-880h169v-117h-472v117z" />
    <glyph glyph-name="O" unicode="O" horiz-adv-x="1321" 
d="M66 575q0 125 41 234t117.5 189.5t187 126.5t248.5 46q139 0 249.5 -46.5t187.5 -127t118 -189.5t41 -233t-41 -232.5t-118 -188.5t-187.5 -126.5t-249.5 -46.5t-249 46t-186.5 126.5t-117.5 188.5t-41 233zM243 575q0 -95 29.5 -178t84.5 -145.5t131.5 -98.5t171.5 -36
t172.5 36t132 98.5t84 145.5t29.5 178q0 96 -29.5 180t-84 146.5t-132 98t-172.5 35.5t-171.5 -35.5t-131.5 -98t-84.5 -146.5t-29.5 -180z" />
    <glyph glyph-name="P" unicode="P" horiz-adv-x="1030" 
d="M63 117h151v918h-151v118h533q120 0 196.5 -32.5t121 -83t61.5 -112.5t17 -120q0 -100 -35 -164.5t-97.5 -102t-149 -52t-188.5 -14.5h-146v-355h158v-117h-471v117zM374 577h178q81 0 134.5 17.5t84.5 48.5t43.5 73t12.5 91q0 109 -58.5 168.5t-167.5 59.5h-227v-458z
" />
    <glyph glyph-name="Q" unicode="Q" horiz-adv-x="1323" 
d="M67 575q0 125 41 234t117.5 189.5t187 126.5t248.5 46q139 0 249.5 -46.5t187.5 -127t118 -189.5t41 -233q0 -113 -36.5 -213t-105 -177t-167 -127t-222.5 -63q34 -10 69 -23t71.5 -25t73.5 -20t74 -8q20 0 38.5 2.5t37.5 8.5l1 -148q-46 -13 -95 -13q-37 0 -70.5 7.5
t-65 18.5t-63 24.5t-65.5 24.5t-71 18.5t-80 7.5q-76 0 -140.5 -14t-121.5 -39l-1 137q60 31 107.5 43t87.5 12q-105 24 -188 77t-140.5 127t-87.5 166.5t-30 195.5zM244 575q0 -98 29.5 -181.5t84.5 -145t131.5 -96.5t171.5 -35t172.5 35t132 96.5t84 145t29.5 181.5
q0 96 -29.5 180t-84 146.5t-132 98t-172.5 35.5t-171.5 -35.5t-131.5 -98t-84.5 -146.5t-29.5 -180z" />
    <glyph glyph-name="R" unicode="R" horiz-adv-x="1107" 
d="M57 117h163v918h-163v118h551q99 0 170.5 -21.5t118 -60.5t69 -94t22.5 -122q0 -118 -63 -194.5t-196 -102.5l234 -441h146v-117h-253l-283 538h-193v-421h156v-117h-479v117zM603 657q65 0 107.5 17.5t67.5 45.5t35 63.5t10 71.5q0 85 -60.5 132.5t-166.5 47.5h-216
v-378h223z" />
    <glyph glyph-name="S" unicode="S" horiz-adv-x="972" 
d="M527 -18q-170 0 -296 105v-87h-135v387h135v-116q60 -78 129 -116t163 -38q51 0 92 14.5t70 39.5t44.5 59t15.5 74q0 56 -25.5 92.5t-69.5 61t-102.5 40.5t-125.5 32q-68 15 -129 38t-106.5 60.5t-72 93.5t-26.5 137q0 77 28 135.5t77 97.5t115 59t141 20q73 0 140 -23.5
t124 -68.5v74h135v-327h-135v82q-46 63 -103.5 95t-139.5 32q-56 0 -98 -13t-70.5 -35.5t-43 -53t-14.5 -66.5q0 -60 31 -95.5t81.5 -57t114 -35.5t129.5 -31q63 -17 119 -44.5t98.5 -68.5t67.5 -97.5t25 -131.5q0 -69 -28 -128.5t-78 -103t-121 -68t-156 -24.5z" />
    <glyph glyph-name="T" unicode="T" horiz-adv-x="1034" 
d="M262 117h175v918h-265v-230h-129v348h947v-348h-131v230h-259v-918h174v-117h-512v117z" />
    <glyph glyph-name="U" unicode="U" horiz-adv-x="1211" 
d="M34 1035v118h452v-118h-142v-657q0 -64 13.5 -112.5t44 -81.5t80 -50t120.5 -17q76 0 127.5 18t82 52.5t43.5 85.5t13 116v646h-142v118h451v-118h-149q0 -119 0.5 -229.5t0.5 -199t0.5 -148.5t0.5 -78q0 -108 -33.5 -183.5t-90.5 -123.5t-132.5 -69.5t-159.5 -21.5
q-134 0 -218 34t-131.5 89.5t-65 127.5t-17.5 149v37t0.5 77.5t0.5 104t0.5 116.5t0.5 114v97v107h-150z" />
    <glyph glyph-name="V" unicode="V" horiz-adv-x="1208" 
d="M125 1035h-146v118h455v-118h-141l317 -851l312 851h-141v118h445v-118h-146l-398 -1035h-154z" />
    <glyph glyph-name="W" unicode="W" horiz-adv-x="1759" 
d="M125 1035h-145v118h443v-118h-144l245 -825l123 413l117 412h-140v118h519v-118h-139l241 -825l125 413l119 412h-144v118h427v-118h-142l-310 -1045h-158l-286 938l-282 -938h-153z" />
    <glyph glyph-name="X" unicode="X" horiz-adv-x="1149" 
d="M18 117h161l313 465l-309 453h-154v118h462v-118h-135l222 -330l226 330h-140v118h446v-118h-151l-302 -440l328 -478h155v-117h-472v117h139l-236 353l-236 -353h144v-117h-461v117z" />
    <glyph glyph-name="Y" unicode="Y" horiz-adv-x="1130" 
d="M327 117h159v413l-358 505h-146v118h472v-118h-150l274 -387l257 387h-150v118h460v-118h-156l-343 -505v-413h164v-117h-483v117z" />
    <glyph glyph-name="Z" unicode="Z" horiz-adv-x="1010" 
d="M62 128l657 907h-498v-202h-129v320h832v-112l-667 -924h548v218h129v-335h-872v128z" />
    <glyph glyph-name="bracketleft" unicode="[" horiz-adv-x="569" 
d="M541 1263v-109h-251v-1266h251v-107h-394v1482h394z" />
    <glyph glyph-name="backslash" unicode="\" horiz-adv-x="793" 
d="M258 1171l434 -1189h-129l-434 1189h129z" />
    <glyph glyph-name="bracketright" unicode="]" horiz-adv-x="569" 
d="M426 1263v-1482h-394v107h251v1266h-251v109h394z" />
    <glyph glyph-name="asciicircum" unicode="^" horiz-adv-x="826" 
d="M788 605h-151l-222 435l-226 -435h-151l301 566h153z" />
    <glyph glyph-name="underscore" unicode="_" horiz-adv-x="898" 
d="M898 -82v-117h-898v117h898z" />
    <glyph glyph-name="grave" unicode="`" horiz-adv-x="562" 
d="M292 914l-187 257h207l99 -257h-119z" />
    <glyph glyph-name="a" unicode="a" horiz-adv-x="889" 
d="M102 708q54 54 134 83t183 29q94 0 157 -22.5t100 -59.5t52.5 -85t15.5 -99v-447h144v-107h-277l-2 83q-40 -29 -75 -48.5t-68.5 -31t-67.5 -16.5t-71 -5q-63 0 -113.5 19.5t-86 51.5t-54 74.5t-18.5 88.5q0 75 27.5 124t74.5 78t110.5 40.5t134.5 11.5q48 0 95 -5
t98 -15v97q0 42 -14.5 71.5t-40 47.5t-59.5 26.5t-72 8.5q-69 0 -124.5 -22.5t-90.5 -68.5zM595 352q-32 1 -80.5 8.5t-102.5 7.5q-39 0 -78 -5.5t-69.5 -21.5t-49.5 -46t-19 -79q0 -26 10 -49.5t29.5 -40.5t47.5 -27t65 -10q33 0 67 6t66.5 17.5t61.5 28t52 37.5v174z" />
    <glyph glyph-name="b" unicode="b" horiz-adv-x="1071" 
d="M23 107h145v925h-143v121h294v-446q63 58 134 85.5t162 27.5q92 0 166 -32t125.5 -87.5t79 -130.5t27.5 -160q0 -89 -28 -167t-79.5 -136t-125.5 -91.5t-166 -33.5q-44 0 -87 8.5t-82 25t-72 40.5t-55 55l-4 -111h-291v107zM582 107q64 0 114 22.5t84 61.5t52 91.5
t18 113.5q0 60 -18.5 114t-54 95t-85.5 65t-113 24q-45 0 -84 -12.5t-71.5 -32t-59 -42t-45.5 -43.5v-335q21 -20 48.5 -41.5t60.5 -39.5t71.5 -29.5t82.5 -11.5z" />
    <glyph glyph-name="c" unicode="c" horiz-adv-x="899" 
d="M829 157q-54 -82 -146 -129t-219 -47q-110 0 -187.5 38.5t-126 98.5t-71 134t-22.5 146q0 92 30.5 169.5t84.5 133.5t128.5 87.5t162.5 31.5q47 0 85.5 -11t68 -27.5t48.5 -35t26 -33.5l-4 92h133v-288h-129q-8 36 -24 68t-42.5 56.5t-64.5 38.5t-89 14
q-124 0 -189.5 -78t-65.5 -216q0 -66 16.5 -120t48 -92.5t78.5 -59.5t109 -21q85 0 156 35t116 104z" />
    <glyph glyph-name="d" unicode="d" horiz-adv-x="1071" 
d="M898 1153v-1046h152v-107h-304l-1 99q-64 -63 -132.5 -90t-153.5 -27q-78 0 -150 27t-128 79.5t-89.5 130.5t-33.5 181q0 85 28.5 161.5t81 134t127.5 91t167 33.5q88 0 158 -27.5t130 -79.5v322h-162v118h310zM485 107q44 0 82.5 11t71.5 28t60 37t49 39v345
q-21 20 -49 42.5t-61.5 41t-73 31t-84.5 12.5q-63 0 -112 -23.5t-82.5 -64t-51 -95t-17.5 -115.5q0 -58 18 -110.5t52 -92t84 -63t114 -23.5z" />
    <glyph glyph-name="e" unicode="e" horiz-adv-x="955" 
d="M219 365q3 -58 24 -105.5t58 -81.5t88.5 -52.5t116.5 -18.5q39 0 77 9t72 25.5t63 39.5t49 52l102 -76q-51 -78 -141.5 -126.5t-225.5 -48.5q-104 0 -187 33t-140.5 90t-88.5 133.5t-31 163.5q0 91 34 168t93 132.5t140 86.5t176 31q99 0 174 -35.5t125.5 -96t75.5 -140
t25 -166.5v-17h-679zM754 467q-6 49 -26 90.5t-52 72t-76.5 47.5t-99.5 17q-61 0 -108.5 -16.5t-82 -46t-56 -71.5t-30.5 -93h531z" />
    <glyph glyph-name="f" unicode="f" horiz-adv-x="555" 
d="M65 107h120v587h-129v111h129l1 138q0 57 17 99.5t47.5 71t73 43t94.5 14.5q76 0 128 -41t64 -116l-108 -35q-11 38 -33.5 56t-46.5 18q-16 0 -31.5 -5t-27.5 -18.5t-19.5 -36.5t-7.5 -59v-129h153v-111h-153v-587h162v-107h-433v107z" />
    <glyph glyph-name="g" unicode="g" horiz-adv-x="1069" 
d="M485 -360q-47 0 -87 5.5t-76.5 17t-71 29.5t-69.5 43l67 102q51 -37 110 -55t120 -18q45 0 92.5 12t87 40t65 73.5t25.5 113.5v90q-21 -20 -53.5 -36.5t-71.5 -29.5t-81.5 -20t-83.5 -7q-93 0 -167 31t-126 84.5t-79.5 125t-27.5 151.5q0 87 28.5 164.5t81.5 136t128 93
t168 34.5q159 0 284 -111v96h301v-111h-151v-313v-113t0.5 -101t0.5 -74.5v-35.5q0 -119 -36.5 -199t-95 -128.5t-132.5 -69t-150 -20.5zM485 125q43 0 81.5 10t71.5 25t60.5 33.5t49.5 35.5v342q-20 19 -46.5 40.5t-59.5 40t-71.5 30.5t-82.5 12q-63 0 -113 -23.5
t-85.5 -64t-54 -95t-18.5 -115.5q0 -56 18 -105.5t52 -86.5t84 -58t114 -21z" />
    <glyph glyph-name="h" unicode="h" horiz-adv-x="1024" 
d="M21 107h152v925h-150v121h299v-427q142 94 304 94q256 0 256 -264v-22.5t-0.5 -50.5t-0.5 -69.5v-78.5v-228h144v-107h-394v107h102v421q0 34 -6 64.5t-22 53t-43 35.5t-69 13q-61 0 -132.5 -21t-138.5 -66v-500h145v-107h-446v107z" />
    <glyph glyph-name="i" unicode="i" horiz-adv-x="509" 
d="M59 107h135v587h-135v111h284v-698h136v-107h-420v107zM176 1066q0 18 7 34t19.5 28t29 18.5t35.5 6.5q39 0 65.5 -25t26.5 -62t-26.5 -62t-65.5 -25q-19 0 -35.5 6.5t-29 18.5t-19.5 28t-7 34z" />
    <glyph glyph-name="j" unicode="j" horiz-adv-x="441" 
d="M-60 -235q23 -2 40 -3t37 -1q42 0 70 11t45 34.5t24 60.5t7 90v737h-152v111h303v-801q0 -76 -7 -143t-35 -117.5t-85 -80.5t-156 -31q-25 0 -46 1.5t-45 5.5v126zM143 1066q0 37 26.5 62t65.5 25t65.5 -25t26.5 -62t-26.5 -62t-65.5 -25t-65.5 25t-26.5 62z" />
    <glyph glyph-name="k" unicode="k" horiz-adv-x="995" 
d="M20 107h153v925h-153v121h301v-723l329 264h-139v111h447v-111h-132l-332 -279l342 -308h130v-107h-421v107h106l-330 298v-298h105v-107h-406v107z" />
    <glyph glyph-name="l" unicode="l" horiz-adv-x="487" 
d="M21 107h152v925h-149v121h298v-1046h133v-107h-434v107z" />
    <glyph glyph-name="m" unicode="m" horiz-adv-x="1554" 
d="M208 694h-143v111h289l5 -107q69 58 136.5 90t145.5 32q81 0 136 -37t82 -103q80 68 150 104t150 36q62 0 107 -19.5t74 -53.5t43 -80t14 -99v-461h145v-107h-405v107h113v430q0 72 -29.5 114.5t-98.5 42.5q-34 0 -70.5 -13.5t-69.5 -33.5t-60 -43t-42 -43v-454h125v-107
h-389v107h112v427q0 85 -33 122.5t-96 37.5t-119.5 -31.5t-120.5 -91.5v-464h125v-107h-426v107h150v587z" />
    <glyph glyph-name="n" unicode="n" horiz-adv-x="1031" 
d="M63 107h143v587h-149v111h296l4 -104q77 60 143 89.5t140 29.5q55 0 98.5 -18t74 -52t46.5 -81.5t16 -106.5l-1 -455h145v-107h-402v107h110v400q0 88 -27 137.5t-98 49.5q-69 0 -130 -36t-115 -88v-463h145v-107h-439v107z" />
    <glyph glyph-name="o" unicode="o" horiz-adv-x="966" 
d="M482 107q62 0 111.5 22.5t84.5 62t53.5 93.5t18.5 117q0 61 -18.5 114.5t-53.5 93t-84.5 62t-111.5 22.5t-111 -22.5t-83.5 -62t-53 -93t-18.5 -114.5q0 -63 18.5 -117t53 -93.5t83.5 -62t111 -22.5zM482 -18q-98 0 -176.5 33t-133.5 90t-85 133.5t-30 163.5t30 163
t85.5 133t134.5 89.5t177 32.5q97 0 176 -32.5t134.5 -89.5t85.5 -133t30 -163t-30 -163.5t-86 -133.5t-135 -90t-177 -33z" />
    <glyph glyph-name="p" unicode="p" horiz-adv-x="1058" 
d="M13 -244h153v938h-141v111h280l8 -107q57 60 132.5 91t156.5 31q93 0 167 -33t125.5 -90t79 -133.5t27.5 -163.5q0 -86 -28.5 -162t-81 -133t-126.5 -90t-165 -33q-81 0 -155.5 26.5t-131.5 78.5v-332h165v-123h-465v124zM578 107q64 0 114 22.5t84 61.5t52 91.5
t18 113.5q0 60 -18.5 114t-54 95t-85.5 65t-113 24q-45 0 -84.5 -12t-72.5 -30t-59.5 -40t-45.5 -41v-360q23 -18 50.5 -36.5t60.5 -33.5t71.5 -24.5t82.5 -9.5z" />
    <glyph glyph-name="q" unicode="q" horiz-adv-x="1063" 
d="M583 -244h162v334q-57 -54 -130 -81t-158 -27q-92 0 -165.5 33t-125.5 90t-80 133.5t-28 163.5q0 86 28 162t81.5 133t131 90t176.5 33q76 0 147 -30.5t123 -90.5q0 2 0.5 18.5t2.5 36.5l3 51h286v-111h-142v-939h152v-123h-464v124zM480 107q43 0 82 11.5t72 29.5
t61 39.5t50 41.5v335q-20 21 -46.5 44t-58.5 42t-69.5 31.5t-79.5 12.5q-71 0 -123.5 -24t-87 -65t-51.5 -95t-17 -114q0 -61 18 -113.5t52 -91.5t84 -61.5t114 -22.5z" />
    <glyph glyph-name="r" unicode="r" horiz-adv-x="761" 
d="M64 107h161v587h-167v111h289l1 -175q27 55 58 91.5t67 58.5t78 31t90 9q43 0 93 -6l-5 -139q-1 1 -15.5 1.5t-31.5 1t-32.5 0.5h-18.5q-74 0 -123 -21t-78.5 -60t-42 -94t-12.5 -123v-273h176v-107h-487v107z" />
    <glyph glyph-name="s" unicode="s" horiz-adv-x="809" 
d="M77 263h133v-53q13 -25 30 -45t41.5 -34.5t57.5 -22.5t77 -8q88 0 135.5 30t47.5 87q0 32 -13 51.5t-36.5 31.5t-56 18.5t-72.5 12.5q-62 9 -123.5 23t-111 41.5t-80.5 73t-31 117.5q0 49 21 92t60 74.5t93.5 49.5t122.5 18q60 0 113 -21.5t92 -53.5v60h129v-256h-129v67
q-71 86 -199 86q-75 0 -118.5 -29.5t-43.5 -80.5q0 -33 23 -52.5t60.5 -32t86 -21t98.5 -18.5t98.5 -25.5t86 -42.5t60.5 -68.5t23 -103.5q0 -55 -22.5 -100.5t-64 -77.5t-100.5 -50t-132 -18q-69 0 -123.5 16t-99.5 52v-50h-133v263z" />
    <glyph glyph-name="t" unicode="t" horiz-adv-x="528" 
d="M35 805h124v258l151 32v-290h173v-111h-173v-405q0 -46 1.5 -80t9.5 -56.5t25 -34t49 -11.5h118v-107h-138q-78 0 -121.5 23t-64.5 63.5t-25.5 95t-4.5 118.5v394h-124v111z" />
    <glyph glyph-name="u" unicode="u" horiz-adv-x="994" 
d="M678 0l-5 100q-66 -60 -131.5 -89t-140.5 -29q-66 0 -113 19.5t-77.5 55.5t-44.5 87.5t-14 116.5v433h-120v111h272v-537q0 -78 28 -119.5t97 -41.5q70 0 133 40t111 103v444h-145v111h296v-698h146v-107h-292z" />
    <glyph glyph-name="v" unicode="v" horiz-adv-x="960" 
d="M144 694h-146v111h411v-111h-116l195 -523l195 523h-123v111h402v-111h-130l-274 -694h-136z" />
    <glyph glyph-name="w" unicode="w" horiz-adv-x="1403" 
d="M111 694h-109v111h354v-111h-116l87 -282l86 -255l90 256l87 281h-95v111h398v-111h-95l181 -548l172 548h-122v111h373v-111h-122l-234 -694h-142l-205 606l-212 -606h-143z" />
    <glyph glyph-name="x" unicode="x" horiz-adv-x="989" 
d="M35 107h118l263 306l-247 281h-115v111h390v-111h-120l169 -194l163 194h-102v111h390v-111h-133l-239 -281l268 -306h108v-107h-396v107h135l-194 220l-181 -220h124v-107h-401v107z" />
    <glyph glyph-name="y" unicode="y" horiz-adv-x="982" 
d="M136 -108h111v-79q33 0 59.5 2.5t49 16.5t42.5 43t41 83l44 112h-95l-264 624h-125v111h406v-111h-108l202 -532h20l86 270l75 262h-115v111h413v-111h-129l-216 -658q-29 -89 -60 -155.5t-73 -111t-100 -66.5t-141 -22q-25 0 -58.5 2.5t-64.5 7.5v201z" />
    <glyph glyph-name="z" unicode="z" horiz-adv-x="833" 
d="M754 0h-700v116l525 578h-364v-157h-121v268h663v-122l-532 -576h401v169h128v-276z" />
    <glyph glyph-name="braceleft" unicode="{" horiz-adv-x="528" 
d="M30 539q47 0 76 17t45 49.5t21.5 79t5.5 105.5q0 83 3.5 153t26 120.5t71.5 79t139 28.5h74v-119q-51 0 -83 -5.5t-50.5 -22.5t-25 -48.5t-6.5 -82.5q0 -101 -4 -170.5t-18 -116.5t-41 -77.5t-72 -53.5q39 -21 65 -49t41.5 -69t21.5 -98t6 -137q0 -75 2.5 -120t18 -68
t49 -30t96.5 -7v-120h-73q-90 0 -138.5 27t-71.5 76.5t-27 118t-4 151.5q0 61 -5 109.5t-20.5 82t-44.5 51t-78 17.5v129z" />
    <glyph glyph-name="bar" unicode="|" horiz-adv-x="404" 
d="M263 1153v-1249h-122v1249h122z" />
    <glyph glyph-name="braceright" unicode="}" horiz-adv-x="528" 
d="M492 410q-49 0 -78 -17.5t-44.5 -51t-20.5 -82t-5 -109.5q0 -83 -4 -151.5t-27 -118t-71.5 -76.5t-138.5 -27h-73v120q62 0 95.5 6.5t49.5 29t18.5 65.5t2.5 117q0 82 6 140.5t21 100.5t41 70t66 49q-45 23 -72 53.5t-41 77.5t-18 116.5t-4 170.5q0 51 -6.5 82.5
t-25 48.5t-50.5 22.5t-83 5.5v119h74q90 0 138.5 -28t71 -78t26.5 -119t4 -151q0 -60 5.5 -107.5t21 -80.5t44.5 -50.5t77 -17.5v-129z" />
    <glyph glyph-name="asciitilde" unicode="~" horiz-adv-x="1062" 
d="M987 573q-45 -73 -97 -102.5t-112 -29.5q-58 0 -120 21.5t-124 47t-123 47t-117 21.5q-45 0 -85.5 -18.5t-76.5 -63.5l-55 77q52 75 109.5 105.5t120.5 30.5q57 0 117 -19.5t120 -42.5t118.5 -42.5t112.5 -19.5q42 0 78.5 15t70.5 51z" />
    <glyph glyph-name="exclamdown" unicode="&#xa1;" horiz-adv-x="466" 
d="M189 847h88l42 -497v-350h-172v350zM127 1171h212v-212h-212v212z" />
    <glyph glyph-name="cent" unicode="&#xa2;" horiz-adv-x="918" 
d="M829 157q-54 -82 -146 -129t-219 -47q-29 0 -55 3t-51 8l-120 -360h-82l128 384q-60 26 -103 68.5t-70.5 94t-40.5 108t-13 111.5q0 92 30.5 169.5t84.5 133.5t128.5 87.5t162.5 31.5q43 0 87 -11l115 344h83l-126 -375q27 -16 44.5 -33.5t24.5 -31.5l-4 92h133v-288
h-129q-11 48 -36 88t-70 63l-186 -554q25 -7 69 -7q85 0 156 35t116 104zM216 400q0 -88 28 -153.5t83 -101.5l183 546q-18 3 -39 3q-124 0 -189.5 -78t-65.5 -216z" />
    <glyph glyph-name="sterling" unicode="&#xa3;" horiz-adv-x="993" 
d="M128 636h181q-17 28 -31.5 62.5t-25 69t-16.5 66.5t-6 55q0 67 23 119.5t64.5 88.5t98.5 55t126 19q76 0 135 -21.5t99 -62t60.5 -97.5t20.5 -127h-135q0 40 -9 74.5t-29 60t-53 40t-82 14.5q-79 0 -127.5 -39t-48.5 -115q0 -25 7.5 -56.5t19.5 -66t27.5 -70.5t31.5 -69
h249v-87h-214q11 -42 16 -81.5t5 -79.5q0 -45 -6 -89.5t-17 -83.5q28 -17 54.5 -33.5t52 -29.5t51 -20.5t51.5 -7.5q69 0 102 42.5t38 123.5h93q0 -75 -17 -132.5t-48 -96.5t-73.5 -59.5t-94.5 -20.5q-35 0 -67 8.5t-63 23.5t-62 36.5t-65 48.5q-36 -54 -82.5 -85.5
t-106.5 -31.5q-51 0 -87.5 14.5t-60.5 38t-35.5 54t-11.5 62.5q0 34 12.5 68t36.5 60.5t59 43t80 16.5q40 0 75.5 -12t72.5 -35q1 9 1 18v18q0 60 -11 111t-34 111h-224v87zM370 157q-42 48 -73.5 69t-62.5 21q-17 0 -30 -8.5t-22.5 -22t-14.5 -30.5t-5 -35q0 -33 20 -59.5
t65 -26.5q37 0 65.5 22t57.5 70z" />
    <glyph glyph-name="currency" unicode="&#xa4;" horiz-adv-x="929" 
d="M129 806q0 119 73 201l-80 81l69 69l86 -86q40 25 86.5 39t100.5 14t101 -14.5t87 -40.5l88 88l69 -69l-83 -83q72 -86 72 -199q0 -60 -19.5 -110.5t-54.5 -92.5l85 -84l-69 -68l-90 88q-80 -53 -186 -53q-54 0 -100 13.5t-85 38.5l-88 -87l-69 68l82 82q-35 42 -55 93.5
t-20 111.5zM464 1006q-49 0 -85.5 -17.5t-61 -46t-36.5 -65t-12 -73.5q0 -38 12.5 -75t37 -65.5t61 -46t84.5 -17.5q49 0 85.5 17.5t60.5 46t36 64.5t12 74t-12 75t-36.5 65.5t-61 46t-84.5 17.5z" />
    <glyph glyph-name="yen" unicode="&#xa5;" horiz-adv-x="1261" 
d="M486 414v89h-237v119h170l-291 404h-146v127h472v-127h-150l274 -378l257 378h-150v127h460v-127h-156l-280 -404h176v-119h-239v-89h239v-117h-239v-172h164v-125h-483v125h159v172h-237v117h237z" />
    <glyph glyph-name="brokenbar" unicode="&#xa6;" horiz-adv-x="404" 
d="M263 1153v-419h-122v419h122zM263 346v-448h-122v448h122z" />
    <glyph glyph-name="section" unicode="&#xa7;" horiz-adv-x="877" 
d="M645 924q-19 66 -66.5 97.5t-114.5 31.5q-45 0 -82.5 -10.5t-64.5 -29t-42.5 -44t-15.5 -56.5q0 -44 23.5 -75.5t62.5 -55.5t88 -43.5t101 -40t101 -44t88 -55.5t62.5 -76t23.5 -104q0 -146 -159 -246q63 -37 97 -93.5t34 -125.5q0 -62 -23 -113.5t-65 -88.5t-100 -57.5
t-128 -20.5q-106 0 -182.5 45t-122.5 121l102 83q29 -60 80 -93t126 -33q40 0 71.5 11t54 30.5t34.5 46t12 57.5q0 42 -23.5 72t-62.5 53.5t-88.5 42.5t-101.5 39t-101.5 44t-88.5 56.5t-62.5 76.5t-23.5 105q0 71 38 129t122 114q-63 38 -96.5 95.5t-33.5 129.5
q0 57 25 106.5t69 86t105 58t133 21.5q54 0 104.5 -11.5t93 -36.5t74 -63t48.5 -91zM560 220q63 33 94 76t31 92q0 51 -31.5 82.5t-81.5 56t-113.5 46.5t-127.5 53q-63 -38 -90.5 -76t-27.5 -86q0 -51 29.5 -83t78.5 -56.5t111.5 -48t127.5 -56.5z" />
    <glyph glyph-name="dieresis" unicode="&#xa8;" horiz-adv-x="572" 
d="M523 1101v-153h-152v153h152zM212 1101v-153h-154v153h154z" />
    <glyph glyph-name="copyright" unicode="&#xa9;" horiz-adv-x="1423" 
d="M658 1170q150 0 262.5 -51.5t187.5 -135t112.5 -190.5t37.5 -218t-37.5 -218t-112.5 -190.5t-187.5 -134.5t-262.5 -51t-262.5 51t-187.5 134.5t-112.5 190.5t-37.5 218t37.5 218t112.5 190.5t187.5 135t262.5 51.5zM658 1076q-122 0 -212.5 -43.5t-151 -114
t-90.5 -160.5t-30 -183t30 -183.5t90.5 -161t151 -114t212.5 -43.5q121 0 211.5 43.5t151 114t90.5 161t30 183.5t-30 183t-90.5 160.5t-151 114t-211.5 43.5zM917 404q-38 -60 -105.5 -93.5t-158.5 -33.5q-79 0 -135 28t-91 71.5t-51.5 97t-16.5 104.5q0 67 22 123
t61.5 96.5t93.5 63t117 22.5q34 0 62 -8t49 -19.5t34.5 -25t18.5 -24.5l-2 66h96v-208h-94q-6 26 -17.5 49.5t-30.5 41t-46.5 27.5t-64.5 10q-91 0 -137.5 -56t-46.5 -156q0 -48 12 -87t35 -66.5t57 -43t78 -15.5q63 0 114 25t83 76z" />
    <glyph glyph-name="ordfeminine" unicode="&#xaa;" horiz-adv-x="696" 
d="M72 1087q84 84 238 84q71 0 118 -17t75 -44.5t39.5 -63.5t11.5 -75v-331h108v-85h-208l-1 62q-30 -21 -56.5 -35.5t-51.5 -23.5t-50.5 -13t-53.5 -4q-48 0 -86 14.5t-64.5 39t-40.5 56t-14 66.5q0 57 20.5 93.5t56 58.5t83 30.5t101.5 8.5q70 0 145 -15v73q0 31 -11 53.5
t-30 36t-44.5 20t-54.5 6.5q-52 0 -93.5 -17t-67.5 -51zM442 820q-24 0 -59.5 6t-77.5 6q-30 0 -59 -4t-52 -16.5t-37.5 -35t-14.5 -59.5q0 -39 29 -67t86 -28q51 0 100.5 17.5t84.5 49.5v131z" />
    <glyph glyph-name="guillemotleft" unicode="&#xab;" horiz-adv-x="904" 
d="M838 0h-142l-265 418l265 419h142l-257 -419zM468 0h-143l-263 418l263 419h143l-258 -419z" />
    <glyph glyph-name="logicalnot" unicode="&#xac;" horiz-adv-x="1113" 
d="M993 842v-538h-117v420h-820v118h937z" />
    <glyph glyph-name="uni00AD" unicode="&#xad;" horiz-adv-x="1707" 
 />
    <glyph glyph-name="registered" unicode="&#xae;" horiz-adv-x="1338" 
d="M668 1170q150 0 262.5 -51.5t187.5 -135t112.5 -190.5t37.5 -218t-37.5 -218t-112.5 -190.5t-187.5 -134.5t-262.5 -51t-262.5 51t-187.5 134.5t-112.5 190.5t-37.5 218t37.5 218t112.5 190.5t187.5 135t262.5 51.5zM668 1076q-122 0 -212.5 -43.5t-151 -114
t-90.5 -160.5t-30 -183t30 -183.5t90.5 -161t151 -114t212.5 -43.5q121 0 211.5 43.5t151 114t90.5 161t30 183.5t-30 183t-90.5 160.5t-151 114t-211.5 43.5zM393 337h88v489h-88v69h299q107 0 156.5 -44.5t49.5 -117.5q0 -63 -35 -105t-105 -56l127 -235h79v-68h-137
l-154 292h-105v-224h85v-68h-260v68zM689 631q35 0 58.5 9t37 23.5t19 32.5t5.5 37q0 48 -33.5 70.5t-90.5 22.5h-117v-195h121z" />
    <glyph glyph-name="macron" unicode="&#xaf;" horiz-adv-x="593" 
d="M131 1171h326v-85h-326v85z" />
    <glyph glyph-name="degree" unicode="&#xb0;" horiz-adv-x="653" 
d="M327 1130q-38 0 -69.5 -13.5t-54 -37t-35.5 -54.5t-13 -67q0 -35 13 -66.5t35.5 -54.5t54 -36.5t69.5 -13.5q35 0 66 13t54.5 35.5t37 54t13.5 68.5q0 32 -11.5 63t-33.5 55t-54 39t-72 15zM327 1216q54 0 101 -20t82 -55.5t55 -82.5t20 -101t-20 -101t-55 -82t-82 -55.5
t-101 -20.5t-101 20.5t-82 55.5t-55.5 82t-20.5 101t20.5 101t55.5 82.5t82 55.5t101 20z" />
    <glyph glyph-name="plusminus" unicode="&#xb1;" horiz-adv-x="1119" 
d="M1028 80v-119h-937v119h937zM1028 775v-119h-411v-409h-115v409h-411v119h411v408h115v-408h411z" />
    <glyph glyph-name="twosuperior" unicode="&#xb2;" horiz-adv-x="747" 
d="M559 580h94v-281h-566q-1 10 -1.5 19.5t-0.5 19.5q0 82 33 144t83 111t108 89t108 79t83 80.5t33 93.5q0 63 -38.5 98.5t-119.5 35.5q-44 0 -74.5 -12t-49.5 -38.5t-27 -67.5t-8 -98h-107q0 163 66.5 240t198.5 77q81 0 135 -21.5t87 -55.5t47 -75t14 -80
q0 -66 -30 -116.5t-76 -92.5t-101 -78t-105 -74t-88 -80.5t-49 -96.5h351v180z" />
    <glyph glyph-name="threesuperior" unicode="&#xb3;" horiz-adv-x="783" 
d="M201 557q8 -82 55 -128t128 -46q49 0 86 11.5t62 31.5t37.5 47.5t12.5 59.5q0 48 -21.5 79t-58.5 49t-87 25t-107 7v99h65q91 0 135.5 32.5t44.5 104.5q0 30 -11 55.5t-32.5 44t-55 29.5t-78.5 11q-75 0 -112 -41t-41 -107l-111 20q2 52 21.5 94.5t53.5 72.5t81 46.5
t105 16.5q68 0 122.5 -15.5t93 -45t59 -72t20.5 -97.5q0 -32 -7 -62t-24 -55.5t-45 -45.5t-70 -32q88 -16 134 -72.5t46 -134.5q0 -57 -22 -104t-63.5 -81t-102 -52.5t-138.5 -18.5q-62 0 -114 16.5t-90 50.5t-59.5 84.5t-21.5 119.5z" />
    <glyph glyph-name="acute" unicode="&#xb4;" horiz-adv-x="562" 
d="M165 914l99 257h207l-187 -257h-119z" />
    <glyph glyph-name="mu" unicode="&#xb5;" horiz-adv-x="925" 
d="M678 0l-5 100q-66 -60 -131.5 -89t-140.5 -29q-73 0 -120 22v-372h-129v1057h-120v116h272v-537q0 -78 28 -119.5t97 -41.5q70 0 133 40t111 103v439h-145v116h296v-692h146v-113h-292z" />
    <glyph glyph-name="mu" unicode="&#x3bc;" horiz-adv-x="925" 
d="M678 0l-5 100q-66 -60 -131.5 -89t-140.5 -29q-73 0 -120 22v-372h-129v1057h-120v116h272v-537q0 -78 28 -119.5t97 -41.5q70 0 133 40t111 103v439h-145v116h296v-692h146v-113h-292z" />
    <glyph glyph-name="paragraph" unicode="&#xb6;" horiz-adv-x="1096" 
d="M1020 1056h-138v-1429h-135v1429h-201v-1429h-135v851q-86 3 -153 31.5t-113.5 76t-70.5 111.5t-24 139q0 74 25 139.5t75 114.5t125 77.5t176 28.5h569v-140z" />
    <glyph glyph-name="periodcentered" unicode="&#xb7;" horiz-adv-x="414" 
d="M86 657h227v-211h-227v211z" />
    <glyph glyph-name="cedilla" unicode="&#xb8;" horiz-adv-x="587" 
d="M128 -263q23 -4 44.5 -6t41.5 -2q42 0 68.5 12t26.5 41q0 25 -26.5 39.5t-71.5 18.5l58 165h72l-27 -124q60 -7 94 -32t34 -67q0 -26 -11 -52t-36 -46.5t-66 -33.5t-101 -13q-23 0 -47.5 1.5t-52.5 6.5v92z" />
    <glyph glyph-name="onesuperior" unicode="&#xb9;" horiz-adv-x="476" 
d="M63 392h123v667h-129v94h240v-761h114v-93h-348v93z" />
    <glyph glyph-name="ordmasculine" unicode="&#xba;" horiz-adv-x="704" 
d="M180 951q0 -36 13 -67t36.5 -53.5t55 -35.5t68.5 -13q36 0 67.5 13t54.5 35.5t36 53.5t13 67t-13 66.5t-36 53t-54.5 35t-67.5 12.5q-37 0 -68.5 -12.5t-55 -35t-36.5 -53t-13 -66.5zM68 951q0 57 21.5 105.5t60 83.5t90.5 55t113 20t113 -20t90 -55t59.5 -83.5
t21.5 -105.5t-21.5 -105t-59.5 -83.5t-90 -55.5t-113 -20t-113 20t-90.5 55.5t-60 83.5t-21.5 105z" />
    <glyph glyph-name="guillemotright" unicode="&#xbb;" horiz-adv-x="905" 
d="M437 837h143l263 -419l-263 -418h-143l257 418zM66 837h143l264 -419l-264 -418h-143l257 418z" />
    <glyph glyph-name="onequarter" unicode="&#xbc;" horiz-adv-x="1665" 
d="M915 1170h89l-414 -1170h-90zM68 392h123v667h-129v94h240v-761h114v-93h-348v93zM1149 101h132v153h-371v98l374 579h112v-579h153v-98h-153v-153h120v-101h-367v101zM1281 765l-254 -413h254v413z" />
    <glyph glyph-name="onehalf" unicode="&#xbd;" horiz-adv-x="1690" 
d="M915 1170h89l-414 -1170h-90zM63 392h123v667h-129v94h240v-761h114v-93h-348v93zM1492 265h94v-281h-566q-1 10 -1.5 19.5t-0.5 19.5q0 82 33 144t83 111t108 89t108 79t83 80.5t33 93.5q0 63 -38.5 98.5t-119.5 35.5q-44 0 -74.5 -12t-49.5 -38.5t-27 -67.5t-8 -98
h-107q0 163 66.5 240t198.5 77q81 0 135 -21.5t87 -55.5t47 -75t14 -80q0 -66 -30 -116.5t-76 -92.5t-101 -78t-105 -74t-88 -80.5t-49 -96.5h351v180z" />
    <glyph glyph-name="threequarters" unicode="&#xbe;" horiz-adv-x="1936" 
d="M1146 1170h89l-414 -1170h-90zM206 557q8 -82 55 -128t128 -46q49 0 86 11.5t62 31.5t37.5 47.5t12.5 59.5q0 48 -21.5 79t-58.5 49t-87 25t-107 7v99h65q91 0 135.5 32.5t44.5 104.5q0 30 -11 55.5t-32.5 44t-55 29.5t-78.5 11q-75 0 -112 -41t-41 -107l-111 20
q2 52 21.5 94.5t53.5 72.5t81 46.5t105 16.5q68 0 122.5 -15.5t93 -45t59 -72t20.5 -97.5q0 -32 -7 -62t-24 -55.5t-45 -45.5t-70 -32q88 -16 134 -72.5t46 -134.5q0 -57 -22 -104t-63.5 -81t-102 -52.5t-138.5 -18.5q-62 0 -114 16.5t-90 50.5t-59.5 84.5t-21.5 119.5z
M1404 101h132v153h-371v98l374 579h112v-579h153v-98h-153v-153h120v-101h-367v101zM1536 765l-254 -413h254v413z" />
    <glyph glyph-name="questiondown" unicode="&#xbf;" horiz-adv-x="796" 
d="M477.039 873.039q0 -7.99902 0.5 -15.498t0.5 -15.498q0 -84.9893 -11.999 -143.982q-11.998 -58.9922 -31.4961 -99.9873q-19.4971 -40.9951 -44.4941 -66.9922t-51.4941 -45.4941q-26.4971 -19.498 -51.4932 -35.9961q-24.9971 -16.498 -44.4951 -37.9951
q-19.4971 -21.4971 -31.4961 -51.4941q-11.998 -29.9961 -11.998 -75.9902q0 -40.9951 15.498 -74.4912q15.498 -33.4951 41.9941 -57.4932q26.4971 -23.9961 62.4932 -36.9951q35.9951 -12.998 75.9902 -12.998q99.9883 0 155.981 58.4922q55.9932 58.4932 55.9932 170.479
v9.99902q0 4.99902 -1 5.99902h133.983q1 -5.99902 1.5 -11.498q0.5 -5.5 0.5 -11.499q0 -92.9883 -30.4961 -158.48q-30.4971 -65.4922 -78.9912 -106.487t-110.486 -59.4922q-61.9922 -18.498 -124.984 -18.498q-70.9912 0 -132.984 21.4971
q-61.9922 21.4971 -107.486 60.9932q-45.4941 39.4951 -71.9912 95.4883t-26.4971 124.984q0 60.9922 13.499 101.987q13.498 40.9951 35.4951 69.9912q21.9971 28.9971 50.9941 49.9941q28.9961 20.998 58.9922 42.4951q29.9971 21.4971 59.9932 45.9941t53.9932 61.4932
q23.9971 36.9951 40.4951 88.9883q16.498 51.9941 20.4971 127.984h84.9902zM344.055 1196h171.979v-196.976h-171.979v196.976z" />
    <glyph glyph-name="Agrave" unicode="&#xc0;" horiz-adv-x="1196" 
d="M878 1153v-118h-101q69 -204 108.5 -325t52.5 -159q38 -115 72 -225t61 -209h137v-117h-453v117h150l-85 307h-445l-84 -307h149v-117h-453v117h138q29 107 64.5 223t74 234.5t78 235t76.5 225.5h-100v118h560zM790 545q-20 66 -55.5 186.5t-99.5 303.5h-74
q-64 -183 -100.5 -303.5t-55.5 -186.5h385zM632 1262l-187 257h207l99 -257h-119z" />
    <glyph glyph-name="Aacute" unicode="&#xc1;" horiz-adv-x="1196" 
d="M878 1153v-118h-101q69 -204 108.5 -325t52.5 -159q38 -115 72 -225t61 -209h137v-117h-453v117h150l-85 307h-445l-84 -307h149v-117h-453v117h138q29 107 64.5 223t74 234.5t78 235t76.5 225.5h-100v118h560zM790 545q-20 66 -55.5 186.5t-99.5 303.5h-74
q-64 -183 -100.5 -303.5t-55.5 -186.5h385zM445 1262l99 257h207l-187 -257h-119z" />
    <glyph glyph-name="Acircumflex" unicode="&#xc2;" horiz-adv-x="1196" 
d="M878 1153v-118h-101q69 -204 108.5 -325t52.5 -159q38 -115 72 -225t61 -209h137v-117h-453v117h150l-85 307h-445l-84 -307h149v-117h-453v117h138q29 107 64.5 223t74 234.5t78 235t76.5 225.5h-100v118h560zM790 545q-20 66 -55.5 186.5t-99.5 303.5h-74
q-64 -183 -100.5 -303.5t-55.5 -186.5h385zM359 1244l98 275h275l104 -275h-148l-93 230l-93 -230h-143z" />
    <glyph glyph-name="Atilde" unicode="&#xc3;" horiz-adv-x="1196" 
d="M878 1153v-118h-101q69 -204 108.5 -325t52.5 -159q38 -115 72 -225t61 -209h137v-117h-453v117h150l-85 307h-445l-84 -307h149v-117h-453v117h138q29 107 64.5 223t74 234.5t78 235t76.5 225.5h-100v118h560zM790 545q-20 66 -55.5 186.5t-99.5 303.5h-74
q-64 -183 -100.5 -303.5t-55.5 -186.5h385zM293 1328q5 55 21 94.5t39.5 65t53 37.5t62.5 12q38 0 75.5 -11t73 -24t68 -24t61.5 -11q62 0 77 65h78q-8 -100 -54 -156.5t-125 -56.5q-42 0 -80.5 11t-73.5 24.5t-67 24.5t-61 11q-32 0 -47 -16t-21 -46h-80z" />
    <glyph glyph-name="Adieresis" unicode="&#xc4;" horiz-adv-x="1196" 
d="M878 1153v-118h-101q69 -204 108.5 -325t52.5 -159q38 -115 72 -225t61 -209h137v-117h-453v117h150l-85 307h-445l-84 -307h149v-117h-453v117h138q29 107 64.5 223t74 234.5t78 235t76.5 225.5h-100v118h560zM790 545q-20 66 -55.5 186.5t-99.5 303.5h-74
q-64 -183 -100.5 -303.5t-55.5 -186.5h385zM830 1449v-153h-152v153h152zM519 1449v-153h-154v153h154z" />
    <glyph glyph-name="Aring" unicode="&#xc5;" horiz-adv-x="1196" 
d="M878 1153v-118h-101q69 -204 108.5 -325t52.5 -159q38 -115 72 -225t61 -209h137v-117h-453v117h150l-85 307h-445l-84 -307h149v-117h-453v117h138q29 107 64.5 223t74 234.5t78 235t76.5 225.5h-100v118h560zM790 545q-20 66 -55.5 186.5t-99.5 303.5h-74
q-64 -183 -100.5 -303.5t-55.5 -186.5h385zM597 1549q35 0 66 -12t54 -33.5t36 -50.5t13 -63t-13 -63.5t-36 -51t-54 -34t-66 -12.5t-66 12.5t-53.5 34t-35.5 51t-13 63.5t13 63t35.5 50.5t53.5 33.5t66 12zM597 1488q-22 0 -41 -7.5t-33.5 -20.5t-22.5 -31t-8 -39t8 -39
t22.5 -31.5t33.5 -21t41 -7.5t41 7.5t33 21t22 31.5t8 39t-8 39t-22 31t-33 20.5t-41 7.5z" />
    <glyph glyph-name="AE" unicode="&#xc6;" horiz-adv-x="1733" 
d="M1563 832h-132l-45 194h-516l88 -371h362l-24 114h97l85 -359h-98l-39 138h-359l104 -423h491l-49 203h129l78 -328h-991l12 125h169l-71 299h-461l-102 -299h150l-11 -125h-453l11 125h137l371 910h-102l16 118h1077zM825 545l-115 481h-76l-192 -481h383z" />
    <glyph glyph-name="Ccedilla" unicode="&#xc7;" horiz-adv-x="1249" 
d="M643 -19q-132 0 -238.5 43.5t-181 121.5t-114.5 187.5t-40 241.5t40 242t117 188.5t189 122t255 43.5q115 0 204.5 -41.5t152.5 -107.5v131h130v-349h-125q-58 117 -158 174t-226 57q-95 0 -169.5 -34.5t-126 -95.5t-79 -144.5t-27.5 -180.5q0 -96 22.5 -180.5
t71.5 -147.5t126.5 -99t187.5 -36q63 0 124 13t114 44t94.5 80.5t66.5 123.5l135 -71q-41 -99 -103 -162t-135.5 -99.5t-152.5 -50.5t-154 -14zM467 -263q23 -4 44.5 -6t41.5 -2q42 0 68.5 12t26.5 41q0 25 -26.5 39.5t-71.5 18.5l58 165h72l-27 -124q60 -7 94 -32t34 -67
q0 -26 -11 -52t-36 -46.5t-66 -33.5t-101 -13q-23 0 -47.5 1.5t-52.5 6.5v92z" />
    <glyph glyph-name="Egrave" unicode="&#xc8;" horiz-adv-x="1119" 
d="M60 117h156v918h-156v118h971v-321h-131v203h-525v-380h362v114h100v-359h-101v116h-359v-409h525v211h129v-328h-971v117zM593 1262l-187 257h207l99 -257h-119z" />
    <glyph glyph-name="Eacute" unicode="&#xc9;" horiz-adv-x="1119" 
d="M60 117h156v918h-156v118h971v-321h-131v203h-525v-380h362v114h100v-359h-101v116h-359v-409h525v211h129v-328h-971v117zM406 1262l99 257h207l-187 -257h-119z" />
    <glyph glyph-name="Ecircumflex" unicode="&#xca;" horiz-adv-x="1119" 
d="M60 117h156v918h-156v118h971v-321h-131v203h-525v-380h362v114h100v-359h-101v116h-359v-409h525v211h129v-328h-971v117zM321 1244l98 275h275l104 -275h-148l-93 230l-93 -230h-143z" />
    <glyph glyph-name="Edieresis" unicode="&#xcb;" horiz-adv-x="1119" 
d="M60 117h156v918h-156v118h971v-321h-131v203h-525v-380h362v114h100v-359h-101v116h-359v-409h525v211h129v-328h-971v117zM792 1449v-153h-152v153h152zM481 1449v-153h-154v153h154z" />
    <glyph glyph-name="Igrave" unicode="&#xcc;" horiz-adv-x="581" 
d="M75 117h134v918h-134v118h428v-118h-132v-918h132v-117h-428v117zM324 1262l-187 257h207l99 -257h-119z" />
    <glyph glyph-name="Iacute" unicode="&#xcd;" horiz-adv-x="581" 
d="M75 117h134v918h-134v118h428v-118h-132v-918h132v-117h-428v117zM139 1262l99 257h207l-187 -257h-119z" />
    <glyph glyph-name="Icircumflex" unicode="&#xce;" horiz-adv-x="581" 
d="M75 117h134v918h-134v118h428v-118h-132v-918h132v-117h-428v117zM53 1244l98 275h275l104 -275h-148l-93 230l-93 -230h-143z" />
    <glyph glyph-name="Idieresis" unicode="&#xcf;" horiz-adv-x="581" 
d="M75 117h134v918h-134v118h428v-118h-132v-918h132v-117h-428v117zM523 1449v-153h-152v153h152zM212 1449v-153h-154v153h154z" />
    <glyph glyph-name="Eth" unicode="&#xd0;" horiz-adv-x="1273" 
d="M59 125h159v381h-157v144h157v376h-159v127h554q114 0 202 -23t153 -63.5t109.5 -95t71.5 -117.5t38.5 -131.5t11.5 -135.5q0 -133 -33.5 -241t-105.5 -185t-186 -119t-275 -42h-540v125zM380 650h198v-144h-198v-381h225q126 0 209 36.5t131.5 99t68.5 145t20 175.5
q0 95 -22.5 176.5t-73 141t-131.5 93.5t-198 34h-229v-376z" />
    <glyph glyph-name="Ntilde" unicode="&#xd1;" horiz-adv-x="1322" 
d="M56 117h169v918h-169v118h382l548 -942v824h-165v118h472v-118h-173v-1035h-183l-578 997v-880h169v-117h-472v117zM356 1328q5 55 21 94.5t39.5 65t53 37.5t62.5 12q38 0 75.5 -11t73 -24t68 -24t61.5 -11q62 0 77 65h78q-8 -100 -54 -156.5t-125 -56.5q-42 0 -80.5 11
t-73.5 24.5t-67 24.5t-61 11q-32 0 -47 -16t-21 -46h-80z" />
    <glyph glyph-name="Ograve" unicode="&#xd2;" horiz-adv-x="1321" 
d="M66 575q0 125 41 234t117.5 189.5t187 126.5t248.5 46q139 0 249.5 -46.5t187.5 -127t118 -189.5t41 -233t-41 -232.5t-118 -188.5t-187.5 -126.5t-249.5 -46.5t-249 46t-186.5 126.5t-117.5 188.5t-41 233zM243 575q0 -95 29.5 -178t84.5 -145.5t131.5 -98.5t171.5 -36
t172.5 36t132 98.5t84 145.5t29.5 178q0 96 -29.5 180t-84 146.5t-132 98t-172.5 35.5t-171.5 -35.5t-131.5 -98t-84.5 -146.5t-29.5 -180zM694 1262l-187 257h207l99 -257h-119z" />
    <glyph glyph-name="Oacute" unicode="&#xd3;" horiz-adv-x="1321" 
d="M66 575q0 125 41 234t117.5 189.5t187 126.5t248.5 46q139 0 249.5 -46.5t187.5 -127t118 -189.5t41 -233t-41 -232.5t-118 -188.5t-187.5 -126.5t-249.5 -46.5t-249 46t-186.5 126.5t-117.5 188.5t-41 233zM243 575q0 -95 29.5 -178t84.5 -145.5t131.5 -98.5t171.5 -36
t172.5 36t132 98.5t84 145.5t29.5 178q0 96 -29.5 180t-84 146.5t-132 98t-172.5 35.5t-171.5 -35.5t-131.5 -98t-84.5 -146.5t-29.5 -180zM507 1262l99 257h207l-187 -257h-119z" />
    <glyph glyph-name="Ocircumflex" unicode="&#xd4;" horiz-adv-x="1321" 
d="M66 575q0 125 41 234t117.5 189.5t187 126.5t248.5 46q139 0 249.5 -46.5t187.5 -127t118 -189.5t41 -233t-41 -232.5t-118 -188.5t-187.5 -126.5t-249.5 -46.5t-249 46t-186.5 126.5t-117.5 188.5t-41 233zM243 575q0 -95 29.5 -178t84.5 -145.5t131.5 -98.5t171.5 -36
t172.5 36t132 98.5t84 145.5t29.5 178q0 96 -29.5 180t-84 146.5t-132 98t-172.5 35.5t-171.5 -35.5t-131.5 -98t-84.5 -146.5t-29.5 -180zM422 1244l98 275h275l104 -275h-148l-93 230l-93 -230h-143z" />
    <glyph glyph-name="Otilde" unicode="&#xd5;" horiz-adv-x="1321" 
d="M66 575q0 125 41 234t117.5 189.5t187 126.5t248.5 46q139 0 249.5 -46.5t187.5 -127t118 -189.5t41 -233t-41 -232.5t-118 -188.5t-187.5 -126.5t-249.5 -46.5t-249 46t-186.5 126.5t-117.5 188.5t-41 233zM243 575q0 -95 29.5 -178t84.5 -145.5t131.5 -98.5t171.5 -36
t172.5 36t132 98.5t84 145.5t29.5 178q0 96 -29.5 180t-84 146.5t-132 98t-172.5 35.5t-171.5 -35.5t-131.5 -98t-84.5 -146.5t-29.5 -180zM356 1328q5 55 21 94.5t39.5 65t53 37.5t62.5 12q38 0 75.5 -11t73 -24t68 -24t61.5 -11q62 0 77 65h78q-8 -100 -54 -156.5
t-125 -56.5q-42 0 -80.5 11t-73.5 24.5t-67 24.5t-61 11q-32 0 -47 -16t-21 -46h-80z" />
    <glyph glyph-name="Odieresis" unicode="&#xd6;" horiz-adv-x="1321" 
d="M66 575q0 125 41 234t117.5 189.5t187 126.5t248.5 46q139 0 249.5 -46.5t187.5 -127t118 -189.5t41 -233t-41 -232.5t-118 -188.5t-187.5 -126.5t-249.5 -46.5t-249 46t-186.5 126.5t-117.5 188.5t-41 233zM243 575q0 -95 29.5 -178t84.5 -145.5t131.5 -98.5t171.5 -36
t172.5 36t132 98.5t84 145.5t29.5 178q0 96 -29.5 180t-84 146.5t-132 98t-172.5 35.5t-171.5 -35.5t-131.5 -98t-84.5 -146.5t-29.5 -180zM893 1449v-153h-152v153h152zM582 1449v-153h-154v153h154z" />
    <glyph glyph-name="multiply" unicode="&#xd7;" horiz-adv-x="929" 
d="M390 434l-210 210l83 83l210 -210l211 210l83 -83l-211 -210l211 -209l-84 -82l-210 209l-209 -209l-84 82z" />
    <glyph glyph-name="Oslash" unicode="&#xd8;" horiz-adv-x="1320" 
d="M65 575q0 125 41 234t117.5 189.5t187 126.5t248.5 46q125 0 234 -41l54 105l94 -43l-54 -108q63 -39 113 -92.5t84.5 -119t52.5 -141t18 -156.5q0 -124 -41 -232.5t-118 -188.5t-187.5 -126.5t-249.5 -46.5q-123 0 -215 34l-55 -107l-94 43l53 106q-68 37 -120.5 91
t-88.5 121t-55 144.5t-19 161.5zM242 575q0 -121 45.5 -219.5t130.5 -161.5l410 808q-72 34 -169 34q-95 0 -171.5 -36t-131.5 -98t-84.5 -146.5t-29.5 -180.5zM1077 575q0 115 -42 212t-118 160l-408 -803q73 -26 150 -26q95 0 172.5 36t132 98t84 145t29.5 178z" />
    <glyph glyph-name="Ugrave" unicode="&#xd9;" horiz-adv-x="1211" 
d="M34 1035v118h452v-118h-142v-657q0 -64 13.5 -112.5t44 -81.5t80 -50t120.5 -17q76 0 127.5 18t82 52.5t43.5 85.5t13 116v646h-142v118h451v-118h-149q0 -119 0.5 -229.5t0.5 -199t0.5 -148.5t0.5 -78q0 -108 -33.5 -183.5t-90.5 -123.5t-132.5 -69.5t-159.5 -21.5
q-134 0 -218 34t-131.5 89.5t-65 127.5t-17.5 149v37t0.5 77.5t0.5 104t0.5 116.5t0.5 114v97v107h-150zM639 1262l-187 257h207l99 -257h-119z" />
    <glyph glyph-name="Uacute" unicode="&#xda;" horiz-adv-x="1211" 
d="M34 1035v118h452v-118h-142v-657q0 -64 13.5 -112.5t44 -81.5t80 -50t120.5 -17q76 0 127.5 18t82 52.5t43.5 85.5t13 116v646h-142v118h451v-118h-149q0 -119 0.5 -229.5t0.5 -199t0.5 -148.5t0.5 -78q0 -108 -33.5 -183.5t-90.5 -123.5t-132.5 -69.5t-159.5 -21.5
q-134 0 -218 34t-131.5 89.5t-65 127.5t-17.5 149v37t0.5 77.5t0.5 104t0.5 116.5t0.5 114v97v107h-150zM452 1262l99 257h207l-187 -257h-119z" />
    <glyph glyph-name="Ucircumflex" unicode="&#xdb;" horiz-adv-x="1211" 
d="M34 1035v118h452v-118h-142v-657q0 -64 13.5 -112.5t44 -81.5t80 -50t120.5 -17q76 0 127.5 18t82 52.5t43.5 85.5t13 116v646h-142v118h451v-118h-149q0 -119 0.5 -229.5t0.5 -199t0.5 -148.5t0.5 -78q0 -108 -33.5 -183.5t-90.5 -123.5t-132.5 -69.5t-159.5 -21.5
q-134 0 -218 34t-131.5 89.5t-65 127.5t-17.5 149v37t0.5 77.5t0.5 104t0.5 116.5t0.5 114v97v107h-150zM367 1244l98 275h275l104 -275h-148l-93 230l-93 -230h-143z" />
    <glyph glyph-name="Udieresis" unicode="&#xdc;" horiz-adv-x="1211" 
d="M34 1035v118h452v-118h-142v-657q0 -64 13.5 -112.5t44 -81.5t80 -50t120.5 -17q76 0 127.5 18t82 52.5t43.5 85.5t13 116v646h-142v118h451v-118h-149q0 -119 0.5 -229.5t0.5 -199t0.5 -148.5t0.5 -78q0 -108 -33.5 -183.5t-90.5 -123.5t-132.5 -69.5t-159.5 -21.5
q-134 0 -218 34t-131.5 89.5t-65 127.5t-17.5 149v37t0.5 77.5t0.5 104t0.5 116.5t0.5 114v97v107h-150zM838 1449v-153h-152v153h152zM527 1449v-153h-154v153h154z" />
    <glyph glyph-name="Yacute" unicode="&#xdd;" horiz-adv-x="1130" 
d="M327 117h159v413l-358 505h-146v118h472v-118h-150l274 -387l257 387h-150v118h460v-118h-156l-343 -505v-413h164v-117h-483v117zM412 1262l99 257h207l-187 -257h-119z" />
    <glyph glyph-name="Thorn" unicode="&#xde;" horiz-adv-x="1030" 
d="M63 125h151v901h-151v127h311v-152h222q120 0 196.5 -32.5t121 -83t61.5 -112.5t17 -120q0 -106 -35 -174.5t-97.5 -108t-149 -55t-188.5 -15.5h-146v-175h158v-125h-471v125zM374 425h178q81 0 134.5 17.5t84.5 48.5t43.5 73t12.5 91q0 109 -58.5 164t-167.5 55h-227
v-449z" />
    <glyph glyph-name="germandbls" unicode="&#xdf;" horiz-adv-x="1114" 
d="M493 125v-125h-421v125h150v661q0 91 23 162.5t70.5 121t119.5 75.5t171 26q72 0 130.5 -20.5t100.5 -57.5t65 -89t23 -115q0 -87 -42 -153t-135 -95q67 -11 120.5 -37t90.5 -64t56.5 -87t19.5 -107q0 -75 -23 -138.5t-74 -109.5t-131 -72t-194 -26v125q56 0 106 9.5
t88 34t60 67.5t22 110q0 46 -16.5 86.5t-53.5 71t-97.5 48t-148.5 17.5v106q57 0 97 17.5t65 46.5t36 65.5t11 74.5t-12.5 69t-35.5 53.5t-55.5 34.5t-72.5 12q-55 0 -100 -13.5t-77 -44.5t-49.5 -80t-17.5 -120v-665h131z" />
    <glyph glyph-name="agrave" unicode="&#xe0;" horiz-adv-x="889" 
d="M102 708q54 54 134 83t183 29q94 0 157 -22.5t100 -59.5t52.5 -85t15.5 -99v-447h144v-107h-277l-2 83q-40 -29 -75 -48.5t-68.5 -31t-67.5 -16.5t-71 -5q-63 0 -113.5 19.5t-86 51.5t-54 74.5t-18.5 88.5q0 75 27.5 124t74.5 78t110.5 40.5t134.5 11.5q48 0 95 -5
t98 -15v97q0 42 -14.5 71.5t-40 47.5t-59.5 26.5t-72 8.5q-69 0 -124.5 -22.5t-90.5 -68.5zM595 352q-32 1 -80.5 8.5t-102.5 7.5q-39 0 -78 -5.5t-69.5 -21.5t-49.5 -46t-19 -79q0 -26 10 -49.5t29.5 -40.5t47.5 -27t65 -10q33 0 67 6t66.5 17.5t61.5 28t52 37.5v174z
M478 914l-187 257h207l99 -257h-119z" />
    <glyph glyph-name="aacute" unicode="&#xe1;" horiz-adv-x="889" 
d="M102 708q54 54 134 83t183 29q94 0 157 -22.5t100 -59.5t52.5 -85t15.5 -99v-447h144v-107h-277l-2 83q-40 -29 -75 -48.5t-68.5 -31t-67.5 -16.5t-71 -5q-63 0 -113.5 19.5t-86 51.5t-54 74.5t-18.5 88.5q0 75 27.5 124t74.5 78t110.5 40.5t134.5 11.5q48 0 95 -5
t98 -15v97q0 42 -14.5 71.5t-40 47.5t-59.5 26.5t-72 8.5q-69 0 -124.5 -22.5t-90.5 -68.5zM595 352q-32 1 -80.5 8.5t-102.5 7.5q-39 0 -78 -5.5t-69.5 -21.5t-49.5 -46t-19 -79q0 -26 10 -49.5t29.5 -40.5t47.5 -27t65 -10q33 0 67 6t66.5 17.5t61.5 28t52 37.5v174z
M291 914l99 257h207l-187 -257h-119z" />
    <glyph glyph-name="acircumflex" unicode="&#xe2;" horiz-adv-x="889" 
d="M102 708q54 54 134 83t183 29q94 0 157 -22.5t100 -59.5t52.5 -85t15.5 -99v-447h144v-107h-277l-2 83q-40 -29 -75 -48.5t-68.5 -31t-67.5 -16.5t-71 -5q-63 0 -113.5 19.5t-86 51.5t-54 74.5t-18.5 88.5q0 75 27.5 124t74.5 78t110.5 40.5t134.5 11.5q48 0 95 -5
t98 -15v97q0 42 -14.5 71.5t-40 47.5t-59.5 26.5t-72 8.5q-69 0 -124.5 -22.5t-90.5 -68.5zM595 352q-32 1 -80.5 8.5t-102.5 7.5q-39 0 -78 -5.5t-69.5 -21.5t-49.5 -46t-19 -79q0 -26 10 -49.5t29.5 -40.5t47.5 -27t65 -10q33 0 67 6t66.5 17.5t61.5 28t52 37.5v174z
M206 896l98 275h275l104 -275h-148l-93 230l-93 -230h-143z" />
    <glyph glyph-name="atilde" unicode="&#xe3;" horiz-adv-x="889" 
d="M102 708q54 54 134 83t183 29q94 0 157 -22.5t100 -59.5t52.5 -85t15.5 -99v-447h144v-107h-277l-2 83q-40 -29 -75 -48.5t-68.5 -31t-67.5 -16.5t-71 -5q-63 0 -113.5 19.5t-86 51.5t-54 74.5t-18.5 88.5q0 75 27.5 124t74.5 78t110.5 40.5t134.5 11.5q48 0 95 -5
t98 -15v97q0 42 -14.5 71.5t-40 47.5t-59.5 26.5t-72 8.5q-69 0 -124.5 -22.5t-90.5 -68.5zM595 352q-32 1 -80.5 8.5t-102.5 7.5q-39 0 -78 -5.5t-69.5 -21.5t-49.5 -46t-19 -79q0 -26 10 -49.5t29.5 -40.5t47.5 -27t65 -10q33 0 67 6t66.5 17.5t61.5 28t52 37.5v174z
M140 980q5 55 21 94.5t39.5 65t53 37.5t62.5 12q38 0 75.5 -11t73 -24t68 -24t61.5 -11q62 0 77 65h78q-8 -100 -54 -156.5t-125 -56.5q-42 0 -80.5 11t-73.5 24.5t-67 24.5t-61 11q-32 0 -47 -16t-21 -46h-80z" />
    <glyph glyph-name="adieresis" unicode="&#xe4;" horiz-adv-x="889" 
d="M102 708q54 54 134 83t183 29q94 0 157 -22.5t100 -59.5t52.5 -85t15.5 -99v-447h144v-107h-277l-2 83q-40 -29 -75 -48.5t-68.5 -31t-67.5 -16.5t-71 -5q-63 0 -113.5 19.5t-86 51.5t-54 74.5t-18.5 88.5q0 75 27.5 124t74.5 78t110.5 40.5t134.5 11.5q48 0 95 -5
t98 -15v97q0 42 -14.5 71.5t-40 47.5t-59.5 26.5t-72 8.5q-69 0 -124.5 -22.5t-90.5 -68.5zM595 352q-32 1 -80.5 8.5t-102.5 7.5q-39 0 -78 -5.5t-69.5 -21.5t-49.5 -46t-19 -79q0 -26 10 -49.5t29.5 -40.5t47.5 -27t65 -10q33 0 67 6t66.5 17.5t61.5 28t52 37.5v174z
M677 1101v-153h-152v153h152zM366 1101v-153h-154v153h154z" />
    <glyph glyph-name="aring" unicode="&#xe5;" horiz-adv-x="889" 
d="M102 708q54 54 134 83t183 29q94 0 157 -22.5t100 -59.5t52.5 -85t15.5 -99v-447h144v-107h-277l-2 83q-40 -29 -75 -48.5t-68.5 -31t-67.5 -16.5t-71 -5q-63 0 -113.5 19.5t-86 51.5t-54 74.5t-18.5 88.5q0 75 27.5 124t74.5 78t110.5 40.5t134.5 11.5q48 0 95 -5
t98 -15v97q0 42 -14.5 71.5t-40 47.5t-59.5 26.5t-72 8.5q-69 0 -124.5 -22.5t-90.5 -68.5zM595 352q-32 1 -80.5 8.5t-102.5 7.5q-39 0 -78 -5.5t-69.5 -21.5t-49.5 -46t-19 -79q0 -26 10 -49.5t29.5 -40.5t47.5 -27t65 -10q33 0 67 6t66.5 17.5t61.5 28t52 37.5v174z
M444 1201q35 0 66 -12t54 -33.5t36 -50.5t13 -63t-13 -63.5t-36 -51t-54 -34t-66 -12.5t-66 12.5t-53.5 34t-35.5 51t-13 63.5t13 63t35.5 50.5t53.5 33.5t66 12zM444 1140q-22 0 -41 -7.5t-33.5 -20.5t-22.5 -31t-8 -39t8 -39t22.5 -31.5t33.5 -21t41 -7.5t41 7.5t33 21
t22 31.5t8 39t-8 39t-22 31t-33 20.5t-41 7.5z" />
    <glyph glyph-name="ae" unicode="&#xe6;" horiz-adv-x="1453" 
d="M327 -14q-63 0 -113.5 19.5t-86 52t-54 75t-18.5 88.5q0 72 27.5 120t74.5 76.5t110.5 40.5t134.5 12q48 0 95 -5t98 -15v97q0 44 -15.5 75t-42.5 50.5t-62.5 28t-75.5 8.5q-126 0 -185 -83l-140 39q46 79 131.5 120.5t213.5 41.5q58 0 103.5 -11t80 -30.5t59 -46.5
t40.5 -59q58 69 135.5 108t174.5 39q95 0 166.5 -36t119.5 -97.5t72 -142t24 -169.5v-19l-635 2q7 -58 26.5 -106.5t52 -83.5t77.5 -54.5t104 -19.5q75 0 140 30.5t107 85.5l128 -56q-55 -88 -151 -136t-227 -48q-106 0 -187.5 33t-141.5 93q-47 -29 -89 -51t-85 -36.5
t-88 -22t-98 -7.5zM1251 467q-8 49 -27 94t-48.5 78.5t-70 53.5t-91.5 20q-54 0 -97.5 -18.5t-75 -51.5t-51.5 -78t-27 -98h488zM595 352q-32 1 -80.5 8.5t-102.5 7.5q-39 0 -78 -5.5t-69.5 -21.5t-49.5 -45t-19 -75q0 -54 38.5 -89.5t113.5 -35.5q33 0 67 6t66.5 16.5
t61.5 25.5t52 34v174z" />
    <glyph glyph-name="ccedilla" unicode="&#xe7;" horiz-adv-x="899" 
d="M829 157q-54 -82 -146 -129t-219 -47q-110 0 -187.5 38.5t-126 98.5t-71 134t-22.5 146q0 92 30.5 169.5t84.5 133.5t128.5 87.5t162.5 31.5q47 0 85.5 -11t68 -27.5t48.5 -35t26 -33.5l-4 92h133v-288h-129q-8 36 -24 68t-42.5 56.5t-64.5 38.5t-89 14
q-124 0 -189.5 -78t-65.5 -216q0 -66 16.5 -120t48 -92.5t78.5 -59.5t109 -21q85 0 156 35t116 104zM292 -263q23 -4 44.5 -6t41.5 -2q42 0 68.5 12t26.5 41q0 25 -26.5 39.5t-71.5 18.5l58 165h72l-27 -124q60 -7 94 -32t34 -67q0 -26 -11 -52t-36 -46.5t-66 -33.5
t-101 -13q-23 0 -47.5 1.5t-52.5 6.5v92z" />
    <glyph glyph-name="egrave" unicode="&#xe8;" horiz-adv-x="955" 
d="M219 365q3 -58 24 -105.5t58 -81.5t88.5 -52.5t116.5 -18.5q39 0 77 9t72 25.5t63 39.5t49 52l102 -76q-51 -78 -141.5 -126.5t-225.5 -48.5q-104 0 -187 33t-140.5 90t-88.5 133.5t-31 163.5q0 91 34 168t93 132.5t140 86.5t176 31q99 0 174 -35.5t125.5 -96t75.5 -140
t25 -166.5v-17h-679zM754 467q-6 49 -26 90.5t-52 72t-76.5 47.5t-99.5 17q-61 0 -108.5 -16.5t-82 -46t-56 -71.5t-30.5 -93h531zM511 914l-187 257h207l99 -257h-119z" />
    <glyph glyph-name="eacute" unicode="&#xe9;" horiz-adv-x="955" 
d="M219 365q3 -58 24 -105.5t58 -81.5t88.5 -52.5t116.5 -18.5q39 0 77 9t72 25.5t63 39.5t49 52l102 -76q-51 -78 -141.5 -126.5t-225.5 -48.5q-104 0 -187 33t-140.5 90t-88.5 133.5t-31 163.5q0 91 34 168t93 132.5t140 86.5t176 31q99 0 174 -35.5t125.5 -96t75.5 -140
t25 -166.5v-17h-679zM754 467q-6 49 -26 90.5t-52 72t-76.5 47.5t-99.5 17q-61 0 -108.5 -16.5t-82 -46t-56 -71.5t-30.5 -93h531zM324 914l99 257h207l-187 -257h-119z" />
    <glyph glyph-name="ecircumflex" unicode="&#xea;" horiz-adv-x="955" 
d="M219 365q3 -58 24 -105.5t58 -81.5t88.5 -52.5t116.5 -18.5q39 0 77 9t72 25.5t63 39.5t49 52l102 -76q-51 -78 -141.5 -126.5t-225.5 -48.5q-104 0 -187 33t-140.5 90t-88.5 133.5t-31 163.5q0 91 34 168t93 132.5t140 86.5t176 31q99 0 174 -35.5t125.5 -96t75.5 -140
t25 -166.5v-17h-679zM754 467q-6 49 -26 90.5t-52 72t-76.5 47.5t-99.5 17q-61 0 -108.5 -16.5t-82 -46t-56 -71.5t-30.5 -93h531zM239 896l98 275h275l104 -275h-148l-93 230l-93 -230h-143z" />
    <glyph glyph-name="edieresis" unicode="&#xeb;" horiz-adv-x="955" 
d="M219 365q3 -58 24 -105.5t58 -81.5t88.5 -52.5t116.5 -18.5q39 0 77 9t72 25.5t63 39.5t49 52l102 -76q-51 -78 -141.5 -126.5t-225.5 -48.5q-104 0 -187 33t-140.5 90t-88.5 133.5t-31 163.5q0 91 34 168t93 132.5t140 86.5t176 31q99 0 174 -35.5t125.5 -96t75.5 -140
t25 -166.5v-17h-679zM754 467q-6 49 -26 90.5t-52 72t-76.5 47.5t-99.5 17q-61 0 -108.5 -16.5t-82 -46t-56 -71.5t-30.5 -93h531zM710 1101v-153h-152v153h152zM399 1101v-153h-154v153h154z" />
    <glyph glyph-name="igrave" unicode="&#xec;" horiz-adv-x="509" 
d="M105 941l-187 257h207l99 -257h-119zM59 113h135v576h-135v116h284v-692h136v-113h-420v113z" />
    <glyph glyph-name="iacute" unicode="&#xed;" horiz-adv-x="509" 
d="M191 941l99 257h207l-187 -257h-119zM59 113h135v576h-135v116h284v-692h136v-113h-420v113z" />
    <glyph glyph-name="icircumflex" unicode="&#xee;" horiz-adv-x="509" 
d="M-37 925l98 275h275l104 -275h-148l-93 230l-93 -230h-143zM59 113h135v576h-135v116h284v-692h136v-113h-420v113z" />
    <glyph glyph-name="idieresis" unicode="&#xef;" horiz-adv-x="509" 
d="M439 1090v-153h-152v153h152zM128 1090v-153h-154v153h154zM59 113h135v576h-135v116h284v-692h136v-113h-420v113z" />
    <glyph glyph-name="eth" unicode="&#xf0;" horiz-adv-x="932" 
d="M122 1052q49 57 125.5 88t176.5 31q121 0 204 -52.5t135 -149.5l183 37l21 -101l-163 -33q42 -129 42 -304q0 -141 -26.5 -250t-78 -184t-129 -114t-179.5 -39q-87 0 -155.5 30t-116 82t-72.5 122.5t-25 151.5q0 75 24.5 139.5t69.5 111.5t108 73.5t141 26.5
q43 0 85.5 -7.5t81 -21.5t71.5 -34.5t57 -47.5q0 72 -7.5 131.5t-21.5 107.5l-213 -42l-20 101l190 38q-30 58 -84 83t-117 25q-35 0 -70 -7t-66.5 -19t-58.5 -28.5t-46 -35.5zM696 457q-29 33 -64.5 56.5t-72.5 39t-72 23t-63 7.5q-53 0 -94 -17t-69.5 -47t-43 -71
t-14.5 -90q0 -53 15 -99t45 -80t74 -53.5t102 -19.5q63 0 108 22.5t75.5 66.5t48 109.5t25.5 152.5z" />
    <glyph glyph-name="ntilde" unicode="&#xf1;" horiz-adv-x="1031" 
d="M63 107h143v587h-149v111h296l4 -104q77 60 143 89.5t140 29.5q55 0 98.5 -18t74 -52t46.5 -81.5t16 -106.5l-1 -455h145v-107h-402v107h110v400q0 88 -27 137.5t-98 49.5q-69 0 -130 -36t-115 -88v-463h145v-107h-439v107zM211 980q5 55 21 94.5t39.5 65t53 37.5
t62.5 12q38 0 75.5 -11t73 -24t68 -24t61.5 -11q62 0 77 65h78q-8 -100 -54 -156.5t-125 -56.5q-42 0 -80.5 11t-73.5 24.5t-67 24.5t-61 11q-32 0 -47 -16t-21 -46h-80z" />
    <glyph glyph-name="ograve" unicode="&#xf2;" horiz-adv-x="966" 
d="M482 107q62 0 111.5 22.5t84.5 62t53.5 93.5t18.5 117q0 61 -18.5 114.5t-53.5 93t-84.5 62t-111.5 22.5t-111 -22.5t-83.5 -62t-53 -93t-18.5 -114.5q0 -63 18.5 -117t53 -93.5t83.5 -62t111 -22.5zM482 -18q-98 0 -176.5 33t-133.5 90t-85 133.5t-30 163.5t30 163
t85.5 133t134.5 89.5t177 32.5q97 0 176 -32.5t134.5 -89.5t85.5 -133t30 -163t-30 -163.5t-86 -133.5t-135 -90t-177 -33zM517 914l-187 257h207l99 -257h-119z" />
    <glyph glyph-name="oacute" unicode="&#xf3;" horiz-adv-x="966" 
d="M482 107q62 0 111.5 22.5t84.5 62t53.5 93.5t18.5 117q0 61 -18.5 114.5t-53.5 93t-84.5 62t-111.5 22.5t-111 -22.5t-83.5 -62t-53 -93t-18.5 -114.5q0 -63 18.5 -117t53 -93.5t83.5 -62t111 -22.5zM482 -18q-98 0 -176.5 33t-133.5 90t-85 133.5t-30 163.5t30 163
t85.5 133t134.5 89.5t177 32.5q97 0 176 -32.5t134.5 -89.5t85.5 -133t30 -163t-30 -163.5t-86 -133.5t-135 -90t-177 -33zM330 914l99 257h207l-187 -257h-119z" />
    <glyph glyph-name="ocircumflex" unicode="&#xf4;" horiz-adv-x="966" 
d="M482 107q62 0 111.5 22.5t84.5 62t53.5 93.5t18.5 117q0 61 -18.5 114.5t-53.5 93t-84.5 62t-111.5 22.5t-111 -22.5t-83.5 -62t-53 -93t-18.5 -114.5q0 -63 18.5 -117t53 -93.5t83.5 -62t111 -22.5zM482 -18q-98 0 -176.5 33t-133.5 90t-85 133.5t-30 163.5t30 163
t85.5 133t134.5 89.5t177 32.5q97 0 176 -32.5t134.5 -89.5t85.5 -133t30 -163t-30 -163.5t-86 -133.5t-135 -90t-177 -33zM244 896l98 275h275l104 -275h-148l-93 230l-93 -230h-143z" />
    <glyph glyph-name="otilde" unicode="&#xf5;" horiz-adv-x="966" 
d="M482 107q62 0 111.5 22.5t84.5 62t53.5 93.5t18.5 117q0 61 -18.5 114.5t-53.5 93t-84.5 62t-111.5 22.5t-111 -22.5t-83.5 -62t-53 -93t-18.5 -114.5q0 -63 18.5 -117t53 -93.5t83.5 -62t111 -22.5zM482 -18q-98 0 -176.5 33t-133.5 90t-85 133.5t-30 163.5t30 163
t85.5 133t134.5 89.5t177 32.5q97 0 176 -32.5t134.5 -89.5t85.5 -133t30 -163t-30 -163.5t-86 -133.5t-135 -90t-177 -33zM178 980q5 55 21 94.5t39.5 65t53 37.5t62.5 12q38 0 75.5 -11t73 -24t68 -24t61.5 -11q62 0 77 65h78q-8 -100 -54 -156.5t-125 -56.5
q-42 0 -80.5 11t-73.5 24.5t-67 24.5t-61 11q-32 0 -47 -16t-21 -46h-80z" />
    <glyph glyph-name="odieresis" unicode="&#xf6;" horiz-adv-x="966" 
d="M482 107q62 0 111.5 22.5t84.5 62t53.5 93.5t18.5 117q0 61 -18.5 114.5t-53.5 93t-84.5 62t-111.5 22.5t-111 -22.5t-83.5 -62t-53 -93t-18.5 -114.5q0 -63 18.5 -117t53 -93.5t83.5 -62t111 -22.5zM482 -18q-98 0 -176.5 33t-133.5 90t-85 133.5t-30 163.5t30 163
t85.5 133t134.5 89.5t177 32.5q97 0 176 -32.5t134.5 -89.5t85.5 -133t30 -163t-30 -163.5t-86 -133.5t-135 -90t-177 -33zM715 1101v-153h-152v153h152zM404 1101v-153h-154v153h154z" />
    <glyph glyph-name="divide" unicode="&#xf7;" horiz-adv-x="1164" 
d="M931 593v-118h-711v118h711zM501 944h153v-152h-153v152zM501 275h153v-154h-153v154z" />
    <glyph glyph-name="oslash" unicode="&#xf8;" horiz-adv-x="967" 
d="M482 -18q-38 0 -72 5t-66 14l-65 -127l-94 43l65 126q-94 57 -143.5 150.5t-49.5 208.5q0 87 30 163t85.5 133t134.5 89.5t177 32.5q83 0 152 -24l66 130l94 -43l-68 -132q88 -57 135 -147t47 -202q0 -87 -30 -163.5t-86 -133.5t-135 -90t-177 -33zM216 402
q0 -75 24.5 -135.5t72.5 -100.5l262 512q-39 16 -93 16q-62 0 -111 -22.5t-83.5 -62t-53 -93t-18.5 -114.5zM482 107q62 0 111.5 22.5t84.5 62t53.5 93.5t18.5 117q0 69 -22.5 125.5t-64.5 96.5l-259 -507q31 -10 78 -10z" />
    <glyph glyph-name="ugrave" unicode="&#xf9;" horiz-adv-x="994" 
d="M678 0l-5 100q-66 -60 -131.5 -89t-140.5 -29q-66 0 -113 19.5t-77.5 55.5t-44.5 87.5t-14 116.5v433h-120v111h272v-537q0 -78 28 -119.5t97 -41.5q70 0 133 40t111 103v444h-145v111h296v-698h146v-107h-292zM531 914l-187 257h207l99 -257h-119z" />
    <glyph glyph-name="uacute" unicode="&#xfa;" horiz-adv-x="994" 
d="M678 0l-5 100q-66 -60 -131.5 -89t-140.5 -29q-66 0 -113 19.5t-77.5 55.5t-44.5 87.5t-14 116.5v433h-120v111h272v-537q0 -78 28 -119.5t97 -41.5q70 0 133 40t111 103v444h-145v111h296v-698h146v-107h-292zM344 914l99 257h207l-187 -257h-119z" />
    <glyph glyph-name="ucircumflex" unicode="&#xfb;" horiz-adv-x="994" 
d="M678 0l-5 100q-66 -60 -131.5 -89t-140.5 -29q-66 0 -113 19.5t-77.5 55.5t-44.5 87.5t-14 116.5v433h-120v111h272v-537q0 -78 28 -119.5t97 -41.5q70 0 133 40t111 103v444h-145v111h296v-698h146v-107h-292zM258 896l98 275h275l104 -275h-148l-93 230l-93 -230h-143z
" />
    <glyph glyph-name="udieresis" unicode="&#xfc;" horiz-adv-x="994" 
d="M678 0l-5 100q-66 -60 -131.5 -89t-140.5 -29q-66 0 -113 19.5t-77.5 55.5t-44.5 87.5t-14 116.5v433h-120v111h272v-537q0 -78 28 -119.5t97 -41.5q70 0 133 40t111 103v444h-145v111h296v-698h146v-107h-292zM729 1101v-153h-152v153h152zM418 1101v-153h-154v153h154z
" />
    <glyph glyph-name="yacute" unicode="&#xfd;" horiz-adv-x="982" 
d="M136 -108h111v-79q33 0 59.5 2.5t49 16.5t42.5 43t41 83l44 112h-95l-264 624h-125v111h406v-111h-108l202 -532h20l86 270l75 262h-115v111h413v-111h-129l-216 -658q-29 -89 -60 -155.5t-73 -111t-100 -66.5t-141 -22q-25 0 -58.5 2.5t-64.5 7.5v201zM338 914l99 257
h207l-187 -257h-119z" />
    <glyph glyph-name="thorn" unicode="&#xfe;" horiz-adv-x="1026" 
d="M24 -163h144v1195h-143v121h294v-446q63 58 134 85.5t162 27.5q92 0 166 -32t125.5 -87.5t79 -130.5t27.5 -160q0 -89 -28 -167t-79.5 -136t-125.5 -91.5t-166 -33.5q-44 0 -87 8.5t-82 25t-72 40.5t-55 55v-387h-294v113zM582 107q64 0 114 22.5t84 61.5t52 91.5
t18 113.5q0 60 -18.5 114t-54 95t-85.5 65t-113 24q-45 0 -84 -12.5t-71.5 -32t-59 -42t-45.5 -43.5v-335q21 -20 48.5 -41.5t60.5 -39.5t71.5 -29.5t82.5 -11.5z" />
    <glyph glyph-name="ydieresis" unicode="&#xff;" horiz-adv-x="982" 
d="M136 -108h111v-79q33 0 59.5 2.5t49 16.5t42.5 43t41 83l44 112h-95l-264 624h-125v111h406v-111h-108l202 -532h20l86 270l75 262h-115v111h413v-111h-129l-216 -658q-29 -89 -60 -155.5t-73 -111t-100 -66.5t-141 -22q-25 0 -58.5 2.5t-64.5 7.5v201zM723 1101v-153
h-152v153h152zM412 1101v-153h-154v153h154z" />
    <glyph glyph-name="hbar" unicode="&#x127;" horiz-adv-x="1024" 
d="M21 107h152v925h-150v121h299v-427q142 94 304 94q256 0 256 -264v-22.5t-0.5 -50.5t-0.5 -69.5v-78.5v-228h144v-107h-394v107h102v421q0 34 -6 64.5t-22 53t-43 35.5t-69 13q-61 0 -132.5 -21t-138.5 -66v-500h145v-107h-446v107zM87 936h326v-85h-326v85z" />
    <glyph glyph-name="Itilde" unicode="&#x128;" horiz-adv-x="581" 
d="M75 117h134v918h-134v118h428v-118h-132v-918h132v-117h-428v117zM-13 1328q5 55 21 94.5t39.5 65t53 37.5t62.5 12q38 0 75.5 -11t73 -24t68 -24t61.5 -11q62 0 77 65h78q-8 -100 -54 -156.5t-125 -56.5q-42 0 -80.5 11t-73.5 24.5t-67 24.5t-61 11q-32 0 -47 -16
t-21 -46h-80z" />
    <glyph glyph-name="itilde" unicode="&#x129;" horiz-adv-x="509" 
d="M59 113h135v576h-135v116h284v-692h136v-113h-420v113zM-48 980q5 55 21 94.5t39.5 65t53 37.5t62.5 12q38 0 75.5 -11t73 -24t68 -24t61.5 -11q62 0 77 65h78q-8 -100 -54 -156.5t-125 -56.5q-42 0 -80.5 11t-73.5 24.5t-67 24.5t-61 11q-32 0 -47 -16t-21 -46h-80z" />
    <glyph glyph-name="dotlessi" unicode="&#x131;" horiz-adv-x="509" 
d="M59 113h135v576h-135v116h284v-692h136v-113h-420v113z" />
    <glyph glyph-name="IJ" unicode="&#x132;" horiz-adv-x="1138" 
d="M75 117h134v918h-134v118h428v-118h-132v-918h132v-117h-428v117zM517 -61q23 -2 51.5 -3t68.5 -1q78 0 109.5 39.5t31.5 121.5v939h-155v118h471v-118h-153v-957q0 -84 -25 -139.5t-65 -88.5t-89.5 -46.5t-97.5 -13.5q-37 0 -77 4.5t-70 11.5v133z" />
    <glyph glyph-name="ij" unicode="&#x133;" horiz-adv-x="942" 
d="M59 107h135v587h-135v111h284v-698h136v-107h-420v107zM176 1066q0 18 7 34t19.5 28t29 18.5t35.5 6.5q39 0 65.5 -25t26.5 -62t-26.5 -62t-65.5 -25q-19 0 -35.5 6.5t-29 18.5t-19.5 28t-7 34zM441 -235q23 -2 40 -3t37 -1q42 0 70 11t45 34.5t24 60.5t7 90v737h-152
v111h303v-801q0 -76 -7 -143t-35 -117.5t-85 -80.5t-156 -31q-25 0 -46 1.5t-45 5.5v126zM644 1066q0 37 26.5 62t65.5 25t65.5 -25t26.5 -62t-26.5 -62t-65.5 -25t-65.5 25t-26.5 62z" />
    <glyph glyph-name="Jcircumflex" unicode="&#x134;" horiz-adv-x="557" 
d="M40 1277l98 275h275l104 -275h-148l-93 230l-93 -230h-143zM-64 -61q23 -2 51.5 -3t68.5 -1q78 0 109.5 39.5t31.5 121.5v939h-155v118h471v-118h-153v-957q0 -84 -25 -139.5t-65 -88.5t-89.5 -46.5t-97.5 -13.5q-37 0 -77 4.5t-70 11.5v133z" />
    <glyph glyph-name="jcircumflex" unicode="&#x135;" horiz-adv-x="441" 
d="M-60 -235q23 -2 40 -3t37 -1q42 0 70 11t45 34.5t24 60.5t7 90v732h-152v116h303v-801q0 -76 -7 -143t-35 -117.5t-85 -80.5t-156 -31q-25 0 -46 1.5t-45 5.5v126zM143 1066q0 37 26.5 62t65.5 25t65.5 -25t26.5 -62t-26.5 -62t-65.5 -25t-65.5 25t-26.5 62zM-17 896
l98 275h275l104 -275h-148l-93 230l-93 -230h-143z" />
    <glyph glyph-name="kcommaaccent" unicode="&#x137;" horiz-adv-x="995" 
d="M20 107h153v925h-153v121h301v-723l329 264h-139v111h447v-111h-132l-332 -279l342 -308h130v-107h-421v107h106l-330 298v-298h105v-107h-406v107zM384 -119h227v-211q0 -57 -11.5 -101.5t-38 -74.5t-70 -45.5t-107.5 -15.5v87q34 7 57 17.5t37 28t20.5 43t6.5 61.5
h-121v211z" />
    <glyph glyph-name="kgreenlandic" unicode="&#x138;" horiz-adv-x="995" 
d="M20 113h153v585h-153v121h301v-399l329 269h-139v116h447v-116h-132l-332 -284l342 -292h130v-113h-421v113h106l-330 282v-282h105v-113h-406v113z" />
    <glyph glyph-name="Ldotaccent" unicode="&#x13f;" horiz-adv-x="1707" 
 />
    <glyph glyph-name="ldot" unicode="&#x140;" horiz-adv-x="861" 
d="M588 679h172v-197h-172v197zM21 107h152v925h-149v121h298v-1046h133v-107h-434v107z" />
    <glyph glyph-name="Lslash" unicode="&#x141;" horiz-adv-x="985" 
d="M59 125h158v387l-157 -62v129l157 62v385h-158v127h474v-127h-155v-321l249 100v-129l-249 -100v-451h410v357h145v-482h-874v125z" />
    <glyph glyph-name="lslash" unicode="&#x142;" horiz-adv-x="511" 
d="M21 113h152v388l-137 -51v129l137 53v400h-149v121h298v-463l150 58v-136l-150 -56v-443h133v-113h-434v113z" />
    <glyph glyph-name="Nacute" unicode="&#x143;" horiz-adv-x="1322" 
d="M56 117h169v918h-169v118h382l548 -942v824h-165v118h472v-118h-173v-1035h-183l-578 997v-880h169v-117h-472v117zM508 1262l99 257h207l-187 -257h-119z" />
    <glyph glyph-name="nacute" unicode="&#x144;" horiz-adv-x="1031" 
d="M63 107h143v587h-149v111h296l4 -104q77 60 143 89.5t140 29.5q55 0 98.5 -18t74 -52t46.5 -81.5t16 -106.5l-1 -455h145v-107h-402v107h110v400q0 88 -27 137.5t-98 49.5q-69 0 -130 -36t-115 -88v-463h145v-107h-439v107zM362 914l99 257h207l-187 -257h-119z" />
    <glyph glyph-name="OE" unicode="&#x152;" horiz-adv-x="1920" 
d="M1832 1153v-321h-132v194h-524v-371h362l13 114h87v-359h-88l-13 116h-359v-399h525v201h129v-328h-815v95q-69 -54 -164.5 -84t-216.5 -30q-133 0 -238.5 46t-179 126.5t-112.5 188.5t-39 233t39 234t112.5 189.5t179 126.5t238.5 46q121 0 216.5 -30t164.5 -84v96h815z
M245 575q0 -117 35.5 -202.5t94.5 -141t137 -82.5t162 -27q88 0 176.5 28t166.5 85v698q-88 54 -177 80.5t-177 26.5q-86 0 -162 -28t-133 -85.5t-90 -145t-33 -206.5z" />
    <glyph glyph-name="oe" unicode="&#x153;" horiz-adv-x="1648" 
d="M482 -18q-98 0 -176.5 33t-133.5 90t-85 133.5t-30 163.5t30 163t85.5 133t134.5 89.5t177 32.5q118 0 205.5 -45.5t142.5 -121.5q60 78 152 122.5t204 44.5q99 0 174 -35.5t125.5 -96t75.5 -140t25 -166.5v-17h-679q3 -58 24 -105.5t58 -81.5t88.5 -52.5t116.5 -18.5
q39 0 77 9t72 25.5t63 39.5t49 52l102 -76q-51 -78 -141.5 -126.5t-225.5 -48.5q-121 0 -213 44.5t-149 122.5q-55 -76 -142.5 -121.5t-205.5 -45.5zM482 107q62 0 111.5 22.5t84.5 62t53.5 93.5t18.5 117q0 61 -18.5 114.5t-53.5 93t-84.5 62t-111.5 22.5t-111 -22.5
t-83.5 -62t-53 -93t-18.5 -114.5q0 -63 18.5 -117t53 -93.5t83.5 -62t111 -22.5zM1444 467q-6 49 -26 90.5t-52 72t-76.5 47.5t-99.5 17q-61 0 -108.5 -16.5t-82 -46t-56 -71.5t-30.5 -93h531z" />
    <glyph glyph-name="Racute" unicode="&#x154;" horiz-adv-x="1107" 
d="M57 117h163v918h-163v118h551q99 0 170.5 -21.5t118 -60.5t69 -94t22.5 -122q0 -118 -63 -194.5t-196 -102.5l234 -441h146v-117h-253l-283 538h-193v-421h156v-117h-479v117zM603 657q65 0 107.5 17.5t67.5 45.5t35 63.5t10 71.5q0 85 -60.5 132.5t-166.5 47.5h-216
v-378h223zM400 1262l99 257h207l-187 -257h-119z" />
    <glyph glyph-name="Rcommaaccent" unicode="&#x156;" horiz-adv-x="1107" 
d="M57 117h163v918h-163v118h551q99 0 170.5 -21.5t118 -60.5t69 -94t22.5 -122q0 -118 -63 -194.5t-196 -102.5l234 -441h146v-117h-253l-283 538h-193v-421h156v-117h-479v117zM603 657q65 0 107.5 17.5t67.5 45.5t35 63.5t10 71.5q0 85 -60.5 132.5t-166.5 47.5h-216
v-378h223zM440 -146h227v-211q0 -57 -11.5 -101.5t-38 -74.5t-70 -45.5t-107.5 -15.5v87q34 7 57 17.5t37 28t20.5 43t6.5 61.5h-121v211z" />
    <glyph glyph-name="rcommaaccent" unicode="&#x157;" horiz-adv-x="761" 
d="M64 107h161v587h-167v111h289l1 -175q27 55 58 91.5t67 58.5t78 31t90 9q43 0 93 -6l-5 -139q-1 1 -15.5 1.5t-31.5 1t-32.5 0.5h-18.5q-74 0 -123 -21t-78.5 -60t-42 -94t-12.5 -123v-273h176v-107h-487v107zM267 559h227v-211q0 -57 -11.5 -101.5t-38 -74.5t-70 -45.5
t-107.5 -15.5v87q34 7 57 17.5t37 28t20.5 43t6.5 61.5h-121v211z" />
    <glyph glyph-name="Rcaron" unicode="&#x158;" horiz-adv-x="1107" 
d="M57 117h163v918h-163v118h551q99 0 170.5 -21.5t118 -60.5t69 -94t22.5 -122q0 -118 -63 -194.5t-196 -102.5l234 -441h146v-117h-253l-283 538h-193v-421h156v-117h-479v117zM603 657q65 0 107.5 17.5t67.5 45.5t35 63.5t10 71.5q0 85 -60.5 132.5t-166.5 47.5h-216
v-378h223zM402 1519l154 -154l152 154h104l-159 -259h-196l-162 259h107z" />
    <glyph glyph-name="rcaron" unicode="&#x159;" horiz-adv-x="761" 
d="M64 107h161v587h-167v111h289l1 -175q27 55 58 91.5t67 58.5t78 31t90 9q43 0 93 -6l-5 -139q-1 1 -15.5 1.5t-31.5 1t-32.5 0.5h-18.5q-74 0 -123 -21t-78.5 -60t-42 -94t-12.5 -123v-273h176v-107h-487v107zM229 1171l154 -154l152 154h104l-159 -259h-196l-162 259
h107z" />
    <glyph glyph-name="Scaron" unicode="&#x160;" horiz-adv-x="972" 
d="M527 -18q-170 0 -296 105v-87h-135v387h135v-116q60 -78 129 -116t163 -38q51 0 92 14.5t70 39.5t44.5 59t15.5 74q0 56 -25.5 92.5t-69.5 61t-102.5 40.5t-125.5 32q-68 15 -129 38t-106.5 60.5t-72 93.5t-26.5 137q0 77 28 135.5t77 97.5t115 59t141 20q73 0 140 -23.5
t124 -68.5v74h135v-327h-135v82q-46 63 -103.5 95t-139.5 32q-56 0 -98 -13t-70.5 -35.5t-43 -53t-14.5 -66.5q0 -60 31 -95.5t81.5 -57t114 -35.5t129.5 -31q63 -17 119 -44.5t98.5 -68.5t67.5 -97.5t25 -131.5q0 -69 -28 -128.5t-78 -103t-121 -68t-156 -24.5zM334 1519
l154 -154l152 154h104l-159 -259h-196l-162 259h107z" />
    <glyph glyph-name="scaron" unicode="&#x161;" horiz-adv-x="809" 
d="M77 263h133v-53q13 -25 30 -45t41.5 -34.5t57.5 -22.5t77 -8q88 0 135.5 30t47.5 87q0 32 -13 51.5t-36.5 31.5t-56 18.5t-72.5 12.5q-62 9 -123.5 23t-111 41.5t-80.5 73t-31 117.5q0 49 21 92t60 74.5t93.5 49.5t122.5 18q60 0 113 -21.5t92 -53.5v60h129v-256h-129v67
q-71 86 -199 86q-75 0 -118.5 -29.5t-43.5 -80.5q0 -33 23 -52.5t60.5 -32t86 -21t98.5 -18.5t98.5 -25.5t86 -42.5t60.5 -68.5t23 -103.5q0 -55 -22.5 -100.5t-64 -77.5t-100.5 -50t-132 -18q-69 0 -123.5 16t-99.5 52v-50h-133v263zM253 1171l154 -154l152 154h104
l-159 -259h-196l-162 259h107z" />
    <glyph glyph-name="Ydieresis" unicode="&#x178;" horiz-adv-x="1130" 
d="M327 117h159v413l-358 505h-146v118h472v-118h-150l274 -387l257 387h-150v118h460v-118h-156l-343 -505v-413h164v-117h-483v117zM797 1449v-153h-152v153h152zM486 1449v-153h-154v153h154z" />
    <glyph glyph-name="Zcaron" unicode="&#x17d;" horiz-adv-x="1010" 
d="M62 128l657 907h-498v-202h-129v320h832v-112l-667 -924h548v218h129v-335h-872v128zM353 1519l154 -154l152 154h104l-159 -259h-196l-162 259h107z" />
    <glyph glyph-name="zcaron" unicode="&#x17e;" horiz-adv-x="833" 
d="M754 0h-700v116l525 578h-364v-157h-121v268h663v-122l-532 -576h401v169h128v-276zM265 1171l154 -154l152 154h104l-159 -259h-196l-162 259h107z" />
    <glyph glyph-name="uni0200" unicode="&#x200;" horiz-adv-x="1196" 
d="M878 1153v-118h-101q69 -204 108.5 -325t52.5 -159q38 -115 72 -225t61 -209h137v-117h-453v117h150l-85 307h-445l-84 -307h149v-117h-453v117h138q29 107 64.5 223t74 234.5t78 235t76.5 225.5h-100v118h560zM790 545q-20 66 -55.5 186.5t-99.5 303.5h-74
q-64 -183 -100.5 -303.5t-55.5 -186.5h385zM511 1247l-184 272h190l90 -272h-96zM773 1247l-185 272h190l90 -272h-95z" />
    <glyph glyph-name="uni0201" unicode="&#x201;" horiz-adv-x="889" 
d="M102 708q54 54 134 83t183 29q94 0 157 -22.5t100 -59.5t52.5 -85t15.5 -99v-447h144v-107h-277l-2 83q-40 -29 -75 -48.5t-68.5 -31t-67.5 -16.5t-71 -5q-63 0 -113.5 19.5t-86 51.5t-54 74.5t-18.5 88.5q0 75 27.5 124t74.5 78t110.5 40.5t134.5 11.5q48 0 95 -5
t98 -15v97q0 42 -14.5 71.5t-40 47.5t-59.5 26.5t-72 8.5q-69 0 -124.5 -22.5t-90.5 -68.5zM595 352q-32 1 -80.5 8.5t-102.5 7.5q-39 0 -78 -5.5t-69.5 -21.5t-49.5 -46t-19 -79q0 -26 10 -49.5t29.5 -40.5t47.5 -27t65 -10q33 0 67 6t66.5 17.5t61.5 28t52 37.5v174z
M358 899l-184 272h190l90 -272h-96zM620 899l-185 272h190l90 -272h-95z" />
    <glyph glyph-name="uni0202" unicode="&#x202;" horiz-adv-x="1196" 
d="M878 1153v-118h-101q69 -204 108.5 -325t52.5 -159q38 -115 72 -225t61 -209h137v-117h-453v117h150l-85 307h-445l-84 -307h149v-117h-453v117h138q29 107 64.5 223t74 234.5t78 235t76.5 225.5h-100v118h560zM790 545q-20 66 -55.5 186.5t-99.5 303.5h-74
q-64 -183 -100.5 -303.5t-55.5 -186.5h385zM340 1288q4 48 25 87.5t54.5 67t79 43t99.5 15.5t99 -15.5t79 -43.5t54.5 -67t25.5 -87h-111q-8 57 -47.5 87.5t-99.5 30.5q-63 0 -100.5 -30.5t-47.5 -87.5h-110z" />
    <glyph glyph-name="uni0203" unicode="&#x203;" horiz-adv-x="889" 
d="M102 708q54 54 134 83t183 29q94 0 157 -22.5t100 -59.5t52.5 -85t15.5 -99v-447h144v-107h-277l-2 83q-40 -29 -75 -48.5t-68.5 -31t-67.5 -16.5t-71 -5q-63 0 -113.5 19.5t-86 51.5t-54 74.5t-18.5 88.5q0 75 27.5 124t74.5 78t110.5 40.5t134.5 11.5q48 0 95 -5
t98 -15v97q0 42 -14.5 71.5t-40 47.5t-59.5 26.5t-72 8.5q-69 0 -124.5 -22.5t-90.5 -68.5zM595 352q-32 1 -80.5 8.5t-102.5 7.5q-39 0 -78 -5.5t-69.5 -21.5t-49.5 -46t-19 -79q0 -26 10 -49.5t29.5 -40.5t47.5 -27t65 -10q33 0 67 6t66.5 17.5t61.5 28t52 37.5v174z
M186 940q4 48 25 87.5t54.5 67t79 43t99.5 15.5t99 -15.5t79 -43.5t54.5 -67t25.5 -87h-111q-8 57 -47.5 87.5t-99.5 30.5q-63 0 -100.5 -30.5t-47.5 -87.5h-110z" />
    <glyph glyph-name="uni0204" unicode="&#x204;" horiz-adv-x="1119" 
d="M60 117h156v918h-156v118h971v-321h-131v203h-525v-380h362v114h100v-359h-101v116h-359v-409h525v211h129v-328h-971v117zM473 1247l-184 272h190l90 -272h-96zM735 1247l-185 272h190l90 -272h-95z" />
    <glyph glyph-name="uni0205" unicode="&#x205;" horiz-adv-x="955" 
d="M219 365q3 -58 24 -105.5t58 -81.5t88.5 -52.5t116.5 -18.5q39 0 77 9t72 25.5t63 39.5t49 52l102 -76q-51 -78 -141.5 -126.5t-225.5 -48.5q-104 0 -187 33t-140.5 90t-88.5 133.5t-31 163.5q0 91 34 168t93 132.5t140 86.5t176 31q99 0 174 -35.5t125.5 -96t75.5 -140
t25 -166.5v-17h-679zM754 467q-6 49 -26 90.5t-52 72t-76.5 47.5t-99.5 17q-61 0 -108.5 -16.5t-82 -46t-56 -71.5t-30.5 -93h531zM391 899l-184 272h190l90 -272h-96zM653 899l-185 272h190l90 -272h-95z" />
    <glyph glyph-name="uni0206" unicode="&#x206;" horiz-adv-x="1119" 
d="M60 117h156v918h-156v118h971v-321h-131v203h-525v-380h362v114h100v-359h-101v116h-359v-409h525v211h129v-328h-971v117zM301 1288q4 48 25 87.5t54.5 67t79 43t99.5 15.5t99 -15.5t79 -43.5t54.5 -67t25.5 -87h-111q-8 57 -47.5 87.5t-99.5 30.5q-63 0 -100.5 -30.5
t-47.5 -87.5h-110z" />
    <glyph glyph-name="uni0207" unicode="&#x207;" horiz-adv-x="955" 
d="M219 365q3 -58 24 -105.5t58 -81.5t88.5 -52.5t116.5 -18.5q39 0 77 9t72 25.5t63 39.5t49 52l102 -76q-51 -78 -141.5 -126.5t-225.5 -48.5q-104 0 -187 33t-140.5 90t-88.5 133.5t-31 163.5q0 91 34 168t93 132.5t140 86.5t176 31q99 0 174 -35.5t125.5 -96t75.5 -140
t25 -166.5v-17h-679zM754 467q-6 49 -26 90.5t-52 72t-76.5 47.5t-99.5 17q-61 0 -108.5 -16.5t-82 -46t-56 -71.5t-30.5 -93h531zM219 940q4 48 25 87.5t54.5 67t79 43t99.5 15.5t99 -15.5t79 -43.5t54.5 -67t25.5 -87h-111q-8 57 -47.5 87.5t-99.5 30.5
q-63 0 -100.5 -30.5t-47.5 -87.5h-110z" />
    <glyph glyph-name="uni0208" unicode="&#x208;" horiz-adv-x="581" 
d="M75 117h134v918h-134v118h428v-118h-132v-918h132v-117h-428v117zM204 1247l-184 272h190l90 -272h-96zM466 1247l-185 272h190l90 -272h-95z" />
    <glyph glyph-name="uni0209" unicode="&#x209;" horiz-adv-x="509" 
d="M59 113h135v576h-135v116h284v-692h136v-113h-420v113zM169 899l-184 272h190l90 -272h-96zM431 899l-185 272h190l90 -272h-95z" />
    <glyph glyph-name="uni020A" unicode="&#x20a;" horiz-adv-x="581" 
d="M75 117h134v918h-134v118h428v-118h-132v-918h132v-117h-428v117zM34 1288q4 48 25 87.5t54.5 67t79 43t99.5 15.5t99 -15.5t79 -43.5t54.5 -67t25.5 -87h-111q-8 57 -47.5 87.5t-99.5 30.5q-63 0 -100.5 -30.5t-47.5 -87.5h-110z" />
    <glyph glyph-name="uni020B" unicode="&#x20b;" horiz-adv-x="509" 
d="M59 107h135v587h-135v111h284v-698h136v-107h-420v107zM176 1066q0 18 7 34t19.5 28t29 18.5t35.5 6.5q39 0 65.5 -25t26.5 -62t-26.5 -62t-65.5 -25q-19 0 -35.5 6.5t-29 18.5t-19.5 28t-7 34zM-2 940q4 48 25 87.5t54.5 67t79 43t99.5 15.5t99 -15.5t79 -43.5t54.5 -67
t25.5 -87h-111q-8 57 -47.5 87.5t-99.5 30.5q-63 0 -100.5 -30.5t-47.5 -87.5h-110z" />
    <glyph glyph-name="uni020C" unicode="&#x20c;" horiz-adv-x="1321" 
d="M66 575q0 125 41 234t117.5 189.5t187 126.5t248.5 46q139 0 249.5 -46.5t187.5 -127t118 -189.5t41 -233t-41 -232.5t-118 -188.5t-187.5 -126.5t-249.5 -46.5t-249 46t-186.5 126.5t-117.5 188.5t-41 233zM243 575q0 -95 29.5 -178t84.5 -145.5t131.5 -98.5t171.5 -36
t172.5 36t132 98.5t84 145.5t29.5 178q0 96 -29.5 180t-84 146.5t-132 98t-172.5 35.5t-171.5 -35.5t-131.5 -98t-84.5 -146.5t-29.5 -180zM574 1247l-184 272h190l90 -272h-96zM836 1247l-185 272h190l90 -272h-95z" />
    <glyph glyph-name="uni020D" unicode="&#x20d;" horiz-adv-x="966" 
d="M482 107q62 0 111.5 22.5t84.5 62t53.5 93.5t18.5 117q0 61 -18.5 114.5t-53.5 93t-84.5 62t-111.5 22.5t-111 -22.5t-83.5 -62t-53 -93t-18.5 -114.5q0 -63 18.5 -117t53 -93.5t83.5 -62t111 -22.5zM482 -18q-98 0 -176.5 33t-133.5 90t-85 133.5t-30 163.5t30 163
t85.5 133t134.5 89.5t177 32.5q97 0 176 -32.5t134.5 -89.5t85.5 -133t30 -163t-30 -163.5t-86 -133.5t-135 -90t-177 -33zM396 899l-184 272h190l90 -272h-96zM658 899l-185 272h190l90 -272h-95z" />
    <glyph glyph-name="uni020E" unicode="&#x20e;" horiz-adv-x="1321" 
d="M66 575q0 125 41 234t117.5 189.5t187 126.5t248.5 46q139 0 249.5 -46.5t187.5 -127t118 -189.5t41 -233t-41 -232.5t-118 -188.5t-187.5 -126.5t-249.5 -46.5t-249 46t-186.5 126.5t-117.5 188.5t-41 233zM243 575q0 -95 29.5 -178t84.5 -145.5t131.5 -98.5t171.5 -36
t172.5 36t132 98.5t84 145.5t29.5 178q0 96 -29.5 180t-84 146.5t-132 98t-172.5 35.5t-171.5 -35.5t-131.5 -98t-84.5 -146.5t-29.5 -180zM402 1288q4 48 25 87.5t54.5 67t79 43t99.5 15.5t99 -15.5t79 -43.5t54.5 -67t25.5 -87h-111q-8 57 -47.5 87.5t-99.5 30.5
q-63 0 -100.5 -30.5t-47.5 -87.5h-110z" />
    <glyph glyph-name="uni020F" unicode="&#x20f;" horiz-adv-x="966" 
d="M482 107q62 0 111.5 22.5t84.5 62t53.5 93.5t18.5 117q0 61 -18.5 114.5t-53.5 93t-84.5 62t-111.5 22.5t-111 -22.5t-83.5 -62t-53 -93t-18.5 -114.5q0 -63 18.5 -117t53 -93.5t83.5 -62t111 -22.5zM482 -18q-98 0 -176.5 33t-133.5 90t-85 133.5t-30 163.5t30 163
t85.5 133t134.5 89.5t177 32.5q97 0 176 -32.5t134.5 -89.5t85.5 -133t30 -163t-30 -163.5t-86 -133.5t-135 -90t-177 -33zM225 940q4 48 25 87.5t54.5 67t79 43t99.5 15.5t99 -15.5t79 -43.5t54.5 -67t25.5 -87h-111q-8 57 -47.5 87.5t-99.5 30.5q-63 0 -100.5 -30.5
t-47.5 -87.5h-110z" />
    <glyph glyph-name="uni0210" unicode="&#x210;" horiz-adv-x="1107" 
d="M57 117h163v918h-163v118h551q99 0 170.5 -21.5t118 -60.5t69 -94t22.5 -122q0 -118 -63 -194.5t-196 -102.5l234 -441h146v-117h-253l-283 538h-193v-421h156v-117h-479v117zM603 657q65 0 107.5 17.5t67.5 45.5t35 63.5t10 71.5q0 85 -60.5 132.5t-166.5 47.5h-216
v-378h223zM467 1247l-184 272h190l90 -272h-96zM729 1247l-185 272h190l90 -272h-95z" />
    <glyph glyph-name="uni0211" unicode="&#x211;" horiz-adv-x="761" 
d="M64 107h161v587h-167v111h289l1 -175q27 55 58 91.5t67 58.5t78 31t90 9q43 0 93 -6l-5 -139q-1 1 -15.5 1.5t-31.5 1t-32.5 0.5h-18.5q-74 0 -123 -21t-78.5 -60t-42 -94t-12.5 -123v-273h176v-107h-487v107zM294 899l-184 272h190l90 -272h-96zM556 899l-185 272h190
l90 -272h-95z" />
    <glyph glyph-name="uni0212" unicode="&#x212;" horiz-adv-x="1107" 
d="M57 117h163v918h-163v118h551q99 0 170.5 -21.5t118 -60.5t69 -94t22.5 -122q0 -118 -63 -194.5t-196 -102.5l234 -441h146v-117h-253l-283 538h-193v-421h156v-117h-479v117zM603 657q65 0 107.5 17.5t67.5 45.5t35 63.5t10 71.5q0 85 -60.5 132.5t-166.5 47.5h-216
v-378h223zM295 1288q4 48 25 87.5t54.5 67t79 43t99.5 15.5t99 -15.5t79 -43.5t54.5 -67t25.5 -87h-111q-8 57 -47.5 87.5t-99.5 30.5q-63 0 -100.5 -30.5t-47.5 -87.5h-110z" />
    <glyph glyph-name="uni0213" unicode="&#x213;" horiz-adv-x="761" 
d="M64 107h161v587h-167v111h289l1 -175q27 55 58 91.5t67 58.5t78 31t90 9q43 0 93 -6l-5 -139q-1 1 -15.5 1.5t-31.5 1t-32.5 0.5h-18.5q-74 0 -123 -21t-78.5 -60t-42 -94t-12.5 -123v-273h176v-107h-487v107zM122 940q4 48 25 87.5t54.5 67t79 43t99.5 15.5t99 -15.5
t79 -43.5t54.5 -67t25.5 -87h-111q-8 57 -47.5 87.5t-99.5 30.5q-63 0 -100.5 -30.5t-47.5 -87.5h-110z" />
    <glyph glyph-name="uni0214" unicode="&#x214;" horiz-adv-x="1211" 
d="M34 1035v118h452v-118h-142v-657q0 -64 13.5 -112.5t44 -81.5t80 -50t120.5 -17q76 0 127.5 18t82 52.5t43.5 85.5t13 116v646h-142v118h451v-118h-149q0 -119 0.5 -229.5t0.5 -199t0.5 -148.5t0.5 -78q0 -108 -33.5 -183.5t-90.5 -123.5t-132.5 -69.5t-159.5 -21.5
q-134 0 -218 34t-131.5 89.5t-65 127.5t-17.5 149v37t0.5 77.5t0.5 104t0.5 116.5t0.5 114v97v107h-150zM519 1247l-184 272h190l90 -272h-96zM781 1247l-185 272h190l90 -272h-95z" />
    <glyph glyph-name="uni0215" unicode="&#x215;" horiz-adv-x="994" 
d="M678 0l-5 100q-66 -60 -131.5 -89t-140.5 -29q-66 0 -113 19.5t-77.5 55.5t-44.5 87.5t-14 116.5v433h-120v111h272v-537q0 -78 28 -119.5t97 -41.5q70 0 133 40t111 103v444h-145v111h296v-698h146v-107h-292zM410 899l-184 272h190l90 -272h-96zM672 899l-185 272h190
l90 -272h-95z" />
    <glyph glyph-name="uni0216" unicode="&#x216;" horiz-adv-x="1211" 
d="M34 1035v118h452v-118h-142v-657q0 -64 13.5 -112.5t44 -81.5t80 -50t120.5 -17q76 0 127.5 18t82 52.5t43.5 85.5t13 116v646h-142v118h451v-118h-149q0 -119 0.5 -229.5t0.5 -199t0.5 -148.5t0.5 -78q0 -108 -33.5 -183.5t-90.5 -123.5t-132.5 -69.5t-159.5 -21.5
q-134 0 -218 34t-131.5 89.5t-65 127.5t-17.5 149v37t0.5 77.5t0.5 104t0.5 116.5t0.5 114v97v107h-150zM347 1288q4 48 25 87.5t54.5 67t79 43t99.5 15.5t99 -15.5t79 -43.5t54.5 -67t25.5 -87h-111q-8 57 -47.5 87.5t-99.5 30.5q-63 0 -100.5 -30.5t-47.5 -87.5h-110z" />
    <glyph glyph-name="uni0217" unicode="&#x217;" horiz-adv-x="994" 
d="M678 0l-5 100q-66 -60 -131.5 -89t-140.5 -29q-66 0 -113 19.5t-77.5 55.5t-44.5 87.5t-14 116.5v433h-120v111h272v-537q0 -78 28 -119.5t97 -41.5q70 0 133 40t111 103v444h-145v111h296v-698h146v-107h-292zM239 940q4 48 25 87.5t54.5 67t79 43t99.5 15.5t99 -15.5
t79 -43.5t54.5 -67t25.5 -87h-111q-8 57 -47.5 87.5t-99.5 30.5q-63 0 -100.5 -30.5t-47.5 -87.5h-110z" />
    <glyph glyph-name="uni0218" unicode="&#x218;" horiz-adv-x="972" 
d="M527 -18q-170 0 -296 105v-87h-135v387h135v-116q60 -78 129 -116t163 -38q51 0 92 14.5t70 39.5t44.5 59t15.5 74q0 56 -25.5 92.5t-69.5 61t-102.5 40.5t-125.5 32q-68 15 -129 38t-106.5 60.5t-72 93.5t-26.5 137q0 77 28 135.5t77 97.5t115 59t141 20q73 0 140 -23.5
t124 -68.5v74h135v-327h-135v82q-46 63 -103.5 95t-139.5 32q-56 0 -98 -13t-70.5 -35.5t-43 -53t-14.5 -66.5q0 -60 31 -95.5t81.5 -57t114 -35.5t129.5 -31q63 -17 119 -44.5t98.5 -68.5t67.5 -97.5t25 -131.5q0 -69 -28 -128.5t-78 -103t-121 -68t-156 -24.5zM411 -66
h212v-212q0 -57 -11 -101t-36 -74t-65.5 -45.5t-99.5 -16.5v88q57 12 81.5 44.5t24.5 104.5h-106v212z" />
    <glyph glyph-name="uni0219" unicode="&#x219;" horiz-adv-x="809" 
d="M77 263h133v-53q13 -25 30 -45t41.5 -34.5t57.5 -22.5t77 -8q88 0 135.5 30t47.5 87q0 32 -13 51.5t-36.5 31.5t-56 18.5t-72.5 12.5q-62 9 -123.5 23t-111 41.5t-80.5 73t-31 117.5q0 49 21 92t60 74.5t93.5 49.5t122.5 18q60 0 113 -21.5t92 -53.5v60h129v-256h-129v67
q-71 86 -199 86q-75 0 -118.5 -29.5t-43.5 -80.5q0 -33 23 -52.5t60.5 -32t86 -21t98.5 -18.5t98.5 -25.5t86 -42.5t60.5 -68.5t23 -103.5q0 -55 -22.5 -100.5t-64 -77.5t-100.5 -50t-132 -18q-69 0 -123.5 16t-99.5 52v-50h-133v263zM303 -66h212v-212q0 -57 -11 -101
t-36 -74t-65.5 -45.5t-99.5 -16.5v88q57 12 81.5 44.5t24.5 104.5h-106v212z" />
    <glyph glyph-name="uni021A" unicode="&#x21a;" horiz-adv-x="1034" 
d="M262 117h175v918h-265v-230h-129v348h947v-348h-131v230h-259v-918h174v-117h-512v117zM411 -66h212v-212q0 -57 -11 -101t-36 -74t-65.5 -45.5t-99.5 -16.5v88q57 12 81.5 44.5t24.5 104.5h-106v212z" />
    <glyph glyph-name="uni021B" unicode="&#x21b;" horiz-adv-x="528" 
d="M35 805h124v258l151 32v-290h173v-111h-173v-405q0 -46 1.5 -80t9.5 -56.5t25 -34t49 -11.5h118v-107h-138q-78 0 -121.5 23t-64.5 63.5t-25.5 95t-4.5 118.5v394h-124v111zM158 -66h212v-212q0 -57 -11 -101t-36 -74t-65.5 -45.5t-99.5 -16.5v88q57 12 81.5 44.5
t24.5 104.5h-106v212z" />
    <glyph glyph-name="dotlessj" unicode="&#x237;" horiz-adv-x="441" 
d="M-60 -235q23 -2 40 -3t37 -1q42 0 70 11t45 34.5t24 60.5t7 90v732h-152v116h303v-801q0 -76 -7 -143t-35 -117.5t-85 -80.5t-156 -31q-25 0 -46 1.5t-45 5.5v126zM143 1066q0 37 26.5 62t65.5 25t65.5 -25t26.5 -62t-26.5 -62t-65.5 -25t-65.5 25t-26.5 62z" />
    <glyph glyph-name="circumflex" unicode="&#x2c6;" horiz-adv-x="593" 
d="M58 896l98 275h275l104 -275h-148l-93 230l-93 -230h-143z" />
    <glyph glyph-name="caron" unicode="&#x2c7;" horiz-adv-x="593" 
d="M145 1171l154 -154l152 154h104l-159 -259h-196l-162 259h107z" />
    <glyph glyph-name="breve" unicode="&#x2d8;" horiz-adv-x="584" 
d="M144 1153q10 -57 47.5 -87.5t100.5 -30.5q60 0 99.5 30.5t47.5 87.5h111q-5 -48 -25.5 -87t-54.5 -67t-79 -43.5t-99 -15.5t-99.5 15.5t-79 43t-54.5 67t-25 87.5h110z" />
    <glyph glyph-name="dotaccent" unicode="&#x2d9;" horiz-adv-x="535" 
d="M268 1125q19 0 35.5 -6.5t29 -18.5t19.5 -28t7 -34t-7 -34t-19.5 -28t-29 -19t-35.5 -7t-35.5 7t-29 19t-19.5 28t-7 34t7 34t19.5 28t29 18.5t35.5 6.5z" />
    <glyph glyph-name="ring" unicode="&#x2da;" horiz-adv-x="565" 
d="M282 1201q35 0 66 -12t54 -33.5t36 -50.5t13 -63t-13 -63.5t-36 -51t-54 -34t-66 -12.5t-66 12.5t-53.5 34t-35.5 51t-13 63.5t13 63t35.5 50.5t53.5 33.5t66 12zM282 1140q-22 0 -41 -7.5t-33.5 -20.5t-22.5 -31t-8 -39t8 -39t22.5 -31.5t33.5 -21t41 -7.5t41 7.5t33 21
t22 31.5t8 39t-8 39t-22 31t-33 20.5t-41 7.5z" />
    <glyph glyph-name="ogonek" unicode="&#x2db;" horiz-adv-x="587" 
d="M311 0q-26 -36 -35.5 -65t-9.5 -61q0 -107 98 -107q23 0 43 4.5t44 15.5v-103q-41 -20 -70 -28.5t-64 -8.5q-39 0 -72 13t-57 36t-37.5 55.5t-13.5 71.5q0 19 2.5 38.5t9.5 40.5t18.5 45t29.5 53h114z" />
    <glyph glyph-name="tilde" unicode="&#x2dc;" horiz-adv-x="587" 
d="M-11 980q5 55 21 94.5t39.5 65t53 37.5t62.5 12q38 0 75.5 -11t73 -24t68 -24t61.5 -11q62 0 77 65h78q-8 -100 -54 -156.5t-125 -56.5q-42 0 -80.5 11t-73.5 24.5t-67 24.5t-61 11q-32 0 -47 -16t-21 -46h-80z" />
    <glyph glyph-name="hungarumlaut" unicode="&#x2dd;" horiz-adv-x="587" 
d="M287 899l90 272h190l-185 -272h-95zM25 899l91 272h190l-185 -272h-96z" />
    <glyph glyph-name="dotaccentcmb" unicode="&#x307;" horiz-adv-x="535" 
d="M268 1125q19 0 35.5 -6.5t29 -18.5t19.5 -28t7 -34t-7 -34t-19.5 -28t-29 -19t-35.5 -7t-35.5 7t-29 19t-19.5 28t-7 34t7 34t19.5 28t29 18.5t35.5 6.5z" />
    <glyph glyph-name="uni030F" unicode="&#x30f;" horiz-adv-x="587" 
d="M181 899l-184 272h190l90 -272h-96zM443 899l-185 272h190l90 -272h-95z" />
    <glyph glyph-name="uni0311" unicode="&#x311;" horiz-adv-x="584" 
d="M34 940q4 48 25 87.5t54.5 67t79 43t99.5 15.5t99 -15.5t79 -43.5t54.5 -67t25.5 -87h-111q-8 57 -47.5 87.5t-99.5 30.5q-63 0 -100.5 -30.5t-47.5 -87.5h-110z" />
    <glyph glyph-name="uni0326" unicode="&#x326;" horiz-adv-x="554" 
d="M151 -66h212v-212q0 -57 -11 -101t-36 -74t-65.5 -45.5t-99.5 -16.5v88q57 12 81.5 44.5t24.5 104.5h-106v212z" />
    <glyph glyph-name="endash" unicode="&#x2013;" horiz-adv-x="874" 
d="M874 117v-117h-874v117h874z" />
    <glyph glyph-name="emdash" unicode="&#x2014;" horiz-adv-x="1648" 
d="M1648 117v-117h-1648v117h1648z" />
    <glyph glyph-name="quoteleft" unicode="&#x2018;" horiz-adv-x="382" 
d="M299 723h-217v211q0 57 11 101.5t36.5 74.5t67 45.5t102.5 15.5v-87q-32 -7 -53 -17.5t-34 -28t-18.5 -43t-5.5 -61.5h111v-211z" />
    <glyph glyph-name="quoteright" unicode="&#x2019;" horiz-adv-x="364" 
d="M82 1153h217v-211q0 -57 -11 -101.5t-36.5 -74.5t-67 -45.5t-102.5 -15.5v87q31 7 52.5 17.5t34.5 28t18.5 43t5.5 61.5h-111v211z" />
    <glyph glyph-name="quotesinglbase" unicode="&#x201a;" horiz-adv-x="389" 
d="M82 211h217v-211q0 -57 -11 -101.5t-36.5 -74.5t-67 -45.5t-102.5 -15.5v87q31 7 52.5 17.5t34.5 28t18.5 43t5.5 61.5h-111v211z" />
    <glyph glyph-name="quotedblleft" unicode="&#x201c;" horiz-adv-x="720" 
d="M632 723h-217v211q0 57 11 101.5t36.5 74.5t67 45.5t102.5 15.5v-87q-32 -7 -53 -17.5t-34 -28t-18.5 -43t-5.5 -61.5h111v-211zM299 723h-217v211q0 57 11 101.5t36.5 74.5t67 45.5t102.5 15.5v-87q-32 -7 -53 -17.5t-34 -28t-18.5 -43t-5.5 -61.5h111v-211z" />
    <glyph glyph-name="quotedblright" unicode="&#x201d;" horiz-adv-x="704" 
d="M82 1153h217v-211q0 -57 -11 -101.5t-36.5 -74.5t-67 -45.5t-102.5 -15.5v87q31 7 52.5 17.5t34.5 28t18.5 43t5.5 61.5h-111v211zM415 1153h217v-211q0 -57 -11 -101.5t-36.5 -74.5t-67 -45.5t-102.5 -15.5v87q31 7 52.5 17.5t34.5 28t18.5 43t5.5 61.5h-111v211z" />
    <glyph glyph-name="quotedblbase" unicode="&#x201e;" horiz-adv-x="785" 
d="M481 211h217v-211q0 -57 -11 -101.5t-36.5 -74.5t-67 -45.5t-102.5 -15.5v87q31 7 52.5 17.5t34.5 28t18.5 43t5.5 61.5h-111v211zM82 211h217v-211q0 -57 -11 -101.5t-36.5 -74.5t-67 -45.5t-102.5 -15.5v87q31 7 52.5 17.5t34.5 28t18.5 43t5.5 61.5h-111v211z" />
    <glyph glyph-name="bullet" unicode="&#x2022;" horiz-adv-x="559" 
d="M280 754q42 0 78.5 -15t63.5 -40.5t43 -61t16 -75.5t-16 -75.5t-43 -61.5t-63.5 -41.5t-78.5 -15.5t-78.5 15.5t-63.5 41.5t-42.5 61.5t-15.5 75.5t15.5 75.5t42.5 61t63.5 40.5t78.5 15z" />
    <glyph glyph-name="guilsinglleft" unicode="&#x2039;" horiz-adv-x="534" 
d="M468 0h-143l-264 418l264 419h143l-258 -419z" />
    <glyph glyph-name="guilsinglright" unicode="&#x203a;" horiz-adv-x="533" 
d="M65 837h143l264 -419l-264 -418h-143l258 418z" />
    <glyph glyph-name="Euro" unicode="&#x20ac;" horiz-adv-x="1093" 
d="M169 544v31q0 21 1 41.5t3 41.5h-143v113h162q20 84 58 157t93 127t127 85t160 31q53 0 95 -12t74 -31t56 -41.5t42 -44.5v111h130v-349h-125q-38 118 -102 174.5t-152 56.5q-53 0 -97.5 -19t-79.5 -53.5t-61 -83t-41 -108.5h249v-113h-269q-3 -38 -3 -78v-36h272v-114
h-261q11 -69 33.5 -126.5t58.5 -99t86.5 -64.5t118.5 -23q43 0 85 13t78 44t63.5 80.5t42.5 123.5l135 -71q-32 -99 -80 -162t-104 -99.5t-116 -50.5t-115 -14q-94 0 -172 32t-137.5 90.5t-98.5 141.5t-55 185h-150v114h139z" />
    <glyph glyph-name="trademark" unicode="&#x2122;" horiz-adv-x="1547" 
d="M655 1153v-95h-227v-564h-107v564h-229v95h563zM1245 1153h159v-659h-97v558h-3l-189 -558h-90l-187 558h-4v-558h-98v659h159l176 -518z" />
    <glyph glyph-name="dotlessj.001" horiz-adv-x="441" 
d="M-60 -235q23 -2 40 -3t37 -1q42 0 70.5 11t46 34.5t25 60.5t7.5 90q0 9 -0.5 45.5t-1 91t-1 121.5t-0.5 136v334h-132v120h283v-585v-77.5t0.5 -68.5t0.5 -49.5v-20.5q0 -76 -7 -143t-35.5 -117t-85.5 -80t-156 -31q-25 0 -46 1t-45 5v126z" />
    <glyph glyph-name="nonbreakingspace" horiz-adv-x="430" 
 />
    <glyph glyph-name="foundryicon" 
 />
    <glyph glyph-name="commaaccent" horiz-adv-x="430" 
d="M101 559h227v-211q0 -57 -11.5 -101.5t-38 -74.5t-70 -45.5t-107.5 -15.5v87q34 7 57 17.5t37 28t20.5 43t6.5 61.5h-121v211z" />
    <glyph glyph-name="grave.cap" horiz-adv-x="562" 
d="M292 914l-187 257h207l99 -257h-119z" />
    <glyph glyph-name="acute.cap" horiz-adv-x="562" 
d="M165 914l99 257h207l-187 -257h-119z" />
    <glyph glyph-name="circumflex.cap" horiz-adv-x="593" 
d="M58 896l98 275h275l104 -275h-148l-93 230l-93 -230h-143z" />
    <glyph glyph-name="dieresis.cap" horiz-adv-x="572" 
d="M523 1101v-153h-152v153h152zM212 1101v-153h-154v153h154z" />
    <glyph glyph-name="caron.cap" horiz-adv-x="593" 
d="M145 1171l154 -154l152 154h104l-159 -259h-196l-162 259h107z" />
    <glyph glyph-name="ring.cap" horiz-adv-x="565" 
d="M282 1201q35 0 66 -12t54 -33.5t36 -50.5t13 -63t-13 -63.5t-36 -51t-54 -34t-66 -12.5t-66 12.5t-53.5 34t-35.5 51t-13 63.5t13 63t35.5 50.5t53.5 33.5t66 12zM282 1140q-22 0 -41 -7.5t-33.5 -20.5t-22.5 -31t-8 -39t8 -39t22.5 -31.5t33.5 -21t41 -7.5t41 7.5t33 21
t22 31.5t8 39t-8 39t-22 31t-33 20.5t-41 7.5z" />
    <glyph glyph-name="tilde.cap" horiz-adv-x="587" 
d="M-11 980q5 55 21 94.5t39.5 65t53 37.5t62.5 12q38 0 75.5 -11t73 -24t68 -24t61.5 -11q62 0 77 65h78q-8 -100 -54 -156.5t-125 -56.5q-42 0 -80.5 11t-73.5 24.5t-67 24.5t-61 11q-32 0 -47 -16t-21 -46h-80z" />
    <glyph glyph-name="dotaccentcmb.cap" horiz-adv-x="535" 
d="M268 1125q19 0 35.5 -6.5t29 -18.5t19.5 -28t7 -34t-7 -34t-19.5 -28t-29 -19t-35.5 -7t-35.5 7t-29 19t-19.5 28t-7 34t7 34t19.5 28t29 18.5t35.5 6.5z" />
    <glyph glyph-name="glyph305" horiz-adv-x="1024" 
 />
    <glyph glyph-name="glyph306" horiz-adv-x="1024" 
 />
  </font>
</defs>
</svg>
