<?xml version="1.0" standalone="no"?>
<!DOCTYPE svg PUBLIC "-//W3C//DTD SVG 1.1//EN" "http://www.w3.org/Graphics/SVG/1.1/DTD/svg11.dtd" >
<svg xmlns="http://www.w3.org/2000/svg" xmlns:xlink="http://www.w3.org/1999/xlink" version="1.1">
<metadata>
Created by FontForge 20161013 at Fri May 20 20:46:27 2011
 By ,,,
Copyright (c) 2011 by vernon adams. All rights reserved.
</metadata>
<defs>
<font id="Shanti" horiz-adv-x="1295" >
  <font-face 
    font-family="Shanti"
    font-weight="400"
    font-stretch="normal"
    units-per-em="2048"
    panose-1="2 0 5 3 5 0 0 2 0 4"
    ascent="1638"
    descent="-410"
    x-height="1024"
    cap-height="1412"
    bbox="-152 -599 2286 2012"
    underline-thickness="102"
    underline-position="-307"
    unicode-range="U+0002-FB02"
  />
<missing-glyph horiz-adv-x="530" 
 />
    <glyph glyph-name=".notdef" horiz-adv-x="530" 
 />
    <glyph glyph-name=".null" horiz-adv-x="0" 
 />
    <glyph glyph-name="nonmarkingreturn" horiz-adv-x="0" 
 />
    <glyph glyph-name="uni0002" horiz-adv-x="0" 
 />
    <glyph glyph-name="uni0009" unicode="&#x9;" horiz-adv-x="0" 
 />
    <glyph glyph-name="uni000A" unicode="&#xa;" horiz-adv-x="0" 
 />
    <glyph glyph-name="space" unicode=" " horiz-adv-x="525" 
 />
    <glyph glyph-name="exclam" unicode="!" horiz-adv-x="530" 
d="M321 339h-112l-48 1055h208zM161 211h208v-211h-208v211z" />
    <glyph glyph-name="quotedbl" unicode="&#x22;" horiz-adv-x="762" 
d="M308 1377v-502h-139l-46 502h185zM638 1377l-45 -502h-119v502h164z" />
    <glyph glyph-name="numbersign" unicode="#" horiz-adv-x="1274" 
d="M943 824l-55 -285h225v-146h-252l-74 -393h-160l74 393h-242l-75 -393h-158l74 393h-215v146h242l54 285h-222v147h250l74 406h161l-76 -406h245l75 406h160l-79 -406h218v-147h-244zM486 539h243l55 285h-244z" />
    <glyph glyph-name="dollar" unicode="$" horiz-adv-x="1099" 
d="M484 39q-66 1 -126 14.5t-111.5 43t-91.5 76t-65 112.5q30 22 58.5 40.5t57.5 39.5q16 -26 40 -52.5t58 -49t78.5 -38t101.5 -18.5v422q-105 32 -176 66.5t-114.5 78t-62 99t-18.5 129.5q0 78 30.5 137.5t82 101t119 65.5t142.5 33v164h124v-161q29 -2 64 -6t72.5 -13.5
t74 -24.5t68.5 -38.5t56 -57t37 -78.5l-145 -66q-15 30 -38 51t-52.5 35t-64 22t-73.5 12v-391q72 -22 142.5 -52t126.5 -74t91 -105.5t35 -146.5t-32 -148.5t-86.5 -108.5t-126.5 -72t-153 -37v-204h-123v200zM808 396q0 39 -16 68.5t-43 52.5t-63 40.5t-76 32.5v-378
q52 6 89.5 24t61.5 43t35.5 55t11.5 62zM305 1009q0 -39 13.5 -67t38 -49t57.5 -37t72 -30v349q-58 -11 -93.5 -30.5t-55 -43t-26 -48t-6.5 -44.5z" />
    <glyph glyph-name="percent" unicode="%" horiz-adv-x="1643" 
d="M238 1009q0 -44 5 -90t21 -84t46 -62.5t79 -24.5q48 0 77.5 25t45 63.5t21 85t5.5 88.5q0 54 -7 101.5t-24 83t-45.5 56.5t-72.5 21q-49 0 -79 -24.5t-46 -63t-21 -85t-5 -90.5zM695 1015q0 -98 -21.5 -172.5t-61.5 -124.5t-97 -76t-128 -26q-68 0 -124 24.5t-96 74
t-62.5 122.5t-22.5 171q0 90 19 163t58 125t98 80.5t139 28.5q79 0 135.5 -29.5t93 -81.5t53.5 -123.5t17 -155.5zM1106 362q0 -48 6 -93.5t22.5 -80t45 -55.5t74.5 -21q48 0 78 23t47 60.5t23 84.5t6 95q0 47 -6.5 94t-23 84.5t-46.5 61t-76 23.5q-49 0 -78.5 -25.5
t-45.5 -66t-21 -89.5t-5 -95zM1562 377q0 -92 -18.5 -165.5t-56.5 -125.5t-95.5 -80t-136.5 -28q-84 0 -142 31.5t-94.5 85t-52.5 125t-16 152.5q0 96 21.5 170t61.5 124.5t96.5 76t125.5 25.5q31 0 66 -7.5t69 -24.5t65 -46.5t55 -72.5t38 -102.5t14 -137.5zM1305 1418
q-104 -185 -207 -366.5t-205.5 -363l-205 -363t-207.5 -365.5h-150l826 1458h149z" />
    <glyph glyph-name="ampersand" unicode="&#x26;" horiz-adv-x="1452" 
d="M97 377q0 77 22 138.5t60 113t90 94.5t111 84q-26 28 -52.5 61.5t-49 74t-36.5 88.5t-14 104q0 72 24.5 130t71.5 99t116 63t158 22q74 0 140 -18t115 -55t77.5 -93.5t28.5 -132.5q0 -68 -26 -124.5t-66 -102.5t-88 -83t-92 -65l328 -334q25 36 43.5 74t32 81.5t22 96.5
t13.5 119h193q-7 -84 -21 -152.5t-36 -127.5t-52.5 -112t-71.5 -105l306 -314h-259l-171 170q-50 -45 -101.5 -81t-108 -60.5t-119 -38t-133.5 -13.5q-108 0 -192.5 29t-143 82t-89 126t-30.5 162zM568 151q58 0 106.5 13t87.5 33.5t70.5 46t56.5 49.5q-64 61 -127.5 125.5
t-123.5 126.5l-133 139q-54 -38 -93 -73.5t-63.5 -71.5t-36.5 -74.5t-12 -81.5q0 -61 23.5 -104.5t61.5 -72t86 -42t97 -13.5zM428 1140q0 -57 35 -114.5t100 -123.5q36 23 70.5 49.5t62.5 57t45 65t17 73.5q0 26 -10 50.5t-29.5 44t-50 31.5t-70.5 12q-38 0 -69.5 -11
t-54 -30.5t-34.5 -46t-12 -57.5z" />
    <glyph glyph-name="quotesingle" unicode="'" horiz-adv-x="437" 
d="M267 875h-118v502h163z" />
    <glyph glyph-name="parenleft" unicode="(" horiz-adv-x="579" 
d="M100 598q0 118 22.5 239.5t58.5 234t81.5 210t90.5 167.5h155q-48 -92 -88.5 -199t-70 -218.5t-45.5 -222t-16 -208.5q0 -107 13.5 -207.5t41 -204t69.5 -214t99 -236.5h-153q-55 93 -102.5 197.5t-82 214.5t-54 223t-19.5 224z" />
    <glyph glyph-name="parenright" unicode=")" horiz-adv-x="579" 
d="M220 1449q55 -95 102.5 -200.5t82.5 -216.5t54.5 -224.5t19.5 -224.5q0 -118 -22.5 -239t-58.5 -233t-81 -208t-90 -164h-155q48 96 88.5 197.5t69 207.5t44.5 216t16 222q0 108 -13.5 209.5t-41 205t-69.5 214.5t-99 238h153z" />
    <glyph glyph-name="asterisk" unicode="*" horiz-adv-x="948" 
d="M211 1334l125 77l137 -228l137 228l127 -77l-133 -216h235v-149h-236l133 -215l-126 -77l-137 227l-137 -227l-126 77l130 215h-231v149h232z" />
    <glyph glyph-name="plus" unicode="+" horiz-adv-x="1122" 
d="M478 505h-391v160h391v393h164v-393h393v-160h-393v-391h-164v391z" />
    <glyph glyph-name="comma" unicode="," horiz-adv-x="519" 
d="M57 -248l112 492h222l-194 -492h-140z" />
    <glyph glyph-name="hyphen" unicode="-" horiz-adv-x="776" 
d="M143 439v167h489v-167h-489z" />
    <glyph glyph-name="period" unicode="." horiz-adv-x="518" 
d="M143 239h231v-239h-231v239z" />
    <glyph glyph-name="slash" unicode="/" horiz-adv-x="792" 
d="M719 1448l-485 -1466h-161l489 1466h157z" />
    <glyph glyph-name="zero" unicode="0" horiz-adv-x="1164" 
d="M131 695q0 79 7 163.5t25 164.5t50 151.5t82 125t120.5 85t166.5 31.5q90 0 158.5 -29.5t118.5 -80.5t84 -120.5t54 -149.5t28.5 -167t8.5 -174t-8.5 -174t-28.5 -167t-54 -149.5t-84 -120.5t-118.5 -80.5t-158.5 -29.5q-96 0 -166.5 31.5t-120.5 85t-82 125t-50 151.5
t-25 164.5t-7 163.5zM842 695q0 129 -13 231.5t-43 174.5t-80 110.5t-123 38.5q-80 0 -131 -44.5t-80 -120t-40 -176.5t-11 -214t11 -214t40 -176.5t80 -120t131 -44.5q73 0 123 38.5t80 110.5t43 174.5t13 231.5z" />
    <glyph glyph-name="one" unicode="1" horiz-adv-x="757" 
d="M368 932v24t0.5 33t1 37.5t0.5 38.5q1 45 2 96q-81 -72 -156 -122t-129 -81l-45 172q20 11 50 30.5t64 43.5t69.5 49.5t67.5 49.5t57.5 43.5t40.5 30.5h165v-1377h-188v932z" />
    <glyph glyph-name="two" unicode="2" horiz-adv-x="1077" 
d="M114 1106q65 154 169 226t265 72q80 0 151 -22.5t124 -69.5t84 -118.5t31 -169.5q0 -60 -19.5 -122t-64 -133.5t-117 -157.5t-177.5 -195l-239 -246h647v-170h-869v174l344 360q60 63 115 127t97 126t66.5 121t24.5 113q0 37 -11 75.5t-36 70t-66 51.5t-101 20
q-62 0 -105 -18.5t-72 -46.5t-47 -61t-30 -63z" />
    <glyph glyph-name="three" unicode="3" horiz-adv-x="1115" 
d="M516 -20q-106 0 -214.5 40.5t-200.5 127.5l68 160q36 -38 79 -67.5t89 -49t92 -29.5t90 -10q55 0 104.5 14.5t87 44t60 75t22.5 108.5q0 78 -33 125t-86.5 72t-120.5 33t-135 8q-5 0 -14.5 -0.5t-18.5 -0.5h-22v165q8 -1 16 -1q7 -1 14 -1h13q68 0 132 10t114 37t80 73.5
t30 120.5q0 45 -18 82.5t-50.5 64.5t-78.5 42t-101 15q-66 0 -147.5 -33.5t-175.5 -107.5l-96 121q100 94 212.5 139.5t217.5 45.5q88 0 166.5 -24t138 -70t94.5 -113t35 -153q0 -50 -15 -97.5t-45.5 -90t-76 -78t-106.5 -60.5q83 -25 136.5 -67t84 -88.5t42 -93t11.5 -80.5
q0 -97 -39.5 -173t-105 -128.5t-151 -80t-178.5 -27.5z" />
    <glyph glyph-name="four" unicode="4" horiz-adv-x="1149" 
d="M689 0v300h-623v204l607 886h202v-918h199v-172h-199v-300h-186zM240 472h449v686q-34 -54 -64 -102q-13 -20 -26 -41t-25 -40t-21.5 -34t-15.5 -24z" />
    <glyph glyph-name="five" unicode="5" horiz-adv-x="1087" 
d="M555 878q99 0 178 -32.5t134 -90t84.5 -137.5t29.5 -174q0 -105 -33.5 -190.5t-97 -146t-155 -94t-207.5 -33.5q-66 0 -126.5 15t-110 44.5t-86 73t-55.5 101.5l118 83q18 -41 49 -70t67.5 -47.5t75.5 -27.5t74 -9q83 0 139.5 26t91 68t49 95.5t14.5 107.5q0 132 -74 204
t-208 72q-43 0 -79.5 -11.5t-65.5 -28t-51 -35.5t-36 -35l-97 28v743h720v-171h-551l-30 -399q42 26 102 48.5t137 22.5z" />
    <glyph glyph-name="six" unicode="6" horiz-adv-x="1141" 
d="M927 1186q-71 29 -134 45t-116 16q-95 0 -159 -36t-105 -103t-61.5 -163t-28.5 -216q24 31 54.5 60t67.5 51t82 35.5t98 13.5q87 0 161 -28t128.5 -83t85.5 -136t31 -187q0 -114 -35 -202.5t-95.5 -149t-141.5 -92t-172 -31.5q-122 0 -208.5 49t-142.5 134.5t-82 201.5
t-26 250q0 86 9.5 177.5t33.5 179.5t63.5 166.5t99 137.5t142 93.5t190.5 34.5q69 0 149.5 -19.5t171.5 -61.5zM590 141q49 0 94.5 17.5t80.5 55t56 95t21 137.5q0 48 -11 98.5t-39 92.5t-75 68.5t-120 26.5q-65 0 -115 -23.5t-84 -62t-52 -87.5t-18 -100q0 -63 18 -120.5
t51.5 -101.5t82 -70t110.5 -26z" />
    <glyph glyph-name="seven" unicode="7" horiz-adv-x="959" 
d="M180 0l524 1203h-644v174h844v-159l-509 -1218h-215z" />
    <glyph glyph-name="eight" unicode="8" horiz-adv-x="1163" 
d="M581 -20q-91 0 -173.5 23t-145.5 70.5t-100 119.5t-37 171q0 66 19 119.5t54.5 97t85 79t110.5 64.5q-110 52 -172.5 134t-62.5 187q0 63 25 127t76.5 115.5t131 84t188.5 32.5q95 0 173 -25t134 -71t87 -112t31 -148q0 -105 -64 -188.5t-184 -131.5q46 -22 95.5 -52
t90.5 -72t67.5 -99t26.5 -133q0 -78 -28.5 -149t-85.5 -125t-142.5 -86t-199.5 -32zM580 143q72 0 122.5 20.5t81.5 53.5t45 75t14 86q0 53 -20.5 96.5t-57 77t-86 56.5t-107.5 35q-57 -14 -104 -39t-80.5 -60t-51.5 -78.5t-18 -93.5q0 -44 14.5 -85t46 -73t81 -51.5
t120.5 -19.5zM349 1044q0 -50 18 -89t49.5 -68t73.5 -47.5t91 -26.5q49 8 92 27.5t75 49t50.5 68.5t18.5 86q0 45 -16 82t-46.5 63.5t-74 41t-98.5 14.5q-51 0 -93.5 -13.5t-73.5 -39.5t-48.5 -63.5t-17.5 -84.5z" />
    <glyph glyph-name="nine" unicode="9" horiz-adv-x="1133" 
d="M231 204q73 -32 135.5 -48.5t113.5 -16.5q70 0 128.5 30.5t101 95.5t68 165.5t30.5 241.5q-64 -80 -138.5 -116.5t-156.5 -36.5q-87 0 -161.5 27.5t-129 81.5t-86 133.5t-31.5 184.5q0 114 34.5 199.5t93 142.5t136.5 86t165 29q58 0 115.5 -13t109.5 -43t97 -80
t78 -123.5t51.5 -173.5t18.5 -231q0 -186 -37.5 -328t-105.5 -237.5t-162 -144.5t-208 -49q-72 0 -153.5 21.5t-170.5 59.5zM541 672q59 0 106.5 21t81 56.5t51.5 82.5t18 99q0 67 -18.5 124t-52.5 99t-81 65.5t-104 23.5t-102.5 -20.5t-77.5 -59.5t-49.5 -94t-17.5 -124
q0 -63 17 -114t48.5 -86t77.5 -54t103 -19z" />
    <glyph glyph-name="colon" unicode=":" horiz-adv-x="518" 
d="M143 1019h231v-239h-231v239zM143 239h231v-239h-231v239z" />
    <glyph glyph-name="semicolon" unicode=";" horiz-adv-x="579" 
d="M97 -233l110 462h196l-183 -462h-123zM191 1018h231v-239h-231v239z" />
    <glyph glyph-name="less" unicode="&#x3c;" horiz-adv-x="1164" 
d="M1025 111l-948 399v141l948 423v-175l-732 -314l732 -296v-178z" />
    <glyph glyph-name="equal" unicode="=" horiz-adv-x="1268" 
d="M160 700v160h948v-160h-948zM160 308v162h948v-162h-948z" />
    <glyph glyph-name="greater" unicode="&#x3e;" horiz-adv-x="1164" 
d="M139 289l732 296l-732 314v175l948 -423v-141l-948 -399v178z" />
    <glyph glyph-name="question" unicode="?" horiz-adv-x="882" 
d="M283 338v79q0 50 4.5 90t18 77t39 73t67.5 78q43 43 79.5 82.5t62 77.5t40 76.5t14.5 80.5q0 59 -24.5 97t-60.5 59.5t-77 30t-74 8.5q-45 0 -114.5 -14.5t-162.5 -55.5l-30 171q60 26 139 47.5t174 21.5q98 0 177 -24t134 -70t84.5 -112t29.5 -150q0 -63 -14 -111
t-41.5 -91.5t-69.5 -87t-98 -96.5q-43 -40 -70 -68t-42 -55.5t-20.5 -60.5t-5.5 -83v-70h-159zM256 211h213v-211h-213v211z" />
    <glyph glyph-name="at" unicode="@" horiz-adv-x="1642" 
d="M834 -77q-167 0 -303 50.5t-232 144.5t-148.5 228t-52.5 301q0 122 28 229.5t79.5 196.5t123.5 159t160 118t189 73.5t210 25.5q136 0 257 -42t212 -123.5t144 -201.5t53 -275q0 -106 -29 -198.5t-79.5 -161t-117.5 -108t-143 -39.5t-119.5 46.5t-46.5 138.5
q-20 -33 -47 -66t-57.5 -59.5t-72.5 -43t-92 -16.5q-65 0 -118 23.5t-90.5 67.5t-57.5 105.5t-14 138.5q0 87 28 169t77 145.5t122.5 102t164.5 38.5q51 0 101.5 -23t94.5 -67q1 11 3 23t4 22q2 11 4 23l139 -19l-74 -403q-8 -38 -11 -69.5t-3 -55.5q0 -60 21.5 -84
t67.5 -24q44 0 84 30.5t71 84t49 126.5t18 159q0 127 -43 224t-117.5 161.5t-173 97.5t-209.5 33q-146 0 -268.5 -48t-211 -137t-138 -215t-49.5 -282q0 -142 43.5 -254.5t124 -190.5t194 -119t254.5 -41q69 0 133.5 11.5t124 31t115 45t106.5 53.5l31 -111
q-110 -67 -234.5 -108t-278.5 -41zM782 423q42 0 73 15.5t50 41t35 58t27.5 67t19.5 68t15 60.5l36 207q-36 8 -69 14q-28 5 -51.5 10t-37.5 5q-62 0 -111.5 -32.5t-84 -83t-51 -111t-16.5 -116.5q2 -97 44 -150t121 -53z" />
    <glyph glyph-name="A" unicode="A" 
d="M19 64l534 1348h193l527 -1353v-59h-189l-152 396h-583l-154 -396h-176v64zM547 928l-133 -360h455l-130 360l-95 270z" />
    <glyph glyph-name="B" unicode="B" horiz-adv-x="1269" 
d="M190 1412h455q112 0 200.5 -18.5t150 -61t94 -111t32.5 -167.5q0 -64 -20 -114.5t-52.5 -89t-73.5 -66t-84 -44.5q49 -15 98 -40t87 -64.5t62 -97.5t24 -139q0 -60 -14.5 -110t-37 -89.5t-49 -69t-50.5 -47.5l1 1q-64 -46 -149.5 -65t-175.5 -19h-498v1412zM387 821h250
q49 0 99.5 8t91 31t66 65.5t25.5 111.5q0 67 -24 107.5t-64 61.5t-92 27.5t-108 6.5h-244v-419zM387 647v-477h291q137 0 208.5 62.5t71.5 180.5q0 51 -16 93.5t-50.5 74t-87.5 49t-127 17.5h-290z" />
    <glyph glyph-name="C" unicode="C" horiz-adv-x="1236" 
d="M1162 93q-120 -61 -228 -90t-204 -29q-106 0 -193.5 28.5t-156.5 78.5t-121 118.5t-86 148.5t-51 168.5t-17 178.5q0 93 17.5 184.5t52.5 174.5t87.5 154t121.5 123t154.5 81.5t187.5 29.5q69 0 133.5 -16t120.5 -51t100.5 -92.5t71.5 -139.5l-175 -42q-15 49 -40.5 81
t-57.5 51t-70.5 27t-79.5 8q-101 0 -178.5 -47t-130.5 -126t-80 -182.5t-27 -215.5q0 -103 26 -201.5t80 -175.5t136 -124t194 -47q75 0 161 24.5t186 73.5z" />
    <glyph glyph-name="D" unicode="D" horiz-adv-x="1400" 
d="M1289 706q0 -102 -17.5 -187.5t-46.5 -155.5t-66.5 -124.5t-79.5 -93.5q-48 -42 -105.5 -70t-122 -44.5t-136 -23.5t-147.5 -7h-378v1412h402q72 0 143 -7.5t138.5 -27.5t129 -55t113.5 -91q86 -100 129.5 -235.5t43.5 -289.5zM1080 699q0 40 -5 94t-19 111t-39.5 113
t-65.5 101q-63 69 -149.5 95.5t-206.5 26.5h-210v-1069h169q55 0 107.5 6t99.5 18.5t88.5 32.5t73.5 48q47 43 77.5 97t48 111.5t24.5 113t7 101.5z" />
    <glyph glyph-name="E" unicode="E" horiz-adv-x="1138" 
d="M1017 0h-827v1412h818v-175h-622v-419h587v-175h-587v-464h631v-179z" />
    <glyph glyph-name="F" unicode="F" horiz-adv-x="1076" 
d="M391 0h-200v1412h795v-175h-595v-448h559v-175h-559v-614z" />
    <glyph glyph-name="G" unicode="G" horiz-adv-x="1368" 
d="M1029 1086q-17 54 -44 89.5t-61 56t-74 28.5t-83 8q-89 0 -171.5 -32t-146 -100.5t-101.5 -175.5t-38 -256q0 -116 25 -217t81 -176t146.5 -118.5t222.5 -43.5q82 0 139.5 8.5t102.5 17.5h14v576h190v-697q-50 -16 -102.5 -30.5t-111.5 -25.5t-124.5 -17.5t-140.5 -6.5
q-165 0 -286.5 54.5t-201 151.5t-118 230t-38.5 290q0 129 25.5 234t70.5 187.5t107 143t135 100t153.5 58.5t163.5 19q66 0 137 -15.5t134.5 -53t114.5 -100t78 -155.5z" />
    <glyph glyph-name="H" unicode="H" horiz-adv-x="1417" 
d="M1226 0h-197v640h-641v-640h-197v1414h197v-596h641v596h197v-1414z" />
    <glyph glyph-name="I" unicode="I" horiz-adv-x="577" 
d="M191 0v1412h196v-1412h-196z" />
    <glyph glyph-name="J" unicode="J" horiz-adv-x="575" 
d="M-117 -37q39 -11 76.5 -18t71.5 -7t63.5 10.5t51 36t33.5 69.5t12 111v1247h194v-1246q0 -104 -24.5 -179t-66.5 -124t-98 -72.5t-120 -23.5q-55 0 -113 16.5t-115 48.5z" />
    <glyph glyph-name="K" unicode="K" horiz-adv-x="1231" 
d="M1244 0h-256l-545 706l-56 -70v-636h-196v1412h196v-643l107 127l454 516h252l-574 -627z" />
    <glyph glyph-name="L" unicode="L" horiz-adv-x="1025" 
d="M190 0v1412h197v-1232h604v-180h-801z" />
    <glyph glyph-name="M" unicode="M" horiz-adv-x="1789" 
d="M1404 0v735q0 14 0.5 60.5t1 106.5t1 125.5t1.5 118.5l-24 4l-413 -1150h-174l-399 1139l-25 -4q1 -53 2 -117.5t2 -124t1.5 -105t0.5 -60.5v-728h-189v1412h315l384 -1160l407 1160h303v-1412h-195z" />
    <glyph glyph-name="N" unicode="N" horiz-adv-x="1487" 
d="M191 0v1412h246l659 -1107l22 5q-1 32 -1.5 73.5t-1.5 86t-1.5 88.5t-1 81.5t-0.5 64.5v38v670h184v-1412h-237l-672 1123l-21 -5q1 -33 1.5 -75t1.5 -87.5t1.5 -91t1 -83.5t0.5 -66.5v-39.5v-675h-181z" />
    <glyph glyph-name="O" unicode="O" horiz-adv-x="1483" 
d="M742 -26q-116 0 -207.5 27.5t-161.5 76.5t-119.5 117t-81 149t-46 172t-14.5 187q0 98 15.5 191t48 175t83 150.5t120.5 118t160.5 77t202.5 27.5t202.5 -27.5t160.5 -77t120.5 -118t82.5 -150.5t47.5 -175t15.5 -191q0 -96 -14.5 -187t-45.5 -172t-80.5 -149
t-119.5 -117t-161.5 -76.5t-207.5 -27.5zM742 149q124 0 205.5 45t129.5 122t67.5 178t19.5 214q0 117 -20.5 219t-69.5 178t-130 119.5t-202 43.5t-202 -43.5t-130 -119.5t-70 -178t-21 -219q0 -113 19.5 -214t67.5 -178t129.5 -122t206.5 -45z" />
    <glyph glyph-name="P" unicode="P" horiz-adv-x="1160" 
d="M1101 1010q0 -85 -26 -161.5t-87.5 -134.5t-163.5 -92.5t-253 -34.5h-184v-587h-196v1412h417q106 0 196 -21t156 -68.5t103.5 -124.5t37.5 -188zM387 757h95q50 0 100.5 1t96.5 8t85.5 22t69 43.5t46 72t16.5 106.5q0 73 -25 118t-66 70.5t-94 34.5t-110 9h-214v-485z
" />
    <glyph glyph-name="Q" unicode="Q" horiz-adv-x="1467" 
d="M1352 722q0 -81 -13.5 -166.5t-46.5 -168t-88.5 -158.5t-139.5 -137q33 -9 73 -22t80.5 -29t78 -33t66.5 -33l-57 -155q-138 55 -273.5 92.5t-279.5 65.5q-14 -1 -27 -1.5t-27 -0.5q-133 0 -241.5 49t-185 142t-118.5 228t-42 308q0 98 16.5 191t49.5 175t83.5 150.5
t119 118t155.5 77t193 27.5q112 0 202 -26.5t159.5 -74.5t119 -114.5t81.5 -146.5t47 -171t15 -187zM319 700q0 -105 20.5 -204.5t68.5 -176.5t127 -123.5t195 -46.5q86 0 151 24.5t111.5 66.5t77 98t48 117.5t24.5 125.5t7 123q0 132 -26 236.5t-78 177.5t-130 112t-182 39
q-85 0 -148.5 -25.5t-109.5 -68.5t-76 -100.5t-48 -120.5t-25 -128.5t-7 -125.5z" />
    <glyph glyph-name="R" unicode="R" horiz-adv-x="1284" 
d="M191 0v1412h433q92 0 180 -18t156.5 -61t110.5 -114t42 -176q0 -68 -18 -122.5t-51.5 -98t-81.5 -75.5t-108 -55q80 -19 126.5 -48.5t73 -72t38 -98t21.5 -126t24 -157t46 -190.5h-210q-21 109 -32.5 196.5t-23.5 155t-28.5 116t-47.5 79.5t-80 45.5t-126 14.5h-248v-607
h-196zM386 755h232q61 0 114 14t92.5 45t62 81.5t22.5 123.5q0 76 -29 120t-75 66.5t-102.5 28t-110.5 5.5h-206v-484z" />
    <glyph glyph-name="S" unicode="S" horiz-adv-x="1095" 
d="M489 149q82 0 141.5 18t98 49.5t57 74t18.5 92.5t-17 87.5t-53.5 67.5t-94.5 57t-139 56q-106 38 -178.5 80.5t-117.5 93t-64.5 111t-19.5 134.5q0 91 34 160.5t93.5 116.5t140 71t173.5 24q97 0 201 -32.5t213 -104.5l-77 -146q-91 58 -174.5 83.5t-158.5 25.5
q-122 0 -188 -51.5t-66 -142.5q0 -51 14 -87t46 -64.5t83.5 -52t127.5 -49.5q133 -45 214 -91t125 -96t58.5 -107t14.5 -126q0 -99 -33.5 -178t-96.5 -134.5t-154.5 -85t-208.5 -29.5q-91 0 -195 28.5t-219 90.5l64 156q97 -50 180.5 -75t157.5 -25z" />
    <glyph glyph-name="T" unicode="T" horiz-adv-x="1140" 
d="M668 0h-195v1237h-438v175h1071v-175h-438v-1237z" />
    <glyph glyph-name="U" unicode="U" horiz-adv-x="1441" 
d="M1266 1412v-888q0 -124 -39.5 -225.5t-111.5 -173.5t-172.5 -111.5t-221.5 -39.5t-221.5 35.5t-173 105t-112.5 174t-40 242.5v881h196v-893q0 -111 31.5 -183t82 -113t114 -57t127.5 -16q76 0 131 17.5t94 46.5t63 67.5t37.5 80t18 83.5t4.5 79v888h193z" />
    <glyph glyph-name="V" unicode="V" horiz-adv-x="1212" 
d="M1000 1412h205l-499 -1412h-206l-485 1412h214l238 -734q3 -11 11 -37t18 -61t21.5 -76t22.5 -81q26 -96 58 -209h11q37 117 68 214l26 82t24 76t19 60t11 35z" />
    <glyph glyph-name="W" unicode="W" horiz-adv-x="1898" 
d="M426 0l-388 1412h208q44 -175 90.5 -353t90.5 -352q4 -19 12 -57.5t18 -86.5t20 -100t18.5 -97t14 -78.5t5.5 -44.5l25 -3l29 125q31 128 56.5 230t47.5 188t42.5 160.5t40.5 148t41.5 151t46.5 169.5h223l202 -750q12 -37 27 -87.5t29 -103.5t25 -102t14 -83l26 -2
l42 188q9 39 17.5 77.5t15.5 70.5t12.5 55t8.5 33l175 704h199l-389 -1412h-205l-79 290q-30 112 -61.5 224t-60.5 224q-4 14 -12.5 49t-19 80.5t-22 96t-21 96t-15.5 80t-6 47.5l-26 2l-115 -454l-201 -735h-201z" />
    <glyph glyph-name="X" unicode="X" horiz-adv-x="1261" 
d="M1242 0h-239l-379 599l-389 -599h-223l497 737l-452 675h234l349 -534l347 534h225l-458 -674z" />
    <glyph glyph-name="Y" unicode="Y" horiz-adv-x="1174" 
d="M594 723l369 689h220l-496 -865v-547h-200v547l-496 865h232z" />
    <glyph glyph-name="Z" unicode="Z" horiz-adv-x="1173" 
d="M1082 0h-993v179l742 1054h-721v179h954v-177l-744 -1055h762v-180z" />
    <glyph glyph-name="bracketleft" unicode="[" horiz-adv-x="609" 
d="M540 -272h-368v1710h368v-134h-196v-1439h196v-137z" />
    <glyph glyph-name="backslash" unicode="\" horiz-adv-x="792" 
d="M231 1408q121 -359 242.5 -712.5t243.5 -711.5h-157l-487 1424h158z" />
    <glyph glyph-name="bracketright" unicode="]" horiz-adv-x="610" 
d="M70 -135h195v1439h-195v134h368v-1710h-368v137z" />
    <glyph glyph-name="asciicircum" unicode="^" horiz-adv-x="1101" 
d="M100 523l385 858h129l382 -858h-172l-276 649l-277 -649h-171z" />
    <glyph glyph-name="underscore" unicode="_" horiz-adv-x="1116" 
d="M1012 -273h-907v128h907v-128z" />
    <glyph glyph-name="grave" unicode="`" horiz-adv-x="816" 
d="M435 1164l-273 309h230l172 -309h-129z" />
    <glyph glyph-name="a" unicode="a" horiz-adv-x="1039" 
d="M154 919q40 27 86.5 49t96 38.5t99.5 25.5t97 9q72 0 136.5 -18.5t113 -58t76.5 -101.5t28 -150v-412q0 -68 3 -123t8 -95q5 -47 12 -83h-169q-3 17 -5.5 63t-4.5 103q-33 -56 -72 -91.5t-81 -56.5t-86 -29t-87 -8q-75 0 -136 20.5t-103.5 59.5t-65.5 94t-23 124
q0 33 7.5 70t24.5 73t45 69t69 59q44 28 97 43.5t109.5 23t113.5 9t110 1.5h54v74q0 55 -14 92.5t-39 60t-58 32.5t-70 10q-41 0 -85 -9.5t-86 -24.5t-79.5 -33t-66.5 -36zM646 210q19 22 30.5 49t18 61t9 76t2.5 95h-29q-69 0 -142.5 -5t-135 -26t-101 -64.5t-39.5 -119.5
q0 -28 9 -54.5t28.5 -47.5t49 -34t71.5 -13q72 0 133 21t96 62z" />
    <glyph glyph-name="b" unicode="b" horiz-adv-x="1158" 
d="M158 1413h189l-2 -356l-3 -166q21 28 48.5 55t62 48t76.5 34t93 13q117 0 199.5 -41.5t135 -112.5t77 -165t24.5 -200q0 -115 -24.5 -214t-78 -171.5t-137.5 -114t-203 -41.5q-33 0 -68.5 8.5t-72 27t-72 48.5t-66.5 72q-2 -13 -5 -35.5t-5 -45.5q-4 -26 -6 -56h-162
v1413zM345 351q0 -34 16 -73t49 -72.5t85 -56t124 -22.5q70 0 119 32t80 86t44.5 124t13.5 147q0 70 -11.5 138.5t-40.5 121.5t-80.5 86t-130.5 33q-53 0 -101 -21t-85.5 -53.5t-59.5 -70.5t-22 -72v-327z" />
    <glyph glyph-name="c" unicode="c" horiz-adv-x="960" 
d="M862 87q-77 -54 -164.5 -80t-167.5 -26q-83 0 -161 31t-138 97t-96.5 168t-36.5 245q0 133 40 230.5t104 161.5t144.5 95.5t161.5 31.5q57 0 112.5 -15t102.5 -48t82 -86t51 -129l-159 -26q-11 45 -30 75.5t-44 49t-53.5 26t-58.5 7.5q-48 0 -95.5 -21t-86 -66
t-62.5 -114t-24 -165q0 -95 15 -169.5t47.5 -126t82.5 -79t119 -27.5q42 0 79.5 7.5t69.5 20t59 28.5t50 33z" />
    <glyph glyph-name="d" unicode="d" horiz-adv-x="1159" 
d="M1000 0h-162q-4 30 -7 56q-3 23 -5 45.5t-4 35.5q-32 -42 -67 -72t-71.5 -48.5t-72 -27t-68.5 -8.5q-119 0 -203.5 41.5t-137.5 114t-77.5 171.5t-24.5 214q0 106 24 200t76.5 165t135.5 112.5t200 41.5q51 0 93 -13t76.5 -34t62 -48t48.5 -55l-3 166l-2 356h189v-1413z
M813 678q0 34 -22 72t-59.5 70.5t-86 53.5t-100.5 21q-80 0 -131 -33t-80 -86t-40.5 -121.5t-11.5 -138.5q0 -77 13.5 -147t44.5 -124t79.5 -86t119.5 -32q72 0 124 22.5t85 56t49 72.5t16 73v327z" />
    <glyph glyph-name="e" unicode="e" horiz-adv-x="1043" 
d="M925 83q-32 -19 -67.5 -37.5t-79.5 -32.5t-98.5 -23t-123.5 -9q-105 0 -189.5 35t-144 102.5t-91.5 166t-32 225.5q0 106 26 202t79.5 169t136.5 116.5t197 43.5q108 0 186 -38t128.5 -102.5t74.5 -151t24 -183.5v-83h-666q1 -69 15.5 -133.5t46.5 -114t84 -79t129 -29.5
q92 0 166.5 23t141.5 65zM534 895q-48 0 -89.5 -14.5t-73 -45t-52 -77t-27.5 -110.5q-1 -5 -1 -14v-19h464q-2 55 -13 106t-36 89.5t-67 61.5t-105 23z" />
    <glyph glyph-name="f" unicode="f" horiz-adv-x="686" 
d="M649 875h-229v-875h-189v875h-188v131l189 17v39q0 87 14 152.5t48.5 109.5t93 66t147.5 22q42 0 87.5 -7.5t86.5 -18.5l-24 -152q-31 6 -63 10.5t-61 4.5q-46 0 -73.5 -10.5t-42.5 -30.5t-20 -51t-5 -71v-62h229v-149z" />
    <glyph glyph-name="g" unicode="g" horiz-adv-x="1166" 
d="M962 689q0 -95 -35.5 -161.5t-94 -109t-134 -62t-154.5 -19.5q-100 0 -185 25q-28 -31 -43 -60.5t-15 -45.5q0 -15 2 -26.5t11 -19.5t26.5 -12.5t48.5 -4.5h147q59 0 122 -3t122.5 -12t112.5 -26t93 -44.5t63 -67.5t23 -95q0 -99 -32.5 -169t-97 -119.5t-160 -76.5
t-221.5 -33q-98 0 -181 19.5t-143.5 54t-94.5 74.5t-34 97q0 48 35 122t114 135l-3 16q-16 1 -37.5 8t-40.5 22.5t-32.5 40.5t-13.5 61q0 107 133 239q-74 45 -109.5 108.5t-35.5 132.5q0 66 26.5 131.5t80 117.5t133 84t185.5 32q92 0 161 -26t124 -71q24 16 53 32.5
t62.5 30.5t70.5 23t77 10l30 -205q-16 1 -29 3q-12 1 -23.5 2t-17.5 1q-29 0 -64 -5.5t-66 -14.5q27 -35 34 -68t7 -65zM565 -299q70 0 130 15.5t104 42.5t68.5 70t24.5 118q0 46 -82 69.5t-240 23.5h-94.5t-96.5 1q-45 -50 -66.5 -121.5t-21.5 -116.5q0 -51 72 -76.5
t202 -25.5zM291 684q0 -46 15 -84.5t46 -66t78 -43t112 -15.5q76 0 126 19t78.5 50t40 71t11.5 81q0 39 -12.5 76.5t-41.5 67.5t-77 48t-119 18q-49 0 -95 -11.5t-82 -38t-58 -69t-22 -103.5z" />
    <glyph glyph-name="h" unicode="h" horiz-adv-x="1149" 
d="M159 0v1412h189v-324l2 -193q63 69 141 107.5t161 38.5q179 0 264.5 -102.5t85.5 -289.5v-649h-186v639q0 45 -8 90.5t-31 82t-63.5 60t-105.5 23.5q-45 0 -80 -10t-61 -26.5t-44.5 -36.5t-30.5 -39q-26 -43 -35 -106.5t-9 -129.5v-547h-189z" />
    <glyph glyph-name="i" unicode="i" horiz-adv-x="552" 
d="M393 0h-186v875h-152v149h338v-1024zM411 1377v-172h-222v172h222z" />
    <glyph glyph-name="j" unicode="j" horiz-adv-x="558" 
d="M125 -446q-36 0 -67 5.5t-61 16.5v152q27 -8 49.5 -13t45.5 -5q29 0 51 7t37 25t22.5 48.5t7.5 77.5v1007h-151v149h340v-1153q0 -65 -14 -122.5t-46 -100.5t-84.5 -68.5t-129.5 -25.5zM420 1377v-172h-221v172h221z" />
    <glyph glyph-name="k" unicode="k" horiz-adv-x="1041" 
d="M998 0h-211l-276 460h-163v-460h-190v1412h190v-797h94q20 0 42 0.5t44 0.5q41 34 76 74.5t65 89t55.5 106.5t48.5 138h196q-18 -79 -48.5 -149.5t-70 -135.5t-86.5 -121t-98 -95z" />
    <glyph glyph-name="l" unicode="l" horiz-adv-x="563" 
d="M494 -19q-118 0 -181.5 26.5t-93 82t-34.5 142t-5 206.5v825h-152v149h341v-1026q0 -80 2.5 -129t17 -76t46 -36t89.5 -9l-30 -155v0z" />
    <glyph glyph-name="m" unicode="m" horiz-adv-x="1817" 
d="M203 0v875h-152v149h327l10 -151q36 46 74 78t76.5 52.5t75.5 29.5t70 9q63 0 112 -13t86.5 -36.5t65.5 -56t49 -71.5q22 34 53.5 66t71.5 56.5t89.5 39.5t108.5 15q67 0 130 -18t111.5 -60.5t78 -113.5t29.5 -177v-673h-186v663q0 121 -50.5 176.5t-153.5 55.5
q-39 0 -71 -8t-57 -21t-43 -29.5t-29 -32.5q-15 -22 -24.5 -50.5t-14.5 -59t-7 -61t-2 -57.5v-576h-187v673q0 103 -50 162.5t-150 59.5q-41 0 -74 -9.5t-58.5 -24t-43.5 -32t-29 -33.5q-29 -44 -38 -104.5t-9 -127.5v-564h-189z" />
    <glyph glyph-name="n" unicode="n" horiz-adv-x="1196" 
d="M862 0v660q0 113 -55.5 174t-156.5 61q-121 0 -189.5 -83.5t-68.5 -243.5v-568h-189v875h-152v149h327l10 -150q30 41 61 72.5t68 52.5t81 32t98 11q55 0 116.5 -16.5t114 -58t87 -111.5t34.5 -178v-678h-186z" />
    <glyph glyph-name="o" unicode="o" horiz-adv-x="1129" 
d="M1031 512q0 -117 -30.5 -214.5t-90 -168t-147.5 -109.5t-203 -39q-109 0 -195 38t-145 107t-90.5 165t-31.5 212q0 110 27 207.5t84.5 171t147.5 116.5t215 43q123 0 210 -44.5t142.5 -118.5t81 -169.5t25.5 -196.5zM284 504q0 -83 16 -152t49.5 -119t86.5 -78t128 -28
q60 0 111.5 21.5t89 68t58.5 118.5t21 173q0 187 -70 287t-204 100q-56 0 -107.5 -21.5t-91.5 -69t-63.5 -121.5t-23.5 -179z" />
    <glyph glyph-name="p" unicode="p" horiz-adv-x="1159" 
d="M159 -416v1135q0 45 -1 96.5t-2 96.5q-2 52 -3 112h177l13 -153q33 49 72 82t80.5 53t82.5 28t79 8q81 0 154 -33t128 -99t87.5 -166t32.5 -234q0 -135 -33.5 -234t-91.5 -164.5t-134.5 -98t-161.5 -32.5q-94 0 -167.5 36.5t-129.5 93.5l5 -187v-340h-187zM611 126
q83 0 135 36t81 92t39.5 125.5t10.5 136.5q0 79 -13 148.5t-43 120.5t-79 80.5t-121 29.5q-55 0 -105 -21t-87.5 -53t-60 -70.5t-22.5 -74.5v-313q0 -40 16 -82t49 -76.5t82.5 -56.5t117.5 -22z" />
    <glyph glyph-name="q" unicode="q" horiz-adv-x="1156" 
d="M499 1041q56 0 103 -15t86 -39.5t70.5 -55t57.5 -61.5l13 155h173q0 -5 -0.5 -26.5t-1 -43.5t-1 -46.5t-1 -46.5t-1 -38t-0.5 -20v-1220h-186v341q0 24 0.5 51t1.5 53.5t2 49t2 36.5q-70 -71 -149.5 -102.5t-149.5 -31.5q-88 0 -164 32.5t-132.5 98.5t-88.5 165.5
t-32 233.5q0 136 31.5 236t85.5 165t126.5 97t154.5 32zM815 477q0 39 -2.5 85.5t-11.5 93t-27 89.5t-48.5 76.5t-76 53.5t-110.5 20q-54 0 -93.5 -17t-67.5 -46.5t-46 -67.5t-28 -80.5t-13.5 -85.5t-3.5 -82q0 -44 4.5 -89.5t15.5 -88.5t30 -81.5t48.5 -67.5t70.5 -45.5
t96 -16.5q76 0 126.5 26.5t81 73t43 110.5t12.5 140z" />
    <glyph glyph-name="r" unicode="r" horiz-adv-x="749" 
d="M159 761q0 13 -0.5 46t-1 72t-2 81.5t-2.5 64.5h175l9 -178q33 53 72 90t78.5 60t77.5 33.5t70 10.5q20 0 43.5 -1.5t44.5 -4.5l-12 -184q-27 5 -51 8t-49 3q-70 0 -120 -23.5t-81.5 -65.5t-46.5 -100t-15 -128v-545h-189v761z" />
    <glyph glyph-name="s" unicode="s" horiz-adv-x="922" 
d="M141 221q30 -23 66 -40.5t75 -29.5t79.5 -18t78.5 -6q41 0 78 9t64.5 28t44 47.5t16.5 66.5q0 27 -10 48.5t-34.5 41.5t-67 39.5t-106.5 43.5q-71 26 -129.5 52t-100 59.5t-64.5 80t-23 113.5q0 72 30 126t80.5 89t116.5 52.5t137 17.5q90 0 180.5 -27t165.5 -81
l-61 -128q-33 21 -69 37.5t-73 28t-72.5 18t-66.5 6.5q-39 0 -73.5 -8t-60 -23.5t-40.5 -39t-15 -53.5q0 -28 14 -51t40.5 -42.5t65 -37.5t87.5 -35q91 -33 155 -65t104 -68t58 -79.5t18 -100.5q0 -80 -34.5 -139t-90.5 -97t-128 -56.5t-148 -18.5q-96 0 -180.5 25.5
t-165.5 79.5z" />
    <glyph glyph-name="t" unicode="t" horiz-adv-x="700" 
d="M519 127q28 0 61.5 4t56.5 9v-138q-31 -8 -75.5 -14.5t-89.5 -6.5q-61 0 -110.5 12.5t-84 43.5t-53 83.5t-18.5 131.5v624h-157v149h162l33 244l151 33v-277h238v-149h-238v-602q0 -29 4.5 -56t18 -47t37.5 -32t64 -12z" />
    <glyph glyph-name="u" unicode="u" horiz-adv-x="1147" 
d="M846 0q-4 17 -8 42q-3 21 -6.5 52.5t-6.5 73.5q-38 -91 -118.5 -139t-183.5 -48q-189 0 -282 99.5t-93 286.5v657h186v-658q0 -49 9.5 -92.5t32.5 -76t61 -51.5t96 -19q79 0 130.5 26t82 71.5t42.5 107.5t12 134v558h186v-648q0 -94 2.5 -163.5t5.5 -117.5q4 -55 9 -95
h-157z" />
    <glyph glyph-name="v" unicode="v" horiz-adv-x="1028" 
d="M405 0l-388 1024h203l173 -484l123 -359l122 358l171 485h205l-402 -1024h-207z" />
    <glyph glyph-name="w" unicode="w" horiz-adv-x="1517" 
d="M866 1024l136 -509l91 -353h15l79 408l101 454h190l-259 -1024h-233l-139 511l-88 353l-88 -353l-139 -511h-233l-260 1024h194l95 -454l86 -408h14l88 353l136 509h214z" />
    <glyph glyph-name="x" unicode="x" horiz-adv-x="1051" 
d="M408 528l-353 496h229l249 -379l252 379h218l-362 -502l369 -522h-229l-265 397l-266 -397h-214z" />
    <glyph glyph-name="y" unicode="y" horiz-adv-x="1025" 
d="M573 -88q-18 -47 -42 -99t-57 -95.5t-76 -72t-99 -28.5q-20 0 -43 4t-54 13v139q23 -8 39 -11t27 -3q30 0 51 18t37 48t28.5 68t23.5 77l10 35l-404 1019h206l176 -484l120 -344l121 344l172 484h202z" />
    <glyph glyph-name="z" unicode="z" horiz-adv-x="885" 
d="M791 0h-706v166l489 709h-460v149h670v-154l-498 -721h505v-149z" />
    <glyph glyph-name="braceleft" unicode="{" horiz-adv-x="717" 
d="M646 -273q-116 5 -188.5 36.5t-113 83t-55.5 119t-15 144.5v174q0 65 -18 107.5t-51 68.5t-79.5 38.5t-103.5 17.5v133q82 7 131.5 26.5t76.5 49.5t35.5 69.5t8.5 87.5v181q0 81 16.5 147.5t58.5 115.5t113.5 77.5t182.5 33.5l8 -131q-64 -8 -104 -26.5t-62.5 -47.5
t-30.5 -69t-8 -91v-175q0 -49 -8 -96.5t-31 -89t-64 -75t-107 -54.5q66 -21 107.5 -55t64 -75.5t30.5 -88.5t8 -94v-113q0 -61 3 -112.5t22 -90t61 -62.5t119 -30z" />
    <glyph glyph-name="bar" unicode="|" horiz-adv-x="497" 
d="M167 1477h163v-1954h-163v1954z" />
    <glyph glyph-name="braceright" unicode="}" horiz-adv-x="717" 
d="M64 -139q77 6 119 30t61 62.5t22 90t3 112.5v113q0 47 8 94t30.5 88.5t64 75.5t107.5 55q-66 21 -107 54.5t-64 75t-31 89t-8 96.5v175q0 51 -8 91t-30.5 69t-62.5 47.5t-104 26.5l8 131q111 -5 182.5 -33.5t113.5 -77.5t58.5 -115.5t16.5 -147.5v-181q0 -48 8.5 -87.5
t35.5 -69.5t76.5 -49.5t131.5 -26.5v-133q-57 -5 -103.5 -17.5t-79.5 -38.5t-51 -68.5t-18 -107.5v-174q0 -77 -15 -144.5t-55.5 -119t-113.5 -83t-188 -36.5z" />
    <glyph glyph-name="asciitilde" unicode="~" horiz-adv-x="1208" 
d="M120 514q36 100 100.5 157t158.5 57q24 0 61 -9.5t80.5 -23.5t90.5 -30t91.5 -30t83.5 -23.5t66 -9.5q44 0 91.5 31.5t81.5 100.5l64 -78q-18 -67 -47.5 -108.5t-64 -65t-71.5 -31.5t-69 -8q-39 0 -84 9.5t-91.5 23t-92.5 30t-86 30t-72 23t-52 9.5q-42 0 -91 -34
t-84 -100z" />
    <glyph glyph-name="uni00A0" unicode="&#xa0;" horiz-adv-x="525" 
 />
    <glyph glyph-name="exclamdown" unicode="&#xa1;" horiz-adv-x="531" 
d="M370 0h-208l48 1055h112zM162 1394h208v-211h-208v211z" />
    <glyph glyph-name="cent" unicode="&#xa2;" horiz-adv-x="953" 
d="M664 1307h118l-79 -268l37 -21q35 -20 64 -44t52 -45l-89 -121q-12 9 -22 17t-22 16t-28.5 16.5t-40.5 18.5l-211 -718q27 -9 53 -13t54 -4q38 0 72.5 8.5t65 22.5t57 32t49.5 36l49 -128q-44 -58 -114.5 -95.5t-178.5 -37.5q-35 0 -73.5 5.5t-80.5 15.5l-66 -228h-117
l80 276q-43 29 -79.5 71.5t-63 99.5t-41.5 130t-15 164q0 151 37.5 255.5t101.5 169t148 93t176 28.5h12t21 -2zM286 519q0 -79 15 -151t46 -135l196 665q-74 -8 -123 -39.5t-79 -81t-42.5 -115.5t-12.5 -143z" />
    <glyph glyph-name="sterling" unicode="&#xa3;" horiz-adv-x="1163" 
d="M112 141l112 15q7 4 13 21.5t11 42t9 53.5t6.5 56t4 50.5t1.5 36.5v232h-163v145h165q-1 18 -1 36q-1 14 -1 29.5v24.5q0 57 3.5 118.5t17 120.5t40 111.5t72.5 92t114.5 63t165.5 23.5q58 0 113 -11.5t104 -37t90.5 -66.5t73.5 -101l-144 -66q-29 61 -88 97t-143 36
q-71 0 -115 -24t-68.5 -65.5t-33 -97t-8.5 -119.5v-164h311v-145h-311v-232q0 -22 -4 -55t-11 -69.5t-17 -72.5t-21 -63h653v-156h-951v141z" />
    <glyph glyph-name="currency" unicode="&#xa4;" horiz-adv-x="1466" 
d="M150 866q0 100 32 192t90 169l-97 98l104 103l97 -98q78 57 168 89.5t190 32.5q97 0 187 -32t168 -89l97 97l104 -103l-97 -98q60 -76 92 -167.5t32 -193.5q0 -100 -31.5 -189.5t-89.5 -165.5q22 -23 47 -47.5t47 -46.5l-104 -104l-92 92q-78 -59 -169.5 -91.5
t-190.5 -32.5q-100 0 -192 32.5t-170 92.5l-93 -93l-104 104l95 95q-57 75 -88.5 164.5t-31.5 189.5zM734 420q105 0 183 38.5t130.5 101t78.5 142.5t26 164t-26 164t-78.5 142.5t-131 101t-182.5 38.5q-105 0 -183 -38.5t-130.5 -101t-78.5 -142.5t-26 -164t26 -164
t78.5 -142.5t130.5 -101t183 -38.5z" />
    <glyph glyph-name="yen" unicode="&#xa5;" horiz-adv-x="1202" 
d="M504 0v286h-325v138h325v112h-325v139h260q-91 179 -186.5 366t-187.5 367h227l313 -686l318 686h214l-374 -733h257v-139h-324v-112h324v-138h-324v-286h-192z" />
    <glyph glyph-name="brokenbar" unicode="&#xa6;" horiz-adv-x="517" 
d="M177 1477h163v-723h-163v723zM177 300h163v-777h-163v777z" />
    <glyph glyph-name="section" unicode="&#xa7;" horiz-adv-x="955" 
d="M423 -27q-79 0 -146 13.5t-131 39.5v175q25 -12 58 -25t69.5 -23.5t76.5 -17.5t81 -7q65 0 105.5 14.5t62.5 35.5t29.5 44t7.5 39q0 33 -22 59t-57.5 47t-80.5 39.5t-91 37.5q-33 13 -76.5 33t-81.5 51.5t-64.5 77.5t-26.5 111q0 49 16 88t41 69.5t55.5 53t59.5 38.5
q-71 35 -113 89.5t-42 132.5q0 64 26 114t73 84.5t113 52.5t147 18q124 0 274 -51l-28 -157q-63 26 -122.5 43t-117.5 17q-32 0 -63.5 -4.5t-57 -17t-41.5 -34.5t-16 -57q0 -27 11 -47t36 -37.5t65 -35t97 -39.5q44 -17 91.5 -38t87.5 -52.5t65.5 -77.5t25.5 -113
q0 -94 -41.5 -155t-116.5 -99q31 -15 61 -35t53.5 -47.5t38 -64t14.5 -84.5q0 -67 -27.5 -122t-79 -94t-127 -60.5t-171.5 -21.5zM305 746q0 -34 16.5 -62t45.5 -50.5t68 -40.5t84 -32q18 9 41.5 23t43.5 34.5t34 47t14 60.5t-13.5 59.5t-39.5 46.5t-65.5 39t-90.5 36
q-24 -9 -48.5 -23.5t-44.5 -34.5t-32.5 -46t-12.5 -57z" />
    <glyph glyph-name="dieresis" unicode="&#xa8;" horiz-adv-x="816" 
d="M327 1377v-172h-222v172h222zM705 1377v-172h-222v172h222z" />
    <glyph glyph-name="copyright" unicode="&#xa9;" horiz-adv-x="1647" 
d="M477 719q0 71 19 150t62.5 142.5t113.5 103t171 39.5q36 0 75 -7.5t75 -26.5t66.5 -51.5t48.5 -81.5l-96 -59q-15 35 -33.5 55t-40 30.5t-46 14t-52.5 3.5q-63 0 -105.5 -28t-68 -73.5t-36.5 -103t-11 -108.5t11 -108.5t36.5 -103t68 -73.5t105.5 -28q28 0 52.5 3.5
t46 14t40 30.5t33.5 55l96 -59q-18 -49 -48.5 -81.5t-66.5 -51.5t-75 -26.5t-75 -7.5q-101 0 -171 39.5t-113.5 103t-62.5 142.5t-19 152zM93 713q0 100 26 193.5t73 175t113.5 148.5t148 114.5t175 74t195.5 26.5q100 0 193.5 -26t174.5 -74t147.5 -114.5t114.5 -148
t74 -175t26 -194.5t-26 -194.5t-74 -175t-114.5 -148.5t-147.5 -114.5t-174.5 -73.5t-193.5 -26q-102 0 -195.5 26t-175 74t-148 115t-113.5 148t-73 174.5t-26 194.5zM197 713q0 -129 49 -242t134 -198t199.5 -134t244.5 -49t244 49t198.5 134t133 198t48.5 242
q0 86 -22 165.5t-62.5 149t-97.5 126.5t-126.5 97.5t-149.5 63t-166 22.5q-87 0 -167 -22.5t-149.5 -63t-127 -97.5t-98 -126.5t-63 -149t-22.5 -165.5z" />
    <glyph glyph-name="ordfeminine" unicode="&#xaa;" horiz-adv-x="770" 
d="M317 782q-43 0 -81 12.5t-66.5 36.5t-45 59.5t-16.5 82.5q0 58 24 98.5t65 66.5t96 38t117 12h89v37q-1 28 -10 48.5t-23.5 33t-33.5 18.5t-41 6q-44 0 -91 -14.5t-84 -38.5l-48 79q22 18 50.5 32.5t60.5 24t66 14.5t66 5q43 0 81.5 -13.5t67.5 -41t46.5 -70.5t17.5 -103
v-239q0 -36 0.5 -66t1.5 -53q1 -26 3 -47h-110q-1 11 -4 23q-2 10 -5 22.5t-5 25.5q-16 -17 -35 -33t-42 -28.5t-50.5 -20t-60.5 -7.5zM345 891q50 0 80.5 18.5t47 47.5t21.5 64.5t5 69.5q-7 0 -16.5 0.5t-19.5 0.5h-19h-13q-40 0 -75 -6t-61 -19t-41 -34.5t-15 -52.5
q0 -17 5.5 -33t18 -28.5t33 -20t49.5 -7.5z" />
    <glyph glyph-name="guillemotleft" unicode="&#xab;" horiz-adv-x="989" 
d="M476 495v18l254 387l146 -37l-206 -360l207 -362l-147 -33zM95 495v19l252 386l146 -37l-208 -360l209 -362l-147 -34z" />
    <glyph glyph-name="logicalnot" unicode="&#xac;" horiz-adv-x="1256" 
d="M1087 771v-541h-159v382h-789v159h948z" />
    <glyph glyph-name="registered" unicode="&#xae;" horiz-adv-x="1644" 
d="M553 304v828h260q49 0 101 -9t94.5 -34t69.5 -70t27 -117q0 -24 -7 -51.5t-23 -55.5t-42 -53.5t-63 -44.5q36 -10 59.5 -33.5t39 -55.5t25.5 -70t18 -78.5t17 -80.5t23 -75h-143q-25 97 -38 163t-29.5 106.5t-45 58t-85.5 17.5h-118v-345h-140zM693 1009v-238h118
q29 0 56.5 4.5t49 18t34.5 36.5t13 61t-13 61.5t-34 36t-49 16.5t-58 4h-117zM196 714q0 -131 49.5 -244.5t134.5 -198.5t198.5 -133.5t242.5 -48.5q130 0 243.5 49t198 133.5t133 198.5t48.5 244q0 127 -48 240.5t-132 198.5t-198 134.5t-245 49.5q-129 0 -242.5 -49
t-198.5 -134t-134.5 -198t-49.5 -242zM92 714q0 102 26.5 196t74.5 175t115 147.5t148 113.5t173.5 73t191.5 26q100 0 193.5 -26t174.5 -73.5t147.5 -114t114 -147.5t73.5 -175t26 -195q0 -102 -26 -195.5t-74 -175t-114.5 -148.5t-147.5 -114.5t-174 -73.5t-193 -26
t-192.5 26t-173.5 73.5t-148 114.5t-114.5 148.5t-74 175t-26.5 195.5z" />
    <glyph glyph-name="macron" unicode="&#xaf;" horiz-adv-x="546" 
d="M-3 1363h543v-117h-543v117z" />
    <glyph glyph-name="degree" unicode="&#xb0;" horiz-adv-x="808" 
d="M98 1092q0 64 24 120t66 98t97.5 66t118.5 24t118.5 -24t97.5 -66t66 -98t24 -120q0 -63 -24 -119t-65.5 -97.5t-97.5 -66t-119 -24.5t-118.5 24t-97.5 66t-66 98t-24 119zM234 1092q0 -35 13.5 -65t36.5 -53t54 -36t66 -13q36 0 67 13.5t54 36t36 53t13 64.5
q0 35 -13.5 65.5t-36.5 53.5t-54 36.5t-66 13.5t-66 -13t-54 -36t-36.5 -53.5t-13.5 -66.5z" />
    <glyph glyph-name="plusminus" unicode="&#xb1;" horiz-adv-x="1214" 
d="M524 564h-391v161h391v345h164v-345h393v-161h-393v-342h-164v342zM133 -13v160h948v-160h-948z" />
    <glyph glyph-name="twosuperior" unicode="&#xb2;" horiz-adv-x="925" 
d="M123 1159q29 65 62 111t72.5 74.5t88 41.5t108.5 13q67 0 127 -18.5t104.5 -57t70.5 -97t26 -137.5q0 -47 -15 -95.5t-49.5 -105.5t-91 -124.5t-139.5 -151.5l-187 -190h504v-137h-692v140l274 283q51 53 95.5 103.5t76.5 98.5t50.5 94t18.5 89q0 30 -8.5 60t-28 54.5
t-52.5 40t-81 15.5q-49 0 -82 -15t-55.5 -37.5t-37 -49.5t-25.5 -52z" />
    <glyph glyph-name="threesuperior" unicode="&#xb3;" horiz-adv-x="933" 
d="M86 482l117 64q44 -64 110.5 -96t134.5 -32q40 0 77 12t65.5 36t45 60t16.5 84q0 54 -22 89.5t-58 57t-82 30t-94 8.5h-78v131q8 -1 17.5 -1.5t18.5 -0.5q52 0 101.5 8t87.5 29t61.5 57t23.5 93q0 40 -14.5 69.5t-39 49t-56.5 29t-67 9.5q-33 0 -66 -8.5t-62.5 -25
t-53.5 -41t-39 -57.5l-120 45q24 55 62 96t85.5 68t100.5 40.5t106 13.5q62 0 119.5 -18t102 -53.5t71.5 -88t27 -122.5q0 -36 -12.5 -72.5t-36.5 -69.5t-58 -61.5t-77 -50.5q64 -21 104 -53.5t63 -69t31.5 -72t8.5 -61.5q0 -72 -29.5 -130t-79.5 -99t-115 -63.5t-136 -22.5
q-48 0 -97 11t-95.5 34t-89.5 59t-79 86z" />
    <glyph glyph-name="acute" unicode="&#xb4;" horiz-adv-x="816" 
d="M249 1165l168 309h219l-256 -309h-131z" />
    <glyph glyph-name="mu" unicode="&#xb5;" horiz-adv-x="1137" 
d="M829 1019h174v-1019h-151l-12 130q-23 -30 -51.5 -57t-63 -48t-75 -33.5t-87.5 -12.5q-71 0 -123.5 28.5t-92.5 66.5q0 -65 1 -122q0 -24 0.5 -49.5t1 -48t0.5 -41v-29.5v-217h-175v1452h175v-570q0 -61 8 -118t31.5 -101.5t66.5 -71t114 -26.5q60 0 108 21t81.5 66.5
t51.5 118t18 175.5v506z" />
    <glyph glyph-name="paragraph" unicode="&#xb6;" horiz-adv-x="1222" 
d="M874 -290v1588h-203v-1588h-145v808q-11 -1 -28 -1.5t-28 -0.5q-98 0 -173.5 34t-126.5 94.5t-77.5 144t-26.5 182.5q0 103 27 191t84.5 151.5t147.5 99.5t216 36h534v-153h-55v-1586h-146z" />
    <glyph glyph-name="periodcentered" unicode="&#xb7;" horiz-adv-x="510" 
d="M143 697h224v-249h-224v249z" />
    <glyph glyph-name="cedilla" unicode="&#xb8;" horiz-adv-x="481" 
d="M434 -248q0 -26 -10 -59t-38 -62t-79 -49.5t-132 -20.5q-45 0 -79 8t-62 19l26 99q20 -8 48 -12.5t58 -4.5q51 0 83.5 19t32.5 55q0 20 -10.5 33t-26 20.5t-34.5 10.5t-36 3h-14t-12 -1l-53 27l112 181h111l-71 -115q97 -14 141.5 -49.5t44.5 -101.5z" />
    <glyph glyph-name="onesuperior" unicode="&#xb9;" horiz-adv-x="632" 
d="M302 849v26t0.5 44.5t1 56t0.5 61.5q1 72 2 159q-51 -43 -107.5 -80t-117.5 -72l-37 138q17 9 41.5 25t51.5 35t55.5 39.5t53.5 39t45 33.5t30 23h131v-1092h-150v564z" />
    <glyph glyph-name="ordmasculine" unicode="&#xba;" horiz-adv-x="753" 
d="M681 1110q0 -74 -21 -135t-60.5 -104t-96 -66.5t-127.5 -23.5q-75 0 -131.5 25t-94.5 68.5t-57.5 103.5t-19.5 129q0 70 19 130t57 103.5t95.5 68.5t134.5 25q82 0 139.5 -28t93.5 -73.5t52.5 -103.5t16.5 -119zM208 1111q0 -45 8.5 -85t28 -70.5t51.5 -48.5t80 -18
q36 0 66.5 13t53 40.5t35.5 69.5t13 100q0 45 -8 84.5t-26.5 69t-50.5 46.5t-80 17q-46 0 -78.5 -16.5t-53 -45.5t-30 -69t-9.5 -87z" />
    <glyph glyph-name="guillemotright" unicode="&#xbb;" horiz-adv-x="991" 
d="M322 502l-208 361l146 37l254 -389v-19l-254 -385l-144 34zM705 502l-208 361l146 37l255 -389l-2 -19l-254 -385l-144 34z" />
    <glyph glyph-name="onequarter" unicode="&#xbc;" horiz-adv-x="1966" 
d="M1197 1448l-485 -1466h-161l489 1466h157zM317 849v26t0.5 44.5t1 56t0.5 61.5q1 72 2 159q-51 -43 -107.5 -80t-117.5 -72l-37 138q17 9 41.5 25t51.5 35t55.5 39.5t53.5 39t45 33.5t30 23h131v-1092h-150v564zM1581 -3v238h-493v162l482 705h161v-728h157v-139h-157
v-238h-150zM1230 374h351v267l3 288l-123 -205z" />
    <glyph glyph-name="onehalf" unicode="&#xbd;" horiz-adv-x="1976" 
d="M1202 1448l-485 -1466h-161l489 1466h157zM317 849v26t0.5 44.5t1 56t0.5 61.5q1 72 2 159q-51 -43 -107.5 -80t-117.5 -72l-37 138q17 9 41.5 25t51.5 35t55.5 39.5t53.5 39t45 33.5t30 23h131v-1092h-150v564zM1189 871q29 65 62 111t72.5 74.5t88 41.5t108.5 13
q67 0 127 -18.5t104.5 -57t70.5 -97t26 -137.5q0 -47 -15 -95.5t-49.5 -105.5t-91 -124.5t-139.5 -151.5l-187 -190h504v-137h-692v140l274 283q51 53 95.5 103.5t76.5 98.5t50.5 94t18.5 89q0 30 -8.5 60t-28 54.5t-52.5 40t-81 15.5q-49 0 -82 -15t-55.5 -37.5t-37 -49.5
t-25.5 -52z" />
    <glyph glyph-name="threequarters" unicode="&#xbe;" horiz-adv-x="2211" 
d="M1457 1448l-485 -1466h-161l489 1466h157zM1836 -2v238h-493v162l482 705h161v-728h157v-139h-157v-238h-150zM1485 375h351v267l3 288l-123 -205zM86 482l117 64q44 -64 110.5 -96t134.5 -32q40 0 77 12t65.5 36t45 60t16.5 84q0 54 -22 89.5t-58 57t-82 30t-94 8.5h-78
v131q8 -1 17.5 -1.5t18.5 -0.5q52 0 101.5 8t87.5 29t61.5 57t23.5 93q0 40 -14.5 69.5t-39 49t-56.5 29t-67 9.5q-33 0 -66 -8.5t-62.5 -25t-53.5 -41t-39 -57.5l-120 45q24 55 62 96t85.5 68t100.5 40.5t106 13.5q62 0 119.5 -18t102 -53.5t71.5 -88t27 -122.5
q0 -36 -12.5 -72.5t-36.5 -69.5t-58 -61.5t-77 -50.5q64 -21 104 -53.5t63 -69t31.5 -72t8.5 -61.5q0 -72 -29.5 -130t-79.5 -99t-115 -63.5t-136 -22.5q-48 0 -97 11t-95.5 34t-89.5 59t-79 86z" />
    <glyph glyph-name="questiondown" unicode="&#xbf;" horiz-adv-x="882" 
d="M599.034 1075.04v-78.9902q0 -49.9941 -4.49902 -89.9893q-4.5 -39.9951 -17.998 -76.9902t-38.9951 -72.9912q-25.4971 -35.9951 -67.4912 -77.9902q-42.9951 -42.9951 -79.4912 -82.4902q-36.4951 -39.4951 -61.9922 -77.4902t-39.9951 -76.4912
q-14.498 -38.4951 -14.498 -80.4893q0 -58.9932 24.4971 -96.9883q24.4971 -37.9961 60.4922 -59.4932q35.9961 -21.4971 76.9912 -29.9961t73.9902 -8.49902q44.9951 0 114.486 14.498q69.4922 14.498 162.48 55.4932l29.9961 -170.979
q-59.9922 -25.9961 -138.982 -47.4941q-78.9912 -21.4971 -173.979 -21.4971q-97.9873 0 -176.979 23.9971q-78.9902 23.9971 -133.983 69.9912q-54.9932 45.9951 -84.4893 111.986q-29.4971 65.9922 -29.4971 149.982q0 62.9922 13.999 110.986
q13.998 47.9941 41.4941 91.4883q27.4971 43.4951 69.4922 86.9893q41.9951 43.4951 97.9873 96.4883q42.9951 39.9951 69.9922 67.9922q26.9961 27.9961 41.9941 55.4932q14.999 27.4971 20.498 60.4922q5.49902 32.9961 5.49902 82.9902v69.9912h158.98zM626.031 1202.03
h-212.974v210.975h212.974v-210.975z" />
    <glyph glyph-name="Agrave" unicode="&#xc0;" 
d="M19 64l534 1348h193l527 -1353v-59h-189l-152 396h-583l-154 -396h-176v64zM547 928l-133 -360h455l-130 360l-95 270zM719 1578l-273 309h230l172 -309h-129z" />
    <glyph glyph-name="Aacute" unicode="&#xc1;" 
d="M19 64l534 1348h193l527 -1353v-59h-189l-152 396h-583l-154 -396h-176v64zM547 928l-133 -360h455l-130 360l-95 270zM454 1579l168 309h219l-256 -309h-131z" />
    <glyph glyph-name="Acircumflex" unicode="&#xc2;" 
d="M19 64l534 1348h193l527 -1353v-59h-189l-152 396h-583l-154 -396h-176v64zM547 928l-133 -360h455l-130 360l-95 270zM808 1601l-163 226l-166 -226h-181l260 358h182l256 -358h-188z" />
    <glyph glyph-name="Atilde" unicode="&#xc3;" 
d="M19 64l534 1348h193l527 -1353v-59h-189l-152 396h-583l-154 -396h-176v64zM547 928l-133 -360h455l-130 360l-95 270zM768 1607q-27 0 -61.5 12t-69.5 26t-66 26t-51 12q-32 0 -50 -19.5t-34 -66.5h-96q0 51 15 93.5t40.5 73t59.5 47.5t71 17q31 0 63.5 -11.5t64 -25
t62 -25t57.5 -11.5q35 0 54 22.5t27 64.5h100q-3 -62 -19 -106t-41.5 -73t-58 -42.5t-67.5 -13.5z" />
    <glyph glyph-name="Adieresis" unicode="&#xc4;" 
d="M19 64l534 1348h193l527 -1353v-59h-189l-152 396h-583l-154 -396h-176v64zM547 928l-133 -360h455l-130 360l-95 270zM569 1791v-172h-222v172h222zM947 1791v-172h-222v172h222z" />
    <glyph glyph-name="Aring" unicode="&#xc5;" 
d="M19 64l534 1348h193l527 -1353v-59h-189l-152 396h-583l-154 -396h-176v64zM547 928l-133 -360h455l-130 360l-95 270zM645 1919q-59 0 -102 -39.5t-43 -102.5q0 -58 40 -97.5t105 -39.5q63 0 103 39.5t40 97.5q0 63 -43 102.5t-102 39.5h2zM644 2012q50 0 95 -17
t76 -48.5t48.5 -75t17.5 -94.5t-17.5 -93t-48.5 -73t-76 -48t-95 -17t-95 17t-76 48t-48.5 73t-17.5 93t17.5 94.5t48.5 75t76 48.5t95 17z" />
    <glyph glyph-name="AE" unicode="&#xc6;" horiz-adv-x="1814" 
d="M960 0l-36 410h-535l-213 -410h-209l737 1412h979v-175h-641l39 -417h570v-175h-553l44 -468h552v-177h-734zM472 581h435l-59 664h-41z" />
    <glyph glyph-name="Ccedilla" unicode="&#xc7;" horiz-adv-x="1240" 
d="M1166 93q-120 -61 -228 -90t-204 -29q-106 0 -193.5 28.5t-156.5 78.5t-121 118.5t-86 148.5t-51 168.5t-17 178.5q0 93 17.5 184.5t52.5 174.5t87.5 154t121.5 123t154.5 81.5t187.5 29.5q69 0 133.5 -16t120.5 -51t100.5 -92.5t71.5 -139.5l-175 -42q-15 49 -40.5 81
t-57.5 51t-70.5 27t-79.5 8q-101 0 -178.5 -47t-130.5 -126t-80 -182.5t-27 -215.5q0 -103 26 -201.5t80 -175.5t136 -124t194 -47q75 0 161 24.5t186 73.5zM900 -248q0 -26 -10 -59t-38 -62t-79 -49.5t-132 -20.5q-45 0 -79 8t-62 19l26 99q20 -8 48 -12.5t58 -4.5
q51 0 83.5 19t32.5 55q0 20 -10.5 33t-26 20.5t-34.5 10.5t-36 3h-14t-12 -1l-53 27l112 181h111l-71 -115q97 -14 141.5 -49.5t44.5 -101.5z" />
    <glyph glyph-name="Egrave" unicode="&#xc8;" horiz-adv-x="1138" 
d="M1017 0h-827v1412h818v-175h-622v-419h587v-175h-587v-464h631v-179zM660 1578l-273 309h230l172 -309h-129z" />
    <glyph glyph-name="Eacute" unicode="&#xc9;" horiz-adv-x="1138" 
d="M1017 0h-827v1412h818v-175h-622v-419h587v-175h-587v-464h631v-179zM394 1579l168 309h219l-256 -309h-131z" />
    <glyph glyph-name="Ecircumflex" unicode="&#xca;" horiz-adv-x="1138" 
d="M1017 0h-827v1412h818v-175h-622v-419h587v-175h-587v-464h631v-179zM749 1601l-163 226l-166 -226h-181l260 358h182l256 -358h-188z" />
    <glyph glyph-name="Edieresis" unicode="&#xcb;" horiz-adv-x="1138" 
d="M1017 0h-827v1412h818v-175h-622v-419h587v-175h-587v-464h631v-179zM510 1791v-172h-222v172h222zM888 1791v-172h-222v172h222z" />
    <glyph glyph-name="Igrave" unicode="&#xcc;" horiz-adv-x="577" 
d="M191 0v1412h196v-1412h-196zM366 1578l-273 309h230l172 -309h-129z" />
    <glyph glyph-name="Iacute" unicode="&#xcd;" horiz-adv-x="577" 
d="M191 0v1412h196v-1412h-196zM100 1579l168 309h219l-256 -309h-131z" />
    <glyph glyph-name="Icircumflex" unicode="&#xce;" horiz-adv-x="578" 
d="M191 0v1412h196v-1412h-196zM455 1601l-163 226l-166 -226h-181l260 358h182l256 -358h-188z" />
    <glyph glyph-name="Idieresis" unicode="&#xcf;" horiz-adv-x="578" 
d="M191 0v1412h196v-1412h-196zM216 1791v-172h-222v172h222zM594 1791v-172h-222v172h222z" />
    <glyph glyph-name="Eth" unicode="&#xd0;" horiz-adv-x="1403" 
d="M73 640v168h119v604h482q104 0 190.5 -27t155.5 -74t120 -112t85.5 -141.5t51.5 -161t17 -171.5q0 -161 -41.5 -294.5t-122.5 -229t-201 -148.5t-278 -53h-459v640h-119zM389 1240v-432h176v-168h-176v-469h248q112 0 196 41t139.5 113.5t83.5 172t28 215.5q0 99 -26 194
t-77.5 169t-127.5 119t-176 45h-288z" />
    <glyph glyph-name="Ntilde" unicode="&#xd1;" horiz-adv-x="1487" 
d="M191 0v1412h246l659 -1107l22 5q-1 32 -1.5 73.5t-1.5 86t-1.5 88.5t-1 81.5t-0.5 64.5v38v670h184v-1412h-237l-672 1123l-21 -5q1 -33 1.5 -75t1.5 -87.5t1.5 -91t1 -83.5t0.5 -66.5v-39.5v-675h-181zM868 1607q-27 0 -61.5 12t-69.5 26t-66 26t-51 12q-32 0 -50 -19.5
t-34 -66.5h-96q0 51 15 93.5t40.5 73t59.5 47.5t71 17q31 0 63.5 -11.5t64 -25t62 -25t57.5 -11.5q35 0 54 22.5t27 64.5h100q-3 -62 -19 -106t-41.5 -73t-58 -42.5t-67.5 -13.5z" />
    <glyph glyph-name="Ograve" unicode="&#xd2;" horiz-adv-x="1483" 
d="M742 -26q-116 0 -207.5 27.5t-161.5 76.5t-119.5 117t-81 149t-46 172t-14.5 187q0 98 15.5 191t48 175t83 150.5t120.5 118t160.5 77t202.5 27.5t202.5 -27.5t160.5 -77t120.5 -118t82.5 -150.5t47.5 -175t15.5 -191q0 -96 -14.5 -187t-45.5 -172t-80.5 -149
t-119.5 -117t-161.5 -76.5t-207.5 -27.5zM742 149q124 0 205.5 45t129.5 122t67.5 178t19.5 214q0 117 -20.5 219t-69.5 178t-130 119.5t-202 43.5t-202 -43.5t-130 -119.5t-70 -178t-21 -219q0 -113 19.5 -214t67.5 -178t129.5 -122t206.5 -45zM817 1578l-273 309h230
l172 -309h-129z" />
    <glyph glyph-name="Oacute" unicode="&#xd3;" horiz-adv-x="1483" 
d="M742 -26q-116 0 -207.5 27.5t-161.5 76.5t-119.5 117t-81 149t-46 172t-14.5 187q0 98 15.5 191t48 175t83 150.5t120.5 118t160.5 77t202.5 27.5t202.5 -27.5t160.5 -77t120.5 -118t82.5 -150.5t47.5 -175t15.5 -191q0 -96 -14.5 -187t-45.5 -172t-80.5 -149
t-119.5 -117t-161.5 -76.5t-207.5 -27.5zM742 149q124 0 205.5 45t129.5 122t67.5 178t19.5 214q0 117 -20.5 219t-69.5 178t-130 119.5t-202 43.5t-202 -43.5t-130 -119.5t-70 -178t-21 -219q0 -113 19.5 -214t67.5 -178t129.5 -122t206.5 -45zM551 1579l168 309h219
l-256 -309h-131z" />
    <glyph glyph-name="Ocircumflex" unicode="&#xd4;" horiz-adv-x="1483" 
d="M742 -26q-116 0 -207.5 27.5t-161.5 76.5t-119.5 117t-81 149t-46 172t-14.5 187q0 98 15.5 191t48 175t83 150.5t120.5 118t160.5 77t202.5 27.5t202.5 -27.5t160.5 -77t120.5 -118t82.5 -150.5t47.5 -175t15.5 -191q0 -96 -14.5 -187t-45.5 -172t-80.5 -149
t-119.5 -117t-161.5 -76.5t-207.5 -27.5zM742 149q124 0 205.5 45t129.5 122t67.5 178t19.5 214q0 117 -20.5 219t-69.5 178t-130 119.5t-202 43.5t-202 -43.5t-130 -119.5t-70 -178t-21 -219q0 -113 19.5 -214t67.5 -178t129.5 -122t206.5 -45zM906 1601l-163 226
l-166 -226h-181l260 358h182l256 -358h-188z" />
    <glyph glyph-name="Otilde" unicode="&#xd5;" horiz-adv-x="1483" 
d="M742 -26q-116 0 -207.5 27.5t-161.5 76.5t-119.5 117t-81 149t-46 172t-14.5 187q0 98 15.5 191t48 175t83 150.5t120.5 118t160.5 77t202.5 27.5t202.5 -27.5t160.5 -77t120.5 -118t82.5 -150.5t47.5 -175t15.5 -191q0 -96 -14.5 -187t-45.5 -172t-80.5 -149
t-119.5 -117t-161.5 -76.5t-207.5 -27.5zM742 149q124 0 205.5 45t129.5 122t67.5 178t19.5 214q0 117 -20.5 219t-69.5 178t-130 119.5t-202 43.5t-202 -43.5t-130 -119.5t-70 -178t-21 -219q0 -113 19.5 -214t67.5 -178t129.5 -122t206.5 -45zM866 1607q-27 0 -61.5 12
t-69.5 26t-66 26t-51 12q-32 0 -50 -19.5t-34 -66.5h-96q0 51 15 93.5t40.5 73t59.5 47.5t71 17q31 0 63.5 -11.5t64 -25t62 -25t57.5 -11.5q35 0 54 22.5t27 64.5h100q-3 -62 -19 -106t-41.5 -73t-58 -42.5t-67.5 -13.5z" />
    <glyph glyph-name="Odieresis" unicode="&#xd6;" horiz-adv-x="1483" 
d="M742 -26q-116 0 -207.5 27.5t-161.5 76.5t-119.5 117t-81 149t-46 172t-14.5 187q0 98 15.5 191t48 175t83 150.5t120.5 118t160.5 77t202.5 27.5t202.5 -27.5t160.5 -77t120.5 -118t82.5 -150.5t47.5 -175t15.5 -191q0 -96 -14.5 -187t-45.5 -172t-80.5 -149
t-119.5 -117t-161.5 -76.5t-207.5 -27.5zM742 149q124 0 205.5 45t129.5 122t67.5 178t19.5 214q0 117 -20.5 219t-69.5 178t-130 119.5t-202 43.5t-202 -43.5t-130 -119.5t-70 -178t-21 -219q0 -113 19.5 -214t67.5 -178t129.5 -122t206.5 -45zM667 1791v-172h-222v172h222
zM1045 1791v-172h-222v172h222z" />
    <glyph glyph-name="multiply" unicode="&#xd7;" horiz-adv-x="1038" 
d="M516 470l-277 -276l-112 111l278 276l-279 279l117 116l278 -277l278 277l112 -111l-279 -278l278 -276l-118 -117z" />
    <glyph glyph-name="Oslash" unicode="&#xd8;" horiz-adv-x="1485" 
d="M1371 714q0 -151 -35 -285.5t-111.5 -235.5t-196.5 -160t-291 -59q-98 0 -177.5 19t-144.5 54l-91 -150l-129 34l116 192q-52 49 -89.5 112.5t-61.5 137t-35.5 157t-11.5 173.5q0 68 8.5 141.5t28.5 144.5t51.5 137.5t78.5 121.5h-1q48 52 104 89t116.5 60.5t123.5 34
t124 10.5q91 0 169.5 -19t145.5 -55l90 149l131 -35l-116 -191q100 -94 152 -238.5t52 -338.5zM741 149q90 0 170.5 35t137.5 100q34 44 55.5 99t34 113t17.5 115t5 104q0 126 -23 228.5t-74 176.5l-551 -910q49 -31 107 -46t121 -15zM320 708q0 -115 22.5 -219.5
t76.5 -186.5l549 910q-44 27 -98.5 41.5t-121.5 14.5q-121 0 -203 -43.5t-132 -119.5t-71.5 -178t-21.5 -219z" />
    <glyph glyph-name="Ugrave" unicode="&#xd9;" horiz-adv-x="1442" 
d="M1267 1412v-888q0 -124 -39.5 -225.5t-111.5 -173.5t-172.5 -111.5t-221.5 -39.5t-221.5 35.5t-173 105t-112.5 174t-40 242.5v881h196v-893q0 -111 31.5 -183t82 -113t114 -57t127.5 -16q76 0 131 17.5t94 46.5t63 67.5t37.5 80t18 83.5t4.5 79v888h193zM795 1559
l-273 309h230l172 -309h-129z" />
    <glyph glyph-name="Uacute" unicode="&#xda;" horiz-adv-x="1442" 
d="M1267 1412v-888q0 -124 -39.5 -225.5t-111.5 -173.5t-172.5 -111.5t-221.5 -39.5t-221.5 35.5t-173 105t-112.5 174t-40 242.5v881h196v-893q0 -111 31.5 -183t82 -113t114 -57t127.5 -16q76 0 131 17.5t94 46.5t63 67.5t37.5 80t18 83.5t4.5 79v888h193zM532 1560
l168 309h219l-256 -309h-131z" />
    <glyph glyph-name="Ucircumflex" unicode="&#xdb;" horiz-adv-x="1442" 
d="M1267 1412v-888q0 -124 -39.5 -225.5t-111.5 -173.5t-172.5 -111.5t-221.5 -39.5t-221.5 35.5t-173 105t-112.5 174t-40 242.5v881h196v-893q0 -111 31.5 -183t82 -113t114 -57t127.5 -16q76 0 131 17.5t94 46.5t63 67.5t37.5 80t18 83.5t4.5 79v888h193zM884 1582
l-163 226l-166 -226h-181l260 358h182l256 -358h-188z" />
    <glyph glyph-name="Udieresis" unicode="&#xdc;" horiz-adv-x="1442" 
d="M1267 1412v-888q0 -124 -39.5 -225.5t-111.5 -173.5t-172.5 -111.5t-221.5 -39.5t-221.5 35.5t-173 105t-112.5 174t-40 242.5v881h196v-893q0 -111 31.5 -183t82 -113t114 -57t127.5 -16q76 0 131 17.5t94 46.5t63 67.5t37.5 80t18 83.5t4.5 79v888h193zM647 1772v-172
h-222v172h222zM1025 1772v-172h-222v172h222z" />
    <glyph glyph-name="Yacute" unicode="&#xdd;" horiz-adv-x="1174" 
d="M594 723l369 689h220l-496 -865v-547h-200v547l-496 865h232zM389 1560l168 309h219l-256 -309h-131z" />
    <glyph glyph-name="Thorn" unicode="&#xde;" horiz-adv-x="1160" 
d="M189 1457h196v-188h221q106 0 196.5 -21t156.5 -68t103 -123.5t37 -188.5q0 -113 -35.5 -193t-103.5 -131.5t-166.5 -75.5t-224.5 -24h-184v-444h-196v1457zM385 614h95q50 0 100.5 1t96.5 8t85.5 22.5t69 43.5t46 71.5t16.5 107.5q0 73 -25 118t-66 70.5t-94 34.5
t-110 9h-214v-486z" />
    <glyph glyph-name="germandbls" unicode="&#xdf;" horiz-adv-x="1200" 
d="M997 1170q0 -39 -10 -70.5t-27 -58.5t-39.5 -49.5t-46.5 -42.5q-37 -31 -62 -52.5t-40.5 -38t-22 -30.5t-6.5 -30q0 -31 23 -56t79 -61q50 -33 102 -68.5t94 -78.5t69 -96t27 -120q0 -84 -29.5 -147t-80.5 -104.5t-119.5 -62.5t-147.5 -21q-51 0 -100 9t-90 31.5
t-71 60.5t-44 97l106 81q29 -60 82.5 -94t120.5 -34q52 0 87 14.5t56.5 37.5t31 52t9.5 59q0 43 -16.5 75t-45 59.5t-68 52.5t-85.5 54q-48 30 -81.5 57t-55 55.5t-31.5 59.5t-10 68q0 43 12.5 75.5t33 59t47.5 49.5t57 46q21 16 40 31.5t33.5 33t22.5 39t8 49.5
q0 73 -56.5 116.5t-167.5 43.5q-57 0 -101.5 -12.5t-74.5 -40.5t-46 -74t-16 -113v-1081h-188v1083q0 79 20 148.5t69 122t132.5 83t209.5 30.5q78 0 151.5 -16t130 -51t91 -91.5t34.5 -138.5z" />
    <glyph glyph-name="agrave" unicode="&#xe0;" horiz-adv-x="1039" 
d="M154 919q40 27 86.5 49t96 38.5t99.5 25.5t97 9q72 0 136.5 -18.5t113 -58t76.5 -101.5t28 -150v-412q0 -68 3 -123t8 -95q5 -47 12 -83h-169q-3 17 -5.5 63t-4.5 103q-33 -56 -72 -91.5t-81 -56.5t-86 -29t-87 -8q-75 0 -136 20.5t-103.5 59.5t-65.5 94t-23 124
q0 33 7.5 70t24.5 73t45 69t69 59q44 28 97 43.5t109.5 23t113.5 9t110 1.5h54v74q0 55 -14 92.5t-39 60t-58 32.5t-70 10q-41 0 -85 -9.5t-86 -24.5t-79.5 -33t-66.5 -36zM646 210q19 22 30.5 49t18 61t9 76t2.5 95h-29q-69 0 -142.5 -5t-135 -26t-101 -64.5t-39.5 -119.5
q0 -28 9 -54.5t28.5 -47.5t49 -34t71.5 -13q72 0 133 21t96 62zM578 1164l-273 309h230l172 -309h-129z" />
    <glyph glyph-name="aacute" unicode="&#xe1;" horiz-adv-x="1039" 
d="M154 919q40 27 86.5 49t96 38.5t99.5 25.5t97 9q72 0 136.5 -18.5t113 -58t76.5 -101.5t28 -150v-412q0 -68 3 -123t8 -95q5 -47 12 -83h-169q-3 17 -5.5 63t-4.5 103q-33 -56 -72 -91.5t-81 -56.5t-86 -29t-87 -8q-75 0 -136 20.5t-103.5 59.5t-65.5 94t-23 124
q0 33 7.5 70t24.5 73t45 69t69 59q44 28 97 43.5t109.5 23t113.5 9t110 1.5h54v74q0 55 -14 92.5t-39 60t-58 32.5t-70 10q-41 0 -85 -9.5t-86 -24.5t-79.5 -33t-66.5 -36zM646 210q19 22 30.5 49t18 61t9 76t2.5 95h-29q-69 0 -142.5 -5t-135 -26t-101 -64.5t-39.5 -119.5
q0 -28 9 -54.5t28.5 -47.5t49 -34t71.5 -13q72 0 133 21t96 62zM313 1165l168 309h219l-256 -309h-131z" />
    <glyph glyph-name="acircumflex" unicode="&#xe2;" horiz-adv-x="1039" 
d="M154 919q40 27 86.5 49t96 38.5t99.5 25.5t97 9q72 0 136.5 -18.5t113 -58t76.5 -101.5t28 -150v-412q0 -68 3 -123t8 -95q5 -47 12 -83h-169q-3 17 -5.5 63t-4.5 103q-33 -56 -72 -91.5t-81 -56.5t-86 -29t-87 -8q-75 0 -136 20.5t-103.5 59.5t-65.5 94t-23 124
q0 33 7.5 70t24.5 73t45 69t69 59q44 28 97 43.5t109.5 23t113.5 9t110 1.5h54v74q0 55 -14 92.5t-39 60t-58 32.5t-70 10q-41 0 -85 -9.5t-86 -24.5t-79.5 -33t-66.5 -36zM646 210q19 22 30.5 49t18 61t9 76t2.5 95h-29q-69 0 -142.5 -5t-135 -26t-101 -64.5t-39.5 -119.5
q0 -28 9 -54.5t28.5 -47.5t49 -34t71.5 -13q72 0 133 21t96 62zM667 1187l-163 226l-166 -226h-181l260 358h182l256 -358h-188z" />
    <glyph glyph-name="atilde" unicode="&#xe3;" horiz-adv-x="1039" 
d="M154 919q40 27 86.5 49t96 38.5t99.5 25.5t97 9q72 0 136.5 -18.5t113 -58t76.5 -101.5t28 -150v-412q0 -68 3 -123t8 -95q5 -47 12 -83h-169q-3 17 -5.5 63t-4.5 103q-33 -56 -72 -91.5t-81 -56.5t-86 -29t-87 -8q-75 0 -136 20.5t-103.5 59.5t-65.5 94t-23 124
q0 33 7.5 70t24.5 73t45 69t69 59q44 28 97 43.5t109.5 23t113.5 9t110 1.5h54v74q0 55 -14 92.5t-39 60t-58 32.5t-70 10q-41 0 -85 -9.5t-86 -24.5t-79.5 -33t-66.5 -36zM646 210q19 22 30.5 49t18 61t9 76t2.5 95h-29q-69 0 -142.5 -5t-135 -26t-101 -64.5t-39.5 -119.5
q0 -28 9 -54.5t28.5 -47.5t49 -34t71.5 -13q72 0 133 21t96 62zM627 1193q-27 0 -61.5 12t-69.5 26t-66 26t-51 12q-32 0 -50 -19.5t-34 -66.5h-96q0 51 15 93.5t40.5 73t59.5 47.5t71 17q31 0 63.5 -11.5t64 -25t62 -25t57.5 -11.5q35 0 54 22.5t27 64.5h100
q-3 -62 -19 -106t-41.5 -73t-58 -42.5t-67.5 -13.5z" />
    <glyph glyph-name="adieresis" unicode="&#xe4;" horiz-adv-x="1039" 
d="M154 919q40 27 86.5 49t96 38.5t99.5 25.5t97 9q72 0 136.5 -18.5t113 -58t76.5 -101.5t28 -150v-412q0 -68 3 -123t8 -95q5 -47 12 -83h-169q-3 17 -5.5 63t-4.5 103q-33 -56 -72 -91.5t-81 -56.5t-86 -29t-87 -8q-75 0 -136 20.5t-103.5 59.5t-65.5 94t-23 124
q0 33 7.5 70t24.5 73t45 69t69 59q44 28 97 43.5t109.5 23t113.5 9t110 1.5h54v74q0 55 -14 92.5t-39 60t-58 32.5t-70 10q-41 0 -85 -9.5t-86 -24.5t-79.5 -33t-66.5 -36zM646 210q19 22 30.5 49t18 61t9 76t2.5 95h-29q-69 0 -142.5 -5t-135 -26t-101 -64.5t-39.5 -119.5
q0 -28 9 -54.5t28.5 -47.5t49 -34t71.5 -13q72 0 133 21t96 62zM428 1377v-172h-222v172h222zM806 1377v-172h-222v172h222z" />
    <glyph glyph-name="aring" unicode="&#xe5;" horiz-adv-x="1039" 
d="M154 919q40 27 86.5 49t96 38.5t99.5 25.5t97 9q72 0 136.5 -18.5t113 -58t76.5 -101.5t28 -150v-412q0 -68 3 -123t8 -95q5 -47 12 -83h-169q-3 17 -5.5 63t-4.5 103q-33 -56 -72 -91.5t-81 -56.5t-86 -29t-87 -8q-75 0 -136 20.5t-103.5 59.5t-65.5 94t-23 124
q0 33 7.5 70t24.5 73t45 69t69 59q44 28 97 43.5t109.5 23t113.5 9t110 1.5h54v74q0 55 -14 92.5t-39 60t-58 32.5t-70 10q-41 0 -85 -9.5t-86 -24.5t-79.5 -33t-66.5 -36zM646 210q19 22 30.5 49t18 61t9 76t2.5 95h-29q-69 0 -142.5 -5t-135 -26t-101 -64.5t-39.5 -119.5
q0 -28 9 -54.5t28.5 -47.5t49 -34t71.5 -13q72 0 133 21t96 62zM504 1505q-59 0 -102 -39.5t-43 -102.5q0 -58 40 -97.5t105 -39.5q63 0 103 39.5t40 97.5q0 63 -43 102.5t-102 39.5h2zM503 1598q50 0 95 -17t76 -48.5t48.5 -75t17.5 -94.5t-17.5 -93t-48.5 -73t-76 -48
t-95 -17t-95 17t-76 48t-48.5 73t-17.5 93t17.5 94.5t48.5 75t76 48.5t95 17z" />
    <glyph glyph-name="ae" unicode="&#xe6;" horiz-adv-x="1658" 
d="M1529 116q-32 -26 -67 -51t-77 -44.5t-93 -31t-113 -11.5q-47 0 -100 11.5t-104.5 39t-96 73.5t-74.5 114q-30 -68 -76 -114t-99.5 -74.5t-111.5 -41t-112 -12.5q-76 0 -137 21t-103.5 60.5t-65.5 96t-23 127.5q0 67 22 119t60.5 91.5t90 66.5t110 44t121.5 24.5t123 7.5
q27 0 52.5 -1.5t50.5 -3.5v61q0 67 -14.5 109.5t-41 67t-63.5 33.5t-81 9q-39 0 -73 -8t-65 -21.5t-61 -31.5t-60 -38q-24 28 -49 55t-49 53q42 34 83 61t84 45.5t90 28t101 9.5q112 0 192 -39t134 -128q31 42 69.5 73t80 51.5t85 31t84.5 10.5q108 0 186 -38.5t128.5 -104
t74.5 -152.5t24 -184v-100h-667q1 -71 17.5 -133t50.5 -108t87.5 -73t129.5 -27q88 0 159.5 26.5t137.5 80.5zM1148 904q-96 0 -162 -65t-81 -192v-16h463q-2 54 -12.5 103t-36 87t-67 60.5t-104.5 22.5zM645 217q18 23 29 49t18 58t10 73t3 94h-29q-36 0 -80 -1t-89.5 -7
t-88 -18t-76 -34t-53.5 -56t-20 -83q0 -32 10 -61t31.5 -51t55.5 -35.5t82 -13.5q63 0 114 21.5t83 64.5z" />
    <glyph glyph-name="ccedilla" unicode="&#xe7;" horiz-adv-x="961" 
d="M863 87q-77 -54 -164.5 -80t-167.5 -26q-83 0 -161 31t-138 97t-96.5 168t-36.5 245q0 133 40 230.5t104 161.5t144.5 95.5t161.5 31.5q57 0 112.5 -15t102.5 -48t82 -86t51 -129l-159 -26q-11 45 -30 75.5t-44 49t-53.5 26t-58.5 7.5q-48 0 -95.5 -21t-86 -66
t-62.5 -114t-24 -165q0 -95 15 -169.5t47.5 -126t82.5 -79t119 -27.5q42 0 79.5 7.5t69.5 20t59 28.5t50 33zM711 -248q0 -26 -10 -59t-38 -62t-79 -49.5t-132 -20.5q-45 0 -79 8t-62 19l26 99q20 -8 48 -12.5t58 -4.5q51 0 83.5 19t32.5 55q0 20 -10.5 33t-26 20.5
t-34.5 10.5t-36 3h-14t-12 -1l-53 27l112 181h111l-71 -115q97 -14 141.5 -49.5t44.5 -101.5z" />
    <glyph glyph-name="egrave" unicode="&#xe8;" horiz-adv-x="1043" 
d="M925 83q-32 -19 -67.5 -37.5t-79.5 -32.5t-98.5 -23t-123.5 -9q-105 0 -189.5 35t-144 102.5t-91.5 166t-32 225.5q0 106 26 202t79.5 169t136.5 116.5t197 43.5q108 0 186 -38t128.5 -102.5t74.5 -151t24 -183.5v-83h-666q1 -69 15.5 -133.5t46.5 -114t84 -79t129 -29.5
q92 0 166.5 23t141.5 65zM534 895q-48 0 -89.5 -14.5t-73 -45t-52 -77t-27.5 -110.5q-1 -5 -1 -14v-19h464q-2 55 -13 106t-36 89.5t-67 61.5t-105 23zM591 1164l-273 309h230l172 -309h-129z" />
    <glyph glyph-name="eacute" unicode="&#xe9;" horiz-adv-x="1043" 
d="M925 83q-32 -19 -67.5 -37.5t-79.5 -32.5t-98.5 -23t-123.5 -9q-105 0 -189.5 35t-144 102.5t-91.5 166t-32 225.5q0 106 26 202t79.5 169t136.5 116.5t197 43.5q108 0 186 -38t128.5 -102.5t74.5 -151t24 -183.5v-83h-666q1 -69 15.5 -133.5t46.5 -114t84 -79t129 -29.5
q92 0 166.5 23t141.5 65zM534 895q-48 0 -89.5 -14.5t-73 -45t-52 -77t-27.5 -110.5q-1 -5 -1 -14v-19h464q-2 55 -13 106t-36 89.5t-67 61.5t-105 23zM328 1165l168 309h219l-256 -309h-131z" />
    <glyph glyph-name="ecircumflex" unicode="&#xea;" horiz-adv-x="1043" 
d="M925 83q-32 -19 -67.5 -37.5t-79.5 -32.5t-98.5 -23t-123.5 -9q-105 0 -189.5 35t-144 102.5t-91.5 166t-32 225.5q0 106 26 202t79.5 169t136.5 116.5t197 43.5q108 0 186 -38t128.5 -102.5t74.5 -151t24 -183.5v-83h-666q1 -69 15.5 -133.5t46.5 -114t84 -79t129 -29.5
q92 0 166.5 23t141.5 65zM534 895q-48 0 -89.5 -14.5t-73 -45t-52 -77t-27.5 -110.5q-1 -5 -1 -14v-19h464q-2 55 -13 106t-36 89.5t-67 61.5t-105 23zM680 1187l-163 226l-166 -226h-181l260 358h182l256 -358h-188z" />
    <glyph glyph-name="edieresis" unicode="&#xeb;" horiz-adv-x="1043" 
d="M925 83q-32 -19 -67.5 -37.5t-79.5 -32.5t-98.5 -23t-123.5 -9q-105 0 -189.5 35t-144 102.5t-91.5 166t-32 225.5q0 106 26 202t79.5 169t136.5 116.5t197 43.5q108 0 186 -38t128.5 -102.5t74.5 -151t24 -183.5v-83h-666q1 -69 15.5 -133.5t46.5 -114t84 -79t129 -29.5
q92 0 166.5 23t141.5 65zM534 895q-48 0 -89.5 -14.5t-73 -45t-52 -77t-27.5 -110.5q-1 -5 -1 -14v-19h464q-2 55 -13 106t-36 89.5t-67 61.5t-105 23zM443 1377v-172h-222v172h222zM821 1377v-172h-222v172h222z" />
    <glyph glyph-name="igrave" unicode="&#xec;" horiz-adv-x="497" 
d="M320 1164l-273 309h230l172 -309h-129zM155 1019h184v-1019h-184v1019z" />
    <glyph glyph-name="iacute" unicode="&#xed;" horiz-adv-x="497" 
d="M57 1165l168 309h219l-256 -309h-131zM155 1019h184v-1019h-184v1019z" />
    <glyph glyph-name="icircumflex" unicode="&#xee;" horiz-adv-x="498" 
d="M155 1019h184v-1019h-184v1019zM409 1187l-163 226l-166 -226h-181l260 358h182l256 -358h-188z" />
    <glyph glyph-name="idieresis" unicode="&#xef;" horiz-adv-x="497" 
d="M172 1377v-172h-222v172h222zM550 1377v-172h-222v172h222zM155 1019h184v-1019h-184v1019z" />
    <glyph glyph-name="eth" unicode="&#xf0;" horiz-adv-x="1102" 
d="M510 1076l187 69q-49 63 -110.5 92.5t-133.5 29.5q-52 0 -116 -15t-133 -46l-53 122q84 40 163.5 60t150.5 20q112 0 210.5 -54t167.5 -152l202 78l33 -107l-182 -67q81 -188 81 -463q0 -131 -18.5 -231t-50.5 -174t-76.5 -124t-96 -80t-108.5 -43t-115 -13
q-89 0 -167.5 28.5t-137.5 85.5t-93.5 142.5t-34.5 200.5q0 104 31.5 183.5t86 133.5t129 81.5t160.5 27.5q183 0 312 -159q0 114 -12 196t-37 150q-17 -5 -50.5 -17.5t-68.5 -26.5q-40 -16 -87 -34zM518 723q-61 0 -110 -20t-83 -57t-52.5 -90t-18.5 -120q0 -72 18 -130
t51.5 -99t81.5 -63t108 -22t110.5 25t87 69t57 104t20.5 129q0 57 -19 106.5t-54 87t-85 59t-112 21.5z" />
    <glyph glyph-name="ntilde" unicode="&#xf1;" horiz-adv-x="1195" 
d="M862 0v660q0 113 -55.5 174t-156.5 61q-121 0 -189.5 -83.5t-68.5 -243.5v-568h-189v875h-152v149h327l10 -150q30 41 61 72.5t68 52.5t81 32t98 11q55 0 116.5 -16.5t114 -58t87 -111.5t34.5 -178v-678h-186zM745 1193q-27 0 -61.5 12t-69.5 26t-66 26t-51 12
q-32 0 -50 -19.5t-34 -66.5h-96q0 51 15 93.5t40.5 73t59.5 47.5t71 17q31 0 63.5 -11.5t64 -25t62 -25t57.5 -11.5q35 0 54 22.5t27 64.5h100q-3 -62 -19 -106t-41.5 -73t-58 -42.5t-67.5 -13.5z" />
    <glyph glyph-name="ograve" unicode="&#xf2;" horiz-adv-x="1129" 
d="M1031 512q0 -117 -30.5 -214.5t-90 -168t-147.5 -109.5t-203 -39q-109 0 -195 38t-145 107t-90.5 165t-31.5 212q0 110 27 207.5t84.5 171t147.5 116.5t215 43q123 0 210 -44.5t142.5 -118.5t81 -169.5t25.5 -196.5zM284 504q0 -83 16 -152t49.5 -119t86.5 -78t128 -28
q60 0 111.5 21.5t89 68t58.5 118.5t21 173q0 187 -70 287t-204 100q-56 0 -107.5 -21.5t-91.5 -69t-63.5 -121.5t-23.5 -179zM642 1164l-273 309h230l172 -309h-129z" />
    <glyph glyph-name="oacute" unicode="&#xf3;" horiz-adv-x="1129" 
d="M1031 512q0 -117 -30.5 -214.5t-90 -168t-147.5 -109.5t-203 -39q-109 0 -195 38t-145 107t-90.5 165t-31.5 212q0 110 27 207.5t84.5 171t147.5 116.5t215 43q123 0 210 -44.5t142.5 -118.5t81 -169.5t25.5 -196.5zM284 504q0 -83 16 -152t49.5 -119t86.5 -78t128 -28
q60 0 111.5 21.5t89 68t58.5 118.5t21 173q0 187 -70 287t-204 100q-56 0 -107.5 -21.5t-91.5 -69t-63.5 -121.5t-23.5 -179zM378 1165l168 309h219l-256 -309h-131z" />
    <glyph glyph-name="ocircumflex" unicode="&#xf4;" horiz-adv-x="1129" 
d="M1031 512q0 -117 -30.5 -214.5t-90 -168t-147.5 -109.5t-203 -39q-109 0 -195 38t-145 107t-90.5 165t-31.5 212q0 110 27 207.5t84.5 171t147.5 116.5t215 43q123 0 210 -44.5t142.5 -118.5t81 -169.5t25.5 -196.5zM284 504q0 -83 16 -152t49.5 -119t86.5 -78t128 -28
q60 0 111.5 21.5t89 68t58.5 118.5t21 173q0 187 -70 287t-204 100q-56 0 -107.5 -21.5t-91.5 -69t-63.5 -121.5t-23.5 -179zM731 1187l-163 226l-166 -226h-181l260 358h182l256 -358h-188z" />
    <glyph glyph-name="otilde" unicode="&#xf5;" horiz-adv-x="1129" 
d="M1031 512q0 -117 -30.5 -214.5t-90 -168t-147.5 -109.5t-203 -39q-109 0 -195 38t-145 107t-90.5 165t-31.5 212q0 110 27 207.5t84.5 171t147.5 116.5t215 43q123 0 210 -44.5t142.5 -118.5t81 -169.5t25.5 -196.5zM284 504q0 -83 16 -152t49.5 -119t86.5 -78t128 -28
q60 0 111.5 21.5t89 68t58.5 118.5t21 173q0 187 -70 287t-204 100q-56 0 -107.5 -21.5t-91.5 -69t-63.5 -121.5t-23.5 -179zM692 1193q-27 0 -61.5 12t-69.5 26t-66 26t-51 12q-32 0 -50 -19.5t-34 -66.5h-96q0 51 15 93.5t40.5 73t59.5 47.5t71 17q31 0 63.5 -11.5t64 -25
t62 -25t57.5 -11.5q35 0 54 22.5t27 64.5h100q-3 -62 -19 -106t-41.5 -73t-58 -42.5t-67.5 -13.5z" />
    <glyph glyph-name="odieresis" unicode="&#xf6;" horiz-adv-x="1129" 
d="M1031 512q0 -117 -30.5 -214.5t-90 -168t-147.5 -109.5t-203 -39q-109 0 -195 38t-145 107t-90.5 165t-31.5 212q0 110 27 207.5t84.5 171t147.5 116.5t215 43q123 0 210 -44.5t142.5 -118.5t81 -169.5t25.5 -196.5zM284 504q0 -83 16 -152t49.5 -119t86.5 -78t128 -28
q60 0 111.5 21.5t89 68t58.5 118.5t21 173q0 187 -70 287t-204 100q-56 0 -107.5 -21.5t-91.5 -69t-63.5 -121.5t-23.5 -179zM494 1377v-172h-222v172h222zM872 1377v-172h-222v172h222z" />
    <glyph glyph-name="divide" unicode="&#xf7;" horiz-adv-x="1206" 
d="M129 675h948v-162h-948v162zM489 1053h231v-239h-231v239zM489 366h231v-239h-231v239z" />
    <glyph glyph-name="oslash" unicode="&#xf8;" horiz-adv-x="1129" 
d="M1031 512q0 -117 -30.5 -214.5t-90 -168t-147.5 -109.5t-203 -39q-60 0 -112.5 11.5t-98.5 33.5l-87 -145l-129 34l111 184q-72 69 -109 172t-37 232q0 110 27 207.5t84.5 171t147.5 116.5t215 43q63 0 115 -12t97 -34l106 176l131 -35l-132 -218q37 -38 64 -84.5
t44 -98.5t25.5 -108.5t8.5 -114.5zM284 504q0 -75 12.5 -138.5t40.5 -112.5l366 608q-59 34 -133 34q-56 0 -107.5 -21.5t-91.5 -69t-63.5 -121.5t-23.5 -179zM564 127q60 0 111.5 21.5t89 68t58.5 118.5t21 173q0 156 -50 253l-365 -603q57 -31 135 -31z" />
    <glyph glyph-name="ugrave" unicode="&#xf9;" horiz-adv-x="1147" 
d="M846 0q-4 17 -8 42q-3 21 -6.5 52.5t-6.5 73.5q-38 -91 -118.5 -139t-183.5 -48q-189 0 -282 99.5t-93 286.5v657h186v-658q0 -49 9.5 -92.5t32.5 -76t61 -51.5t96 -19q79 0 130.5 26t82 71.5t42.5 107.5t12 134v558h186v-648q0 -94 2.5 -163.5t5.5 -117.5q4 -55 9 -95
h-157zM651 1164l-273 309h230l172 -309h-129z" />
    <glyph glyph-name="uacute" unicode="&#xfa;" horiz-adv-x="1147" 
d="M846 0q-4 17 -8 42q-3 21 -6.5 52.5t-6.5 73.5q-38 -91 -118.5 -139t-183.5 -48q-189 0 -282 99.5t-93 286.5v657h186v-658q0 -49 9.5 -92.5t32.5 -76t61 -51.5t96 -19q79 0 130.5 26t82 71.5t42.5 107.5t12 134v558h186v-648q0 -94 2.5 -163.5t5.5 -117.5q4 -55 9 -95
h-157zM388 1165l168 309h219l-256 -309h-131z" />
    <glyph glyph-name="ucircumflex" unicode="&#xfb;" horiz-adv-x="1147" 
d="M846 0q-4 17 -8 42q-3 21 -6.5 52.5t-6.5 73.5q-38 -91 -118.5 -139t-183.5 -48q-189 0 -282 99.5t-93 286.5v657h186v-658q0 -49 9.5 -92.5t32.5 -76t61 -51.5t96 -19q79 0 130.5 26t82 71.5t42.5 107.5t12 134v558h186v-648q0 -94 2.5 -163.5t5.5 -117.5q4 -55 9 -95
h-157zM739 1187l-163 226l-166 -226h-181l260 358h182l256 -358h-188z" />
    <glyph glyph-name="udieresis" unicode="&#xfc;" horiz-adv-x="1147" 
d="M846 0q-4 17 -8 42q-3 21 -6.5 52.5t-6.5 73.5q-38 -91 -118.5 -139t-183.5 -48q-189 0 -282 99.5t-93 286.5v657h186v-658q0 -49 9.5 -92.5t32.5 -76t61 -51.5t96 -19q79 0 130.5 26t82 71.5t42.5 107.5t12 134v558h186v-648q0 -94 2.5 -163.5t5.5 -117.5q4 -55 9 -95
h-157zM502 1377v-172h-222v172h222zM880 1377v-172h-222v172h222z" />
    <glyph glyph-name="yacute" unicode="&#xfd;" horiz-adv-x="1025" 
d="M573 -88q-18 -47 -42 -99t-57 -95.5t-76 -72t-99 -28.5q-20 0 -43 4t-54 13v139q23 -8 39 -11t27 -3q30 0 51 18t37 48t28.5 68t23.5 77l10 35l-404 1019h206l176 -484l120 -344l121 344l172 484h202zM325 1165l168 309h219l-256 -309h-131z" />
    <glyph glyph-name="thorn" unicode="&#xfe;" horiz-adv-x="1166" 
d="M158 -416v258.5v198.5t0.5 150t0.5 113.5v89v77.5v978h186v-325l-2 -232q23 28 53 55t67.5 48t84 34t102.5 13q108 0 186.5 -42.5t129.5 -114.5t75.5 -166t24.5 -197q0 -97 -23 -193t-73 -172.5t-130.5 -124t-195.5 -47.5q-35 0 -74 8.5t-78.5 26.5t-78 45.5t-73.5 66.5
l5 -113v-435h-187zM344 511q0 -37 3 -79.5t13 -84.5t28 -80.5t47 -67.5t72 -46.5t102 -17.5q74 0 124 31.5t80 84.5t43 121.5t13 143.5q0 63 -10 130.5t-38.5 122.5t-78.5 90.5t-129 35.5q-60 0 -103.5 -18t-73.5 -48t-48 -69.5t-28 -82t-13 -85.5t-3 -81z" />
    <glyph glyph-name="ydieresis" unicode="&#xff;" horiz-adv-x="1025" 
d="M573 -88q-18 -47 -42 -99t-57 -95.5t-76 -72t-99 -28.5q-20 0 -43 4t-54 13v139q23 -8 39 -11t27 -3q30 0 51 18t37 48t28.5 68t23.5 77l10 35l-404 1019h206l176 -484l120 -344l121 344l172 484h202zM439 1377v-172h-222v172h222zM817 1377v-172h-222v172h222z" />
    <glyph glyph-name="dotlessi" unicode="&#x131;" horiz-adv-x="497" 
d="M155 1019h184v-1019h-184v1019z" />
    <glyph glyph-name="Lslash" unicode="&#x141;" horiz-adv-x="1030" 
d="M196 0v516l-122 -75v166l122 74v731h195v-613l372 226v-166l-372 -224v-455h605v-180h-800z" />
    <glyph glyph-name="lslash" unicode="&#x142;" horiz-adv-x="973" 
d="M392 571l-357 -128v163l357 129v714h189v-645l362 130v-164l-362 -131v-639h-189v571z" />
    <glyph glyph-name="OE" unicode="&#x152;" horiz-adv-x="1999" 
d="M1875 0h-1132q-126 0 -241.5 43.5t-203 132t-139.5 223t-52 316.5q0 79 12.5 162t43 162t81 149.5t127 123t180.5 83.5t241 31q17 0 48 -1t65.5 -2.5t67 -2.5t52.5 -1h13.5h35t78.5 0.5t144.5 0.5h232h340.5v-177h-661v-426h631v-177h-631v-459h667v-181zM1000 1247
q-65 5 -112.5 7.5t-95.5 2.5q-109 0 -186.5 -28t-129.5 -73.5t-83 -103t-47 -117.5t-20.5 -117t-4.5 -100q0 -52 5.5 -112.5t23 -120.5t51 -116t89 -99t137 -68.5t196.5 -25.5h41.5t40 0.5t43.5 1t52 1.5v1068z" />
    <glyph glyph-name="oe" unicode="&#x153;" horiz-adv-x="1832" 
d="M579 -30q-89 0 -160 22.5t-125 60.5t-92 89t-62 108t-35 117.5t-11 117.5q0 103 32.5 197.5t95.5 166.5t155 114.5t212 42.5q87 0 149.5 -23.5t106.5 -58t71.5 -74t45.5 -72.5q24 55 57 93.5t69.5 64.5t73.5 41.5t70 23t59 9.5t40 2q93 0 160 -25t112 -66.5t72 -95.5
t41.5 -110.5t19 -112.5t5.5 -102v-46h-680q-2 -11 -3 -22t-1 -22q0 -55 20.5 -107t56 -92.5t84.5 -65.5t106 -25q43 0 79.5 14.5t64 40t46 61.5t24.5 79h189q-10 -73 -35.5 -127t-59 -92.5t-73.5 -63t-80.5 -39t-79 -20t-68.5 -5.5q-62 0 -119 18t-105.5 48.5t-86 71.5
t-60.5 88q-58 -104 -155.5 -164t-225.5 -60zM302 499q0 -15 1.5 -49t9 -76t25 -87.5t49.5 -83t81.5 -61.5t122.5 -24q54 0 96.5 16.5t73.5 44.5t52.5 65t35 78.5t19 84.5t5.5 84q0 68 -14.5 133.5t-47.5 117.5t-86.5 83.5t-130.5 31.5q-86 0 -142 -34t-89.5 -86.5
t-47 -115.5t-13.5 -122zM1324 867q-74 0 -122 -27t-77 -67.5t-42 -86.5t-16 -83h474q-1 21 -4 49t-11 57.5t-22.5 57.5t-38.5 50.5t-58.5 36t-82.5 13.5z" />
    <glyph glyph-name="Scaron" unicode="&#x160;" horiz-adv-x="1095" 
d="M489 149q82 0 141.5 18t98 49.5t57 74t18.5 92.5t-17 87.5t-53.5 67.5t-94.5 57t-139 56q-106 38 -178.5 80.5t-117.5 93t-64.5 111t-19.5 134.5q0 91 34 160.5t93.5 116.5t140 71t173.5 24q97 0 201 -32.5t213 -104.5l-77 -146q-91 58 -174.5 83.5t-158.5 25.5
q-122 0 -188 -51.5t-66 -142.5q0 -51 14 -87t46 -64.5t83.5 -52t127.5 -49.5q133 -45 214 -91t125 -96t58.5 -107t14.5 -126q0 -99 -33.5 -178t-96.5 -134.5t-154.5 -85t-208.5 -29.5q-91 0 -195 28.5t-219 90.5l64 156q97 -50 180.5 -75t157.5 -25zM648 1534h-184l-223 310
h177l136 -180l131 180h187z" />
    <glyph glyph-name="scaron" unicode="&#x161;" horiz-adv-x="922" 
d="M141 221q30 -23 66 -40.5t75 -29.5t79.5 -18t78.5 -6q41 0 78 9t64.5 28t44 47.5t16.5 66.5q0 27 -10 48.5t-34.5 41.5t-67 39.5t-106.5 43.5q-71 26 -129.5 52t-100 59.5t-64.5 80t-23 113.5q0 72 30 126t80.5 89t116.5 52.5t137 17.5q90 0 180.5 -27t165.5 -81
l-61 -128q-33 21 -69 37.5t-73 28t-72.5 18t-66.5 6.5q-39 0 -73.5 -8t-60 -23.5t-40.5 -39t-15 -53.5q0 -28 14 -51t40.5 -42.5t65 -37.5t87.5 -35q91 -33 155 -65t104 -68t58 -79.5t18 -100.5q0 -80 -34.5 -139t-90.5 -97t-128 -56.5t-148 -18.5q-96 0 -180.5 25.5
t-165.5 79.5zM555 1139h-184l-223 310h177l136 -180l131 180h187z" />
    <glyph glyph-name="Ydieresis" unicode="&#x178;" horiz-adv-x="1174" 
d="M594 723l369 689h220l-496 -865v-547h-200v547l-496 865h232zM504 1772v-172h-222v172h222zM882 1772v-172h-222v172h222z" />
    <glyph glyph-name="Zcaron" unicode="&#x17d;" horiz-adv-x="1173" 
d="M1082 0h-993v179l742 1054h-721v179h954v-177l-744 -1055h762v-180zM688 1534h-184l-223 310h177l136 -180l131 180h187z" />
    <glyph glyph-name="zcaron" unicode="&#x17e;" horiz-adv-x="886" 
d="M791 0h-706v166l489 709h-460v149h670v-154l-498 -721h505v-149zM556 1139h-184l-223 310h177l136 -180l131 180h187z" />
    <glyph glyph-name="florin" unicode="&#x192;" horiz-adv-x="701" 
d="M105 823h176l43 207q12 60 31.5 116t55.5 99.5t93.5 70t146.5 26.5q26 0 52 -3t60 -8l-24 -151q-17 0 -33.5 3t-38.5 3q-43 0 -71.5 -14.5t-46.5 -37.5t-28.5 -52t-17.5 -59l-43 -200h205q-4 -20 -9 -44.5t-10 -46.5q-5 -26 -11 -52h-200l-117 -626
q-20 -107 -42.5 -188.5t-61.5 -137t-101 -84t-160 -28.5q-8 0 -20 0.5t-30 3.5q7 41 13.5 77.5t12.5 74.5q12 -2 20.5 -3t13.5 -1q56 0 85 22.5t44.5 65t24.5 105t24 143.5l111 576h-174z" />
    <glyph glyph-name="uni0200" unicode="&#x200;" 
d="M19 64l534 1348h193l527 -1353v-59h-189l-152 396h-583l-154 -396h-176v64zM547 928l-133 -360h455l-130 360l-95 270zM994 1495h-136l-248 293h217zM686 1495h-137l-248 293h216z" />
    <glyph glyph-name="uni0201" unicode="&#x201;" horiz-adv-x="1039" 
d="M154 919q40 27 86.5 49t96 38.5t99.5 25.5t97 9q72 0 136.5 -18.5t113 -58t76.5 -101.5t28 -150v-412q0 -68 3 -123t8 -95q5 -47 12 -83h-169q-3 17 -5.5 63t-4.5 103q-33 -56 -72 -91.5t-81 -56.5t-86 -29t-87 -8q-75 0 -136 20.5t-103.5 59.5t-65.5 94t-23 124
q0 33 7.5 70t24.5 73t45 69t69 59q44 28 97 43.5t109.5 23t113.5 9t110 1.5h54v74q0 55 -14 92.5t-39 60t-58 32.5t-70 10q-41 0 -85 -9.5t-86 -24.5t-79.5 -33t-66.5 -36zM646 210q19 22 30.5 49t18 61t9 76t2.5 95h-29q-69 0 -142.5 -5t-135 -26t-101 -64.5t-39.5 -119.5
q0 -28 9 -54.5t28.5 -47.5t49 -34t71.5 -13q72 0 133 21t96 62zM853 1158h-136l-248 293h217zM545 1158h-137l-248 293h216z" />
    <glyph glyph-name="uni0202" unicode="&#x202;" 
d="M19 64l534 1348h193l527 -1353v-59h-189l-152 396h-583l-154 -396h-176v64zM547 928l-133 -360h455l-130 360l-95 270zM377 1490q0 22 2.5 54.5t10.5 68t25 70.5t46.5 63t74 45.5t108.5 17.5q138 0 205 -81.5t69 -237.5h-99q-2 19 -8.5 50t-25 60t-52.5 50.5t-89 21.5
q-83 0 -122.5 -48.5t-44.5 -133.5h-100z" />
    <glyph glyph-name="uni0203" unicode="&#x203;" horiz-adv-x="1039" 
d="M154 919q40 27 86.5 49t96 38.5t99.5 25.5t97 9q72 0 136.5 -18.5t113 -58t76.5 -101.5t28 -150v-412q0 -68 3 -123t8 -95q5 -47 12 -83h-169q-3 17 -5.5 63t-4.5 103q-33 -56 -72 -91.5t-81 -56.5t-86 -29t-87 -8q-75 0 -136 20.5t-103.5 59.5t-65.5 94t-23 124
q0 33 7.5 70t24.5 73t45 69t69 59q44 28 97 43.5t109.5 23t113.5 9t110 1.5h54v74q0 55 -14 92.5t-39 60t-58 32.5t-70 10q-41 0 -85 -9.5t-86 -24.5t-79.5 -33t-66.5 -36zM646 210q19 22 30.5 49t18 61t9 76t2.5 95h-29q-69 0 -142.5 -5t-135 -26t-101 -64.5t-39.5 -119.5
q0 -28 9 -54.5t28.5 -47.5t49 -34t71.5 -13q72 0 133 21t96 62zM236 1153q0 22 2.5 54.5t10.5 68t25 70.5t46.5 63t74 45.5t108.5 17.5q138 0 205 -81.5t69 -237.5h-99q-2 19 -8.5 50t-25 60t-52.5 50.5t-89 21.5q-83 0 -122.5 -48.5t-44.5 -133.5h-100z" />
    <glyph glyph-name="uni0204" unicode="&#x204;" horiz-adv-x="1138" 
d="M1017 0h-827v1412h818v-175h-622v-419h587v-175h-587v-464h631v-179zM934 1495h-136l-248 293h217zM626 1495h-137l-248 293h216z" />
    <glyph glyph-name="uni0205" unicode="&#x205;" horiz-adv-x="1043" 
d="M925 83q-32 -19 -67.5 -37.5t-79.5 -32.5t-98.5 -23t-123.5 -9q-105 0 -189.5 35t-144 102.5t-91.5 166t-32 225.5q0 106 26 202t79.5 169t136.5 116.5t197 43.5q108 0 186 -38t128.5 -102.5t74.5 -151t24 -183.5v-83h-666q1 -69 15.5 -133.5t46.5 -114t84 -79t129 -29.5
q92 0 166.5 23t141.5 65zM534 895q-48 0 -89.5 -14.5t-73 -45t-52 -77t-27.5 -110.5q-1 -5 -1 -14v-19h464q-2 55 -13 106t-36 89.5t-67 61.5t-105 23zM869 1158h-136l-248 293h217zM561 1158h-137l-248 293h216z" />
    <glyph glyph-name="uni0206" unicode="&#x206;" horiz-adv-x="1138" 
d="M1017 0h-827v1412h818v-175h-622v-419h587v-175h-587v-464h631v-179zM317 1490q0 22 2.5 54.5t10.5 68t25 70.5t46.5 63t74 45.5t108.5 17.5q138 0 205 -81.5t69 -237.5h-99q-2 19 -8.5 50t-25 60t-52.5 50.5t-89 21.5q-83 0 -122.5 -48.5t-44.5 -133.5h-100z" />
    <glyph glyph-name="uni0207" unicode="&#x207;" horiz-adv-x="1043" 
d="M925 83q-32 -19 -67.5 -37.5t-79.5 -32.5t-98.5 -23t-123.5 -9q-105 0 -189.5 35t-144 102.5t-91.5 166t-32 225.5q0 106 26 202t79.5 169t136.5 116.5t197 43.5q108 0 186 -38t128.5 -102.5t74.5 -151t24 -183.5v-83h-666q1 -69 15.5 -133.5t46.5 -114t84 -79t129 -29.5
q92 0 166.5 23t141.5 65zM534 895q-48 0 -89.5 -14.5t-73 -45t-52 -77t-27.5 -110.5q-1 -5 -1 -14v-19h464q-2 55 -13 106t-36 89.5t-67 61.5t-105 23zM252 1153q0 22 2.5 54.5t10.5 68t25 70.5t46.5 63t74 45.5t108.5 17.5q138 0 205 -81.5t69 -237.5h-99q-2 19 -8.5 50
t-25 60t-52.5 50.5t-89 21.5q-83 0 -122.5 -48.5t-44.5 -133.5h-100z" />
    <glyph glyph-name="uni0208" unicode="&#x208;" horiz-adv-x="577" 
d="M191 0v1412h196v-1412h-196zM640 1495h-136l-248 293h217zM332 1495h-137l-248 293h216z" />
    <glyph glyph-name="uni0209" unicode="&#x209;" horiz-adv-x="497" 
d="M155 1019h184v-1019h-184v1019zM598 1158h-136l-248 293h217zM290 1158h-137l-248 293h216z" />
    <glyph glyph-name="uni020A" unicode="&#x20a;" horiz-adv-x="578" 
d="M191 0v1412h196v-1412h-196zM21 1490q0 22 2.5 54.5t10.5 68t25 70.5t46.5 63t74 45.5t108.5 17.5q138 0 205 -81.5t69 -237.5h-99q-2 19 -8.5 50t-25 60t-52.5 50.5t-89 21.5q-83 0 -122.5 -48.5t-44.5 -133.5h-100z" />
    <glyph glyph-name="uni020B" unicode="&#x20b;" horiz-adv-x="552" 
d="M393 0h-186v875h-152v149h338v-1024zM411 1377v-172h-222v172h222zM13 1153q0 22 2.5 54.5t10.5 68t25 70.5t46.5 63t74 45.5t108.5 17.5q138 0 205 -81.5t69 -237.5h-99q-2 19 -8.5 50t-25 60t-52.5 50.5t-89 21.5q-83 0 -122.5 -48.5t-44.5 -133.5h-100z" />
    <glyph glyph-name="uni020C" unicode="&#x20c;" horiz-adv-x="1483" 
d="M742 -26q-116 0 -207.5 27.5t-161.5 76.5t-119.5 117t-81 149t-46 172t-14.5 187q0 98 15.5 191t48 175t83 150.5t120.5 118t160.5 77t202.5 27.5t202.5 -27.5t160.5 -77t120.5 -118t82.5 -150.5t47.5 -175t15.5 -191q0 -96 -14.5 -187t-45.5 -172t-80.5 -149
t-119.5 -117t-161.5 -76.5t-207.5 -27.5zM742 149q124 0 205.5 45t129.5 122t67.5 178t19.5 214q0 117 -20.5 219t-69.5 178t-130 119.5t-202 43.5t-202 -43.5t-130 -119.5t-70 -178t-21 -219q0 -113 19.5 -214t67.5 -178t129.5 -122t206.5 -45zM1091 1495h-136l-248 293
h217zM783 1495h-137l-248 293h216z" />
    <glyph glyph-name="uni020D" unicode="&#x20d;" horiz-adv-x="1129" 
d="M1031 512q0 -117 -30.5 -214.5t-90 -168t-147.5 -109.5t-203 -39q-109 0 -195 38t-145 107t-90.5 165t-31.5 212q0 110 27 207.5t84.5 171t147.5 116.5t215 43q123 0 210 -44.5t142.5 -118.5t81 -169.5t25.5 -196.5zM284 504q0 -83 16 -152t49.5 -119t86.5 -78t128 -28
q60 0 111.5 21.5t89 68t58.5 118.5t21 173q0 187 -70 287t-204 100q-56 0 -107.5 -21.5t-91.5 -69t-63.5 -121.5t-23.5 -179zM916 1158h-136l-248 293h217zM608 1158h-137l-248 293h216z" />
    <glyph glyph-name="uni020E" unicode="&#x20e;" horiz-adv-x="1483" 
d="M742 -26q-116 0 -207.5 27.5t-161.5 76.5t-119.5 117t-81 149t-46 172t-14.5 187q0 98 15.5 191t48 175t83 150.5t120.5 118t160.5 77t202.5 27.5t202.5 -27.5t160.5 -77t120.5 -118t82.5 -150.5t47.5 -175t15.5 -191q0 -96 -14.5 -187t-45.5 -172t-80.5 -149
t-119.5 -117t-161.5 -76.5t-207.5 -27.5zM742 149q124 0 205.5 45t129.5 122t67.5 178t19.5 214q0 117 -20.5 219t-69.5 178t-130 119.5t-202 43.5t-202 -43.5t-130 -119.5t-70 -178t-21 -219q0 -113 19.5 -214t67.5 -178t129.5 -122t206.5 -45zM474 1490q0 22 2.5 54.5
t10.5 68t25 70.5t46.5 63t74 45.5t108.5 17.5q138 0 205 -81.5t69 -237.5h-99q-2 19 -8.5 50t-25 60t-52.5 50.5t-89 21.5q-83 0 -122.5 -48.5t-44.5 -133.5h-100z" />
    <glyph glyph-name="uni020F" unicode="&#x20f;" horiz-adv-x="1129" 
d="M1031 512q0 -117 -30.5 -214.5t-90 -168t-147.5 -109.5t-203 -39q-109 0 -195 38t-145 107t-90.5 165t-31.5 212q0 110 27 207.5t84.5 171t147.5 116.5t215 43q123 0 210 -44.5t142.5 -118.5t81 -169.5t25.5 -196.5zM284 504q0 -83 16 -152t49.5 -119t86.5 -78t128 -28
q60 0 111.5 21.5t89 68t58.5 118.5t21 173q0 187 -70 287t-204 100q-56 0 -107.5 -21.5t-91.5 -69t-63.5 -121.5t-23.5 -179zM299 1153q0 22 2.5 54.5t10.5 68t25 70.5t46.5 63t74 45.5t108.5 17.5q138 0 205 -81.5t69 -237.5h-99q-2 19 -8.5 50t-25 60t-52.5 50.5t-89 21.5
q-83 0 -122.5 -48.5t-44.5 -133.5h-100z" />
    <glyph glyph-name="uni0210" unicode="&#x210;" horiz-adv-x="1284" 
d="M191 0v1412h433q92 0 180 -18t156.5 -61t110.5 -114t42 -176q0 -68 -18 -122.5t-51.5 -98t-81.5 -75.5t-108 -55q80 -19 126.5 -48.5t73 -72t38 -98t21.5 -126t24 -157t46 -190.5h-210q-21 109 -32.5 196.5t-23.5 155t-28.5 116t-47.5 79.5t-80 45.5t-126 14.5h-248v-607
h-196zM386 755h232q61 0 114 14t92.5 45t62 81.5t22.5 123.5q0 76 -29 120t-75 66.5t-102.5 28t-110.5 5.5h-206v-484zM982 1495h-136l-248 293h217zM674 1495h-137l-248 293h216z" />
    <glyph glyph-name="uni0211" unicode="&#x211;" horiz-adv-x="749" 
d="M159 761q0 13 -0.5 46t-1 72t-2 81.5t-2.5 64.5h175l9 -178q33 53 72 90t78.5 60t77.5 33.5t70 10.5q20 0 43.5 -1.5t44.5 -4.5l-12 -184q-27 5 -51 8t-49 3q-70 0 -120 -23.5t-81.5 -65.5t-46.5 -100t-15 -128v-545h-189v761zM723 1158h-136l-248 293h217zM415 1158
h-137l-248 293h216z" />
    <glyph glyph-name="uni0212" unicode="&#x212;" horiz-adv-x="1284" 
d="M191 0v1412h433q92 0 180 -18t156.5 -61t110.5 -114t42 -176q0 -68 -18 -122.5t-51.5 -98t-81.5 -75.5t-108 -55q80 -19 126.5 -48.5t73 -72t38 -98t21.5 -126t24 -157t46 -190.5h-210q-21 109 -32.5 196.5t-23.5 155t-28.5 116t-47.5 79.5t-80 45.5t-126 14.5h-248v-607
h-196zM386 755h232q61 0 114 14t92.5 45t62 81.5t22.5 123.5q0 76 -29 120t-75 66.5t-102.5 28t-110.5 5.5h-206v-484zM365 1490q0 22 2.5 54.5t10.5 68t25 70.5t46.5 63t74 45.5t108.5 17.5q138 0 205 -81.5t69 -237.5h-99q-2 19 -8.5 50t-25 60t-52.5 50.5t-89 21.5
q-83 0 -122.5 -48.5t-44.5 -133.5h-100z" />
    <glyph glyph-name="uni0213" unicode="&#x213;" horiz-adv-x="749" 
d="M159 761q0 13 -0.5 46t-1 72t-2 81.5t-2.5 64.5h175l9 -178q33 53 72 90t78.5 60t77.5 33.5t70 10.5q20 0 43.5 -1.5t44.5 -4.5l-12 -184q-27 5 -51 8t-49 3q-70 0 -120 -23.5t-81.5 -65.5t-46.5 -100t-15 -128v-545h-189v761zM104 1153q0 22 2.5 54.5t10.5 68t25 70.5
t46.5 63t74 45.5t108.5 17.5q138 0 205 -81.5t69 -237.5h-99q-2 19 -8.5 50t-25 60t-52.5 50.5t-89 21.5q-83 0 -122.5 -48.5t-44.5 -133.5h-100z" />
    <glyph glyph-name="uni0214" unicode="&#x214;" horiz-adv-x="1442" 
d="M1267 1412v-888q0 -124 -39.5 -225.5t-111.5 -173.5t-172.5 -111.5t-221.5 -39.5t-221.5 35.5t-173 105t-112.5 174t-40 242.5v881h196v-893q0 -111 31.5 -183t82 -113t114 -57t127.5 -16q76 0 131 17.5t94 46.5t63 67.5t37.5 80t18 83.5t4.5 79v888h193zM1073 1495h-136
l-248 293h217zM765 1495h-137l-248 293h216z" />
    <glyph glyph-name="uni0215" unicode="&#x215;" horiz-adv-x="1147" 
d="M846 0q-4 17 -8 42q-3 21 -6.5 52.5t-6.5 73.5q-38 -91 -118.5 -139t-183.5 -48q-189 0 -282 99.5t-93 286.5v657h186v-658q0 -49 9.5 -92.5t32.5 -76t61 -51.5t96 -19q79 0 130.5 26t82 71.5t42.5 107.5t12 134v558h186v-648q0 -94 2.5 -163.5t5.5 -117.5q4 -55 9 -95
h-157zM917 1158h-136l-248 293h217zM609 1158h-137l-248 293h216z" />
    <glyph glyph-name="uni0216" unicode="&#x216;" horiz-adv-x="1442" 
d="M1267 1412v-888q0 -124 -39.5 -225.5t-111.5 -173.5t-172.5 -111.5t-221.5 -39.5t-221.5 35.5t-173 105t-112.5 174t-40 242.5v881h196v-893q0 -111 31.5 -183t82 -113t114 -57t127.5 -16q76 0 131 17.5t94 46.5t63 67.5t37.5 80t18 83.5t4.5 79v888h193zM456 1490
q0 22 2.5 54.5t10.5 68t25 70.5t46.5 63t74 45.5t108.5 17.5q138 0 205 -81.5t69 -237.5h-99q-2 19 -8.5 50t-25 60t-52.5 50.5t-89 21.5q-83 0 -122.5 -48.5t-44.5 -133.5h-100z" />
    <glyph glyph-name="uni0217" unicode="&#x217;" horiz-adv-x="1147" 
d="M846 0q-4 17 -8 42q-3 21 -6.5 52.5t-6.5 73.5q-38 -91 -118.5 -139t-183.5 -48q-189 0 -282 99.5t-93 286.5v657h186v-658q0 -49 9.5 -92.5t32.5 -76t61 -51.5t96 -19q79 0 130.5 26t82 71.5t42.5 107.5t12 134v558h186v-648q0 -94 2.5 -163.5t5.5 -117.5q4 -55 9 -95
h-157zM300 1153q0 22 2.5 54.5t10.5 68t25 70.5t46.5 63t74 45.5t108.5 17.5q138 0 205 -81.5t69 -237.5h-99q-2 19 -8.5 50t-25 60t-52.5 50.5t-89 21.5q-83 0 -122.5 -48.5t-44.5 -133.5h-100z" />
    <glyph glyph-name="uni0218" unicode="&#x218;" horiz-adv-x="1097" 
d="M491 149q82 0 141.5 18t98 49.5t57 74t18.5 92.5t-17 87.5t-53.5 67.5t-94.5 57t-139 56q-106 38 -178.5 80.5t-117.5 93t-64.5 111t-19.5 134.5q0 91 34 160.5t93.5 116.5t140 71t173.5 24q97 0 201 -32.5t213 -104.5l-77 -146q-91 58 -174.5 83.5t-158.5 25.5
q-122 0 -188 -51.5t-66 -142.5q0 -51 14 -87t46 -64.5t83.5 -52t127.5 -49.5q133 -45 214 -91t125 -96t58.5 -107t14.5 -126q0 -99 -33.5 -178t-96.5 -134.5t-154.5 -85t-208.5 -29.5q-91 0 -195 28.5t-219 90.5l64 156q97 -50 180.5 -75t157.5 -25zM317 -599l112 492h222
l-194 -492h-140z" />
    <glyph glyph-name="uni0219" unicode="&#x219;" horiz-adv-x="922" 
d="M141 221q30 -23 66 -40.5t75 -29.5t79.5 -18t78.5 -6q41 0 78 9t64.5 28t44 47.5t16.5 66.5q0 27 -10 48.5t-34.5 41.5t-67 39.5t-106.5 43.5q-71 26 -129.5 52t-100 59.5t-64.5 80t-23 113.5q0 72 30 126t80.5 89t116.5 52.5t137 17.5q90 0 180.5 -27t165.5 -81
l-61 -128q-33 21 -69 37.5t-73 28t-72.5 18t-66.5 6.5q-39 0 -73.5 -8t-60 -23.5t-40.5 -39t-15 -53.5q0 -28 14 -51t40.5 -42.5t65 -37.5t87.5 -35q91 -33 155 -65t104 -68t58 -79.5t18 -100.5q0 -80 -34.5 -139t-90.5 -97t-128 -56.5t-148 -18.5q-96 0 -180.5 25.5
t-165.5 79.5zM249 -599l112 492h222l-194 -492h-140z" />
    <glyph glyph-name="uni021A" unicode="&#x21a;" horiz-adv-x="1142" 
d="M668 0h-195v1237h-438v175h1071v-175h-438v-1237zM399 -599l112 492h222l-194 -492h-140z" />
    <glyph glyph-name="uni021B" unicode="&#x21b;" horiz-adv-x="702" 
d="M519 127q28 0 61.5 4t56.5 9v-138q-31 -8 -75.5 -14.5t-89.5 -6.5q-61 0 -110.5 12.5t-84 43.5t-53 83.5t-18.5 131.5v624h-157v149h162l33 244l151 33v-277h238v-149h-238v-602q0 -29 4.5 -56t18 -47t37.5 -32t64 -12zM199 -599l112 492h222l-194 -492h-140z" />
    <glyph glyph-name="circumflex" unicode="&#x2c6;" horiz-adv-x="816" 
d="M563 1187l-163 226l-166 -226h-181l260 358h182l256 -358h-188z" />
    <glyph glyph-name="caron" unicode="&#x2c7;" horiz-adv-x="546" 
d="M369 1139h-184l-223 310h177l136 -180l131 180h187z" />
    <glyph glyph-name="breve" unicode="&#x2d8;" horiz-adv-x="546" 
d="M101 1472q5 -85 44.5 -133.5t122.5 -48.5q55 0 89 21.5t52.5 50.5t25 60t8.5 50h99q-2 -156 -69 -237.5t-205 -81.5q-64 0 -108.5 17.5t-74 45.5t-46.5 63t-25 70.5t-10.5 67.5t-2.5 55h100z" />
    <glyph glyph-name="dotaccent" unicode="&#x2d9;" horiz-adv-x="546" 
d="M177 1410h190v-213h-190v213z" />
    <glyph glyph-name="ring" unicode="&#x2da;" horiz-adv-x="816" 
d="M404 1505q-59 0 -102 -39.5t-43 -102.5q0 -58 40 -97.5t105 -39.5q63 0 103 39.5t40 97.5q0 63 -43 102.5t-102 39.5h2zM403 1598q50 0 95 -17t76 -48.5t48.5 -75t17.5 -94.5t-17.5 -93t-48.5 -73t-76 -48t-95 -17t-95 17t-76 48t-48.5 73t-17.5 93t17.5 94.5t48.5 75
t76 48.5t95 17z" />
    <glyph glyph-name="ogonek" unicode="&#x2db;" horiz-adv-x="546" 
d="M423 15q-34 -23 -65.5 -45.5t-56 -46.5t-39 -48.5t-14.5 -50.5q0 -34 16.5 -52t37 -26.5t40 -10t25.5 -1.5q28 0 48 8t44 22v-96q-38 -20 -81.5 -36t-105.5 -16q-53 0 -89 14.5t-58 37t-31.5 49t-9.5 50.5q0 41 19 77t52 67t76.5 57t92.5 47h99z" />
    <glyph glyph-name="tilde" unicode="&#x2dc;" horiz-adv-x="816" 
d="M536 1193q-27 0 -61.5 12t-69.5 26t-66 26t-51 12q-32 0 -50 -19.5t-34 -66.5h-96q0 51 15 93.5t40.5 73t59.5 47.5t71 17q31 0 63.5 -11.5t64 -25t62 -25t57.5 -11.5q35 0 54 22.5t27 64.5h100q-3 -62 -19 -106t-41.5 -73t-58 -42.5t-67.5 -13.5z" />
    <glyph glyph-name="hungarumlaut" unicode="&#x2dd;" horiz-adv-x="786" 
d="M235 1451h217l-248 -293h-136zM545 1451h216l-248 -293h-137z" />
    <glyph glyph-name="uni030F" unicode="&#x30f;" horiz-adv-x="786" 
d="M729 1158h-136l-248 293h217zM421 1158h-137l-248 293h216z" />
    <glyph glyph-name="uni0311" unicode="&#x311;" horiz-adv-x="546" 
d="M1 1153q0 22 2.5 54.5t10.5 68t25 70.5t46.5 63t74 45.5t108.5 17.5q138 0 205 -81.5t69 -237.5h-99q-2 19 -8.5 50t-25 60t-52.5 50.5t-89 21.5q-83 0 -122.5 -48.5t-44.5 -133.5h-100z" />
    <glyph glyph-name="uni0326" unicode="&#x326;" horiz-adv-x="521" 
d="M38 -599l112 492h222l-194 -492h-140z" />
    <glyph glyph-name="uni03A9" unicode="&#x3a9;" horiz-adv-x="1447" 
d="M112 153h278q-50 49 -95.5 110t-80 133.5t-55 157t-20.5 182.5q0 141 44.5 260.5t123.5 206t187.5 135t235.5 48.5q135 0 242 -53.5t181.5 -143t114.5 -204.5t40 -238q0 -101 -21.5 -189.5t-57 -163t-82 -135.5t-96.5 -106h283v-153h-489v112q54 37 105 94t90 132.5
t63 170t24 206.5q0 92 -25.5 184.5t-76 166.5t-125 120t-172.5 46q-93 0 -168 -40.5t-128.5 -111t-82 -166.5t-28.5 -206q0 -105 24 -197.5t63 -169t89.5 -135t103.5 -94.5v-112h-489v153z" />
    <glyph glyph-name="pi" unicode="&#x3c0;" horiz-adv-x="1179" 
d="M962 861v-569q0 -102 8.5 -174.5t18.5 -117.5h-168q-16 32 -26 100.5t-10 180.5v580h-324q-3 -62 -9.5 -136t-16 -153.5t-22 -160.5t-27 -156t-31 -140.5t-34.5 -114.5h-175q18 55 34.5 123.5t31 143t27 153.5t22 156.5t16 150t9.5 134.5q-78 -2 -126.5 -8t-83.5 -16
l-27 123q44 24 114 41t180 17h786l-17 -157h-150z" />
    <glyph glyph-name="endash" unicode="&#x2013;" horiz-adv-x="1207" 
d="M149 444v164h908v-164h-908z" />
    <glyph glyph-name="emdash" unicode="&#x2014;" horiz-adv-x="1906" 
d="M150 444v164h1606v-164h-1606z" />
    <glyph glyph-name="quoteleft" unicode="&#x2018;" horiz-adv-x="517" 
d="M92 919l198 489h141l-119 -489h-220z" />
    <glyph glyph-name="quoteright" unicode="&#x2019;" horiz-adv-x="501" 
d="M109 919l111 489h223l-196 -489h-138z" />
    <glyph glyph-name="quotesinglbase" unicode="&#x201a;" horiz-adv-x="511" 
d="M55 -256l111 479h221l-193 -479h-139z" />
    <glyph glyph-name="quotedblleft" unicode="&#x201c;" horiz-adv-x="878" 
d="M454 919l198 489h141l-119 -489h-220zM92 919l198 489h141l-119 -489h-220z" />
    <glyph glyph-name="quotedblright" unicode="&#x201d;" horiz-adv-x="866" 
d="M474 919l111 489h223l-196 -489h-138zM109 919l111 489h223l-196 -489h-138z" />
    <glyph glyph-name="quotedblbase" unicode="&#x201e;" horiz-adv-x="875" 
d="M419 -256l110 479h222l-193 -479h-139zM55 -256l110 479h222l-193 -479h-139z" />
    <glyph glyph-name="dagger" unicode="&#x2020;" horiz-adv-x="948" 
d="M394 929h-329v159h329v324h164v-324h325v-159h-325v-929h-164v929z" />
    <glyph glyph-name="daggerdbl" unicode="&#x2021;" horiz-adv-x="1073" 
d="M453 327h-329v159h329v443h-329v160h329v323h166v-323h329v-160h-329v-443h329v-159h-329v-327h-166v327z" />
    <glyph glyph-name="bullet" unicode="&#x2022;" horiz-adv-x="807" 
d="M106 711q0 72 23.5 130t63.5 98t94 61.5t116 21.5t116 -21.5t94.5 -62t64 -98t23.5 -129.5q0 -71 -23 -128t-63.5 -97.5t-95 -62.5t-116.5 -22t-116 22t-94.5 62.5t-63.5 97.5t-23 128z" />
    <glyph glyph-name="ellipsis" unicode="&#x2026;" horiz-adv-x="1752" 
d="M144 248h225v-248h-225v248zM762 248h227v-248h-227v248zM1382 248h226v-248h-226v248z" />
    <glyph glyph-name="perthousand" unicode="&#x2030;" horiz-adv-x="2361" 
d="M238 1009q0 -44 5 -90t21 -84t46 -62.5t79 -24.5q48 0 77.5 25t45 63.5t21 85t5.5 88.5q0 54 -7 101.5t-24 83t-45.5 56.5t-72.5 21q-49 0 -79 -24.5t-46 -63t-21 -85t-5 -90.5zM695 1015q0 -98 -21.5 -172.5t-61.5 -124.5t-97 -76t-128 -26q-68 0 -124 24.5t-96 74
t-62.5 122.5t-22.5 171q0 90 19 163t58 125t98 80.5t139 28.5q79 0 135.5 -29.5t93 -81.5t53.5 -123.5t17 -155.5zM1106 362q0 -48 6 -93.5t22.5 -80t45 -55.5t74.5 -21q48 0 78 23t47 60.5t23 84.5t6 95q0 47 -6.5 94t-23 84.5t-46.5 61t-76 23.5q-49 0 -78.5 -25.5
t-45.5 -66t-21 -89.5t-5 -95zM1562 377q0 -92 -18.5 -165.5t-56.5 -125.5t-95.5 -80t-136.5 -28q-84 0 -142 31.5t-94.5 85t-52.5 125t-16 152.5q0 96 21.5 170t61.5 124.5t96.5 76t125.5 25.5q31 0 66 -7.5t69 -24.5t65 -46.5t55 -72.5t38 -102.5t14 -137.5zM1305 1418
q-104 -185 -207 -366.5t-205.5 -363l-205 -363t-207.5 -365.5h-150l826 1458h149zM1830 362q0 -48 6 -93.5t22.5 -80t45 -55.5t74.5 -21q48 0 78 23t47 60.5t23 84.5t6 95q0 47 -6.5 94t-23 84.5t-46.5 61t-76 23.5q-49 0 -78.5 -25.5t-45.5 -66t-21 -89.5t-5 -95zM2286 377
q0 -92 -18.5 -165.5t-56.5 -125.5t-95.5 -80t-136.5 -28q-84 0 -142 31.5t-94.5 85t-52.5 125t-16 152.5q0 96 21.5 170t61.5 124.5t96.5 76t125.5 25.5q31 0 66 -7.5t69 -24.5t65 -46.5t55 -72.5t38 -102.5t14 -137.5z" />
    <glyph glyph-name="guilsinglleft" unicode="&#x2039;" horiz-adv-x="605" 
d="M347 108l-254 387v19l255 386l142 -37l-208 -360l210 -362z" />
    <glyph glyph-name="guilsinglright" unicode="&#x203a;" horiz-adv-x="605" 
d="M319 502l-207 361l146 37l254 -389v-18l-254 -386l-145 34z" />
    <glyph glyph-name="fraction" unicode="&#x2044;" horiz-adv-x="910" 
d="M933 1400l-812 -1430h-149l813 1430h148z" />
    <glyph glyph-name="foursuperior" unicode="&#x2074;" horiz-adv-x="944" 
d="M557 285v238h-493v162l482 705h161v-728h157v-139h-157v-238h-150zM206 662h351v267l3 288l-123 -205z" />
    <glyph glyph-name="Euro" unicode="&#x20ac;" horiz-adv-x="1265" 
d="M1147 363q-1 -31 -9.5 -72.5t-27.5 -84.5t-50 -84.5t-77 -74.5t-109.5 -53t-146.5 -20q-107 0 -190.5 33.5t-144.5 96t-100.5 151.5t-58.5 199h-154l41 133h97q-2 17 -3 34.5t-1 35.5q0 14 1 35.5t3 36.5h-139l43 133h110q19 113 62 207.5t107 162.5t148 105.5t186 37.5
q80 0 152 -25.5t127.5 -76.5t90.5 -127.5t40 -178.5h-184q-4 58 -19 98.5t-37 68t-48 43t-50 23.5t-43.5 10t-28.5 2q-56 0 -105.5 -25.5t-90 -72t-70 -111t-45.5 -141.5h452l-43 -133h-422q-2 -17 -3.5 -34t-1.5 -34q0 -37 6 -74h401l-42 -133h-344q15 -68 40 -126
t61 -100.5t84.5 -67t110.5 -24.5q103 0 170 60t81 174z" />
    <glyph glyph-name="trademark" unicode="&#x2122;" horiz-adv-x="1603" 
d="M851 1226l-25 92v-618h-100v716h171l183 -566l189 566h161v-716h-100v622l-25 -92l-184 -530h-94zM310 1317h-198v99h500v-99h-207v-617h-95v617z" />
    <glyph glyph-name="partialdiff" unicode="&#x2202;" horiz-adv-x="1130" 
d="M822 702q0 11 0.5 22.5t0.5 22.5q0 61 -7 123t-23.5 120t-43 108.5t-65 88t-90 59t-117.5 21.5q-52 0 -116 -15t-133 -46l-53 122q84 40 163.5 60t150.5 20q125 0 220.5 -53t160.5 -152.5t98 -241t33 -318.5q0 -131 -18.5 -231t-50.5 -174t-76.5 -124t-96 -80t-108.5 -43
t-115 -13q-89 0 -167.5 28.5t-137.5 85.5t-93.5 142.5t-34.5 200.5q0 104 31.5 183.5t86 133.5t129 81.5t160.5 27.5q183 0 312 -159zM542 723q-61 0 -110 -20t-83 -57t-52.5 -90t-18.5 -120q0 -72 18 -130t51.5 -99t81.5 -63t108 -22t110.5 25t87 69t57 104t20.5 129
q0 57 -19 106.5t-54 87t-85 59t-112 21.5z" />
    <glyph glyph-name="Delta" unicode="&#x2206;" horiz-adv-x="1277" 
d="M63 119l479 1277h201l471 -1275v-121h-1151v119zM1027 150l-266 739l-118 338l-114 -339v1l-273 -739h771z" />
    <glyph glyph-name="product" unicode="&#x220f;" horiz-adv-x="1404" 
d="M1131 1193v-1380h-175v1380h-507v-1380h-175v1380h-209v168h1273v-168h-207z" />
    <glyph glyph-name="summation" unicode="&#x2211;" horiz-adv-x="1162" 
d="M79 -187v122l507 650l-484 646v130h945v-157h-704l449 -593l-487 -625h774v-173h-1000z" />
    <glyph glyph-name="minus" unicode="&#x2212;" horiz-adv-x="1268" 
d="M160 505v160h948v-160h-948z" />
    <glyph glyph-name="radical" unicode="&#x221a;" horiz-adv-x="1105" 
d="M924 1618h140l-434 -1901h-152l-301 880l-145 -57l-37 114l289 116l264 -827z" />
    <glyph glyph-name="infinity" unicode="&#x221e;" horiz-adv-x="1568" 
d="M1443 564q0 -74 -25.5 -133t-68.5 -100t-98 -63.5t-113 -22.5q-44 0 -85.5 13t-84 40.5t-86 75t-95.5 106.5q-38 -45 -80 -91t-86.5 -76.5t-94 -49t-106.5 -18.5q-59 0 -113 23.5t-95 65t-65 98.5t-24 125q0 69 23.5 127.5t65.5 101t99 66.5t125 24q52 0 99.5 -17.5
t91.5 -48t85 -79.5t81 -95q36 40 75 88t82.5 80t93.5 52t108 20q64 0 117.5 -22.5t92 -63.5t60 -98t21.5 -126v-2zM438 357q39 0 75.5 16.5t72 43.5t69 62t66.5 72q-32 40 -63.5 78.5t-67 68.5t-76.5 48.5t-90 18.5q-44 0 -78.5 -17t-58 -46t-36 -67t-12.5 -80
q0 -40 14.5 -76t41 -63t62.5 -43t79 -16h2zM1138 765q-36 0 -71.5 -16.5t-71 -44.5t-70.5 -64t-71 -76q46 -53 83 -91.5t71 -64.5t66.5 -38.5t69.5 -12.5q44 0 78 18t57.5 46.5t35.5 64t12 71.5q0 48 -14 86.5t-39 65.5t-59.5 41.5t-74.5 14.5h-2z" />
    <glyph glyph-name="integral" unicode="&#x222b;" horiz-adv-x="710" 
d="M653 1504q-19 11 -38 17t-35 6q-41 0 -71 -21t-49 -66.5t-28 -117.5t-9 -175q0 -114 4.5 -233t9.5 -240.5t9.5 -244t4.5 -242.5q0 -153 -23.5 -251t-63 -153.5t-92.5 -76.5t-111 -21q-37 0 -75 11t-62 24l27 134q24 -11 44.5 -18.5t47.5 -7.5q28 0 54.5 12.5t46.5 51.5
t32.5 110t12.5 188q0 122 -4 246t-8.5 247t-8.5 244t-4 237q0 132 19.5 226.5t57.5 155.5t94.5 89.5t130.5 28.5q29 0 61.5 -9t55.5 -19z" />
    <glyph glyph-name="approxequal" unicode="&#x2248;" horiz-adv-x="1229" 
d="M1079 452q-22 -39 -49.5 -74.5t-60 -61.5t-70 -41.5t-79.5 -15.5q-38 0 -74 11t-69.5 27t-66.5 35t-64.5 35t-63.5 27t-64 11t-59 -12t-50 -32t-43.5 -46.5t-39.5 -55.5l-74 65q48 91 119 144t159 53q37 0 71.5 -11t67 -27t63.5 -35t62.5 -35t63 -27t64.5 -11
q56 0 97.5 36t85.5 108zM1079 789q-22 -40 -49.5 -75t-60 -61.5t-70 -41.5t-79.5 -15q-59 0 -110 22.5t-99 50t-95.5 50t-99.5 22.5q-32 0 -58.5 -12t-49.5 -32t-43 -46.5t-39 -54.5l-73 64q48 90 119.5 143t157.5 53q55 0 104.5 -22.5t97 -50t95 -50t98.5 -22.5q54 0 95 37
t85 109z" />
    <glyph glyph-name="notequal" unicode="&#x2260;" horiz-adv-x="1167" 
d="M742 804h290v-117h-339l-121 -266h460v-116h-508l-103 -229l-92 42l86 187h-283v116h332l118 266h-450v117h498l101 224l93 -42z" />
    <glyph glyph-name="lessequal" unicode="&#x2264;" horiz-adv-x="1118" 
d="M76 622v122l881 439v-139l-757 -360l759 -360v-140zM65 2v121h899v-121h-899z" />
    <glyph glyph-name="greaterequal" unicode="&#x2265;" horiz-adv-x="1110" 
d="M1040 743v-121l-884 -438v140l755 359l-755 361v139zM144 2v121h898v-121h-898z" />
    <glyph glyph-name="lozenge" unicode="&#x25ca;" horiz-adv-x="1045" 
d="M590 -89h-140l-387 769l391 769h141l388 -771zM523 1285l-297 -602l298 -618l296 611z" />
    <glyph glyph-name="uniF8FF" unicode="&#xf8ff;" horiz-adv-x="0" 
 />
    <glyph glyph-name="fi" unicode="&#xfb01;" horiz-adv-x="1205" 
d="M1046 0h-186v866h-440v-866h-189v866h-188v131l189 17v48q0 51 3.5 90t10.5 69.5t18.5 54t28.5 43.5q37 45 97 69t145 24q42 0 87.5 -7.5t86.5 -18.5q-6 -41 -12 -76.5t-12 -75.5q-31 6 -63 10.5t-61 4.5q-46 0 -73.5 -10.5t-42.5 -30.5t-20 -51t-5 -71v-71h626v-1015z
M1064 1377v-172h-222v172h222z" />
    <glyph glyph-name="fl" unicode="&#xfb02;" horiz-adv-x="1194" 
d="M836 1261h-275q-46 0 -73.5 -12t-42.5 -35t-20 -55.5t-5 -72.5v-71h229v-149h-229v-866h-189v866h-188v131l189 17v48q0 51 3.5 90t10.5 69.5t18.5 54t28.5 43.5q37 45 97 69t145 24h490v-1412h-189v1261z" />
    <glyph glyph-name="NULL" horiz-adv-x="0" 
 />
    </font>
</defs>
</svg>
