<?xml version="1.0" standalone="no"?>
<!DOCTYPE svg PUBLIC "-//W3C//DTD SVG 1.1//EN" "http://www.w3.org/Graphics/SVG/1.1/DTD/svg11.dtd" >
<svg xmlns="http://www.w3.org/2000/svg" xmlns:xlink="http://www.w3.org/1999/xlink" version="1.1">
<metadata>
Created by FontForge 20161013 at Tue May  3 01:20:40 2011
 By ,,,
Copyright (c) 2011 by vernon adams. All rights reserved.
</metadata>
<defs>
<font id="SigmarOne" horiz-adv-x="1813" >
  <font-face 
    font-family="Sigmar One"
    font-weight="400"
    font-stretch="normal"
    units-per-em="2048"
    panose-1="2 0 0 0 0 0 0 0 0 0"
    ascent="1638"
    descent="-410"
    x-height="1159"
    cap-height="1371"
    bbox="-440.125 -954 3554 2401"
    underline-thickness="102"
    underline-position="-307"
    unicode-range="U+0020-FB02"
  />
<missing-glyph horiz-adv-x="526" 
 />
    <glyph glyph-name=".notdef" horiz-adv-x="526" 
 />
    <glyph glyph-name=".null" horiz-adv-x="0" 
 />
    <glyph glyph-name="nonmarkingreturn" horiz-adv-x="526" 
 />
    <glyph glyph-name="space" unicode=" " horiz-adv-x="526" 
 />
    <glyph glyph-name="space" unicode="&#xa0;" horiz-adv-x="526" 
 />
    <glyph glyph-name="exclam" unicode="!" horiz-adv-x="842" 
d="M651 295q0 -33 0.5 -58t1.5 -47t2 -44.5t2 -52.5q1 -51 -0.5 -78.5t-9.5 -41t-24.5 -16t-45.5 -2.5q-31 0 -55.5 0.5t-56.5 5.5q-1 1 -22 1.5t-52.5 1t-68 1t-67.5 2.5t-52 5.5t-21 9.5l-6 178q-1 33 -1 51.5t0.5 29t1 15t1.5 9.5t1.5 12.5t0.5 23.5q-1 4 2 10.5t8 11.5
t12 9t15 4q16 0 40 0.5t49.5 0.5t50 0.5t42.5 0.5h80q28 0 58 -2t55.5 -7t42 -13.5t16.5 -20.5zM143 842q-2 12 -4 41t-4.5 60.5t-4 56.5t-1.5 28q0 17 -4 47.5t-9.5 63.5t-9.5 64t-4 50q0 22 -3 42t-11 44q-2 9 12.5 14.5t38 9t53 5t56.5 3t48 3.5t29 6h344q12 -7 26.5 -12
t28 -12.5t22.5 -19t9 -29.5q0 -38 -5 -76.5t-17 -75.5l-51 -299q-2 -3 -3.5 -15t-3.5 -26t-3.5 -26t-2.5 -15q0 -53 -16.5 -124.5t-32.5 -147.5q-3 -11 -29 -16.5t-66 -7.5t-90.5 -2.5t-102.5 -0.5q-7 0 -28 1.5t-44.5 4t-43 5.5t-24.5 6q-4 6 -7 24t-6 38.5t-4.5 39
t-2.5 24.5q-2 12 -5.5 44t-8 68t-9 68t-6.5 44z" />
    <glyph glyph-name="quotedbl" unicode="&#x22;" horiz-adv-x="1501" 
d="M625 705q-8 -33 -13.5 -67.5t-10.5 -68.5t-12 -68t-17 -67q-6 0 -13.5 0.5t-14.5 0.5q-24 0 -52.5 -1t-66.5 0h-121h-10q-11 0 -22.5 -1.5t-23.5 -1.5q-17 0 -27 16t-16 37.5t-9 44t-6 34.5q-19 90 -27 181t-20 182q-11 109 -21 218t-17 220l12 14h17q35 6 54 9l28.5 4.5
t12 1.5h3.5h124q9 0 21.5 -1t41.5 -6q13 7 37 6.5t51 -3.5t53 -6t45 -1q27 -6 42.5 -10.5t24 -10.5t11 -16t2.5 -26q0 -8 -1 -30t-3 -51t-4 -63t-4.5 -67t-4.5 -61.5t-4 -47.5q-7 -37 -11 -73.5t-7.5 -73.5t-8 -73.5t-12.5 -73.5zM1336 705q-8 -33 -13.5 -67.5t-10.5 -68.5
t-12 -68t-18 -67q-6 0 -13 0.5t-15 0.5q-23 0 -49 -1t-45 -2h-2l-15 8l-8 -6h-120h-10q-12 0 -23 -1.5t-23 -1.5q-17 0 -27 16t-16.5 37.5t-9.5 43.5t-6 35q-10 45 -16 90t-10.5 90.5t-9 91.5t-11.5 91l-20 218t-17 220l12 14q64 0 107.5 2t75 4.5t55 4t49.5 0.5
q17 -2 31.5 -3t23.5 1q12 -6 31 -8t40 -1.5t41 2t34 2.5q26 -6 41.5 -10.5t24 -10.5t11 -16t2.5 -26q0 -8 -1 -30t-3 -51t-4 -63t-4.5 -66.5t-4.5 -61.5t-4 -48q-7 -37 -11 -73.5t-7 -73.5t-7.5 -73.5t-12.5 -73.5z" />
    <glyph glyph-name="numbersign" unicode="#" horiz-adv-x="1812" 
d="M1602 1384q21 -21 26 -42.5t5 -32.5v-8q0 -1 -8.5 -44t-22.5 -111h4q20 0 41.5 -1t39.5 -5.5t28.5 -13t7.5 -23.5q-6 -35 -11.5 -58.5t-10.5 -43.5t-9.5 -39t-8.5 -44q-4 -21 -9 -37t-17.5 -27.5t-35 -17t-59.5 -5.5l-25 -5l-45 -217h16q20 0 41.5 -1.5t39.5 -7
t28.5 -16.5t7.5 -30q-6 -45 -11.5 -76t-10.5 -56.5t-9.5 -50.5t-8.5 -57q-4 -27 -9 -48t-17.5 -35t-35 -21.5t-59.5 -7.5q-8 -2 -15 -4q-12 -3 -19 -3h-17q-14 -74 -27.5 -128t-30.5 -77q-33 -3 -53.5 -5t-36.5 -3.5t-30 -2.5t-35 -2q-59 -2 -108.5 -2t-86.5 0.5t-59.5 1
t-28.5 0.5q-11 0 -14.5 10.5t-3.5 27.5q0 18 3 40.5t7 44t7 39.5t3 27q1 7 1.5 14t2.5 15h-222q-14 -74 -27.5 -128t-30.5 -77q-18 0 -35.5 -1.5t-31.5 -3t-23 -2.5t-10 -1h-6q-13 0 -18.5 4t-13.5 4q-5 -1 -9 -3q-8 -4 -8 -5h-152q-2 -1 -20.5 -2t-41 -1.5t-43 -1
t-26.5 -0.5q-11 0 -14.5 10.5t-3.5 27.5q0 18 3 40.5t7 44t7 39.5t3 27q1 7 1.5 14t2.5 14q-26 0 -48.5 1.5t-39.5 7.5t-26 18.5t-6 33.5q6 46 10.5 82t9 69.5t9 69t11.5 80.5q1 9 7.5 18.5t15.5 17t19 12.5t19 5q24 0 47.5 1t46.5 3l13 81l25 132h-54t-45.5 4.5t-30 14
t-7.5 27.5q6 36 10.5 63.5t9 53.5t9 53.5t11.5 62.5q1 7 7.5 14t15.5 13t19 10t19 4q26 0 50 1l48 2l41 213q0 2 3 5t7 6.5t6.5 6t2.5 4.5q7 0 9 -1t8 -1q13 0 24.5 6.5t25.5 6.5t26 -5.5t26 -5.5q9 7 22 9t28 2q14 0 29 -1t29 -1q0 -2 6.5 -5.5t8.5 -3.5t8 1.5t12.5 3t12 3
l5.5 1.5h17t31 -1t37.5 -1.5t36.5 -1.5t28.5 -2.5t13.5 -2.5q21 -21 26 -42.5t5 -32.5v-8q0 -1 -8.5 -42.5t-21.5 -107.5l207 -2l41 213q16 14 39.5 23.5t46.5 9.5h102q6 0 27 1t49.5 1.5t61 0.5t61 -1t49.5 -4t27 -9zM781 615q50 0 105 -0.5t112 -1.5l13 81l25 132h-212z
" />
    <glyph glyph-name="dollar" unicode="$" horiz-adv-x="1312" 
d="M1241 416q0 -82 -16 -147t-44.5 -115t-68.5 -87t-88 -63l-6 -192l-205 -17l-12 162q-50 -3 -105 -4.5t-105 -1.5l-4 -139l-56 -13q-5 0 -7 6.5t-7 6.5q-1 -3 -1 -6q-1 -3 -1 -7h-57q-2 -1 -13 -1.5t-24 -1t-24.5 -1t-14.5 -0.5q-9 0 -13.5 13t-6.5 36.5t-2.5 55
t-0.5 69.5q-48 16 -94.5 42.5t-78.5 64.5q-29 79 -47 160.5t-21 169.5q0 15 7.5 29t19.5 14q55 -2 107.5 -15.5t101.5 -29.5t93 -28.5t81 -12.5q18 0 37 1.5t35 5.5t28.5 12t18.5 22q-59 30 -124 59t-128 62t-120 72.5t-100 90t-68.5 114t-25.5 144.5q0 94 16.5 165
t44.5 123.5t65.5 87.5t80.5 56v205q0 16 11 31.5t34 15.5q16 0 31.5 -1.5t28.5 -3.5t22 -3.5t12 -1.5q8 0 9 1t1 3q15 -9 26.5 -11.5t16.5 -2.5q2 0 5 3l3 3q4 0 8 -15.5t7.5 -42.5t6.5 -63t5 -76l170 4l2 160v12q0 3 4 9t10.5 12t14.5 10t16 4q21 0 38.5 -3t34 -6t34 -6
t39.5 -3q4 0 8 2l2 2q3 0 7 -16.5t7.5 -44.5t6.5 -65t5 -79q52 -9 94 -24t77 -21q6 -1 10 -5.5t8 -10t8 -10t9 -5.5q2 0 2 1t2 1q4 -55 10.5 -109t6.5 -110v-38.5t-3.5 -41t-12 -32.5t-25.5 -13q-29 0 -67 7t-81 15.5t-88 15.5t-87 7q-34 0 -63.5 -3.5t-51.5 -11.5t-35 -20
t-13 -30q0 -5 27 -18t71 -33t100.5 -47.5t115 -62t115 -76.5t100.5 -91.5t71 -107t27 -121.5z" />
    <glyph glyph-name="percent" unicode="%" horiz-adv-x="2549" 
d="M1410 408q-28 -72 -48 -122t-37.5 -90t-34.5 -76.5t-39 -79.5q-11 -22 -30 -34t-37 -17t-31.5 -6t-14.5 -1h-6q-14 0 -18 4t-12 4q-6 -1 -10 -3q-9 -4 -9 -5h-112q-2 2 -17 2.5t-34.5 0.5t-37 -0.5t-23.5 -0.5q-17 0 -24.5 11t-8 28.5t3.5 39t9.5 41.5t11 37t8.5 25
q52 128 108.5 264t111.5 264l260 668q0 2 3.5 5.5t8 6.5t8.5 5.5t4 4.5q7 0 8.5 -1t7.5 -1q22 0 45.5 6.5t47.5 6.5h43t50.5 -0.5t54.5 -3t56 -7.5q-2 -1 0 -2t5 -2q4 -1 9 -2l19 6q18 0 32 -10t17 -40t-9.5 -85.5t-47.5 -146.5l-62 -144q-12 -27 -23 -53t-19.5 -46.5
t-14 -33.5t-5.5 -14t-12 -30.5t-30.5 -74t-40 -95.5t-40 -95.5t-31 -75t-13.5 -32.5zM437 486q-55 0 -105.5 13t-101.5 44q-44 25 -75 67.5t-50.5 91.5t-28 100t-8.5 93q0 79 25.5 159t72.5 144.5t115 105t152 40.5h25t24 -2q3 1 5.5 1h4.5q55 0 97 -1.5t76 -6t63 -14
t58 -25.5q55 -36 94.5 -75.5t65 -86.5t38 -102.5t12.5 -123.5q0 -66 -15.5 -128.5t-47.5 -118.5q-2 -5 -6 -11.5t-7.5 -12.5t-6.5 -10l-3 -4l-9 -5q-34 -51 -81.5 -79t-101.5 -41t-111 -15.5t-110 -2.5q-17 0 -30.5 3t-29.5 3zM473 876q0 -2 1.5 -14t5 -30.5t9 -41.5
t13.5 -46q1 -8 7.5 -9t11.5 -1q14 0 25 16t18.5 40t12 54t7 57t3.5 49t1 31q0 -3 -0.5 17.5t-4 46t-11.5 47t-24 21.5q-19 0 -38 -30.5t-28 -104.5l-9 -74v-28zM1917 -18q-55 0 -105.5 13t-101.5 44q-44 25 -75 67.5t-50.5 91.5t-28 100t-8.5 93q0 79 25.5 159t72.5 144.5
t115 105t152 40.5h25t24 -2q3 1 5.5 1h4.5q55 0 97 -1.5t76 -6t63 -14t58 -25.5q55 -36 94.5 -75.5t65 -86.5t38 -102.5t12.5 -123.5q0 -66 -15.5 -128.5t-47.5 -118.5q-2 -5 -6 -11.5t-7.5 -12.5t-6.5 -10l-3 -4l-9 -5q-34 -51 -81.5 -79t-101.5 -41t-111 -15.5t-110 -2.5
q-17 0 -30.5 3t-29.5 3zM1953 332q0 -2 1.5 -11.5t5 -24t9 -32t13.5 -34.5q1 -8 7.5 -9t11.5 -1q14 0 25 16.5t18.5 42t12 56t7 59t3.5 51.5t1 32q0 -2 -0.5 15t-4 38.5t-11.5 40t-24 18.5q-19 0 -38 -26t-28 -89l-9 -114v-28z" />
    <glyph glyph-name="ampersand" unicode="&#x26;" horiz-adv-x="2137" 
d="M1744 518q0 -39 1.5 -81t6 -76t14 -56t24.5 -22q62 0 126 0.5t126 14.5q12 -3 24.5 -17t12.5 -26v-241q0 -5 -15 -7.5t-40 -4t-57.5 -2t-66.5 -0.5q-44 0 -87 0.5t-80.5 0.5t-68 0.5t-49.5 0.5q-40 0 -81 -3t-78 -3q-34 0 -70 9.5t-70.5 27t-65.5 43t-55 57.5
q-59 -37 -111 -66q-22 -12 -45 -24t-44 -21t-38.5 -14.5t-28.5 -5.5q-161 0 -323.5 -1t-324.5 -1q-8 0 -31.5 2.5t-48 6.5t-43.5 9t-18 11q0 22 -1.5 59.5t-4 82t-5.5 93t-5.5 94t-4 83.5t-1.5 63q0 26 0.5 48.5t1 46t1 51.5t0.5 64v91v95q0 123 3 247.5t14 253.5
q0 9 21.5 15.5t55 11t74.5 7t80 3.5t72 1.5t50 0.5q84 0 147 2t115.5 4t100 4t102 2t122 -2.5t158.5 -9.5q19 0 30 -22t18 -55.5t13.5 -73.5t16.5 -76q1 -26 -1.5 -37.5t-8 -16t-15 -3.5t-22.5 1q-51 0 -104 -4t-107 -9.5t-108 -10.5t-107 -8q-6 0 -11.5 -16t-10 -41
t-7.5 -56t-5.5 -61t-3.5 -55.5t-1 -39.5q0 -28 7.5 -35.5t24.5 -7.5h320q1 94 7.5 156.5t23.5 82.5q79 0 136.5 0.5t105.5 0.5t93.5 0.5t100.5 0.5q36 -3 57.5 -5t33 -17t15 -50t3.5 -104q0 -14 2 -31t5 -36q57 -2 96.5 -3t53.5 -3q16 -2 27 -3t19 -4.5t13.5 -12.5t10.5 -27
l8 -183v-6q0 -18 -4.5 -28t-19.5 -15t-42.5 -6.5t-72.5 -1.5h-81zM1157 298q0 57 -0.5 112t-1.5 108h-288q-24 0 -38 -1.5t-21.5 -9t-10 -24t-3.5 -47.5q-2 -39 -5 -76t-1 -79q28 0 66 1.5t79.5 3.5t81.5 3.5t73 2.5h63z" />
    <glyph glyph-name="quotesingle" unicode="'" horiz-adv-x="813" 
d="M645 705q-8 -33 -13.5 -67.5t-10.5 -68.5t-12 -68t-17 -67q-10 1 -23.5 1t-28 -0.5t-28 -1t-23.5 -1.5h-2h-2l-12 8l-8 -6h-101q-31 2 -63.5 -1t-63.5 -1q-14 12 -22 27.5t-12.5 33t-7.5 35.5t-7 35q-18 90 -26 181t-21 182q-17 109 -31.5 218t-25.5 220l12 14h16l91 15
q38 2 76.5 0t76.5 0q22 9 44.5 6.5t43.5 -0.5l15 -6q8 3 20.5 2.5t20.5 1.5q6 -3 13 -3.5t13 -2.5l90 -7l15 -4q5 0 7 1t7 1q31 -7 48 -12t24.5 -13t8 -22t-0.5 -39q-2 -24 -7 -64.5t-11 -84t-12.5 -84t-10.5 -64.5q-14 -74 -18 -147t-21 -147z" />
    <glyph glyph-name="parenleft" unicode="(" horiz-adv-x="1123" 
d="M585 1475q20 10 50 17.5t59 12.5q33 5 69 9l115 -384q-35 -41 -67.5 -84t-57.5 -97.5t-40 -123.5t-15 -161q0 -61 7.5 -109.5t21 -88t32 -73t40.5 -64.5q4 -6 17.5 -22t29 -34t29 -33.5t17.5 -19.5q10 -11 26.5 -26t30.5 -23l-234 -421q-92 43 -172 96.5t-150 109.5
q-26 21 -58.5 46t-66 57t-66.5 73.5t-60 95.5t-46.5 122t-26.5 154q-6 58 -6 125q0 48 3 92.5t10 89.5q12 78 35 151t55 138q39 84 96.5 146t117.5 107t115 74.5t90 47.5z" />
    <glyph glyph-name="parenright" unicode=")" horiz-adv-x="1123" 
d="M427 1475q35 -18 90 -47.5t115 -74.5t117.5 -107t96.5 -146q32 -65 55 -138t35 -151q7 -45 10 -89.5t3 -92.5q0 -67 -6 -125q-11 -129 -48 -219t-85 -152.5t-100 -104t-91 -72.5q-70 -56 -150 -109.5t-172 -96.5l-234 421q14 8 30.5 23t26.5 26q4 4 17.5 19.5t29 33.5
t29 34t17.5 22q22 31 40.5 64.5t32 73t21 88t7.5 109.5q0 92 -15 161t-40 123.5t-57.5 97.5t-67.5 84l115 384q36 -4 69 -9q29 -5 59 -12.5t50 -17.5z" />
    <glyph glyph-name="asterisk" unicode="*" horiz-adv-x="1176" 
d="M192 794l139 93l-139 93q-22 15 -44.5 29t-38 29t-20.5 31.5t8 35.5q16 25 29.5 45t25.5 39.5t25 39.5t30 45q9 13 30 16.5t33 -4.5q47 -31 89 -59.5t88 -58.5v102q0 27 -0.5 53.5t3.5 47.5t14.5 34.5t33.5 13.5q30 0 54 0.5t47 0.5t47 0.5t54 0.5q8 0 16 -4.5t14.5 -11
t10.5 -14.5t4 -15v-222q23 14 41.5 26t29.5 19q3 2 12 9.5t19 16.5t19 16.5t12 9.5q26 17 44 21.5t32.5 -0.5t26 -19t24.5 -33q10 -16 19.5 -28t19 -25t20.5 -28.5t26 -37.5q9 -14 6 -27t-13.5 -26t-25.5 -24.5t-29 -20.5q-43 -29 -84.5 -57.5t-84.5 -58.5
q43 -30 84.5 -58.5t84.5 -57.5q14 -9 29 -20.5t25.5 -24.5t13.5 -26.5t-6 -26.5q-15 -22 -26 -37.5t-20.5 -28.5t-19 -25t-19.5 -28q-13 -19 -24.5 -33t-26 -19t-32.5 -0.5t-44 21.5q-3 1 -12 9t-19 17t-19 16.5t-12 9.5l-77 48q-1 -42 -1.5 -82t-0.5 -82q0 -17 -1.5 -35.5
t-6 -34.5t-14 -26t-25.5 -10q-27 0 -46 1t-35 1.5t-31.5 1.5t-34.5 1q-23 0 -41 2t-30 11t-18.5 26.5t-6.5 48.5q0 3 1.5 15t3 25.5t3 25.5t1.5 15q0 12 -0.5 34t-1.5 49l-184 -122q-12 -8 -33 -4.5t-30 16.5q-17 25 -30 45t-25 39.5t-25.5 39.5t-29.5 45q-13 19 -8 35.5
t20.5 31.5t38 29t44.5 29z" />
    <glyph glyph-name="plus" unicode="+" horiz-adv-x="1131" 
d="M232 301q-32 0 -63 -0.5t-56.5 4t-41 17t-15.5 38.5q0 46 -0.5 83t-0.5 72.5t-0.5 72.5t-0.5 82q0 9 5 18.5t13 17t17.5 12.5t17.5 5h254v117q0 31 -0.5 62.5t4 57t17.5 41t39 15.5q46 0 83 0.5t72 0.5t72 0.5t82 0.5q9 0 18.5 -5t17 -13t12.5 -17.5t5 -17.5v-247
q43 -2 84 -3.5t84 -1.5q20 0 42 -1.5t40.5 -7t30.5 -17t12 -30.5q0 -44 -1 -75.5t-2 -58t-2 -52t-1 -57.5q0 -27 -2.5 -48t-13 -35.5t-31 -22t-57.5 -7.5h-187q-2 -47 -4 -90.5t-2 -89.5q0 -20 -1.5 -42t-7 -40.5t-16.5 -30.5t-30 -12q-45 0 -76.5 1t-58 2t-52 2t-57.5 1
q-27 0 -48 2.5t-35.5 13t-22 31t-7.5 57.5q0 3 1.5 17t4 30t4 30t1.5 18q0 6 -1.5 20t-3.5 30t-4 30.5t-2 19.5h-129z" />
    <glyph glyph-name="comma" unicode="," horiz-adv-x="837" 
d="M477 -481q-48 -23 -101 -39.5t-112 -16.5h-20.5t-18.5 2q-1 10 -3.5 23.5t-5.5 27t-6.5 27t-6.5 23.5v2l6 14l-8 8l-23 70q-2 2 -5.5 9t-7 15t-6.5 15t-6 10q61 12 104.5 44t69.5 66.5t35 61.5t2 29q-12 2 -35 3.5t-51 2t-58 2.5t-54.5 5.5t-40.5 10t-17 17.5
q-4 32 -5.5 87.5t-3 115.5t-4 115.5t-7.5 88.5l12 15l107 14h32h88q20 0 37.5 3t34.5 3h39h10l15 -6q8 3 20.5 2.5t20.5 1.5q6 -3 13 -3.5t13 -2.5l90 -6l15 -4q5 0 7 1t7 1q19 -6 30.5 -11t18 -11t8.5 -14.5t2 -23.5q0 -8 0.5 -36t2.5 -62.5t6 -67t12 -47.5q-6 -28 -7 -75
t-4.5 -102.5t-14 -115.5t-36.5 -115.5t-71.5 -102t-118.5 -74.5z" />
    <glyph glyph-name="hyphen" unicode="-" horiz-adv-x="963" 
d="M294 399q-32 0 -63 -0.5t-56.5 4t-41 17.5t-15.5 39q0 46 -0.5 82t-1 69.5t-1 69t-0.5 80.5q0 9 5 18.5t13 17t17.5 12.5t18.5 5q48 0 91 4t93 4h190q51 0 93 -4t90 -4q20 0 42 -1.5t40.5 -7t30.5 -16.5t12 -30q0 -45 -1 -76t-2 -56.5t-2 -50.5t-1 -57q0 -27 -2.5 -48
t-12.5 -35t-31.5 -21.5t-58.5 -7.5l-14 -4q-12 -3 -19 -3h-102h-311z" />
    <glyph glyph-name="period" unicode="." horiz-adv-x="785" 
d="M669 -20q3 -16 -8.5 -22.5t-31 -7.5t-44.5 1t-47 2q-5 0 -18.5 -0.5t-28.5 -1t-28 -1t-17 0.5q-66 2 -113.5 3t-89.5 -1q-14 -1 -32.5 -3t-36.5 -0.5t-31 8t-14 22.5q-4 32 -6 87.5t-3.5 115.5t-3.5 115.5t-8 88.5l13 14l65 15h121q20 0 37.5 3t34.5 3h49l14 -6
q6 3 19 2.5t22 1.5q6 -3 13 -3.5t14 -2.5l49 -6l14 -5q3 0 7 1.5t7 1.5q19 -6 30.5 -11t18 -11t9 -14.5t2.5 -23.5q7 -8 11.5 -35.5t6 -61.5t2 -66.5t0.5 -49.5q6 -44 6 -62.5t-1.5 -29t-3 -21.5t0.5 -40z" />
    <glyph glyph-name="slash" unicode="/" horiz-adv-x="1120" 
d="M787 408q-21 -72 -40 -139t-36 -122.5t-33 -96.5t-32 -60q-18 0 -40 -1.5t-42 -3t-34 -2.5t-15 -1h-6q-13 0 -18 4t-13 4q-5 -1 -9 -3q-9 -4 -9 -5h-232q-2 -1 -17.5 -2t-34.5 -1.5t-36.5 -1t-23.5 -0.5q-17 0 -25.5 11.5t-11 29.5t-0.5 40t6 43t8 38.5t6 26.5
q35 128 73.5 264t76.5 264l217 668q0 2 3.5 5.5t7.5 6.5t7.5 5.5t3.5 4.5q7 0 9 -1t8 -1q31 0 63.5 6.5t67.5 6.5q14 0 25.5 -5.5t25.5 -5.5q9 6 26 8.5t36 2.5t38 -1t33 -1q0 -2 5.5 -5.5t8.5 -3.5q2 0 8 1.5t12.5 3t12 3t6.5 1.5q11 0 29 -2.5t23 -6.5h36q-1 -1 1.5 -2
t5.5 -2l8 -2l18 6q28 0 40.5 -24t14 -63.5t-6 -90t-19.5 -104.5l-54 -144q-10 -27 -19.5 -53t-17 -46.5t-12 -33.5t-4.5 -14t-10 -30.5t-24 -74t-30.5 -95.5t-30.5 -95.5t-24 -75t-10 -32.5z" />
    <glyph glyph-name="zero" unicode="0" horiz-adv-x="1496" 
d="M385 14q-23 11 -45 20.5t-45 20.5q-13 14 -28.5 23t-29.5 20q-31 26 -53.5 63.5t-38.5 81t-25.5 90.5t-14.5 92.5t-7 87t-2 73.5q0 51 3.5 95.5t10.5 87.5t17.5 87t25.5 94q12 9 24.5 32t23.5 47t21.5 42.5t18.5 18.5q9 1 21.5 10t26 21t28 25t27.5 21q32 21 68 32
t74 16.5t76.5 8t76.5 7.5q54 -2 109.5 -6t108.5 -10t101.5 -14.5t87.5 -18.5q-2 1 20.5 -5.5t51 -16.5t52.5 -23t24 -25v-18q23 0 47.5 -21t45 -51t33.5 -62.5t13 -54.5q17 0 20 -2t3 -16q11 -42 21.5 -82t21.5 -82q0 -2 1 -16t2 -34.5t2 -45t1 -47.5q0 -58 -3.5 -120
t-17 -121t-40 -112.5t-72.5 -93.5q-32 -28 -69 -50.5t-71 -47.5q-45 -16 -89 -32t-89 -32q-78 0 -158.5 -10t-160.5 -10q-7 0 -28 3t-47.5 7.5t-56.5 11t-55.5 13.5t-43 14t-19.5 14zM676 311q1 -8 11 -19t23 -21t25 -16.5t18 -6.5q38 0 59 16t31.5 38.5t13 47.5t3.5 43
q1 29 3 60t3.5 61t2.5 57t1 50q0 61 -15 117t-34 118q-3 31 -15.5 54.5t-47.5 23.5q-34 0 -53.5 -19t-29.5 -47t-13.5 -58.5t-6.5 -53.5q-6 -50 -17.5 -100t-11.5 -101q0 -37 3 -68t9.5 -60t16 -57t21.5 -59z" />
    <glyph glyph-name="one" unicode="1" horiz-adv-x="1092" 
d="M974 682v-231q0 -47 -1.5 -89t-4 -81.5t-4 -77.5t-1.5 -78q0 -20 -1.5 -42t-7 -40.5t-16.5 -30.5t-30 -12q-63 0 -112 0.5t-90 1t-76.5 1.5t-71 1.5t-74.5 1t-86 0.5q-27 0 -48 2.5t-35 13t-21.5 31.5t-7.5 58q0 3 1.5 16.5t3.5 29.5t3.5 30t1.5 18q0 6 -1.5 22
t-3.5 33.5t-3.5 31t-1.5 15.5q-1 31 -1 75.5t-0.5 92.5t-1 95t-1 84.5t-2 61t-3.5 23.5q-11 0 -26 -17t-34 -38t-42 -38t-49 -17q-20 0 -35.5 13.5t-15.5 27.5v393q0 5 6.5 10t19.5 12.5t32.5 19t45.5 28.5q57 37 87.5 47t45.5 10q86 0 160 -0.5t145 -1.5t144.5 -1.5
t158.5 -0.5q9 0 19 -5t17.5 -12.5t12.5 -17t5 -18.5v-451z" />
    <glyph glyph-name="two" unicode="2" horiz-adv-x="1269" 
d="M610 1q-45 0 -88.5 -0.5t-85.5 -0.5q-68 0 -128.5 2t-105.5 8t-71.5 18t-26.5 33q0 32 15 58t38 49q0 -3 15 12.5t39 43t54 64t59 74.5t55 75t43 66q12 16 26.5 41t27 53.5t21.5 58t9 55.5q0 27 -7.5 47t-24.5 32.5t-46 19t-72 6.5q-31 0 -57 -3.5t-52.5 -11t-55 -19
t-64.5 -28.5q-2 0 -4.5 23t-5.5 58t-6 77t-5.5 80.5t-4 67.5t-1.5 38q0 8 1 11l90 41q52 19 110 33t117.5 23t119 13.5t113.5 4.5q96 0 188 -20t165 -66t117.5 -120.5t44.5 -182.5t-71 -210t-222 -212q46 0 85 1t84 1q20 0 42 -1.5t40.5 -7t30.5 -16.5t12 -30q0 -45 -1 -76
t-2 -56.5t-2 -50.5t-1 -57q0 -27 -2.5 -48t-12.5 -35t-31.5 -21.5t-58.5 -7.5q-2 -4 -27.5 -6t-64.5 -2.5t-88 -0.5t-98 0.5t-93.5 1t-74.5 0.5z" />
    <glyph glyph-name="three" unicode="3" horiz-adv-x="1246" 
d="M1155 383q0 -90 -15 -156.5t-36.5 -111.5t-45 -69.5t-40.5 -31.5q-55 -28 -114.5 -43t-121 -21.5t-124.5 -7.5t-124 -1q-7 0 -27.5 2t-46.5 6t-55 8.5t-53.5 10t-42 11t-19.5 10.5q-23 8 -45.5 13t-42.5 17q-14 8 -28 16.5t-28 16.5l20 281q62 -14 124.5 -24t115.5 -10
q33 0 60.5 5.5t48 18t31.5 33.5t11 51q0 42 -35.5 61.5t-91.5 24.5q-43 0 -83 -1.5t-85 -5.5l-2 222q18 0 37 -0.5t39 -0.5q33 0 63 3t53.5 13.5t37.5 30.5t14 55q0 25 -11 41.5t-31.5 27t-48 15t-60.5 4.5q-53 0 -115.5 -18.5t-124.5 -45.5l-20 291q48 22 107.5 40.5
t125.5 31.5t136.5 20.5t141.5 7.5q35 -2 71.5 -4.5t71.5 -7t66.5 -10.5t57.5 -13q-2 1 13 -3.5t34 -11.5t34.5 -16t15.5 -18v-13q21 0 38 -18.5t30.5 -43t23.5 -48.5t15 -35q13 -28 16.5 -57.5t11.5 -58.5q0 -29 -7.5 -60.5t-22 -61t-35.5 -55.5t-47 -43
q77 -45 120.5 -110.5t43.5 -152.5z" />
    <glyph glyph-name="four" unicode="4" horiz-adv-x="1490" 
d="M440 1266q22 0 56.5 -0.5t71 -1.5t69.5 -2t51 -2q12 7 34.5 8.5t35.5 1.5q42 0 81.5 -3t84.5 -3q2 2 4 2t4 2h78q2 -2 6 -3t6 -1t6 0.5t9 1.5t13 2q5 0 14 -2t11 -2q10 1 25 0.5t30.5 -1t30.5 -1t25 -0.5q20 0 23 -29.5t0 -75.5t-5.5 -102t6.5 -109q1 -2 -0.5 -27.5
t-3.5 -77.5t-4 -131t-2 -188v-37h145q27 0 41.5 -24t21.5 -57t8 -68t1 -57q0 -7 -1 -29t-2 -45.5t-2 -42t-1 -19.5q-5 -7 -16 -10.5t-24.5 -5t-27.5 -2t-24 -0.5h-61.5t-61.5 -2l-4 -33q-3 -40 -2.5 -72.5t-2 -56t-12 -36.5t-32.5 -13q-2 0 -3.5 2t-3.5 2q-3 0 -7 -1l-8 -2
q-4 -2 -9 -3q-15 0 -25 1t-16.5 2t-12 2t-12.5 1q-2 0 -6 -2t-6 -4h-133q-2 0 -15 -3t-29.5 -6.5t-31.5 -6.5t-20 -3q-19 0 -28 19t-13 44t-4.5 49.5t-1.5 35.5l-4 76h-9h-144.5t-142 -0.5t-145.5 -2t-153 -3.5q-30 1 -48.5 6t-28 11t-13 12.5t-3.5 11.5v108.5t2 74t6 58.5
t12.5 60.5t22 80t33.5 117.5q-1 -1 11.5 30t33.5 81.5t48 114.5t56 130t58.5 127.5t54.5 106.5q7 6 16.5 13t18.5 14zM536 489q47 0 96.5 -1t100.5 -1v31v508q-15 -41 -32.5 -89.5t-36 -99t-37 -101.5t-35.5 -97t-31.5 -84.5t-24.5 -65.5z" />
    <glyph glyph-name="five" unicode="5" horiz-adv-x="1205" 
d="M1109 403q0 -95 -15 -165.5t-36.5 -117.5t-45 -73t-40.5 -33q-55 -28 -114.5 -43t-121 -21.5t-124.5 -7.5t-124 -1q-7 0 -27.5 2t-46.5 6t-55 8.5t-53.5 10t-42 11t-19.5 10.5q-23 8 -45.5 13t-42.5 17l-56 33l13 69l-3 73l4 57l6 82q62 -14 124.5 -24t115.5 -10
q33 0 60.5 5.5t48 18t31.5 33.5t11 51q0 42 -35.5 61.5t-91.5 24.5q-54 0 -106 -1.5t-112 -5.5l-7 82l2 34q1 25 1 44v30t1 14l-1 51q0 8 -5 39t-5 97v294q0 3 5 10.5t10 10.5q5 0 8 -1t8 -1q25 0 47.5 5t48.5 5q39 0 78 -4t82 -4l8 6h90q2 -2 7.5 -4t7.5 -2q1 0 6.5 1
t11.5 2t11 2t6 1q5 0 15 -2t13 -4h323q2 -2 7.5 -4t7.5 -2t10 1t17 2t17 2t10 1q13 0 21.5 -22t14 -58t8 -82t2.5 -94q0 -12 -10.5 -17t-25 -7t-30.5 -1.5t-26 0.5h-22q-20 0 -31.5 -1.5t-22 -3t-24 -2.5t-35.5 -1h-39.5t-25.5 2l-14 -8q0 -8 -8 -39.5t-12 -97.5
q43 -5 82.5 -11.5t70.5 -15.5q-2 1 13 -3.5t34 -11.5t34.5 -16t15.5 -18v-13q21 0 38 -18.5t30.5 -43t23.5 -48.5t15 -35q6 -12 11 -27.5t8 -32.5t4.5 -33.5t1.5 -29.5z" />
    <glyph glyph-name="six" unicode="6" horiz-adv-x="1476" 
d="M717 745q65 22 126.5 32t119.5 10q73 0 137.5 -15.5t116.5 -47.5q80 -46 126.5 -124t46.5 -186t-50.5 -190t-135 -136.5t-194 -82t-227.5 -27.5q-85 0 -169.5 17t-162 52t-144.5 87t-116.5 122t-77.5 158t-28 194q0 79 7 150.5t32 134.5q28 72 75.5 134.5t101.5 111.5
q103 67 238.5 102t300.5 35q68 0 136.5 -10.5t142.5 -31.5q32 -12 66 -24.5t63 -35.5q8 -6 20 -11t19.5 -19.5t5 -45t-23.5 -88.5q-18 -42 -29 -69t-23.5 -42t-30 -18t-47.5 4q-38 12 -83 20.5t-91 8.5q-61 0 -103 -9.5t-69 -24.5t-42 -33.5t-22 -37.5t-9 -36t-3 -28z
M874 308q46 0 76.5 23t30.5 76q0 44 -27.5 60.5t-66.5 16.5q-29 0 -57 -5.5t-50 -11.5q-26 -7 -49 -16q20 -78 57.5 -110.5t85.5 -32.5z" />
    <glyph glyph-name="seven" unicode="7" horiz-adv-x="1226" 
d="M479 707q-55 1 -100 2.5t-84 2t-74 1t-70 0.5q-29 0 -44.5 33.5t-23 80.5t-8.5 96t-1 81q0 7 1 30.5t2 48.5t2 45t1 21q5 7 17.5 11.5t27 6t29.5 2t26 0.5q62 0 119 6.5t119 6.5q161 0 318 0.5t325 5.5q31 -2 51 -7.5t30.5 -12t14.5 -13.5t4 -12v-328q0 -28 -11.5 -59.5
t-33 -75.5t-52 -104.5t-69.5 -145.5q-5 -12 -15.5 -39.5t-30.5 -74t-52 -113t-80 -154.5l-51 -94q-11 -20 -25 -42q-12 -19 -30.5 -43.5t-42.5 -49.5q-7 -6 -18 -11.5t-23 -5.5q-30 0 -74 17t-92 43.5t-96 59t-86 64.5t-61.5 60t-23.5 45q0 4 11 29t29 64t41.5 88.5
t48.5 102.5t50 105t46.5 97t37 79t21.5 50z" />
    <glyph glyph-name="eight" unicode="8" horiz-adv-x="1520" 
d="M99 383q0 43 4.5 81t17.5 71t37 60.5t62 50.5q-26 17 -47 43t-35.5 55.5t-22 61t-7.5 60.5q0 57 16.5 108t47.5 94q13 17 27.5 27t31.5 24q18 14 40 30t44 25q55 28 117 41t127.5 16.5t132.5 2t131 -1.5q40 0 83.5 -3t84.5 -10t79 -18.5t68 -29.5q72 -28 119 -63.5
t66 -64.5q22 -39 35 -84.5t13 -88.5q0 -29 -6.5 -61t-19.5 -62.5t-33 -57t-46 -43.5q77 -45 120.5 -110.5t43.5 -152.5q0 -62 -14 -115q-18 -67 -57 -114.5t-93 -80.5q-29 -18 -62 -31.5t-70 -24.5q-14 -4 -28.5 -7.5t-29.5 -6.5q-20 -5 -41 -5t-43 -3q-20 -2 -40.5 -6.5
t-40.5 -6.5q-32 -2 -65 -3t-67 -1q-55 0 -109 3t-108 10q-88 11 -162.5 34t-139.5 61q-11 6 -27 12.5t-25 13.5q-36 23 -58 51.5t-33 62t-14.5 73t-3.5 84.5zM741 546q-24 0 -40.5 -35t-16.5 -114q0 -68 7 -108t19 -60t28.5 -25.5t35.5 -5.5q16 0 30.5 6t25 26t16.5 59.5
t6 107.5q0 79 -21.5 114t-55.5 35h-34zM743 1007q-11 -1 -26 -3.5t-28.5 -17.5t-22.5 -47t-9 -90q0 -48 7 -76t19 -43t28 -19t34 -4q19 0 35 5.5t26.5 21.5t16.5 43.5t6 71.5q0 54 -8 84.5t-20.5 46.5t-27.5 20.5t-30 6.5z" />
    <glyph glyph-name="nine" unicode="9" horiz-adv-x="1476" 
d="M759 509q-65 -22 -126.5 -32t-119.5 -10q-73 0 -137.5 15.5t-116.5 47.5q-80 46 -126.5 124t-46.5 186t50.5 190t135 136.5t194 82t227.5 27.5q85 0 169.5 -17t162 -52t144.5 -87t116.5 -122t77.5 -158t28 -194q0 -79 -7 -150.5t-32 -134.5q-28 -72 -75.5 -134.5
t-101.5 -111.5q-103 -67 -238.5 -102t-300.5 -35q-68 0 -136.5 10.5t-142.5 31.5q-32 12 -66 24.5t-63 35.5q-8 6 -20 11t-19.5 19.5t-5 45t23.5 88.5q18 42 29 69t23.5 42t30 18t47.5 -4q38 -12 83 -20.5t91 -8.5q61 0 103 9.5t69 24.5t42 33.5t22 37.5t9 36t3 28zM602 946
q-46 0 -76.5 -23t-30.5 -76q0 -22 7.5 -36.5t20 -23.5t29.5 -13t37 -4q29 0 57 5t50 11q26 7 49 17q-20 78 -57.5 110.5t-85.5 32.5z" />
    <glyph glyph-name="colon" unicode=":" horiz-adv-x="784" 
d="M669 664q3 -16 -9 -22.5t-31.5 -7.5t-44 1t-46.5 2q-6 0 -19 -0.5t-28 -1t-28 -1t-18 0.5q-66 1 -113.5 2t-88.5 0q-14 -1 -33 -3t-37 -0.5t-31 8t-14 22.5q-4 32 -5.5 87.5t-3 115.5t-4 115.5t-7.5 88.5l12 14l65 15h121q20 0 37.5 3t34.5 3h49l14 -6q7 3 19.5 2.5
t21.5 1.5q7 -3 14 -3.5t13 -2.5l49 -6l14 -5q4 0 8 1.5t7 1.5q18 -6 29.5 -11t18 -11t9 -14.5t2.5 -23.5q8 -8 12 -35.5t6 -61.5t2.5 -66.5t0.5 -49.5q5 -44 5 -62.5t-1.5 -29t-2.5 -21.5t1 -40zM669 25q3 -16 -9 -22.5t-31.5 -7.5t-44 1t-46.5 2q-6 0 -19 -0.5t-28 -1
t-28 -1t-18 0.5q-66 1 -113.5 2t-88.5 0q-14 -1 -33 -3t-37 -0.5t-31 8t-14 22.5q-4 32 -5.5 87.5t-3 115.5t-4 115.5t-7.5 88.5l12 14l65 15h121q20 0 37.5 3t34.5 3h49l14 -6q7 3 19.5 2.5t21.5 1.5q7 -3 14 -3.5t13 -2.5l49 -6l14 -4q4 0 8 1t7 1q18 -6 29.5 -11t18 -11
t9 -14.5t2.5 -23.5q8 -8 12 -35.5t6 -61.5t2.5 -66.5t0.5 -49.5q5 -44 5 -62.5t-1.5 -29t-2.5 -21.5t1 -40z" />
    <glyph glyph-name="semicolon" unicode=";" horiz-adv-x="818" 
d="M729 104q6 -45 6 -100t-8 -116.5t-28.5 -122t-54.5 -115t-86.5 -96.5t-125 -66.5t-168.5 -24.5h-20.5t-18.5 2q-1 10 -3.5 23.5t-6 27l-7 27t-5.5 23.5l-25 94q-2 2 -5.5 9t-7 15t-6.5 15t-6 10q55 10 95 37t66 58t39 59.5t13 40.5q0 5 -19 7.5t-47 4t-61.5 3t-62 5
t-48 10t-20.5 17.5q-4 32 -5.5 87.5t-3 115.5t-4 115.5t-7.5 88.5l12 15l107 14q65 0 125.5 3t115.5 3l15 -6q8 3 20.5 2.5t20.5 1.5q6 -3 13 -3.5t13 -2.5l90 -6l15 -4q5 0 7 1t7 1q19 -6 30.5 -11t18 -11t8.5 -14.5t2 -23.5q0 -8 2.5 -35.5t6 -61.5t7 -66.5t5.5 -49.5z
M678 664q3 -16 -9 -22.5t-31.5 -7.5t-44 1t-46.5 2q-6 0 -19 -0.5t-28 -1t-28 -1t-18 0.5q-66 1 -113.5 2t-88.5 0q-14 -1 -33 -3t-37 -0.5t-31 8t-14 22.5q-4 32 -5.5 87.5t-3 115.5t-4 115.5t-7.5 88.5l12 14l65 15h121q20 0 37.5 3t34.5 3h49l14 -6q7 3 19.5 2.5
t21.5 1.5q7 -3 14 -3.5t13 -2.5l49 -6l14 -5q4 0 8 1.5t7 1.5q18 -6 29.5 -11t18 -11t9 -14.5t2.5 -23.5q8 -8 12 -35.5t6 -61.5t2.5 -66.5t0.5 -49.5q5 -44 5 -62.5t-1.5 -29t-2.5 -21.5t1 -40z" />
    <glyph glyph-name="less" unicode="&#x3c;" horiz-adv-x="1158" 
d="M1065 252q0 -18 -19.5 -48t-50.5 -65.5t-70 -72t-78 -66t-74.5 -48t-59.5 -18.5q-13 0 -24 4t-17 9q-25 19 -43.5 37t-30.5 32q-15 17 -25 31l-71 70q-78 61 -132 109.5t-89 84t-54.5 57.5t-27.5 31q-44 59 -75.5 103.5t-51.5 78.5t-29.5 59t-9.5 46q0 20 12 44
t35.5 57.5t58.5 78t80 105.5q9 8 30.5 27t56.5 52.5t84 83t112 119.5l51 70q12 14 30 30q15 14 37.5 32t51.5 38q6 5 17 9t24 4q25 0 62.5 -18.5t79 -48t82.5 -66t74 -72t53.5 -66t20.5 -47.5q0 -3 -15 -20t-39.5 -43.5t-56.5 -60t-66.5 -69t-68.5 -71t-62.5 -65.5
t-49.5 -52t-29 -32v-5q0 -9 16 -32.5t41.5 -56t58.5 -71t67.5 -77.5t67.5 -76t58.5 -66t41.5 -47.5t16 -21.5z" />
    <glyph glyph-name="equal" unicode="=" horiz-adv-x="1092" 
d="M169 712q-9 0 -17.5 -0.5t-16 3.5t-12 15.5t-4.5 34.5q0 31 -0.5 54.5t-1 45.5t-1 45t-0.5 53q0 16 5.5 31.5t10.5 15.5q66 0 128.5 3.5t134.5 3.5h223q43 0 80 -1t72 -2.5t71.5 -2.5t77.5 -1q10 0 20.5 -1t19.5 -6t14.5 -15t5.5 -27q0 -27 -1 -46t-2.5 -34.5t-2.5 -30.5
t-1 -33q0 -48 -5 -73.5t-32 -25.5q-28 -2 -53 -3q-21 -2 -42 -2.5t-30 -0.5h-119h-522zM169 275q-9 0 -17.5 -0.5t-16 3.5t-12 15.5t-4.5 34.5q0 31 -0.5 54.5t-1 45.5t-1 45t-0.5 53q0 17 5.5 32.5t10.5 15.5q66 0 128.5 3t134.5 3h223q43 0 80 -1t72 -2t71.5 -2t77.5 -1
q10 0 20.5 -1t19.5 -6t14.5 -15t5.5 -27q0 -27 -1 -45.5t-2.5 -34t-2.5 -30.5t-1 -35q0 -48 -5 -73.5t-32 -25.5q-28 -2 -53 -3q-21 -2 -42 -2.5t-30 -0.5h-119h-522z" />
    <glyph glyph-name="greater" unicode="&#x3e;" horiz-adv-x="1158" 
d="M93 252q0 3 16 21.5t41.5 47.5t58.5 66t67.5 76t67.5 77.5t58.5 71t41.5 56t16 32.5v5q-8 10 -29 32t-49.5 52t-62.5 65.5t-68.5 71t-66.5 69t-56.5 60t-39.5 43.5t-15 20q0 17 20.5 47.5t53.5 66t74 72t82.5 66t78.5 48t63 18.5q13 0 24 -4t17 -9q29 -20 51.5 -38
t37.5 -32q18 -16 30 -30l51 -70q63 -70 112 -119.5t84 -83t56.5 -52.5t30.5 -27q45 -61 80 -105.5t58.5 -78t35.5 -57.5t12 -44q0 -21 -9.5 -46t-29.5 -59t-51.5 -78.5t-75.5 -103.5q-8 -9 -27.5 -31t-54.5 -57.5t-89 -84t-132 -109.5l-71 -70q-11 -14 -25 -31
q-13 -14 -31 -32t-43 -37q-6 -5 -17 -9t-24 -4q-24 0 -59.5 18.5t-74.5 48t-78 66t-70 72t-50.5 65.5t-19.5 48z" />
    <glyph glyph-name="question" unicode="?" horiz-adv-x="1135" 
d="M602 492q-27 0 -57 2t-54 2q-16 0 -25 -4h-204q-26 0 -41 13.5t-23 38t-10.5 60t-2.5 79.5q0 29 0.5 59.5t0.5 53.5q0 41 13.5 67.5t37 45.5t54 32.5t65 29t70.5 35.5t69 51q8 5 18 13.5t19 18t15 20t6 19.5q0 19 -7.5 31t-29 19t-60.5 10t-101 3q-57 0 -118 -6t-115 -20
q-2 -1 -5 -1q-10 0 -13.5 10t-3.5 25q0 18 3 40.5t4 41.5q3 81 7 127.5t11 69.5t18 29t28 7q114 6 228 6q92 0 179.5 -6.5t164 -23t140 -45t109.5 -72.5t71.5 -106t25.5 -145q0 -52 -23.5 -94t-61 -77t-85.5 -65t-96.5 -58.5t-93.5 -56t-77 -57.5v-30q1 -31 2 -60
q1 -25 1.5 -51.5t0.5 -43.5t-4.5 -27t-18.5 -10h-31zM731 -118q-1 8 -1 15v12q0 10 1 16.5t1.5 12t1.5 11.5t1 16q0 11 -1.5 27.5t-4.5 42.5q0 17 -0.5 49.5t-2 66.5t-6 61.5t-11.5 35.5q0 14 -2.5 23t-9 15t-18 11t-30.5 11q-3 0 -7 -1.5t-7 -1.5l-14 5l-49 6q-7 1 -14 1.5
t-13 4.5q-9 -2 -22 -1.5t-19 -2.5l-14 6h-49q-17 0 -34.5 -3t-37.5 -3h-121l-65 -15l-13 -14q6 -33 8.5 -88.5t4 -115.5t3 -115.5t5.5 -87.5q2 -19 18.5 -25t38.5 -6q34 0 57.5 2.5t50.5 2.5q34 0 73.5 -2t91.5 -2q9 0 20.5 0.5t23.5 1t21.5 1t13.5 0.5q19 0 40 -1.5
t39 -1.5q23 0 38 4t15 20q0 1 -0.5 2.5t-0.5 3.5z" />
    <glyph glyph-name="at" unicode="@" horiz-adv-x="1214" 
d="M1096 680q0 -76 -1.5 -119.5t-3 -72t-3 -51t-1.5 -57.5q0 -16 -1 -32.5t-5 -30t-12 -22.5t-22 -9q-52 0 -88 1t-66.5 1.5t-60 1.5t-68.5 1q-21 0 -36.5 2t-26.5 9.5t-16.5 23t-5.5 42.5q0 3 0.5 13t1 21.5t0 19.5t-1.5 6q-31 -53 -62.5 -84t-61 -46.5t-57 -19.5t-51.5 -4
q-79 0 -143.5 22.5t-110.5 73.5t-71 133.5t-25 202.5q0 72 19 126t51 93t74 64t88 39.5t92 20.5t87 6q72 0 133.5 -2.5t112.5 -2.5q54 0 127.5 1.5t174.5 1.5q14 0 27 -13t13 -27v-333zM693 649q-1 73 -9 130q-3 24 -8 47.5t-12.5 42t-17.5 30t-23 11.5q-30 0 -50.5 -12
t-33.5 -30.5t-20 -40t-10.5 -40.5t-4 -32.5t-0.5 -15.5q0 -14 0.5 -40.5t2 -57.5t6 -64t12 -59.5t19 -43.5t28.5 -17q22 0 39.5 8t30.5 21.5t21.5 31t14.5 35.5q13 42 15 96z" />
    <glyph glyph-name="A" unicode="A" horiz-adv-x="1880" 
d="M715 1364q1 0 16.5 0.5t38 1.5t48.5 2t48 2.5t36 2t13 1.5q6 0 35 0.5t69 0.5h85.5t85 -1t67 -3.5t31.5 -6.5q29 0 55.5 5t55.5 5q12 0 24 -6t25 -6q6 0 9.5 1t8.5 1q6 -3 13.5 -10.5t7.5 -12.5l143 -647q32 -124 62.5 -254t56.5 -254q2 -9 6 -26.5t7.5 -38.5t5.5 -42.5
t-0.5 -39.5t-11 -29.5t-24.5 -11.5h-27t-46 0.5t-53.5 1t-51.5 1t-40 0.5t-17 1h-129q0 2 -2.5 5t-18.5 3q-2 0 -3.5 -4t-4.5 -4h-6q-1 0 -17.5 1t-40 2.5t-50 3t-46.5 1.5q-15 25 -29.5 89t-31.5 151q-24 -4 -53 -5.5t-60 -1.5t-63 0.5t-60 0.5q-17 -84 -31 -146.5
t-28 -87.5q-8 0 -18.5 -4t-12.5 -4h-6q-11 0 -17 4t-11 4q-53 -1 -93 -3q-17 -1 -33.5 -1.5t-29.5 -1.5t-21 -1.5l-8 -0.5h-190q-2 0 -17.5 -0.5t-39.5 -1t-52 -1t-53.5 -1t-45.5 -0.5h-28q-16 0 -24 11.5t-10.5 29.5t-0.5 39.5t6 42.5t7.5 38.5t5.5 26.5q26 124 56.5 254
t62.5 254l143 647q0 5 7 12.5t14 10.5q5 0 8.5 -1t9.5 -1q26 0 54 6t57 6q43 0 83.5 -5t88.5 -5zM995 1016q0 -1 -4.5 -27.5t-12 -69t-17 -96.5t-19 -110t-19 -110.5t-16.5 -96.5h105q2 2 7 4t7 2h4q20 0 35.5 -4.5t29.5 -7.5q-7 42 -16 96.5t-19 111.5t-19.5 112t-17 98
t-12 70t-4.5 28l-2 8t-1.5 9.5t-2.5 13.5q-2 -8 -3 -13.5t-2 -9.5t-1 -8z" />
    <glyph glyph-name="B" unicode="B" horiz-adv-x="1680" 
d="M118 1075q0 35 -1 68.5t-1 64.5q0 29 2 55t7 50q3 14 5.5 30.5t9.5 30t22 22.5t44 9q37 0 86.5 3t102 6t103 6t91.5 3q96 0 197 -10t197 -22q54 -7 117.5 -15.5t127.5 -23.5t123 -38.5t104.5 -60.5t73 -90t27.5 -127q0 -88 -34.5 -151.5t-106.5 -108.5q-17 -9 -35 -16
t-34.5 -14t-29.5 -15t-20 -18q2 -2 3 -4t3 -4q79 -33 135 -69t91.5 -73.5t52 -76t16.5 -76.5q0 -60 -36.5 -118t-100.5 -109t-149.5 -93t-184.5 -70q-76 -22 -149.5 -35.5t-141 -21t-126.5 -10t-107 -2.5q-135 0 -226 6.5t-146 27.5t-78 59.5t-23 102.5q0 20 1 51t2 63.5
t2 61.5t1 44q0 176 -8.5 353.5t-8.5 354.5zM817 522q-13 0 -18 -8.5t-5 -19.5v-164q0 -11 6 -13t11 -2h4t2 2q164 79 325 152q4 5 10 8t9 6q-46 14 -86.5 22t-81 11.5t-83 4.5t-93.5 1zM829 928q0 -11 1 -17t15 -6q5 0 24 7.5t45 19t54.5 25t53 25t41 19t18.5 7.5
q7 2 16 4.5t9 12.5q0 19 -23.5 30t-55 17t-63 7.5t-47.5 1.5q-34 0 -52 -12.5t-26 -34t-9 -49t-1 -57.5z" />
    <glyph glyph-name="C" unicode="C" horiz-adv-x="1384" 
d="M778 670q0 -25 1 -48t3 -44q6 -67 21.5 -113.5t38 -75t51 -41t61.5 -12.5q31 0 65 9.5t70 26.5t73 39t73 48l18 -336q-40 -39 -92.5 -71t-110.5 -54.5t-116 -34.5t-109 -12q-56 0 -112.5 2.5t-112 10t-109 22t-102.5 37.5q-20 9 -39.5 20t-38.5 25q-31 26 -58 58t-50 71
q-39 44 -66 102q-25 68 -39 152t-14 190q0 121 24.5 222.5t69.5 185.5q84 171 225.5 265.5t319.5 106.5q12 2 24.5 2h26.5q85 0 174 -18q85 -17 171 -50.5t173 -84.5l-37 -266q-59 14 -121 29.5t-122 15.5q-51 0 -96 -18t-77 -66q-29 -44 -45 -115t-16 -180z" />
    <glyph glyph-name="D" unicode="D" horiz-adv-x="1756" 
d="M767 -2q-67 0 -133.5 0.5t-137 1.5t-147 1.5t-164.5 0.5q-19 0 -30 12t-16.5 30.5t-7 40.5t-1.5 42q0 48 -1.5 131.5t-4 185.5t-4 213t-1.5 213v451q0 19 17.5 36t36.5 17q137 0 236 -2t171 -2q112 0 238.5 3t277.5 3q56 0 119.5 -10.5t126.5 -36.5t121 -70.5t102 -112.5
t70.5 -163t26.5 -221q0 -210 -46 -355.5t-151.5 -236t-276.5 -131.5t-421 -41zM783 270q20 -1 38 0q15 1 30.5 4t23.5 11q13 13 25 44.5t22.5 74t19 94t14.5 105t9.5 106t3.5 98.5q0 7 -0.5 37.5t-3 72t-8 88t-16 86t-27 65.5t-39.5 26q-17 0 -29.5 -3.5t-21.5 -7.5
q-11 -4 -18 -10q0 -47 -1 -110t-2.5 -134.5t-4 -147t-4.5 -147.5z" />
    <glyph glyph-name="E" unicode="E" horiz-adv-x="1419" 
d="M116 805q0 130 2 258.5t15 267.5q0 14 14 22t36 12.5t49 5.5t52 1q128 0 242 3.5t226.5 5.5t231.5 0.5t257 -11.5q19 0 30 -22t18 -55.5t13.5 -73.5t16.5 -76q1 -26 -1.5 -37.5t-8 -16t-15 -3.5t-22.5 1q-51 0 -104 -4t-107 -9t-108 -10.5t-107 -8.5q-9 0 -16.5 -25
t-12.5 -58.5t-7.5 -66.5t-2.5 -49q0 -28 7.5 -35.5t24.5 -7.5q93 0 183 0.5t180 -8.5q16 -2 27 -3t19 -4.5t13.5 -12.5t10.5 -27l8 -183v-6q0 -18 -20 -28t-53.5 -15t-76.5 -6.5t-88 -1.5q-88 0 -137 2t-72 -3.5t-28 -23.5t-5 -57q0 -38 -4 -75.5t-2 -79.5q99 0 198 6t196 6
q7 0 15 -15t16.5 -39t16.5 -52.5t14.5 -55t10.5 -48t4 -30.5q0 -18 -9.5 -30.5t-31.5 -12.5q-74 0 -143.5 -4t-146.5 -4q-161 0 -323.5 -1t-324.5 -1q-8 0 -31.5 2.5t-48 6.5t-43.5 9t-18 11q0 22 -1.5 59.5t-4 82t-5.5 93t-5.5 94t-4 83.5t-1.5 63q0 33 -1 60.5t-2.5 60
t-2.5 75t-1 105.5z" />
    <glyph glyph-name="F" unicode="F" horiz-adv-x="1355" 
d="M116 1341q0 11 5 15.5t11.5 6t12 0.5t6.5 -1q72 0 189 5t258 5q3 0 21.5 -0.5t39.5 -0.5t39 -0.5t20 -0.5q47 0 95.5 -1t101 -2t111 -2t125.5 -1q15 0 25.5 -3t19.5 -4.5t17.5 -1t17.5 8.5q27 0 38 -24t13.5 -63.5t0 -90.5t-2.5 -105q0 -13 -11.5 -19t-28 -8t-34 -1.5
t-29.5 0.5h-92q-22 0 -35 -1.5t-25 -3t-26 -3t-39 -1.5q-15 0 -29.5 0.5t-19.5 2.5q-5 -2 -9 -4.5t-7 -4.5q-1 -5 -3.5 -19.5t-5 -40.5t-4.5 -65t-2 -94q1 1 -1 -6t7 -16h41h205q22 0 34.5 -6.5t18.5 -24t7.5 -48.5t1.5 -79v-96t-2.5 -56t-9 -26.5t-18.5 -6.5
q-11 0 -32 -1.5t-45.5 -3t-48.5 -2.5t-41 -1q-15 0 -23 -1t-15 -2.5t-15.5 -3t-24.5 -3.5t-29 -1t-24 -0.5t-21 -7t-20 -19.5q0 -74 -0.5 -138.5t-2.5 -116t-7.5 -88.5t-14.5 -55q-22 0 -51 -1.5t-55 -3t-44.5 -2.5t-19.5 -1q-9 -1 -14.5 0.5t-9 3l-7 3t-7.5 1.5
q-2 0 -8.5 -3t-8.5 -5h-170q-2 -2 -29 -6.5t-60.5 -8.5t-64 -7t-40.5 -3q-26 0 -38.5 24.5t-17.5 56.5t-5 63t-1 45q-4 64 -6.5 130.5t-5.5 133.5t-7.5 133.5t-13.5 130.5v647z" />
    <glyph glyph-name="G" unicode="G" horiz-adv-x="1694" 
d="M1592 291q0 -48 -0.5 -94t-2 -84t-5 -66t-10.5 -41q-17 0 -38 -1t-41 -2q-23 -2 -46 -3h-6q-16 0 -20 3q-3 1 -3 3l-6 -2q-6 -2 -6 -4h-203q-2 0 -11.5 -0.5t-21.5 -0.5t-23.5 -0.5t-15.5 -0.5q-8 0 -14.5 12.5t-11 35t-7.5 53.5t-6 69q-11 -53 -45 -93t-85 -67t-116 -41
t-137 -14q-69 0 -142 17t-142.5 53.5t-131 93.5t-108 138t-73.5 187t-27 240q0 178 63.5 316t175.5 232.5t264.5 143.5t329.5 49q128 0 265 -33.5t274 -99.5l-78 -348q-38 10 -79 21.5t-82.5 21.5t-83 16.5t-80.5 6.5q-58 0 -108 -14.5t-87 -52.5t-58.5 -103.5t-21.5 -167.5
q0 -89 13 -149t36.5 -96.5t56 -52.5t70.5 -16q28 0 59.5 7.5t63.5 21.5q-2 73 -4.5 143t-2.5 139q0 37 0.5 55.5t6.5 25.5t19 6.5t38 -0.5h217q77 0 124.5 1t74 -3.5t36 -18t9.5 -43.5q0 -9 0.5 -16t0.5 -19t0.5 -33.5t0.5 -60.5v-209q0 -2 -1.5 -11t-3 -20t-2.5 -20t-1 -10
z" />
    <glyph glyph-name="H" unicode="H" horiz-adv-x="1905" 
d="M1060 954q1 78 3 140q1 27 1.5 53t1 47.5t1 36t0.5 17.5q0 36 1 58.5t9.5 34.5t28 16.5t57.5 4.5q13 0 54.5 0.5t97.5 2t119 2.5t119 2.5t97.5 2t53.5 0.5q23 0 40 -2t28 -10.5t16 -24t5 -42.5q0 -62 -2 -114t-4.5 -101.5t-4.5 -101t-2 -112.5q0 -11 2.5 -21t2.5 -20
l-48 -776q0 -6 -4.5 -14t-11 -15.5t-15 -12.5t-16.5 -5h-563q-8 0 -13.5 9t-9.5 24.5t-6.5 35t-3.5 40.5l-22 376q-1 0 -16.5 0.5t-39 1.5t-51 2.5t-51.5 2.5t-41.5 1.5t-19.5 0.5q-11 0 -13 -13t-2 -22q0 -115 -0.5 -193.5t-2.5 -130t-6.5 -79.5t-13 -40.5t-21 -15
t-31.5 -2.5q-114 -8 -222 -10q-46 -1 -95.5 -0.5t-97 3.5t-91.5 8.5t-80 14.5q-5 1 -9.5 9t-7.5 17.5t-4.5 18t-1.5 11.5l-39 745v19v20q0 17 1 58t2.5 93t3 108t3 102.5t3.5 77t4 32.5q4 4 12.5 12t21 16.5t28 14t32.5 4.5h117q2 0 33 -0.5t75.5 -1t96 -1.5t96 -1.5
t74.5 -1t32 -0.5q24 0 42 -3t29.5 -12t17.5 -26t6 -45q0 -6 -1.5 -21t-3 -32.5t-3 -33.5t-1.5 -24t3 -18t3 -21q0 -40 -2 -78t-2 -83q23 0 51.5 -2.5t58 -5t58.5 -5t54 -2.5z" />
    <glyph glyph-name="I" unicode="I" horiz-adv-x="984" 
d="M857 408q-2 -68 -3 -131.5t-2.5 -117t-6 -92.5t-13.5 -57q-23 0 -52 -1.5t-55 -3t-44 -2.5t-19 -1h-6q-12 0 -18.5 4t-14.5 4q-4 -1 -8 -3q-8 -4 -8 -5h-190q-3 -1 -35.5 -1.5t-73.5 -1t-78 -1t-49 -0.5q-17 0 -28 11.5t-17.5 29.5t-9.5 39.5t-4.5 42.5t-1.5 38.5v26.5
q2 124 2.5 254t5.5 254v647q0 17 11 19t24 2q103 0 204 1t205 1q9 0 19 2.5t28 4t47 0.5t74 -7q9 -8 16.5 -5.5l16.5 5.5q28 0 46.5 -3.5t29.5 -19t15.5 -46t4.5 -84.5v-400q0 -1 -1 -30.5t-2 -74t-3 -95.5t-3 -95.5t-2 -75t-1 -32.5z" />
    <glyph glyph-name="J" unicode="J" horiz-adv-x="1344" 
d="M1102 133q-63 -58 -134 -93t-133 -55q-72 -23 -143 -34q-140 -19 -282 -5t-273 68l-90 41q-2 7 -0.5 22t3.5 34.5t4.5 41.5t4.5 44q0 11 2 31.5t4 39.5t4.5 32t4.5 9q51 -18 90.5 -30t76.5 -19t75.5 -10t86.5 -2q24 0 39.5 17.5t25.5 41t15.5 48t9.5 38.5q2 35 4.5 89.5
t2.5 138.5q1 61 1.5 115.5t1.5 95.5q1 48 1 88l-2 421q0 17 11 19t23 2q103 0 204.5 1t205.5 1h201q28 0 46.5 -3.5t29.5 -19t15.5 -46t4.5 -84.5v-400q0 -1 -0.5 -16.5t-1.5 -38t-2 -48.5t-2 -49t-1.5 -39t-0.5 -18q0 -59 -3 -123.5t-16 -126.5t-39.5 -118.5t-74.5 -100.5z
" />
    <glyph glyph-name="K" unicode="K" horiz-adv-x="1750" 
d="M823 1376q18 0 26.5 -9t11 -23t2 -30t-0.5 -30q1 -78 -4.5 -151.5t-5.5 -128.5q18 0 27.5 2.5t16.5 8t14.5 13.5t19.5 19q7 4 37.5 33.5t74 70.5t94 88.5t96.5 87.5t81 67t49 29q4 0 12 -7.5t16 -17t15.5 -18.5t11.5 -12q2 -4 13.5 -14.5t25 -23.5t25.5 -24.5t16 -17.5
q13 -21 30 -43t34.5 -44.5t33.5 -45.5t27 -47v-4q0 -20 -17 -44t-39.5 -47t-45 -44t-33.5 -35q-4 -2 -19 -14t-35.5 -29.5t-43.5 -37.5t-43 -37.5t-35 -29.5t-19 -14q-9 -8 -17.5 -11.5t-14.5 -7t-9.5 -9t-3.5 -17.5q0 -19 9 -34t22.5 -28t29 -25t27.5 -24q15 -15 46 -42.5
t69 -61.5t78 -71t73.5 -71.5t54.5 -63t21 -44.5q0 -11 -2 -19.5t-14 -19.5q-34 -29 -75 -51t-75 -51q-26 -22 -56.5 -49.5t-62.5 -44.5q-16 -8 -25 -13t-16.5 -9.5t-17.5 -11t-28 -17.5q-33 -20 -58.5 -19.5t-43.5 9t-28.5 20t-12.5 14.5l-216 248q-4 7 -17 22.5t-28.5 32
t-29.5 29t-19 12.5q-8 0 -12.5 -5t-4.5 -11q0 -10 -0.5 -30t-1 -44.5t-1.5 -52t-1.5 -52.5t-1 -44.5t-0.5 -28.5q0 -17 1 -29.5t-2.5 -21t-13.5 -12t-32 -1.5q-106 -6 -206.5 -4t-207.5 2q-13 0 -34 0.5t-41.5 0.5t-35.5 0.5t-16 0.5l-92 8l-6 17q-1 0 -1.5 22.5t-2 58.5
t-2.5 81t-2.5 91t-2.5 88.5t-1 72.5q-5 75 -11 153t-6 154q0 4 1 21t2.5 36.5t2.5 36.5t1 22q0 4 -1 16t-2.5 25t-2.5 24.5t-1 14.5q0 5 1 23.5t2.5 39.5t2.5 39t1 23q0 10 -0.5 30t-1 45t-1.5 51.5t-2 49.5t-1.5 39.5t-0.5 20.5q-3 27 11.5 40t37 18t48.5 5h45
q130 0 227 -0.5t165.5 -0.5t111 -0.5t63.5 -0.5z" />
    <glyph glyph-name="L" unicode="L" horiz-adv-x="1281" 
d="M122 508q0 94 -0.5 197t0 199.5t2.5 179t8 137.5v46.5t4.5 50.5t16 41t34.5 17q88 0 150.5 -1t114 -2t101 -2t111.5 -1q34 0 61.5 -0.5t46 -9.5t28.5 -30.5t10 -63.5q0 -3 -1.5 -17t-4 -30t-4 -30t-1.5 -18q0 -6 1.5 -22t4 -33.5t4 -31.5t1.5 -15q1 -78 1.5 -149
t0.5 -137.5v-130.5v-128v-24t4 -14t12.5 -7t26.5 -2q71 0 151 1t168 1q22 0 36.5 -13.5t14.5 -27.5v-393q0 -5 -2 -13t-15.5 -15t-42.5 -12t-83 -5h-299q-86 0 -160 0.5t-145 1.5t-144.5 1.5t-158.5 0.5q-9 0 -18.5 5t-17 12.5t-12.5 17t-5 18.5v451z" />
    <glyph glyph-name="M" unicode="M" horiz-adv-x="2078" 
d="M1063 889q1 4 14 31.5t31 67.5t39.5 87t41 89t34 74t18.5 42q7 15 17.5 32t20.5 31.5t19 23.5t14 9q36 0 159.5 1t346.5 1q19 0 30 -0.5t22 -0.5t26.5 -0.5t44.5 -0.5q5 0 8 -31t5 -82t3.5 -116.5t2 -134.5t0.5 -135v-119q0 -76 -5.5 -154t-11.5 -153q0 -30 1 -72.5
t1.5 -88.5t1.5 -91t1.5 -81t1 -58.5t1.5 -22.5l-6 -17l-92 -22q-1 0 -16 -0.5t-35 -0.5t-41.5 -0.5t-34.5 -0.5q-41 0 -79.5 1.5t-76 3.5t-76 5t-79.5 6q-2 0 -9 -1t-14 -1t-12 21.5t-8.5 57.5t-5 84t-2.5 102t-1.5 109.5t-0.5 107.5q0 6 -4.5 11t-12.5 5q-5 0 -14 -20.5
t-20 -48.5t-21.5 -58t-17.5 -49q-3 -4 -10.5 -22t-20 -42t-28 -51t-34.5 -49.5t-40 -37.5t-44 -15h-30.5t-41.5 0.5t-44.5 1t-40.5 2.5q-58 91 -94.5 163t-58.5 122.5t-32.5 77t-15.5 26.5q-8 0 -12 -5t-4 -11v-97t-0.5 -106.5t-2 -104t-5 -89t-9 -62t-14.5 -23.5
q-6 0 -13.5 1t-9.5 1q-81 -6 -155 -11t-156 -5q-13 0 -34.5 0.5t-41.5 0.5t-35 0.5t-16 0.5l-92 22l-6 17q-1 0 -2 22.5t-2.5 58.5t-2.5 81t-2 91t-2 88.5t-2 72.5q2 106 6.5 208t4.5 215q0 4 -1 16t-2 25t-2 24.5t-1 14.5q0 31 1.5 55.5t3.5 50.5t3.5 56t1.5 72
q0 6 -0.5 21.5t-1.5 33.5t-1.5 33.5t-0.5 21.5q-2 2 -4 7t-2 8q0 22 17 35t40.5 19.5t47 8.5t36.5 2q223 0 347 -1t159 -1q5 0 14 -9t19 -23.5t20 -31.5t18 -32q4 -10 16.5 -42.5t29 -75t35.5 -89.5t35 -87t27.5 -67.5t14.5 -29.5q14 -33 31 -33q11 0 19.5 10t13.5 23z" />
    <glyph glyph-name="N" unicode="N" horiz-adv-x="1787" 
d="M1665 459q0 -115 -0.5 -193.5t-2.5 -130t-6.5 -79.5t-13 -40.5t-21.5 -15t-32 -2.5q1 0 -35 0.5t-91.5 0.5t-121.5 0.5t-125 0.5q-12 0 -30 -1.5t-38.5 1t-42.5 10.5t-41 27l-208 293q-4 7 -17.5 29t-28.5 46t-29 42.5t-20 18.5q-8 0 -12 -5t-4 -11q0 -14 -0.5 -44
t-1 -68t-1.5 -79.5t-1.5 -78t-1 -65t-0.5 -39.5q0 -17 1 -29.5t-2.5 -21t-13.5 -12t-32 -1.5q-82 -6 -156 -11t-156 -5q-13 0 -34 0.5t-41 0.5t-35.5 0.5t-16.5 0.5l-92 22l-6 17q-1 0 -2 22.5t-2.5 58.5t-2.5 81t-2 91t-2 88.5t-1 72.5q-12 105 -13.5 211t0 211.5t4 211.5
t-0.5 213q-5 26 2.5 42t23 24.5t35 11t38.5 2.5q106 0 190.5 5t145.5 8.5t97 1.5t47 -17q6 -8 25 -34.5t46 -66.5t60 -89.5l68 -102l70 -105l65 -97.5q1 36 1.5 82.5t1.5 95.5t2 96t2.5 84.5t3 60.5t3.5 25q4 4 13 12t21.5 16.5t28 14t32.5 4.5h116q3 0 26 -0.5t56 -1
t71.5 -1.5t71.5 -1.5t55.5 -1t24.5 -0.5q24 0 42 -3t29.5 -12t17.5 -26t6 -45q0 -6 -1.5 -21t-3 -32.5t-3 -33.5t-1.5 -24t3.5 -18t3.5 -21q0 -13 -0.5 -64t-0.5 -120.5t-1 -148.5t-1 -149.5t-0.5 -122t-0.5 -66.5z" />
    <glyph glyph-name="O" unicode="O" horiz-adv-x="1759" 
d="M897 -49q-100 0 -198 7t-187 30.5t-165.5 68.5t-132.5 122t-88 190t-32 272q0 209 46.5 357t146 242.5t255.5 138.5t375 44q74 0 158.5 -12t168 -41.5t160 -80t135 -128t93.5 -184.5t35 -250q0 -164 -25 -285t-72.5 -207.5t-115.5 -141.5t-153.5 -86.5t-187 -43.5
t-216.5 -12zM788 670q0 -31 0.5 -82t3 -109t8 -117t15.5 -107t26 -78t39 -30q24 0 40 34t26.5 87t16.5 118.5t8.5 128t3 115.5t0.5 81q0 9 -0.5 51t-3 99.5t-8.5 122t-16.5 119t-26.5 90.5t-40 36q-23 0 -39 -24t-26 -65.5t-15.5 -96.5t-8 -117t-3 -128t-0.5 -128z" />
    <glyph glyph-name="P" unicode="P" horiz-adv-x="1719" 
d="M119 1321q0 19 17 36t36 17q137 0 236 -2t171 -2q112 0 238.5 3t277.5 3q56 0 119.5 -7.5t126.5 -27.5t121 -54t102 -86t70.5 -125t26.5 -171q0 -161 -41 -272t-116 -179t-181 -98t-236 -30h-280q1 -36 1.5 -58t0 -43t-1 -46t-0.5 -66q0 -37 -7.5 -58t-22 -31.5
t-35.5 -13t-48 -2.5q-71 0 -124.5 -1t-108 -2t-119 -2t-158.5 -1q-19 0 -30 12t-16.5 30.5t-7 40.5t-1.5 42q0 48 -1.5 131.5t-3.5 185.5t-3.5 213t-1.5 213v451zM823 578q0 -2 11 -4q8 -2 27 -2.5t54 -0.5q24 0 40 23t26.5 58.5t16 79.5t8 86t3 77.5t0.5 54.5
q0 3 -0.5 21.5t-3 44.5t-8 55t-16 53.5t-27 41t-39.5 16.5q-17 0 -30.5 -26t-23 -68.5t-16.5 -96.5t-11 -111q-11 -133 -11 -302z" />
    <glyph glyph-name="Q" unicode="Q" horiz-adv-x="1718" 
d="M1636 727q0 -167 -26 -289.5t-75 -209t-118.5 -141t-157.5 -85.5q24 -31 48 -64.5t43.5 -64.5t32 -56.5t12.5 -39.5q-1 -21 -21.5 -39.5t-48.5 -35.5t-57 -32.5t-48 -29.5q-18 -5 -37 -11.5t-40 -11.5q-4 -3 -27 -10.5t-50 -15t-50 -13t-27 -4.5q-2 -9 -9 -9t-7 -1
q-1 0 -5.5 1t-13 5.5t-21 14.5t-30.5 28q-5 11 -7.5 11.5t-4.5 0.5q-3 2 -5.5 3.5t-7.5 9.5l-161 266q-3 6 -11.5 21t-19.5 32q-83 6 -161.5 21.5t-147.5 46.5t-127 80.5t-99.5 123.5t-64.5 175.5t-23 236.5q0 209 46.5 357t146 242.5t255.5 138.5t376 44q74 0 158.5 -12
t167.5 -41.5t159.5 -80t135 -128t93.5 -184.5t35 -250zM758 670q0 -31 0.5 -82t3 -109t8 -117t15.5 -107t26 -78t39 -30t39.5 34t27 87t16 118.5t8 128t3 115.5t0.5 81q0 9 -0.5 51t-3 99.5t-8 122t-16 119t-27 90.5t-39.5 36t-39 -24t-26 -65.5t-15.5 -96.5t-8 -117
t-3 -128t-0.5 -128z" />
    <glyph glyph-name="R" unicode="R" horiz-adv-x="1787" 
d="M1150 -27q-3 11 -6 13t-5 2t-4.5 2t-7.5 8l-174 258q-4 7 -14.5 23.5t-23 33.5t-24 30t-16.5 13q-9 0 -12.5 -25.5t-5 -63.5t-2 -83t-3 -83t-8 -63.5t-16.5 -25.5q-8 0 -15 1t-9 1q-110 -6 -214.5 -12t-213.5 -6q-13 0 -35 0.5t-43 0.5t-37 0.5t-17 0.5l-73 25l-8 16
l-2.5 23.5t-5.5 60.5t-6.5 84l-7 94t-6.5 91t-5 75q-5 78 -11 158.5t-6 158.5q0 5 1.5 23t3 38t3 37.5t1.5 22.5q0 67 -5.5 127t-5.5 129q0 48 2.5 92t11 77.5t23.5 54t39 20.5q111 0 230.5 -1.5t240 -4.5t239.5 -6.5t228 -6.5q138 -4 236.5 -39t161.5 -91t92.5 -127.5
t29.5 -149.5q0 -53 -10 -96.5t-26.5 -79.5t-37.5 -64.5t-43 -50.5q-51 -51 -116 -82l32 -28q14 -12 28.5 -25t27.5 -21q10 -13 30.5 -38t45.5 -56t52 -65t49 -65t36 -57t14 -40q0 -21 -19.5 -40.5t-47 -37.5t-56.5 -35t-47 -32q-37 -19 -77 -41.5t-87 -36.5q-3 -1 -16 -6
t-30 -11t-36.5 -12t-35.5 -11t-26 -7t-9 0q-5 -11 -10 -11h-7h-5t-13 4t-22.5 12.5t-32.5 26.5zM831 659q1 -2 6 -3q5 -2 15 -2.5t30 -0.5q36 0 61 18t41 46t25 62.5t13 67.5t4.5 60.5t0.5 42.5q0 3 -0.5 21.5t-4.5 44.5t-13 55t-25 53.5t-41 41t-61 16.5q-10 0 -17.5 -22.5
t-12.5 -59.5t-9 -84t-6 -96q-5 -115 -6 -261z" />
    <glyph glyph-name="S" unicode="S" horiz-adv-x="1476" 
d="M1372 412q-8 -83 -39.5 -149.5t-80 -117.5t-112.5 -88t-137 -60.5t-153.5 -34.5t-161.5 -11q-75 0 -149 8.5t-143 24t-130.5 39t-110.5 53.5q-27 86 -41 176.5t-26 183.5v6q2 10 8.5 20.5t17.5 16.5q74 -46 146.5 -70t161.5 -24q18 0 50 -2t65 1t61.5 14t38.5 36
q-53 28 -111.5 55.5t-114.5 59t-107 68.5t-89.5 84.5t-61 107.5t-22.5 137q0 99 30 173t81.5 127t120.5 87.5t146.5 54t159.5 27.5t160 8q82 0 152 -7t130.5 -16.5t113 -19t100.5 -14.5q5 -1 9.5 -5.5t8.5 -10t8 -10t9 -5.5q2 0 2 1t2 1q3 -55 9.5 -109t6.5 -110
q0 -18 -1 -37t-5.5 -37t-13.5 -33.5t-25 -25.5l-188 23q-8 0 -20 1t-29 1q-33 0 -77 -4.5t-83.5 -11t-66.5 -12.5t-27 -9q0 -30 19.5 -53t46.5 -39.5t54.5 -27t42.5 -15.5q78 -22 146.5 -61.5t118.5 -89t79 -104.5t29 -106q0 -17 -1.5 -31t-6.5 -34z" />
    <glyph glyph-name="T" unicode="T" horiz-adv-x="1479" 
d="M388 899q0 2 -8 6h-226q-29 0 -44.5 33.5t-23 80.5t-8.5 96t-1 81q0 8 0.5 25.5t1 35.5t1 32t0.5 15q0 15 11.5 23.5t28 13t34 6t29.5 1.5q75 0 154 -2t154 -2h737q68 0 105 -3.5t54 -11t20 -18.5t3 -26v-339q0 -12 -6 -18.5t-14.5 -9.5t-18 -3.5t-16.5 -0.5h-62h-69.5
t-70 0.5t-63.5 0.5q-8 0 -12.5 -0.5t-7 -5t-3.5 -14.5t-1 -29q0 -15 -0.5 -70t-3 -134t-7 -173t-11.5 -186v-197q0 -38 -7.5 -57.5t-22 -28.5t-37 -11t-52.5 -5q-62 0 -111.5 -1t-102 -2t-114 -2t-145.5 -1q-28 0 -43 35.5t-22.5 98.5t-8 148.5t1.5 185.5t5 210.5t3 222.5z
" />
    <glyph glyph-name="U" unicode="U" 
d="M1029 72q-52 -26 -111 -48t-121 -38t-126.5 -24.5t-127.5 -8.5q-103 0 -175 23.5t-120 66t-75 101t-40.5 129t-16.5 150t-3 163.5q0 81 4 163.5t9.5 166.5t9.5 170t4 174q0 23 -4 43t-4 43q0 22 21.5 28t47.5 6q60 0 121.5 1t124.5 -0.5t127.5 -7.5t130.5 -19
q28 -8 45.5 -17.5t27 -25t12.5 -41t3 -64.5q0 -82 -2 -167.5t-5 -181.5t-5 -205t-2 -238q0 -75 5.5 -109.5t33.5 -34.5q32 0 63 9.5t57 20.5q30 13 58 30v823q-4 23 -6 47t-3 44.5t-1 35v18.5q0 19 2.5 31t11 19.5t24.5 10.5t44 3q21 0 63.5 1.5t89.5 4t89 4.5t61 4
q4 0 24.5 -1t44.5 -2q27 -2 62 -3q70 -8 109.5 -16.5t59 -16.5t24 -16.5t4.5 -17.5q0 -155 -4 -306.5t-8.5 -302t-8.5 -301.5t-4 -305q0 -42 -18 -62t-58 -20q-15 0 -42.5 -0.5t-62 -2t-73.5 -3t-77 -2.5q-90 -4 -193 -8q-51 0 -80 19t-41 63z" />
    <glyph glyph-name="V" unicode="V" horiz-adv-x="1880" 
d="M1288 10q-190 -8 -379.5 -9t-365.5 -1q-29 0 -57 6t-54 6q-6 0 -9.5 -1t-8.5 -1q-7 3 -14 10.5t-7 12.5l-143 647q-32 124 -62.5 254t-56.5 254q-2 14 -9 45t-9.5 63t4 56t30.5 24h28t45.5 -0.5t53.5 -1t52 -1t39.5 -1t17.5 -0.5h190q0 -1 10 -5q4 -2 11 -3q8 0 12 4
t16 4h7q1 0 21.5 -1.5t50 -3t63 -2.5t59.5 -1q11 -18 21 -57t21 -92t23 -117t27 -131q0 -2 6 -32.5t15 -75t19 -96t19 -96t15 -74t6 -30.5q0 -4 1 -8t2 -10t3 -13q2 7 2.5 13t1.5 10l2 8q0 1 6 30.5t15 74t19 96t19 96t15 75t6 32.5q15 67 27 131t23 117t21 92t21 57
q20 0 46.5 1t50 2.5t40 3t17.5 1.5h6q3 0 4.5 -4t3.5 -4q16 0 18.5 3t2.5 5h129q1 1 17 1t40 0.5t51.5 1t53.5 1t45.5 0.5h27.5q25 0 31.5 -24t4.5 -56t-9 -63t-10 -45q-26 -124 -56.5 -254t-62.5 -254l-143 -647q0 -5 -7.5 -12.5t-13.5 -10.5q-5 0 -8.5 1t-9.5 1
q-13 0 -25 -6t-24 -6q-29 0 -55.5 5t-55.5 5z" />
    <glyph glyph-name="W" unicode="W" horiz-adv-x="2397" 
d="M1474 10q-29 0 -59.5 1t-58.5 1l-19 -2q-15 3 -17.5 10.5t-2.5 12.5l-138 676l-135 -676q-5 -21 -24.5 -27t-42.5 -6q-53 0 -94.5 -1t-94.5 -1q-55 0 -93.5 0.5t-72.5 0.5t-69 0.5t-84 0.5q-17 0 -35 6t-35 6l-18 -2q-16 3 -18.5 10.5t-2.5 12.5l-143 647
q-25 124 -51 254t-47 254q-8 7 -12 21.5t-6 32.5t-2.5 37t-0.5 36q0 26 7.5 43.5t29.5 17.5h28t45.5 -0.5t53.5 -1t51.5 -1t39 -1t17.5 -0.5h89q8 -1 11.5 -2t5.5 -3l3 -3q5 0 11.5 4t17.5 4h6q1 0 17.5 -1.5t40 -3t49.5 -2.5t46 -1q11 -20 21.5 -62.5t21.5 -101t23 -129
t27 -145.5q0 -2 3 -18.5t7 -40.5t9 -52t9 -51.5t7 -39.5t3 -17q1 -5 2 -9l2 -10t3 -12q2 7 2.5 12t1.5 10q1 4 2 9q0 1 3 17t7 39.5t9.5 51.5t9.5 52t7 40.5t3 18.5q29 151 48.5 245.5t34.5 148.5q3 12 7.5 22.5t15.5 18t33 11.5t61 4h35.5h58.5t63.5 -0.5t51.5 -1.5
q2 0 5.5 1t5.5 1q6 0 11 -1t5 -3q56 -1 86 -2t44 -3q17 -2 19 -3q5 0 12.5 4t22.5 4q1 0 12.5 0.5t25 0.5t25 -2t13.5 -8q7 -23 13.5 -62.5t13.5 -91t16.5 -113.5t24.5 -129q0 -2 3 -23.5t7 -52.5t9 -66.5t9 -66t7 -51t3 -21.5l2 -8t2 -10t3 -13q2 7 2.5 13t1.5 10l2 8
q0 1 3 21.5t7 51t9.5 66t9.5 66.5t7 52.5t3 23.5q15 67 27 131t23 117t21 92t21 57q12 0 28 1t30 3l34 4h6q3 0 4.5 -4t3.5 -4q16 0 18.5 3t2.5 5h108q0 1 15.5 1t39 0.5t52 1t54.5 1t46.5 0.5h28.5q20 0 28.5 -18t8.5 -43q-8 -18 -12 -37t-6 -36.5t-2.5 -32t-0.5 -21.5
q-29 -137 -65 -284.5t-74 -285.5l-143 -585q-16 -5 -18.5 -12.5t-2.5 -10.5l-18 2q-14 0 -24.5 -1.5t-24.5 -1.5h-103.5t-118.5 0.5t-117 0.5h-100z" />
    <glyph glyph-name="X" unicode="X" horiz-adv-x="1871" 
d="M809 115l-41 -68l-49 -45q0 1 -3.5 2t-7.5 2l-10 2q-1 0 -9 -3.5t-19 -8t-22 -7.5t-17 -1q-14 3 -44 4.5t-70 2.5t-86.5 1t-93 1t-90 3.5t-77.5 7.5h-8q-9 0 -13 4t-5 9.5t0 12t1 11.5q0 11 9 34.5t23 53t32 62.5t35 63t32.5 55t24.5 39q6 9 17 29.5t25 48.5t30.5 60.5
t32.5 64.5q38 76 81 166l-21 35q-9 15 -19.5 33.5t-20.5 37.5q-3 3 -21 31t-42.5 68.5t-53 86.5t-53.5 86.5t-42 68t-20 30.5q-9 13 -24.5 35.5t-30.5 48.5t-26 52.5t-11 47.5q15 2 27 4q11 2 19.5 3t8.5 2q2 0 25.5 -1t61 -2.5t85.5 -3.5t97.5 -4.5t97.5 -4.5t86 -3.5
t62 -2.5t26 -1q8 0 26 -22t40.5 -56t47 -74t45 -75.5t34.5 -61t16 -30.5q0 -6 3 -13t6.5 -13t7 -10.5t4.5 -4.5q6 5 12 11q5 5 11.5 12.5t12.5 17.5q2 5 16.5 30.5t35 61t45 75.5t47 74t40 56t25.5 22q3 0 44 1.5t100.5 4.5t128 5.5t127.5 5.5t99 4.5t42 1.5q0 -1 8 -2
t19 -3l28 -4q0 -19 -11 -43t-26 -47t-30.5 -43t-24.5 -30q-3 -3 -20 -32.5t-41.5 -72t-53 -91.5t-53.5 -91.5t-42.5 -72t-20.5 -32.5q-13 -19 -27 -37.5t-26 -33.5q-14 -18 -29 -35q34 -64 64 -119q13 -23 25.5 -46.5t24 -44t20 -36t13.5 -22.5q12 -20 32.5 -55t44.5 -77.5
t48.5 -88.5t44.5 -87t32.5 -73t12.5 -47q0 -5 1 -11.5t0 -12t-4.5 -9.5t-12.5 -4h-8q-32 0 -73.5 1t-86 2l-89 2t-83 1t-67.5 -1.5t-42 -4.5q-6 -2 -17 1t-22 7.5t-19 8t-9 3.5q-2 0 -11.5 -2t-11.5 -4l-47 45v16q0 3 -1.5 3t-4.5 -0.5t-7 0t-9 6.5l-103 184q-5 11 -14.5 30
t-20.5 37.5t-21 32t-15 13.5l-56 -113z" />
    <glyph glyph-name="Y" unicode="Y" horiz-adv-x="1678" 
d="M939 -182q-6 0 -10 -2t-6 -2q-5 0 -8 3t-9 15q-51 6 -92 18t-72 21q-2 1 -9.5 2t-17 2t-18 2t-10.5 2q-17 4 -46.5 13t-64 21t-69.5 25.5t-64 27t-47 26t-18 22.5q0 19 5.5 40.5t14 42.5t18.5 42t19 39q8 18 22.5 40t28.5 45t24.5 45t10.5 40q0 20 -10.5 34.5t-23 28
t-23 27.5t-10.5 33q-7 0 -8 -1t-3 -1t-3.5 1t-4.5 7q-27 35 -61.5 86.5t-71.5 111t-73 123.5t-66 124q-7 13 -17.5 35.5t-22 50t-23 57.5t-21 57t-15.5 49t-6 33q0 13 12.5 26.5t31.5 26.5t41 24t40 19q25 3 46.5 9.5t38 13t28.5 11.5t20 5t36 6t65 15t77.5 20.5t73.5 22.5
q3 0 6 1q2 0 4.5 0.5t4.5 0.5q20 0 34 -5.5t24.5 -16t19.5 -25.5t18 -33q6 -11 15 -23.5t18.5 -24.5t17.5 -22t12 -16q15 -22 36 -58.5t42 -71t39.5 -60t30.5 -25.5q7 0 20.5 22t30.5 56t35.5 75.5t35.5 80t30.5 69.5t19.5 45q4 14 8 25.5t9.5 20t15 13.5t24.5 5q32 0 77 -8
t94.5 -22.5t101 -34.5t96.5 -42.5t80.5 -47.5t54.5 -50q0 -29 -7 -55t-18 -48q-96 -210 -188.5 -417.5t-187.5 -415.5q-2 -2 -5.5 -3t-5.5 -3q-62 -121 -124 -239l-124 -236q-3 -7 -10.5 -8t-13.5 -1v13z" />
    <glyph glyph-name="Z" unicode="Z" horiz-adv-x="1439" 
d="M146 434q123 122 221 225q42 43 81.5 87t71 81t50.5 65t19 40q0 8 -11 8l-389 6q-19 0 -32.5 13.5t-22.5 35t-13.5 49t-6.5 55t-2.5 53t-0.5 44.5q0 8 1 31.5t2 48.5t2 44.5t1 20.5l11 11q14 14 41 14q12 0 25 -2t24 -2q75 0 149.5 6t149.5 6q148 0 291.5 3t296.5 3
q69 0 111.5 -4t66 -10t31.5 -14t8 -17v-327q0 -24 -14.5 -64t-60 -108.5t-131.5 -170.5t-228 -249q67 0 134 1q57 0 121 0.5t117 0.5q20 0 35.5 -14.5t15.5 -26.5v-332q0 -5 -2 -13t-15.5 -15t-42.5 -12t-83 -5h-360q-86 0 -160 0.5t-145.5 1.5t-145 1.5t-158.5 0.5
q-9 0 -18.5 5t-17 12.5t-12.5 17t-5 18.5v377z" />
    <glyph glyph-name="bracketleft" unicode="[" horiz-adv-x="1133" 
d="M125 942v100q0 29 -1.5 66.5t-3 77.5t-2.5 78.5t-1 70.5q0 9 1 35.5t2 55.5t2 51.5t1 23.5l10 10q25 -2 46.5 -3t43.5 -1q59 0 108.5 3t108.5 3q49 0 85.5 0.5t67 1.5t58.5 1.5t59.5 1.5t71 1.5t92.5 0.5q7 0 30 -5t48 -12t44.5 -15t19.5 -13v-267q0 -14 -13.5 -29
t-27.5 -18q-39 13 -76.5 15t-79.5 2q-15 0 -24.5 -1.5t-26.5 -9.5q-16 -52 -19.5 -114.5t-3.5 -124.5v-9v-5v-10.5t-0.5 -25t-1 -47.5t-0.5 -79q0 -1 -1.5 -6.5t-3.5 -12.5t-3.5 -13.5t-1.5 -8.5q0 -6 1.5 -15t3.5 -17.5t3.5 -15.5t1.5 -8q0 -49 0.5 -79t1 -47.5t0.5 -25
v-10.5v-5v-9q0 -62 3.5 -124.5t19.5 -114.5q17 -8 26.5 -9.5t24.5 -1.5q42 0 78 -2t78 -2q12 0 26.5 -10t14.5 -16v-267q0 -5 -19.5 -9t-44.5 -7.5t-48 -5.5t-30 -2q-78 0 -182 -2t-252 -2q-29 0 -55.5 2.5t-53 5.5t-53 5.5t-55.5 2.5q-22 0 -43.5 -1t-46.5 -3l-10 10
q0 1 -1 21t-2 45t-2 48.5t-1 31.5q0 31 1 70t2.5 78.5t3 77.5t1.5 67v210v367z" />
    <glyph glyph-name="backslash" unicode="\" horiz-adv-x="1120" 
d="M333 408q0 2 -10 32.5t-24 75t-30.5 95.5t-30.5 95.5t-24 74t-10 30.5t-4.5 14t-12 33.5t-17.5 46.5t-20 53q-24 63 -53 144q-12 54 -19.5 104.5t-6 90t14 63.5t40.5 24l18 -6l8 2q3 1 5.5 2t1.5 2h36q5 4 23 6.5t29 2.5q1 0 6.5 -1.5t12 -3t12.5 -3t8 -1.5q3 0 8.5 3.5
t5.5 5.5q14 0 33 1t38 1t36 -2.5t26 -8.5q14 0 25.5 5.5t25.5 5.5q35 0 67.5 -6.5t63.5 -6.5q6 0 8 1t9 1q0 -2 3.5 -4.5t7.5 -5.5t7.5 -6.5t3.5 -5.5l217 -668q38 -128 76.5 -264t73.5 -264q2 -9 6 -26.5t8 -38.5t6 -43t-0.5 -40t-11 -29.5t-25.5 -11.5q-6 0 -23.5 0.5
t-36.5 1t-34.5 1.5t-17.5 2h-232q0 1 -3 2t-6 3q-4 2 -9 3q-8 0 -13 -4t-18 -4h-6q-1 0 -15 1t-34 2.5t-42 3t-40 1.5q-16 19 -32 60t-33 96.5t-36 122.5t-40 139z" />
    <glyph glyph-name="bracketright" unicode="]" horiz-adv-x="1133" 
d="M1007 575q0 -76 1.5 -140t3 -123t3 -117.5t1.5 -122.5q0 -23 -2 -50t-5 -50t-6 -39t-4 -17h-10q-43 0 -80.5 -2t-73 -4t-70.5 -4t-73 -2h-219.5t-183.5 2.5t-125.5 8.5t-46.5 17v267q0 2 22 4t52.5 3.5t64 2t57.5 0.5t39.5 21t24 56.5t11.5 81t3 95t-1 99.5t-1 93
q0 7 1.5 30.5t3.5 53.5t3.5 61.5t1.5 53.5q0 1 -1.5 7.5t-3.5 13t-3.5 12.5t-1.5 8q-5 69 -2 130t8 118q1 21 -2 29t-11.5 9.5t-23 -1t-35.5 -2.5h-165q-14 0 -27.5 8t-13.5 22v267q0 5 19.5 13t44 15t47.5 12t30 5q65 0 112 -1t87.5 -2.5t80 -3t90 -3t118 -2.5t163.5 -1
q22 0 43.5 1t46.5 3l10 -10q0 -1 1 -23.5t2.5 -51.5t2.5 -55.5t1 -35.5q0 -51 -1.5 -104.5t-3 -104.5t-3 -98t-1.5 -86v-367z" />
    <glyph glyph-name="asciicircum" unicode="^" horiz-adv-x="1241" 
d="M489 1229q1 0 16.5 -0.5t34 -1t33.5 -0.5t14 0h284q9 0 16.5 1t15.5 1h13q5 -2 8.5 -7t3.5 -9l125 -419q21 -81 40.5 -165.5t37.5 -165.5q1 -8 5.5 -28t6 -40.5t-3.5 -36.5t-21 -16q-7 0 -31 0.5t-50.5 1t-47.5 1t-22 0.5h-86q0 2 -1.5 4t-10.5 2q-1 0 -2.5 -3t-3.5 -3
h-1q-1 0 -12 1t-26.5 2t-32.5 2t-30 1q-7 12 -14 37t-14 59.5t-15 75.5t-18 85q0 1 -4 24t-9.5 57t-12.5 73.5t-12.5 73.5t-9.5 56.5t-4 23.5q0 2 -1 5q-2 4 -3 15q-10 -29 -11 -48q-2 -11 -1 -22q0 -1 -3.5 -20t-8.5 -47t-10.5 -61t-10.5 -61.5t-8.5 -48t-3.5 -20.5
q-8 -44 -15.5 -85t-14 -75.5t-13.5 -59.5t-14 -37q-18 0 -39.5 -1t-41.5 -2q-23 -2 -45 -3h-4q-10 0 -13 3t-6 3q-4 -1 -7 -2q-6 -2 -6 -4h-94q-2 0 -22.5 -0.5t-47 -1t-50.5 -1t-32 -0.5q-16 0 -20.5 16t-3 36.5t5.5 40.5t6 28q17 81 37 165.5t41 165.5l124 419q0 4 3.5 9
t8.5 7h165z" />
    <glyph glyph-name="underscore" unicode="_" horiz-adv-x="1206" 
d="M766 192h102q8 0 26.5 -1t38.5 -3q22 -2 48 -3q37 0 58.5 -7.5t31.5 -21.5t12.5 -35t2.5 -48q0 -32 1 -57t2 -50.5t2 -56.5t1 -76q0 -19 -13 -30t-33 -16.5t-44 -7t-45 -1.5q-77 0 -150 1t-163 1h-190q-80 0 -147 1t-137 1q-9 0 -18.5 5t-17.5 12.5t-13 17t-5 18.5
q0 44 0.5 79t1 68.5t1 69t0.5 80.5q0 26 15.5 39t41 17.5t56.5 4t63 -0.5h471z" />
    <glyph glyph-name="grave" unicode="`" horiz-adv-x="866" 
d="M315 1556q-20 36 -35.5 70.5t-30 68.5t-30 67.5t-35.5 68.5q-12 19 -27.5 45.5t-32.5 55t-33 56t-28.5 50.5t-19.5 38t-6 17q0 16 14.5 23t54.5 16q5 0 7.5 -1t7.5 -1l14 4l88 6q6 2 13 2.5t12 3.5q8 -2 20.5 -1.5t22.5 -2.5l12 6q53 0 112 -3t132 -3l88 -14l16 -14
q23 -84 40.5 -159t33.5 -157q5 -54 13 -108.5t15.5 -109t13 -108t5.5 -106.5q0 -22 -6.5 -41.5t-32.5 -19.5q-28 0 -55.5 1t-55.5 1h-59l-8 6l-14 -8q-16 2 -37 2h-39q-15 0 -34 28.5t-39.5 68t-40.5 82t-36 70.5z" />
    <glyph glyph-name="a" unicode="a" horiz-adv-x="1652" 
d="M631 1167q36 0 61.5 1t45.5 2t37.5 2.5t39 2.5t50 2t69.5 1q7 0 27.5 -0.5t47.5 -1.5t58 -1.5t58.5 -1.5t49 -1.5t29.5 -0.5q12 0 21.5 -4t21.5 -4h16q7 -2 12 -8.5t5 -11.5l145 -541q28 -106 55 -219t50 -221q2 -12 8 -39.5t7.5 -55t-4.5 -48.5t-28 -21h-23.5t-39.5 0.5
t-45.5 1t-44 1t-34.5 0.5t-15 1h-113q0 2 -2 5t-14 3q-2 0 -4 -4t-5 -4h-6q-1 0 -15.5 1t-35 2.5t-43 3t-39.5 1.5q-12 22 -25.5 77.5t-27.5 129.5q-21 -4 -46 -5.5t-52 -1.5t-54 0.5t-51 0.5q-15 -71 -28 -125t-25 -76q-6 0 -15.5 -4t-11.5 -4h-4q-11 0 -16.5 4t-10.5 4
q-45 -1 -80 -3q-30 -2 -54.5 -3t-24.5 -2h-166q-1 0 -14.5 -0.5t-34 -1t-44.5 -1t-46 -1t-39.5 -0.5h-24.5q-21 0 -27 21t-4 48.5t7.5 55t7.5 39.5q23 108 49.5 221t54.5 219l139 545q0 5 6 11.5t11 8.5h16q23 0 40 4.5t42 4.5q38 0 73 -4.5t77 -4.5zM874 883q0 -1 -4 -24
t-10 -60t-14.5 -84.5t-16.5 -96.5t-16 -96t-14 -84h90q2 2 6 4t6 2h4q17 0 30 -3.5t27 -6.5q-6 37 -14 84.5t-16 97t-16.5 97t-14.5 85t-10 61t-4 24.5q-1 2 -2 6q-1 3 -2 8t-3 12q-2 -7 -3 -12t-2 -8q-1 -4 -1 -6z" />
    <glyph glyph-name="b" unicode="b" horiz-adv-x="1439" 
d="M117 900v53.5t1 46t2 46.5t4 55q3 2 10 10.5t10 10.5q4 4 14 12.5t22 18t22 17.5t14 11q72 -3 146 5.5t147 8.5q81 0 164.5 -8.5t164.5 -17.5q45 -6 98 -13t106 -20t102.5 -33t87.5 -50.5t61 -74.5t23 -104q0 -6 -1 -19t-2.5 -28t-3 -28.5t-2.5 -18.5q-6 -18 -18 -37
t-27 -36t-32 -31t-33 -21q-2 -2 -13 -7.5t-24 -11t-24 -10.5t-13 -6q-5 -2 -13.5 -8t-13.5 -11l7 -8q57 -24 103.5 -49.5t79.5 -61t51.5 -83.5t18.5 -115v-17.5t-2 -13.5l-6 -12q-1 -2 -11 -13.5t-23.5 -25.5t-28 -28t-23.5 -21q-31 -28 -63 -40.5t-70 -25.5
q-10 -4 -34 -13.5t-51.5 -20.5t-52 -20.5t-34.5 -12.5q-13 -2 -48.5 -5.5t-76 -8l-76.5 -8.5t-51 -5q-5 -1 -16.5 -2t-25 -2t-26 -1.5t-18.5 -0.5q-2 0 -7 -3.5t-7 -3.5h-95.5t-91.5 2t-88.5 7t-87.5 16l-65 29q-9 3 -13 3t-7 2t-5.5 7.5t-7.5 20.5q-11 29 -14 63t-2 69
t3 69.5t1 64.5q-6 143 -10.5 284t-4.5 283zM699 442q-11 0 -15.5 -10t-4.5 -19v-139q0 -6 5.5 -7t8.5 -1h4t2 2l272 127l15 12q-9 3 -18 5t-15 7q-53 6 -96 14.5t-92 8.5h-66zM705 780q0 -7 0.5 -13t9.5 -6h5q2 0 10 2t10 2q19 9 49 23t58.5 27t49 22.5t21.5 9.5l21 12
q-9 12 -29.5 21t-44 15t-46 9t-36.5 3q-30 0 -46 -10t-23 -27.5t-8 -40.5t-1 -49z" />
    <glyph glyph-name="c" unicode="c" horiz-adv-x="1217" 
d="M683 573q0 -81 11 -136t31.5 -88.5t48 -48.5t60.5 -15q26 0 55.5 8.5t60 23t62 33t62.5 39.5l20 -291q-35 -34 -80.5 -61t-95.5 -46t-100.5 -29.5t-95.5 -10.5q-74 0 -150 6t-147 26.5t-133 60t-108 106t-72.5 164t-26.5 235.5q0 163 46 289.5t126 213.5t188.5 132
t233.5 45q106 0 219 -33.5t227 -99.5l-28 -232q-51 13 -106 26t-107 13q-42 0 -78.5 -14t-63.5 -51t-43 -101t-16 -164z" />
    <glyph glyph-name="d" unicode="d" horiz-adv-x="1538" 
d="M674 -1q-57 0 -114 0.5t-117.5 1.5t-127 1.5t-141.5 0.5q-16 0 -25.5 10t-14 26t-6 35t-1.5 36q0 27 -0.5 68.5t-1.5 93t-2 110.5t-2 121t-1.5 124.5t-0.5 121.5v387q0 15 14.5 30t30.5 15q118 0 203 -2t147 -2q96 0 204.5 3t239.5 3q48 0 102.5 -9t108.5 -31.5
t103.5 -61t88 -97.5t61 -140.5t22.5 -189.5q0 -180 -39.5 -304.5t-130.5 -202.5t-238 -113t-362 -35zM688 232q17 -1 33 0q14 1 26.5 3.5t20.5 9.5q17 18 31.5 68t25.5 115.5t17 136t6 128.5q0 6 -0.5 32t-2.5 61.5t-7 76t-14 74t-22.5 56t-33.5 22.5q-15 0 -26 -3t-19 -6
q-9 -4 -15 -8q0 -41 -1 -95t-2.5 -115.5t-3 -126.5t-3.5 -127q-4 -145 -10 -302z" />
    <glyph glyph-name="e" unicode="e" horiz-adv-x="1295" 
d="M116 698q0 112 2 221.5t13 227.5q0 15 20.5 23t49 11t60 3h52.5q88 0 174 -5t174 -5q16 0 30 1t30 1l12 -9q77 17 157.5 20t155.5 3q5 0 10 -8h64q18 0 27.5 -19.5t16.5 -49.5t12 -66t14 -68q0 -19 -3.5 -38t-17.5 -19q-2 0 -7 4t-7 4q-14 2 -24.5 -3t-24.5 -5
q-13 0 -20.5 4t-18.5 4q-19 0 -44.5 -6.5t-43.5 -8.5q-14 -2 -43.5 -1.5t-62.5 0t-62.5 -4.5t-42.5 -14v6q-9 0 -15.5 -20t-11 -46t-6.5 -52.5t-2 -39.5q0 -24 6.5 -31t22.5 -7q5 0 11 1.5t9 4.5q3 0 11 -2t12 -4h174q2 2 7 4t7 2q17 2 30 -4.5t25 -8.5q15 -2 25 -3t17 -4
t12 -11t10 -25l43 -135q3 -18 -14 -28t-47 -15t-69.5 -6.5t-80.5 -1.5h-90h-61t-40 -4t-21.5 -15t-6.5 -32v-9t1 -7q0 -4 1 -7q0 -9 -1 -21t-2 -23q-2 -12 -3 -25q0 -9 0.5 -19.5t0.5 -20.5t0.5 -18t0.5 -12q93 0 187.5 6t186.5 6q6 0 9.5 -9t6 -21.5t4 -26.5t3.5 -23
q4 -20 8 -34t7 -28t5 -31t2 -42q0 -2 -0.5 -5.5t-0.5 -7.5q-1 -4 -1 -9l-14 -15q-4 -1 -8 -1q-3 -1 -6.5 -1h-5.5q-20 0 -28.5 4.5t-14.5 4.5q-3 0 -14 -6t-13 -9v10q-6 0 -24.5 -1t-30.5 -1q-6 0 -14.5 3.5t-14.5 3.5q-23 0 -53 -2t-53 -13h-37h-613q-2 0 -7 8t-11 20
t-11 25.5t-8 24.5q-9 15 -15 42.5t-10 62.5t-6.5 73.5t-3.5 75t-1 67v50.5q0 27 -1 48.5t-2.5 47t-2.5 60t-1 85.5z" />
    <glyph glyph-name="f" unicode="f" horiz-adv-x="1222" 
d="M116 1159q0 3 5 10.5t10 10.5q5 0 8 -1t8 -1q25 0 47.5 5t48.5 5q39 0 78 -4t82 -4l8 6h90q2 -2 7.5 -4t7.5 -2q1 0 6.5 1t11.5 2t11 2t6 1q5 0 15 -2t13 -4h469q2 -2 7.5 -4t7.5 -2t7 3t7 3q24 0 40.5 -22t26.5 -58t14.5 -82t4.5 -94q0 -12 -10.5 -17t-25 -7t-30.5 -1.5
t-26 0.5h-82q-20 0 -31.5 -1.5t-22 -3t-24 -2.5t-35.5 -1h-27t-18 2l-14 -8q-1 -5 -3 -18t-4 -36.5t-3.5 -58.5t-1.5 -84q1 1 -1.5 -5t7.5 -15h37q27 0 61 -2.5t66.5 -8.5t58.5 -17t37 -28t13.5 -40t2.5 -46q0 -40 -1 -70.5t-1 -68.5q-14 -8 -37.5 -14.5t-49 -11t-50 -7
t-39.5 -2.5q-5 0 -6.5 4t-7.5 4q-8 0 -10.5 -4t-10.5 -4q-6 0 -10 3t-10 3q-2 0 -7.5 -6t-7.5 -8q-12 -2 -23.5 -1.5t-22 -1t-20 -6.5t-18.5 -18q0 -58 -0.5 -109t-2.5 -92t-6.5 -71t-12.5 -45q-20 0 -46 -1t-50 -2t-40.5 -2t-17.5 -1q-8 -1 -13 0t-8.5 2.5t-6.5 2.5t-7 1
q-2 0 -7 -2t-7 -4h-153h-14t-29.5 -0.5t-38 -0.5t-40 -0.5t-34.5 -0.5h-21q-22 0 -33 22t-15.5 50.5t-5 57t-1.5 40.5q-6 102 -17.5 206t-11.5 207v584zM874 362q-4 0 -4 -4q0 -1 1 -1q1 -1 3 -1t2 1v1q0 4 -2 4z" />
    <glyph glyph-name="g" unicode="g" horiz-adv-x="1487" 
d="M1387 244q0 -42 -0.5 -81t-2 -72t-4.5 -57t-9 -36q-15 0 -33.5 -0.5t-35.5 -1.5q-19 -1 -40 -2h-4q-14 0 -18 2q-3 1 -2 2q-3 0 -5 -1q-5 -2 -5 -3h-177q-1 0 -9 -0.5t-18.5 -0.5t-20 -0.5t-13.5 -0.5q-14 0 -22 40.5t-11 106.5q-9 -46 -38.5 -81t-73.5 -58t-100.5 -35
t-119.5 -12q-59 0 -122 14.5t-123 46t-113 81t-93 119.5t-63.5 161.5t-23.5 206.5q0 154 55 273.5t151.5 201t228 124t284.5 42.5q111 0 229.5 -29t237.5 -86l-68 -301q-33 8 -68.5 18t-72 18.5t-72.5 14.5t-70 6q-49 0 -92 -12.5t-74.5 -45.5t-50 -90t-18.5 -145
q0 -76 11 -127.5t31.5 -83t48 -45.5t60.5 -14q25 0 52 6t55 19q-5 57 -9 111.5t-14 105.5v80q0 14 11 14h12q12 0 23.5 4t25.5 4q20 0 38 -4t38 -4q6 5 20.5 6.5t32.5 1.5q25 0 48 3t34 3l23 6q30 -1 55 -2q20 -1 37.5 -1.5t17.5 -2.5h45l8 -4v-57q1 -8 1.5 -14t0.5 -16.5
v-29.5v-53v-180q0 -1 -1 -9t-2 -17.5t-2 -17.5t-1 -9z" />
    <glyph glyph-name="h" unicode="h" horiz-adv-x="1693" 
d="M1366 0q-79 0 -155 5t-155 3h-34q-17 0 -26 4.5t-13.5 15t-6.5 27.5t-3 43l-21 338q-5 -1 -21 -1t-35 1t-35.5 2.5t-21.5 3.5h-84q-11 0 -12.5 -11t-1.5 -19v-11v-329v-39.5t-2.5 -19.5t-8.5 -7.5t-18 -5.5q-74 -2 -145 -4t-143 -2q-62 0 -128.5 2.5t-123.5 17.5
q-8 1 -12 8t-6 15.5t-2.5 16t-0.5 9.5q-9 158 -22 321t-13 337q1 16 2 51t2.5 79.5t3 93.5t3 93.5t2.5 79.5t2 51q0 2 2 4.5t4 2.5q20 0 36 5t42 3q37 -2 66.5 -2t56.5 0.5t53.5 1t58.5 0.5q57 0 114.5 -2t117.5 -2q21 0 33.5 -3.5t18.5 -12.5t7.5 -25t1.5 -41q0 -6 0.5 -19
t0.5 -27.5t0.5 -27.5t0.5 -20q0 -8 1 -17t1 -18q0 -35 -2 -64t-2 -57q0 -23 5 -31.5t14.5 -9.5t24.5 2.5t36 3.5q2 0 20 -0.5t39 -0.5t38 1.5t18 5.5v84q0 10 0.5 31t1 48.5t1.5 57t1.5 57t1 48.5t0.5 31q2 0 6.5 -0.5t9 -0.5t8.5 2t5 7h98q46 0 89.5 -4t88.5 -4
q17 0 53.5 1t76.5 2.5t76 3t52 1.5q37 0 53.5 -7.5t16.5 -41.5v-162q0 -30 -2 -66t-4 -73t-3.5 -74t0.5 -68l-20 -649q0 -5 -3.5 -12.5t-9 -14.5t-12.5 -11.5t-14 -4.5h-143z" />
    <glyph glyph-name="i" unicode="i" horiz-adv-x="842" 
d="M711 205q-4 -47 -3.5 -85t-2.5 -65t-14 -42t-37 -15q-2 0 -4 2t-4 2q-3 0 -8 -1l-10 -2q-5 -2 -11 -3q-18 -1 -28.5 0t-18.5 2.5t-14 2.5t-15 1q-2 0 -7 -2t-7 -4h-154q-3 0 -27.5 -3.5t-54.5 -8t-57.5 -8t-36.5 -3.5q-22 0 -33 22t-15.5 51t-5 57t-1.5 40
q-6 130 -17.5 266t-11.5 267v497q0 11 11 17t26 8.5t31 3t26 0.5q48 0 94 -4t99 -4l8 6h90q2 -2 7.5 -4t7.5 -2q1 0 6.5 1t11.5 2t10.5 2t5.5 1q5 0 15.5 -2.5t13.5 -3.5h152l4 -352q-2 -6 -7.5 -44t-5.5 -116v-399z" />
    <glyph glyph-name="j" unicode="j" horiz-adv-x="1050" 
d="M828 54q-54 -50 -116.5 -81t-115.5 -48q-62 -20 -123 -29q-92 -9 -180.5 -1.5t-173.5 36.5l-78 35q-2 6 -1 19t3 30t4.5 36.5t4.5 37.5q0 10 1.5 27.5t3 33.5t3.5 27t4 8q25 -9 44.5 -15.5t37.5 -10.5t37 -6t43 -1q20 0 33 15.5t21.5 36t13.5 42t9 33.5q0 29 2.5 76.5
t2.5 118.5q1 69 1.5 130t1.5 108q1 55 1 102l-2 364q2 5 5 9q2 4 4.5 7t4.5 3q5 0 7.5 -1t8.5 -1q22 0 44 5t48 5q38 0 74 -4t78 -4q5 5 17 7t25.5 2t27.5 -0.5t24 -0.5q2 -2 6.5 -5t8.5 -3q1 0 6 1t10.5 2.5t10 3t5.5 1.5q5 0 15 -2.5t12 -5.5h86q0 -1 7 -3q3 -1 7 -1l15 4
q24 0 39.5 -21t25 -55t13.5 -78t4 -90v-315q0 -1 -1 -28t-2.5 -60t-2.5 -61t-1 -31q0 -51 -2.5 -106.5t-14 -109t-34.5 -102.5t-63 -86z" />
    <glyph glyph-name="k" unicode="k" horiz-adv-x="1538" 
d="M738 1184q4 0 7.5 -8t5.5 -20t3 -26t1 -26q2 -68 -3.5 -131t-5.5 -111q15 0 23.5 2.5t15 7t12.5 11.5t17 16q5 4 32 29.5t64.5 61t81 76t83 75.5t70 58.5t42.5 25.5q4 0 10.5 -6.5t13.5 -15t13.5 -16t9.5 -9.5q18 -31 42.5 -56.5t49.5 -51.5t48 -54t38 -64v-4
q0 -17 -14.5 -37.5t-34 -40.5t-39 -37.5t-29.5 -29.5q-4 -2 -16.5 -12.5t-30 -25.5t-37.5 -32.5t-37.5 -32.5t-30.5 -25.5t-16 -12.5q-8 -7 -15.5 -10t-12.5 -6t-8 -8t-3 -15q0 -16 8 -29t19.5 -24.5t24.5 -21.5t24 -20q13 -13 39.5 -37t59.5 -53.5t67.5 -61.5t63 -61.5
t47 -54.5t18.5 -39q0 -9 -1.5 -16t-12.5 -17q-29 -26 -59.5 -45.5t-59.5 -44.5q-23 -18 -54 -42t-59 -38q-5 -2 -21 -9.5t-34 -16t-33 -15.5t-18 -8q-40 -19 -55 -4l-41 41q-3 5 -5 7t-4 3.5t-5 3.5t-7 7l-162 182q-4 6 -15.5 20t-24.5 28t-25 25t-17 11q-8 0 -11 -4.5
t-3 -9.5q0 -13 -1 -44.5t-2 -66t-2 -65t-1 -42.5q-2 -5 -1.5 -14.5t0.5 -19t-1.5 -18t-5.5 -9.5q0 -1 -5 -1h-11t-11 0.5t-6 0.5q-91 -6 -177.5 -5t-178.5 1q-12 0 -30.5 -0.5t-36 -0.5t-30.5 -0.5t-14 -0.5l-78 18l-6 15q-1 0 -1.5 19.5t-1.5 51t-2 70.5t-2 78.5t-2 76
t-1 62.5q-2 155 -4 314t-2 323q0 5 -0.5 18.5t-1.5 28.5t-1.5 28.5t-0.5 18.5v7.5v14t0.5 14t1.5 7.5q7 18 19.5 24.5t28 7t33 -2t33.5 -2.5q224 0 348.5 -1t159.5 -1z" />
    <glyph glyph-name="l" unicode="l" horiz-adv-x="1157" 
d="M123 518q4 121 6 235t9 205t22 152t47 78q79 0 134.5 -1t102 -2t90 -2t99.5 -1q27 -2 46.5 -3.5t32.5 -9.5t18.5 -26t4.5 -53q0 -3 -1.5 -15.5t-3 -27t-4 -26.5t-3.5 -15q0 -5 1 -19t2 -29.5t2 -28.5t1 -16q1 -17 1 -47.5t1 -63t3 -60t7 -37.5q0 -30 -2 -65.5t-2.5 -72
t2 -72t10.5 -65.5q16 -6 24.5 -7t22.5 -1q66 0 135.5 1t135.5 13q12 -3 23.5 -16.5t11.5 -26.5l-15 -350q-1 -10 -17 -17.5t-41 -12.5t-55 -9t-58 -6t-51 -3t-34 -1q-31 0 -61 -3t-58 -3q-3 0 -11 0.5t-16.5 1.5t-16.5 2t-11 2q-10 0 -32 1.5t-50 3t-58 3t-56 3t-45 2.5
t-23 1q-48 2 -94.5 -2t-96.5 -4h-40t-37 -2l-9 8q1 1 1 23v50v53.5t1 33.5q1 29 0.5 67t-1.5 75t-2 69.5t-1 50.5z" />
    <glyph glyph-name="m" unicode="m" horiz-adv-x="1822" 
d="M932 764q1 3 12 27t27 59t34.5 75.5t35 76.5t28.5 63.5t16 36.5q6 13 15 27.5t17.5 26.5t16.5 20t13 8q31 0 137 1t299 1q16 0 25 -0.5t18.5 -0.5t23 -0.5t37.5 -0.5q4 0 7 -27t5 -70.5t3 -100t1.5 -116t0.5 -116.5v-103q0 -65 -4 -132t-11 -132q0 -26 1 -62.5t1.5 -75.5
t1.5 -78t2 -70t1.5 -50.5t1.5 -19.5l-7 -15l-80 -18q-1 0 -13.5 -0.5t-29.5 -0.5t-35 -0.5t-30 -0.5q-72 0 -134 4t-134 10q-2 0 -8 -1t-11 -1q-9 0 -14 39.5t-8 100.5t-3.5 134t-0.5 140q0 6 -4.5 10t-10.5 4q-4 0 -12 -17.5t-17.5 -41.5t-18.5 -49.5l-15 -42.5
q-4 -6 -17 -35.5t-33.5 -63.5t-46.5 -61t-55 -27h-26.5t-36 0.5t-39.5 1t-35 2.5q-49 78 -80.5 140t-50 105t-28 66t-13.5 23q-14 0 -14 -14v-83.5t-0.5 -91.5t-1.5 -89t-4 -76.5t-8 -53.5t-13 -20q-5 0 -10.5 1t-7.5 1q-72 -6 -134.5 -10t-134.5 -4q-11 0 -29.5 0.5
t-36 0.5t-30.5 0.5t-14 0.5l-78 18l-6 15q-1 0 -2 19.5t-2 50.5t-2 70l-2 78t-1.5 75.5t-1.5 62.5q2 93 5.5 180.5t3.5 184.5q0 4 -0.5 14.5t-1.5 21.5t-1.5 21t-0.5 12q0 26 1 47.5t2.5 44t3 48.5t1.5 61q0 5 -0.5 19t-1.5 29t-1.5 29t-0.5 19q-4 4 -4 12q0 19 14.5 30.5
t34 17t40 7t31.5 1.5q193 0 299.5 -1t137.5 -1q4 0 12 -8t16.5 -20t17 -26.5t15.5 -27.5q3 -9 13.5 -36.5t25 -64.5t30.5 -77.5t30 -75t24 -58.5t12 -26q14 -27 27 -27q9 0 16.5 9t12.5 18z" />
    <glyph glyph-name="n" unicode="n" horiz-adv-x="1560" 
d="M1437 393q0 -99 -0.5 -166.5t-2 -112t-5.5 -68.5t-11 -35t-17.5 -13t-26.5 -2q-55 0 -110 1q-48 0 -104.5 0.5t-107.5 0.5q-11 0 -26 -1t-32.5 0.5t-36 8.5t-34.5 23l-180 252q-3 6 -14.5 20t-25 28t-25.5 25t-17 11q-6 0 -10 -5t-4 -10q0 -12 -0.5 -35t-0.5 -51.5
t-1 -60t-1 -59.5t-0.5 -49.5t-0.5 -31.5q-2 -4 -3 -12t-2.5 -17t-3.5 -16.5t-6 -9.5q-2 -2 -13 -1t-13 1q-69 -5 -133 -9.5t-135 -4.5q-11 0 -29 0.5t-35.5 0.5t-30.5 0.5t-14 0.5l-80 20l-4 13q-1 0 -2 19.5t-2 50.5t-2 70t-1.5 78t-1.5 75.5t-1 62.5q-6 65 -10.5 132
t-4.5 132q0 4 1 18.5t1.5 31.5t1.5 32t1 19q0 3 -1 13t-1.5 21.5t-1.5 21.5t-1 13q0 4 1 19.5t1.5 33.5t1.5 34t1 20q0 1 0.5 12.5t1.5 26.5t1.5 30.5t0.5 24.5q0 4 -0.5 17.5t-1.5 28.5t-1.5 29t-0.5 19q0 2 -3.5 7t-1.5 7q7 19 21 30t30.5 17t35 7.5t34.5 1.5q92 0 160 4
t114.5 7t73 1t35.5 -14q5 -7 21 -30.5t39.5 -57.5t52 -77t58.5 -88t60 -89.5t56 -83.5q0 31 1 71t1.5 82t1.5 82.5t2 72.5t2.5 52t3.5 21l10.5 10.5t18 14.5t23.5 12t28 4h101q2 0 22 -0.5t49 -1.5t61.5 -1.5t61 -1.5t47.5 -1.5t21 -0.5q21 0 36 -2.5t25.5 -10t15.5 -22
t5 -38.5q0 -6 -1 -19t-2.5 -27.5t-2.5 -28t-1 -19.5q0 -7 2.5 -15.5t2.5 -17.5q0 -12 -0.5 -56t-1 -104t-1 -128.5t-1 -128.5t-1 -104.5t-0.5 -56.5z" />
    <glyph glyph-name="o" unicode="o" horiz-adv-x="1549" 
d="M635 -43q-47 0 -95 9.5t-98 25.5h-14q-9 0 -15.5 1.5t-16 7t-24.5 15t-42 25.5q-66 37 -111.5 100t-74 135.5t-41.5 147.5t-13 137q0 78 17 157.5t49 153t79 138t107 112.5t132 75.5t155 27.5q18 0 36.5 -0.5t36.5 -3.5q3 2 7.5 2h7.5q81 0 143 -2t112.5 -9t93.5 -20.5
t85 -36.5q81 -54 139 -112.5t96 -128t56 -152t18 -182.5q0 -96 -23 -188.5t-69 -176.5q-3 -6 -8.5 -15.5t-11 -18t-10 -15t-5.5 -6.5l-14 -8q-50 -75 -120 -116.5t-149.5 -60.5t-164 -22.5t-162.5 -3.5q-23 0 -44 4t-44 4zM688 475q0 -5 1 -25.5t2.5 -49.5t3.5 -62t4 -62.5
t4.5 -51.5t4.5 -29l23 -78q2 -8 11.5 -11.5t17.5 -3.5q16 0 29 22t23 59t17 85t12 99.5t8.5 102.5t5.5 95t2.5 76.5t0.5 46.5q0 -4 0 16.5t-1.5 54t-5 73t-10 74t-17 58t-25.5 23.5q-19 0 -39 -31.5t-29 -109.5l-43 -330v-41z" />
    <glyph glyph-name="p" unicode="p" horiz-adv-x="1518" 
d="M119 1141q0 17 15 32t32 15q118 0 204.5 -2t149.5 -2q96 0 205.5 3t242.5 3q49 0 104.5 -7t110 -24t104.5 -46.5t88.5 -75t61.5 -109t23 -148.5q0 -140 -36 -236.5t-101.5 -156.5t-157.5 -86.5t-205 -26.5h-243q0 -52 -4.5 -75.5t-4.5 -26.5t1.5 -15t3 -26t3 -26t1.5 -15
q0 -32 -6.5 -50t-19 -27t-31 -11t-42.5 -2q-62 0 -108.5 -1t-93.5 -2t-103 -2t-137 -1q-17 0 -26.5 10.5t-14 26.5t-5.5 35.5t-1 37.5q0 41 -1.5 113.5t-3.5 161t-3.5 185.5t-1.5 186v391zM731 494q1 -2 10 -3q8 -1 24.5 -1.5t47.5 -0.5q20 0 33.5 20t22.5 51t14 69.5t7 75
t2.5 67.5t0.5 47q0 2 -0.5 18t-2.5 38.5t-7 48t-14 47t-22.5 35.5t-33.5 14q-15 0 -27 -22.5t-20.5 -59.5t-14.5 -84.5t-10 -96.5q-9 -116 -10 -263z" />
    <glyph glyph-name="q" unicode="q" horiz-adv-x="1536" 
d="M1454 616q0 -147 -23 -255.5t-66 -185t-104.5 -124.5t-138.5 -76q21 -27 42 -56.5t38 -57t28 -50t11 -34.5q-1 -18 -19 -35t-42.5 -32t-50.5 -28.5t-42 -25.5q-17 -5 -33 -10.5t-36 -10.5q-3 -3 -23.5 -9.5t-44 -13.5t-44 -11.5t-23.5 -3.5q-2 -8 -8.5 -7.5t-6.5 -1.5
q-1 0 -4.5 0.5t-11 4.5t-19 13t-26.5 25q-5 10 -8 10.5t-5 0.5q-2 2 -3.5 3t-6.5 9l-143 235q-3 5 -10 18.5t-17 29.5q-73 5 -142.5 18.5t-130.5 41t-112 71t-88 109t-57.5 155t-20.5 209.5q0 185 41 316t129 214.5t226.5 122.5t332.5 39q66 0 140.5 -10.5t148 -37
t141 -71.5t119 -113.5t82.5 -163.5t31 -221zM678 567q0 -28 0.5 -72.5t2.5 -96t7 -104t14 -95t23 -69t35 -26.5q20 0 34.5 30t23.5 77t14 105t7 113.5t2.5 101.5t0.5 71q0 8 -0.5 45.5t-2.5 88.5t-7 108t-14 105.5t-23.5 80t-34.5 31.5q-21 0 -35 -21.5t-23 -58t-14 -85.5
t-7 -103.5t-2.5 -112.5t-0.5 -113z" />
    <glyph glyph-name="r" unicode="r" horiz-adv-x="1537" 
d="M1336 119q-3 -8 -24 -23t-50 -32t-62 -34t-62 -29.5t-50 -19.5t-24 -4q-45 43 -81 85t-72 92.5t-77 115t-96 152.5q-3 3 -5 3q-5 0 -11.5 -2t-7.5 -2q-1 -21 -2 -59.5t-1.5 -84t-2 -92t-3.5 -85t-5.5 -62.5t-8.5 -24q-7 0 -13 1t-8 1q-85 -6 -164.5 -11t-164.5 -5
q-11 0 -30 0.5t-37.5 0.5t-32 0.5t-14.5 0.5l-64 21l-6 14q-1 0 -3 20.5t-4.5 52.5t-5.5 72.5t-6 81.5t-5.5 79t-4.5 65q-4 54 -9 112.5t-5 112.5q0 4 1 19t2 33t2 33t1 19q0 3 -1 13.5t-2 22.5t-2 22.5t-1 13.5q0 27 1 49t2.5 45t3 50t1.5 65q0 6 -0.5 20t-0.5 29t-0.5 29
t-0.5 20q-2 2 -4 5.5t-2 6.5q0 17 15 27t36 15t42.5 6.5t33.5 1.5q240 0 416 -8t300.5 -25.5t203.5 -45t123.5 -68t61 -93.5t16.5 -121t-20 -115t-47.5 -77t-55.5 -47t-43 -25q9 -25 28.5 -57t43.5 -66t50.5 -67.5t49 -63t38 -52.5t19.5 -35q19 -8 8 -23t-33 -31
q-26 -18 -64 -39zM701 953q-2 -64 -5.5 -127.5t-3.5 -127.5q15 0 33.5 2.5t37 7t35 11t26.5 14.5q15 9 29 19t25 22t17.5 27t6.5 33q0 31 -10 54t-25.5 37t-35.5 21t-40 7h-56h-34z" />
    <glyph glyph-name="s" unicode="s" horiz-adv-x="1270" 
d="M85 287q0 11 4 19.5t16 10.5q135 -51 262 -51q28 0 62.5 -1t63.5 3t49 15.5t20 35.5q0 35 -23.5 56t-56.5 35.5t-69.5 25t-61.5 23.5q-2 1 -9 5t-15.5 9.5t-17.5 11.5t-13 9q9 0 -1 5t-26 14t-30.5 20.5t-14.5 23.5v10q-29 0 -51 32t-37 75.5t-23 87t-8 67.5
q0 104 45 175.5t119 118.5t169 73t196 38t199 14.5t178 2.5q27 -8 45.5 -11t30.5 -9t19 -19t11 -40t6.5 -72.5t5.5 -116.5q8 -15 -4 -24t-38 -14t-62.5 -8.5t-75.5 -7.5t-77 -11t-68.5 -20t-49 -33t-18.5 -50q0 -14 3.5 -22t19.5 -19q54 -27 106.5 -51.5t100 -51t88 -55.5
t70 -65.5t46.5 -81.5t17 -102q0 -28 -2.5 -51t-12.5 -48q-26 -68 -79 -124.5t-120.5 -97t-143.5 -63.5t-148 -24l-301 -6q-5 3 -24.5 6.5t-46.5 8t-57 10.5t-56 13t-43.5 15t-18.5 17l-49 253v11z" />
    <glyph glyph-name="t" unicode="t" horiz-adv-x="1338" 
d="M345 786h-203q-26 0 -40 30t-20.5 72t-7.5 87t-1 74q0 7 1 28t2 43.5t2 40.5t1 19l8 8q18 -2 38 -2h40q68 0 136 1t136 1h37t69 -0.5t86 -0.5t88.5 -0.5t76.5 -0.5h51q3 1 11 2t16.5 2t16.5 1.5t11 0.5q28 0 58 -3t61 -3q15 0 53.5 1t81.5 1q23 0 44.5 -0.5t38 -2
t26.5 -4.5t10 -7v-351q0 -12 -12.5 -26t-24.5 -17q-62 14 -126 14.5t-126 0.5q-20 0 -29.5 -23t-13 -55.5t-3 -68t0.5 -60.5q0 -31 1 -61t1 -56q0 -35 -3 -75l-6 -80t-6 -78t-3 -68q0 -69 -3.5 -104t-15 -50t-33 -17t-57.5 -5q-55 0 -100.5 0.5t-93.5 0.5t-105.5 0.5
t-136.5 0.5q-9 12 -15 38t-9.5 64.5t-5 88t-1.5 108.5q0 103 2 226t2 259z" />
    <glyph glyph-name="u" unicode="u" horiz-adv-x="1639" 
d="M972 6q-11 6 -17.5 20.5t-11.5 29t-9 25.5t-10 11q-12 0 -25 -6.5t-26 -16t-25.5 -20.5t-23.5 -20q-29 -17 -63.5 -28t-67 -18t-58 -9.5t-36.5 -2.5q-35 0 -69.5 -1.5t-69.5 -0.5t-69 6.5t-67 18.5q-55 21 -90.5 64.5t-57 98.5t-30.5 118t-12 123.5t-1.5 113.5t1.5 90
q0 9 0.5 28.5t0.5 40t0.5 37t0.5 21.5l6 14l1.5 19.5t3 50.5t3 69.5t3 75.5t2.5 69t1 50q0 20 -3 38t-3 38t19.5 25.5t42.5 5.5h30q10 0 18.5 0.5t14.5 3.5l250 -4q0 -2 3 -4t5 -2l13 6q51 0 85.5 -4.5t55.5 -19t30 -42.5t9 -76t3 -90t3 -90v-20q-2 -43 -4 -93t-3.5 -101.5
t-2.5 -100t-2 -87.5t-1.5 -65.5t-0.5 -32.5q0 -11 -0.5 -31.5t2 -41t8.5 -36t18 -15.5q10 0 36.5 9.5t54.5 21.5t49.5 23.5t21.5 16.5v674q-3 21 -4.5 36.5t-2.5 30t-1 29.5v33q0 10 -0.5 21t1.5 20t8 15t20 6q3 0 8.5 -3.5t5.5 -9.5v-2q11 5 34 8.5t52 6t61 4t61 2
t52.5 0.5h34.5h35l217 -6q9 -4 11.5 -6t2.5 -7q0 -3 -1 -7t-1 -7q3 0 8 2t8 2q6 0 6 -8q0 -272 -3 -537.5t-17 -535.5q0 -6 -5 -14.5t-12 -17t-14.5 -15.5t-11.5 -11q-3 2 -16.5 5t-18.5 3q-2 0 -7 -4t-7 -4q-62 -11 -129 -12.5t-129 -1.5h-92t-90 8z" />
    <glyph glyph-name="v" unicode="v" horiz-adv-x="1581" 
d="M618 2q-40 0 -74 -4t-71 -4q-16 0 -30 4t-23 4h-19q-6 2 -11 9t-5 12l-164 552q-28 106 -53.5 217t-48.5 218q-2 10 -7.5 36.5t-7.5 53.5t4 48t27 21q10 0 42 -0.5t66.5 -1t61.5 -1t29 -1.5h125q0 -1 8 -5q4 -2 8 -3q5 0 8.5 4t16.5 4h6l60 -4q26 -2 54.5 -3t51.5 -1
q9 -15 17.5 -48.5t17.5 -78.5t19 -99t21 -112q0 -2 5.5 -32t13.5 -74.5t17 -96.5t17 -96.5t13.5 -74.5t5.5 -31v-8q0 -4 0.5 -9t1.5 -10q2 7 2.5 12.5t1.5 8.5q1 4 2 6q0 1 5 31t12.5 74.5t16.5 96.5t16.5 96.5t12.5 74.5t5 32q13 58 23.5 112t20 99t18.5 78.5t18 48.5
q17 0 39.5 1t43 2.5t35 3t15.5 1.5h2q3 0 4.5 -4t3.5 -4q12 0 14 3t2 5h113q1 0 14.5 0.5t33.5 1t43.5 1t45.5 1t39 0.5h23q21 0 27 -21t4.5 -48t-7.5 -53.5t-8 -36.5q-23 -107 -48.5 -218t-53.5 -217l-164 -552q0 -5 -5 -12t-12 -9h-16q-11 0 -21 -4t-22 -4q-23 0 -45.5 4
t-48.5 4q-3 -3 -23.5 -5t-50 -3t-63.5 -1h-64t-51.5 0.5t-26.5 0.5q1 1 -18.5 2t-44 2.5t-45 2.5t-21.5 1z" />
    <glyph glyph-name="w" unicode="w" horiz-adv-x="2046" 
d="M1255 10q-14 0 -28.5 -4t-28.5 -4t-22.5 5t-20.5 5l-17 -2q-12 2 -14 9t-2 12l-115 567l-114 -567q-13 -5 -15 -12t-2 -9l-16 2q-6 0 -11 -5t-12 -5q-31 0 -55.5 4t-56.5 4q-2 -6 -16 -8t-31 -2q-37 0 -59.5 1.5t-40 3.5t-34 3.5t-42.5 1.5q-23 0 -45.5 -4t-47.5 -4
q-14 0 -28.5 5t-28.5 5l-16 -2q-14 2 -16.5 9t-2.5 12l-119 542q-21 104 -43 213.5t-41 212.5q-6 7 -9.5 19.5t-5 27.5t-1.5 30.5v29.5q0 23 7 38t24 15h23t38.5 -0.5t45 -1t43.5 -1t33 -1t15 -0.5h74q11 -1 15 -5q2 -2 2 -3q5 0 10 4t14 4h6q1 0 15 -1.5t33.5 -3t41.5 -2.5
t39 -1q9 -17 18 -53t18 -84.5t19.5 -107.5t22.5 -122q0 -2 2.5 -16t5.5 -34t7.5 -43.5t7.5 -43t5.5 -33t2.5 -14.5q0 -3 1 -7t2 -9t3 -11q2 6 2.5 11t1.5 9t2 7q0 1 2.5 14.5t5.5 33t7.5 43t7.5 43.5t5.5 34t2.5 16q13 63 23.5 122t20 107.5t18.5 84.5t18 53h32t37 2
q0 5 6.5 7.5t14.5 2.5h29.5h49.5t53.5 -0.5t43.5 -1.5q2 0 4 1t4 1q5 0 9.5 -1t4.5 -3h107q12 -1 16 -5q2 -2 2 -3q4 0 9.5 4t13.5 4h6q3 0 18.5 -4t24.5 -4q9 -15 18 -47.5t18 -77t19.5 -98t22.5 -111.5q0 -2 2.5 -19.5t6 -43t8 -55.5t8 -55t6 -42.5l2.5 -17.5q-1 -4 0 -8
q0 -4 1 -9t3 -10q2 5 2.5 10t1.5 9l2 8l2.5 17.5t6 42.5t8 55t8 55.5t6 43t2.5 19.5q12 58 22 111.5t19.5 98t18.5 77t18 47.5q10 0 23 1t25 3q14 2 29 4h6q2 0 2.5 -4t2.5 -4q14 0 16 3t2 5h92l13 0.5t32.5 1t43.5 1t46.5 1t39.5 0.5h24q15 0 22 -15.5t7 -37.5
q-6 -15 -9.5 -30.5t-5 -30.5t-2 -27t-0.5 -19q-25 -114 -55.5 -238t-61.5 -239l-120 -491q-14 -5 -16.5 -12t-2.5 -9l-14 2q-11 0 -20.5 -5t-20.5 -5q-25 0 -47.5 4t-46.5 4q-3 -3 -13 -5t-24 -3t-31 -1.5t-33 -0.5q-38 0 -59 1.5t-37.5 3.5t-33 3.5t-44.5 1.5z" />
    <glyph glyph-name="x" unicode="x" horiz-adv-x="1645" 
d="M712 98l-36 -57l-41 -39l-19 4q-1 0 -8 -3t-16.5 -6.5t-19 -6t-13.5 -0.5q-12 3 -38.5 4t-61 1.5t-75 1t-80.5 1t-77.5 2.5t-66.5 6h-7q-15 0 -14.5 12t0.5 21q0 10 8 30t20.5 45.5t27.5 54t30 54.5t28 48t21 34q5 8 14.5 25.5t21.5 41.5t26 51.5t28 55.5q33 65 70 142
q-9 15 -18 31q-8 14 -17.5 30t-17.5 33q-3 2 -18 26t-36.5 59t-46 74.5t-45.5 74.5t-36.5 58.5t-18.5 26.5q-8 11 -21 30.5t-25.5 42t-22 46t-9.5 41.5l47 6q1 0 21.5 -1t53 -2t74 -2.5t84.5 -3.5t84 -3.5t74 -2.5t53.5 -2t22.5 -1q7 0 22.5 -19t35 -48.5t40.5 -64t39 -65.5
t30.5 -53t14.5 -27q0 -5 2.5 -11t5.5 -11t5.5 -9t3.5 -4q6 5 11 10q8 8 20 25q2 5 14.5 27t30.5 53t39 65.5t40.5 64t35 48.5t22.5 19q2 0 37.5 1.5t86.5 3.5t110.5 4t110.5 4t85.5 3.5t36.5 1.5l47 -6q0 -17 -9 -37.5t-22 -40.5t-26 -37t-21 -26q-3 -3 -18.5 -28.5
t-36.5 -62t-45.5 -79t-46 -79t-36.5 -62t-18 -27.5q-11 -17 -23.5 -33t-23.5 -30q-12 -16 -24 -31q30 -55 56 -102l22 -40t20.5 -37.5t17 -31t11.5 -19.5q10 -17 28 -47.5t38.5 -67t42 -75.5t38.5 -74.5t28 -63t11 -40.5q0 -10 0.5 -21.5t-14.5 -11.5h-6q-28 0 -64 1t-75 2
t-77 1.5t-71 0.5t-58 -1t-36 -4q-6 -2 -15.5 0.5t-19.5 6t-17 6.5t-8 3q-2 0 -9 -2t-9 -2l-41 39v12q0 6 -4.5 2.5t-14.5 5.5l-90 160q-4 9 -12 25.5t-17.5 32t-18.5 27t-13 11.5l-47 -96z" />
    <glyph glyph-name="y" unicode="y" horiz-adv-x="1499" 
d="M855 -209q-13 -24 -23.5 -34.5t-26.5 -10.5q-11 0 -25.5 4.5t-36.5 12.5q-10 3 -25 9t-26 8q-16 2 -28 10t-27 11q-2 1 -9.5 2t-16 2t-16 2t-8.5 2q-65 18 -133 48t-133 56q-7 2 -9.5 8t-2.5 13q0 16 6 24q16 26 29.5 49.5t26 46t26.5 45t32 46.5q7 8 14 22.5t13 28.5
q7 16 14 33q-13 24 -34.5 59.5t-44 70.5t-43 65t-32.5 42q-6 11 -19.5 34t-30.5 52.5t-35.5 61t-34.5 61t-29 52.5t-19 34q-8 12 -23.5 41t-30.5 60.5t-26.5 59.5t-11.5 39q0 9 16 21t38.5 24.5t46.5 23.5t39 17q45 19 78 34t64 28.5t64.5 27.5t80.5 32q10 4 21 5t20 1
q10 0 20.5 -7.5t22.5 -33.5q37 -77 74 -156.5t86 -173.5q3 -6 7 -13.5t9 -14t11 -11.5t12 -5q9 0 16 16l141 366q3 12 12.5 23t22.5 18t27.5 10t27.5 -1q43 -12 94.5 -29.5t103.5 -38.5t100 -44t84 -45q21 -13 26 -28.5t2 -31t-10.5 -29t-12.5 -23.5l-326 -711l-18 -39z" />
    <glyph glyph-name="z" unicode="z" horiz-adv-x="1274" 
d="M141 375q106 106 190 195q36 38 70 75.5t61 69.5t43.5 56t16.5 34q0 8 -8 8l-336 4q-26 0 -39.5 25t-20 60t-7.5 71.5t-1 60.5q0 7 1 27t2 41.5t2 38.5t1 18l9 10q12 13 35 13q11 0 22 -2t21 -2q65 0 129 5t129 5q128 0 252 3t255 3q60 0 97 -3.5t57.5 -9t27.5 -12.5
t7 -14v-285q0 -20 -12 -54.5t-51.5 -93t-113.5 -147t-198 -215.5h322q17 0 31 -11.5t14 -22.5v-287q0 -5 -2 -11.5t-13.5 -12.5t-37 -10.5t-72.5 -4.5h-312q-74 0 -138 0.5t-125.5 1.5t-125 1.5t-137.5 0.5q-15 0 -30 15t-15 30v326z" />
    <glyph glyph-name="braceleft" unicode="{" horiz-adv-x="1023" 
d="M712 1203q0 -53 -7 -105.5t-22.5 -101t-39 -91t-56.5 -75.5q-18 -18 -37.5 -29t-41 -19.5t-45 -16t-48.5 -17.5q25 -11 48.5 -19t44.5 -18t40.5 -22.5t38.5 -31.5q32 -33 55.5 -74.5t39 -89t23 -98t7.5 -101.5q0 -34 23 -60.5t64 -34.5q29 -6 58.5 -7t60.5 -6l-31 -304
q-60 -40 -117.5 -57t-110.5 -17q-93 0 -166 37.5t-123.5 105t-77 161.5t-26.5 207q0 45 -16 84.5t-43 69.5t-63.5 47t-77.5 17q-8 0 -12 12t-6.5 33t-2.5 50t1 63q1 13 1.5 26.5t2.5 27.5l6 221q43 12 81.5 31t67 45.5t45 61.5t16.5 80q0 111 26.5 203t77 158t123.5 103
t166 37q53 0 110.5 -17t117.5 -57l31 -304q-31 -5 -60.5 -6t-58.5 -7q-41 -8 -64 -34.5t-23 -60.5z" />
    <glyph glyph-name="bar" unicode="|" horiz-adv-x="810" 
d="M685 408q-2 -45 -2.5 -104t-1 -122t-1.5 -125.5t-3.5 -114.5t-6.5 -89t-10 -49q-23 0 -52 -1.5t-55 -3t-44 -2.5t-19 -1h-6q-12 0 -18.5 4t-14.5 4q-4 -1 -8 -3q-8 -4 -8 -5h-190q-1 -1 -10 -1.5t-20.5 -1t-21.5 -1t-14 -0.5q-17 0 -28 11.5t-17.5 29.5t-9.5 39.5
t-4.5 42.5t-1.5 38.5v26.5q0 41 0.5 98.5t1 123t1 135.5t1 135.5t1.5 123t3 98.5v819q0 17 11 19t24 2q63 0 119.5 1t119.5 1q9 0 19 2.5t28 4t47 0.5t74 -7q8 -8 16.5 -5.5t16.5 5.5q28 0 46.5 -3.5t29.5 -19t15.5 -46t4.5 -84.5v-572q0 -1 -1 -30.5t-2 -74t-3 -95.5
t-3 -95.5t-2 -75t-1 -32.5z" />
    <glyph glyph-name="braceright" unicode="}" horiz-adv-x="1023" 
d="M311 1203q0 34 -23 60.5t-64 34.5q-29 6 -58.5 7t-60.5 6l31 304q60 40 117.5 57t110.5 17q93 0 166 -37t123.5 -103t77 -158t26.5 -203q0 -45 16.5 -80t45 -61.5t67 -45.5t81.5 -31l6 -221q2 -14 2.5 -27.5t1.5 -26.5q1 -34 1 -63t-2.5 -50t-7 -33t-11.5 -12
q-41 0 -77.5 -17t-63.5 -47t-43 -69.5t-16 -84.5q0 -113 -26.5 -207t-77 -161.5t-123.5 -105t-166 -37.5q-53 0 -110.5 17t-117.5 57l-31 304q31 5 60.5 6t58.5 7q41 8 64 34.5t23 60.5q0 51 7 101.5t21 98t36 89t51 74.5q19 19 38.5 31.5t40.5 22.5t44 18t49 19
q-26 10 -49 17.5t-44.5 16t-41 19.5t-37.5 29q-30 33 -52 75.5t-36 91t-20.5 101t-6.5 105.5z" />
    <glyph glyph-name="asciitilde" unicode="~" horiz-adv-x="1344" 
d="M895 1044l283 1q13 0 24.5 -22t20.5 -57.5t14.5 -79.5t5.5 -88q0 -8 -0.5 -15t-0.5 -15q-2 -45 -31 -97t-78 -96t-115.5 -73.5t-143.5 -29.5q-63 0 -110 17t-84 43t-67 55.5t-58 55.5t-56.5 43t-62.5 17q-18 0 -28 -13t-15.5 -32t-7.5 -42t-4 -42t-6 -32t-13 -13
q-3 0 -4 1q-66 20 -111.5 29t-75 13t-46 5.5t-24.5 6.5t-9.5 17t-1.5 36q0 36 1.5 81t12 92.5t33 93t65 81t108 57.5t162.5 22q34 0 68.5 -9.5t65.5 -25t56.5 -35t41.5 -39.5q11 -14 22.5 -32.5t25.5 -35.5t31 -28.5t39 -11.5q30 0 41.5 12t11.5 30t-3.5 39.5t-7.5 41
t-7.5 35.5t-3.5 23q0 9 10.5 12.5t20.5 3.5h11z" />
    <glyph glyph-name="exclamdown" unicode="&#xa1;" horiz-adv-x="821" 
d="M651 1038.02q0 32.998 0.5 57.9971q0.5 24.998 1.5 46.9971q1 21.998 2 44.4971t2 52.4971q1 50.9971 -0.5 78.4951t-9.5 40.9971q-8 13.5 -24.5 15.999q-16.5 2.5 -45.5 2.5q-31 0 -55.5 -0.5t-56.5 -5.49902q-1 -1 -22 -1.5t-52.5 -1t-68 -1t-67.5 -2.5t-52 -5.5
t-21 -9.49902l-6 -177.989q-1 -32.998 -1 -51.4971t0.5 -28.998t1 -14.999t1.5 -9.49902q1 -5 1.5 -12.5q0.5 -7.49902 0.5 -23.498q-1 -4 2 -10.5q3 -6.49902 8 -11.499t12 -8.99902q7 -4 15 -4q16 0 40 -0.5t49.5 -0.5t50 -0.5t42.5 -0.5h80q28 0 58 2t55.5 7
q25.5 4.99902 42 13.499q16.5 8.49902 16.5 20.498zM143 491.052q-2 -12 -4 -40.998t-4.5 -60.4961t-4 -56.4971q-1.5 -24.998 -1.5 -27.998q0 -16.999 -4 -47.4971t-9.5 -63.4961t-9.5 -63.9961t-4 -49.9971q0 -21.998 -3 -41.9971t-11 -43.9971q-2 -9 12.5 -14.499
q14.5 -5.5 38 -9t53 -5q29.5 -1.49902 56.5 -2.99902t48 -3.5t29 -6h344q12 7 26.5 12q14.5 4.99902 28 12.499q13.5 7.49902 22.5 18.999q9 11.499 9 29.498q0 37.9971 -5 76.4951q-5 38.4971 -17 75.4951l-51 298.982q-2 2.99902 -3.5 14.999q-1.5 11.999 -3.5 25.998
t-3.5 25.998q-1.5 12 -2.5 14.999q0 52.9971 -16.5 124.493q-16.5 71.4951 -32.5 147.49q-3 11 -29 16.499q-26 5.5 -66 7.5t-90.5 2.5t-102.5 0.5q-7 0 -28 -1.5t-44.5 -4t-43 -5.5q-19.5 -2.99902 -24.5 -5.99902q-4 -6 -7 -23.999t-6 -38.4971q-3 -20.499 -4.5 -38.998
t-2.5 -24.498q-2 -12 -5.5 -43.998t-8 -67.9951q-4.5 -35.998 -9 -67.9961t-6.5 -43.9971z" />
    <glyph glyph-name="cent" unicode="&#xa2;" horiz-adv-x="1212" 
d="M885 408q-5 -25 -6 -55t-6 -62q52 11 109.5 38t113.5 60l20 -291q-54 -45 -125.5 -78t-147.5 -51q-8 -62 -16.5 -106.5t-16.5 -58.5q-29 -18 -51.5 -24.5t-39 -5.5t-25.5 6.5t-9 11.5l11 159q-78 1 -157.5 7.5t-152.5 28t-137 61.5t-111 106.5t-74 163t-27 231.5
q0 163 46 289.5t126 213.5t188.5 132t233.5 45q40 0 83 -3t85 -9l22 296q1 17 14.5 19t29.5 2v2q34 0 56.5 -3.5t34.5 -19t15.5 -46t-0.5 -84.5l-15 -210q47 -15 95 -34.5t96 -42.5l-28 -232q-44 9 -91 19t-92 15q-4 -39 -5.5 -62.5t-1.5 -24.5t-3 -30.5t-8 -74t-10.5 -95.5
t-10.5 -95.5t-8.5 -75t-3.5 -32.5zM635 573q0 -91 24.5 -148.5t67.5 -90.5q5 105 11.5 201t11.5 159l23 182q-31 -15 -56.5 -39t-43.5 -60.5t-28 -87t-10 -116.5z" />
    <glyph glyph-name="sterling" unicode="&#xa3;" horiz-adv-x="1508" 
d="M206 -44q-25 14 -93 28l-40 41q0 2 -1.5 4.5t-1.5 5.5q0 7 1.5 28t4.5 48t6.5 56.5t6.5 54.5t5.5 41t4.5 16q17 -8 30 -12t25 -6t23.5 -2.5t26.5 -0.5q24 0 41 17.5t28 41t16 48t5 38.5q0 23 -2 53.5t-4 73.5q-29 0 -55 2t-45.5 7t-30.5 13.5t-11 22.5q0 34 -0.5 61.5
t-0.5 54t-0.5 53.5t-0.5 61q0 7 7 14t17.5 12.5t22.5 9t23 3.5h78q9 96 31.5 181.5t54.5 158.5q63 134 174.5 203t257.5 69q124 0 255.5 -38t262.5 -115l-37 -267q-59 14 -121.5 29.5t-122.5 15.5q-20 0 -38.5 -18t-30.5 -66v-155h123q25 0 53.5 -1t52.5 -5t39.5 -12
t15.5 -23q0 -33 -1.5 -57t-3 -44.5t-2.5 -40.5t-1 -45q0 -19 -2.5 -34.5t-16 -26.5t-41 -17t-77.5 -6h-203q0 -38 -1 -113.5t-3 -115.5q35 14 90.5 11t143.5 14q60 0 122.5 15.5t120.5 29.5l37 -267q-131 -77 -327.5 -115t-370.5 -38q-28 0 -55.5 2t-53 13.5t-411.5 -10.5z
" />
    <glyph glyph-name="currency" unicode="&#xa4;" horiz-adv-x="1223" 
d="M572 356q-56 -1 -111.5 13t-110.5 53l-78 -75l-14 -18t-15 -14t-17.5 -5t-20.5 10q-12 10 -22 17.5t-19 14.5t-18.5 14t-21.5 17q-8 7 -11.5 19t1.5 17q26 26 53 52.5t53 52.5q-33 32 -56.5 69.5t-38.5 76t-22 76.5t-7 70q0 100 36 199t102 174q-16 19 -30 36.5t-25 31.5
q-13 16 -24 30q-11 13 -13.5 23.5t1 19t12.5 17t21 17.5q13 11 20.5 21.5t26.5 26.5q9 7 18.5 5t19 -8.5t18.5 -17t17 -20.5q18 -23 35 -44t34 -41q32 14 65.5 21.5t70.5 7.5q13 0 27 -0.5t27 -2.5q2 2 6 2h7q55 0 98.5 -1.5t79.5 -6.5t66.5 -15t59.5 -27q17 22 35.5 44.5
t38.5 48.5q9 10 18.5 20t19 16.5t19 7.5t17.5 -6q19 -17 26 -27.5t20 -21.5q23 -20 31.5 -36t-13.5 -42q-12 -14 -25 -31q-11 -14 -26 -33t-32 -39q65 -65 95 -145t30 -190q0 -82 -24.5 -164.5t-82.5 -155.5l-10 -14q20 -24 39.5 -48t39.5 -48q5 -5 1.5 -17.5t-12.5 -18.5
q-12 -9 -21.5 -16t-19 -13.5t-19.5 -13.5t-23 -17q-12 -9 -21 -9t-17 5.5t-14.5 15t-13.5 18.5l-50 61q-36 -14 -74 -22t-77.5 -12t-78.5 -4.5t-76 -0.5zM429 809q0 -1 2 -13t8 -29.5t17 -37t29 -36.5t43 -28.5t60 -11.5q46 0 79.5 12.5t56.5 32.5t37.5 43.5t22.5 45.5
t10.5 39.5t2.5 25.5q0 -1 -0.5 13t-6 35t-17.5 46t-35.5 46.5t-60 36t-89.5 14.5q-22 0 -49.5 -8t-52 -31t-41.5 -63.5t-17 -105.5v-12t1 -14z" />
    <glyph glyph-name="yen" unicode="&#xa5;" horiz-adv-x="1685" 
d="M338 471q-30 0 -60 -0.5t-54 1.5t-39 8t-15 20q0 24 -0.5 44t-0.5 38.5t-0.5 38t-0.5 43.5q0 8 17 16t34 8h84q-34 62 -65 126.5t-56 127.5q-6 13 -16 35.5t-21.5 50.5t-23.5 58t-21.5 57t-15.5 49t-6 33q0 10 12 21t31 21.5t40.5 19t41.5 13.5q49 13 83 24.5t50 14.5
q19 4 44 8.5t53 9.5t57 11t57 14q3 0 6 1q2 0 4.5 0.5t3.5 0.5q20 0 34 -5.5t25 -15.5t19.5 -25t17.5 -33q2 -13 7 -28.5t10 -30.5t9.5 -27.5t6.5 -20.5q7 -23 17.5 -53t22.5 -63.5t24.5 -69t24.5 -69.5q28 -79 58 -165q52 125 96 232q19 46 37.5 92t34.5 87t28 73t17 49
q5 14 9 25.5t9.5 20t15 13t24.5 4.5q32 0 77 -6.5t94.5 -18t101 -27.5t96.5 -34t80.5 -38t54.5 -40q0 -29 -8 -54.5t-17 -47.5q-60 -108 -120 -211.5t-120 -208.5h41q19 0 40.5 -0.5t38.5 -3.5t28.5 -8t11.5 -14q0 -25 -1 -43t-2 -33.5t-2 -30t-1 -31.5q0 -12 -2 -22
t-12 -16.5t-30 -10.5t-56 -4h-179l-53 -94q-6 -14 -15.5 -29t-19.5 -29h254q19 0 40.5 -0.5t38.5 -3.5t28.5 -8t11.5 -14q0 -25 -1 -43t-2 -33.5t-2 -29.5t-1 -31q0 -12 -2 -22t-12 -17t-30 -11t-56 -4h-287v-196q-16 -6 -18.5 -9.5t-2.5 -5.5q-2 4 -2 6.5t-2 4.5
q-8 -2 -11 -5l-3 -3q-15 -2 -17.5 0.5t-2.5 13.5q-51 -9 -94 -9.5t-74 -0.5q-3 0 -11 -1.5t-17.5 -3t-17.5 -3t-10 -1.5q-15 -1 -43 -1t-61 1t-67 3.5t-62 7t-46.5 11.5t-19.5 17q-2 9 -2.5 27t-0.5 41.5t0.5 51t0.5 54.5h-192q-30 0 -60 -0.5t-54 1.5t-39 8t-15 20
q0 25 -0.5 44.5t-0.5 38t-0.5 38t-0.5 43.5q0 8 17 16t34 8h293q-16 28 -36.5 70t-33.5 82h-4q-3 0 -3.5 -1t-2.5 -1q-4 0 -6 2h-88z" />
    <glyph glyph-name="brokenbar" unicode="&#xa6;" horiz-adv-x="738" 
d="M618 159q0 -131 -3 -237q-1 -45 -2.5 -90t-4 -81.5t-5.5 -62.5t-7 -33q-20 0 -46 -1t-49 -2.5t-40 -2.5t-20 -1q13 0 -12 -0.5t-69 -1.5t-96 -1.5t-93 -0.5q-23 0 -33.5 21.5t-15 50t-4.5 55.5t-1 39q0 32 0.5 76.5t1 95t1 104.5t1 104.5t1.5 95t2 76.5v81q0 14 10 16.5
t21 2.5q56 0 105.5 0.5t105.5 0.5h178q25 0 41 -3t26 -16.5t14 -40.5t4 -75q0 -18 -1.5 -42.5t-3.5 -48.5t-4 -45t-2 -33zM618 1183q0 -118 -3 -214q-1 -41 -2.5 -81t-4 -73t-5.5 -56t-7 -30q-20 0 -46 -1t-48.5 -2.5t-38.5 -2.5t-17 -1h-5q-11 0 -16.5 3.5t-12.5 3.5
q-4 -2 -8 -3l-7 -4h-168q-1 0 -9 -0.5t-17.5 -1l-19 -1t-12.5 -0.5q-23 0 -33.5 21.5t-15 49.5t-4.5 55.5t-1 39.5q0 32 0.5 76.5t1 95t1 104t1 104t1.5 95t2 76.5v82q0 14 10 16t21 2q56 0 105.5 1t105.5 1q8 0 17 2t25 3.5t41.5 1t65.5 -6.5q8 -7 14.5 -5t14.5 5
q25 0 41 -3t26 -16.5t14 -40.5t4 -75q0 -24 -1.5 -55.5t-3.5 -62.5t-4 -58.5t-2 -43.5z" />
    <glyph glyph-name="section" unicode="&#xa7;" horiz-adv-x="1211" 
d="M1112 571q-17 -48 -47.5 -90t-78.5 -77q45 -35 70.5 -79t25.5 -101q0 -25 -2.5 -45.5t-10.5 -42.5q-23 -61 -70.5 -111.5t-108 -86.5t-129 -57t-132.5 -22l-269 -5q-4 2 -21.5 5.5t-42 7.5t-51 9t-50 11t-39 13.5t-16.5 15.5l-44 227v10q0 9 3.5 17t14.5 9
q120 -45 234 -45q25 0 56 -1t57 2.5t44 13.5t18 32q0 29 -23 46.5t-56 29.5t-69 20.5t-61 19.5q-2 0 -8 4t-14 9t-15.5 10t-11.5 8q8 0 -1 4.5t-23.5 12.5t-27.5 18t-13 21v9q-17 0 -31.5 13.5t-26 35t-21 48t-15.5 52.5t-9 49t-3 37q0 72 28 127t77 97q-17 21 -31 50
t-25 58.5t-17 56.5t-6 45q0 95 41 160t108.5 108t154 66.5t178.5 35t181.5 13.5t162.5 2q24 -8 41 -11t28 -8.5t17 -17t10 -36t6 -66t5 -106.5q10 -16 -11.5 -23t-59 -11.5t-84 -8t-87.5 -13t-68.5 -27.5t-27.5 -50q0 -12 3.5 -20t17.5 -17q73 -37 143.5 -70.5t125 -74
t88 -94.5t33.5 -132q0 -26 -3 -46.5t-11 -43.5zM731 578q0 34 -19 59t-50.5 44.5t-72 35t-83.5 29.5q-16 -19 -16 -47q0 -21 3 -36t17 -31q49 -34 94.5 -63.5t90.5 -58.5q17 11 26.5 27.5t9.5 40.5z" />
    <glyph glyph-name="dieresis" unicode="&#xa8;" horiz-adv-x="1347" 
d="M564 1735q14 0 18 -15t4 -37q0 -18 -1 -39.5t-1 -39.5q0 -5 0.5 -14.5t0.5 -21t0.5 -23.5t0.5 -21q0 -23 1.5 -45t1.5 -45q0 -20 -6.5 -37t-24.5 -19h-408l-14 13l-14 65v60q0 20 -2.5 39.5t4.5 39.5l10 64q0 3 -1 7t-1 7q6 18 10.5 30t10.5 18.5t14.5 9t23.5 2.5h213
q26 3 42.5 4.5t27.5 1.5q10 0 16 -1t11.5 -2t11.5 -2t16 -1h13t16 2h6zM1203 1735q14 0 18 -15t4 -37q0 -18 -1 -39.5t-1 -39.5q0 -5 0.5 -14.5t0.5 -21t0.5 -23.5t0.5 -21q0 -14 -2 -24.5t-2 -18.5q0 -13 3.5 -22.5t3.5 -24.5q0 -20 -6.5 -37t-24.5 -19h-305l-117 13
l-14 65v60q0 15 -0.5 26t-4.5 27q-1 4 -1.5 9t-0.5 16.5t-0.5 31.5t-1.5 53q0 3 -1 7.5t-1 7.5q9 13 15 21t14 12t19.5 5t31.5 1h213q26 3 42.5 4.5t27.5 1.5q10 0 16 -1t11 -2t11.5 -2t16.5 -1h13t16 2h6z" />
    <glyph glyph-name="copyright" unicode="&#xa9;" horiz-adv-x="2130" 
d="M1108 654q0 -73 10 -122.5t28 -80t43 -44t55 -13.5q48 0 104.5 28t112.5 66l18 -263q-31 -31 -72.5 -55.5t-86.5 -42t-91 -26.5t-86 -9q-67 0 -135.5 5.5t-132.5 24t-120 54t-97.5 95.5t-65.5 148t-24 213q0 147 41.5 261.5t113.5 192.5t170 119t211 41q97 0 198.5 -30
t204.5 -90l-25 -210q-47 12 -96 24t-97 12q-38 0 -70.5 -12.5t-57.5 -46t-39 -91.5t-14 -148zM1755 675q0 173 -56 299.5t-149.5 208.5t-214.5 121.5t-251 39.5q-84 0 -168.5 -20.5t-162 -60.5t-145 -99t-117.5 -135t-78.5 -169.5t-28.5 -202.5q0 -171 55.5 -299t147 -212.5
t209 -127t242.5 -42.5q88 0 175.5 19.5t167 58.5t148 97.5t119 136t79 174.5t28.5 213zM2045 696q0 -163 -41 -299t-113 -245t-169.5 -191.5t-211.5 -137t-239 -82t-251 -27.5q-118 0 -233.5 26t-219.5 77.5t-192.5 129.5t-153 182t-101 234t-36.5 287q0 153 41.5 284
t114.5 238.5t171.5 190t212.5 138.5t237.5 85t246.5 29q121 0 237 -24t220.5 -73t192.5 -124t151.5 -177.5t99.5 -232t36 -288.5z" />
    <glyph glyph-name="ordfeminine" unicode="&#xaa;" horiz-adv-x="1386" 
d="M1268 750q0 -89 -1.5 -140t-3.5 -84.5t-3.5 -60t-1.5 -67.5q0 -18 -1 -37.5t-5.5 -35.5t-14 -26.5t-26.5 -10.5q-61 0 -103 1t-78 2t-70.5 2t-80.5 1q-24 0 -42.5 2t-31 11t-19 27t-6.5 50q0 3 0.5 15t1 25t0 22.5t-2.5 7.5q-36 -62 -73 -98t-72 -54t-67 -23t-60 -5
q-93 0 -168.5 26.5t-129 86.5t-83 156.5t-29.5 236.5q0 85 22.5 148.5t60 109t87 75t103 46.5t107.5 24t102 7q85 0 156.5 -3t131.5 -3q63 0 149.5 2t204.5 2q17 0 32 -15t15 -32v-391zM796 714q-1 85 -10 153q-4 28 -10 55.5t-14.5 49.5t-20.5 35t-27 13q-35 0 -59 -14
t-39.5 -35.5t-24 -47t-12.5 -48t-4.5 -38.5t-0.5 -18q0 -16 0.5 -47t2.5 -67.5t7 -75t14 -69.5t22.5 -51t33.5 -20q27 0 47 9.5t35 25.5t25 36t17 41q16 49 18 113z" />
    <glyph glyph-name="guillemotleft" unicode="&#xab;" horiz-adv-x="1688" 
d="M589 696q-47 -23 -96.5 -43t-95.5 -37q103 -47 184 -87q34 -17 67.5 -35t59 -34.5t41.5 -30.5t16 -23v-43.5t2 -43.5l-8 -8l4 -12l2 -129q0 -25 -0.5 -57t0.5 -60q0 -18 -12.5 -25.5t-28.5 -7.5h-10t-10 1t-11 2q-117 54 -224 109q-46 23 -94.5 49t-94.5 52.5t-87.5 52.5
t-72.5 50l-16 12l-25 103v124l2 80v15q0 21 -1.5 45t-1.5 50q0 27 4 52.5t18 46.5l22 33q154 85 297 162.5t279 146.5q4 0 8.5 0.5t9.5 0.5q7 0 10 -1h6q22 0 28.5 -11t6.5 -38q0 -20 -1 -40.5t-1 -41.5q2 -5 1 -10t1 -8v-45q-2 -83 -2 -131v-80q0 -8 -20.5 -20.5
t-48.5 -27.5t-58 -30t-49 -27zM1391 696q-47 -23 -96.5 -43t-95.5 -37q103 -47 184 -87q34 -17 67.5 -35t59 -34.5t41.5 -30.5t16 -23v-43.5t2 -43.5l-8 -8l4 -12l2 -129q0 -25 -0.5 -57t0.5 -60q0 -18 -12.5 -25.5t-28.5 -7.5h-10t-10 1t-11 2q-91 45 -181 92
q-38 20 -79.5 41.5t-83 44t-80.5 44.5t-73 43l-96 58l-21 229l2 80v15q0 21 -1.5 45t-1.5 50q0 13 -2 30t0.5 34.5t12.5 35t33 32.5q64 41 136.5 81.5t147.5 79.5t149.5 76t142.5 72q4 0 8.5 0.5t9.5 0.5q7 0 10 -1h6q22 0 28.5 -11t6.5 -38q0 -20 -1 -40.5t-1 -41.5
q2 -5 1 -10t1 -8v-45q-2 -83 -2 -131v-80q0 -8 -20.5 -20.5t-48.5 -27.5t-58 -30t-49 -27z" />
    <glyph glyph-name="logicalnot" unicode="&#xac;" horiz-adv-x="1079" 
d="M321 1054q13 0 53.5 -0.5t95 -1.5t116 -2.5t116 -2.5t95 -1.5t53.5 -0.5q18 0 37.5 -1.5t36 -6.5t27.5 -15t11 -28q0 -39 -1 -83t-1.5 -87t-1.5 -81.5t-1 -67.5q-2 -42 -3.5 -81t-1.5 -80q0 -18 -1 -37.5t-6 -36t-15 -27.5t-27 -11q-40 0 -68.5 1t-52 1.5t-46.5 1.5
t-52 1q-24 0 -41 2.5t-27.5 11.5t-15.5 28t-5 52q0 3 -0.5 15t-0.5 26.5t-0.5 27t-0.5 16.5q0 5 0.5 18t1 27t0.5 26.5v17.5h-389q-29 0 -57 -0.5t-50.5 3.5t-36.5 15.5t-14 34.5q0 41 -0.5 74.5t-0.5 65t-0.5 64.5t-0.5 74q0 8 4.5 16.5t12 15.5t15.5 11.5t16 4.5h227z" />
    <glyph glyph-name="registered" unicode="&#xae;" horiz-adv-x="2130" 
d="M1755 675q0 173 -56 299.5t-149.5 208.5t-214.5 121.5t-251 39.5q-84 0 -168.5 -20.5t-162 -60.5t-145 -99t-117.5 -135t-78.5 -169.5t-28.5 -202.5q0 -171 55.5 -299t147 -212.5t209 -127t242.5 -42.5q88 0 175.5 19.5t167 58.5t148 97.5t119 136t79 174.5t28.5 213z
M2045 696q0 -163 -41 -299t-113 -245t-169.5 -191.5t-211.5 -137t-239 -82t-251 -27.5q-118 0 -233.5 26t-219.5 77.5t-192.5 129.5t-153 182t-101 234t-36.5 287q0 153 41.5 284t114.5 238.5t171.5 190t212.5 138.5t237.5 85t246.5 29q121 0 237 -24t220.5 -73t192.5 -124
t151.5 -177.5t99.5 -232t36 -288.5zM1541 272q-3 -7 -18.5 -18.5t-37.5 -25t-47 -27t-47.5 -23.5t-38 -15.5t-18.5 -2.5q-34 34 -61 67.5t-55 73.5t-59 91t-73 121q-1 2 -4 2t-8 -1.5t-6 -1.5q-1 -17 -1.5 -47.5t-1.5 -66t-1.5 -73t-2.5 -67.5t-4.5 -49.5t-6.5 -19.5
q-5 0 -9.5 1t-6.5 1q-64 -5 -124.5 -9t-125.5 -4q-9 0 -23 0.5t-28 0.5t-24.5 0.5t-11.5 0.5l-48 16l-5 11l-1.5 16.5t-3.5 42t-4.5 57.5t-4.5 64.5t-4.5 62.5t-3.5 52q-3 42 -7 88.5t-4 90.5q0 3 1 15t1.5 26t1.5 26t1 15t-1 11t-1.5 17.5t-1.5 18t-1 10.5q0 22 1 39.5
t2 35.5t2 39.5t1 51.5v16t-0.5 23t-0.5 23v16q-5 5 -5 10q0 27 11.5 42.5t27.5 23.5t32.5 10.5t25.5 2.5q182 0 316.5 -7t229 -22.5t154.5 -40.5t94 -61t46.5 -84.5t12.5 -110.5q0 -54 -15.5 -91.5t-36 -61.5t-41.5 -37t-33 -20q6 -20 21 -45t33.5 -52t38.5 -54t37 -50.5
t29 -42t15 -27.5q15 -6 6.5 -18.5t-25.5 -24.5q-19 -15 -49 -31zM1058 935q-1 -51 -4 -101.5t-3 -101.5q11 0 25.5 2t28.5 5.5t26.5 9t20.5 11.5q22 15 40.5 33t18.5 47q0 25 -7.5 43t-19.5 29.5t-27 17t-30 5.5h-43h-26z" />
    <glyph glyph-name="macron" unicode="&#xaf;" horiz-adv-x="1094" 
d="M710 1455q-3 0 -20 0.5t-41.5 0.5t-52.5 1t-52.5 1t-41.5 0.5t-20 0.5h-205q-29 0 -57 -0.5t-50.5 3.5t-36.5 15.5t-14 34.5q0 41 -0.5 72.5t-0.5 61t-0.5 60.5t-0.5 72q0 8 4.5 16.5t12 15.5t15.5 11.5t16 4.5h227q11 0 47 -0.5t84.5 -1.5t103 -2.5t102.5 -2.5t84 -1.5
t48 -0.5q18 0 37.5 -1.5t36 -6.5t27.5 -15t11 -28q0 -30 0.5 -48.5t1 -31.5t1 -23t1 -23t1 -31t0.5 -47q0 -18 -1 -37.5t-6 -36t-15 -27.5t-27 -11q-40 0 -69.5 1t-54 1.5t-47 1.5t-48.5 1z" />
    <glyph glyph-name="degree" unicode="&#xb0;" horiz-adv-x="1092" 
d="M512 549q-65 -1 -132 11.5t-130 49.5q-44 25 -74.5 67t-49.5 90.5t-27.5 98t-8.5 91.5q0 78 25 156.5t71.5 142t113 103.5t149.5 40q12 0 24.5 -0.5t23.5 -2.5q2 2 5.5 2h5.5q54 0 95 -1.5t75 -6t62.5 -13.5t56.5 -24q54 -36 92.5 -75.5t64 -85.5t37.5 -101t12 -122
q0 -73 -20.5 -145.5t-63.5 -133.5l-10 -5q-33 -50 -79.5 -77.5t-100 -40.5t-109.5 -15.5t-108 -2.5zM386 923q0 -1 4.5 -18.5t19.5 -38t43 -37.5t74 -17q45 0 77.5 13t55 33t36.5 44t21.5 47t10 40.5t2.5 25.5q0 -1 -0.5 9.5t-6 26.5t-17.5 34.5t-34.5 34.5t-58 27t-86.5 11
q-20 0 -44.5 -8.5t-46 -31.5t-36.5 -64t-15 -107v-11t1 -13z" />
    <glyph glyph-name="plusminus" unicode="&#xb1;" horiz-adv-x="1079" 
d="M242 753q-29 0 -57 -0.5t-50.5 3.5t-36.5 15.5t-14 34.5q0 41 -0.5 74.5t-0.5 65t-0.5 64.5t-0.5 74q0 8 4.5 16.5t12 15.5t15.5 11.5t16 4.5h227v104q0 28 -0.5 56.5t4 51t15.5 36.5t35 14q41 0 74 0.5t64.5 0.5t64.5 0.5t74 0.5q8 0 16.5 -4.5t15 -12t11 -16t4.5 -15.5
v-220q38 -2 75 -3.5t76 -1.5q18 0 37.5 -1.5t36 -6.5t27.5 -15t11 -28q0 -39 -1 -67t-1.5 -52t-1.5 -46.5t-1 -51.5q0 -24 -2.5 -43t-11.5 -32t-28 -20t-52 -7h-168q-2 -42 -3.5 -81t-1.5 -80q0 -18 -1 -37.5t-6 -36t-15 -27.5t-27 -11q-40 0 -68.5 1t-52 1.5t-46.5 1.5
t-52 1q-24 0 -43 2.5t-31.5 11.5t-19.5 28t-7 52q0 3 1.5 15t3.5 26.5t3.5 27t1.5 16.5q0 5 -1.5 18t-3 27t-3.5 26.5t-2 17.5h-115zM242 -24q-29 0 -57 -0.5t-50.5 3.5t-36.5 15.5t-14 34.5q0 41 -0.5 74.5t-0.5 65t-0.5 64.5t-0.5 74q0 8 4.5 16.5t12 15.5t15.5 11.5
t16 4.5h465q83 0 151.5 -4.5t139.5 -4.5q18 0 37.5 -1.5t36 -6.5t27.5 -15t11 -28q0 -39 -1 -67t-1.5 -52t-1.5 -46.5t-1 -51.5q0 -24 -2.5 -43t-11.5 -32t-28 -20t-52 -7h-657z" />
    <glyph glyph-name="twosuperior" unicode="&#xb2;" horiz-adv-x="978" 
d="M471 487q-32 0 -63.5 -0.5t-62.5 -0.5q-50 0 -93.5 1.5t-76.5 6t-52 13.5t-19 24q0 22 11 41t28 37q0 -2 11 9t28.5 31t39 46t43 53.5t40.5 54.5t31 48q8 12 18 30t19 38.5t15.5 42t6.5 40.5q0 40 -22.5 58.5t-84.5 18.5q-23 0 -42.5 -2.5t-38 -8t-39.5 -13.5t-47 -20
q-1 0 -3 16.5t-4.5 42t-4.5 56t-4 58t-3 48t-1 27.5t1 9l65 30q38 14 80 24t85.5 16.5t86.5 9.5t83 3q69 0 136 -14.5t119.5 -48t85 -87.5t32.5 -132t-51.5 -152t-161.5 -155q33 0 62 1t62 1q14 0 30 -1t29.5 -5.5t22 -12.5t8.5 -21q0 -33 -1 -55.5t-1.5 -41t-1.5 -36
t-1 -41.5q0 -20 -1.5 -35t-8.5 -25.5t-22.5 -16t-42.5 -5.5q-2 -3 -20.5 -4.5t-47 -2t-64 -0.5t-71 0.5t-68 1t-54.5 0.5z" />
    <glyph glyph-name="threesuperior" unicode="&#xb3;" horiz-adv-x="964" 
d="M873 761q0 -66 -11 -115t-26.5 -82t-33 -51.5t-29.5 -23.5q-41 -20 -84.5 -31t-89.5 -16t-92 -5.5t-91 -0.5q-8 0 -35.5 3.5t-58.5 8.5t-56.5 11t-28.5 12q-17 6 -33.5 9.5t-31.5 12.5q-22 13 -40 25l14 206q45 -11 91.5 -18t84.5 -7q49 0 80 17.5t31 61.5q0 31 -26 45.5
t-67 17.5q-32 0 -61.5 -1t-62.5 -3l-1 162q14 0 27.5 -0.5t28.5 -0.5q24 0 46 2.5t39.5 10t27.5 22.5t10 41q0 37 -31 50.5t-80 13.5q-38 0 -84.5 -13t-91.5 -33l-15 213q36 16 79.5 30t92.5 23.5t100.5 15t103.5 5.5q53 -2 105.5 -8t90.5 -17q-1 0 10 -3t24.5 -8.5
t25 -12.5t11.5 -13v-10q15 0 28 -13.5t23 -31.5t17.5 -35.5t11.5 -25.5q9 -21 12 -42t8 -43q0 -21 -5.5 -44.5t-16 -45.5t-26 -41t-34.5 -31q57 -33 88.5 -81.5t31.5 -111.5z" />
    <glyph glyph-name="acute" unicode="&#xb4;" horiz-adv-x="865" 
d="M551 1577q-16 -31 -36 -77t-40.5 -89t-39.5 -73.5t-34 -30.5h-39t-37 -2l-14 8l-8 -6h-59q-28 0 -55.5 -1t-55.5 -1q-26 0 -32.5 19.5t-6.5 41.5q0 53 5.5 106.5t13 108t15.5 109t13 108.5q16 82 33.5 157t40.5 159l16 14l88 14q73 0 132 3t112 3l12 -6q10 3 22.5 2.5
t20.5 1.5q5 -3 12 -3.5t13 -2.5l88 -6l14 -4q5 0 7.5 1t7.5 1q40 -9 54.5 -16t14.5 -23q1 -2 -6 -17t-19.5 -38t-28.5 -50.5t-33 -56t-32.5 -55t-27.5 -45.5q-20 -32 -35.5 -63.5t-30 -63t-30 -63t-35.5 -64.5z" />
    <glyph glyph-name="mu" unicode="&#xb5;" horiz-adv-x="1592" 
d="M131 479q0 36 1 67.5t1 55.5q0 9 0.5 28.5t0.5 40t0.5 37t0.5 21.5l6 14l1.5 19.5t3 50.5t3 69.5t3 75.5t2.5 69t1 50q0 20 -3 38t-3 38t19.5 25.5t42.5 5.5h30q10 0 18.5 0.5t14.5 3.5l250 -4q0 -2 3 -4t5 -2l13 6q51 0 85.5 -4.5t55.5 -19t30 -42.5t9 -76t3 -90t3 -90
v-20q-2 -43 -4 -93t-3.5 -101.5t-2.5 -100t-2 -87.5t-1.5 -65.5t-0.5 -32.5q0 -11 -0.5 -31.5t2 -41t8.5 -36t18 -15.5q10 0 36.5 9.5t54.5 21.5t49.5 23.5t21.5 16.5v674q-3 21 -4.5 36.5t-2.5 30t-1 29.5v33q0 10 -0.5 21t1.5 20t8 15t20 6q3 0 8.5 -3.5t5.5 -9.5v-2
q11 5 34 8.5t52 6t61 4t61 2t52.5 0.5h34.5h35l217 -6q9 -4 11.5 -6t2.5 -7q0 -3 -1 -7t-1 -7q3 0 8 2t8 2q6 0 6 -8q0 -272 -3 -537.5t-17 -535.5q0 -6 -5 -14.5t-12 -17t-14.5 -15.5t-11.5 -11q-3 2 -16.5 5t-18.5 3q-2 0 -7 -4t-7 -4q-62 -11 -129 -12.5t-129 -1.5h-92
t-90 8q-11 6 -17.5 20.5t-11.5 29t-9 25.5t-10 11q-12 0 -25 -6.5t-26 -16t-25.5 -20.5t-23.5 -20q-27 -16 -58.5 -26t-61.5 -17q2 -72 2.5 -153t0.5 -187q0 -8 -6 -8q-3 0 -8 2t-8 2q0 -3 1 -7t1 -7q0 -5 -2.5 -7t-11.5 -6l-177 -6h-35h-34.5t-52.5 0.5t-61 2t-61 4t-52 6
t-34 8.5v-2q0 -6 -5.5 -9.5t-8.5 -3.5q-14 0 -20 6t-8 15t-1.5 20t0.5 21v33t1 29.5t2.5 30t4.5 36.5z" />
    <glyph glyph-name="paragraph" unicode="&#xb6;" horiz-adv-x="1657" 
d="M1158 867l-99 -3v-737q0 -20 -1.5 -42t-7 -40.5t-16.5 -30.5t-30 -12q-18 0 -45 1t-57.5 2l-61 2t-53.5 1q-27 0 -48 2.5t-35.5 13t-22 31.5t-7.5 58v283h-37q-130 0 -236 26t-181 85.5t-116 157t-41 240.5q0 98 26.5 171t70.5 125t102 86t121 54t126.5 27.5t119.5 7.5
q127 0 234.5 -3t201.5 -3q74 0 177 2t243 2q19 0 36 -17t17 -36v-451q0 -102 -1.5 -213t-3.5 -213t-3.5 -185.5t-1.5 -131.5q0 -20 -1.5 -42t-7 -40.5t-16.5 -30.5t-30 -12q-63 0 -113 0.5t-91 1.5q-27 0 -48 2.5t-35.5 13t-22 31.5t-7.5 58v213z" />
    <glyph glyph-name="periodcentered" unicode="&#xb7;" horiz-adv-x="783" 
d="M669 524q3 -16 -8.5 -22.5t-31 -7.5t-44.5 1t-47 2q-5 0 -18.5 -0.5t-28.5 -1t-28 -1t-17 0.5q-66 2 -113.5 3t-89.5 -1q-14 -1 -32.5 -3t-36.5 -0.5t-31 8t-14 22.5q-4 32 -6 87.5t-3.5 115.5t-3.5 115.5t-8 88.5l13 14l65 15h121q20 0 37.5 3t34.5 3l63 -6q12 -1 31 -3
t39.5 -3.5t40.5 -2.5t34 -1q19 -6 28.5 -11.5t14.5 -11.5t8 -15t9 -22q4 -10 7.5 -38t6.5 -61.5t4.5 -65t1.5 -48.5q6 -44 6 -62.5t-1.5 -29t-3 -21.5t0.5 -40z" />
    <glyph glyph-name="cedilla" unicode="&#xb8;" horiz-adv-x="810" 
d="M185 -158l28 175l10 19h219l-26 -132q98 -17 163 -44.5t103.5 -61.5t54.5 -73.5t16 -81.5q0 -55 -18.5 -111t-69 -101.5t-139.5 -74t-230 -28.5q-8 0 -36 1t-62 7t-67.5 18.5t-52.5 36.5l20 111q5 17 12.5 35t10.5 23q67 -30 140 -30q39 0 65 13t41 33t21.5 44t6.5 47
q0 53 -35.5 81.5t-92.5 28.5q-42 0 -87 -16z" />
    <glyph glyph-name="onesuperior" unicode="&#xb9;" horiz-adv-x="796" 
d="M679 1005v-155q0 -63 -4 -114.5t-4 -104.5q0 -14 -1 -28.5t-4.5 -27t-11 -20.5t-20.5 -8q-63 0 -106.5 0.5t-80 1.5t-72 1.5t-83.5 0.5q-18 0 -32.5 1.5t-24 8.5t-14.5 21.5t-5 39.5q0 2 1 11t2.5 19.5t2.5 20t1 12.5q0 4 -1 15t-2.5 22.5t-2.5 20.5t-1 10q-1 21 -1 50.5
v62t-0.5 64.5t-1 57.5t-1.5 41t-2 15.5q-7 0 -17 -11.5t-23 -25.5t-28.5 -25.5t-32.5 -11.5q-14 0 -24 9t-10 18v265q0 7 17.5 15.5t52.5 31.5q38 25 58 31.5t31 6.5q58 0 107.5 -0.5t97.5 -1t97 -1t106 -0.5q13 0 25 -11.5t12 -23.5v-304z" />
    <glyph glyph-name="ordmasculine" unicode="&#xba;" horiz-adv-x="1533" 
d="M390.753 272.896q-27.4424 0 -55.4678 5.5459t-57.2178 14.8877h-8.1748q-5.25391 0 -9.0498 0.875q-3.79492 0.875977 -9.3418 4.08691q-5.5459 3.21094 -14.3037 8.75684q-8.75879 5.5459 -24.5225 14.8867q-38.5352 21.6006 -65.1006 58.3809
q-26.5664 36.7793 -43.2061 79.1045q-16.6396 42.3262 -24.2305 86.1104q-7.58984 43.7852 -7.58984 79.9814q0 45.5361 9.92578 91.9482q9.9248 46.4121 28.6084 89.3223q18.6836 42.9092 46.126 80.5645q27.4414 37.6553 62.4727 65.6777q35.0322 28.0225 77.0703 44.0762
q42.0381 16.0547 90.498 16.0547q10.5098 0 21.3115 -0.291992q10.8008 -0.291992 21.3105 -2.04297q1.75195 1.16797 4.37891 1.16797h4.37891q47.293 0 83.4922 -1.16797q36.2002 -1.16797 65.6846 -5.25391q29.4854 -4.08691 54.5918 -11.9678
q25.1055 -7.88184 49.6279 -21.3096q47.293 -31.5244 81.1572 -65.6768t56.0508 -74.7266t32.6963 -88.7383t10.5098 -106.544q0 -56.0449 -13.4297 -110.046q-13.4287 -54.002 -40.2861 -103.041q-1.75195 -3.50293 -4.96289 -9.04883q-3.21094 -5.54688 -6.42285 -10.5088
q-3.21094 -4.96191 -5.83789 -8.75684q-2.62793 -3.79492 -3.21191 -3.79492l-8.17383 -4.66992q-29.1934 -43.7852 -70.0635 -68.0137q-40.8701 -24.2275 -87.2871 -35.3193q-46.417 -11.0928 -95.7539 -13.1357q-49.3359 -2.04297 -94.877 -2.04297
q-13.4297 0 -25.6904 2.33496t-25.6895 2.33496zM421.697 575.306q0 -2.91895 0.583984 -14.8867t1.45996 -28.8984q0.875 -16.9307 2.04297 -36.1953q1.16797 -19.2656 2.33594 -36.4883q1.16699 -17.2217 2.62695 -30.0654t2.62793 -16.9307l13.4287 -45.5361
q1.16699 -4.66992 6.71387 -6.71387q5.54688 -2.04297 10.2178 -2.04297q9.3418 0 16.9316 12.8438q7.59082 12.8438 13.4287 34.4443q5.83887 21.6006 9.92578 49.623q4.08789 28.0225 7.00684 58.0879t4.96289 59.8398q2.04297 29.7734 3.21094 55.4609t1.45996 44.6611
t0.291992 27.1465q0 -2.33496 0 9.63281t-0.875977 31.5254t-2.91895 42.6172q-2.04395 23.0605 -5.83887 43.2012q-3.79492 20.1416 -9.92578 33.8604q-6.13086 13.7197 -14.8887 13.7197q-11.0938 0 -22.7705 -18.3896t-16.9316 -63.9268l-25.1064 -192.654v-23.9355z" />
    <glyph glyph-name="guillemotright" unicode="&#xbb;" horiz-adv-x="1689" 
d="M1100 696q-19 12 -49 27t-58 30t-48.5 27.5t-20.5 20.5q0 32 -0.5 80t-1.5 131v45q2 3 1 8t1 10q0 21 -1 41.5t-1 40.5q0 27 6.5 38t28.5 11h6q3 1 10 1q5 0 9.5 -0.5t8.5 -0.5q136 -69 279 -146.5t297 -162.5l22 -33q14 -21 18 -46.5t4 -52.5q0 -26 -1.5 -50t-1.5 -45
v-15l2 -80v-124l-25 -103l-16 -12q-32 -24 -73 -50t-87.5 -52.5t-95 -52.5t-94.5 -49q-107 -55 -223 -109q-6 -1 -11 -2t-10 -1h-10q-16 0 -28.5 7.5t-12.5 25.5q1 28 0.5 60t-0.5 57l2 129l4 12l-8 8q2 20 2 43.5v43.5q0 9 16 23t41.5 30.5t58.5 34.5t68 35q81 40 184 87
q-46 17 -95.5 37t-96.5 43zM298 696q-19 12 -49 27t-58 30t-48.5 27.5t-20.5 20.5q0 32 -0.5 80t-1.5 131v45q2 3 1 8t1 10q0 21 -1 41.5t-1 40.5q0 27 6.5 38t28.5 11h6q3 1 10 1q5 0 9.5 -0.5t8.5 -0.5q67 -35 142 -72t150 -76t147.5 -79.5t136.5 -81.5q23 -15 33 -32.5
t12.5 -35t0.5 -34.5t-2 -30q0 -26 -1.5 -50t-1.5 -45v-15l2 -80l-21 -229l-96 -58q-34 -21 -73 -43t-80.5 -44.5t-83 -44t-79.5 -41.5q-90 -47 -181 -92q-6 -1 -11 -2t-10 -1h-10q-16 0 -28.5 7.5t-12.5 25.5q1 28 0.5 60t-0.5 57l2 129l4 12l-8 8q2 20 2 43.5v43.5
q0 9 16 23t41.5 30.5t58.5 34.5t68 35q81 40 184 87q-46 17 -95.5 37t-96.5 43z" />
    <glyph glyph-name="onequarter" unicode="&#xbc;" horiz-adv-x="2468" 
d="M679 1005q0 -66 -1.5 -117.5t-3 -95t-2.5 -82t-1 -79.5q0 -14 -1 -28.5t-4.5 -27t-11 -20.5t-20.5 -8q-63 0 -106.5 0.5t-80 1.5t-72 1.5t-83.5 0.5q-18 0 -32.5 1.5t-24 8.5t-14.5 21.5t-5 39.5q0 2 1 11t2.5 19.5t2.5 20t1 12.5q0 4 -1 15t-2.5 22.5t-2.5 20.5t-1 10
q-1 21 -1 50.5v62t-0.5 64.5t-1 57.5t-1.5 41t-2 15.5q-7 0 -17 -11.5t-23 -25.5t-28.5 -25.5t-32.5 -11.5q-14 0 -24 9t-10 18v265q0 7 17.5 15.5t52.5 31.5q38 25 58 31.5t31 6.5q58 0 107.5 -0.5t97.5 -1t97 -1t106 -0.5q13 0 25 -11.5t12 -23.5v-304zM1328 408
q-21 -72 -40 -139t-36 -122.5t-33 -96.5t-32 -60q-18 0 -40 -1.5t-42 -3t-34 -2.5t-15 -1h-6q-13 0 -18 4t-13 4q-5 -1 -9 -3q-9 -4 -9 -5h-202q-2 -1 -17.5 -2t-34.5 -1.5t-36.5 -1t-23.5 -0.5q-22 0 -30 18t-8 44q0 17 2.5 36t6 36.5t7 32t5.5 22.5q17 64 37 130.5
t40.5 133.5t41.5 133.5t40 130.5l208 668q0 2 3.5 5.5t7.5 6.5t7.5 5.5t3.5 4.5q7 0 9 -1t8 -1q31 0 63.5 6.5t67.5 6.5q28 0 68.5 0.5t80 0t70.5 -3t40 -8.5q14 -1 22.5 -1.5t13.5 -0.5q10 0 13.5 1t19.5 1q9 0 15 -20t10.5 -50.5t6.5 -67t2 -68.5q0 -25 -1.5 -45t-3.5 -31
l-54 -144q-10 -27 -19.5 -53t-17 -46.5t-12 -33.5t-4.5 -14t-10 -30.5t-24 -74t-30.5 -95.5t-30.5 -95.5t-24 -75t-10 -32.5zM1725 925q15 0 39 -0.5t49 -1t48 -1.5t35 -1q9 5 24.5 6t24.5 1q29 0 56 -2t59 -2q1 1 2.5 1t2.5 1q15 0 30 -1t32 -1h4t7 1q4 0 9 1q4 0 10 -1
t7 -1h9q16 0 36 -1t32 -1q10 0 13.5 -11t3.5 -30q0 -23 -2.5 -53.5t-2.5 -62.5q0 -17 2 -33t2 -32q0 -14 -3.5 -83.5t-3.5 -205.5v-26h101q18 0 28 -16.5t14.5 -39t5.5 -47t1 -39.5q0 -5 -0.5 -20t-1.5 -31.5t-1.5 -29.5l-0.5 -13q-5 -9 -23 -12t-40.5 -3.5t-45.5 0.5t-39 1
l-3 -23q-2 -27 -2 -50t-1.5 -39t-8 -25t-22.5 -9q-1 0 -2 1.5t-3 1.5q-4 0 -10 -2l-6 -2q-22 0 -29 2t-17 2q-1 0 -4 -1.5t-4 -2.5h-92q-1 0 -10.5 -2t-20.5 -4.5t-21.5 -4.5t-14.5 -2q-13 0 -19.5 13t-8.5 30.5t-2.5 34t-1.5 24.5l-3 52h-6q-102 0 -199 -0.5t-206 -3.5
q-41 2 -52.5 12t-11.5 17v74.5t1.5 51.5t4 40.5t8.5 41.5t15.5 55.5t23.5 81.5q-1 -1 7.5 20.5t23 56.5t33.5 79t39 89.5t40.5 88t37.5 73.5q5 5 11.5 9.5t12.5 9.5zM1791 388q32 0 67 -0.5t70 -0.5v372q-15 -42 -34.5 -95t-38.5 -105t-36 -97.5t-28 -73.5z" />
    <glyph glyph-name="onehalf" unicode="&#xbd;" horiz-adv-x="2418" 
d="M1327 408q-21 -72 -40 -139t-36 -122.5t-33 -96.5t-32 -60q-18 0 -40 -1.5t-42 -3t-34 -2.5t-15 -1h-6q-13 0 -18 4t-13 4q-5 -1 -9 -3q-9 -4 -9 -5h-202q-2 -1 -17.5 -2t-34.5 -1.5t-36.5 -1t-23.5 -0.5q-22 0 -30 18t-8 44q0 17 2.5 36t6 36.5t7 32t5.5 22.5
q17 64 37 130.5t40.5 133.5t41.5 133.5t40 130.5l208 668q0 2 3.5 5.5t7.5 6.5t7.5 5.5t3.5 4.5q7 0 9 -1t8 -1q31 0 63.5 6.5t67.5 6.5q28 0 68.5 0.5t80 0t70.5 -3t40 -8.5q14 -1 22.5 -1.5t13.5 -0.5q10 0 13.5 1t19.5 1q9 0 15 -20t10.5 -50.5t6.5 -67t2 -68.5
q0 -25 -1.5 -45t-3.5 -31l-54 -144q-10 -27 -19.5 -53t-17 -46.5t-12 -33.5t-4.5 -14q-1 -1 -10.5 -30.5t-23.5 -74t-30.5 -95.5t-30.5 -95.5t-24 -75t-10 -32.5zM1938 -1q-32 0 -63.5 -0.5t-62.5 -0.5q-50 0 -93.5 1.5t-76.5 6t-52 13.5t-19 24q0 22 11 41t28 37
q2 0 13.5 12t29 32t39 45.5t42 52.5t39 53t30.5 47q8 12 18 30t19 38.5t15.5 42t6.5 40.5q0 40 -22.5 58.5t-84.5 18.5q-23 0 -42.5 -2.5t-38 -8t-39.5 -13.5t-47 -20q-1 0 -3 16.5t-4.5 42t-4.5 56t-4 58t-3 48t-1 27.5t1 9l65 30q38 14 80 24t85.5 16.5t86.5 9.5t83 3
q69 0 136 -14.5t119.5 -48t85 -87.5t32.5 -132t-51.5 -152t-161.5 -155q33 0 62 1t62 1q14 0 30 -1t29.5 -5.5t22 -12.5t8.5 -21q0 -33 -1 -55.5t-1.5 -41t-1.5 -36t-1 -41.5q0 -28 -2 -45.5t-20 -27t-58.5 -13t-117.5 -3.5q-27 0 -55 0.5t-55 0.5t-51 0.5t-41 0.5z
M678 1005q0 -66 -1.5 -117.5t-3 -95t-2.5 -82t-1 -79.5q0 -14 -1 -28.5t-4.5 -27t-11 -20.5t-20.5 -8q-63 0 -106.5 0.5t-80 1.5t-72 1.5t-83.5 0.5q-18 0 -32.5 1.5t-24 8.5t-14.5 21.5t-5 39.5q0 2 1 11t2.5 19.5t2.5 20t1 12.5q0 4 -1 15t-2.5 22.5t-2.5 20.5t-1 10
q-1 21 -1 50.5v62t-0.5 64.5t-1 57.5t-1.5 41t-2 15.5q-7 0 -17 -11.5t-23 -25.5t-28.5 -25.5t-32.5 -11.5q-14 0 -24 9t-10 18v265q0 7 17.5 15.5t52.5 31.5q38 25 58 31.5t31 6.5q58 0 107.5 -0.5t97.5 -1t97 -1t106 -0.5q13 0 25 -11.5t12 -23.5v-304z" />
    <glyph glyph-name="threequarters" unicode="&#xbe;" horiz-adv-x="2643" 
d="M1482 408q-21 -72 -40 -139t-36 -122.5t-33 -96.5t-32 -60q-18 0 -40 -1.5t-42 -3t-34 -2.5t-15 -1h-6q-13 0 -18 4t-13 4q-5 -1 -9 -3q-9 -4 -9 -5h-202q-2 -1 -17.5 -2t-34.5 -1.5t-36.5 -1t-23.5 -0.5q-22 0 -30 18t-8 44q0 17 2.5 36t6 36.5t7 32t5.5 22.5
q17 64 37 130.5t40.5 133.5t41.5 133.5t40 130.5l208 668q0 2 3.5 5.5t7.5 6.5t7.5 5.5t3.5 4.5q7 0 9 -1t8 -1q31 0 63.5 6.5t67.5 6.5q23 0 55 0.5t66 0.5q48 0 87.5 -2t50.5 -10q14 -1 22.5 -1.5t13.5 -0.5q10 0 13.5 1t19.5 1q9 0 15 -20t10.5 -50.5t6.5 -67t2 -68.5
q0 -25 -1.5 -45t-3.5 -31l-54 -144q-10 -27 -19.5 -53t-17 -46.5t-12 -33.5t-4.5 -14q-1 -1 -10.5 -30.5t-23.5 -74t-30.5 -95.5t-30.5 -95.5t-24 -75t-10 -32.5zM856 761q0 -66 -11 -115t-26.5 -82t-33 -51.5t-29.5 -23.5q-41 -20 -84.5 -31t-89.5 -16t-92 -5.5t-91 -0.5
q-8 0 -35.5 3.5t-58.5 8.5t-56.5 11t-28.5 12q-29 10 -52.5 18.5t-52.5 28.5l14 206q45 -11 91.5 -18t84.5 -7q49 0 80 17.5t31 61.5q0 31 -26 45.5t-67 17.5q-32 0 -61.5 -1t-62.5 -3l-1 162q14 0 27.5 -0.5t28.5 -0.5q24 0 46 2.5t39.5 10t27.5 22.5t10 41q0 37 -31 50.5
t-80 13.5q-38 0 -84.5 -13t-91.5 -33l-15 213q36 16 79.5 30t92.5 23.5t100.5 15t103.5 5.5q53 -2 105.5 -8t90.5 -17q4 -2 15.5 -5.5t24 -9t22 -13.5t9.5 -19q15 0 28 -13.5t23.5 -31.5t17.5 -35.5t11 -25.5q9 -21 12 -42t8 -43q0 -21 -5.5 -44.5t-16 -45.5t-26 -41
t-34.5 -31q57 -33 88.5 -81.5t31.5 -111.5zM1847 933q16 0 43 -0.5t55 -1t53.5 -1.5t39.5 -1q9 5 24.5 6t24.5 1q29 0 56 -2t59 -2q1 1 2.5 1t2.5 1q15 0 30 -1t32 -1h10t17 1q11 0 23 1q14 0 39 -2t45 -2q10 0 13 -11t3 -31q0 -22 -2.5 -52t-2.5 -62q0 -25 0.5 -32t1 -6
t1 5.5t1.5 2t1.5 -17t1 -50t1 -97.5t0.5 -160v-26h101q18 0 28 -16.5t14.5 -39t5.5 -47t1 -39.5q0 -5 -0.5 -20t-1.5 -31.5t-1.5 -29.5l-0.5 -13q-6 -10 -26.5 -12.5t-46.5 -2.5q-20 0 -40.5 0.5t-34.5 0.5l-3 -23q-2 -27 -2 -50t-1.5 -39t-8 -25t-22.5 -9q-1 0 -2 1.5
t-3 1.5q-4 0 -10 -2l-6 -2q-22 0 -29 2t-17 2l-4 -2l-4 -2h-122q-1 0 -10.5 -2t-20.5 -4.5t-21.5 -4.5t-14.5 -2q-13 0 -19.5 13t-8.5 30.5t-2.5 34t-1.5 24.5l-3 52h-6q-102 0 -199 -0.5t-206 -3.5q-41 2 -52.5 12t-11.5 17v74.5t1.5 51.5t4 40.5t8.5 41.5t15.5 55.5
t23.5 81.5q-1 -1 6.5 20.5t20.5 56.5t30 79t35 89.5t36 88t33 73.5q4 5 10.5 9.5t13.5 9.5zM1933 396q32 0 67 -0.5t70 -0.5v372q-15 -42 -34.5 -95t-38.5 -105t-36 -97.5t-28 -73.5z" />
    <glyph glyph-name="questiondown" unicode="&#xbf;" horiz-adv-x="1255" 
d="M701.037 869.03q26.998 0 56.9961 -2t53.9971 -2q15.999 0 24.998 4h203.987q25.999 0 40.998 -13.499q14.999 -13.5 22.998 -37.998q8 -24.498 10.5 -59.9961t2.5 -79.4951q0 -28.999 -0.5 -59.4971t-0.5 -53.4961q0 -40.998 -13.5 -67.4961
q-13.499 -26.498 -36.9971 -45.4971q-23.499 -18.999 -53.9971 -32.498t-64.9961 -28.998t-70.4951 -35.498q-35.998 -19.999 -68.9961 -50.9971q-8 -5 -17.999 -13.499q-9.99902 -8.5 -18.999 -17.999q-8.99902 -9.49902 -14.999 -19.999
q-5.99902 -10.499 -5.99902 -19.499q0 -18.998 7.49902 -30.998q7.5 -11.999 28.998 -18.998q21.499 -7 60.4961 -10q38.998 -3 100.994 -3q56.9971 0 117.993 6t114.993 19.999q2 1 4.99902 1q10 0 13.499 -10q3.5 -9.99902 3.5 -24.998q0 -17.999 -3 -40.498
q-2.99902 -22.498 -3.99902 -41.4971q-3 -80.9951 -7 -127.492t-10.999 -69.4961q-7 -22.998 -17.999 -28.998q-10.999 -5.99902 -27.998 -6.99902q-113.993 -6 -227.986 -6q-91.9941 0 -179.489 6.5q-87.4941 6.49902 -163.99 22.998q-76.4951 16.499 -139.991 44.9971
q-63.4961 28.499 -109.493 72.4961t-71.4961 105.993q-25.498 61.9961 -25.498 144.991q0 51.9971 23.499 93.9941q23.498 41.998 60.9961 76.9951q37.4971 34.998 85.4941 64.9961q47.9971 29.999 96.4941 58.4971t93.4951 55.9961q44.9971 27.498 76.9951 57.4971v29.998
q-1 30.998 -2 59.9961q-1 24.998 -1.5 51.4971q-0.5 26.498 -0.5 43.4971t4.5 26.998q4.49902 10 18.499 10h30.998zM572.045 1478.99q1 -8 1 -14.999v-12q0 -9.99902 -1 -16.499q-1 -6.49902 -1.5 -11.999t-1.5 -11.499q-1 -6 -1 -15.999q0 -11 1.5 -27.498
q1.5 -16.499 4.5 -42.498q0 -16.999 0.5 -49.4971t1.99902 -66.4961q1.5 -33.9971 6 -61.4961q4.5 -27.498 11.499 -35.4971q0 -14 2.5 -22.999t9 -14.999q6.49902 -6 17.998 -10.999q11.5 -5 30.499 -11q2.99902 0 6.99902 1.5t7 1.5l13.999 -5l48.9971 -5.99902
q6.99902 -1 13.999 -1.5q6.99902 -0.5 12.999 -4.5q9 2 21.999 1.5t18.999 2.5l13.999 -6h48.9971q16.998 0 34.4971 3t37.498 3h120.993l64.9951 14.999l13 13.999q-6 32.998 -8.5 88.4951q-2.5 55.4961 -4 115.492q-1.49902 59.9971 -2.99902 115.493
q-1.5 55.4971 -5.5 87.4951q-2 18.998 -18.499 24.998t-38.4971 6q-33.998 0 -57.4971 -2.5q-23.498 -2.5 -50.4971 -2.5q-33.998 0 -73.4951 2q-39.498 2 -91.4941 2q-9 0 -20.499 -0.5t-23.499 -1q-11.999 -0.5 -21.498 -1q-9.5 -0.5 -13.499 -0.5q-18.999 0 -39.998 1.5
t-38.998 1.5q-22.998 0 -37.9971 -4t-14.999 -19.999q0 -1 0.5 -2.5t0.5 -3.49902z" />
    <glyph glyph-name="Agrave" unicode="&#xc0;" horiz-adv-x="1866" 
d="M715 1364q1 0 16.5 0.5t38 1.5t48.5 2t48 2.5t36 2t13 1.5q6 0 35 0.5t69 0.5h85.5t85 -1t67 -3.5t31.5 -6.5q29 0 55.5 5t55.5 5q12 0 24 -6t25 -6q6 0 9.5 1t8.5 1q6 -3 13.5 -10.5t7.5 -12.5l143 -647q32 -124 62.5 -254t56.5 -254q2 -9 6 -26.5t7.5 -38.5t5.5 -42.5
t-0.5 -39.5t-11 -29.5t-24.5 -11.5h-27t-46 0.5t-53.5 1t-51.5 1t-40 0.5t-17 1h-129q0 2 -2.5 5t-18.5 3q-2 0 -3.5 -4t-4.5 -4h-6q-1 0 -17.5 1t-40 2.5t-50 3t-46.5 1.5q-15 25 -29.5 89t-31.5 151q-24 -4 -53 -5.5t-60 -1.5t-63 0.5t-60 0.5q-17 -84 -31 -146.5
t-28 -87.5q-8 0 -18.5 -4t-12.5 -4h-6q-11 0 -17 4t-11 4q-53 -1 -93 -3q-17 -1 -33.5 -1.5t-29.5 -1.5t-21 -1.5l-8 -0.5h-190q-2 0 -17.5 -0.5t-39.5 -1t-52 -1t-53.5 -1t-45.5 -0.5h-28q-16 0 -24 11.5t-10.5 29.5t-0.5 39.5t6 42.5t7.5 38.5t5.5 26.5q26 124 56.5 254
t62.5 254l143 647q0 5 7 12.5t14 10.5q5 0 8.5 -1t9.5 -1q26 0 54 6t57 6q43 0 83.5 -5t88.5 -5zM995 1016q0 -1 -4.5 -27.5t-12 -69t-17 -96.5t-19 -110t-19 -110.5t-16.5 -96.5h105q2 2 7 4t7 2h4q20 0 35.5 -4.5t29.5 -7.5q-7 42 -16 96.5t-19 111.5t-19.5 112t-17 98
t-12 70t-4.5 28l-2 8t-1.5 9.5t-2.5 13.5q-2 -8 -3 -13.5t-2 -9.5t-1 -8zM854 1779q-20 36 -35.5 70.5t-30 68.5t-30 67.5t-35.5 68.5q-12 19 -27.5 45.5t-32.5 55t-33 56t-28.5 50.5t-19.5 38t-6 17q0 16 14.5 23t54.5 16q5 0 7.5 -1t7.5 -1l14 4l88 6q6 2 13 2.5t12 3.5
q8 -2 20.5 -1.5t22.5 -2.5l12 6q53 0 112 -3t132 -3l88 -14l16 -14q23 -84 40.5 -159t33.5 -157q5 -54 13 -108.5t15.5 -109t13 -108t5.5 -106.5q0 -22 -6.5 -41.5t-32.5 -19.5q-28 0 -55.5 1t-55.5 1h-59l-8 6l-14 -8q-16 2 -37 2h-39q-15 0 -34 28.5t-39.5 68t-40.5 82
t-36 70.5z" />
    <glyph glyph-name="Aacute" unicode="&#xc1;" horiz-adv-x="1866" 
d="M715 1364q1 0 16.5 0.5t38 1.5t48.5 2t48 2.5t36 2t13 1.5q6 0 35 0.5t69 0.5h85.5t85 -1t67 -3.5t31.5 -6.5q29 0 55.5 5t55.5 5q12 0 24 -6t25 -6q6 0 9.5 1t8.5 1q6 -3 13.5 -10.5t7.5 -12.5l143 -647q32 -124 62.5 -254t56.5 -254q2 -9 6 -26.5t7.5 -38.5t5.5 -42.5
t-0.5 -39.5t-11 -29.5t-24.5 -11.5h-27t-46 0.5t-53.5 1t-51.5 1t-40 0.5t-17 1h-129q0 2 -2.5 5t-18.5 3q-2 0 -3.5 -4t-4.5 -4h-6q-1 0 -17.5 1t-40 2.5t-50 3t-46.5 1.5q-15 25 -29.5 89t-31.5 151q-24 -4 -53 -5.5t-60 -1.5t-63 0.5t-60 0.5q-17 -84 -31 -146.5
t-28 -87.5q-8 0 -18.5 -4t-12.5 -4h-6q-11 0 -17 4t-11 4q-53 -1 -93 -3q-17 -1 -33.5 -1.5t-29.5 -1.5t-21 -1.5l-8 -0.5h-190q-2 0 -17.5 -0.5t-39.5 -1t-52 -1t-53.5 -1t-45.5 -0.5h-28q-16 0 -24 11.5t-10.5 29.5t-0.5 39.5t6 42.5t7.5 38.5t5.5 26.5q26 124 56.5 254
t62.5 254l143 647q0 5 7 12.5t14 10.5q5 0 8.5 -1t9.5 -1q26 0 54 6t57 6q43 0 83.5 -5t88.5 -5zM995 1016q0 -1 -4.5 -27.5t-12 -69t-17 -96.5t-19 -110t-19 -110.5t-16.5 -96.5h105q2 2 7 4t7 2h4q20 0 35.5 -4.5t29.5 -7.5q-7 42 -16 96.5t-19 111.5t-19.5 112t-17 98
t-12 70t-4.5 28l-2 8t-1.5 9.5t-2.5 13.5q-2 -8 -3 -13.5t-2 -9.5t-1 -8zM1046 1800q-16 -31 -36 -77t-40.5 -89t-39.5 -73.5t-34 -30.5h-39t-37 -2l-14 8l-8 -6h-59q-28 0 -55.5 -1t-55.5 -1q-26 0 -32.5 19.5t-6.5 41.5q0 53 5.5 106.5t13 108t15.5 109t13 108.5
q16 82 33.5 157t40.5 159l16 14l88 14q73 0 132 3t112 3l12 -6q10 3 22.5 2.5t20.5 1.5q5 -3 12 -3.5t13 -2.5l88 -6l14 -4q5 0 7.5 1t7.5 1q40 -9 54.5 -16t14.5 -23q1 -2 -6 -17t-19.5 -38t-28.5 -50.5t-33 -56t-32.5 -55t-27.5 -45.5q-20 -32 -35.5 -63.5t-30 -63
t-30 -63t-35.5 -64.5z" />
    <glyph glyph-name="Acircumflex" unicode="&#xc2;" horiz-adv-x="1866" 
d="M715 1364q1 0 16.5 0.5t38 1.5t48.5 2t48 2.5t36 2t13 1.5q6 0 35 0.5t69 0.5h85.5t85 -1t67 -3.5t31.5 -6.5q29 0 55.5 5t55.5 5q12 0 24 -6t25 -6q6 0 9.5 1t8.5 1q6 -3 13.5 -10.5t7.5 -12.5l143 -647q32 -124 62.5 -254t56.5 -254q2 -9 6 -26.5t7.5 -38.5t5.5 -42.5
t-0.5 -39.5t-11 -29.5t-24.5 -11.5h-27t-46 0.5t-53.5 1t-51.5 1t-40 0.5t-17 1h-129q0 2 -2.5 5t-18.5 3q-2 0 -3.5 -4t-4.5 -4h-6q-1 0 -17.5 1t-40 2.5t-50 3t-46.5 1.5q-15 25 -29.5 89t-31.5 151q-24 -4 -53 -5.5t-60 -1.5t-63 0.5t-60 0.5q-17 -84 -31 -146.5
t-28 -87.5q-8 0 -18.5 -4t-12.5 -4h-6q-11 0 -17 4t-11 4q-53 -1 -93 -3q-17 -1 -33.5 -1.5t-29.5 -1.5t-21 -1.5l-8 -0.5h-190q-2 0 -17.5 -0.5t-39.5 -1t-52 -1t-53.5 -1t-45.5 -0.5h-28q-16 0 -24 11.5t-10.5 29.5t-0.5 39.5t6 42.5t7.5 38.5t5.5 26.5q26 124 56.5 254
t62.5 254l143 647q0 5 7 12.5t14 10.5q5 0 8.5 -1t9.5 -1q26 0 54 6t57 6q43 0 83.5 -5t88.5 -5zM995 1016q0 -1 -4.5 -27.5t-12 -69t-17 -96.5t-19 -110t-19 -110.5t-16.5 -96.5h105q2 2 7 4t7 2h4q20 0 35.5 -4.5t29.5 -7.5q-7 42 -16 96.5t-19 111.5t-19.5 112t-17 98
t-12 70t-4.5 28l-2 8t-1.5 9.5t-2.5 13.5q-2 -8 -3 -13.5t-2 -9.5t-1 -8zM1074 1716q-35 40 -64 83t-55 83q-58 -99 -109 -176q-22 -33 -44.5 -64.5t-43 -56.5t-37.5 -40t-28 -15h-39.5t-40.5 -2l-10 8l-9 -6h-61q-26 0 -56.5 -1t-58.5 -1q-17 0 -23.5 12.5t-6.5 28.5v14
t2 12q10 50 31 100t45.5 100t49.5 100t44 100q31 60 59.5 116.5t67.5 118.5l14 16l94 23h121l76 -2q20 -2 32 -2.5t23 -1t25.5 -0.5h40.5l61 -6l47 -27q41 -74 84.5 -151t83.5 -156.5t74 -161.5t55 -166q0 -6 1 -12t1 -14q0 -16 -7 -28.5t-24 -12.5q-21 0 -46 1t-48 1h-20
l-41 -2q-48 2 -75 2h-44q-11 0 -28.5 21.5t-37 51.5t-39.5 61.5t-36 51.5z" />
    <glyph glyph-name="Atilde" unicode="&#xc3;" horiz-adv-x="1866" 
d="M715 1364q1 0 16.5 0.5t38 1.5t48.5 2t48 2.5t36 2t13 1.5q6 0 35 0.5t69 0.5h85.5t85 -1t67 -3.5t31.5 -6.5q29 0 55.5 5t55.5 5q12 0 24 -6t25 -6q6 0 9.5 1t8.5 1q6 -3 13.5 -10.5t7.5 -12.5l143 -647q32 -124 62.5 -254t56.5 -254q2 -9 6 -26.5t7.5 -38.5t5.5 -42.5
t-0.5 -39.5t-11 -29.5t-24.5 -11.5h-27t-46 0.5t-53.5 1t-51.5 1t-40 0.5t-17 1h-129q0 2 -2.5 5t-18.5 3q-2 0 -3.5 -4t-4.5 -4h-6q-1 0 -17.5 1t-40 2.5t-50 3t-46.5 1.5q-15 25 -29.5 89t-31.5 151q-24 -4 -53 -5.5t-60 -1.5t-63 0.5t-60 0.5q-17 -84 -31 -146.5
t-28 -87.5q-8 0 -18.5 -4t-12.5 -4h-6q-11 0 -17 4t-11 4q-53 -1 -93 -3q-17 -1 -33.5 -1.5t-29.5 -1.5t-21 -1.5l-8 -0.5h-190q-2 0 -17.5 -0.5t-39.5 -1t-52 -1t-53.5 -1t-45.5 -0.5h-28q-16 0 -24 11.5t-10.5 29.5t-0.5 39.5t6 42.5t7.5 38.5t5.5 26.5q26 124 56.5 254
t62.5 254l143 647q0 5 7 12.5t14 10.5q5 0 8.5 -1t9.5 -1q26 0 54 6t57 6q43 0 83.5 -5t88.5 -5zM995 1016q0 -1 -4.5 -27.5t-12 -69t-17 -96.5t-19 -110t-19 -110.5t-16.5 -96.5h105q2 2 7 4t7 2h4q20 0 35.5 -4.5t29.5 -7.5q-7 42 -16 96.5t-19 111.5t-19.5 112t-17 98
t-12 70t-4.5 28l-2 8t-1.5 9.5t-2.5 13.5q-2 -8 -3 -13.5t-2 -9.5t-1 -8zM1162 2059l313 1q14 -2 26.5 -28.5t22 -66t14 -88t1.5 -94.5q-2 -41 -22 -83.5t-55 -81t-84 -69.5t-108 -47q-25 -9 -48 -12t-51 -3q-63 0 -110 17t-84 43t-67 55.5t-58 55.5t-56.5 43t-62.5 17
q-19 0 -29 -14.5t-15.5 -35.5t-8 -45t-5 -43.5t-7 -30t-13.5 -4.5q-71 3 -116.5 5.5t-72.5 6.5t-40 11t-19 19t-9 30.5t-11 45.5q0 37 2 83t13.5 93.5t34.5 92.5t65.5 80t107.5 56t159 21q21 0 53.5 -10.5t67 -27.5t65 -38t46.5 -43q11 -14 22.5 -33t25.5 -35.5t31 -28
t39 -11.5q28 0 41 11t15 28.5t-3.5 38.5t-14.5 40.5t-19.5 35.5t-16.5 23q1 12 10 16t20 4h11z" />
    <glyph glyph-name="Adieresis" unicode="&#xc4;" horiz-adv-x="1866" 
d="M715 1364q1 0 16.5 0.5t38 1.5t48.5 2t48 2.5t36 2t13 1.5q6 0 35 0.5t69 0.5h85.5t85 -1t67 -3.5t31.5 -6.5q29 0 55.5 5t55.5 5q12 0 24 -6t25 -6q6 0 9.5 1t8.5 1q6 -3 13.5 -10.5t7.5 -12.5l143 -647q32 -124 62.5 -254t56.5 -254q2 -9 6 -26.5t7.5 -38.5t5.5 -42.5
t-0.5 -39.5t-11 -29.5t-24.5 -11.5h-27t-46 0.5t-53.5 1t-51.5 1t-40 0.5t-17 1h-129q0 2 -2.5 5t-18.5 3q-2 0 -3.5 -4t-4.5 -4h-6q-1 0 -17.5 1t-40 2.5t-50 3t-46.5 1.5q-15 25 -29.5 89t-31.5 151q-24 -4 -53 -5.5t-60 -1.5t-63 0.5t-60 0.5q-17 -84 -31 -146.5
t-28 -87.5q-8 0 -18.5 -4t-12.5 -4h-6q-11 0 -17 4t-11 4q-53 -1 -93 -3q-17 -1 -33.5 -1.5t-29.5 -1.5t-21 -1.5l-8 -0.5h-190q-2 0 -17.5 -0.5t-39.5 -1t-52 -1t-53.5 -1t-45.5 -0.5h-28q-16 0 -24 11.5t-10.5 29.5t-0.5 39.5t6 42.5t7.5 38.5t5.5 26.5q26 124 56.5 254
t62.5 254l143 647q0 5 7 12.5t14 10.5q5 0 8.5 -1t9.5 -1q26 0 54 6t57 6q43 0 83.5 -5t88.5 -5zM995 1016q0 -1 -4.5 -27.5t-12 -69t-17 -96.5t-19 -110t-19 -110.5t-16.5 -96.5h105q2 2 7 4t7 2h4q20 0 35.5 -4.5t29.5 -7.5q-7 42 -16 96.5t-19 111.5t-19.5 112t-17 98
t-12 70t-4.5 28l-2 8t-1.5 9.5t-2.5 13.5q-2 -8 -3 -13.5t-2 -9.5t-1 -8zM836 1978q14 0 18 -15t4 -37q0 -18 -1 -39.5t-1 -39.5q0 -5 0.5 -14.5t0.5 -21t0.5 -23.5t0.5 -21q0 -23 1.5 -45t1.5 -45q0 -20 -6.5 -37t-24.5 -19h-408l-14 13l-14 65v60q0 20 -2.5 39.5t4.5 39.5
l10 64q0 3 -1 7t-1 7q6 18 10.5 30t10.5 18.5t14.5 9t23.5 2.5h213q26 3 42.5 4.5t27.5 1.5q10 0 16 -1t11.5 -2t11.5 -2t16 -1h13t16 2h6zM1475 1978q14 0 18 -15t4 -37q0 -18 -1 -39.5t-1 -39.5q0 -5 0.5 -14.5t0.5 -21t0.5 -23.5t0.5 -21q0 -14 -2 -24.5t-2 -18.5
q0 -13 3.5 -22.5t3.5 -24.5q0 -20 -6.5 -37t-24.5 -19h-305l-117 13l-14 65v60q0 15 -0.5 26t-4.5 27q-1 4 -1.5 9t-0.5 16.5t-0.5 31.5t-1.5 53q0 3 -1 7.5t-1 7.5q9 13 15 21t14 12t19.5 5t31.5 1h213q26 3 42.5 4.5t27.5 1.5q10 0 16 -1t11 -2t11.5 -2t16.5 -1h13t16 2h6
z" />
    <glyph glyph-name="Aring" unicode="&#xc5;" horiz-adv-x="1866" 
d="M715 1364q1 0 16.5 0.5t38 1.5t48.5 2t48 2.5t36 2t13 1.5q6 0 35 0.5t69 0.5h85.5t85 -1t67 -3.5t31.5 -6.5q29 0 55.5 5t55.5 5q12 0 24 -6t25 -6q6 0 9.5 1t8.5 1q6 -3 13.5 -10.5t7.5 -12.5l143 -647q32 -124 62.5 -254t56.5 -254q2 -9 6 -26.5t7.5 -38.5t5.5 -42.5
t-0.5 -39.5t-11 -29.5t-24.5 -11.5h-27t-46 0.5t-53.5 1t-51.5 1t-40 0.5t-17 1h-129q0 2 -2.5 5t-18.5 3q-2 0 -3.5 -4t-4.5 -4h-6q-1 0 -17.5 1t-40 2.5t-50 3t-46.5 1.5q-15 25 -29.5 89t-31.5 151q-24 -4 -53 -5.5t-60 -1.5t-63 0.5t-60 0.5q-17 -84 -31 -146.5
t-28 -87.5q-8 0 -18.5 -4t-12.5 -4h-6q-11 0 -17 4t-11 4q-53 -1 -93 -3q-17 -1 -33.5 -1.5t-29.5 -1.5t-21 -1.5l-8 -0.5h-190q-2 0 -17.5 -0.5t-39.5 -1t-52 -1t-53.5 -1t-45.5 -0.5h-28q-16 0 -24 11.5t-10.5 29.5t-0.5 39.5t6 42.5t7.5 38.5t5.5 26.5q26 124 56.5 254
t62.5 254l143 647q0 5 7 12.5t14 10.5q5 0 8.5 -1t9.5 -1q26 0 54 6t57 6q43 0 83.5 -5t88.5 -5zM995 1016q0 -1 -4.5 -27.5t-12 -69t-17 -96.5t-19 -110t-19 -110.5t-16.5 -96.5h105q2 2 7 4t7 2h4q20 0 35.5 -4.5t29.5 -7.5q-7 42 -16 96.5t-19 111.5t-19.5 112t-17 98
t-12 70t-4.5 28l-2 8t-1.5 9.5t-2.5 13.5q-2 -8 -3 -13.5t-2 -9.5t-1 -8zM906 1535q-65 -1 -132 11.5t-130 49.5q-44 25 -74.5 67t-49.5 90.5t-27.5 98t-8.5 91.5q0 78 25 156.5t71.5 142t113 103.5t149.5 40q12 0 24.5 -0.5t23.5 -2.5q2 2 5.5 2h5.5q54 0 95 -1.5t75 -6
t62.5 -13.5t56.5 -24q54 -36 92.5 -75.5t64 -85.5t37.5 -101t12 -122q0 -73 -20.5 -145.5t-63.5 -133.5l-10 -5q-33 -50 -79.5 -77.5t-100 -40.5t-109.5 -15.5t-108 -2.5zM780 1909q0 -1 4.5 -18.5t19.5 -38t43 -37.5t74 -17q45 0 77.5 13t55 33t36.5 44t21.5 47t10 40.5
t2.5 25.5q0 -1 -0.5 9.5t-6 26.5t-17.5 34.5t-34.5 34.5t-58 27t-86.5 11q-20 0 -44.5 -8.5t-46 -31.5t-36.5 -64t-15 -107v-11t1 -13z" />
    <glyph glyph-name="AE" unicode="&#xc6;" horiz-adv-x="2478" 
d="M1025 1364q1 0 13.5 0.5t31 1.5t39.5 2t38.5 2.5t29 2t10.5 1.5q7 0 40.5 0.5t78.5 0.5t94.5 -0.5t88.5 -1.5q102 1 197.5 4t192.5 4.5t200 -0.5t221 -11q14 0 22 -25t13 -63t10 -83.5t13 -85.5q0 -26 -1 -37.5t-4.5 -16t-9 -3.5t-12.5 1q-96 0 -196 -1t-200 -1
q-9 0 -16.5 -25t-12.5 -58.5t-7.5 -66.5t-2.5 -49q0 -28 7.5 -35.5t24.5 -7.5q93 0 183 0.5t180 -8.5q16 -2 27 -3t19 -4.5t13.5 -12.5t10.5 -27l8 -183v-6q0 -18 -20 -28t-53.5 -15t-76.5 -6.5t-88 -1.5q-88 0 -137 2t-72 -3.5t-28 -23.5t-5 -57q0 -36 -4 -71.5t-2 -73.5
q99 0 198 1t196 1q3 0 7 -15t8 -39t8 -52.5t7 -55t5 -48t2 -30.5q0 -18 -9.5 -30.5t-31.5 -12.5q-65 0 -124.5 -4t-125.5 -4q-78 0 -156.5 -0.5t-158.5 -0.5q-6 -3 -14 -3h-28.5t-47 0.5t-54.5 1t-52 0.5h-137q-4 0 -11.5 0.5t-16.5 1.5h-16v2l-23 3q-3 -5 -6 -5h-6
q-1 0 -17.5 1t-39.5 2.5t-49.5 3t-46.5 1.5q-9 25 -9 89t2 151q-45 -8 -104.5 -7t-112.5 1q-35 -84 -63.5 -146.5t-48.5 -87.5q-8 0 -19.5 -4t-12.5 -4h-6q-11 0 -16.5 4t-10.5 4q-53 -1 -93 -3q-18 -1 -34.5 -1.5t-29.5 -1.5t-21 -1.5l-8 -0.5h-190q-2 0 -18 -0.5t-39.5 -1
t-51.5 -1t-54 -1t-46 -0.5h-27q-16 0 -21.5 11.5t-4 29.5t8.5 39.5t15 42.5t16 38.5t11 26.5q54 124 114 254t120 254l309 647q1 5 9.5 12.5t16.5 10.5q5 0 8 -1t9 -1q26 0 55.5 6t58.5 6q43 0 82.5 -5t87.5 -5zM1186 1016q0 -1 -9.5 -27.5t-24.5 -69t-34.5 -96.5
t-39.5 -110t-40 -110.5t-35 -96.5h85q19 0 42.5 -0.5t39.5 -5.5q2 42 5 96.5t6.5 111.5t6 112t5 98t4 70t1.5 28v8q0 4 0.5 9.5t0.5 13.5q-3 -8 -5.5 -13.5t-4.5 -9.5t-3 -8z" />
    <glyph glyph-name="Ccedilla" unicode="&#xc7;" horiz-adv-x="1368" 
d="M778 670q0 -25 1 -48t3 -44q6 -67 21.5 -113.5t38 -75t51 -41t61.5 -12.5q31 0 65 9.5t70 26.5t73 39t73 48l18 -336q-40 -39 -92.5 -71t-110.5 -54.5t-116 -34.5t-109 -12q-56 0 -112.5 2.5t-112 10t-109 22t-102.5 37.5q-20 9 -39.5 20t-38.5 25q-31 26 -58 58t-50 71
q-39 44 -66 102q-25 68 -39 152t-14 190q0 121 24.5 222.5t69.5 185.5q84 171 225.5 265.5t319.5 106.5q12 2 24.5 2h26.5q85 0 174 -18q85 -17 171 -50.5t173 -84.5l-37 -266q-59 14 -121 29.5t-122 15.5q-51 0 -96 -18t-77 -66q-29 -44 -45 -115t-16 -180zM590 -158
l28 175l10 19h219l-26 -132q98 -17 163 -44.5t103.5 -61.5t54.5 -73.5t16 -81.5q0 -55 -18.5 -111t-69 -101.5t-139.5 -74t-230 -28.5q-8 0 -36 1t-62 7t-67.5 18.5t-52.5 36.5l20 111q5 17 12.5 35t10.5 23q67 -30 140 -30q39 0 65 13t41 33t21.5 44t6.5 47
q0 53 -35.5 81.5t-92.5 28.5q-42 0 -87 -16z" />
    <glyph glyph-name="Egrave" unicode="&#xc8;" horiz-adv-x="1397" 
d="M116 805q0 130 2 258.5t15 267.5q0 14 14 22t36 12.5t49 5.5t52 1q128 0 242 3.5t226.5 5.5t231.5 0.5t257 -11.5q19 0 30 -22t18 -55.5t13.5 -73.5t16.5 -76q1 -26 -1.5 -37.5t-8 -16t-15 -3.5t-22.5 1q-51 0 -104 -4t-107 -9t-108 -10.5t-107 -8.5q-9 0 -16.5 -25
t-12.5 -58.5t-7.5 -66.5t-2.5 -49q0 -28 7.5 -35.5t24.5 -7.5q93 0 183 0.5t180 -8.5q16 -2 27 -3t19 -4.5t13.5 -12.5t10.5 -27l8 -183v-6q0 -18 -20 -28t-53.5 -15t-76.5 -6.5t-88 -1.5q-88 0 -137 2t-72 -3.5t-28 -23.5t-5 -57q0 -38 -4 -75.5t-2 -79.5q99 0 198 6t196 6
q7 0 15 -15t16.5 -39t16.5 -52.5t14.5 -55t10.5 -48t4 -30.5q0 -18 -9.5 -30.5t-31.5 -12.5q-74 0 -143.5 -4t-146.5 -4q-161 0 -323.5 -1t-324.5 -1q-8 0 -31.5 2.5t-48 6.5t-43.5 9t-18 11q0 22 -1.5 59.5t-4 82t-5.5 93t-5.5 94t-4 83.5t-1.5 63q0 33 -1 60.5t-2.5 60
t-2.5 75t-1 105.5zM620 1779q-20 36 -35.5 70.5t-30 68.5t-30 67.5t-35.5 68.5q-12 19 -27.5 45.5t-32.5 55t-33 56t-28.5 50.5t-19.5 38t-6 17q0 16 14.5 23t54.5 16q5 0 7.5 -1t7.5 -1l14 4l88 6q6 2 13 2.5t12 3.5q8 -2 20.5 -1.5t22.5 -2.5l12 6q53 0 112 -3t132 -3
l88 -14l16 -14q23 -84 40.5 -159t33.5 -157q5 -54 13 -108.5t15.5 -109t13 -108t5.5 -106.5q0 -22 -6.5 -41.5t-32.5 -19.5q-28 0 -55.5 1t-55.5 1h-59l-8 6l-14 -8q-16 2 -37 2h-39q-15 0 -34 28.5t-39.5 68t-40.5 82t-36 70.5z" />
    <glyph glyph-name="Eacute" unicode="&#xc9;" horiz-adv-x="1397" 
d="M116 805q0 130 2 258.5t15 267.5q0 14 14 22t36 12.5t49 5.5t52 1q128 0 242 3.5t226.5 5.5t231.5 0.5t257 -11.5q19 0 30 -22t18 -55.5t13.5 -73.5t16.5 -76q1 -26 -1.5 -37.5t-8 -16t-15 -3.5t-22.5 1q-51 0 -104 -4t-107 -9t-108 -10.5t-107 -8.5q-9 0 -16.5 -25
t-12.5 -58.5t-7.5 -66.5t-2.5 -49q0 -28 7.5 -35.5t24.5 -7.5q93 0 183 0.5t180 -8.5q16 -2 27 -3t19 -4.5t13.5 -12.5t10.5 -27l8 -183v-6q0 -18 -20 -28t-53.5 -15t-76.5 -6.5t-88 -1.5q-88 0 -137 2t-72 -3.5t-28 -23.5t-5 -57q0 -38 -4 -75.5t-2 -79.5q99 0 198 6t196 6
q7 0 15 -15t16.5 -39t16.5 -52.5t14.5 -55t10.5 -48t4 -30.5q0 -18 -9.5 -30.5t-31.5 -12.5q-74 0 -143.5 -4t-146.5 -4q-161 0 -323.5 -1t-324.5 -1q-8 0 -31.5 2.5t-48 6.5t-43.5 9t-18 11q0 22 -1.5 59.5t-4 82t-5.5 93t-5.5 94t-4 83.5t-1.5 63q0 33 -1 60.5t-2.5 60
t-2.5 75t-1 105.5zM794 1820q-16 -31 -36 -77t-40.5 -89t-39.5 -73.5t-34 -30.5h-39t-37 -2l-14 8l-8 -6h-59q-28 0 -55.5 -1t-55.5 -1q-26 0 -32.5 19.5t-6.5 41.5q0 53 5.5 106.5t13 108t15.5 109t13 108.5q16 82 33.5 157t40.5 159l16 14l88 14q73 0 132 3t112 3l12 -6
q10 3 22.5 2.5t20.5 1.5q5 -3 12 -3.5t13 -2.5l88 -6l14 -4q5 0 7.5 1t7.5 1q40 -9 54.5 -16t14.5 -23q1 -2 -6 -17t-19.5 -38t-28.5 -50.5t-33 -56t-32.5 -55t-27.5 -45.5q-20 -32 -35.5 -63.5t-30 -63t-30 -63t-35.5 -64.5z" />
    <glyph glyph-name="Ecircumflex" unicode="&#xca;" horiz-adv-x="1397" 
d="M116 805q0 130 2 258.5t15 267.5q0 14 14 22t36 12.5t49 5.5t52 1q128 0 242 3.5t226.5 5.5t231.5 0.5t257 -11.5q19 0 30 -22t18 -55.5t13.5 -73.5t16.5 -76q1 -26 -1.5 -37.5t-8 -16t-15 -3.5t-22.5 1q-51 0 -104 -4t-107 -9t-108 -10.5t-107 -8.5q-9 0 -16.5 -25
t-12.5 -58.5t-7.5 -66.5t-2.5 -49q0 -28 7.5 -35.5t24.5 -7.5q93 0 183 0.5t180 -8.5q16 -2 27 -3t19 -4.5t13.5 -12.5t10.5 -27l8 -183v-6q0 -18 -20 -28t-53.5 -15t-76.5 -6.5t-88 -1.5q-88 0 -137 2t-72 -3.5t-28 -23.5t-5 -57q0 -38 -4 -75.5t-2 -79.5q99 0 198 6t196 6
q7 0 15 -15t16.5 -39t16.5 -52.5t14.5 -55t10.5 -48t4 -30.5q0 -18 -9.5 -30.5t-31.5 -12.5q-74 0 -143.5 -4t-146.5 -4q-161 0 -323.5 -1t-324.5 -1q-8 0 -31.5 2.5t-48 6.5t-43.5 9t-18 11q0 22 -1.5 59.5t-4 82t-5.5 93t-5.5 94t-4 83.5t-1.5 63q0 33 -1 60.5t-2.5 60
t-2.5 75t-1 105.5zM839 1716q-35 40 -64 83t-55 83q-58 -99 -109 -176q-22 -33 -44.5 -64.5t-43 -56.5t-37.5 -40t-28 -15h-39.5t-40.5 -2l-10 8l-9 -6h-61q-26 0 -56.5 -1t-58.5 -1q-17 0 -23.5 12.5t-6.5 28.5v14t2 12q10 50 31 100t45.5 100t49.5 100t44 100
q31 60 59.5 116.5t67.5 118.5l14 16l94 23h121l76 -2q20 -2 32 -2.5t23 -1t25.5 -0.5h40.5l61 -6l47 -27q41 -74 84.5 -151t83.5 -156.5t74 -161.5t55 -166q0 -6 1 -12t1 -14q0 -16 -7 -28.5t-24 -12.5q-21 0 -46 1t-48 1h-20l-41 -2q-48 2 -75 2h-44q-11 0 -28.5 21.5
t-37 51.5t-39.5 61.5t-36 51.5z" />
    <glyph glyph-name="Edieresis" unicode="&#xcb;" horiz-adv-x="1397" 
d="M116 805q0 130 2 258.5t15 267.5q0 14 14 22t36 12.5t49 5.5t52 1q128 0 242 3.5t226.5 5.5t231.5 0.5t257 -11.5q19 0 30 -22t18 -55.5t13.5 -73.5t16.5 -76q1 -26 -1.5 -37.5t-8 -16t-15 -3.5t-22.5 1q-51 0 -104 -4t-107 -9t-108 -10.5t-107 -8.5q-9 0 -16.5 -25
t-12.5 -58.5t-7.5 -66.5t-2.5 -49q0 -28 7.5 -35.5t24.5 -7.5q93 0 183 0.5t180 -8.5q16 -2 27 -3t19 -4.5t13.5 -12.5t10.5 -27l8 -183v-6q0 -18 -20 -28t-53.5 -15t-76.5 -6.5t-88 -1.5q-88 0 -137 2t-72 -3.5t-28 -23.5t-5 -57q0 -38 -4 -75.5t-2 -79.5q99 0 198 6t196 6
q7 0 15 -15t16.5 -39t16.5 -52.5t14.5 -55t10.5 -48t4 -30.5q0 -18 -9.5 -30.5t-31.5 -12.5q-74 0 -143.5 -4t-146.5 -4q-161 0 -323.5 -1t-324.5 -1q-8 0 -31.5 2.5t-48 6.5t-43.5 9t-18 11q0 22 -1.5 59.5t-4 82t-5.5 93t-5.5 94t-4 83.5t-1.5 63q0 33 -1 60.5t-2.5 60
t-2.5 75t-1 105.5zM624 1958q14 0 18 -15t4 -37q0 -18 -1 -39.5t-1 -39.5q0 -5 0.5 -14.5t0.5 -21t0.5 -23.5t0.5 -21q0 -23 1.5 -45t1.5 -45q0 -20 -6.5 -37t-24.5 -19h-408l-14 13l-14 65v60q0 20 -2.5 39.5t4.5 39.5l10 64q0 3 -1 7t-1 7q6 18 10.5 30t10.5 18.5t14.5 9
t23.5 2.5h213q26 3 42.5 4.5t27.5 1.5q10 0 16 -1t11.5 -2t11.5 -2t16 -1h13t16 2h6zM1263 1958q14 0 18 -15t4 -37q0 -18 -1 -39.5t-1 -39.5q0 -5 0.5 -14.5t0.5 -21t0.5 -23.5t0.5 -21q0 -14 -2 -24.5t-2 -18.5q0 -13 3.5 -22.5t3.5 -24.5q0 -20 -6.5 -37t-24.5 -19h-305
l-117 13l-14 65v60q0 15 -0.5 26t-4.5 27q-1 4 -1.5 9t-0.5 16.5t-0.5 31.5t-1.5 53q0 3 -1 7.5t-1 7.5q9 13 15 21t14 12t19.5 5t31.5 1h213q26 3 42.5 4.5t27.5 1.5q10 0 16 -1t11 -2t11.5 -2t16.5 -1h13t16 2h6z" />
    <glyph glyph-name="Igrave" unicode="&#xcc;" horiz-adv-x="961" 
d="M857 408q-2 -68 -3 -131.5t-2.5 -117t-6 -92.5t-13.5 -57q-23 0 -52 -1.5t-55 -3t-44 -2.5t-19 -1h-6q-12 0 -18.5 4t-14.5 4q-4 -1 -8 -3q-8 -4 -8 -5h-190q-3 -1 -35.5 -1.5t-73.5 -1t-78 -1t-49 -0.5q-17 0 -28 11.5t-17.5 29.5t-9.5 39.5t-4.5 42.5t-1.5 38.5v26.5
q2 124 2.5 254t5.5 254v647q0 17 11 19t24 2q103 0 204 1t205 1q9 0 19 2.5t28 4t47 0.5t74 -7q9 -8 16.5 -5.5l16.5 5.5q28 0 46.5 -3.5t29.5 -19t15.5 -46t4.5 -84.5v-400q0 -1 -1 -30.5t-2 -74t-3 -95.5t-3 -95.5t-2 -75t-1 -32.5zM273 1779q-20 36 -35.5 70.5t-30 68.5
t-30 67.5t-35.5 68.5q-12 19 -27.5 45.5t-32.5 55t-33 56t-28.5 50.5t-19.5 38t-6 17q0 16 14.5 23t54.5 16q5 0 7.5 -1t7.5 -1l14 4l88 6q6 2 13 2.5t12 3.5q8 -2 20.5 -1.5t22.5 -2.5l12 6q53 0 112 -3t132 -3l88 -14l16 -14q23 -84 40.5 -159t33.5 -157q5 -54 13 -108.5
t15.5 -109t13 -108t5.5 -106.5q0 -22 -6.5 -41.5t-32.5 -19.5q-28 0 -55.5 1t-55.5 1h-59l-8 6l-14 -8q-16 2 -37 2h-39q-15 0 -34 28.5t-39.5 68t-40.5 82t-36 70.5z" />
    <glyph glyph-name="Iacute" unicode="&#xcd;" horiz-adv-x="961" 
d="M857 408q-2 -68 -3 -131.5t-2.5 -117t-6 -92.5t-13.5 -57q-23 0 -52 -1.5t-55 -3t-44 -2.5t-19 -1h-6q-12 0 -18.5 4t-14.5 4q-4 -1 -8 -3q-8 -4 -8 -5h-190q-3 -1 -35.5 -1.5t-73.5 -1t-78 -1t-49 -0.5q-17 0 -28 11.5t-17.5 29.5t-9.5 39.5t-4.5 42.5t-1.5 38.5v26.5
q2 124 2.5 254t5.5 254v647q0 17 11 19t24 2q103 0 204 1t205 1q9 0 19 2.5t28 4t47 0.5t74 -7q9 -8 16.5 -5.5l16.5 5.5q28 0 46.5 -3.5t29.5 -19t15.5 -46t4.5 -84.5v-400q0 -1 -1 -30.5t-2 -74t-3 -95.5t-3 -95.5t-2 -75t-1 -32.5zM594 1800q-16 -31 -36 -77t-40.5 -89
t-39.5 -73.5t-34 -30.5h-39t-37 -2l-14 8l-8 -6h-59q-28 0 -55.5 -1t-55.5 -1q-26 0 -32.5 19.5t-6.5 41.5q0 53 5.5 106.5t13 108t15.5 109t13 108.5q16 82 33.5 157t40.5 159l16 14l88 14q73 0 132 3t112 3l12 -6q10 3 22.5 2.5t20.5 1.5q5 -3 12 -3.5t13 -2.5l88 -6
l14 -4q5 0 7.5 1t7.5 1q40 -9 54.5 -16t14.5 -23q1 -2 -6 -17t-19.5 -38t-28.5 -50.5t-33 -56t-32.5 -55t-27.5 -45.5q-20 -32 -35.5 -63.5t-30 -63t-30 -63t-35.5 -64.5z" />
    <glyph glyph-name="Icircumflex" unicode="&#xce;" horiz-adv-x="961" 
d="M857 408q-2 -68 -3 -131.5t-2.5 -117t-6 -92.5t-13.5 -57q-23 0 -52 -1.5t-55 -3t-44 -2.5t-19 -1h-6q-12 0 -18.5 4t-14.5 4q-4 -1 -8 -3q-8 -4 -8 -5h-190q-3 -1 -35.5 -1.5t-73.5 -1t-78 -1t-49 -0.5q-17 0 -28 11.5t-17.5 29.5t-9.5 39.5t-4.5 42.5t-1.5 38.5v26.5
q2 124 2.5 254t5.5 254v647q0 17 11 19t24 2q103 0 204 1t205 1q9 0 19 2.5t28 4t47 0.5t74 -7q9 -8 16.5 -5.5l16.5 5.5q28 0 46.5 -3.5t29.5 -19t15.5 -46t4.5 -84.5v-400q0 -1 -1 -30.5t-2 -74t-3 -95.5t-3 -95.5t-2 -75t-1 -32.5zM624 1716q-35 40 -64 83t-55 83
q-58 -99 -109 -176q-22 -33 -44.5 -64.5t-43 -56.5t-37.5 -40t-28 -15h-39.5t-40.5 -2l-10 8l-9 -6h-61q-26 0 -56.5 -1t-58.5 -1q-17 0 -23.5 12.5t-6.5 28.5v14t2 12q10 50 31 100t45.5 100t49.5 100t44 100q31 60 59.5 116.5t67.5 118.5l14 16l94 23h121l76 -2
q20 -2 32 -2.5t23 -1t25.5 -0.5h40.5l61 -6l47 -27q41 -74 84.5 -151t83.5 -156.5t74 -161.5t55 -166q0 -6 1 -12t1 -14q0 -16 -7 -28.5t-24 -12.5q-21 0 -46 1t-48 1h-20l-41 -2q-48 2 -75 2h-44q-11 0 -28.5 21.5t-37 51.5t-39.5 61.5t-36 51.5z" />
    <glyph glyph-name="Idieresis" unicode="&#xcf;" horiz-adv-x="961" 
d="M857 408q-2 -68 -3 -131.5t-2.5 -117t-6 -92.5t-13.5 -57q-23 0 -52 -1.5t-55 -3t-44 -2.5t-19 -1h-6q-12 0 -18.5 4t-14.5 4q-4 -1 -8 -3q-8 -4 -8 -5h-190q-3 -1 -35.5 -1.5t-73.5 -1t-78 -1t-49 -0.5q-17 0 -28 11.5t-17.5 29.5t-9.5 39.5t-4.5 42.5t-1.5 38.5v26.5
q2 124 2.5 254t5.5 254v647q0 17 11 19t24 2q103 0 204 1t205 1q9 0 19 2.5t28 4t47 0.5t74 -7q9 -8 16.5 -5.5l16.5 5.5q28 0 46.5 -3.5t29.5 -19t15.5 -46t4.5 -84.5v-400q0 -1 -1 -30.5t-2 -74t-3 -95.5t-3 -95.5t-2 -75t-1 -32.5zM408 1958q14 0 18 -15t4 -37
q0 -18 -1 -39.5t-1 -39.5q0 -5 0.5 -14.5t0.5 -21t0.5 -23.5t0.5 -21q0 -23 1.5 -45t1.5 -45q0 -20 -6.5 -37t-24.5 -19h-408l-14 13l-14 65v60q0 20 -2.5 39.5t4.5 39.5l10 64q0 3 -1 7t-1 7q6 18 10.5 30t10.5 18.5t14.5 9t23.5 2.5h213q26 3 42.5 4.5t27.5 1.5
q10 0 16 -1t11.5 -2t11.5 -2t16 -1h13t16 2h6zM1047 1958q14 0 18 -15t4 -37q0 -18 -1 -39.5t-1 -39.5q0 -5 0.5 -14.5t0.5 -21t0.5 -23.5t0.5 -21q0 -14 -2 -24.5t-2 -18.5q0 -13 3.5 -22.5t3.5 -24.5q0 -20 -6.5 -37t-24.5 -19h-305l-117 13l-14 65v60q0 15 -0.5 26
t-4.5 27q-1 4 -1.5 9t-0.5 16.5t-0.5 31.5t-1.5 53q0 3 -1 7.5t-1 7.5q9 13 15 21t14 12t19.5 5t31.5 1h213q26 3 42.5 4.5t27.5 1.5q10 0 16 -1t11 -2t11.5 -2t16.5 -1h13t16 2h6z" />
    <glyph glyph-name="Eth" unicode="&#xd0;" horiz-adv-x="1833" 
d="M842 -2q-62 0 -122.5 0.5t-125 1.5t-134.5 1.5t-150 0.5q-19 0 -30 12t-16.5 30.5t-7 40.5t-1.5 42q0 31 -1 77.5t-2 104t-2.5 123.5t-2.5 136q-32 0 -60.5 1t-49.5 5t-33.5 10.5t-12.5 18.5q0 36 -0.5 63.5t-1 53.5t-1 53t-0.5 62q0 5 5.5 10.5t14 10t19 7.5t19.5 3h49
t49 1v3v451q0 19 17.5 36t36.5 17q121 0 206.5 -2t150.5 -2q112 0 238.5 3t277.5 3q56 0 119.5 -10.5t126.5 -37.5t121 -73t102 -116.5t70.5 -168.5t26.5 -228q0 -204 -46 -346t-151.5 -230.5t-276.5 -128t-421 -39.5zM858 270q25 -1 47 0q19 1 37.5 4t27.5 11q22 20 41 54
t33 94t22 150.5t8 223.5q0 7 -0.5 37.5t-4 72t-11 88t-21.5 86t-35 65.5t-52 26q-23 0 -39.5 -3.5t-27.5 -7.5q-13 -4 -22 -10v-133t-1 -163q24 -1 47 -2.5t42 -4.5t30.5 -9t11.5 -15q0 -37 -1 -62t-2 -46t-2 -41.5t-1 -47.5q0 -15 -2.5 -26.5t-15 -19.5t-38 -12.5
t-70.5 -5.5q0 -64 -0.5 -118.5t-0.5 -96.5v-88z" />
    <glyph glyph-name="Ntilde" unicode="&#xd1;" horiz-adv-x="1755" 
d="M1665 459q0 -115 -0.5 -193.5t-2.5 -130t-6.5 -79.5t-13 -40.5t-21.5 -15t-32 -2.5q1 0 -35 0.5t-91.5 0.5t-121.5 0.5t-125 0.5q-12 0 -30 -1.5t-38.5 1t-42.5 10.5t-41 27l-208 293q-4 7 -17.5 29t-28.5 46t-29 42.5t-20 18.5q-8 0 -12 -5t-4 -11q0 -14 -0.5 -44
t-1 -68t-1.5 -79.5t-1.5 -78t-1 -65t-0.5 -39.5q0 -17 1 -29.5t-2.5 -21t-13.5 -12t-32 -1.5q-82 -6 -156 -11t-156 -5q-13 0 -34 0.5t-41 0.5t-35.5 0.5t-16.5 0.5l-92 22l-6 17q-1 0 -2 22.5t-2.5 58.5t-2.5 81t-2 91t-2 88.5t-1 72.5q-12 105 -13.5 211t0 211.5t4 211.5
t-0.5 213q-5 26 2.5 42t23 24.5t35 11t38.5 2.5q106 0 190.5 5t145.5 8.5t97 1.5t47 -17q6 -8 25 -34.5t46 -66.5t60 -89.5l68 -102l70 -105l65 -97.5q1 36 1.5 82.5t1.5 95.5t2 96t2.5 84.5t3 60.5t3.5 25q4 4 13 12t21.5 16.5t28 14t32.5 4.5h116q3 0 26 -0.5t56 -1
t71.5 -1.5t71.5 -1.5t55.5 -1t24.5 -0.5q24 0 42 -3t29.5 -12t17.5 -26t6 -45q0 -6 -1.5 -21t-3 -32.5t-3 -33.5t-1.5 -24t3.5 -18t3.5 -21q0 -13 -0.5 -64t-0.5 -120.5t-1 -148.5t-1 -149.5t-0.5 -122t-0.5 -66.5zM1125 2079l313 1q14 -2 26.5 -28.5t22 -66t14 -88
t1.5 -94.5q-2 -41 -22 -83.5t-55 -81t-84 -69.5t-108 -47q-25 -9 -48 -12t-51 -3q-63 0 -110 17t-84 43t-67 55.5t-58 55.5t-56.5 43t-62.5 17q-19 0 -29 -14.5t-15.5 -35.5t-8 -45t-5 -43.5t-7 -30t-13.5 -4.5q-71 3 -116.5 5.5t-72.5 6.5t-40 11t-19 19t-9 30.5t-11 45.5
q0 37 2 83t13.5 93.5t34.5 92.5t65.5 80t107.5 56t159 21q21 0 53.5 -10.5t67 -27.5t65 -38t46.5 -43q11 -14 22.5 -33t25.5 -35.5t31 -28t39 -11.5q28 0 41 11t15 28.5t-3.5 38.5t-14.5 40.5t-19.5 35.5t-16.5 23q1 12 10 16t20 4h11z" />
    <glyph glyph-name="Ograve" unicode="&#xd2;" horiz-adv-x="1742" 
d="M897 -49q-100 0 -198 7t-187 30.5t-165.5 68.5t-132.5 122t-88 190t-32 272q0 209 46.5 357t146 242.5t255.5 138.5t375 44q74 0 158.5 -12t168 -41.5t160 -80t135 -128t93.5 -184.5t35 -250q0 -164 -25 -285t-72.5 -207.5t-115.5 -141.5t-153.5 -86.5t-187 -43.5
t-216.5 -12zM788 670q0 -31 0.5 -82t3 -109t8 -117t15.5 -107t26 -78t39 -30q24 0 40 34t26.5 87t16.5 118.5t8.5 128t3 115.5t0.5 81q0 9 -0.5 51t-3 99.5t-8.5 122t-16.5 119t-26.5 90.5t-40 36q-23 0 -39 -24t-26 -65.5t-15.5 -96.5t-8 -117t-3 -128t-0.5 -128zM792 1779
q-20 36 -35.5 70.5t-30 68.5t-30 67.5t-35.5 68.5q-12 19 -27.5 45.5t-32.5 55t-33 56t-28.5 50.5t-19.5 38t-6 17q0 16 14.5 23t54.5 16q5 0 7.5 -1t7.5 -1l14 4l88 6q6 2 13 2.5t12 3.5q8 -2 20.5 -1.5t22.5 -2.5l12 6q53 0 112 -3t132 -3l88 -14l16 -14q23 -84 40.5 -159
t33.5 -157q5 -54 13 -108.5t15.5 -109t13 -108t5.5 -106.5q0 -22 -6.5 -41.5t-32.5 -19.5q-28 0 -55.5 1t-55.5 1h-59l-8 6l-14 -8q-16 2 -37 2h-39q-15 0 -34 28.5t-39.5 68t-40.5 82t-36 70.5z" />
    <glyph glyph-name="Oacute" unicode="&#xd3;" horiz-adv-x="1742" 
d="M897 -49q-100 0 -198 7t-187 30.5t-165.5 68.5t-132.5 122t-88 190t-32 272q0 209 46.5 357t146 242.5t255.5 138.5t375 44q74 0 158.5 -12t168 -41.5t160 -80t135 -128t93.5 -184.5t35 -250q0 -164 -25 -285t-72.5 -207.5t-115.5 -141.5t-153.5 -86.5t-187 -43.5
t-216.5 -12zM788 670q0 -31 0.5 -82t3 -109t8 -117t15.5 -107t26 -78t39 -30q24 0 40 34t26.5 87t16.5 118.5t8.5 128t3 115.5t0.5 81q0 9 -0.5 51t-3 99.5t-8.5 122t-16.5 119t-26.5 90.5t-40 36q-23 0 -39 -24t-26 -65.5t-15.5 -96.5t-8 -117t-3 -128t-0.5 -128zM984 1800
q-16 -31 -36 -77t-40.5 -89t-39.5 -73.5t-34 -30.5h-39t-37 -2l-14 8l-8 -6h-59q-28 0 -55.5 -1t-55.5 -1q-26 0 -32.5 19.5t-6.5 41.5q0 53 5.5 106.5t13 108t15.5 109t13 108.5q16 82 33.5 157t40.5 159l16 14l88 14q73 0 132 3t112 3l12 -6q10 3 22.5 2.5t20.5 1.5
q5 -3 12 -3.5t13 -2.5l88 -6l14 -4q5 0 7.5 1t7.5 1q40 -9 54.5 -16t14.5 -23q1 -2 -6 -17t-19.5 -38t-28.5 -50.5t-33 -56t-32.5 -55t-27.5 -45.5q-20 -32 -35.5 -63.5t-30 -63t-30 -63t-35.5 -64.5z" />
    <glyph glyph-name="Ocircumflex" unicode="&#xd4;" horiz-adv-x="1742" 
d="M897 -49q-100 0 -198 7t-187 30.5t-165.5 68.5t-132.5 122t-88 190t-32 272q0 209 46.5 357t146 242.5t255.5 138.5t375 44q74 0 158.5 -12t168 -41.5t160 -80t135 -128t93.5 -184.5t35 -250q0 -164 -25 -285t-72.5 -207.5t-115.5 -141.5t-153.5 -86.5t-187 -43.5
t-216.5 -12zM788 670q0 -31 0.5 -82t3 -109t8 -117t15.5 -107t26 -78t39 -30q24 0 40 34t26.5 87t16.5 118.5t8.5 128t3 115.5t0.5 81q0 9 -0.5 51t-3 99.5t-8.5 122t-16.5 119t-26.5 90.5t-40 36q-23 0 -39 -24t-26 -65.5t-15.5 -96.5t-8 -117t-3 -128t-0.5 -128zM988 1716
q-35 40 -64 83t-55 83q-58 -99 -109 -176q-22 -33 -44.5 -64.5t-43 -56.5t-37.5 -40t-28 -15h-39.5t-40.5 -2l-10 8l-9 -6h-61q-26 0 -56.5 -1t-58.5 -1q-17 0 -23.5 12.5t-6.5 28.5v14t2 12q10 50 31 100t45.5 100t49.5 100t44 100q31 60 59.5 116.5t67.5 118.5l14 16
l94 23h121l76 -2q20 -2 32 -2.5t23 -1t25.5 -0.5h40.5l61 -6l47 -27q41 -74 84.5 -151t83.5 -156.5t74 -161.5t55 -166q0 -6 1 -12t1 -14q0 -16 -7 -28.5t-24 -12.5q-21 0 -46 1t-48 1h-20l-41 -2q-48 2 -75 2h-44q-11 0 -28.5 21.5t-37 51.5t-39.5 61.5t-36 51.5z" />
    <glyph glyph-name="Otilde" unicode="&#xd5;" horiz-adv-x="1742" 
d="M897 -49q-100 0 -198 7t-187 30.5t-165.5 68.5t-132.5 122t-88 190t-32 272q0 209 46.5 357t146 242.5t255.5 138.5t375 44q74 0 158.5 -12t168 -41.5t160 -80t135 -128t93.5 -184.5t35 -250q0 -164 -25 -285t-72.5 -207.5t-115.5 -141.5t-153.5 -86.5t-187 -43.5
t-216.5 -12zM788 670q0 -31 0.5 -82t3 -109t8 -117t15.5 -107t26 -78t39 -30q24 0 40 34t26.5 87t16.5 118.5t8.5 128t3 115.5t0.5 81q0 9 -0.5 51t-3 99.5t-8.5 122t-16.5 119t-26.5 90.5t-40 36q-23 0 -39 -24t-26 -65.5t-15.5 -96.5t-8 -117t-3 -128t-0.5 -128z
M1100 2059l313 1q14 -2 26.5 -28.5t22 -66t14 -88t1.5 -94.5q-2 -41 -22 -83.5t-55 -81t-84 -69.5t-108 -47q-25 -9 -48 -12t-51 -3q-63 0 -110 17t-84 43t-67 55.5t-58 55.5t-56.5 43t-62.5 17q-19 0 -29 -14.5t-15.5 -35.5t-8 -45t-5 -43.5t-7 -30t-13.5 -4.5
q-71 3 -116.5 5.5t-72.5 6.5t-40 11t-19 19t-9 30.5t-11 45.5q0 37 2 83t13.5 93.5t34.5 92.5t65.5 80t107.5 56t159 21q21 0 53.5 -10.5t67 -27.5t65 -38t46.5 -43q11 -14 22.5 -33t25.5 -35.5t31 -28t39 -11.5q28 0 41 11t15 28.5t-3.5 38.5t-14.5 40.5t-19.5 35.5
t-16.5 23q1 12 10 16t20 4h11z" />
    <glyph glyph-name="Odieresis" unicode="&#xd6;" horiz-adv-x="1742" 
d="M897 -49q-100 0 -198 7t-187 30.5t-165.5 68.5t-132.5 122t-88 190t-32 272q0 209 46.5 357t146 242.5t255.5 138.5t375 44q74 0 158.5 -12t168 -41.5t160 -80t135 -128t93.5 -184.5t35 -250q0 -164 -25 -285t-72.5 -207.5t-115.5 -141.5t-153.5 -86.5t-187 -43.5
t-216.5 -12zM788 670q0 -31 0.5 -82t3 -109t8 -117t15.5 -107t26 -78t39 -30q24 0 40 34t26.5 87t16.5 118.5t8.5 128t3 115.5t0.5 81q0 9 -0.5 51t-3 99.5t-8.5 122t-16.5 119t-26.5 90.5t-40 36q-23 0 -39 -24t-26 -65.5t-15.5 -96.5t-8 -117t-3 -128t-0.5 -128zM796 1958
q14 0 18 -15t4 -37q0 -18 -1 -39.5t-1 -39.5q0 -5 0.5 -14.5t0.5 -21t0.5 -23.5t0.5 -21q0 -23 1.5 -45t1.5 -45q0 -20 -6.5 -37t-24.5 -19h-408l-14 13l-14 65v60q0 20 -2.5 39.5t4.5 39.5l10 64q0 3 -1 7t-1 7q6 18 10.5 30t10.5 18.5t14.5 9t23.5 2.5h213q26 3 42.5 4.5
t27.5 1.5q10 0 16 -1t11.5 -2t11.5 -2t16 -1h13t16 2h6zM1435 1958q14 0 18 -15t4 -37q0 -18 -1 -39.5t-1 -39.5q0 -5 0.5 -14.5t0.5 -21t0.5 -23.5t0.5 -21q0 -14 -2 -24.5t-2 -18.5q0 -13 3.5 -22.5t3.5 -24.5q0 -20 -6.5 -37t-24.5 -19h-305l-117 13l-14 65v60
q0 15 -0.5 26t-4.5 27q-1 4 -1.5 9t-0.5 16.5t-0.5 31.5t-1.5 53q0 3 -1 7.5t-1 7.5q9 13 15 21t14 12t19.5 5t31.5 1h213q26 3 42.5 4.5t27.5 1.5q10 0 16 -1t11 -2t11.5 -2t16.5 -1h13t16 2h6z" />
    <glyph glyph-name="multiply" unicode="&#xd7;" horiz-adv-x="1595" 
d="M955 1282q15 16 33 34q16 16 38 36t50 41q6 2 15 4t20 2q31 0 73 -20.5t87 -52.5t88.5 -70.5t78 -74t55.5 -63.5t21 -39q-3 -7 -22.5 -31.5t-48.5 -59.5t-64 -76t-68.5 -79.5t-62 -70.5t-43.5 -49l-28 -33l26 -31q18 -21 46.5 -55.5t61 -74.5t65.5 -82t59.5 -76t43 -57
t17.5 -25q0 -15 -23.5 -45t-61.5 -66t-85 -73.5t-94 -68.5t-89 -51t-69 -20q-6 0 -12 2.5t-14 7.5q-27 20 -48.5 40t-36.5 36q-18 18 -30 35l-148 172l-149 -168q-15 -18 -33 -36q-16 -16 -37.5 -36t-48.5 -41q-17 -10 -29 -10q-30 0 -71.5 20.5t-86.5 52t-89.5 70t-80 74.5
t-57.5 65t-22 42q2 5 21 29.5t47.5 59t63 75.5t68 80t61.5 71.5t44 50.5l29 33l-23 31q-15 18 -43 51t-60.5 72.5t-66.5 81t-62 76.5t-45.5 59t-17.5 28q0 12 22.5 40.5t59 64.5t82 74.5t91.5 70t88 52t71 20.5q11 0 19 -2l16 -4q27 -21 49 -41.5t37 -36.5q18 -18 31 -35
l141 -172z" />
    <glyph glyph-name="Oslash" unicode="&#xd8;" horiz-adv-x="1846" 
d="M926 -49q-68 0 -135.5 3t-132 11.5t-125.5 24.5t-115 43q-54 -54 -96.5 -92.5t-70.5 -49.5q-20 5 -32 10t-22 9q-20 18 -30 25t-12 9q-23 12 -29.5 23.5t-4 23t11.5 22.5l18 22q20 20 48.5 50.5t63.5 66.5q-65 77 -102.5 196t-37.5 293q0 209 46.5 357t146 242.5
t255.5 138.5t375 44q57 0 120.5 -7t128 -23.5t128 -43.5t120.5 -68l136 123q14 8 24.5 6t19.5 -7q11 -5 28.5 -16.5t33.5 -14.5q24 -14 38 -23t13.5 -22.5t-17 -36t-53.5 -63.5q-11 -10 -24 -22q-11 -11 -27.5 -25.5t-36.5 -32.5q54 -77 86 -180t32 -240q0 -164 -25 -285
t-72.5 -207.5t-115.5 -141.5t-153.5 -86.5t-187 -43.5t-216.5 -12zM909 1229q-22 0 -37 -21.5t-25.5 -58.5t-16.5 -87t-8.5 -107.5t-3.5 -119t-1 -121.5l182 165q-3 57 -9 119t-16.5 113t-26 84.5t-38.5 33.5zM822 438q3 -54 9.5 -106t16.5 -93.5t25 -66.5t36 -25
q19 0 33.5 22.5t24.5 60t16.5 86.5t10.5 100.5t6 103t3 94.5z" />
    <glyph glyph-name="Ugrave" unicode="&#xd9;" horiz-adv-x="1790" 
d="M1029 72q-52 -26 -111 -48t-121 -38t-126.5 -24.5t-127.5 -8.5q-103 0 -175 23.5t-120 66t-75 101t-40.5 129t-16.5 150t-3 163.5q0 81 4 163.5t9.5 166.5t9.5 170t4 174q0 23 -4 43t-4 43q0 22 21.5 28t47.5 6q60 0 121.5 1t124.5 -0.5t127.5 -7.5t130.5 -19
q28 -8 45.5 -17.5t27 -25t12.5 -41t3 -64.5q0 -82 -2 -167.5t-5 -181.5t-5 -205t-2 -238q0 -75 5.5 -109.5t33.5 -34.5q32 0 63 9.5t57 20.5q30 13 58 30v823q-4 23 -6 47t-3 44.5t-1 35v18.5q0 19 2.5 31t11 19.5t24.5 10.5t44 3q21 0 63.5 1.5t89.5 4t89 4.5t61 4
q4 0 24.5 -1t44.5 -2q27 -2 62 -3q70 -8 109.5 -16.5t59 -16.5t24 -16.5t4.5 -17.5q0 -155 -4 -306.5t-8.5 -302t-8.5 -301.5t-4 -305q0 -42 -18 -62t-58 -20q-15 0 -42.5 -0.5t-62 -2t-73.5 -3t-77 -2.5q-90 -4 -193 -8q-51 0 -80 19t-41 63zM816 1779q-20 36 -35.5 70.5
t-30 68.5t-30 67.5t-35.5 68.5q-12 19 -27.5 45.5t-32.5 55t-33 56t-28.5 50.5t-19.5 38t-6 17q0 16 14.5 23t54.5 16q5 0 7.5 -1t7.5 -1l14 4l88 6q6 2 13 2.5t12 3.5q8 -2 20.5 -1.5t22.5 -2.5l12 6q53 0 112 -3t132 -3l88 -14l16 -14q23 -84 40.5 -159t33.5 -157
q5 -54 13 -108.5t15.5 -109t13 -108t5.5 -106.5q0 -22 -6.5 -41.5t-32.5 -19.5q-28 0 -55.5 1t-55.5 1h-59l-8 6l-14 -8q-16 2 -37 2h-39q-15 0 -34 28.5t-39.5 68t-40.5 82t-36 70.5z" />
    <glyph glyph-name="Uacute" unicode="&#xda;" 
d="M1075 1817q-16 -31 -36 -77t-40.5 -89t-39.5 -73.5t-34 -30.5h-39t-37 -2l-14 8l-8 -6h-59q-28 0 -55.5 -1t-55.5 -1q-26 0 -32.5 19.5t-6.5 41.5q0 53 5.5 106.5t13 108t15.5 109t13 108.5q16 82 33.5 157t40.5 159l16 14l88 14q73 0 132 3t112 3l12 -6q10 3 22.5 2.5
t20.5 1.5q5 -3 12 -3.5t13 -2.5l88 -6l14 -4q5 0 7.5 1t7.5 1q40 -9 54.5 -16t14.5 -23q1 -2 -6 -17t-19.5 -38t-28.5 -50.5t-33 -56t-32.5 -55t-27.5 -45.5q-20 -32 -35.5 -63.5t-30 -63t-30 -63t-35.5 -64.5zM1029 72q-52 -26 -111 -48t-121 -38t-126.5 -24.5t-127.5 -8.5
q-103 0 -175 23.5t-120 66t-75 101t-40.5 129t-16.5 150t-3 163.5q0 81 4 163.5t9.5 166.5t9.5 170t4 174q0 23 -4 43t-4 43q0 22 21.5 28t47.5 6q60 0 121.5 1t124.5 -0.5t127.5 -7.5t130.5 -19q28 -8 45.5 -17.5t27 -25t12.5 -41t3 -64.5q0 -82 -2 -167.5t-5 -181.5
t-5 -205t-2 -238q0 -75 5.5 -109.5t33.5 -34.5q32 0 63 9.5t57 20.5q30 13 58 30v823q-4 23 -6 47t-3 44.5t-1 35v18.5q0 19 2.5 31t11 19.5t24.5 10.5t44 3q21 0 63.5 1.5t89.5 4t89 4.5t61 4q4 0 24.5 -1t44.5 -2q27 -2 62 -3q70 -8 109.5 -16.5t59 -16.5t24 -16.5
t4.5 -17.5q0 -155 -4 -306.5t-8.5 -302t-8.5 -301.5t-4 -305q0 -42 -18 -62t-58 -20q-15 0 -42.5 -0.5t-62 -2t-73.5 -3t-77 -2.5q-90 -4 -193 -8q-51 0 -80 19t-41 63z" />
    <glyph glyph-name="Ucircumflex" unicode="&#xdb;" 
d="M1002 1733q-35 40 -64 83t-55 83q-58 -99 -109 -176q-22 -33 -44.5 -64.5t-43 -56.5t-37.5 -40t-28 -15h-39.5t-40.5 -2l-10 8l-9 -6h-61q-26 0 -56.5 -1t-58.5 -1q-17 0 -23.5 12.5t-6.5 28.5v14t2 12q10 50 31 100t45.5 100t49.5 100t44 100q31 60 59.5 116.5
t67.5 118.5l14 16l94 23h121l76 -2q20 -2 32 -2.5t23 -1t25.5 -0.5h40.5l61 -6l47 -27q41 -74 84.5 -151t83.5 -156.5t74 -161.5t55 -166q0 -6 1 -12t1 -14q0 -16 -7 -28.5t-24 -12.5q-21 0 -46 1t-48 1h-20l-41 -2q-48 2 -75 2h-44q-11 0 -28.5 21.5t-37 51.5t-39.5 61.5
t-36 51.5zM1029 72q-52 -26 -111 -48t-121 -38t-126.5 -24.5t-127.5 -8.5q-103 0 -175 23.5t-120 66t-75 101t-40.5 129t-16.5 150t-3 163.5q0 81 4 163.5t9.5 166.5t9.5 170t4 174q0 23 -4 43t-4 43q0 22 21.5 28t47.5 6q60 0 121.5 1t124.5 -0.5t127.5 -7.5t130.5 -19
q28 -8 45.5 -17.5t27 -25t12.5 -41t3 -64.5q0 -82 -2 -167.5t-5 -181.5t-5 -205t-2 -238q0 -75 5.5 -109.5t33.5 -34.5q32 0 63 9.5t57 20.5q30 13 58 30v823q-4 23 -6 47t-3 44.5t-1 35v18.5q0 19 2.5 31t11 19.5t24.5 10.5t44 3q21 0 63.5 1.5t89.5 4t89 4.5t61 4
q4 0 24.5 -1t44.5 -2q27 -2 62 -3q70 -8 109.5 -16.5t59 -16.5t24 -16.5t4.5 -17.5q0 -155 -4 -306.5t-8.5 -302t-8.5 -301.5t-4 -305q0 -42 -18 -62t-58 -20q-15 0 -42.5 -0.5t-62 -2t-73.5 -3t-77 -2.5q-90 -4 -193 -8q-51 0 -80 19t-41 63z" />
    <glyph glyph-name="Udieresis" unicode="&#xdc;" 
d="M823 1902q14 0 18 -15t4 -37q0 -18 -1 -39.5t-1 -39.5q0 -5 0.5 -14.5t0.5 -21t0.5 -23.5t0.5 -21q0 -23 1.5 -45t1.5 -45q0 -20 -6.5 -37t-24.5 -19h-408l-14 13l-14 65v60q0 20 -2.5 39.5t4.5 39.5l10 64q0 3 -1 7t-1 7q6 18 10.5 30t10.5 18.5t14.5 9t23.5 2.5h213
q26 3 42.5 4.5t27.5 1.5q10 0 16 -1t11.5 -2t11.5 -2t16 -1h13t16 2h6zM1462 1902q14 0 18 -15t4 -37q0 -18 -1 -39.5t-1 -39.5q0 -5 0.5 -14.5t0.5 -21t0.5 -23.5t0.5 -21q0 -14 -2 -24.5t-2 -18.5q0 -13 3.5 -22.5t3.5 -24.5q0 -20 -6.5 -37t-24.5 -19h-305l-117 13
l-14 65v60q0 15 -0.5 26t-4.5 27q-1 4 -1.5 9t-0.5 16.5t-0.5 31.5t-1.5 53q0 3 -1 7.5t-1 7.5q9 13 15 21t14 12t19.5 5t31.5 1h213q26 3 42.5 4.5t27.5 1.5q10 0 16 -1t11 -2t11.5 -2t16.5 -1h13t16 2h6zM1029 72q-52 -26 -111 -48t-121 -38t-126.5 -24.5t-127.5 -8.5
q-103 0 -175 23.5t-120 66t-75 101t-40.5 129t-16.5 150t-3 163.5q0 81 4 163.5t9.5 166.5t9.5 170t4 174q0 23 -4 43t-4 43q0 22 21.5 28t47.5 6q60 0 121.5 1t124.5 -0.5t127.5 -7.5t130.5 -19q28 -8 45.5 -17.5t27 -25t12.5 -41t3 -64.5q0 -82 -2 -167.5t-5 -181.5
t-5 -205t-2 -238q0 -75 5.5 -109.5t33.5 -34.5q32 0 63 9.5t57 20.5q30 13 58 30v823q-4 23 -6 47t-3 44.5t-1 35v18.5q0 19 2.5 31t11 19.5t24.5 10.5t44 3q21 0 63.5 1.5t89.5 4t89 4.5t61 4q4 0 24.5 -1t44.5 -2q27 -2 62 -3q70 -8 109.5 -16.5t59 -16.5t24 -16.5
t4.5 -17.5q0 -155 -4 -306.5t-8.5 -302t-8.5 -301.5t-4 -305q0 -42 -18 -62t-58 -20q-15 0 -42.5 -0.5t-62 -2t-73.5 -3t-77 -2.5q-90 -4 -193 -8q-51 0 -80 19t-41 63z" />
    <glyph glyph-name="Yacute" unicode="&#xdd;" horiz-adv-x="1678" 
d="M1129 1830q-16 -31 -36 -77t-40.5 -89t-39.5 -73.5t-34 -30.5h-39t-37 -2l-14 8l-8 -6h-59q-28 0 -55.5 -1t-55.5 -1q-26 0 -32.5 19.5t-6.5 41.5q0 53 5.5 106.5t13 108t15.5 109t13 108.5q16 82 33.5 157t40.5 159l16 14l88 14q73 0 132 3t112 3l12 -6q10 3 22.5 2.5
t20.5 1.5q5 -3 12 -3.5t13 -2.5l88 -6l14 -4q5 0 7.5 1t7.5 1q40 -9 54.5 -16t14.5 -23q1 -2 -6 -17t-19.5 -38t-28.5 -50.5t-33 -56t-32.5 -55t-27.5 -45.5q-20 -32 -35.5 -63.5t-30 -63t-30 -63t-35.5 -64.5zM939 -182q-6 0 -10 -2t-6 -2q-5 0 -8 3t-9 15q-51 6 -92 18
t-72 21q-2 1 -9.5 2t-17 2t-18 2t-10.5 2q-17 4 -46.5 13t-64 21t-69.5 25.5t-64 27t-47 26t-18 22.5q0 19 5.5 40.5t14 42.5t18.5 42t19 39q8 18 22.5 40t28.5 45t24.5 45t10.5 40q0 20 -10.5 34.5t-23 28t-23 27.5t-10.5 33q-7 0 -8 -1t-3 -1t-3.5 1t-4.5 7
q-27 35 -61.5 86.5t-71.5 111t-73 123.5t-66 124q-7 13 -17.5 35.5t-22 50t-23 57.5t-21 57t-15.5 49t-6 33q0 13 12.5 26.5t31.5 26.5t41 24t40 19q25 3 46.5 9.5t38 13t28.5 11.5t20 5t36 6t65 15t77.5 20.5t73.5 22.5q3 0 6 1q2 0 4.5 0.5t4.5 0.5q20 0 34 -5.5t24.5 -16
t19.5 -25.5t18 -33q6 -11 15 -23.5t18.5 -24.5t17.5 -22t12 -16q15 -22 36 -58.5t42 -71t39.5 -60t30.5 -25.5q7 0 20.5 22t30.5 56t35.5 75.5t35.5 80t30.5 69.5t19.5 45q4 14 8 25.5t9.5 20t15 13.5t24.5 5q32 0 77 -8t94.5 -22.5t101 -34.5t96.5 -42.5t80.5 -47.5
t54.5 -50q0 -29 -7 -55t-18 -48q-96 -210 -188.5 -417.5t-187.5 -415.5q-2 -2 -5.5 -3t-5.5 -3q-62 -121 -124 -239l-124 -236q-3 -7 -10.5 -8t-13.5 -1v13z" />
    <glyph glyph-name="Thorn" unicode="&#xde;" horiz-adv-x="1696" 
d="M118 827q1 77 2.5 157t3 151t3 129t1.5 91q0 20 1.5 42t7 40.5t16.5 30.5t30 12q94 0 158.5 -1t119 -2t108 -2t124.5 -1q27 0 48 -2.5t35.5 -13t22 -31.5t7.5 -58q0 -23 0.5 -39t0.5 -28.5t0.5 -24t0.5 -24.5q66 1 137 2t149 1q56 0 119.5 -6.5t126.5 -23t121 -45.5
t102 -73.5t70.5 -106.5t26.5 -146q0 -148 -41 -249t-116 -163.5t-181 -89.5t-236 -27h-280q1 -42 1.5 -68.5t0 -51.5t-1 -55t-0.5 -78q0 -37 -7.5 -58t-22 -31.5t-35.5 -13t-48 -2.5q-71 0 -124.5 -1t-108 -2t-119 -2t-158.5 -1q-19 0 -30 12t-16.5 30.5t-7 40.5t-1.5 42
q0 41 -1.5 110.5t-3 155t-3 181t-2.5 188.5v62v36v7zM822 528q0 -2 11 -4q8 -2 27 -2.5t54 -0.5q23 0 39.5 23t27 58.5t16 79.5t8 86t3 77.5t0.5 54.5q0 2 -0.5 15t-4.5 31t-13 38.5t-25 37.5t-40.5 28.5t-60.5 11.5q-8 0 -14 -23t-10.5 -60.5t-7.5 -85.5t-5 -98
q-4 -118 -5 -267z" />
    <glyph glyph-name="germandbls" unicode="&#xdf;" horiz-adv-x="1812" 
d="M913 449q56 9 110.5 15t110.5 15q27 5 39 25t12 40q0 21 -32 29q-60 37 -112 51t-110 18l2 244q11 6 24 13t25 13.5t20.5 11t10.5 4.5q12 4 27 8.5t28 14.5t21.5 27.5t8.5 46.5q0 19 -26 30t-61 17t-70 7.5t-52 1.5q-32 0 -50 -11.5t-26.5 -31.5t-10 -46t-1.5 -54v-14.5
v-31t0.5 -40t0.5 -39.5v-31v-14l-3 -120q0 -6 1 -29t2.5 -49t2.5 -48.5t1 -27.5v-104q0 -42 -1.5 -78t-3 -70t-2.5 -69.5t-1 -77.5q-2 -9 -5.5 -21t-9.5 -22.5t-14 -18.5t-18 -9q-27 -5 -46 -7.5t-35.5 -4t-34 -1.5h-41.5h-226t-146 3.5t-78 12t-23 24.5q0 13 0.5 43.5
t1 68.5t1.5 80.5t1.5 79.5t1 65.5t0.5 38.5q0 47 -2.5 91t-6 88t-6 88t-2.5 91q0 160 24.5 270t69 181t105.5 109.5t135 56.5t158 21t173 3q29 0 44 -0.5t23 -1t13 -1t13 -1t23 -1t44 -0.5q58 -8 126 -17.5t136.5 -25.5t131.5 -41.5t112 -65.5t78 -97.5t29 -137.5
q0 -75 -29.5 -128t-91.5 -92q-19 -9 -40 -15.5t-29 -17.5l6 -8q97 -19 163 -51t108 -82.5t63.5 -122t30.5 -169.5q1 -11 2 -21t1 -21q0 -40 -15.5 -80.5t-51.5 -77.5t-96.5 -69t-151 -55t-213.5 -36.5t-285 -13.5l-6 -1v474z" />
    <glyph glyph-name="agrave" unicode="&#xe0;" horiz-adv-x="1637" 
d="M631 1167q36 0 61.5 1t45.5 2t37.5 2.5t39 2.5t50 2t69.5 1q7 0 27.5 -0.5t47.5 -1.5t58 -1.5t58.5 -1.5t49 -1.5t29.5 -0.5q12 0 21.5 -4t21.5 -4h16q7 -2 12 -8.5t5 -11.5l145 -541q28 -106 55 -219t50 -221q2 -12 8 -39.5t7.5 -55t-4.5 -48.5t-28 -21h-23.5t-39.5 0.5
t-45.5 1t-44 1t-34.5 0.5t-15 1h-113q0 2 -2 5t-14 3q-2 0 -4 -4t-5 -4h-6q-1 0 -15.5 1t-35 2.5t-43 3t-39.5 1.5q-12 22 -25.5 77.5t-27.5 129.5q-21 -4 -46 -5.5t-52 -1.5t-54 0.5t-51 0.5q-15 -71 -28 -125t-25 -76q-6 0 -15.5 -4t-11.5 -4h-4q-11 0 -16.5 4t-10.5 4
q-45 -1 -80 -3q-30 -2 -54.5 -3t-24.5 -2h-166q-1 0 -14.5 -0.5t-34 -1t-44.5 -1t-46 -1t-39.5 -0.5h-24.5q-21 0 -27 21t-4 48.5t7.5 55t7.5 39.5q23 108 49.5 221t54.5 219l139 545q0 5 6 11.5t11 8.5h16q23 0 40 4.5t42 4.5q38 0 73 -4.5t77 -4.5zM874 883q0 -1 -4 -24
t-10 -60t-14.5 -84.5t-16.5 -96.5t-16 -96t-14 -84h90q2 2 6 4t6 2h4q17 0 30 -3.5t27 -6.5q-6 37 -14 84.5t-16 97t-16.5 97t-14.5 85t-10 61t-4 24.5q-1 2 -2 6q-1 3 -2 8t-3 12q-2 -7 -3 -12t-2 -8q-1 -4 -1 -6zM740 1556q-20 36 -35.5 70.5t-30 68.5t-30 67.5
t-35.5 68.5q-12 19 -27.5 45.5t-32.5 55t-33 56t-28.5 50.5t-19.5 38t-6 17q0 16 14.5 23t54.5 16q5 0 7.5 -1t7.5 -1l14 4l88 6q6 2 13 2.5t12 3.5q8 -2 20.5 -1.5t22.5 -2.5l12 6q53 0 112 -3t132 -3l88 -14l16 -14q23 -84 40.5 -159t33.5 -157q5 -54 13 -108.5t15.5 -109
t13 -108t5.5 -106.5q0 -22 -6.5 -41.5t-32.5 -19.5q-28 0 -55.5 1t-55.5 1h-59l-8 6l-14 -8q-16 2 -37 2h-39q-15 0 -34 28.5t-39.5 68t-40.5 82t-36 70.5z" />
    <glyph glyph-name="aacute" unicode="&#xe1;" horiz-adv-x="1637" 
d="M631 1167q36 0 61.5 1t45.5 2t37.5 2.5t39 2.5t50 2t69.5 1q7 0 27.5 -0.5t47.5 -1.5t58 -1.5t58.5 -1.5t49 -1.5t29.5 -0.5q12 0 21.5 -4t21.5 -4h16q7 -2 12 -8.5t5 -11.5l145 -541q28 -106 55 -219t50 -221q2 -12 8 -39.5t7.5 -55t-4.5 -48.5t-28 -21h-23.5t-39.5 0.5
t-45.5 1t-44 1t-34.5 0.5t-15 1h-113q0 2 -2 5t-14 3q-2 0 -4 -4t-5 -4h-6q-1 0 -15.5 1t-35 2.5t-43 3t-39.5 1.5q-12 22 -25.5 77.5t-27.5 129.5q-21 -4 -46 -5.5t-52 -1.5t-54 0.5t-51 0.5q-15 -71 -28 -125t-25 -76q-6 0 -15.5 -4t-11.5 -4h-4q-11 0 -16.5 4t-10.5 4
q-45 -1 -80 -3q-30 -2 -54.5 -3t-24.5 -2h-166q-1 0 -14.5 -0.5t-34 -1t-44.5 -1t-46 -1t-39.5 -0.5h-24.5q-21 0 -27 21t-4 48.5t7.5 55t7.5 39.5q23 108 49.5 221t54.5 219l139 545q0 5 6 11.5t11 8.5h16q23 0 40 4.5t42 4.5q38 0 73 -4.5t77 -4.5zM874 883q0 -1 -4 -24
t-10 -60t-14.5 -84.5t-16.5 -96.5t-16 -96t-14 -84h90q2 2 6 4t6 2h4q17 0 30 -3.5t27 -6.5q-6 37 -14 84.5t-16 97t-16.5 97t-14.5 85t-10 61t-4 24.5q-1 2 -2 6q-1 3 -2 8t-3 12q-2 -7 -3 -12t-2 -8q-1 -4 -1 -6zM932 1577q-16 -31 -36 -77t-40.5 -89t-39.5 -73.5
t-34 -30.5h-39t-37 -2l-14 8l-8 -6h-59q-28 0 -55.5 -1t-55.5 -1q-26 0 -32.5 19.5t-6.5 41.5q0 53 5.5 106.5t13 108t15.5 109t13 108.5q16 82 33.5 157t40.5 159l16 14l88 14q73 0 132 3t112 3l12 -6q10 3 22.5 2.5t20.5 1.5q5 -3 12 -3.5t13 -2.5l88 -6l14 -4q5 0 7.5 1
t7.5 1q40 -9 54.5 -16t14.5 -23q1 -2 -6 -17t-19.5 -38t-28.5 -50.5t-33 -56t-32.5 -55t-27.5 -45.5q-20 -32 -35.5 -63.5t-30 -63t-30 -63t-35.5 -64.5z" />
    <glyph glyph-name="acircumflex" unicode="&#xe2;" horiz-adv-x="1637" 
d="M631 1167q36 0 61.5 1t45.5 2t37.5 2.5t39 2.5t50 2t69.5 1q7 0 27.5 -0.5t47.5 -1.5t58 -1.5t58.5 -1.5t49 -1.5t29.5 -0.5q12 0 21.5 -4t21.5 -4h16q7 -2 12 -8.5t5 -11.5l145 -541q28 -106 55 -219t50 -221q2 -12 8 -39.5t7.5 -55t-4.5 -48.5t-28 -21h-23.5t-39.5 0.5
t-45.5 1t-44 1t-34.5 0.5t-15 1h-113q0 2 -2 5t-14 3q-2 0 -4 -4t-5 -4h-6q-1 0 -15.5 1t-35 2.5t-43 3t-39.5 1.5q-12 22 -25.5 77.5t-27.5 129.5q-21 -4 -46 -5.5t-52 -1.5t-54 0.5t-51 0.5q-15 -71 -28 -125t-25 -76q-6 0 -15.5 -4t-11.5 -4h-4q-11 0 -16.5 4t-10.5 4
q-45 -1 -80 -3q-30 -2 -54.5 -3t-24.5 -2h-166q-1 0 -14.5 -0.5t-34 -1t-44.5 -1t-46 -1t-39.5 -0.5h-24.5q-21 0 -27 21t-4 48.5t7.5 55t7.5 39.5q23 108 49.5 221t54.5 219l139 545q0 5 6 11.5t11 8.5h16q23 0 40 4.5t42 4.5q38 0 73 -4.5t77 -4.5zM874 883q0 -1 -4 -24
t-10 -60t-14.5 -84.5t-16.5 -96.5t-16 -96t-14 -84h90q2 2 6 4t6 2h4q17 0 30 -3.5t27 -6.5q-6 37 -14 84.5t-16 97t-16.5 97t-14.5 85t-10 61t-4 24.5q-1 2 -2 6q-1 3 -2 8t-3 12q-2 -7 -3 -12t-2 -8q-1 -4 -1 -6zM959 1493q-35 40 -64 83t-55 83q-58 -99 -109 -176
q-22 -33 -44.5 -64.5t-43 -56.5t-37.5 -40t-28 -15h-39.5t-40.5 -2l-10 8l-9 -6h-61q-26 0 -56.5 -1t-58.5 -1q-17 0 -23.5 12.5t-6.5 28.5v14t2 12q10 50 31 100t45.5 100t49.5 100t44 100q31 60 59.5 116.5t67.5 118.5l14 16l94 23h121l76 -2q20 -2 32 -2.5t23 -1
t25.5 -0.5h40.5l61 -6l47 -27q41 -74 84.5 -151t83.5 -156.5t74 -161.5t55 -166q0 -6 1 -12t1 -14q0 -16 -7 -28.5t-24 -12.5q-21 0 -46 1t-48 1h-20l-41 -2q-48 2 -75 2h-44q-11 0 -28.5 21.5t-37 51.5t-39.5 61.5t-36 51.5z" />
    <glyph glyph-name="atilde" unicode="&#xe3;" horiz-adv-x="1637" 
d="M631 1167q36 0 61.5 1t45.5 2t37.5 2.5t39 2.5t50 2t69.5 1q7 0 27.5 -0.5t47.5 -1.5t58 -1.5t58.5 -1.5t49 -1.5t29.5 -0.5q12 0 21.5 -4t21.5 -4h16q7 -2 12 -8.5t5 -11.5l145 -541q28 -106 55 -219t50 -221q2 -12 8 -39.5t7.5 -55t-4.5 -48.5t-28 -21h-23.5t-39.5 0.5
t-45.5 1t-44 1t-34.5 0.5t-15 1h-113q0 2 -2 5t-14 3q-2 0 -4 -4t-5 -4h-6q-1 0 -15.5 1t-35 2.5t-43 3t-39.5 1.5q-12 22 -25.5 77.5t-27.5 129.5q-21 -4 -46 -5.5t-52 -1.5t-54 0.5t-51 0.5q-15 -71 -28 -125t-25 -76q-6 0 -15.5 -4t-11.5 -4h-4q-11 0 -16.5 4t-10.5 4
q-45 -1 -80 -3q-30 -2 -54.5 -3t-24.5 -2h-166q-1 0 -14.5 -0.5t-34 -1t-44.5 -1t-46 -1t-39.5 -0.5h-24.5q-21 0 -27 21t-4 48.5t7.5 55t7.5 39.5q23 108 49.5 221t54.5 219l139 545q0 5 6 11.5t11 8.5h16q23 0 40 4.5t42 4.5q38 0 73 -4.5t77 -4.5zM874 883q0 -1 -4 -24
t-10 -60t-14.5 -84.5t-16.5 -96.5t-16 -96t-14 -84h90q2 2 6 4t6 2h4q17 0 30 -3.5t27 -6.5q-6 37 -14 84.5t-16 97t-16.5 97t-14.5 85t-10 61t-4 24.5q-1 2 -2 6q-1 3 -2 8t-3 12q-2 -7 -3 -12t-2 -8q-1 -4 -1 -6zM1047 1836l313 1q14 -2 26.5 -28.5t22 -66t14 -88
t1.5 -94.5q-2 -41 -22 -83.5t-55 -81t-84 -69.5t-108 -47q-25 -9 -48 -12t-51 -3q-63 0 -110 17t-84 43t-67 55.5t-58 55.5t-56.5 43t-62.5 17q-19 0 -29 -14.5t-15.5 -35.5t-8 -45t-5 -43.5t-7 -30t-13.5 -4.5q-71 3 -116.5 5.5t-72.5 6.5t-40 11t-19 19t-9 30.5t-11 45.5
q0 37 2 83t13.5 93.5t34.5 92.5t65.5 80t107.5 56t159 21q21 0 53.5 -10.5t67 -27.5t65 -38t46.5 -43q11 -14 22.5 -33t25.5 -35.5t31 -28t39 -11.5q28 0 41 11t15 28.5t-3.5 38.5t-14.5 40.5t-19.5 35.5t-16.5 23q1 12 10 16t20 4h11z" />
    <glyph glyph-name="adieresis" unicode="&#xe4;" horiz-adv-x="1637" 
d="M631 1167q36 0 61.5 1t45.5 2t37.5 2.5t39 2.5t50 2t69.5 1q7 0 27.5 -0.5t47.5 -1.5t58 -1.5t58.5 -1.5t49 -1.5t29.5 -0.5q12 0 21.5 -4t21.5 -4h16q7 -2 12 -8.5t5 -11.5l145 -541q28 -106 55 -219t50 -221q2 -12 8 -39.5t7.5 -55t-4.5 -48.5t-28 -21h-23.5t-39.5 0.5
t-45.5 1t-44 1t-34.5 0.5t-15 1h-113q0 2 -2 5t-14 3q-2 0 -4 -4t-5 -4h-6q-1 0 -15.5 1t-35 2.5t-43 3t-39.5 1.5q-12 22 -25.5 77.5t-27.5 129.5q-21 -4 -46 -5.5t-52 -1.5t-54 0.5t-51 0.5q-15 -71 -28 -125t-25 -76q-6 0 -15.5 -4t-11.5 -4h-4q-11 0 -16.5 4t-10.5 4
q-45 -1 -80 -3q-30 -2 -54.5 -3t-24.5 -2h-166q-1 0 -14.5 -0.5t-34 -1t-44.5 -1t-46 -1t-39.5 -0.5h-24.5q-21 0 -27 21t-4 48.5t7.5 55t7.5 39.5q23 108 49.5 221t54.5 219l139 545q0 5 6 11.5t11 8.5h16q23 0 40 4.5t42 4.5q38 0 73 -4.5t77 -4.5zM874 883q0 -1 -4 -24
t-10 -60t-14.5 -84.5t-16.5 -96.5t-16 -96t-14 -84h90q2 2 6 4t6 2h4q17 0 30 -3.5t27 -6.5q-6 37 -14 84.5t-16 97t-16.5 97t-14.5 85t-10 61t-4 24.5q-1 2 -2 6q-1 3 -2 8t-3 12q-2 -7 -3 -12t-2 -8q-1 -4 -1 -6zM744 1735q14 0 18 -15t4 -37q0 -18 -1 -39.5t-1 -39.5
q0 -5 0.5 -14.5t0.5 -21t0.5 -23.5t0.5 -21q0 -23 1.5 -45t1.5 -45q0 -20 -6.5 -37t-24.5 -19h-408l-14 13l-14 65v60q0 20 -2.5 39.5t4.5 39.5l10 64q0 3 -1 7t-1 7q6 18 10.5 30t10.5 18.5t14.5 9t23.5 2.5h213q26 3 42.5 4.5t27.5 1.5q10 0 16 -1t11.5 -2t11.5 -2t16 -1
h13t16 2h6zM1383 1735q14 0 18 -15t4 -37q0 -18 -1 -39.5t-1 -39.5q0 -5 0.5 -14.5t0.5 -21t0.5 -23.5t0.5 -21q0 -14 -2 -24.5t-2 -18.5q0 -13 3.5 -22.5t3.5 -24.5q0 -20 -6.5 -37t-24.5 -19h-305l-117 13l-14 65v60q0 15 -0.5 26t-4.5 27q-1 4 -1.5 9t-0.5 16.5
t-0.5 31.5t-1.5 53q0 3 -1 7.5t-1 7.5q9 13 15 21t14 12t19.5 5t31.5 1h213q26 3 42.5 4.5t27.5 1.5q10 0 16 -1t11 -2t11.5 -2t16.5 -1h13t16 2h6z" />
    <glyph glyph-name="aring" unicode="&#xe5;" horiz-adv-x="1637" 
d="M631 1167q36 0 61.5 1t45.5 2t37.5 2.5t39 2.5t50 2t69.5 1q7 0 27.5 -0.5t47.5 -1.5t58 -1.5t58.5 -1.5t49 -1.5t29.5 -0.5q12 0 21.5 -4t21.5 -4h16q7 -2 12 -8.5t5 -11.5l145 -541q28 -106 55 -219t50 -221q2 -12 8 -39.5t7.5 -55t-4.5 -48.5t-28 -21h-23.5t-39.5 0.5
t-45.5 1t-44 1t-34.5 0.5t-15 1h-113q0 2 -2 5t-14 3q-2 0 -4 -4t-5 -4h-6q-1 0 -15.5 1t-35 2.5t-43 3t-39.5 1.5q-12 22 -25.5 77.5t-27.5 129.5q-21 -4 -46 -5.5t-52 -1.5t-54 0.5t-51 0.5q-15 -71 -28 -125t-25 -76q-6 0 -15.5 -4t-11.5 -4h-4q-11 0 -16.5 4t-10.5 4
q-45 -1 -80 -3q-30 -2 -54.5 -3t-24.5 -2h-166q-1 0 -14.5 -0.5t-34 -1t-44.5 -1t-46 -1t-39.5 -0.5h-24.5q-21 0 -27 21t-4 48.5t7.5 55t7.5 39.5q23 108 49.5 221t54.5 219l139 545q0 5 6 11.5t11 8.5h16q23 0 40 4.5t42 4.5q38 0 73 -4.5t77 -4.5zM874 883q0 -1 -4 -24
t-10 -60t-14.5 -84.5t-16.5 -96.5t-16 -96t-14 -84h90q2 2 6 4t6 2h4q17 0 30 -3.5t27 -6.5q-6 37 -14 84.5t-16 97t-16.5 97t-14.5 85t-10 61t-4 24.5q-1 2 -2 6q-1 3 -2 8t-3 12q-2 -7 -3 -12t-2 -8q-1 -4 -1 -6zM810 1292q-65 -1 -132 11.5t-130 49.5q-44 25 -74.5 67
t-49.5 90.5t-27.5 98t-8.5 91.5q0 78 25 156.5t71.5 142t113 103.5t149.5 40q12 0 24.5 -0.5t23.5 -2.5q2 2 5.5 2h5.5q54 0 95 -1.5t75 -6t62.5 -13.5t56.5 -24q54 -36 92.5 -75.5t64 -85.5t37.5 -101t12 -122q0 -73 -20.5 -145.5t-63.5 -133.5l-10 -5q-33 -50 -79.5 -77.5
t-100 -40.5t-109.5 -15.5t-108 -2.5zM684 1666q0 -1 4.5 -18.5t19.5 -38t43 -37.5t74 -17q45 0 77.5 13t55 33t36.5 44t21.5 47t10 40.5t2.5 25.5q0 -1 -0.5 9.5t-6 26.5t-17.5 34.5t-34.5 34.5t-58 27t-86.5 11q-20 0 -44.5 -8.5t-46 -31.5t-36.5 -64t-15 -107v-11t1 -13z
" />
    <glyph glyph-name="ae" unicode="&#xe6;" horiz-adv-x="2205" 
d="M868 1167q48 0 77.5 1.5t55 3t52.5 3t71 2.5q31 6 69 6.5t64 0.5q79 0 154 -5t154 -5q93 0 192.5 8t192.5 8q8 0 9 -1.5t1 -6.5h64q18 0 27.5 -19.5t16.5 -49.5t12 -66t14 -68q0 -19 -3.5 -38t-17.5 -19q-2 0 -7 4t-7 4q-14 2 -24.5 -3t-24.5 -5q-13 0 -20.5 4t-18.5 4
q-19 0 -44.5 -6.5t-43.5 -8.5q-14 -2 -43 -2.5t-61 -0.5t-62 0.5t-45 0.5q-9 0 -15.5 -21.5t-11 -50t-6.5 -57t-2 -41.5q0 -21 10 -26.5t39 -5.5h281q13 3 29.5 -11t19.5 -45l3 -135q3 -18 -10.5 -28t-38 -15t-56.5 -6.5t-66 -1.5h-90h-61t-40 -4t-21.5 -15t-6.5 -32v-9
t1 -7q0 -4 1 -7q0 -9 -1 -21t-2 -23q-2 -12 -3 -25q0 -9 0.5 -19.5t0.5 -20.5t0.5 -18t0.5 -12q93 0 187.5 6t186.5 6q7 0 10.5 -9t6 -21.5t3.5 -26.5t3 -23q5 -20 9 -34t7 -28t4.5 -31t1.5 -42q0 -2 -0.5 -5.5t-0.5 -7.5q-1 -4 -1 -9l-14 -15q-4 -1 -8 -1q-3 -1 -6.5 -1
h-5.5q-35 0 -63 -1t-57.5 -3t-64.5 -4t-85 -4t-118.5 -3t-164.5 -1h-24t-38.5 0.5t-45.5 1t-44.5 1t-34 0.5t-14.5 1h-113q0 4 -3 6q-2 0 -2 1q-2 0 -4 0.5t-5 0.5q-2 0 -5 -4t-6 -4h-6q-1 0 -15 1t-34.5 2.5t-42.5 3t-39 1.5q-7 22 -6.5 77.5t5.5 129.5q-22 -4 -47.5 -5.5
t-52.5 -1.5t-54 0.5t-51 0.5q-32 -71 -59 -125t-44 -76q-6 0 -16.5 -4t-12.5 -4h-4q-11 0 -15.5 4t-9.5 4q-46 -1 -81 -3q-30 -2 -55 -3t-25 -2h-126q-2 -1 -30 -1.5t-63.5 -1t-67.5 -1t-42 -0.5q-21 0 -21.5 21t8 48.5t21 55t16.5 39.5q45 108 94.5 221t99.5 219l256 545
q1 5 9 11.5t13 8.5h16q23 0 41 4.5t43 4.5q38 0 72 -4.5t76 -4.5zM1039 883q0 -1 -10 -24t-25.5 -60t-35 -84.5t-40 -96.5t-40.5 -96t-35 -84h90q2 2 6.5 4t6.5 2h4q17 0 29.5 -3.5t25.5 -6.5q3 37 7 84.5t8 97t8 97t7 85t5 61t2 24.5v26z" />
    <glyph glyph-name="ccedilla" unicode="&#xe7;" horiz-adv-x="1201" 
d="M683 573q0 -81 11 -136t31.5 -88.5t48 -48.5t60.5 -15q26 0 55.5 8.5t60 23t62 33t62.5 39.5l20 -291q-35 -34 -80.5 -61t-95.5 -46t-100.5 -29.5t-95.5 -10.5q-74 0 -150 6t-147 26.5t-133 60t-108 106t-72.5 164t-26.5 235.5q0 163 46 289.5t126 213.5t188.5 132
t233.5 45q106 0 219 -33.5t227 -99.5l-28 -232q-51 13 -106 26t-107 13q-42 0 -78.5 -14t-63.5 -51t-43 -101t-16 -164zM497 -158l28 175l10 19h219l-26 -132q98 -17 163 -44.5t103.5 -61.5t54.5 -73.5t16 -81.5q0 -55 -18.5 -111t-69 -101.5t-139.5 -74t-230 -28.5
q-8 0 -36 1t-62 7t-67.5 18.5t-52.5 36.5l20 111q5 17 12.5 35t10.5 23q67 -30 140 -30q39 0 65 13t41 33t21.5 44t6.5 47q0 53 -35.5 81.5t-92.5 28.5q-42 0 -87 -16z" />
    <glyph glyph-name="egrave" unicode="&#xe8;" horiz-adv-x="1275" 
d="M116 698q0 112 2 221.5t13 227.5q0 15 20.5 23t49 11t60 3h52.5q88 0 174 -5t174 -5q16 0 30 1t30 1l12 -9q77 17 157.5 20t155.5 3q5 0 10 -8h64q18 0 27.5 -19.5t16.5 -49.5t12 -66t14 -68q0 -19 -3.5 -38t-17.5 -19q-2 0 -7 4t-7 4q-14 2 -24.5 -3t-24.5 -5
q-13 0 -20.5 4t-18.5 4q-19 0 -44.5 -6.5t-43.5 -8.5q-14 -2 -43.5 -1.5t-62.5 0t-62.5 -4.5t-42.5 -14v6q-9 0 -15.5 -20t-11 -46t-6.5 -52.5t-2 -39.5q0 -24 6.5 -31t22.5 -7q5 0 11 1.5t9 4.5q3 0 11 -2t12 -4h174q2 2 7 4t7 2q17 2 30 -4.5t25 -8.5q15 -2 25 -3t17 -4
t12 -11t10 -25l43 -135q3 -18 -14 -28t-47 -15t-69.5 -6.5t-80.5 -1.5h-90h-61t-40 -4t-21.5 -15t-6.5 -32v-9t1 -7q0 -4 1 -7q0 -9 -1 -21t-2 -23q-2 -12 -3 -25q0 -9 0.5 -19.5t0.5 -20.5t0.5 -18t0.5 -12q93 0 187.5 6t186.5 6q6 0 9.5 -9t6 -21.5t4 -26.5t3.5 -23
q4 -20 8 -34t7 -28t5 -31t2 -42q0 -2 -0.5 -5.5t-0.5 -7.5q-1 -4 -1 -9l-14 -15q-4 -1 -8 -1q-3 -1 -6.5 -1h-5.5q-20 0 -28.5 4.5t-14.5 4.5q-3 0 -14 -6t-13 -9v10q-6 0 -24.5 -1t-30.5 -1q-6 0 -14.5 3.5t-14.5 3.5q-23 0 -53 -2t-53 -13h-37h-613q-2 0 -7 8t-11 20
t-11 25.5t-8 24.5q-9 15 -15 42.5t-10 62.5t-6.5 73.5t-3.5 75t-1 67v50.5q0 27 -1 48.5t-2.5 47t-2.5 60t-1 85.5zM559 1556q-20 36 -35.5 70.5t-30 68.5t-30 67.5t-35.5 68.5q-12 19 -27.5 45.5t-32.5 55t-33 56t-28.5 50.5t-19.5 38t-6 17q0 16 14.5 23t54.5 16
q5 0 7.5 -1t7.5 -1l14 4l88 6q6 2 13 2.5t12 3.5q8 -2 20.5 -1.5t22.5 -2.5l12 6q53 0 112 -3t132 -3l88 -14l16 -14q23 -84 40.5 -159t33.5 -157q5 -54 13 -108.5t15.5 -109t13 -108t5.5 -106.5q0 -22 -6.5 -41.5t-32.5 -19.5q-28 0 -55.5 1t-55.5 1h-59l-8 6l-14 -8
q-16 2 -37 2h-39q-15 0 -34 28.5t-39.5 68t-40.5 82t-36 70.5z" />
    <glyph glyph-name="eacute" unicode="&#xe9;" horiz-adv-x="1275" 
d="M116 698q0 112 2 221.5t13 227.5q0 15 20.5 23t49 11t60 3h52.5q88 0 174 -5t174 -5q16 0 30 1t30 1l12 -9q77 17 157.5 20t155.5 3q5 0 10 -8h64q18 0 27.5 -19.5t16.5 -49.5t12 -66t14 -68q0 -19 -3.5 -38t-17.5 -19q-2 0 -7 4t-7 4q-14 2 -24.5 -3t-24.5 -5
q-13 0 -20.5 4t-18.5 4q-19 0 -44.5 -6.5t-43.5 -8.5q-14 -2 -43.5 -1.5t-62.5 0t-62.5 -4.5t-42.5 -14v6q-9 0 -15.5 -20t-11 -46t-6.5 -52.5t-2 -39.5q0 -24 6.5 -31t22.5 -7q5 0 11 1.5t9 4.5q3 0 11 -2t12 -4h174q2 2 7 4t7 2q17 2 30 -4.5t25 -8.5q15 -2 25 -3t17 -4
t12 -11t10 -25l43 -135q3 -18 -14 -28t-47 -15t-69.5 -6.5t-80.5 -1.5h-90h-61t-40 -4t-21.5 -15t-6.5 -32v-9t1 -7q0 -4 1 -7q0 -9 -1 -21t-2 -23q-2 -12 -3 -25q0 -9 0.5 -19.5t0.5 -20.5t0.5 -18t0.5 -12q93 0 187.5 6t186.5 6q6 0 9.5 -9t6 -21.5t4 -26.5t3.5 -23
q4 -20 8 -34t7 -28t5 -31t2 -42q0 -2 -0.5 -5.5t-0.5 -7.5q-1 -4 -1 -9l-14 -15q-4 -1 -8 -1q-3 -1 -6.5 -1h-5.5q-20 0 -28.5 4.5t-14.5 4.5q-3 0 -14 -6t-13 -9v10q-6 0 -24.5 -1t-30.5 -1q-6 0 -14.5 3.5t-14.5 3.5q-23 0 -53 -2t-53 -13h-37h-613q-2 0 -7 8t-11 20
t-11 25.5t-8 24.5q-9 15 -15 42.5t-10 62.5t-6.5 73.5t-3.5 75t-1 67v50.5q0 27 -1 48.5t-2.5 47t-2.5 60t-1 85.5zM751 1577q-16 -31 -36 -77t-40.5 -89t-39.5 -73.5t-34 -30.5h-39t-37 -2l-14 8l-8 -6h-59q-28 0 -55.5 -1t-55.5 -1q-26 0 -32.5 19.5t-6.5 41.5
q0 53 5.5 106.5t13 108t15.5 109t13 108.5q16 82 33.5 157t40.5 159l16 14l88 14q73 0 132 3t112 3l12 -6q10 3 22.5 2.5t20.5 1.5q5 -3 12 -3.5t13 -2.5l88 -6l14 -4q5 0 7.5 1t7.5 1q40 -9 54.5 -16t14.5 -23q1 -2 -6 -17t-19.5 -38t-28.5 -50.5t-33 -56t-32.5 -55
t-27.5 -45.5q-20 -32 -35.5 -63.5t-30 -63t-30 -63t-35.5 -64.5z" />
    <glyph glyph-name="ecircumflex" unicode="&#xea;" horiz-adv-x="1275" 
d="M116 698q0 112 2 221.5t13 227.5q0 15 20.5 23t49 11t60 3h52.5q88 0 174 -5t174 -5q16 0 30 1t30 1l12 -9q77 17 157.5 20t155.5 3q5 0 10 -8h64q18 0 27.5 -19.5t16.5 -49.5t12 -66t14 -68q0 -19 -3.5 -38t-17.5 -19q-2 0 -7 4t-7 4q-14 2 -24.5 -3t-24.5 -5
q-13 0 -20.5 4t-18.5 4q-19 0 -44.5 -6.5t-43.5 -8.5q-14 -2 -43.5 -1.5t-62.5 0t-62.5 -4.5t-42.5 -14v6q-9 0 -15.5 -20t-11 -46t-6.5 -52.5t-2 -39.5q0 -24 6.5 -31t22.5 -7q5 0 11 1.5t9 4.5q3 0 11 -2t12 -4h174q2 2 7 4t7 2q17 2 30 -4.5t25 -8.5q15 -2 25 -3t17 -4
t12 -11t10 -25l43 -135q3 -18 -14 -28t-47 -15t-69.5 -6.5t-80.5 -1.5h-90h-61t-40 -4t-21.5 -15t-6.5 -32v-9t1 -7q0 -4 1 -7q0 -9 -1 -21t-2 -23q-2 -12 -3 -25q0 -9 0.5 -19.5t0.5 -20.5t0.5 -18t0.5 -12q93 0 187.5 6t186.5 6q6 0 9.5 -9t6 -21.5t4 -26.5t3.5 -23
q4 -20 8 -34t7 -28t5 -31t2 -42q0 -2 -0.5 -5.5t-0.5 -7.5q-1 -4 -1 -9l-14 -15q-4 -1 -8 -1q-3 -1 -6.5 -1h-5.5q-20 0 -28.5 4.5t-14.5 4.5q-3 0 -14 -6t-13 -9v10q-6 0 -24.5 -1t-30.5 -1q-6 0 -14.5 3.5t-14.5 3.5q-23 0 -53 -2t-53 -13h-37h-613q-2 0 -7 8t-11 20
t-11 25.5t-8 24.5q-9 15 -15 42.5t-10 62.5t-6.5 73.5t-3.5 75t-1 67v50.5q0 27 -1 48.5t-2.5 47t-2.5 60t-1 85.5zM778 1493q-35 40 -64 83t-55 83q-58 -99 -109 -176q-22 -33 -44.5 -64.5t-43 -56.5t-37.5 -40t-28 -15h-39.5t-40.5 -2l-10 8l-9 -6h-61q-26 0 -56.5 -1
t-58.5 -1q-17 0 -23.5 12.5t-6.5 28.5v14t2 12q10 50 31 100t45.5 100t49.5 100t44 100q31 60 59.5 116.5t67.5 118.5l14 16l94 23h121l76 -2q20 -2 32 -2.5t23 -1t25.5 -0.5h40.5l61 -6l47 -27q41 -74 84.5 -151t83.5 -156.5t74 -161.5t55 -166q0 -6 1 -12t1 -14
q0 -16 -7 -28.5t-24 -12.5q-21 0 -46 1t-48 1h-20l-41 -2q-48 2 -75 2h-44q-11 0 -28.5 21.5t-37 51.5t-39.5 61.5t-36 51.5z" />
    <glyph glyph-name="edieresis" unicode="&#xeb;" horiz-adv-x="1275" 
d="M116 698q0 112 2 221.5t13 227.5q0 15 20.5 23t49 11t60 3h52.5q88 0 174 -5t174 -5q16 0 30 1t30 1l12 -9q77 17 157.5 20t155.5 3q5 0 10 -8h64q18 0 27.5 -19.5t16.5 -49.5t12 -66t14 -68q0 -19 -3.5 -38t-17.5 -19q-2 0 -7 4t-7 4q-14 2 -24.5 -3t-24.5 -5
q-13 0 -20.5 4t-18.5 4q-19 0 -44.5 -6.5t-43.5 -8.5q-14 -2 -43.5 -1.5t-62.5 0t-62.5 -4.5t-42.5 -14v6q-9 0 -15.5 -20t-11 -46t-6.5 -52.5t-2 -39.5q0 -24 6.5 -31t22.5 -7q5 0 11 1.5t9 4.5q3 0 11 -2t12 -4h174q2 2 7 4t7 2q17 2 30 -4.5t25 -8.5q15 -2 25 -3t17 -4
t12 -11t10 -25l43 -135q3 -18 -14 -28t-47 -15t-69.5 -6.5t-80.5 -1.5h-90h-61t-40 -4t-21.5 -15t-6.5 -32v-9t1 -7q0 -4 1 -7q0 -9 -1 -21t-2 -23q-2 -12 -3 -25q0 -9 0.5 -19.5t0.5 -20.5t0.5 -18t0.5 -12q93 0 187.5 6t186.5 6q6 0 9.5 -9t6 -21.5t4 -26.5t3.5 -23
q4 -20 8 -34t7 -28t5 -31t2 -42q0 -2 -0.5 -5.5t-0.5 -7.5q-1 -4 -1 -9l-14 -15q-4 -1 -8 -1q-3 -1 -6.5 -1h-5.5q-20 0 -28.5 4.5t-14.5 4.5q-3 0 -14 -6t-13 -9v10q-6 0 -24.5 -1t-30.5 -1q-6 0 -14.5 3.5t-14.5 3.5q-23 0 -53 -2t-53 -13h-37h-613q-2 0 -7 8t-11 20
t-11 25.5t-8 24.5q-9 15 -15 42.5t-10 62.5t-6.5 73.5t-3.5 75t-1 67v50.5q0 27 -1 48.5t-2.5 47t-2.5 60t-1 85.5zM564 1735q14 0 18 -15t4 -37q0 -18 -1 -39.5t-1 -39.5q0 -5 0.5 -14.5t0.5 -21t0.5 -23.5t0.5 -21q0 -23 1.5 -45t1.5 -45q0 -20 -6.5 -37t-24.5 -19h-408
l-14 13l-14 65v60q0 20 -2.5 39.5t4.5 39.5l10 64q0 3 -1 7t-1 7q6 18 10.5 30t10.5 18.5t14.5 9t23.5 2.5h213q26 3 42.5 4.5t27.5 1.5q10 0 16 -1t11.5 -2t11.5 -2t16 -1h13t16 2h6zM1203 1735q14 0 18 -15t4 -37q0 -18 -1 -39.5t-1 -39.5q0 -5 0.5 -14.5t0.5 -21
t0.5 -23.5t0.5 -21q0 -14 -2 -24.5t-2 -18.5q0 -13 3.5 -22.5t3.5 -24.5q0 -20 -6.5 -37t-24.5 -19h-305l-117 13l-14 65v60q0 15 -0.5 26t-4.5 27q-1 4 -1.5 9t-0.5 16.5t-0.5 31.5t-1.5 53q0 3 -1 7.5t-1 7.5q9 13 15 21t14 12t19.5 5t31.5 1h213q26 3 42.5 4.5t27.5 1.5
q10 0 16 -1t11 -2t11.5 -2t16.5 -1h13t16 2h6z" />
    <glyph glyph-name="igrave" unicode="&#xec;" horiz-adv-x="779" 
d="M711 205q-4 -47 -3.5 -85t-2.5 -65t-14 -42t-37 -15q-2 0 -4 2t-4 2q-3 0 -8 -1l-10 -2q-5 -2 -11 -3q-18 -1 -28.5 0t-18.5 2.5t-14 2.5t-15 1q-2 0 -7 -2t-7 -4h-154q-3 0 -27.5 -3.5t-54.5 -8t-57.5 -8t-36.5 -3.5q-22 0 -33 22t-15.5 51t-5 57t-1.5 40
q-6 130 -17.5 266t-11.5 267v440q0 11 11 17t26 8.5t31 3t26 0.5q48 0 94 -4t99 -4l8 6h90q2 -2 7.5 -4t7.5 -2q1 0 6.5 1t11.5 2t10.5 2t5.5 1q5 0 15.5 -2t13.5 -4h152l4 -295q-2 -6 -7.5 -44t-5.5 -116v-399zM313 1556q-20 36 -35.5 70.5t-30 68.5t-30 67.5t-35.5 68.5
q-12 19 -27.5 45.5t-32.5 55t-33 56t-28.5 50.5t-19.5 38t-6 17q0 16 14.5 23t54.5 16q5 0 7.5 -1t7.5 -1l14 4l88 6q6 2 13 2.5t12 3.5q8 -2 20.5 -1.5t22.5 -2.5l12 6q53 0 112 -3t132 -3l88 -14l16 -14q23 -84 40.5 -159t33.5 -157q5 -54 13 -108.5t15.5 -109t13 -108
t5.5 -106.5q0 -22 -6.5 -41.5t-32.5 -19.5q-28 0 -55.5 1t-55.5 1h-59l-8 6l-14 -8q-16 2 -37 2h-39q-15 0 -34 28.5t-39.5 68t-40.5 82t-36 70.5z" />
    <glyph glyph-name="iacute" unicode="&#xed;" horiz-adv-x="779" 
d="M711 205q-4 -47 -3.5 -85t-2.5 -65t-14 -42t-37 -15q-2 0 -4 2t-4 2q-3 0 -8 -1l-10 -2q-5 -2 -11 -3q-18 -1 -28.5 0t-18.5 2.5t-14 2.5t-15 1q-2 0 -7 -2t-7 -4h-154q-3 0 -27.5 -3.5t-54.5 -8t-57.5 -8t-36.5 -3.5q-22 0 -33 22t-15.5 51t-5 57t-1.5 40
q-6 130 -17.5 266t-11.5 267v440q0 11 11 17t26 8.5t31 3t26 0.5q48 0 94 -4t99 -4l8 6h90q2 -2 7.5 -4t7.5 -2q1 0 6.5 1t11.5 2t10.5 2t5.5 1q5 0 15.5 -2t13.5 -4h152l4 -295q-2 -6 -7.5 -44t-5.5 -116v-399zM505 1577q-16 -31 -36 -77t-40.5 -89t-39.5 -73.5t-34 -30.5
h-39t-37 -2l-14 8l-8 -6h-59q-28 0 -55.5 -1t-55.5 -1q-26 0 -32.5 19.5t-6.5 41.5q0 53 5.5 106.5t13 108t15.5 109t13 108.5q16 82 33.5 157t40.5 159l16 14l88 14q73 0 132 3t112 3l12 -6q10 3 22.5 2.5t20.5 1.5q5 -3 12 -3.5t13 -2.5l88 -6l14 -4q5 0 7.5 1t7.5 1
q40 -9 54.5 -16t14.5 -23q1 -2 -6 -17t-19.5 -38t-28.5 -50.5t-33 -56t-32.5 -55t-27.5 -45.5q-20 -32 -35.5 -63.5t-30 -63t-30 -63t-35.5 -64.5z" />
    <glyph glyph-name="icircumflex" unicode="&#xee;" horiz-adv-x="779" 
d="M711 205q-4 -47 -3.5 -85t-2.5 -65t-14 -42t-37 -15q-2 0 -4 2t-4 2q-3 0 -8 -1l-10 -2q-5 -2 -11 -3q-18 -1 -28.5 0t-18.5 2.5t-14 2.5t-15 1q-2 0 -7 -2t-7 -4h-154q-3 0 -27.5 -3.5t-54.5 -8t-57.5 -8t-36.5 -3.5q-22 0 -33 22t-15.5 51t-5 57t-1.5 40
q-6 130 -17.5 266t-11.5 267v440q0 11 11 17t26 8.5t31 3t26 0.5q48 0 94 -4t99 -4l8 6h90q2 -2 7.5 -4t7.5 -2q1 0 6.5 1t11.5 2t10.5 2t5.5 1q5 0 15.5 -2t13.5 -4h152l4 -295q-2 -6 -7.5 -44t-5.5 -116v-399zM533 1493q-35 40 -64 83t-55 83q-58 -99 -109 -176
q-22 -33 -44.5 -64.5t-43 -56.5t-37.5 -40t-28 -15h-39.5t-40.5 -2l-10 8l-9 -6h-61q-26 0 -56.5 -1t-58.5 -1q-17 0 -23.5 12.5t-6.5 28.5v14t2 12q10 50 31 100t45.5 100t49.5 100t44 100q31 60 59.5 116.5t67.5 118.5l14 16l94 23h121l76 -2q20 -2 32 -2.5t23 -1
t25.5 -0.5h40.5l61 -6l47 -27q41 -74 84.5 -151t83.5 -156.5t74 -161.5t55 -166q0 -6 1 -12t1 -14q0 -16 -7 -28.5t-24 -12.5q-21 0 -46 1t-48 1h-20l-41 -2q-48 2 -75 2h-44q-11 0 -28.5 21.5t-37 51.5t-39.5 61.5t-36 51.5z" />
    <glyph glyph-name="idieresis" unicode="&#xef;" horiz-adv-x="779" 
d="M711 205q-4 -47 -3.5 -85t-2.5 -65t-14 -42t-37 -15q-2 0 -4 2t-4 2q-3 0 -8 -1l-10 -2q-5 -2 -11 -3q-18 -1 -28.5 0t-18.5 2.5t-14 2.5t-15 1q-2 0 -7 -2t-7 -4h-154q-3 0 -27.5 -3.5t-54.5 -8t-57.5 -8t-36.5 -3.5q-22 0 -33 22t-15.5 51t-5 57t-1.5 40
q-6 130 -17.5 266t-11.5 267v440q0 11 11 17t26 8.5t31 3t26 0.5q48 0 94 -4t99 -4l8 6h90q2 -2 7.5 -4t7.5 -2q1 0 6.5 1t11.5 2t10.5 2t5.5 1q5 0 15.5 -2t13.5 -4h152l4 -295q-2 -6 -7.5 -44t-5.5 -116v-399zM317 1735q14 0 18 -15t4 -37q0 -18 -1 -39.5t-1 -39.5
q0 -5 0.5 -14.5t0.5 -21t0.5 -23.5t0.5 -21q0 -23 1.5 -45t1.5 -45q0 -20 -6.5 -37t-24.5 -19h-408l-14 13l-14 65v60q0 20 -2.5 39.5t4.5 39.5l10 64q0 3 -1 7t-1 7q6 18 10.5 30t10.5 18.5t14.5 9t23.5 2.5h213q26 3 42.5 4.5t27.5 1.5q10 0 16 -1t11.5 -2t11.5 -2t16 -1
h13t16 2h6zM956 1735q14 0 18 -15t4 -37q0 -18 -1 -39.5t-1 -39.5q0 -5 0.5 -14.5t0.5 -21t0.5 -23.5t0.5 -21q0 -14 -2 -24.5t-2 -18.5q0 -13 3.5 -22.5t3.5 -24.5q0 -20 -6.5 -37t-24.5 -19h-305l-117 13l-14 65v60q0 15 -0.5 26t-4.5 27q-1 4 -1.5 9t-0.5 16.5t-0.5 31.5
t-1.5 53q0 3 -1 7.5t-1 7.5q9 13 15 21t14 12t19.5 5t31.5 1h213q26 3 42.5 4.5t27.5 1.5q10 0 16 -1t11 -2t11.5 -2t16.5 -1h13t16 2h6z" />
    <glyph glyph-name="eth" unicode="&#xf0;" horiz-adv-x="1591" 
d="M733 931q-21 -11 -42.5 -23t-40 -19t-32.5 -7t-20 12q-9 18 -16.5 32t-15 26.5t-15 25.5t-16.5 31q-3 7 -2.5 16t4.5 11q26 14 50 28t50 29q-28 5 -57 5q-78 0 -150 -22.5t-135 -51.5q-33 -8 -52 -4t-32.5 22.5t-25.5 52.5t-31 87q-23 53 -25.5 80.5t5.5 40.5t21.5 17
t21.5 10q32 23 68.5 37.5t71.5 28.5q171 67 329 67q266 0 462 -113q30 15 61.5 31t60 30t51.5 26t37 19q18 9 37.5 19t37.5 16t31 7t17 -6q12 -23 15.5 -36t11.5 -29q18 -35 26 -55t-2 -25q-24 -15 -45 -27q-18 -11 -35 -21.5t-25 -14.5l-116 -61q48 -49 88 -107t66 -124
q26 -69 34 -146t8 -164q0 -119 -29.5 -217.5t-81 -177t-121.5 -137t-151 -97.5t-169.5 -58t-176.5 -19q-128 0 -247 31t-210.5 93t-146.5 155t-55 217q0 97 42 170.5t115 116.5q147 68 347 68q58 0 120 -15.5t127 -49.5q-1 17 -2 40.5t-4 50t-9.5 55t-18.5 55.5zM699 316
q53 0 94 35.5t62 120.5q-25 10 -53 18q-24 7 -54.5 12.5t-62.5 5.5q-43 0 -72.5 -18.5t-29.5 -65.5q0 -58 33 -83t83 -25z" />
    <glyph glyph-name="ntilde" unicode="&#xf1;" horiz-adv-x="1539" 
d="M1437 393q0 -99 -0.5 -166.5t-2 -112t-5.5 -68.5t-11 -35t-17.5 -13t-26.5 -2q-55 0 -110 1q-48 0 -104.5 0.5t-107.5 0.5q-11 0 -26 -1t-32.5 0.5t-36 8.5t-34.5 23l-180 252q-3 6 -14.5 20t-25 28t-25.5 25t-17 11q-6 0 -10 -5t-4 -10q0 -12 -0.5 -35t-0.5 -51.5
t-1 -60t-1 -59.5t-0.5 -49.5t-0.5 -31.5q-2 -4 -3 -12t-2.5 -17t-3.5 -16.5t-6 -9.5q-2 -2 -13 -1t-13 1q-69 -5 -133 -9.5t-135 -4.5q-11 0 -29 0.5t-35.5 0.5t-30.5 0.5t-14 0.5l-80 20l-4 13q-1 0 -2 19.5t-2 50.5t-2 70t-1.5 78t-1.5 75.5t-1 62.5q-6 65 -10.5 132
t-4.5 132q0 4 1 18.5t1.5 31.5t1.5 32t1 19q0 3 -1 13t-1.5 21.5t-1.5 21.5t-1 13q0 4 1 19.5t1.5 33.5t1.5 34t1 20q0 1 0.5 12.5t1.5 26.5t1.5 30.5t0.5 24.5q0 4 -0.5 17.5t-1.5 28.5t-1.5 29t-0.5 19q0 2 -3.5 7t-1.5 7q7 19 21 30t30.5 17t35 7.5t34.5 1.5q92 0 160 4
t114.5 7t73 1t35.5 -14q5 -7 21 -30.5t39.5 -57.5t52 -77t58.5 -88t60 -89.5t56 -83.5q0 31 1 71t1.5 82t1.5 82.5t2 72.5t2.5 52t3.5 21l10.5 10.5t18 14.5t23.5 12t28 4h101q2 0 22 -0.5t49 -1.5t61.5 -1.5t61 -1.5t47.5 -1.5t21 -0.5q21 0 36 -2.5t25.5 -10t15.5 -22
t5 -38.5q0 -6 -1 -19t-2.5 -27.5t-2.5 -28t-1 -19.5q0 -7 2.5 -15.5t2.5 -17.5q0 -12 -0.5 -56t-1 -104t-1 -128.5t-1 -128.5t-1 -104.5t-0.5 -56.5zM998 1836l313 1q14 -2 26.5 -28.5t22 -66t14 -88t1.5 -94.5q-2 -41 -22 -83.5t-55 -81t-84 -69.5t-108 -47q-25 -9 -48 -12
t-51 -3q-63 0 -110 17t-84 43t-67 55.5t-58 55.5t-56.5 43t-62.5 17q-19 0 -29 -14.5t-15.5 -35.5t-8 -45t-5 -43.5t-7 -30t-13.5 -4.5q-71 3 -116.5 5.5t-72.5 6.5t-40 11t-19 19t-9 30.5t-11 45.5q0 37 2 83t13.5 93.5t34.5 92.5t65.5 80t107.5 56t159 21q21 0 53.5 -10.5
t67 -27.5t65 -38t46.5 -43q11 -14 22.5 -33t25.5 -35.5t31 -28t39 -11.5q28 0 41 11t15 28.5t-3.5 38.5t-14.5 40.5t-19.5 35.5t-16.5 23q1 12 10 16t20 4h11z" />
    <glyph glyph-name="ograve" unicode="&#xf2;" horiz-adv-x="1533" 
d="M635 -43q-47 0 -95 9.5t-98 25.5h-14q-9 0 -15.5 1.5t-16 7t-24.5 15t-42 25.5q-66 37 -111.5 100t-74 135.5t-41.5 147.5t-13 137q0 78 17 157.5t49 153t79 138t107 112.5t132 75.5t155 27.5q18 0 36.5 -0.5t36.5 -3.5q3 2 7.5 2h7.5q81 0 143 -2t112.5 -9t93.5 -20.5
t85 -36.5q81 -54 139 -112.5t96 -128t56 -152t18 -182.5q0 -96 -23 -188.5t-69 -176.5q-3 -6 -8.5 -15.5t-11 -18t-10 -15t-5.5 -6.5l-14 -8q-50 -75 -120 -116.5t-149.5 -60.5t-164 -22.5t-162.5 -3.5q-23 0 -44 4t-44 4zM688 475q0 -5 1 -25.5t2.5 -49.5t3.5 -62t4 -62.5
t4.5 -51.5t4.5 -29l23 -78q2 -8 11.5 -11.5t17.5 -3.5q16 0 29 22t23 59t17 85t12 99.5t8.5 102.5t5.5 95t2.5 76.5t0.5 46.5q0 -4 0 16.5t-1.5 54t-5 73t-10 74t-17 58t-25.5 23.5q-19 0 -39 -31.5t-29 -109.5l-43 -330v-41zM688 1556q-20 36 -35.5 70.5t-30 68.5t-30 67.5
t-35.5 68.5q-12 19 -27.5 45.5t-32.5 55t-33 56t-28.5 50.5t-19.5 38t-6 17q0 16 14.5 23t54.5 16q5 0 7.5 -1t7.5 -1l14 4l88 6q6 2 13 2.5t12 3.5q8 -2 20.5 -1.5t22.5 -2.5l12 6q53 0 112 -3t132 -3l88 -14l16 -14q23 -84 40.5 -159t33.5 -157q5 -54 13 -108.5t15.5 -109
t13 -108t5.5 -106.5q0 -22 -6.5 -41.5t-32.5 -19.5q-28 0 -55.5 1t-55.5 1h-59l-8 6l-14 -8q-16 2 -37 2h-39q-15 0 -34 28.5t-39.5 68t-40.5 82t-36 70.5z" />
    <glyph glyph-name="oacute" unicode="&#xf3;" horiz-adv-x="1533" 
d="M635 -43q-47 0 -95 9.5t-98 25.5h-14q-9 0 -15.5 1.5t-16 7t-24.5 15t-42 25.5q-66 37 -111.5 100t-74 135.5t-41.5 147.5t-13 137q0 78 17 157.5t49 153t79 138t107 112.5t132 75.5t155 27.5q18 0 36.5 -0.5t36.5 -3.5q3 2 7.5 2h7.5q81 0 143 -2t112.5 -9t93.5 -20.5
t85 -36.5q81 -54 139 -112.5t96 -128t56 -152t18 -182.5q0 -96 -23 -188.5t-69 -176.5q-3 -6 -8.5 -15.5t-11 -18t-10 -15t-5.5 -6.5l-14 -8q-50 -75 -120 -116.5t-149.5 -60.5t-164 -22.5t-162.5 -3.5q-23 0 -44 4t-44 4zM688 475q0 -5 1 -25.5t2.5 -49.5t3.5 -62t4 -62.5
t4.5 -51.5t4.5 -29l23 -78q2 -8 11.5 -11.5t17.5 -3.5q16 0 29 22t23 59t17 85t12 99.5t8.5 102.5t5.5 95t2.5 76.5t0.5 46.5q0 -4 0 16.5t-1.5 54t-5 73t-10 74t-17 58t-25.5 23.5q-19 0 -39 -31.5t-29 -109.5l-43 -330v-41zM880 1577q-16 -31 -36 -77t-40.5 -89
t-39.5 -73.5t-34 -30.5h-39t-37 -2l-14 8l-8 -6h-59q-28 0 -55.5 -1t-55.5 -1q-26 0 -32.5 19.5t-6.5 41.5q0 53 5.5 106.5t13 108t15.5 109t13 108.5q16 82 33.5 157t40.5 159l16 14l88 14q73 0 132 3t112 3l12 -6q10 3 22.5 2.5t20.5 1.5q5 -3 12 -3.5t13 -2.5l88 -6
l14 -4q5 0 7.5 1t7.5 1q40 -9 54.5 -16t14.5 -23q1 -2 -6 -17t-19.5 -38t-28.5 -50.5t-33 -56t-32.5 -55t-27.5 -45.5q-20 -32 -35.5 -63.5t-30 -63t-30 -63t-35.5 -64.5z" />
    <glyph glyph-name="ocircumflex" unicode="&#xf4;" horiz-adv-x="1533" 
d="M635 -43q-47 0 -95 9.5t-98 25.5h-14q-9 0 -15.5 1.5t-16 7t-24.5 15t-42 25.5q-66 37 -111.5 100t-74 135.5t-41.5 147.5t-13 137q0 78 17 157.5t49 153t79 138t107 112.5t132 75.5t155 27.5q18 0 36.5 -0.5t36.5 -3.5q3 2 7.5 2h7.5q81 0 143 -2t112.5 -9t93.5 -20.5
t85 -36.5q81 -54 139 -112.5t96 -128t56 -152t18 -182.5q0 -96 -23 -188.5t-69 -176.5q-3 -6 -8.5 -15.5t-11 -18t-10 -15t-5.5 -6.5l-14 -8q-50 -75 -120 -116.5t-149.5 -60.5t-164 -22.5t-162.5 -3.5q-23 0 -44 4t-44 4zM688 475q0 -5 1 -25.5t2.5 -49.5t3.5 -62t4 -62.5
t4.5 -51.5t4.5 -29l23 -78q2 -8 11.5 -11.5t17.5 -3.5q16 0 29 22t23 59t17 85t12 99.5t8.5 102.5t5.5 95t2.5 76.5t0.5 46.5q0 -4 0 16.5t-1.5 54t-5 73t-10 74t-17 58t-25.5 23.5q-19 0 -39 -31.5t-29 -109.5l-43 -330v-41zM907 1493q-35 40 -64 83t-55 83
q-58 -99 -109 -176q-22 -33 -44.5 -64.5t-43 -56.5t-37.5 -40t-28 -15h-39.5t-40.5 -2l-10 8l-9 -6h-61q-26 0 -56.5 -1t-58.5 -1q-17 0 -23.5 12.5t-6.5 28.5v14t2 12q10 50 31 100t45.5 100t49.5 100t44 100q31 60 59.5 116.5t67.5 118.5l14 16l94 23h121l76 -2
q20 -2 32 -2.5t23 -1t25.5 -0.5h40.5l61 -6l47 -27q41 -74 84.5 -151t83.5 -156.5t74 -161.5t55 -166q0 -6 1 -12t1 -14q0 -16 -7 -28.5t-24 -12.5q-21 0 -46 1t-48 1h-20l-41 -2q-48 2 -75 2h-44q-11 0 -28.5 21.5t-37 51.5t-39.5 61.5t-36 51.5z" />
    <glyph glyph-name="otilde" unicode="&#xf5;" horiz-adv-x="1533" 
d="M635 -43q-47 0 -95 9.5t-98 25.5h-14q-9 0 -15.5 1.5t-16 7t-24.5 15t-42 25.5q-66 37 -111.5 100t-74 135.5t-41.5 147.5t-13 137q0 78 17 157.5t49 153t79 138t107 112.5t132 75.5t155 27.5q18 0 36.5 -0.5t36.5 -3.5q3 2 7.5 2h7.5q81 0 143 -2t112.5 -9t93.5 -20.5
t85 -36.5q81 -54 139 -112.5t96 -128t56 -152t18 -182.5q0 -96 -23 -188.5t-69 -176.5q-3 -6 -8.5 -15.5t-11 -18t-10 -15t-5.5 -6.5l-14 -8q-50 -75 -120 -116.5t-149.5 -60.5t-164 -22.5t-162.5 -3.5q-23 0 -44 4t-44 4zM688 475q0 -5 1 -25.5t2.5 -49.5t3.5 -62t4 -62.5
t4.5 -51.5t4.5 -29l23 -78q2 -8 11.5 -11.5t17.5 -3.5q16 0 29 22t23 59t17 85t12 99.5t8.5 102.5t5.5 95t2.5 76.5t0.5 46.5q0 -4 0 16.5t-1.5 54t-5 73t-10 74t-17 58t-25.5 23.5q-19 0 -39 -31.5t-29 -109.5l-43 -330v-41zM995 1836l313 1q14 -2 26.5 -28.5t22 -66
t14 -88t1.5 -94.5q-2 -41 -22 -83.5t-55 -81t-84 -69.5t-108 -47q-25 -9 -48 -12t-51 -3q-63 0 -110 17t-84 43t-67 55.5t-58 55.5t-56.5 43t-62.5 17q-19 0 -29 -14.5t-15.5 -35.5t-8 -45t-5 -43.5t-7 -30t-13.5 -4.5q-71 3 -116.5 5.5t-72.5 6.5t-40 11t-19 19t-9 30.5
t-11 45.5q0 37 2 83t13.5 93.5t34.5 92.5t65.5 80t107.5 56t159 21q21 0 53.5 -10.5t67 -27.5t65 -38t46.5 -43q11 -14 22.5 -33t25.5 -35.5t31 -28t39 -11.5q28 0 41 11t15 28.5t-3.5 38.5t-14.5 40.5t-19.5 35.5t-16.5 23q1 12 10 16t20 4h11z" />
    <glyph glyph-name="odieresis" unicode="&#xf6;" horiz-adv-x="1533" 
d="M635 -43q-47 0 -95 9.5t-98 25.5h-14q-9 0 -15.5 1.5t-16 7t-24.5 15t-42 25.5q-66 37 -111.5 100t-74 135.5t-41.5 147.5t-13 137q0 78 17 157.5t49 153t79 138t107 112.5t132 75.5t155 27.5q18 0 36.5 -0.5t36.5 -3.5q3 2 7.5 2h7.5q81 0 143 -2t112.5 -9t93.5 -20.5
t85 -36.5q81 -54 139 -112.5t96 -128t56 -152t18 -182.5q0 -96 -23 -188.5t-69 -176.5q-3 -6 -8.5 -15.5t-11 -18t-10 -15t-5.5 -6.5l-14 -8q-50 -75 -120 -116.5t-149.5 -60.5t-164 -22.5t-162.5 -3.5q-23 0 -44 4t-44 4zM688 475q0 -5 1 -25.5t2.5 -49.5t3.5 -62t4 -62.5
t4.5 -51.5t4.5 -29l23 -78q2 -8 11.5 -11.5t17.5 -3.5q16 0 29 22t23 59t17 85t12 99.5t8.5 102.5t5.5 95t2.5 76.5t0.5 46.5q0 -4 0 16.5t-1.5 54t-5 73t-10 74t-17 58t-25.5 23.5q-19 0 -39 -31.5t-29 -109.5l-43 -330v-41zM692 1735q14 0 18 -15t4 -37q0 -18 -1 -39.5
t-1 -39.5q0 -5 0.5 -14.5t0.5 -21t0.5 -23.5t0.5 -21q0 -23 1.5 -45t1.5 -45q0 -20 -6.5 -37t-24.5 -19h-408l-14 13l-14 65v60q0 20 -2.5 39.5t4.5 39.5l10 64q0 3 -1 7t-1 7q6 18 10.5 30t10.5 18.5t14.5 9t23.5 2.5h213q26 3 42.5 4.5t27.5 1.5q10 0 16 -1t11.5 -2
t11.5 -2t16 -1h13t16 2h6zM1331 1735q14 0 18 -15t4 -37q0 -18 -1 -39.5t-1 -39.5q0 -5 0.5 -14.5t0.5 -21t0.5 -23.5t0.5 -21q0 -14 -2 -24.5t-2 -18.5q0 -13 3.5 -22.5t3.5 -24.5q0 -20 -6.5 -37t-24.5 -19h-305l-117 13l-14 65v60q0 15 -0.5 26t-4.5 27q-1 4 -1.5 9
t-0.5 16.5t-0.5 31.5t-1.5 53q0 3 -1 7.5t-1 7.5q9 13 15 21t14 12t19.5 5t31.5 1h213q26 3 42.5 4.5t27.5 1.5q10 0 16 -1t11 -2t11.5 -2t16.5 -1h13t16 2h6z" />
    <glyph glyph-name="divide" unicode="&#xf7;" horiz-adv-x="1038" 
d="M744 946q3 -14 -7 -19.5t-27 -6t-38 1t-40 1.5q-5 0 -16.5 -0.5t-24 -1t-23.5 -1t-15 0.5q-57 2 -97.5 2.5t-75.5 -0.5q-12 -1 -28 -2.5t-31.5 -0.5t-26.5 6.5t-12 19.5q-3 27 -4.5 74.5t-2.5 98.5t-3.5 98.5t-6.5 75.5l10 12l56 13h103q17 0 32 2.5t30 2.5h41l12 -5
q6 2 16.5 2t18.5 1q6 -2 12 -2.5t11 -2.5l42 -5l12 -4q4 0 7.5 1t5.5 1q16 -5 25.5 -9t15 -9t7.5 -12.5t2 -20.5q7 -6 10.5 -30t5 -53t2 -56.5t0.5 -42.5q4 -38 4.5 -53.5t-1 -24.5t-2.5 -18.5t1 -33.5zM768 54q3 -14 -7 -19.5t-27 -6t-38 1t-40 1.5q-5 0 -16.5 -0.5t-24 -1
t-23.5 -1t-15 0.5q-57 2 -97.5 2.5t-75.5 -0.5q-12 -1 -28 -2.5t-31.5 -0.5t-26.5 6.5t-12 19.5q-3 27 -4.5 74.5t-2.5 98.5t-3.5 98.5t-6.5 75.5l10 12l56 13h103q17 0 32 2.5t30 2.5h41l12 -5q6 2 16.5 2t18.5 1q6 -2 12 -2.5t11 -2.5l42 -5l12 -3q4 0 7.5 1t5.5 1
q31 -11 40.5 -19t9.5 -33q7 -6 10.5 -30t5 -53t2 -56.5t0.5 -42.5q4 -38 4.5 -53.5t-1 -24.5t-2.5 -18.5t1 -33.5zM716 517h-25.5t-54 0.5t-67.5 1t-67.5 1t-54 0.5h-25.5h-209q-29 0 -57.5 -0.5t-51.5 3.5t-37.5 13t-14.5 29q0 34 -0.5 62.5t-0.5 55t-0.5 54t-0.5 61.5
q0 7 5 14.5t12 13.5t15.5 9.5t16.5 3.5h232q13 0 54.5 -0.5t97 -1.5t118 -2t118 -2t97 -1.5t54.5 -0.5q18 0 38 -1t37 -5.5t28 -13t11 -23.5q0 -38 1 -57t1.5 -34.5t1.5 -34.5t1 -55q0 -15 -1 -31.5t-6 -30.5t-15 -23t-28 -9q-41 0 -71 0.5t-55 1.5t-48 1.5t-49 0.5z" />
    <glyph glyph-name="oslash" unicode="&#xf8;" horiz-adv-x="1827" 
d="M761 -43q-47 0 -95 9.5t-98 25.5h-14q-9 0 -15.5 1.5t-16 7t-24.5 15t-42 25.5q-52 30 -93 77q-50 -33 -88.5 -54.5t-63.5 -25.5q-18 9 -29 16t-20 13q-16 22 -24 30.5t-10 10.5q-20 16 -24.5 29t0 23.5t15.5 20t22 18.5l126 87q-27 71 -39 142.5t-12 132.5
q0 78 17 157.5t49 153t79 138t107 112.5t132 75.5t155 27.5q18 0 36.5 -0.5t36.5 -3.5q3 2 7.5 2h7.5q81 0 143 -2t112.5 -9t93.5 -20.5t85 -36.5q45 -30 83 -61.5t70 -66.5l159 93q14 6 24.5 2t18.5 -11q9 -8 24 -22.5t30 -20.5q21 -18 33 -29t9 -24.5t-23.5 -32.5
t-64.5 -52q-13 -8 -30 -18q-14 -8 -33.5 -19t-42.5 -25q52 -122 52 -288q0 -96 -23 -188.5t-69 -176.5q-3 -6 -8.5 -15.5t-11 -18t-10 -15t-5.5 -6.5l-14 -8q-50 -75 -120 -116.5t-149.5 -60.5t-164 -22.5t-162.5 -3.5q-23 0 -44 4t-44 4zM816 422q1 -28 3.5 -64t5 -70
t5 -60t4.5 -33l23 -78q2 -8 11.5 -11.5t17.5 -3.5q22 0 38.5 42t27.5 105.5t17.5 138.5t9.5 141zM918 729l64 37q-2 33 -5.5 72t-10 72t-16.5 55t-25 22q-19 0 -39 -31.5t-29 -109.5l-23 -173z" />
    <glyph glyph-name="ugrave" unicode="&#xf9;" horiz-adv-x="1619" 
d="M972 6q-11 6 -17.5 20.5t-11.5 29t-9 25.5t-10 11q-12 0 -25 -6.5t-26 -16t-25.5 -20.5t-23.5 -20q-29 -17 -63.5 -28t-67 -18t-58 -9.5t-36.5 -2.5q-35 0 -69.5 -1.5t-69.5 -0.5t-69 6.5t-67 18.5q-55 21 -90.5 64.5t-57 98.5t-30.5 118t-12 123.5t-1.5 113.5t1.5 90
q0 9 0.5 28.5t0.5 40t0.5 37t0.5 21.5l6 14l1.5 19.5t3 50.5t3 69.5t3 75.5t2.5 69t1 50q0 20 -3 38t-3 38t19.5 25.5t42.5 5.5h30q10 0 18.5 0.5t14.5 3.5l250 -4q0 -2 3 -4t5 -2l13 6q51 0 85.5 -4.5t55.5 -19t30 -42.5t9 -76t3 -90t3 -90v-20q-2 -43 -4 -93t-3.5 -101.5
t-2.5 -100t-2 -87.5t-1.5 -65.5t-0.5 -32.5q0 -11 -0.5 -31.5t2 -41t8.5 -36t18 -15.5q10 0 36.5 9.5t54.5 21.5t49.5 23.5t21.5 16.5v674q-3 21 -4.5 36.5t-2.5 30t-1 29.5v33q0 10 -0.5 21t1.5 20t8 15t20 6q3 0 8.5 -3.5t5.5 -9.5v-2q11 5 34 8.5t52 6t61 4t61 2
t52.5 0.5h34.5h35l217 -6q9 -4 11.5 -6t2.5 -7q0 -3 -1 -7t-1 -7q3 0 8 2t8 2q6 0 6 -8q0 -272 -3 -537.5t-17 -535.5q0 -6 -5 -14.5t-12 -17t-14.5 -15.5t-11.5 -11q-3 2 -16.5 5t-18.5 3q-2 0 -7 -4t-7 -4q-62 -11 -129 -12.5t-129 -1.5h-92t-90 8zM731 1556
q-20 36 -35.5 70.5t-30 68.5t-30 67.5t-35.5 68.5q-12 19 -27.5 45.5t-32.5 55t-33 56t-28.5 50.5t-19.5 38t-6 17q0 16 14.5 23t54.5 16q5 0 7.5 -1t7.5 -1l14 4l88 6q6 2 13 2.5t12 3.5q8 -2 20.5 -1.5t22.5 -2.5l12 6q53 0 112 -3t132 -3l88 -14l16 -14q23 -84 40.5 -159
t33.5 -157q5 -54 13 -108.5t15.5 -109t13 -108t5.5 -106.5q0 -22 -6.5 -41.5t-32.5 -19.5q-28 0 -55.5 1t-55.5 1h-59l-8 6l-14 -8q-16 2 -37 2h-39q-15 0 -34 28.5t-39.5 68t-40.5 82t-36 70.5z" />
    <glyph glyph-name="uacute" unicode="&#xfa;" horiz-adv-x="1619" 
d="M972 6q-11 6 -17.5 20.5t-11.5 29t-9 25.5t-10 11q-12 0 -25 -6.5t-26 -16t-25.5 -20.5t-23.5 -20q-29 -17 -63.5 -28t-67 -18t-58 -9.5t-36.5 -2.5q-35 0 -69.5 -1.5t-69.5 -0.5t-69 6.5t-67 18.5q-55 21 -90.5 64.5t-57 98.5t-30.5 118t-12 123.5t-1.5 113.5t1.5 90
q0 9 0.5 28.5t0.5 40t0.5 37t0.5 21.5l6 14l1.5 19.5t3 50.5t3 69.5t3 75.5t2.5 69t1 50q0 20 -3 38t-3 38t19.5 25.5t42.5 5.5h30q10 0 18.5 0.5t14.5 3.5l250 -4q0 -2 3 -4t5 -2l13 6q51 0 85.5 -4.5t55.5 -19t30 -42.5t9 -76t3 -90t3 -90v-20q-2 -43 -4 -93t-3.5 -101.5
t-2.5 -100t-2 -87.5t-1.5 -65.5t-0.5 -32.5q0 -11 -0.5 -31.5t2 -41t8.5 -36t18 -15.5q10 0 36.5 9.5t54.5 21.5t49.5 23.5t21.5 16.5v674q-3 21 -4.5 36.5t-2.5 30t-1 29.5v33q0 10 -0.5 21t1.5 20t8 15t20 6q3 0 8.5 -3.5t5.5 -9.5v-2q11 5 34 8.5t52 6t61 4t61 2
t52.5 0.5h34.5h35l217 -6q9 -4 11.5 -6t2.5 -7q0 -3 -1 -7t-1 -7q3 0 8 2t8 2q6 0 6 -8q0 -272 -3 -537.5t-17 -535.5q0 -6 -5 -14.5t-12 -17t-14.5 -15.5t-11.5 -11q-3 2 -16.5 5t-18.5 3q-2 0 -7 -4t-7 -4q-62 -11 -129 -12.5t-129 -1.5h-92t-90 8zM923 1577
q-16 -31 -36 -77t-40.5 -89t-39.5 -73.5t-34 -30.5h-39t-37 -2l-14 8l-8 -6h-59q-28 0 -55.5 -1t-55.5 -1q-26 0 -32.5 19.5t-6.5 41.5q0 53 5.5 106.5t13 108t15.5 109t13 108.5q16 82 33.5 157t40.5 159l16 14l88 14q73 0 132 3t112 3l12 -6q10 3 22.5 2.5t20.5 1.5
q5 -3 12 -3.5t13 -2.5l88 -6l14 -4q5 0 7.5 1t7.5 1q40 -9 54.5 -16t14.5 -23q1 -2 -6 -17t-19.5 -38t-28.5 -50.5t-33 -56t-32.5 -55t-27.5 -45.5q-20 -32 -35.5 -63.5t-30 -63t-30 -63t-35.5 -64.5z" />
    <glyph glyph-name="ucircumflex" unicode="&#xfb;" horiz-adv-x="1619" 
d="M972 6q-11 6 -17.5 20.5t-11.5 29t-9 25.5t-10 11q-12 0 -25 -6.5t-26 -16t-25.5 -20.5t-23.5 -20q-29 -17 -63.5 -28t-67 -18t-58 -9.5t-36.5 -2.5q-35 0 -69.5 -1.5t-69.5 -0.5t-69 6.5t-67 18.5q-55 21 -90.5 64.5t-57 98.5t-30.5 118t-12 123.5t-1.5 113.5t1.5 90
q0 9 0.5 28.5t0.5 40t0.5 37t0.5 21.5l6 14l1.5 19.5t3 50.5t3 69.5t3 75.5t2.5 69t1 50q0 20 -3 38t-3 38t19.5 25.5t42.5 5.5h30q10 0 18.5 0.5t14.5 3.5l250 -4q0 -2 3 -4t5 -2l13 6q51 0 85.5 -4.5t55.5 -19t30 -42.5t9 -76t3 -90t3 -90v-20q-2 -43 -4 -93t-3.5 -101.5
t-2.5 -100t-2 -87.5t-1.5 -65.5t-0.5 -32.5q0 -11 -0.5 -31.5t2 -41t8.5 -36t18 -15.5q10 0 36.5 9.5t54.5 21.5t49.5 23.5t21.5 16.5v674q-3 21 -4.5 36.5t-2.5 30t-1 29.5v33q0 10 -0.5 21t1.5 20t8 15t20 6q3 0 8.5 -3.5t5.5 -9.5v-2q11 5 34 8.5t52 6t61 4t61 2
t52.5 0.5h34.5h35l217 -6q9 -4 11.5 -6t2.5 -7q0 -3 -1 -7t-1 -7q3 0 8 2t8 2q6 0 6 -8q0 -272 -3 -537.5t-17 -535.5q0 -6 -5 -14.5t-12 -17t-14.5 -15.5t-11.5 -11q-3 2 -16.5 5t-18.5 3q-2 0 -7 -4t-7 -4q-62 -11 -129 -12.5t-129 -1.5h-92t-90 8zM950 1493
q-35 40 -64 83t-55 83q-58 -99 -109 -176q-22 -33 -44.5 -64.5t-43 -56.5t-37.5 -40t-28 -15h-39.5t-40.5 -2l-10 8l-9 -6h-61q-26 0 -56.5 -1t-58.5 -1q-17 0 -23.5 12.5t-6.5 28.5v14t2 12q10 50 31 100t45.5 100t49.5 100t44 100q31 60 59.5 116.5t67.5 118.5l14 16
l94 23h121l76 -2q20 -2 32 -2.5t23 -1t25.5 -0.5h40.5l61 -6l47 -27q41 -74 84.5 -151t83.5 -156.5t74 -161.5t55 -166q0 -6 1 -12t1 -14q0 -16 -7 -28.5t-24 -12.5q-21 0 -46 1t-48 1h-20l-41 -2q-48 2 -75 2h-44q-11 0 -28.5 21.5t-37 51.5t-39.5 61.5t-36 51.5z" />
    <glyph glyph-name="udieresis" unicode="&#xfc;" horiz-adv-x="1619" 
d="M972 6q-11 6 -17.5 20.5t-11.5 29t-9 25.5t-10 11q-12 0 -25 -6.5t-26 -16t-25.5 -20.5t-23.5 -20q-29 -17 -63.5 -28t-67 -18t-58 -9.5t-36.5 -2.5q-35 0 -69.5 -1.5t-69.5 -0.5t-69 6.5t-67 18.5q-55 21 -90.5 64.5t-57 98.5t-30.5 118t-12 123.5t-1.5 113.5t1.5 90
q0 9 0.5 28.5t0.5 40t0.5 37t0.5 21.5l6 14l1.5 19.5t3 50.5t3 69.5t3 75.5t2.5 69t1 50q0 20 -3 38t-3 38t19.5 25.5t42.5 5.5h30q10 0 18.5 0.5t14.5 3.5l250 -4q0 -2 3 -4t5 -2l13 6q51 0 85.5 -4.5t55.5 -19t30 -42.5t9 -76t3 -90t3 -90v-20q-2 -43 -4 -93t-3.5 -101.5
t-2.5 -100t-2 -87.5t-1.5 -65.5t-0.5 -32.5q0 -11 -0.5 -31.5t2 -41t8.5 -36t18 -15.5q10 0 36.5 9.5t54.5 21.5t49.5 23.5t21.5 16.5v674q-3 21 -4.5 36.5t-2.5 30t-1 29.5v33q0 10 -0.5 21t1.5 20t8 15t20 6q3 0 8.5 -3.5t5.5 -9.5v-2q11 5 34 8.5t52 6t61 4t61 2
t52.5 0.5h34.5h35l217 -6q9 -4 11.5 -6t2.5 -7q0 -3 -1 -7t-1 -7q3 0 8 2t8 2q6 0 6 -8q0 -272 -3 -537.5t-17 -535.5q0 -6 -5 -14.5t-12 -17t-14.5 -15.5t-11.5 -11q-3 2 -16.5 5t-18.5 3q-2 0 -7 -4t-7 -4q-62 -11 -129 -12.5t-129 -1.5h-92t-90 8zM735 1735q14 0 18 -15
t4 -37q0 -18 -1 -39.5t-1 -39.5q0 -5 0.5 -14.5t0.5 -21t0.5 -23.5t0.5 -21q0 -23 1.5 -45t1.5 -45q0 -20 -6.5 -37t-24.5 -19h-408l-14 13l-14 65v60q0 20 -2.5 39.5t4.5 39.5l10 64q0 3 -1 7t-1 7q6 18 10.5 30t10.5 18.5t14.5 9t23.5 2.5h213q26 3 42.5 4.5t27.5 1.5
q10 0 16 -1t11.5 -2t11.5 -2t16 -1h13t16 2h6zM1374 1735q14 0 18 -15t4 -37q0 -18 -1 -39.5t-1 -39.5q0 -5 0.5 -14.5t0.5 -21t0.5 -23.5t0.5 -21q0 -14 -2 -24.5t-2 -18.5q0 -13 3.5 -22.5t3.5 -24.5q0 -20 -6.5 -37t-24.5 -19h-305l-117 13l-14 65v60q0 15 -0.5 26
t-4.5 27q-1 4 -1.5 9t-0.5 16.5t-0.5 31.5t-1.5 53q0 3 -1 7.5t-1 7.5q9 13 15 21t14 12t19.5 5t31.5 1h213q26 3 42.5 4.5t27.5 1.5q10 0 16 -1t11 -2t11.5 -2t16.5 -1h13t16 2h6z" />
    <glyph glyph-name="yacute" unicode="&#xfd;" horiz-adv-x="1489" 
d="M855 -209q-13 -24 -23.5 -34.5t-26.5 -10.5q-11 0 -25.5 4.5t-36.5 12.5q-10 3 -25 9t-26 8q-16 2 -28 10t-27 11q-2 1 -9.5 2t-16 2t-16 2t-8.5 2q-65 18 -133 48t-133 56q-7 2 -9.5 8t-2.5 13q0 16 6 24q16 26 29.5 49.5t26 46t26.5 45t32 46.5q7 8 14 22.5t13 28.5
q7 16 14 33q-13 24 -34.5 59.5t-44 70.5t-43 65t-32.5 42q-6 11 -19.5 34t-30.5 52.5t-35.5 61t-34.5 61t-29 52.5t-19 34q-8 12 -23.5 41t-30.5 60.5t-26.5 59.5t-11.5 39q0 9 16 21t38.5 24.5t46.5 23.5t39 17q45 19 78 34t64 28.5t64.5 27.5t80.5 32q10 4 21 5t20 1
q10 0 20.5 -7.5t22.5 -33.5q37 -77 74 -156.5t86 -173.5q3 -6 7 -13.5t9 -14t11 -11.5t12 -5q9 0 16 16l141 366q3 12 12.5 23t22.5 18t27.5 10t27.5 -1q43 -12 94.5 -29.5t103.5 -38.5t100 -44t84 -45q21 -13 26 -28.5t2 -31t-10.5 -29t-12.5 -23.5l-326 -711l-18 -39z
M858 1577q-16 -31 -36 -77t-40.5 -89t-39.5 -73.5t-34 -30.5h-39t-37 -2l-14 8l-8 -6h-59q-28 0 -55.5 -1t-55.5 -1q-26 0 -32.5 19.5t-6.5 41.5q0 53 5.5 106.5t13 108t15.5 109t13 108.5q16 82 33.5 157t40.5 159l16 14l88 14q73 0 132 3t112 3l12 -6q10 3 22.5 2.5
t20.5 1.5q5 -3 12 -3.5t13 -2.5l88 -6l14 -4q5 0 7.5 1t7.5 1q40 -9 54.5 -16t14.5 -23q1 -2 -6 -17t-19.5 -38t-28.5 -50.5t-33 -56t-32.5 -55t-27.5 -45.5q-20 -32 -35.5 -63.5t-30 -63t-30 -63t-35.5 -64.5z" />
    <glyph glyph-name="thorn" unicode="&#xfe;" horiz-adv-x="1483" 
d="M120 1282q0 18 1 37.5t5.5 35.5t14 26.5t26.5 10.5q79 0 134 -1t101 -2t91 -2t106 -1q24 0 42.5 -2.5t31 -11.5t19 -27t6.5 -49v-15t0.5 -26t0.5 -26v-15q0 -2 -0.5 -30.5t-1.5 -67.5q60 2 125 3t137 1q49 0 104.5 -7t110 -24t104.5 -46.5t88.5 -75t61.5 -109t23 -148.5
q0 -140 -36 -236.5t-101.5 -156.5t-157.5 -86.5t-205 -26.5h-255q0 -78 1.5 -113.5t1.5 -38.5t1.5 -15t3 -26t3 -26t1.5 -15q0 -32 -6.5 -50t-19 -27t-31 -11t-42.5 -2q-62 0 -108.5 -1t-93.5 -2t-103 -2t-137 -1q-17 0 -26.5 10t-14 26t-5.5 35.5t-1 38.5v1298zM722 424
q1 -2 10 -3q8 -1 24.5 -1.5t47.5 -0.5q20 0 33.5 20t22.5 51t14 69.5t7 75t2.5 67.5t0.5 47q0 3 -0.5 19t-4.5 38t-12.5 47.5t-24 47t-39.5 35.5t-59 14q-4 0 -7 -22.5t-5.5 -59.5t-4 -84.5t-2.5 -96.5q-3 -116 -3 -263z" />
    <glyph glyph-name="ydieresis" unicode="&#xff;" horiz-adv-x="1489" 
d="M855 -209q-13 -24 -23.5 -34.5t-26.5 -10.5q-11 0 -25.5 4.5t-36.5 12.5q-10 3 -25 9t-26 8q-16 2 -28 10t-27 11q-2 1 -9.5 2t-16 2t-16 2t-8.5 2q-65 18 -133 48t-133 56q-7 2 -9.5 8t-2.5 13q0 16 6 24q16 26 29.5 49.5t26 46t26.5 45t32 46.5q7 8 14 22.5t13 28.5
q7 16 14 33q-13 24 -34.5 59.5t-44 70.5t-43 65t-32.5 42q-6 11 -19.5 34t-30.5 52.5t-35.5 61t-34.5 61t-29 52.5t-19 34q-8 12 -23.5 41t-30.5 60.5t-26.5 59.5t-11.5 39q0 9 16 21t38.5 24.5t46.5 23.5t39 17q45 19 78 34t64 28.5t64.5 27.5t80.5 32q10 4 21 5t20 1
q10 0 20.5 -7.5t22.5 -33.5q37 -77 74 -156.5t86 -173.5q3 -6 7 -13.5t9 -14t11 -11.5t12 -5q9 0 16 16l141 366q3 12 12.5 23t22.5 18t27.5 10t27.5 -1q43 -12 94.5 -29.5t103.5 -38.5t100 -44t84 -45q21 -13 26 -28.5t2 -31t-10.5 -29t-12.5 -23.5l-326 -711l-18 -39z
M670 1735q14 0 18 -15t4 -37q0 -18 -1 -39.5t-1 -39.5q0 -5 0.5 -14.5t0.5 -21t0.5 -23.5t0.5 -21q0 -23 1.5 -45t1.5 -45q0 -20 -6.5 -37t-24.5 -19h-408l-14 13l-14 65v60q0 20 -2.5 39.5t4.5 39.5l10 64q0 3 -1 7t-1 7q6 18 10.5 30t10.5 18.5t14.5 9t23.5 2.5h213
q26 3 42.5 4.5t27.5 1.5q10 0 16 -1t11.5 -2t11.5 -2t16 -1h13t16 2h6zM1309 1735q14 0 18 -15t4 -37q0 -18 -1 -39.5t-1 -39.5q0 -5 0.5 -14.5t0.5 -21t0.5 -23.5t0.5 -21q0 -14 -2 -24.5t-2 -18.5q0 -13 3.5 -22.5t3.5 -24.5q0 -20 -6.5 -37t-24.5 -19h-305l-117 13
l-14 65v60q0 15 -0.5 26t-4.5 27q-1 4 -1.5 9t-0.5 16.5t-0.5 31.5t-1.5 53q0 3 -1 7.5t-1 7.5q9 13 15 21t14 12t19.5 5t31.5 1h213q26 3 42.5 4.5t27.5 1.5q10 0 16 -1t11 -2t11.5 -2t16.5 -1h13t16 2h6z" />
    <glyph glyph-name="Amacron" unicode="&#x100;" horiz-adv-x="1880" 
d="M715 1364q1 0 16.5 0.5t38 1.5t48.5 2t48 2.5t36 2t13 1.5q6 0 35 0.5t69 0.5h85.5t85 -1t67 -3.5t31.5 -6.5q29 0 55.5 5t55.5 5q12 0 24 -6t25 -6q6 0 9.5 1t8.5 1q6 -3 13.5 -10.5t7.5 -12.5l143 -647q32 -124 62.5 -254t56.5 -254q2 -9 6 -26.5t7.5 -38.5t5.5 -42.5
t-0.5 -39.5t-11 -29.5t-24.5 -11.5h-27t-46 0.5t-53.5 1t-51.5 1t-40 0.5t-17 1h-129q0 2 -2.5 5t-18.5 3q-2 0 -3.5 -4t-4.5 -4h-6q-1 0 -17.5 1t-40 2.5t-50 3t-46.5 1.5q-15 25 -29.5 89t-31.5 151q-24 -4 -53 -5.5t-60 -1.5t-63 0.5t-60 0.5q-17 -84 -31 -146.5
t-28 -87.5q-8 0 -18.5 -4t-12.5 -4h-6q-11 0 -17 4t-11 4q-53 -1 -93 -3q-17 -1 -33.5 -1.5t-29.5 -1.5t-21 -1.5l-8 -0.5h-190q-2 0 -17.5 -0.5t-39.5 -1t-52 -1t-53.5 -1t-45.5 -0.5h-28q-16 0 -24 11.5t-10.5 29.5t-0.5 39.5t6 42.5t7.5 38.5t5.5 26.5q26 124 56.5 254
t62.5 254l143 647q0 5 7 12.5t14 10.5q5 0 8.5 -1t9.5 -1q26 0 54 6t57 6q43 0 83.5 -5t88.5 -5zM995 1016q0 -1 -4.5 -27.5t-12 -69t-17 -96.5t-19 -110t-19 -110.5t-16.5 -96.5h105q2 2 7 4t7 2h4q20 0 35.5 -4.5t29.5 -7.5q-7 42 -16 96.5t-19 111.5t-19.5 112t-17 98
t-12 70t-4.5 28l-2 8t-1.5 9.5t-2.5 13.5q-2 -8 -3 -13.5t-2 -9.5t-1 -8zM1102 1678q-3 0 -20 0.5t-41.5 0.5t-52.5 1t-52.5 1t-41.5 0.5t-20 0.5h-205q-29 0 -57 -0.5t-50.5 3.5t-36.5 15.5t-14 34.5q0 41 -0.5 72.5t-0.5 61t-0.5 60.5t-0.5 72q0 8 4.5 16.5t12 15.5
t15.5 11.5t16 4.5h227q11 0 47 -0.5t84.5 -1.5t103 -2.5t102.5 -2.5t84 -1.5t48 -0.5q18 0 37.5 -1.5t36 -6.5t27.5 -15t11 -28q0 -30 0.5 -48.5t1 -31.5t1 -23t1 -23t1 -31t0.5 -47q0 -18 -1 -37.5t-6 -36t-15 -27.5t-27 -11q-40 0 -69.5 1t-54 1.5t-47 1.5t-48.5 1z" />
    </font>
</defs>
</svg>
