<?xml version="1.0" standalone="no"?>
<!DOCTYPE svg PUBLIC "-//W3C//DTD SVG 1.1//EN" "http://www.w3.org/Graphics/SVG/1.1/DTD/svg11.dtd" >
<svg xmlns="http://www.w3.org/2000/svg" xmlns:xlink="http://www.w3.org/1999/xlink" version="1.1">
<metadata>
Created by FontForge 20161013 at Tue Mar 22 02:26:55 2011
 By ,,,
Copyright (c) 2010 by vernon adams. All rights reserved.
</metadata>
<defs>
<font id="SixCaps" horiz-adv-x="512" >
  <font-face 
    font-family="Six Caps"
    font-weight="400"
    font-variant="small-caps"
    font-stretch="normal"
    units-per-em="2048"
    panose-1="2 0 5 8 2 0 0 2 0 4"
    ascent="1638"
    descent="-410"
    x-height="1536"
    cap-height="1728"
    bbox="-96 -506 1450 2281"
    underline-thickness="41"
    underline-position="-312"
    unicode-range="U+0002-FB02"
  />
<missing-glyph horiz-adv-x="0" 
 />
    <glyph glyph-name=".notdef" horiz-adv-x="0" 
 />
    <glyph glyph-name="uni0000" horiz-adv-x="0" 
 />
    <glyph glyph-name="uni0000" horiz-adv-x="0" 
 />
    <glyph glyph-name="nonmarkingreturn" horiz-adv-x="0" 
 />
    <glyph glyph-name="uni0002" horiz-adv-x="0" 
 />
    <glyph glyph-name="uni0009" unicode="&#x9;" horiz-adv-x="0" 
 />
    <glyph glyph-name="uni000A" unicode="&#xa;" horiz-adv-x="0" 
 />
    <glyph glyph-name="uni000D" unicode="&#xd;" horiz-adv-x="0" 
 />
    <glyph glyph-name="space" unicode=" " horiz-adv-x="237" 
 />
    <glyph glyph-name="exclam" unicode="!" horiz-adv-x="259" 
d="M224 1728l-64 -1472h-64l-64 1472h192zM192 160v-160h-128v160h128z" />
    <glyph glyph-name="quotedbl" unicode="&#x22;" horiz-adv-x="448" 
d="M384 1728l-32 -352h-64l-32 352h128zM192 1728l-32 -352h-64l-32 352h128z" />
    <glyph glyph-name="numbersign" unicode="#" 
d="M480 608h-62l-34 -608h-128l34 608h-96l-34 -608h-128l34 608h-66v96h71l16 288h-55v96h61l35 640h128l-35 -640h96l35 640h128l-35 -640h67v-96h-73l-16 -288h57v-96zM199 704h96l16 288h-96z" />
    <glyph glyph-name="dollar" unicode="$" horiz-adv-x="461" 
d="M183 -13q-27 7 -51.5 20.5t-42.5 32.5q-17 20 -27 47.5t-10 62.5v587h135v-587q0 -20 12.5 -31.5t32.5 -11.5q17 0 28.5 11.5t11.5 31.5v271q0 106 -9.5 182t-25 133t-35 99t-40.5 79t-40.5 74.5t-35 84.5t-25 109t-9.5 148v295q0 61 37 97.5t94 52.5v226h105v-229
q54 -16 88 -53q15 -18 23.5 -41t8.5 -50v-520h-136v518q0 17 -11.5 28t-28.5 11q-19 0 -32 -12t-13 -28v-249q0 -85 9.5 -148.5t25 -113t35.5 -88.5t40.5 -75.5t40.5 -74t35.5 -84t25 -105t9.5 -137.5v-396q0 -72 -30 -111.5t-90 -55.5v-227h-105v227z" />
    <glyph glyph-name="percent" unicode="%" horiz-adv-x="1084" 
d="M1036 362q0 -31 -14 -58t-38 -47.5t-56 -32.5t-67 -12q-37 0 -69.5 12t-56.5 33t-38 49.5t-14 60.5v542q0 32 14 60t38 49t56.5 33t69.5 12q35 0 67 -11.5t56 -31.5t38 -47.5t14 -60.5v-550zM898 933q0 16 -11 25.5t-26 9.5q-16 0 -28.5 -9.5t-12.5 -25.5v-591
q0 -8 10 -20t31 -12q15 0 26 9.5t11 22.5v591zM402 844q0 -31 -14.5 -58.5t-38.5 -48t-56 -32.5t-67 -12q-36 0 -68.5 12t-56.5 33t-38.5 49.5t-14.5 61.5v542q0 31 14.5 59t38.5 49t56.5 33.5t68.5 12.5q35 0 67 -11.5t56 -31.5t38.5 -48t14.5 -61v-549zM264 1415
q0 15 -11 25t-27 10q-15 0 -27.5 -10t-12.5 -25v-591q0 -9 10 -20.5t30 -11.5q16 0 27 9t11 23v591zM701 1761l-189 -1761h-134l189 1761h134z" />
    <glyph glyph-name="ampersand" unicode="&#x26;" horiz-adv-x="491" 
d="M415 1077h-135v561q0 14 -13 25t-36 11q-18 0 -31.5 -11t-13.5 -25v-576q0 -33 6.5 -51t18.5 -26t30 -9.5t41 -1.5v-117q-23 0 -41 -0.5t-30 -6t-18.5 -18t-6.5 -35.5v-670q0 -15 13.5 -27t31.5 -12q23 0 36 12t13 27v622h223l-1 -111l-87 -2v-512q0 -29 -14.5 -55.5
t-39.5 -46.5t-58.5 -31.5t-71.5 -11.5q-36 0 -68.5 11.5t-57 32t-39 47.5t-14.5 57v674q0 39 15.5 64t35.5 38q24 16 53 23q-31 6 -53 24q-20 14 -35.5 40.5t-15.5 71.5v576q0 30 14.5 57t39 46.5t57 31t68.5 11.5q38 0 71.5 -11t58.5 -30.5t39.5 -46.5t14.5 -58v-561z" />
    <glyph glyph-name="quotesingle" unicode="'" horiz-adv-x="273" 
d="M216 1761l-42 -359h-86l-31 359h159z" />
    <glyph glyph-name="parenleft" unicode="(" horiz-adv-x="352" 
d="M32 896q0 88 1.5 184t9.5 188.5t25 175.5t49 146.5t81.5 100.5t121.5 37v-96q-40 0 -67.5 -30t-45 -82.5t-27.5 -123.5t-14.5 -153t-5 -170.5t-0.5 -176.5t0.5 -181.5t5 -182.5t14.5 -168t27.5 -138.5t45 -94.5t67.5 -35v-96q-72 0 -121.5 42t-81.5 112t-49 162
t-25 191.5t-9.5 200t-1.5 188.5z" />
    <glyph glyph-name="parenright" unicode=")" horiz-adv-x="352" 
d="M320.006 896q0 88 -1.5 184q-1.49902 96 -9.49805 188.5q-7.99805 92.5 -24.9951 175.5t-48.9912 146.5t-81.4854 100.5t-121.478 37v-96q39.9922 0 67.4873 -30t44.9922 -82.5t27.4951 -123.5t14.4971 -153t4.99902 -170.5t0.5 -176.5t-0.5 -181.5t-4.99902 -182.5
t-14.4971 -168t-27.4951 -138.5t-44.9922 -94.5t-67.4873 -35v-96q71.9863 0 121.478 42t81.4854 112t48.9912 162t24.9951 191.5q7.99902 99.5 9.49805 200q1.5 100.5 1.5 188.5z" />
    <glyph glyph-name="asterisk" unicode="*" horiz-adv-x="608" 
d="M408 1161l-103 165l-98 -165l-85 49l102 166h-192v96h193l-103 167l84 49l99 -167l103 167l84 -49l-109 -167h193v-96h-192l108 -166z" />
    <glyph glyph-name="plus" unicode="+" horiz-adv-x="640" 
d="M32 896h224v256h128v-256h224v-128h-224v-256h-128v256h-224v128z" />
    <glyph glyph-name="comma" unicode="," horiz-adv-x="192" 
d="M160 192l-32 -352h-96v352h128z" />
    <glyph glyph-name="hyphen" unicode="-" horiz-adv-x="544" 
d="M512 704h-480v128h480v-128z" />
    <glyph glyph-name="period" unicode="." horiz-adv-x="224" 
d="M192 160v-160h-160v160h160z" />
    <glyph glyph-name="slash" unicode="/" horiz-adv-x="352" 
d="M320 1728l-160 -1728h-128l160 1728h128z" />
    <glyph glyph-name="zero" unicode="0" horiz-adv-x="416" 
d="M384 160q0 -48 -15 -84t-40 -60t-56.5 -36t-64.5 -12t-64.5 12t-56.5 36t-40 60t-15 84v1408q0 48 15 84t40 60t56.5 36t64.5 12t64.5 -12t56.5 -36t40 -60t15 -84v-1408zM256 1568q0 36 -15 54t-33 18t-33 -18t-15 -54v-1408q0 -36 15 -54t33 -18t33 18t15 54v1408z" />
    <glyph glyph-name="one" unicode="1" horiz-adv-x="384" 
d="M32 96h96v1536h-96v96h224v-1632h96v-96h-320v96z" />
    <glyph glyph-name="two" unicode="2" horiz-adv-x="416" 
d="M32 1568q0 64 26 106.5t65 64t85 21.5t85 -21.5t65 -64t26 -106.5q0 -30 -0.5 -47t-3.5 -37t-9 -52t-17 -91.5t-27.5 -154.5t-39.5 -242.5t-54.5 -355.5t-72.5 -492h224v-96h-352q43 301 76 524t57 384t40 267.5t26 173.5t15 103t7.5 56t2.5 31v29q0 48 -15 72t-33 24
t-33 -24t-15 -72v-288h-128v288z" />
    <glyph glyph-name="three" unicode="3" horiz-adv-x="448" 
d="M32 1568q0 48 15 84t40 60t56.5 36t64.5 12t64.5 -12t56.5 -36t40 -60t15 -84v-544q0 -12 -1.5 -29t-10.5 -35t-28.5 -35t-55.5 -29q36 -12 55.5 -29t28.5 -35t10.5 -35t1.5 -29v-608q0 -48 -15 -84t-40 -60t-56.5 -36t-64.5 -12t-64.5 12t-56.5 36t-40 60t-15 84v448
h128v-448q0 -48 15 -72t33 -24t33 24t15 72v608q0 24 -5.5 37t-14.5 19t-20.5 7t-23.5 1h-64v128h64q12 0 23.5 1t20.5 7t14.5 19.5t5.5 37.5v543q0 48 -15 72t-33 24t-33 -24t-15 -72v-416h-128v416z" />
    <glyph glyph-name="four" unicode="4" horiz-adv-x="448" 
d="M384 1120v-1120h-128v352h-224l64 1376h128l-64 -1258h96v650h128z" />
    <glyph glyph-name="five" unicode="5" horiz-adv-x="451" 
d="M288 864q0 36 -15 54t-33 18t-33 -18t-15 -54h-128v864h352v-96h-224v-640q19 29 47.5 45t57.5 16q22 0 43.5 -10.5t38.5 -33.5t27 -58.5t10 -86.5v-704q0 -48 -15 -84t-40 -60t-56.5 -36t-64.5 -12t-64.5 12t-56.5 36t-40 60t-15 84v576h128v-576q0 -48 15 -72t33 -24
t33 24t15 72v704z" />
    <glyph glyph-name="six" unicode="6" horiz-adv-x="480" 
d="M192 992q29 14 56 22t50 8q54 0 86 -44.5t32 -145.5v-672q0 -48 -15 -84t-40 -60t-56.5 -36t-64.5 -12t-64.5 12t-56.5 36t-40 60t-15 84v1408q0 48 15 84t40 60t56.5 36t64.5 12t64.5 -12t56.5 -36t40 -60t15 -84v-352h-128v352q0 48 -15 72t-33 24t-33 -24t-15 -72
v-576zM288 832q0 36 -10.5 50t-25.5 14t-31.5 -10t-28.5 -22v-704q0 -36 15 -54t33 -18t33 18t15 54v672z" />
    <glyph glyph-name="seven" unicode="7" horiz-adv-x="352" 
d="M64 0l128 1632h-160v96h288l-128 -1728h-128z" />
    <glyph glyph-name="eight" unicode="8" horiz-adv-x="437" 
d="M208 -32q-33 0 -64.5 12t-56.5 36t-40 60t-15 84v256q0 133 15 229t33 159q21 74 48 124q-27 49 -48 112q-18 54 -33 130.5t-15 173.5v224q0 48 15 84t40 60t56.5 36t64.5 12t64.5 -12t56.5 -36t40 -60t15 -84v-224q0 -97 -15 -173.5t-33 -130.5q-21 -63 -48 -112
q27 -50 48 -124q18 -63 33 -159t15 -229v-256q0 -48 -15 -84t-40 -60t-56.5 -36t-64.5 -12zM208 1640q-18 0 -33 -18t-15 -54v-256q0 -48 7.5 -99.5t16.5 -93.5q11 -49 25 -96q12 47 23 96q9 42 16.5 93.5t7.5 99.5v256q0 36 -15 54t-33 18zM209 832q-14 -64 -25 -130
q-9 -57 -16.5 -124.5t-7.5 -129.5v-288q0 -36 15 -54t33 -18t33 18t15 54v288q0 62 -7.5 129.5t-16.5 124.5q-11 66 -23 130z" />
    <glyph glyph-name="nine" unicode="9" horiz-adv-x="480" 
d="M288 736q-29 -14 -56 -22t-50 -8q-54 0 -86 44.5t-32 145.5v672q0 48 15 84t40 60t56.5 36t64.5 12t64.5 -12t56.5 -36t40 -60t15 -84v-1408q0 -48 -15 -84t-40 -60t-56.5 -36t-64.5 -12t-64.5 12t-56.5 36t-40 60t-15 84v352h128v-352q0 -48 15 -72t33 -24t33 24t15 72
v576zM192 896q0 -36 10.5 -50t25.5 -14t31.5 10t28.5 22v704q0 36 -15 54t-33 18t-33 -18t-15 -54v-672z" />
    <glyph glyph-name="colon" unicode=":" horiz-adv-x="224" 
d="M192 1120v-160h-160v160h160zM192 448v-160h-160v160h160z" />
    <glyph glyph-name="semicolon" unicode=";" horiz-adv-x="224" 
d="M192 1120v-160h-160v160h160zM192 480l-64 -352h-96v352h160z" />
    <glyph glyph-name="less" unicode="&#x3c;" horiz-adv-x="371" 
d="M5.05762 876l282.948 -876v391l-146.974 485l146.974 517v368z" />
    <glyph glyph-name="equal" unicode="=" horiz-adv-x="576" 
d="M544 512h-512v128h512v-128zM544 736h-512v128h512v-128z" />
    <glyph glyph-name="greater" unicode="&#x3e;" horiz-adv-x="371" 
d="M314 876l-283 -876v391l147 485l-147 517v368z" />
    <glyph glyph-name="question" unicode="?" horiz-adv-x="433" 
d="M256 256h-128v288q0 107 9.5 179t23.5 126t31 99.5t31 98.5t23.5 123t9.5 174v224q0 44 -15 65.5t-34 21.5q-17 0 -32 -21.5t-15 -65.5v-448h-128v448q0 48 15 84t40 60t56.5 36t64.5 12t64.5 -12t56.5 -36t40 -60t15 -84v-224q0 -84 -5.5 -144t-14.5 -105.5t-20.5 -82
t-23.5 -73t-23.5 -78t-20.5 -98.5t-14.5 -133t-5.5 -182v-192zM256 128v-128h-128v128h128z" />
    <glyph glyph-name="at" unicode="@" horiz-adv-x="928" 
d="M640 288q0 -48 15 -72t33 -24t33 24t15 72v1088q0 66 -23.5 115.5t-61.5 82.5t-87 49.5t-100 16.5t-100 -16.5t-87 -49.5t-61.5 -82.5t-23.5 -115.5v-1088q0 -90 24.5 -151.5t66.5 -100.5t97 -59.5t115.5 -29.5t122.5 -10t118 -1l-32 -96q-72 0 -147.5 2t-146.5 14.5
t-134 39.5t-110 76.5t-74.5 126.5t-27.5 189v1088q0 96 34.5 168t90.5 120t128 72t147 24t147 -24t128 -72t90.5 -120t34.5 -168v-1088q0 -64 -19 -107t-48.5 -67t-64.5 -30t-67 5t-56.5 37t-32.5 66q-8 -40 -32.5 -66t-56.5 -37t-67 -5t-64.5 30t-48.5 67t-19 107v1088
q0 56 26 94.5t65 58.5t85 21.5t85 -17t65 -58t26 -99.5v-1088zM512 1376q0 36 -15 54t-33 18t-33 -18t-15 -54v-1088q0 -48 15 -72t33 -24t33 24t15 72v1088z" />
    <glyph glyph-name="A" unicode="A" horiz-adv-x="448" 
d="M416 0h-128l-16 416h-95l-17 -416h-128l96 1728h192zM256 896l-32 768l-32 -768l-15 -384h95z" />
    <glyph glyph-name="B" unicode="B" 
d="M448 160q0 -60 -22 -92.5t-58 -47.5t-82 -17.5t-94 -2.5h-128v1728h128q60 0 107.5 -2.5t80.5 -17.5t50.5 -47.5t17.5 -92.5v-544q0 -48 -24 -74t-72 -39q48 -11 72 -37t24 -74v-640zM192 960h96q12 0 18.5 5.5t9.5 14.5t3.5 20.5t0.5 23.5v544q0 24 -6.5 37t-21.5 19
t-39.5 7t-60.5 1v-672zM320 800q0 12 -0.5 23.5t-3.5 20.5t-9.5 14.5t-18.5 5.5h-96v-768q36 0 60.5 1t39.5 7t21.5 19t6.5 37v640z" />
    <glyph glyph-name="C" unicode="C" 
d="M448 1024h-128v544q0 24 -5.5 39.5t-14.5 24t-20.5 12t-23.5 3.5t-23.5 -3.5t-20.5 -12t-14.5 -24t-5.5 -39.5v-1408q0 -12 1 -28.5t7 -31.5t19 -25.5t37 -10.5t37 10.5t19 25.5t7 31.5t1 28.5v672h128v-672q0 -12 -3 -43.5t-21 -64.5t-57 -58.5t-111 -25.5t-111 25.5
t-57 58.5t-21 64.5t-3 43.5v1408q0 46 17 79.5t44.5 54.5t61.5 31t69 10q37 0 71.5 -11t61.5 -33t43 -55t16 -76v-544z" />
    <glyph glyph-name="D" unicode="D" 
d="M320 1568q0 24 -6.5 37t-21.5 19t-39.5 7t-60.5 1v-1536q36 0 60.5 1t39.5 7t21.5 19t6.5 37v1408zM448 160q0 -60 -22 -92.5t-58 -47.5t-82 -17.5t-94 -2.5h-128v1728h128q48 0 94 -2.5t82 -17.5t58 -47.5t22 -92.5v-1408z" />
    <glyph glyph-name="E" unicode="E" horiz-adv-x="384" 
d="M352 1632h-160v-672h128v-96h-128v-768h160v-96h-288v1728h288v-96z" />
    <glyph glyph-name="F" unicode="F" horiz-adv-x="384" 
d="M352 1632h-160v-640h128v-96h-128v-896h-128v1728h288v-96z" />
    <glyph glyph-name="G" unicode="G" 
d="M448 1024h-128v544q0 12 -1 26t-7 25.5t-19 19.5t-37 8t-37 -8t-19 -19.5t-7 -25.5t-1 -26v-1408q0 -12 1 -28.5t7 -31.5t19 -25.5t37 -10.5t37 10.5t19 25.5t7 31.5t1 28.5v640h-32v96h160v-736q0 -12 -3 -43.5t-21 -64.5t-57 -58.5t-111 -25.5t-111 25.5t-57 58.5
t-21 64.5t-3 43.5v1408q0 8 1 24t6 35.5t17 40t33 37.5t54 27.5t81 10.5t81 -10.5t54 -27.5t33 -37.5t17 -40t6 -35.5t1 -24v-544z" />
    <glyph glyph-name="H" unicode="H" 
d="M192 928h128v800h128v-1728h-128v832h-128v-832h-128v1728h128v-800z" />
    <glyph glyph-name="I" unicode="I" horiz-adv-x="288" 
d="M208 1728v-1728h-128v1728h128z" />
    <glyph glyph-name="J" unicode="J" 
d="M448 160q-3 -54 -24 -96q-9 -18 -23 -35.5t-34 -31t-47.5 -21.5t-63.5 -8t-63.5 8t-47.5 21.5t-34 31t-23 35.5q-21 42 -24 96v672h128v-672q0 -12 1 -28.5t7 -31.5t19 -25.5t37 -10.5t37 10.5t19 25.5t7 31.5t1 28.5v1568h128v-1568z" />
    <glyph glyph-name="K" unicode="K" horiz-adv-x="480" 
d="M448 0h-128l-128 864v-864h-128v1728h128v-800l128 800h128l-128 -736l-14 -96l14 -96z" />
    <glyph glyph-name="L" unicode="L" horiz-adv-x="384" 
d="M192 1728v-1632h128v-96h-256v1728h128z" />
    <glyph glyph-name="M" unicode="M" horiz-adv-x="640" 
d="M416 1728h128l32 -1728h-128v1184l-96 -1088h-64l-96 1088v-1184h-128l32 1728h128l96 -1184z" />
    <glyph glyph-name="N" unicode="N" 
d="M448 0h-128l-160 1280v-1280h-96v1728h128l160 -1280v1280h96v-1728z" />
    <glyph glyph-name="O" unicode="O" 
d="M448 160q0 -12 -3 -43.5t-21 -64.5t-57 -58.5t-111 -25.5t-111 25.5t-57 58.5t-21 64.5t-3 43.5v1408q0 8 1 24t6 35.5t17 40t33 37.5t54 27.5t81 10.5t81 -10.5t54 -27.5t33 -37.5t17 -40t6 -35.5t1 -24v-1408zM192 160q0 -12 1 -28.5t7 -31.5t19 -25.5t37 -10.5
t37 10.5t19 25.5t7 31.5t1 28.5v1408q0 12 -1 26t-7 25.5t-19 19.5t-37 8t-37 -8t-19 -19.5t-7 -25.5t-1 -26v-1408z" />
    <glyph glyph-name="P" unicode="P" horiz-adv-x="480" 
d="M448 992q0 -60 -22 -92.5t-58 -47.5t-82 -17.5t-94 -2.5v-832h-128v1728h128q96 0 148 -16t76 -40t28 -52t4 -52v-576zM320 1568q0 24 -6.5 37t-21.5 19t-39.5 7t-60.5 1v-704q24 0 47 1t41 7t29 19t11 37v576z" />
    <glyph glyph-name="Q" unicode="Q" 
d="M192 1568q0 12 1 26t7 25.5t19 19.5t37 8t37 -8t19 -19.5t7 -25.5t1 -26v-1408q0 -12 -1 -28.5t-7 -31.5t-19 -25.5t-37 -10.5t-37 10.5t-19 25.5t-7 31.5t-1 28.5v1408zM448 1568q0 8 -1 24t-6 35.5t-17 40t-33 37.5t-54 27.5t-81 10.5t-81 -10.5t-54 -27.5t-33 -37.5
t-17 -40t-6 -35.5t-1 -24v-1408q0 -12 3 -43.5t21 -64.5t57 -58q21 -14 50 -20l29 -230h128l-29 231q26 7 44 19q39 25 57 58t21 64.5t3 43.5v1408z" />
    <glyph glyph-name="R" unicode="R" 
d="M448 1024q0 -72 -24 -100t-72 -28q24 0 42 -11t30 -29t18 -41t6 -47v-768h-128v800q0 24 -11 37t-29 19t-41 7t-47 1v-864h-128v1728h128q48 0 94 -2.5t82 -17.5t58 -47.5t22 -92.5v-544zM320 1568q0 24 -6.5 37t-21.5 19t-39.5 7t-60.5 1v-704q24 0 47 1t41 7t29 19
t11 37v576z" />
    <glyph glyph-name="S" unicode="S" horiz-adv-x="448" 
d="M288 421q0 106 -11 182t-29 132.5t-41 98.5t-47 79t-47 74t-41 84t-29 108.5t-11 147.5v241q0 24 7.5 54.5t28.5 57t58.5 45t97.5 18.5t97.5 -18.5t58.5 -45t28.5 -57t7.5 -54.5v-448h-128v448q0 24 -5.5 39.5t-14.5 24t-20.5 12t-23.5 3.5t-23.5 -3.5t-20.5 -12
t-14.5 -24t-5.5 -39.5v-195q0 -113 19 -189t47.5 -132.5t61.5 -102.5t61.5 -99.5t47.5 -124t19 -175.5v-390q0 -12 -3 -43.5t-21 -64.5t-57 -58.5t-111 -25.5t-111 25.5t-57 58.5t-21 64.5t-3 43.5v576h128v-576q0 -12 1 -28.5t7 -31.5t19 -25.5t37 -10.5t37 10.5t19 25.5
t7 31.5t1 28.5v261z" />
    <glyph glyph-name="T" unicode="T" horiz-adv-x="448" 
d="M416 1728v-96h-128v-1632h-128v1632h-128v96h384z" />
    <glyph glyph-name="U" unicode="U" 
d="M192 160q0 -12 1 -28.5t7 -31.5t19 -25.5t37 -10.5t37 10.5t19 25.5t7 31.5t1 28.5v1568h128v-1568q0 -12 -3 -43.5t-21 -64.5t-57 -58.5t-111 -25.5t-111 25.5t-57 58.5t-21 64.5t-3 43.5v1568h128v-1568z" />
    <glyph glyph-name="V" unicode="V" horiz-adv-x="448" 
d="M193 1184l31 -640l31 640l33 544h128l-128 -1728h-128l-128 1728h128z" />
    <glyph glyph-name="W" unicode="W" horiz-adv-x="704" 
d="M352 1472l-32 -480l-64 -992h-128l-96 1728h128l32 -1216l96 1216h128l96 -1216l32 1216h128l-96 -1728h-128l-64 992z" />
    <glyph glyph-name="X" unicode="X" horiz-adv-x="416" 
d="M192 1280l17 -256l15 256l32 448h128l-96 -864l96 -864h-128l-32 448l-16 256l-16 -256l-32 -448h-128l96 864l-96 864h128z" />
    <glyph glyph-name="Y" unicode="Y" horiz-adv-x="448" 
d="M192 1280l32 -448l32 448l32 448h128l-128 -1120v-608h-128v608l-128 1120h128z" />
    <glyph glyph-name="Z" unicode="Z" horiz-adv-x="352" 
d="M320 1728l-160 -1632h160v-96h-288l160 1632h-160v96h288z" />
    <glyph glyph-name="bracketleft" unicode="[" horiz-adv-x="433" 
d="M6.05273 1856v-1952h255.953v96h-127.977v1760h127.977v96h-255.953z" />
    <glyph glyph-name="backslash" unicode="\" horiz-adv-x="324" 
d="M135 1761l189 -1761h-134l-189 1761h134z" />
    <glyph glyph-name="bracketright" unicode="]" horiz-adv-x="392" 
d="M288 1856v-1952h-256v96h128v1760h-128v96h256z" />
    <glyph glyph-name="asciicircum" unicode="^" horiz-adv-x="320" 
d="M224 1120l64 -352h-96l-32 256l-32 -256h-96l64 352h128z" />
    <glyph glyph-name="underscore" unicode="_" horiz-adv-x="544" 
d="M544 -96h-544v96h544v-96z" />
    <glyph glyph-name="grave" unicode="`" horiz-adv-x="326" 
d="M160 512l128 -416h-96l-192 416h160z" />
    <glyph glyph-name="a" unicode="a" horiz-adv-x="448" 
d="M416 0h-128l-20 332h-89l-19 -332h-128l128 1536h128zM261 436l-37 780l-38 -780h75z" />
    <glyph glyph-name="b" unicode="b" 
d="M192 832h96q12 0 18.5 5.5t9.5 14.5t3.5 20.5t0.5 23.5v480q0 24 -6.5 37t-21.5 19t-39.5 7t-60.5 1v-608zM320 672q0 12 -0.5 23.5t-3.5 20.5t-9.5 14.5t-18.5 5.5h-96v-640q22 0 45 1t41.5 6.5t30 18.5t11.5 38v512zM448 896q0 -48 -25 -74t-80 -39q55 -11 80 -37
t25 -74v-512q0 -60 -22 -92.5t-58 -47.5t-82 -17.5t-94 -2.5h-128v1536h128q60 0 107.5 -2.5t80.5 -17.5t50.5 -47.5t17.5 -92.5v-480z" />
    <glyph glyph-name="c" unicode="c" 
d="M448 896h-128v496q0 34 -17 48.5t-39 14.5q-13 0 -25.5 -4.5t-23 -13t-17 -20t-6.5 -25.5v-1248q0 -14 6.5 -26t17 -20.5t23 -13t25.5 -4.5q22 0 39 15t17 49v560h128v-560q0 -40 -17 -70.5t-44 -51t-62 -31t-71 -10.5t-70 10t-61 30.5t-43 51t-16 71.5v1248
q0 40 16.5 71t43.5 51t62 30.5t71 10.5t70 -10t61 -30.5t43.5 -51t16.5 -71.5v-496z" />
    <glyph glyph-name="d" unicode="d" 
d="M320 1410q0 19 -18 24q-17 6 -110 6v-1344q93 0 110 6q18 6 18 25v1283zM448 135q0 -51 -21.5 -78.5t-63.5 -40.5q-20 -6 -49 -9.5t-80 -5.5q-51 -1 -90 -1h-80v1536q41 0 82.5 -0.5t84.5 -1.5q88 -2 130 -13q43 -12 65 -38.5t22 -75.5v-1272z" />
    <glyph glyph-name="e" unicode="e" horiz-adv-x="352" 
d="M320 1440h-128v-576h128v-96h-128v-672h128v-96h-256v1536h256v-96z" />
    <glyph glyph-name="f" unicode="f" horiz-adv-x="368" 
d="M352 1440h-160v-576h128v-96h-128v-768h-128v1536h288v-96z" />
    <glyph glyph-name="g" unicode="g" horiz-adv-x="480" 
d="M192 144q0 -36 15 -50t33 -14t33 14t15 50v528h-32v96h160v-624q0 -42 -15 -72.5t-40 -50t-56.5 -28.5t-64.5 -9t-64.5 9t-56.5 28.5t-40 50t-15 72.5v1264q0 42 15 72.5t40 50t56.5 28.5t64.5 9t64.5 -9t56.5 -28.5t40 -49.5t15 -72v-513h-128v513q0 36 -15 49.5
t-33 13.5t-33 -13.5t-15 -49.5v-1265z" />
    <glyph glyph-name="h" unicode="h" 
d="M320 1536h128v-1536h-128v746h-128v-746h-128v1536h128v-690h128v690z" />
    <glyph glyph-name="i" unicode="i" horiz-adv-x="288" 
d="M208 1536v-1536h-128v1536h128z" />
    <glyph glyph-name="j" unicode="j" horiz-adv-x="480" 
d="M416 144q0 -42 -15 -72.5t-40 -50t-56.5 -28.5t-64.5 -9t-64.5 9t-56.5 28.5t-40 50t-15 72.5v560h128v-560q0 -36 15 -50t33 -14t33 14t15 50v1392h128v-1392z" />
    <glyph glyph-name="k" unicode="k" horiz-adv-x="448" 
d="M416 0h-128l-96 704v-704h-128v1536h128v-704l96 704h128l-111 -768z" />
    <glyph glyph-name="l" unicode="l" horiz-adv-x="320" 
d="M192 1536v-1440h128v-96h-256v1536h128z" />
    <glyph glyph-name="m" unicode="m" horiz-adv-x="576" 
d="M399 1536h113v-1536h-112v928l-87 -864h-50l-87 864v-928h-112v1536h113l111 -928z" />
    <glyph glyph-name="n" unicode="n" 
d="M448 0h-96l-176 896v-896h-112v1536h96l177 -928v928h111v-1536z" />
    <glyph glyph-name="o" unicode="o" 
d="M448 144q0 -42 -15.5 -72.5t-41.5 -50.5t-59 -29.5t-68 -9.5q-37 0 -73 10.5t-64 31t-45.5 51t-17.5 69.5v1248q0 38 17.5 67.5t46 49.5t64.5 30.5t73 10.5q35 0 68 -9.5t58.5 -29t41 -49.5t15.5 -70v-1248zM320 1392q0 34 -16.5 48.5t-38.5 14.5q-13 0 -26 -4.5
t-23.5 -13t-17 -20t-6.5 -25.5v-1248q0 -14 6.5 -26t17 -20t23 -12.5t25.5 -4.5q22 0 39 14.5t17 48.5v1248z" />
    <glyph glyph-name="p" unicode="p" horiz-adv-x="480" 
d="M448 864q0 -60 -22 -92.5t-58 -47.5t-82 -17.5t-94 -2.5v-704h-128v1536h160q85 0 130.5 -16t66.5 -40t24 -52t3 -52v-512zM320 1376q0 24 -6.5 37t-21.5 19t-39.5 7t-60.5 1v-640q24 0 47 1.5t41 10.5t29 28.5t11 55.5v480z" />
    <glyph glyph-name="q" unicode="q" 
d="M192 64h128l64 -256h-128zM448 144q0 -42 -15.5 -72.5t-41.5 -50.5t-59 -29.5t-68 -9.5q-37 0 -73 10.5t-64 31t-45.5 51t-17.5 69.5v1248q0 38 17.5 67.5t46 49.5t64.5 30.5t73 10.5q35 0 68 -9.5t58.5 -29t41 -49.5t15.5 -70v-1248zM320 1392q0 34 -16.5 48.5
t-38.5 14.5q-13 0 -26 -4.5t-23.5 -13t-17 -20t-6.5 -25.5v-1248q0 -14 6.5 -26t17 -20t23 -12.5t25.5 -4.5q22 0 39 14.5t17 48.5v1248z" />
    <glyph glyph-name="r" unicode="r" horiz-adv-x="480" 
d="M416 896q0 -48 -24 -74t-72 -37q48 -13 72 -39t24 -74v-672h-128v672q0 24 -6 37t-18 19t-30 7t-42 1v-736h-128v1536h144q65 0 111.5 -10.5t71.5 -37t25 -80.5v-512zM288 1376q0 24 -6 37t-18 19t-30 7t-42 1v-608q24 0 42 1t30 7t18 19t6 37v480z" />
    <glyph glyph-name="s" unicode="s" horiz-adv-x="480" 
d="M416 992h-128v400q0 36 -15 50t-33 14t-33 -14t-15 -50q0 -107 10 -197t26 -166t36 -138.5t40 -114.5q16 -41 35.5 -95t36.5 -129t28.5 -175t11.5 -233q0 -42 -15 -72.5t-40 -50t-56.5 -28.5t-64.5 -9t-64.5 9t-56.5 28.5t-40 50t-15 72.5v400h128v-400q0 -36 15 -50
t33 -14t33 14t15 50q0 129 -12.5 226.5t-31.5 172t-41.5 130.5t-41.5 103q-19 46 -36.5 105t-31 134t-21.5 168.5t-8 208.5q0 42 15 72t40 49.5t56.5 29t64.5 9.5t64.5 -9.5t56.5 -29t40 -49.5t15 -72v-400z" />
    <glyph glyph-name="t" unicode="t" horiz-adv-x="416" 
d="M400 1536v-96h-128v-1440h-128v1440h-128v96h384z" />
    <glyph glyph-name="u" unicode="u" horiz-adv-x="480" 
d="M288 1536h128v-1392q0 -42 -15 -72.5t-40 -50t-56.5 -28.5t-64.5 -9t-64.5 9t-56.5 28.5t-40 50t-15 72.5v1392h128v-1392q0 -36 15 -50t33 -14t33 14t15 50v1392z" />
    <glyph glyph-name="v" unicode="v" horiz-adv-x="416" 
d="M192 832l17 -672l15 672l32 704h128l-96 -1536h-160l-96 1536h128z" />
    <glyph glyph-name="w" unicode="w" horiz-adv-x="640" 
d="M448 191v641l32 704h128l-96 -1536h-128l-32 608l-32 672l-32 -672l-32 -608h-128l-96 1536h128l32 -704v-641l32 641l32 704h128l32 -704z" />
    <glyph glyph-name="x" unicode="x" horiz-adv-x="416" 
d="M224 1088l32 448h128l-96 -800l96 -736h-128l-32 384l-16 256l-16 -256l-32 -384h-128l96 736l-96 800h128l32 -448l16 -256z" />
    <glyph glyph-name="y" unicode="y" horiz-adv-x="448" 
d="M256 1152l32 384h128l-128 -1024v-512h-128v512l-128 1024h128l32 -384l32 -416z" />
    <glyph glyph-name="z" unicode="z" horiz-adv-x="320" 
d="M288 1536l-120 -1440h120v-96h-256l128 1440h-128v96h256z" />
    <glyph glyph-name="braceleft" unicode="{" horiz-adv-x="348" 
d="M338 1876v-118h-149v-1752h149v-115h-283v1985h283z" />
    <glyph glyph-name="bar" unicode="|" horiz-adv-x="247" 
d="M192 1882v-2002h-134v2002h134z" />
    <glyph glyph-name="braceright" unicode="}" horiz-adv-x="392" 
d="M282 1876v-1985h-283v115h146v1752h-146v118h283z" />
    <glyph glyph-name="asciitilde" unicode="~" horiz-adv-x="326" 
d="M-15 101q0 34 5.5 63t18 50.5t32 33.5t48.5 12q25 0 43.5 -6.5t36.5 -15t38.5 -15t47.5 -6.5q10 0 16 6.5t9 14.5q5 9 6 22h79q0 -23 -2 -42.5t-8 -36.5q-10 -31 -32.5 -55.5t-67.5 -24.5q-25 0 -46.5 7t-41 15t-38.5 15t-39 7q-9 0 -14.5 -6.5t-8.5 -15.5q-3 -8 -3 -22
h-79z" />
    <glyph glyph-name="uni00A0" unicode="&#xa0;" horiz-adv-x="280" 
 />
    <glyph glyph-name="exclamdown" unicode="&#xa1;" horiz-adv-x="242" 
d="M221 33.3164l-64 1471.73h-64l-64 -1471.73h192zM189 1601.03v159.971h-128v-159.971h128z" />
    <glyph glyph-name="cent" unicode="&#xa2;" horiz-adv-x="430" 
d="M250 1686v-144q28 -4 52.5 -15.5t43.5 -28t30.5 -38t12.5 -45.5v-527h-131v524q-3 14 -13.5 23t-20.5 9q-17 0 -27.5 -9t-10.5 -23v-1303q0 -8 10.5 -16.5t27.5 -8.5q10 0 20.5 8.5t13.5 16.5v604h131v-604q-1 -23 -12.5 -45t-30.5 -39t-43.5 -28.5t-52.5 -14.5v-137h-57
v137q-29 3 -54.5 14.5t-44.5 28.5t-30.5 39t-11.5 45v1303q0 24 11.5 46t30.5 39.5t44.5 29t54.5 15.5v144h57z" />
    <glyph glyph-name="sterling" unicode="&#xa3;" horiz-adv-x="548" 
d="M36 968h109v669q0 30 15 57t39.5 47t57 31.5t68.5 11.5q38 0 71.5 -12t58.5 -32.5t39.5 -47.5t14.5 -57v-316h-136v319q0 17 -14.5 29t-33.5 12q-21 0 -33.5 -12t-12.5 -29v-670h228v-106h-228v-479q0 -81 -16 -134t-35 -84q-23 -39 -53 -59h332v-106h-489v106
q17 11 33.5 25.5t30.5 33.5q24 31 43.5 83.5t19.5 133.5v480h-109v106z" />
    <glyph glyph-name="currency" unicode="&#xa4;" horiz-adv-x="524" 
d="M419 801l-64 68q-44 -24 -94 -24q-52 0 -95 24l-64 -69l-73 62l78 90q-4 12 -7 24t-3 24v542q0 15 3.5 29t10.5 28q-2 5 -15 21.5t-27 34.5l-40 45l73 61l70 -85q21 10 42.5 15.5t46.5 5.5t46.5 -5.5t42.5 -15.5l71 88l73 -64l-85 -102q13 -22 13 -53v-549q0 -20 -9 -42
l81 -92zM298 1566q0 16 -10.5 25.5t-26.5 9.5q-15 0 -28 -9.5t-13 -25.5v-591q0 -8 10.5 -19.5t30.5 -11.5q16 0 26.5 8.5t10.5 22.5v591z" />
    <glyph glyph-name="yen" unicode="&#xa5;" horiz-adv-x="445" 
d="M436 636h-148v-76h148v-111h-148v-449h-134v449h-147v111h147v76h-147v110h138l-130 1015h141l66 -738l66 738h134l-127 -1015h141v-110z" />
    <glyph glyph-name="brokenbar" unicode="&#xa6;" horiz-adv-x="254" 
d="M193 806v-806h-133v806h133zM193 1761v-873h-133v873h133z" />
    <glyph glyph-name="section" unicode="&#xa7;" horiz-adv-x="412" 
d="M24 932q0 73 14 121.5t34.5 77.5t45 43.5t45.5 20.5q-25 45 -50 91.5t-44.5 102t-31.5 124.5t-12 160q0 32 16 57.5t41 43t56 26.5t61 9q31 0 62 -9t55.5 -26t39.5 -42t15 -58v-284h-130v283q0 16 -12 25t-30 9t-30 -9t-12 -25q0 -97 17 -170.5t42.5 -133.5t55 -112
t55 -106.5t42.5 -117t17 -143.5q0 -72 -13.5 -120t-33.5 -78t-44.5 -45t-46.5 -21q24 -45 48.5 -95t44.5 -110.5t32.5 -133t12.5 -161.5q0 -33 -16 -59t-41 -43t-56 -26t-61 -9q-31 0 -61.5 8.5t-55 25.5t-39.5 42t-15 58v298h128v-295q0 -18 12 -27t31 -9q18 0 30 9t12 27
q0 97 -17 171.5t-42.5 137.5t-55.5 118t-55.5 112t-42.5 121.5t-17 145.5zM145 942q0 -69 15 -122t39 -103q8 2 19.5 9.5t22 25.5t17.5 48.5t7 79.5q0 69 -14.5 123.5t-38.5 105.5q-8 -2 -19.5 -10.5t-22 -27t-18 -50t-7.5 -79.5z" />
    <glyph glyph-name="dieresis" unicode="&#xa8;" horiz-adv-x="587" 
d="M461 235v-159h-143v159h143zM260 235v-159h-145v159h145z" />
    <glyph glyph-name="copyright" unicode="&#xa9;" horiz-adv-x="1474" 
d="M906 1150h-130v262q0 7 -5 12.5t-12 10t-14.5 7t-12.5 2.5q-16 0 -31 -9t-15 -23v-701q0 -9 14 -18t32 -9q14 0 29 9t15 18v264h130v-264q0 -26 -15.5 -49.5t-40 -41.5t-56 -28.5t-62.5 -10.5q-35 0 -67.5 10.5t-57 28.5t-39.5 41.5t-15 49.5v701q0 28 15 52t39.5 42
t57 28.5t67.5 10.5q31 0 62.5 -10t56 -28t40 -41.5t15.5 -50.5v-265zM24 1068q0 98 25.5 189t72 170.5t111.5 144.5t144.5 111.5t170.5 72t189 25.5t189 -25.5t170 -72t144.5 -111.5t112 -144.5t72 -170.5t25.5 -189t-25.5 -189t-72 -170t-112 -144.5t-144.5 -112t-170 -72
t-189 -25.5t-189 25.5t-170.5 72t-144.5 112t-111.5 144.5t-72 170t-25.5 189zM156 1068q0 -122 45 -229.5t123.5 -187.5t184.5 -126.5t228 -46.5q81 0 155.5 21t139 59.5t117.5 92.5t90.5 119.5t58 140.5t20.5 157q0 81 -20.5 156t-58 141t-90.5 119.5t-117.5 92.5t-139 60
t-155.5 21q-82 0 -156.5 -21t-139 -60t-117 -92.5t-90 -119.5t-58 -141t-20.5 -156z" />
    <glyph glyph-name="ordfeminine" unicode="&#xaa;" horiz-adv-x="418" 
d="M451 241h-128l-20 332h-89l-19 -332h-128l128 1536h128zM296 677l-37 780l-38 -780h75z" />
    <glyph glyph-name="guillemotleft" unicode="&#xab;" horiz-adv-x="574" 
d="M556 1460v-284l-147 -295l147 -273v-307l-283 580zM324 1460v-284l-147 -295l147 -273v-307l-283 580z" />
    <glyph glyph-name="logicalnot" unicode="&#xac;" horiz-adv-x="1006" 
d="M982 1159v-99h-832v-338h-126v439z" />
    <glyph glyph-name="uni00AD" unicode="&#xad;" horiz-adv-x="1468" 
 />
    <glyph glyph-name="registered" unicode="&#xae;" horiz-adv-x="1474" 
d="M897 1204q0 -39 -12.5 -63.5t-27.5 -38.5q-18 -18 -38 -27q11 -4 20.5 -9.5t17.5 -12.5q15 -14 27.5 -35t12.5 -56v-365h-120v402q0 10 -3 17t-12.5 11t-26.5 6t-45 2v-438h-123v963q78 0 139.5 -1.5t103.5 -13.5t64.5 -38t22.5 -74v-229zM765 1433q0 20 -18.5 24.5
t-57.5 4.5v-353q39 0 57.5 4t18.5 26v294zM24 1068q0 98 25.5 189t72 170.5t111.5 144.5t144.5 111.5t170.5 72t189 25.5t189 -25.5t170 -72t144.5 -111.5t112 -144.5t72 -170.5t25.5 -189t-25.5 -189t-72 -170t-112 -144.5t-144.5 -112t-170 -72t-189 -25.5t-189 25.5
t-170.5 72t-144.5 112t-111.5 144.5t-72 170t-25.5 189zM156 1068q0 -122 45 -229.5t123.5 -187.5t184.5 -126.5t228 -46.5q81 0 155.5 21t139 59.5t117.5 92.5t90.5 119.5t58 140.5t20.5 157q0 81 -20.5 156t-58 141t-90.5 119.5t-117.5 92.5t-139 60t-155.5 21
q-82 0 -156.5 -21t-139 -60t-117 -92.5t-90 -119.5t-58 -141t-20.5 -156z" />
    <glyph glyph-name="macron" unicode="&#xaf;" horiz-adv-x="326" 
d="M327 87h-327v105h327v-105z" />
    <glyph glyph-name="degree" unicode="&#xb0;" horiz-adv-x="326" 
d="M33 1612q0 30 11 56t30 45t45 30t56 11q63 0 103 -40t40 -102q0 -29 -11 -54.5t-30 -44.5t-45 -30t-57 -11q-30 0 -56 11t-45 30t-30 44.5t-11 54.5zM112 1613q0 -26 18 -44.5t45 -18.5q29 0 47 18.5t18 44.5q0 28 -18 45.5t-47 17.5q-27 0 -45 -17.5t-18 -45.5z" />
    <glyph glyph-name="plusminus" unicode="&#xb1;" horiz-adv-x="681" 
d="M38 923h224v256h128v-256h224v-128h-224v-256h-128v256h-224v128zM541 314h-404v135h404v-135z" />
    <glyph glyph-name="uni00B2" unicode="&#xb2;" horiz-adv-x="464" 
d="M52 1277q0 30 13 57t37 46.5t57.5 31t74.5 11.5q40 0 76.5 -13.5t63 -37.5t39 -57t5.5 -72q-57 -303 -98.5 -515.5t-67.5 -347.5l-52 -259h218v-121h-365q14 69 30.5 149t34.5 173q32 160 74 387.5t92 527.5q8 40 -11 54q-17 14 -39 14q-21 0 -34.5 -11t-13.5 -27v-340
h-134v350z" />
    <glyph glyph-name="uni00B3" unicode="&#xb3;" horiz-adv-x="439" 
d="M52 1295q0 27 14 50.5t37 41t52.5 27.5t61.5 10q34 0 65 -10t54.5 -27.5t37.5 -41.5t14 -52v-433q0 -23 -6 -37.5t-12 -24.5l-18 -18q10 -5 18 -15q6 -9 12 -24.5t6 -39.5v-601q0 -28 -14 -52t-37.5 -41.5t-54.5 -27.5t-65 -10q-32 0 -61.5 10t-52.5 27t-37 40.5
t-14 50.5v408h129v-385q0 -20 7 -35t29 -15q16 0 24 7t11 18t2.5 23.5t-0.5 23.5v539q0 20 -5.5 33.5t-29.5 13.5h-69v104h69q24 0 29.5 11t5.5 30v376q0 10 0.5 23t-2 24.5t-10.5 19.5t-25 8q-22 0 -29 -15.5t-7 -34.5v-265h-129v286z" />
    <glyph glyph-name="acute" unicode="&#xb4;" horiz-adv-x="326" 
d="M288 512l-192 -416h-96l128 416h160z" />
    <glyph glyph-name="uni00B5" unicode="&#xb5;" horiz-adv-x="442" 
d="M53 1520h134v-1408q0 -13 10 -21.5t23 -8.5q14 0 24.5 8.5t10.5 21.5v1408h134v-1413q0 -27 -12.5 -50t-32.5 -40.5t-46.5 -27.5t-53.5 -10q-9 0 -19.5 6t-18.5 12q-10 6 -19 16v-125h-134v1632z" />
    <glyph glyph-name="uni00B5" unicode="&#x3bc;" horiz-adv-x="442" 
d="M53 1520h134v-1408q0 -13 10 -21.5t23 -8.5q14 0 24.5 8.5t10.5 21.5v1408h134v-1413q0 -27 -12.5 -50t-32.5 -40.5t-46.5 -27.5t-53.5 -10q-9 0 -19.5 6t-18.5 12q-10 6 -19 16v-125h-134v1632z" />
    <glyph glyph-name="paragraph" unicode="&#xb6;" horiz-adv-x="649" 
d="M55 1600q0 38 15 68t40 50.5t58 31.5t70 11h355v-1761h-136v826h-38v-826h-140v825q-112 0 -168 33t-56 118v624z" />
    <glyph glyph-name="periodcentered" unicode="&#xb7;" horiz-adv-x="238" 
d="M204 961v-184h-183v184h183z" />
    <glyph glyph-name="cedilla" unicode="&#xb8;" horiz-adv-x="326" 
d="M71 -409l58 409h106v-409h-164z" />
    <glyph glyph-name="uni00B9" unicode="&#xb9;" horiz-adv-x="402" 
d="M13 115h128v1165h-128v117h264v-1282h112v-115h-376v115z" />
    <glyph glyph-name="ordmasculine" unicode="&#xba;" horiz-adv-x="458" 
d="M513 144q0 -42 -15.5 -72.5t-41.5 -50.5t-59 -29.5t-68 -9.5q-37 0 -73 10.5t-64 31t-45.5 51t-17.5 69.5v1248q0 38 17.5 67.5t46 49.5t64.5 30.5t73 10.5q35 0 68 -9.5t58.5 -29t41 -49.5t15.5 -70v-1248zM385 1392q0 34 -16.5 48.5t-38.5 14.5q-13 0 -26 -4.5
t-23.5 -13t-17 -20t-6.5 -25.5v-1248q0 -14 6.5 -26t17 -20t23 -12.5t25.5 -4.5q22 0 39 14.5t17 48.5v1248z" />
    <glyph glyph-name="guillemotright" unicode="&#xbb;" horiz-adv-x="593" 
d="M73.1016 1460v-284l146.974 -295l-146.974 -273v-307l282.948 580zM305.06 1460v-284l146.973 -295l-146.973 -273v-307l282.948 580z" />
    <glyph glyph-name="onequarter" unicode="&#xbc;" horiz-adv-x="1122" 
d="M1080 795v-795h-134v359h-256l144 1038h133l-140 -927h119v325h134zM740 1761l-190 -1761h-134l189 1761h135zM33 479h127v1164h-127v117h263v-1281h112v-115h-375v115z" />
    <glyph glyph-name="onehalf" unicode="&#xbd;" horiz-adv-x="1145" 
d="M714 1728l-160 -1728h-128l160 1728h128zM34 477h128v1165h-128v117h264v-1282h112v-115h-376v115zM750 1277q0 30 13 57t37 46.5t57.5 31t74.5 11.5q40 0 76.5 -13.5t63 -37.5t39 -57t5.5 -72q-57 -303 -98.5 -515.5t-67.5 -347.5l-52 -259h218v-121h-365
q14 69 30.5 149t34.5 173q32 160 74 387.5t92 527.5q8 40 -11 54q-17 14 -39 14q-21 0 -34.5 -11t-13.5 -27v-340h-134v350z" />
    <glyph glyph-name="threequarters" unicode="&#xbe;" horiz-adv-x="1087" 
d="M39 1632q0 27 13.5 50.5t36.5 41t52.5 27.5t62.5 10q34 0 65 -10t54.5 -27.5t37 -41.5t13.5 -51v-434q0 -23 -6 -37.5t-12 -24.5q-8 -11 -18 -18q12 -5 18 -14q6 -10 12 -25.5t6 -39.5v-601q0 -28 -13.5 -52t-37 -41.5t-54.5 -27.5t-65 -10q-33 0 -62.5 10t-52.5 27
t-36.5 40.5t-13.5 50.5v408h130v-385q0 -20 6.5 -35t28.5 -15q16 0 24 7t11 18t2.5 23.5t-0.5 23.5v539q0 20 -5.5 34t-29.5 14h-70v103h70q24 0 29.5 11t5.5 30v376q0 10 0.5 23t-2 24.5t-10.5 19.5t-25 8q-22 0 -28.5 -15t-6.5 -35v-265h-130v286zM1042 795v-795h-133v359
h-256l144 1038h133l-141 -927h120v325h133zM720 1761l-189 -1761h-134l190 1761h133z" />
    <glyph glyph-name="questiondown" unicode="&#xbf;" horiz-adv-x="443" 
d="M640 1526.05h-128v-287.947q0 -106.98 9.5 -178.967q9.5 -71.9873 23.5 -125.978t31 -99.4814q17 -45.4922 31 -98.4824t23.5 -122.978t9.5 -173.968v-223.959q0 -43.9922 -15 -65.4883t-34 -21.4961q-17 0 -32 21.4961t-15 65.4883v447.918h-128v-447.918
q0 -47.9912 15 -83.9844q15 -35.9941 40 -59.9893t56.5 -35.9932t64.5 -11.998t64.5 11.998t56.5 35.9932t40 59.9893q15 35.9932 15 83.9844v223.959q0 83.9844 -5.5 143.974t-14.5 105.48q-9 45.4922 -20.5 81.9854t-23.5 72.9863t-23.5 77.9863
q-11.5 41.4922 -20.5 98.4814t-14.5 132.976t-5.5 181.967v191.965zM640 1654.02v127.977h-128v-127.977h128z" />
    <glyph glyph-name="Agrave" unicode="&#xc0;" horiz-adv-x="448" 
d="M144 2281l128 -416h-96l-192 416h160zM416 0h-128l-16 416h-95l-17 -416h-128l96 1728h192zM256 896l-32 768l-32 -768l-15 -384h95z" />
    <glyph glyph-name="Aacute" unicode="&#xc1;" horiz-adv-x="448" 
d="M464 2281l-192 -416h-96l128 416h160zM416 0h-128l-16 416h-95l-17 -416h-128l96 1728h192zM256 896l-32 768l-32 -768l-15 -384h95z" />
    <glyph glyph-name="Acircumflex" unicode="&#xc2;" horiz-adv-x="448" 
d="M297 2211l59 -346h-102l-30 238l-31 -238h-101l59 346h146zM416 0h-128l-16 416h-95l-17 -416h-128l96 1728h192zM256 896l-32 768l-32 -768l-15 -384h95z" />
    <glyph glyph-name="Atilde" unicode="&#xc3;" horiz-adv-x="448" 
d="M34 1865q0 34 5.5 63t18 50.5t32 33.5t48.5 12q25 0 43.5 -6.5t36.5 -15t38.5 -15t47.5 -6.5q10 0 16 6.5t9 14.5q5 9 6 22h79q0 -23 -2 -42.5t-8 -36.5q-10 -31 -32.5 -55.5t-67.5 -24.5q-25 0 -46.5 7t-41 15t-38.5 15t-39 7q-9 0 -14.5 -6.5t-8.5 -15.5q-3 -8 -3 -22
h-79zM416 0h-128l-16 416h-95l-17 -416h-128l96 1728h192zM256 896l-32 768l-32 -768l-15 -384h95z" />
    <glyph glyph-name="Adieresis" unicode="&#xc4;" horiz-adv-x="448" 
d="M397 2024v-159h-143v159h143zM196 2024v-159h-145v159h145zM416 0h-128l-16 416h-95l-17 -416h-128l96 1728h192zM256 896l-32 768l-32 -768l-15 -384h95z" />
    <glyph glyph-name="Aring" unicode="&#xc5;" horiz-adv-x="448" 
d="M81 1874q0 30 11 56t30 45t45 30t56 11q63 0 103 -40t40 -102q0 -29 -11 -54.5t-30 -44.5t-45 -30t-57 -11q-30 0 -56 11t-45 30t-30 44.5t-11 54.5zM160 1875q0 -26 18 -44.5t45 -18.5q29 0 47 18.5t18 44.5q0 28 -18 45.5t-47 17.5q-27 0 -45 -17.5t-18 -45.5zM416 0
h-128l-16 416h-95l-17 -416h-128l96 1728h192zM256 896l-32 768l-32 -768l-15 -384h95z" />
    <glyph glyph-name="AE" unicode="&#xc6;" horiz-adv-x="590" 
d="M581 1644h-173l-2 -648h131v-120h-131v-764h175v-112h-307l-6 383h-78l-46 -383h-138l207 1761h368v-117zM267 502l28 970l-93 -970h65z" />
    <glyph glyph-name="Ccedilla" unicode="&#xc7;" horiz-adv-x="466" 
d="M512 1024h-128v544q0 24 -5.5 39.5t-14.5 24t-20.5 12t-23.5 3.5t-23.5 -3.5t-20.5 -12t-14.5 -24t-5.5 -39.5v-1408q0 -12 1 -28.5t7 -31.5t19 -25.5t37 -10.5t37 10.5t19 25.5t7 31.5t1 28.5v672h128v-672q0 -12 -3 -43.5t-21 -64.5t-57 -58.5t-111 -25.5t-111 25.5
t-57 58.5t-21 64.5t-3 43.5v1408q0 46 17 79.5t44.5 54.5t61.5 31t69 10q37 0 71.5 -11t61.5 -33t43 -55t16 -76v-544zM123 -409l58 409h106v-409h-164z" />
    <glyph glyph-name="Egrave" unicode="&#xc8;" horiz-adv-x="384" 
d="M128 2281l128 -416h-96l-192 416h160zM352 1632h-160v-672h128v-96h-128v-768h160v-96h-288v1728h288v-96z" />
    <glyph glyph-name="Eacute" unicode="&#xc9;" horiz-adv-x="384" 
d="M448 2281l-192 -416h-96l128 416h160zM352 1632h-160v-672h128v-96h-128v-768h160v-96h-288v1728h288v-96z" />
    <glyph glyph-name="Ecircumflex" unicode="&#xca;" horiz-adv-x="384" 
d="M281 2211l59 -346h-102l-30 238l-31 -238h-101l59 346h146zM352 1632h-160v-672h128v-96h-128v-768h160v-96h-288v1728h288v-96z" />
    <glyph glyph-name="Edieresis" unicode="&#xcb;" horiz-adv-x="384" 
d="M381 2024v-159h-143v159h143zM180 2024v-159h-145v159h145zM352 1632h-160v-672h128v-96h-128v-768h160v-96h-288v1728h288v-96z" />
    <glyph glyph-name="Igrave" unicode="&#xcc;" horiz-adv-x="288" 
d="M64 2281l128 -416h-96l-192 416h160zM208 1728v-1728h-128v1728h128z" />
    <glyph glyph-name="Iacute" unicode="&#xcd;" horiz-adv-x="288" 
d="M384 2281l-192 -416h-96l128 416h160zM208 1728v-1728h-128v1728h128z" />
    <glyph glyph-name="Icircumflex" unicode="&#xce;" horiz-adv-x="288" 
d="M217 2211l59 -346h-102l-30 238l-31 -238h-101l59 346h146zM208 1728v-1728h-128v1728h128z" />
    <glyph glyph-name="Idieresis" unicode="&#xcf;" horiz-adv-x="288" 
d="M317 2024v-159h-143v159h143zM116 2024v-159h-145v159h145zM208 1728v-1728h-128v1728h128z" />
    <glyph glyph-name="Eth" unicode="&#xd0;" horiz-adv-x="487" 
d="M428 165q0 -41 -16.5 -71.5t-44 -51.5t-62.5 -31.5t-71 -10.5h-175v815h-47v122h47v824h175q33 0 67.5 -9.5t62.5 -30t46 -53t18 -78.5v-1425zM248 815h-50v-695q21 0 39 0.5t30.5 5t19.5 14t7 26.5v1426q0 19 -7 29.5t-19.5 15.5t-30.5 6t-39 1v-707h50v-122z" />
    <glyph glyph-name="Ntilde" unicode="&#xd1;" 
d="M66 1865q0 34 5.5 63t18 50.5t32 33.5t48.5 12q25 0 43.5 -6.5t36.5 -15t38.5 -15t47.5 -6.5q10 0 16 6.5t9 14.5q5 9 6 22h79q0 -23 -2 -42.5t-8 -36.5q-10 -31 -32.5 -55.5t-67.5 -24.5q-25 0 -46.5 7t-41 15t-38.5 15t-39 7q-9 0 -14.5 -6.5t-8.5 -15.5q-3 -8 -3 -22
h-79zM448 0h-128l-160 1280v-1280h-96v1728h128l160 -1280v1280h96v-1728z" />
    <glyph glyph-name="Ograve" unicode="&#xd2;" 
d="M176 2281l128 -416h-96l-192 416h160zM448 160q0 -12 -3 -43.5t-21 -64.5t-57 -58.5t-111 -25.5t-111 25.5t-57 58.5t-21 64.5t-3 43.5v1408q0 8 1 24t6 35.5t17 40t33 37.5t54 27.5t81 10.5t81 -10.5t54 -27.5t33 -37.5t17 -40t6 -35.5t1 -24v-1408zM192 160
q0 -12 1 -28.5t7 -31.5t19 -25.5t37 -10.5t37 10.5t19 25.5t7 31.5t1 28.5v1408q0 12 -1 26t-7 25.5t-19 19.5t-37 8t-37 -8t-19 -19.5t-7 -25.5t-1 -26v-1408z" />
    <glyph glyph-name="Oacute" unicode="&#xd3;" 
d="M496 2281l-192 -416h-96l128 416h160zM448 160q0 -12 -3 -43.5t-21 -64.5t-57 -58.5t-111 -25.5t-111 25.5t-57 58.5t-21 64.5t-3 43.5v1408q0 8 1 24t6 35.5t17 40t33 37.5t54 27.5t81 10.5t81 -10.5t54 -27.5t33 -37.5t17 -40t6 -35.5t1 -24v-1408zM192 160
q0 -12 1 -28.5t7 -31.5t19 -25.5t37 -10.5t37 10.5t19 25.5t7 31.5t1 28.5v1408q0 12 -1 26t-7 25.5t-19 19.5t-37 8t-37 -8t-19 -19.5t-7 -25.5t-1 -26v-1408z" />
    <glyph glyph-name="Ocircumflex" unicode="&#xd4;" 
d="M329 2211l59 -346h-102l-30 238l-31 -238h-101l59 346h146zM448 160q0 -12 -3 -43.5t-21 -64.5t-57 -58.5t-111 -25.5t-111 25.5t-57 58.5t-21 64.5t-3 43.5v1408q0 8 1 24t6 35.5t17 40t33 37.5t54 27.5t81 10.5t81 -10.5t54 -27.5t33 -37.5t17 -40t6 -35.5t1 -24v-1408
zM192 160q0 -12 1 -28.5t7 -31.5t19 -25.5t37 -10.5t37 10.5t19 25.5t7 31.5t1 28.5v1408q0 12 -1 26t-7 25.5t-19 19.5t-37 8t-37 -8t-19 -19.5t-7 -25.5t-1 -26v-1408z" />
    <glyph glyph-name="Otilde" unicode="&#xd5;" 
d="M66 1865q0 34 5.5 63t18 50.5t32 33.5t48.5 12q25 0 43.5 -6.5t36.5 -15t38.5 -15t47.5 -6.5q10 0 16 6.5t9 14.5q5 9 6 22h79q0 -23 -2 -42.5t-8 -36.5q-10 -31 -32.5 -55.5t-67.5 -24.5q-25 0 -46.5 7t-41 15t-38.5 15t-39 7q-9 0 -14.5 -6.5t-8.5 -15.5q-3 -8 -3 -22
h-79zM448 160q0 -12 -3 -43.5t-21 -64.5t-57 -58.5t-111 -25.5t-111 25.5t-57 58.5t-21 64.5t-3 43.5v1408q0 8 1 24t6 35.5t17 40t33 37.5t54 27.5t81 10.5t81 -10.5t54 -27.5t33 -37.5t17 -40t6 -35.5t1 -24v-1408zM192 160q0 -12 1 -28.5t7 -31.5t19 -25.5t37 -10.5
t37 10.5t19 25.5t7 31.5t1 28.5v1408q0 12 -1 26t-7 25.5t-19 19.5t-37 8t-37 -8t-19 -19.5t-7 -25.5t-1 -26v-1408z" />
    <glyph glyph-name="Odieresis" unicode="&#xd6;" 
d="M429 2024v-159h-143v159h143zM228 2024v-159h-145v159h145zM448 160q0 -12 -3 -43.5t-21 -64.5t-57 -58.5t-111 -25.5t-111 25.5t-57 58.5t-21 64.5t-3 43.5v1408q0 8 1 24t6 35.5t17 40t33 37.5t54 27.5t81 10.5t81 -10.5t54 -27.5t33 -37.5t17 -40t6 -35.5t1 -24v-1408
zM192 160q0 -12 1 -28.5t7 -31.5t19 -25.5t37 -10.5t37 10.5t19 25.5t7 31.5t1 28.5v1408q0 12 -1 26t-7 25.5t-19 19.5t-37 8t-37 -8t-19 -19.5t-7 -25.5t-1 -26v-1408z" />
    <glyph glyph-name="multiply" unicode="&#xd7;" horiz-adv-x="398" 
d="M378 196h-129l-49 262l-46 -262h-133l117 520l-117 531h133l46 -277l49 277h129l-112 -531z" />
    <glyph glyph-name="Oslash" unicode="&#xd8;" horiz-adv-x="467" 
d="M52 1637q0 30 14.5 57t39 47t57 31.5t68.5 11.5q38 0 71.5 -12t58.5 -32.5t39.5 -47.5t14.5 -57v-1505q0 -32 -14.5 -59.5t-39.5 -47.5t-58.5 -32t-71.5 -12q-36 0 -68.5 11.5t-57 31.5t-39 46.5t-14.5 55.5v1513zM186 127q0 -15 12.5 -27t32.5 -12q21 0 34.5 12t13.5 27
v1098zM279 1638q0 17 -14.5 29t-33.5 12q-20 0 -32.5 -12t-12.5 -29v-1099z" />
    <glyph glyph-name="Ugrave" unicode="&#xd9;" horiz-adv-x="451" 
d="M195 160q0 -12 1 -28.5t7 -31.5t19 -25.5t37 -10.5t37 10.5t19 25.5t7 31.5t1 28.5v1568h128v-1568q0 -12 -3 -43.5t-21 -64.5t-57 -58.5t-111 -25.5t-111 25.5t-57 58.5t-21 64.5t-3 43.5v1568h128v-1568zM177 2258l128 -416h-96l-192 416h160z" />
    <glyph glyph-name="Uacute" unicode="&#xda;" horiz-adv-x="451" 
d="M195 160q0 -12 1 -28.5t7 -31.5t19 -25.5t37 -10.5t37 10.5t19 25.5t7 31.5t1 28.5v1568h128v-1568q0 -12 -3 -43.5t-21 -64.5t-57 -58.5t-111 -25.5t-111 25.5t-57 58.5t-21 64.5t-3 43.5v1568h128v-1568zM330 2258l-192 -416h-96l128 416h160z" />
    <glyph glyph-name="Ucircumflex" unicode="&#xdb;" horiz-adv-x="451" 
d="M195 160q0 -12 1 -28.5t7 -31.5t19 -25.5t37 -10.5t37 10.5t19 25.5t7 31.5t1 28.5v1568h128v-1568q0 -12 -3 -43.5t-21 -64.5t-57 -58.5t-111 -25.5t-111 25.5t-57 58.5t-21 64.5t-3 43.5v1568h128v-1568zM299 2176l59 -346h-102l-30 238l-31 -238h-101l59 346h146z" />
    <glyph glyph-name="Udieresis" unicode="&#xdc;" horiz-adv-x="451" 
d="M195 160q0 -12 1 -28.5t7 -31.5t19 -25.5t37 -10.5t37 10.5t19 25.5t7 31.5t1 28.5v1568h128v-1568q0 -12 -3 -43.5t-21 -64.5t-57 -58.5t-111 -25.5t-111 25.5t-57 58.5t-21 64.5t-3 43.5v1568h128v-1568zM400 1981v-159h-143v159h143zM199 1981v-159h-145v159h145z" />
    <glyph glyph-name="Yacute" unicode="&#xdd;" horiz-adv-x="413" 
d="M224 1280l32 -448l32 448l32 448h128l-128 -1120v-608h-128v608l-128 1120h128zM293 2258l-192 -416h-96l128 416h160z" />
    <glyph glyph-name="Thorn" unicode="&#xde;" horiz-adv-x="449" 
d="M413 609q0 -84 -57.5 -117.5t-166.5 -33.5v-458h-134v1761h134v-241h41q37 0 70.5 -11t58.5 -31.5t39.5 -50.5t14.5 -67v-751zM276 1372q0 25 -24 34t-63 9v-842q47 0 67 7t20 37v755z" />
    <glyph glyph-name="germandbls" unicode="&#xdf;" horiz-adv-x="467" 
d="M52 1611q0 45 16.5 77.5t43 54t58 31.5t61.5 10t62.5 -9.5t59.5 -30.5t44.5 -53.5t17.5 -77.5v-454q0 -37 -23 -77q-23 -38 -70 -53q24 -6 41.5 -19t29 -30.5t17 -37t5.5 -38.5v-754q0 -30 -14.5 -57.5t-39 -48t-57.5 -32.5t-70 -12h-48v-204h-134v1815zM279 921
q0 5 -1.5 13.5t-6 16.5t-13 13.5t-22.5 5.5h-50v-856q25 0 42.5 0.5t29 3.5t16.5 10.5t5 21.5v771zM186 1089h56q25 0 31 16.5t6 41.5v484q0 24 -13.5 36t-33.5 12q-46 0 -46 -48v-542z" />
    <glyph glyph-name="agrave" unicode="&#xe0;" horiz-adv-x="448" 
d="M144 2088l128 -416h-96l-192 416h160zM416 0h-128l-20 332h-89l-19 -332h-128l128 1536h128zM261 436l-37 780l-38 -780h75z" />
    <glyph glyph-name="aacute" unicode="&#xe1;" horiz-adv-x="448" 
d="M464 2088l-192 -416h-96l128 416h160zM416 0h-128l-20 332h-89l-19 -332h-128l128 1536h128zM261 436l-37 780l-38 -780h75z" />
    <glyph glyph-name="acircumflex" unicode="&#xe2;" horiz-adv-x="448" 
d="M297 2018l59 -346h-102l-30 238l-31 -238h-101l59 346h146zM416 0h-128l-20 332h-89l-19 -332h-128l128 1536h128zM261 436l-37 780l-38 -780h75z" />
    <glyph glyph-name="atilde" unicode="&#xe3;" horiz-adv-x="448" 
d="M34 1672q0 34 5.5 63t18 50.5t32 33.5t48.5 12q25 0 43.5 -6.5t36.5 -15t38.5 -15t47.5 -6.5q10 0 16 6.5t9 14.5q5 9 6 22h79q0 -23 -2 -42.5t-8 -36.5q-10 -31 -32.5 -55.5t-67.5 -24.5q-25 0 -46.5 7t-41 15t-38.5 15t-39 7q-9 0 -14.5 -6.5t-8.5 -15.5q-3 -8 -3 -22
h-79zM416 0h-128l-20 332h-89l-19 -332h-128l128 1536h128zM261 436l-37 780l-38 -780h75z" />
    <glyph glyph-name="adieresis" unicode="&#xe4;" horiz-adv-x="448" 
d="M397 1831v-159h-143v159h143zM196 1831v-159h-145v159h145zM416 0h-128l-20 332h-89l-19 -332h-128l128 1536h128zM261 436l-37 780l-38 -780h75z" />
    <glyph glyph-name="aring" unicode="&#xe5;" horiz-adv-x="448" 
d="M81 1812q0 30 11 56t30 45t45 30t56 11q63 0 103 -40t40 -102q0 -29 -11 -54.5t-30 -44.5t-45 -30t-57 -11q-30 0 -56 11t-45 30t-30 44.5t-11 54.5zM160 1813q0 -26 18 -44.5t45 -18.5q29 0 47 18.5t18 44.5q0 28 -18 45.5t-47 17.5q-27 0 -45 -17.5t-18 -45.5zM416 0
h-128l-20 332h-89l-19 -332h-128l128 1536h128zM261 436l-37 780l-38 -780h75z" />
    <glyph glyph-name="ae" unicode="&#xe6;" horiz-adv-x="589" 
d="M568 1422h-166v-564h124v-106h-124v-651h166v-101h-288l3 332h-99l-45 -332h-128l209 1520h348v-98zM282 436l7 823l-91 -823h84z" />
    <glyph glyph-name="ccedilla" unicode="&#xe7;" 
d="M143 -414l58 409h106v-409h-164zM448 896h-128v496q0 34 -17 48.5t-39 14.5q-13 0 -25.5 -4.5t-23 -13t-17 -20t-6.5 -25.5v-1248q0 -14 6.5 -26t17 -20.5t23 -13t25.5 -4.5q22 0 39 15t17 49v560h128v-560q0 -40 -17 -70.5t-44 -51t-62 -31t-71 -10.5t-70 10t-61 30.5
t-43 51t-16 71.5v1248q0 40 16.5 71t43.5 51t62 30.5t71 10.5t70 -10t61 -30.5t43.5 -51t16.5 -71.5v-496z" />
    <glyph glyph-name="egrave" unicode="&#xe8;" horiz-adv-x="352" 
d="M112 2088l128 -416h-96l-192 416h160zM320 1440h-128v-576h128v-96h-128v-672h128v-96h-256v1536h256v-96z" />
    <glyph glyph-name="eacute" unicode="&#xe9;" horiz-adv-x="352" 
d="M432 2088l-192 -416h-96l128 416h160zM320 1440h-128v-576h128v-96h-128v-672h128v-96h-256v1536h256v-96z" />
    <glyph glyph-name="ecircumflex" unicode="&#xea;" horiz-adv-x="352" 
d="M265 2018l59 -346h-102l-30 238l-31 -238h-101l59 346h146zM320 1440h-128v-576h128v-96h-128v-672h128v-96h-256v1536h256v-96z" />
    <glyph glyph-name="edieresis" unicode="&#xeb;" horiz-adv-x="352" 
d="M365 1831v-159h-143v159h143zM164 1831v-159h-145v159h145zM320 1440h-128v-576h128v-96h-128v-672h128v-96h-256v1536h256v-96z" />
    <glyph glyph-name="igrave" unicode="&#xec;" horiz-adv-x="292" 
d="M66 2088l128 -416h-96l-192 416h160zM213 1520v-1520h-134v1520h134z" />
    <glyph glyph-name="iacute" unicode="&#xed;" horiz-adv-x="292" 
d="M386 2088l-192 -416h-96l128 416h160zM213 1520v-1520h-134v1520h134z" />
    <glyph glyph-name="icircumflex" unicode="&#xee;" horiz-adv-x="292" 
d="M219 2018l59 -346h-102l-30 238l-31 -238h-101l59 346h146zM213 1520v-1520h-134v1520h134z" />
    <glyph glyph-name="idieresis" unicode="&#xef;" horiz-adv-x="292" 
d="M319 1831v-159h-143v159h143zM118 1831v-159h-145v159h145zM213 1520v-1520h-134v1520h134z" />
    <glyph glyph-name="eth" unicode="&#xf0;" horiz-adv-x="469" 
d="M481 1321l-87 -26q3 -67 3.5 -138.5t0.5 -152.5v-863q0 -33 -14 -61t-38 -48.5t-56 -32t-68 -11.5q-35 0 -66 10.5t-54 30t-37 47t-14 60.5v731q1 30 13.5 57t34 47.5t51 33t64.5 12.5q17 0 32 -6t18 -6v133q0 62 -3 121l-212 -58v103l205 57q-6 69 -19 122.5t-36.5 90
t-60 56t-89.5 19.5v116q88 0 148 -25.5t99 -73t59.5 -116t29.5 -153.5l96 27v-103zM222 900q-25 0 -31.5 -16.5t-6.5 -38.5v-704q0 -15 11.5 -25t26.5 -10q25 0 33.5 16t8.5 35v731q-3 0 -14.5 6t-27.5 6z" />
    <glyph glyph-name="ntilde" unicode="&#xf1;" 
d="M66 1672q0 34 5.5 63t18 50.5t32 33.5t48.5 12q25 0 43.5 -6.5t36.5 -15t38.5 -15t47.5 -6.5q10 0 16 6.5t9 14.5q5 9 6 22h79q0 -23 -2 -42.5t-8 -36.5q-10 -31 -32.5 -55.5t-67.5 -24.5q-25 0 -46.5 7t-41 15t-38.5 15t-39 7q-9 0 -14.5 -6.5t-8.5 -15.5q-3 -8 -3 -22
h-79zM448 0h-96l-176 896v-896h-112v1536h96l177 -928v928h111v-1536z" />
    <glyph glyph-name="ograve" unicode="&#xf2;" 
d="M185 2088l128 -416h-96l-192 416h160zM448 144q0 -42 -15.5 -72.5t-41.5 -50.5t-59 -29.5t-68 -9.5q-37 0 -73 10.5t-64 31t-45.5 51t-17.5 69.5v1248q0 38 17.5 67.5t46 49.5t64.5 30.5t73 10.5q35 0 68 -9.5t58.5 -29t41 -49.5t15.5 -70v-1248zM320 1392
q0 34 -16.5 48.5t-38.5 14.5q-13 0 -26 -4.5t-23.5 -13t-17 -20t-6.5 -25.5v-1248q0 -14 6.5 -26t17 -20t23 -12.5t25.5 -4.5q22 0 39 14.5t17 48.5v1248z" />
    <glyph glyph-name="oacute" unicode="&#xf3;" 
d="M505 2088l-192 -416h-96l128 416h160zM448 144q0 -42 -15.5 -72.5t-41.5 -50.5t-59 -29.5t-68 -9.5q-37 0 -73 10.5t-64 31t-45.5 51t-17.5 69.5v1248q0 38 17.5 67.5t46 49.5t64.5 30.5t73 10.5q35 0 68 -9.5t58.5 -29t41 -49.5t15.5 -70v-1248zM320 1392
q0 34 -16.5 48.5t-38.5 14.5q-13 0 -26 -4.5t-23.5 -13t-17 -20t-6.5 -25.5v-1248q0 -14 6.5 -26t17 -20t23 -12.5t25.5 -4.5q22 0 39 14.5t17 48.5v1248z" />
    <glyph glyph-name="ocircumflex" unicode="&#xf4;" 
d="M338 2018l59 -346h-102l-30 238l-31 -238h-101l59 346h146zM448 144q0 -42 -15.5 -72.5t-41.5 -50.5t-59 -29.5t-68 -9.5q-37 0 -73 10.5t-64 31t-45.5 51t-17.5 69.5v1248q0 38 17.5 67.5t46 49.5t64.5 30.5t73 10.5q35 0 68 -9.5t58.5 -29t41 -49.5t15.5 -70v-1248z
M320 1392q0 34 -16.5 48.5t-38.5 14.5q-13 0 -26 -4.5t-23.5 -13t-17 -20t-6.5 -25.5v-1248q0 -14 6.5 -26t17 -20t23 -12.5t25.5 -4.5q22 0 39 14.5t17 48.5v1248z" />
    <glyph glyph-name="otilde" unicode="&#xf5;" 
d="M75 1672q0 34 5.5 63t18 50.5t32 33.5t48.5 12q25 0 43.5 -6.5t36.5 -15t38.5 -15t47.5 -6.5q10 0 16 6.5t9 14.5q5 9 6 22h79q0 -23 -2 -42.5t-8 -36.5q-10 -31 -32.5 -55.5t-67.5 -24.5q-25 0 -46.5 7t-41 15t-38.5 15t-39 7q-9 0 -14.5 -6.5t-8.5 -15.5q-3 -8 -3 -22
h-79zM448 144q0 -42 -15.5 -72.5t-41.5 -50.5t-59 -29.5t-68 -9.5q-37 0 -73 10.5t-64 31t-45.5 51t-17.5 69.5v1248q0 38 17.5 67.5t46 49.5t64.5 30.5t73 10.5q35 0 68 -9.5t58.5 -29t41 -49.5t15.5 -70v-1248zM320 1392q0 34 -16.5 48.5t-38.5 14.5q-13 0 -26 -4.5
t-23.5 -13t-17 -20t-6.5 -25.5v-1248q0 -14 6.5 -26t17 -20t23 -12.5t25.5 -4.5q22 0 39 14.5t17 48.5v1248z" />
    <glyph glyph-name="odieresis" unicode="&#xf6;" 
d="M438 1831v-159h-143v159h143zM237 1831v-159h-145v159h145zM448 144q0 -42 -15.5 -72.5t-41.5 -50.5t-59 -29.5t-68 -9.5q-37 0 -73 10.5t-64 31t-45.5 51t-17.5 69.5v1248q0 38 17.5 67.5t46 49.5t64.5 30.5t73 10.5q35 0 68 -9.5t58.5 -29t41 -49.5t15.5 -70v-1248z
M320 1392q0 34 -16.5 48.5t-38.5 14.5q-13 0 -26 -4.5t-23.5 -13t-17 -20t-6.5 -25.5v-1248q0 -14 6.5 -26t17 -20t23 -12.5t25.5 -4.5q22 0 39 14.5t17 48.5v1248z" />
    <glyph glyph-name="divide" unicode="&#xf7;" horiz-adv-x="561" 
d="M537 665h-513v135h513v-135zM379 1044v-186h-183v186h183zM379 599v-184h-183v184h183z" />
    <glyph glyph-name="oslash" unicode="&#xf8;" horiz-adv-x="458" 
d="M407 130q0 -31 -14.5 -58.5t-38.5 -48t-56 -32.5t-67 -12q-36 0 -68.5 12t-57 33t-38.5 49.5t-14 61.5v1256q0 31 14 59t38.5 49t57 33.5t68.5 12.5q35 0 67 -11.5t56 -31.5t38.5 -48t14.5 -61v-1263zM268 834l-78 -434v-291q0 -8 10.5 -19.5t30.5 -11.5q16 0 26.5 9
t10.5 22v725zM268 1178v237q0 15 -10.5 25t-26.5 10q-15 0 -28 -10t-13 -25v-687z" />
    <glyph glyph-name="ugrave" unicode="&#xf9;" horiz-adv-x="480" 
d="M160 2088l128 -416h-96l-192 416h160zM288 1536h128v-1392q0 -42 -15 -72.5t-40 -50t-56.5 -28.5t-64.5 -9t-64.5 9t-56.5 28.5t-40 50t-15 72.5v1392h128v-1392q0 -36 15 -50t33 -14t33 14t15 50v1392z" />
    <glyph glyph-name="uacute" unicode="&#xfa;" horiz-adv-x="480" 
d="M480 2088l-192 -416h-96l128 416h160zM288 1536h128v-1392q0 -42 -15 -72.5t-40 -50t-56.5 -28.5t-64.5 -9t-64.5 9t-56.5 28.5t-40 50t-15 72.5v1392h128v-1392q0 -36 15 -50t33 -14t33 14t15 50v1392z" />
    <glyph glyph-name="ucircumflex" unicode="&#xfb;" horiz-adv-x="480" 
d="M313 2018l59 -346h-102l-30 238l-31 -238h-101l59 346h146zM288 1536h128v-1392q0 -42 -15 -72.5t-40 -50t-56.5 -28.5t-64.5 -9t-64.5 9t-56.5 28.5t-40 50t-15 72.5v1392h128v-1392q0 -36 15 -50t33 -14t33 14t15 50v1392z" />
    <glyph glyph-name="udieresis" unicode="&#xfc;" horiz-adv-x="480" 
d="M413 1831v-159h-143v159h143zM212 1831v-159h-145v159h145zM288 1536h128v-1392q0 -42 -15 -72.5t-40 -50t-56.5 -28.5t-64.5 -9t-64.5 9t-56.5 28.5t-40 50t-15 72.5v1392h128v-1392q0 -36 15 -50t33 -14t33 14t15 50v1392z" />
    <glyph glyph-name="yacute" unicode="&#xfd;" horiz-adv-x="448" 
d="M464 2088l-192 -416h-96l128 416h160zM256 1152l32 384h128l-128 -1024v-512h-128v512l-128 1024h128l32 -384l32 -416z" />
    <glyph glyph-name="thorn" unicode="&#xfe;" horiz-adv-x="437" 
d="M189 1560v-280h34q34 0 65 -9.5t55 -27.5t38 -44t14 -60v-537q0 -66 -0.5 -116t-0.5 -82v-30q0 -42 -17.5 -70.5t-46.5 -45.5t-66.5 -25t-77.5 -9v-465h-131l-1 1801h135zM265 1139q0 22 -15.5 32t-60.5 10v-851q45 0 60.5 9.5t15.5 31.5v768z" />
    <glyph glyph-name="ydieresis" unicode="&#xff;" horiz-adv-x="448" 
d="M397 1831v-159h-143v159h143zM196 1831v-159h-145v159h145zM256 1152l32 384h128l-128 -1024v-512h-128v512l-128 1024h128l32 -384l32 -416z" />
    <glyph glyph-name="Amacron" unicode="&#x100;" horiz-adv-x="448" 
d="M387 1865h-327v105h327v-105zM416 0h-128l-16 416h-95l-17 -416h-128l96 1728h192zM256 896l-32 768l-32 -768l-15 -384h95z" />
    <glyph glyph-name="amacron" unicode="&#x101;" horiz-adv-x="448" 
d="M387 1672h-327v105h327v-105zM416 0h-128l-20 332h-89l-19 -332h-128l128 1536h128zM261 436l-37 780l-38 -780h75z" />
    <glyph glyph-name="Abreve" unicode="&#x102;" horiz-adv-x="448" 
d="M226 1865q-103 0 -148.5 52.5t-45.5 171.5h101q0 -36 7 -57.5t19 -33t28.5 -15t35.5 -3.5q21 0 38 3.5t29 15t18.5 33t6.5 57.5h101q0 -119 -45 -171.5t-145 -52.5zM416 0h-128l-16 416h-95l-17 -416h-128l96 1728h192zM256 896l-32 768l-32 -768l-15 -384h95z" />
    <glyph glyph-name="abreve" unicode="&#x103;" horiz-adv-x="448" 
d="M226 1672q-103 0 -148.5 52.5t-45.5 171.5h101q0 -36 7 -57.5t19 -33t28.5 -15t35.5 -3.5q21 0 38 3.5t29 15t18.5 33t6.5 57.5h101q0 -119 -45 -171.5t-145 -52.5zM416 0h-128l-20 332h-89l-19 -332h-128l128 1536h128zM261 436l-37 780l-38 -780h75z" />
    <glyph glyph-name="Aogonek" unicode="&#x104;" horiz-adv-x="421" 
d="M455 0h-128l-16 416h-95l-17 -416h-128l96 1728h192zM295 896l-32 768l-32 -768l-15 -384h95zM429 -283q-38 0 -67.5 12t-50 32.5t-31.5 48.5t-11 60q0 57 73 130h50q-13 -20 -20 -40q-7 -17 -12.5 -38t-5.5 -42q0 -38 19.5 -58.5t62.5 -20.5q24 0 44 6t36 13
q10 5 18.5 9.5t17.5 10.5v-72q-16 -16 -32 -26q-16 -9 -38 -17t-53 -8z" />
    <glyph glyph-name="aogonek" unicode="&#x105;" horiz-adv-x="412" 
d="M448 0h-128l-20 332h-89l-19 -332h-128l128 1536h128zM293 436l-37 780l-38 -780h75zM426 -283q-38 0 -67.5 12t-50 32.5t-31.5 48.5t-11 60q0 57 73 130h50q-13 -20 -20 -40q-7 -17 -12.5 -38t-5.5 -42q0 -38 19.5 -58.5t62.5 -20.5q24 0 44 6t36 13q10 5 18.5 9.5
t17.5 10.5v-72q-16 -16 -32 -26q-16 -9 -38 -17t-53 -8z" />
    <glyph glyph-name="Cacute" unicode="&#x106;" 
d="M496 2281l-192 -416h-96l128 416h160zM448 1024h-128v544q0 24 -5.5 39.5t-14.5 24t-20.5 12t-23.5 3.5t-23.5 -3.5t-20.5 -12t-14.5 -24t-5.5 -39.5v-1408q0 -12 1 -28.5t7 -31.5t19 -25.5t37 -10.5t37 10.5t19 25.5t7 31.5t1 28.5v672h128v-672q0 -12 -3 -43.5
t-21 -64.5t-57 -58.5t-111 -25.5t-111 25.5t-57 58.5t-21 64.5t-3 43.5v1408q0 46 17 79.5t44.5 54.5t61.5 31t69 10q37 0 71.5 -11t61.5 -33t43 -55t16 -76v-544z" />
    <glyph glyph-name="cacute" unicode="&#x107;" 
d="M497 2093l-192 -416h-96l128 416h160zM448 896h-128v496q0 34 -17 48.5t-39 14.5q-13 0 -25.5 -4.5t-23 -13t-17 -20t-6.5 -25.5v-1248q0 -14 6.5 -26t17 -20.5t23 -13t25.5 -4.5q22 0 39 15t17 49v560h128v-560q0 -40 -17 -70.5t-44 -51t-62 -31t-71 -10.5t-70 10
t-61 30.5t-43 51t-16 71.5v1248q0 40 16.5 71t43.5 51t62 30.5t71 10.5t70 -10t61 -30.5t43.5 -51t16.5 -71.5v-496z" />
    <glyph glyph-name="Ccircumflex" unicode="&#x108;" 
d="M329 2211l59 -346h-102l-30 238l-31 -238h-101l59 346h146zM448 1024h-128v544q0 24 -5.5 39.5t-14.5 24t-20.5 12t-23.5 3.5t-23.5 -3.5t-20.5 -12t-14.5 -24t-5.5 -39.5v-1408q0 -12 1 -28.5t7 -31.5t19 -25.5t37 -10.5t37 10.5t19 25.5t7 31.5t1 28.5v672h128v-672
q0 -12 -3 -43.5t-21 -64.5t-57 -58.5t-111 -25.5t-111 25.5t-57 58.5t-21 64.5t-3 43.5v1408q0 46 17 79.5t44.5 54.5t61.5 31t69 10q37 0 71.5 -11t61.5 -33t43 -55t16 -76v-544z" />
    <glyph glyph-name="ccircumflex" unicode="&#x109;" 
d="M330 2023l59 -346h-102l-30 238l-31 -238h-101l59 346h146zM448 896h-128v496q0 34 -17 48.5t-39 14.5q-13 0 -25.5 -4.5t-23 -13t-17 -20t-6.5 -25.5v-1248q0 -14 6.5 -26t17 -20.5t23 -13t25.5 -4.5q22 0 39 15t17 49v560h128v-560q0 -40 -17 -70.5t-44 -51t-62 -31
t-71 -10.5t-70 10t-61 30.5t-43 51t-16 71.5v1248q0 40 16.5 71t43.5 51t62 30.5t71 10.5t70 -10t61 -30.5t43.5 -51t16.5 -71.5v-496z" />
    <glyph glyph-name="Cdotaccent" unicode="&#x10a;" 
d="M347 2050v-185h-182v185h182zM448 1024h-128v544q0 24 -5.5 39.5t-14.5 24t-20.5 12t-23.5 3.5t-23.5 -3.5t-20.5 -12t-14.5 -24t-5.5 -39.5v-1408q0 -12 1 -28.5t7 -31.5t19 -25.5t37 -10.5t37 10.5t19 25.5t7 31.5t1 28.5v672h128v-672q0 -12 -3 -43.5t-21 -64.5
t-57 -58.5t-111 -25.5t-111 25.5t-57 58.5t-21 64.5t-3 43.5v1408q0 46 17 79.5t44.5 54.5t61.5 31t69 10q37 0 71.5 -11t61.5 -33t43 -55t16 -76v-544z" />
    <glyph glyph-name="cdotaccent" unicode="&#x10b;" 
d="M348 1862v-185h-182v185h182zM448 896h-128v496q0 34 -17 48.5t-39 14.5q-13 0 -25.5 -4.5t-23 -13t-17 -20t-6.5 -25.5v-1248q0 -14 6.5 -26t17 -20.5t23 -13t25.5 -4.5q22 0 39 15t17 49v560h128v-560q0 -40 -17 -70.5t-44 -51t-62 -31t-71 -10.5t-70 10t-61 30.5
t-43 51t-16 71.5v1248q0 40 16.5 71t43.5 51t62 30.5t71 10.5t70 -10t61 -30.5t43.5 -51t16.5 -71.5v-496z" />
    <glyph glyph-name="Ccaron" unicode="&#x10c;" 
d="M183 1865l-58 346h100l30 -237l32 237h101l-60 -346h-145zM448 1024h-128v544q0 24 -5.5 39.5t-14.5 24t-20.5 12t-23.5 3.5t-23.5 -3.5t-20.5 -12t-14.5 -24t-5.5 -39.5v-1408q0 -12 1 -28.5t7 -31.5t19 -25.5t37 -10.5t37 10.5t19 25.5t7 31.5t1 28.5v672h128v-672
q0 -12 -3 -43.5t-21 -64.5t-57 -58.5t-111 -25.5t-111 25.5t-57 58.5t-21 64.5t-3 43.5v1408q0 46 17 79.5t44.5 54.5t61.5 31t69 10q37 0 71.5 -11t61.5 -33t43 -55t16 -76v-544z" />
    <glyph glyph-name="ccaron" unicode="&#x10d;" 
d="M183 1677l-58 346h100l30 -237l32 237h101l-60 -346h-145zM448 896h-128v496q0 34 -17 48.5t-39 14.5q-13 0 -25.5 -4.5t-23 -13t-17 -20t-6.5 -25.5v-1248q0 -14 6.5 -26t17 -20.5t23 -13t25.5 -4.5q22 0 39 15t17 49v560h128v-560q0 -40 -17 -70.5t-44 -51t-62 -31
t-71 -10.5t-70 10t-61 30.5t-43 51t-16 71.5v1248q0 40 16.5 71t43.5 51t62 30.5t71 10.5t70 -10t61 -30.5t43.5 -51t16.5 -71.5v-496z" />
    <glyph glyph-name="Dcaron" unicode="&#x10e;" 
d="M183 1865l-58 346h100l30 -237l32 237h101l-60 -346h-145zM320 1568q0 24 -6.5 37t-21.5 19t-39.5 7t-60.5 1v-1536q36 0 60.5 1t39.5 7t21.5 19t6.5 37v1408zM448 160q0 -60 -22 -92.5t-58 -47.5t-82 -17.5t-94 -2.5h-128v1728h128q48 0 94 -2.5t82 -17.5t58 -47.5
t22 -92.5v-1408z" />
    <glyph glyph-name="dcaron" unicode="&#x10f;" 
d="M759 1550l-32 -352h-96v352h128zM320 1410q0 19 -18 24q-17 6 -110 6v-1344q93 0 110 6q18 6 18 25v1283zM448 135q0 -51 -21.5 -78.5t-63.5 -40.5q-20 -6 -49 -9.5t-80 -5.5q-51 -1 -90 -1h-80v1536q41 0 82.5 -0.5t84.5 -1.5q88 -2 130 -13q43 -12 65 -38.5t22 -75.5
v-1272z" />
    <glyph glyph-name="Dcroat" unicode="&#x110;" horiz-adv-x="473" 
d="M250 886h-251v105h251v-105zM286 1605q0 30 -23 34.5t-74 4.5v-1530q24 0 42 0.5t30.5 3.5t18.5 10.5t6 21.5v1455zM421 150q0 -30 -14 -57.5t-38 -48t-57 -32.5t-70 -12h-187v1761h187q36 0 68.5 -11.5t57 -31.5t39 -47t14.5 -58v-1463z" />
    <glyph glyph-name="dcroat" unicode="&#x111;" horiz-adv-x="443" 
d="M227 750h-227v109h227v-109zM258 1399q0 19 -17.5 24.5t-51.5 5.5v-1327q34 0 51.5 6t17.5 25v1266zM391 135q0 -51 -22 -78.5t-65 -40t-105.5 -14.5t-143.5 -2v1520q81 0 143.5 -1.5t105.5 -13.5t65 -38.5t22 -75.5v-1256z" />
    <glyph glyph-name="Emacron" unicode="&#x112;" horiz-adv-x="384" 
d="M371 1865h-327v105h327v-105zM352 1632h-160v-672h128v-96h-128v-768h160v-96h-288v1728h288v-96z" />
    <glyph glyph-name="emacron" unicode="&#x113;" horiz-adv-x="352" 
d="M355 1672h-327v105h327v-105zM320 1440h-128v-576h128v-96h-128v-672h128v-96h-256v1536h256v-96z" />
    <glyph glyph-name="ebreve" unicode="&#x115;" horiz-adv-x="352" 
d="M194 1672q-103 0 -148.5 52.5t-45.5 171.5h101q0 -36 7 -57.5t19 -33t28.5 -15t35.5 -3.5q21 0 38 3.5t29 15t18.5 33t6.5 57.5h101q0 -119 -45 -171.5t-145 -52.5zM320 1440h-128v-576h128v-96h-128v-672h128v-96h-256v1536h256v-96z" />
    <glyph glyph-name="Edotaccent" unicode="&#x116;" horiz-adv-x="384" 
d="M299 2050v-185h-182v185h182zM352 1632h-160v-672h128v-96h-128v-768h160v-96h-288v1728h288v-96z" />
    <glyph glyph-name="edotaccent" unicode="&#x117;" horiz-adv-x="352" 
d="M283 1857v-185h-182v185h182zM320 1440h-128v-576h128v-96h-128v-672h128v-96h-256v1536h256v-96z" />
    <glyph glyph-name="Eogonek" unicode="&#x118;" horiz-adv-x="390" 
d="M352 1632h-160v-672h128v-96h-128v-768h160v-96h-288v1728h288v-96zM374 -283q-38 0 -67.5 12t-50 32.5t-31.5 48.5t-11 60q0 57 73 130h50q-13 -20 -20 -40q-7 -17 -12.5 -38t-5.5 -42q0 -38 19.5 -58.5t62.5 -20.5q24 0 44 6t36 13q10 5 18.5 9.5t17.5 10.5v-72
q-16 -16 -32 -26q-16 -9 -38 -17t-53 -8z" />
    <glyph glyph-name="eogonek" unicode="&#x119;" horiz-adv-x="372" 
d="M384 1440h-128v-576h128v-96h-128v-672h128v-96h-256v1536h256v-96zM348 -283q-38 0 -67.5 12t-50 32.5t-31.5 48.5t-11 60q0 57 73 130h50q-13 -20 -20 -40q-7 -17 -12.5 -38t-5.5 -42q0 -38 19.5 -58.5t62.5 -20.5q24 0 44 6t36 13q10 5 18.5 9.5t17.5 10.5v-72
q-16 -16 -32 -26q-16 -9 -38 -17t-53 -8z" />
    <glyph glyph-name="Ecaron" unicode="&#x11a;" horiz-adv-x="384" 
d="M135 1865l-58 346h100l30 -237l32 237h101l-60 -346h-145zM352 1632h-160v-672h128v-96h-128v-768h160v-96h-288v1728h288v-96z" />
    <glyph glyph-name="ecaron" unicode="&#x11b;" horiz-adv-x="352" 
d="M119 1672l-58 346h100l30 -237l32 237h101l-60 -346h-145zM320 1440h-128v-576h128v-96h-128v-672h128v-96h-256v1536h256v-96z" />
    <glyph glyph-name="Gcircumflex" unicode="&#x11c;" 
d="M329 2211l59 -346h-102l-30 238l-31 -238h-101l59 346h146zM448 1024h-128v544q0 12 -1 26t-7 25.5t-19 19.5t-37 8t-37 -8t-19 -19.5t-7 -25.5t-1 -26v-1408q0 -12 1 -28.5t7 -31.5t19 -25.5t37 -10.5t37 10.5t19 25.5t7 31.5t1 28.5v640h-32v96h160v-736
q0 -12 -3 -43.5t-21 -64.5t-57 -58.5t-111 -25.5t-111 25.5t-57 58.5t-21 64.5t-3 43.5v1408q0 8 1 24t6 35.5t17 40t33 37.5t54 27.5t81 10.5t81 -10.5t54 -27.5t33 -37.5t17 -40t6 -35.5t1 -24v-544z" />
    <glyph glyph-name="gcircumflex" unicode="&#x11d;" horiz-adv-x="480" 
d="M313 2036l59 -346h-102l-30 238l-31 -238h-101l59 346h146zM192 144q0 -36 15 -50t33 -14t33 14t15 50v528h-32v96h160v-624q0 -42 -15 -72.5t-40 -50t-56.5 -28.5t-64.5 -9t-64.5 9t-56.5 28.5t-40 50t-15 72.5v1264q0 42 15 72.5t40 50t56.5 28.5t64.5 9t64.5 -9
t56.5 -28.5t40 -49.5t15 -72v-513h-128v513q0 36 -15 49.5t-33 13.5t-33 -13.5t-15 -49.5v-1265z" />
    <glyph glyph-name="Gbreve" unicode="&#x11e;" 
d="M258 1865q-103 0 -148.5 52.5t-45.5 171.5h101q0 -36 7 -57.5t19 -33t28.5 -15t35.5 -3.5q21 0 38 3.5t29 15t18.5 33t6.5 57.5h101q0 -119 -45 -171.5t-145 -52.5zM448 1024h-128v544q0 12 -1 26t-7 25.5t-19 19.5t-37 8t-37 -8t-19 -19.5t-7 -25.5t-1 -26v-1408
q0 -12 1 -28.5t7 -31.5t19 -25.5t37 -10.5t37 10.5t19 25.5t7 31.5t1 28.5v640h-32v96h160v-736q0 -12 -3 -43.5t-21 -64.5t-57 -58.5t-111 -25.5t-111 25.5t-57 58.5t-21 64.5t-3 43.5v1408q0 8 1 24t6 35.5t17 40t33 37.5t54 27.5t81 10.5t81 -10.5t54 -27.5t33 -37.5
t17 -40t6 -35.5t1 -24v-544z" />
    <glyph glyph-name="gbreve" unicode="&#x11f;" horiz-adv-x="480" 
d="M242 1690q-103 0 -148.5 52.5t-45.5 171.5h101q0 -36 7 -57.5t19 -33t28.5 -15t35.5 -3.5q21 0 38 3.5t29 15t18.5 33t6.5 57.5h101q0 -119 -45 -171.5t-145 -52.5zM192 144q0 -36 15 -50t33 -14t33 14t15 50v528h-32v96h160v-624q0 -42 -15 -72.5t-40 -50t-56.5 -28.5
t-64.5 -9t-64.5 9t-56.5 28.5t-40 50t-15 72.5v1264q0 42 15 72.5t40 50t56.5 28.5t64.5 9t64.5 -9t56.5 -28.5t40 -49.5t15 -72v-513h-128v513q0 36 -15 49.5t-33 13.5t-33 -13.5t-15 -49.5v-1265z" />
    <glyph glyph-name="Gdotaccent" unicode="&#x120;" 
d="M347 2050v-185h-182v185h182zM448 1024h-128v544q0 12 -1 26t-7 25.5t-19 19.5t-37 8t-37 -8t-19 -19.5t-7 -25.5t-1 -26v-1408q0 -12 1 -28.5t7 -31.5t19 -25.5t37 -10.5t37 10.5t19 25.5t7 31.5t1 28.5v640h-32v96h160v-736q0 -12 -3 -43.5t-21 -64.5t-57 -58.5
t-111 -25.5t-111 25.5t-57 58.5t-21 64.5t-3 43.5v1408q0 8 1 24t6 35.5t17 40t33 37.5t54 27.5t81 10.5t81 -10.5t54 -27.5t33 -37.5t17 -40t6 -35.5t1 -24v-544z" />
    <glyph glyph-name="gdotaccent" unicode="&#x121;" horiz-adv-x="480" 
d="M331 1875v-185h-182v185h182zM192 144q0 -36 15 -50t33 -14t33 14t15 50v528h-32v96h160v-624q0 -42 -15 -72.5t-40 -50t-56.5 -28.5t-64.5 -9t-64.5 9t-56.5 28.5t-40 50t-15 72.5v1264q0 42 15 72.5t40 50t56.5 28.5t64.5 9t64.5 -9t56.5 -28.5t40 -49.5t15 -72v-513
h-128v513q0 36 -15 49.5t-33 13.5t-33 -13.5t-15 -49.5v-1265z" />
    <glyph glyph-name="Gcommaaccent" unicode="&#x122;" 
d="M320 -154l-32 -352h-96v352h128zM448 1024h-128v544q0 12 -1 26t-7 25.5t-19 19.5t-37 8t-37 -8t-19 -19.5t-7 -25.5t-1 -26v-1408q0 -12 1 -28.5t7 -31.5t19 -25.5t37 -10.5t37 10.5t19 25.5t7 31.5t1 28.5v640h-32v96h160v-736q0 -12 -3 -43.5t-21 -64.5t-57 -58.5
t-111 -25.5t-111 25.5t-57 58.5t-21 64.5t-3 43.5v1408q0 8 1 24t6 35.5t17 40t33 37.5t54 27.5t81 10.5t81 -10.5t54 -27.5t33 -37.5t17 -40t6 -35.5t1 -24v-544z" />
    <glyph glyph-name="gcommaaccent" unicode="&#x123;" horiz-adv-x="419" 
d="M192 144q0 -36 15 -50t33 -14t33 14t15 50v528h-32v96h160v-624q0 -42 -15 -72.5t-40 -50t-56.5 -28.5t-64.5 -9t-64.5 9t-56.5 28.5t-40 50t-15 72.5v1264q0 42 15 72.5t40 50t56.5 28.5t64.5 9t64.5 -9t56.5 -28.5t40 -49.5t15 -72v-513h-128v513q0 36 -15 49.5
t-33 13.5t-33 -13.5t-15 -49.5v-1265zM130 1603l74 360h85v-360h-159z" />
    <glyph glyph-name="Hcircumflex" unicode="&#x124;" 
d="M329 2211l59 -346h-102l-30 238l-31 -238h-101l59 346h146zM192 928h128v800h128v-1728h-128v832h-128v-832h-128v1728h128v-800z" />
    <glyph glyph-name="hcircumflex" unicode="&#x125;" 
d="M329 2018l59 -346h-102l-30 238l-31 -238h-101l59 346h146zM320 1536h128v-1536h-128v746h-128v-746h-128v1536h128v-690h128v690z" />
    <glyph glyph-name="Hbar" unicode="&#x126;" 
d="M192 928h128v382h-128v-382zM320 1415v313h128v-1728h-128v832h-128v-832h-128v1728h128v-313h128z" />
    <glyph glyph-name="hbar" unicode="&#x127;" horiz-adv-x="426" 
d="M320 1536h128v-1536h-128v746h-128v-746h-128v1536h128v-234h128v234zM192 1197v-351h128v351h-128z" />
    <glyph glyph-name="Itilde" unicode="&#x128;" horiz-adv-x="288" 
d="M-46 1865q0 34 5.5 63t18 50.5t32 33.5t48.5 12q25 0 43.5 -6.5t36.5 -15t38.5 -15t47.5 -6.5q10 0 16 6.5t9 14.5q5 9 6 22h79q0 -23 -2 -42.5t-8 -36.5q-10 -31 -32.5 -55.5t-67.5 -24.5q-25 0 -46.5 7t-41 15t-38.5 15t-39 7q-9 0 -14.5 -6.5t-8.5 -15.5q-3 -8 -3 -22
h-79zM208 1728v-1728h-128v1728h128z" />
    <glyph glyph-name="itilde" unicode="&#x129;" horiz-adv-x="292" 
d="M-44 1672q0 34 5.5 63t18 50.5t32 33.5t48.5 12q25 0 43.5 -6.5t36.5 -15t38.5 -15t47.5 -6.5q10 0 16 6.5t9 14.5q5 9 6 22h79q0 -23 -2 -42.5t-8 -36.5q-10 -31 -32.5 -55.5t-67.5 -24.5q-25 0 -46.5 7t-41 15t-38.5 15t-39 7q-9 0 -14.5 -6.5t-8.5 -15.5q-3 -8 -3 -22
h-79zM213 1520v-1520h-134v1520h134z" />
    <glyph glyph-name="Imacron" unicode="&#x12a;" horiz-adv-x="288" 
d="M307 1865h-327v105h327v-105zM208 1728v-1728h-128v1728h128z" />
    <glyph glyph-name="imacron" unicode="&#x12b;" horiz-adv-x="292" 
d="M309 1672h-327v105h327v-105zM213 1520v-1520h-134v1520h134z" />
    <glyph glyph-name="Ibreve" unicode="&#x12c;" horiz-adv-x="288" 
d="M146 1865q-103 0 -148.5 52.5t-45.5 171.5h101q0 -36 7 -57.5t19 -33t28.5 -15t35.5 -3.5q21 0 38 3.5t29 15t18.5 33t6.5 57.5h101q0 -119 -45 -171.5t-145 -52.5zM208 1728v-1728h-128v1728h128z" />
    <glyph glyph-name="ibreve" unicode="&#x12d;" horiz-adv-x="292" 
d="M148 1672q-103 0 -148.5 52.5t-45.5 171.5h101q0 -36 7 -57.5t19 -33t28.5 -15t35.5 -3.5q21 0 38 3.5t29 15t18.5 33t6.5 57.5h101q0 -119 -45 -171.5t-145 -52.5zM213 1520v-1520h-134v1520h134z" />
    <glyph glyph-name="Iogonek" unicode="&#x12e;" horiz-adv-x="247" 
d="M208 1728v-1728h-128v1728h128zM223 -280q-38 0 -67.5 12t-50 32.5t-31.5 48.5t-11 60q0 57 73 130h50q-13 -20 -20 -40q-7 -17 -12.5 -38t-5.5 -42q0 -38 19.5 -58.5t62.5 -20.5q24 0 44 6t36 13q10 5 18.5 9.5t17.5 10.5v-72q-16 -16 -32 -26q-16 -9 -38 -17t-53 -8z
" />
    <glyph glyph-name="iogonek" unicode="&#x12f;" horiz-adv-x="244" 
d="M208 1536v-1536h-128v1536h128zM211 -283q-38 0 -67.5 12t-50 32.5t-31.5 48.5t-11 60q0 57 73 130h50q-13 -20 -20 -40q-7 -17 -12.5 -38t-5.5 -42q0 -38 19.5 -58.5t62.5 -20.5q24 0 44 6t36 13q10 5 18.5 9.5t17.5 10.5v-72q-16 -16 -32 -26q-16 -9 -38 -17t-53 -8z
" />
    <glyph glyph-name="Idotaccent" unicode="&#x130;" horiz-adv-x="288" 
d="M235 2050v-185h-182v185h182zM208 1728v-1728h-128v1728h128z" />
    <glyph glyph-name="dotlessi" unicode="&#x131;" horiz-adv-x="292" 
d="M213 1520v-1520h-134v1520h134z" />
    <glyph glyph-name="Jcircumflex" unicode="&#x134;" 
d="M457 2211l59 -346h-102l-30 238l-31 -238h-101l59 346h146zM448 160q-3 -54 -24 -96q-9 -18 -23 -35.5t-34 -31t-47.5 -21.5t-63.5 -8t-63.5 8t-47.5 21.5t-34 31t-23 35.5q-21 42 -24 96v672h128v-672q0 -12 1 -28.5t7 -31.5t19 -25.5t37 -10.5t37 10.5t19 25.5t7 31.5
t1 28.5v1568h128v-1568z" />
    <glyph glyph-name="jcircumflex" unicode="&#x135;" horiz-adv-x="480" 
d="M425 2004l59 -346h-102l-30 238l-31 -238h-101l59 346h146zM416 144q0 -42 -15 -72.5t-40 -50t-56.5 -28.5t-64.5 -9t-64.5 9t-56.5 28.5t-40 50t-15 72.5v560h128v-560q0 -36 15 -50t33 -14t33 14t15 50v1392h128v-1392z" />
    <glyph glyph-name="Kcommaaccent" unicode="&#x136;" horiz-adv-x="480" 
d="M320 -122l-32 -352h-96v352h128zM448 0h-128l-128 864v-864h-128v1728h128v-800l128 800h128l-128 -736l-14 -96l14 -96z" />
    <glyph glyph-name="kcommaaccent" unicode="&#x137;" horiz-adv-x="448" 
d="M304 -122l-32 -352h-96v352h128zM416 0h-128l-96 704v-704h-128v1536h128v-704l96 704h128l-111 -768z" />
    <glyph glyph-name="kgreenlandic" unicode="&#x138;" horiz-adv-x="421" 
d="M416 0h-128l-96 704v-704h-128v1536h128v-704l96 704h128l-111 -768z" />
    <glyph glyph-name="Lacute" unicode="&#x139;" horiz-adv-x="384" 
d="M368 2281l-192 -416h-96l128 416h160zM192 1728v-1632h128v-96h-256v1728h128z" />
    <glyph glyph-name="lacute" unicode="&#x13a;" horiz-adv-x="320" 
d="M368 2088l-192 -416h-96l128 416h160zM192 1536v-1440h128v-96h-256v1536h128z" />
    <glyph glyph-name="Lcommaaccent" unicode="&#x13b;" horiz-adv-x="384" 
d="M256 -122l-32 -352h-96v352h128zM192 1728v-1632h128v-96h-256v1728h128z" />
    <glyph glyph-name="lcommaaccent" unicode="&#x13c;" horiz-adv-x="320" 
d="M256 -122l-32 -352h-96v352h128zM192 1536v-1440h128v-96h-256v1536h128z" />
    <glyph glyph-name="Lcaron" unicode="&#x13d;" horiz-adv-x="384" 
d="M631 1743l-32 -352h-96v352h128zM192 1728v-1632h128v-96h-256v1728h128z" />
    <glyph glyph-name="lcaron" unicode="&#x13e;" horiz-adv-x="320" 
d="M439 1550l-32 -352h-96v352h128zM192 1536v-1440h128v-96h-256v1536h128z" />
    <glyph glyph-name="Lslash" unicode="&#x141;" horiz-adv-x="347" 
d="M206 1761v-851l144 29v-117l-144 -28v-683h144v-111h-278v767l-87 -17v117l87 17v877h134z" />
    <glyph glyph-name="lslash" unicode="&#x142;" horiz-adv-x="313" 
d="M186 1520v-688l126 29v-117l-126 -28v-615h126v-101h-257v686l-64 -14v117l64 14v717h131z" />
    <glyph glyph-name="Nacute" unicode="&#x143;" 
d="M496 2281l-192 -416h-96l128 416h160zM448 0h-128l-160 1280v-1280h-96v1728h128l160 -1280v1280h96v-1728z" />
    <glyph glyph-name="nacute" unicode="&#x144;" 
d="M496 2088l-192 -416h-96l128 416h160zM448 0h-96l-176 896v-896h-112v1536h96l177 -928v928h111v-1536z" />
    <glyph glyph-name="Ncommaaccent" unicode="&#x145;" 
d="M320 -122l-32 -352h-96v352h128zM448 0h-128l-160 1280v-1280h-96v1728h128l160 -1280v1280h96v-1728z" />
    <glyph glyph-name="ncommaaccent" unicode="&#x146;" 
d="M320 -122l-32 -352h-96v352h128zM448 0h-96l-176 896v-896h-112v1536h96l177 -928v928h111v-1536z" />
    <glyph glyph-name="Ncaron" unicode="&#x147;" 
d="M183 1865l-58 346h100l30 -237l32 237h101l-60 -346h-145zM448 0h-128l-160 1280v-1280h-96v1728h128l160 -1280v1280h96v-1728z" />
    <glyph glyph-name="ncaron" unicode="&#x148;" 
d="M183 1672l-58 346h100l30 -237l32 237h101l-60 -346h-145zM448 0h-96l-176 896v-896h-112v1536h96l177 -928v928h111v-1536z" />
    <glyph glyph-name="Eng" unicode="&#x14a;" horiz-adv-x="479" 
d="M424 -328q0 -32 -14 -59.5t-38.5 -47.5t-57 -31.5t-69.5 -11.5q-38 0 -71.5 11.5t-59 31.5t-40 47t-14.5 58v261h134v-261q0 -22 15 -31t36 -9q19 0 31.5 11.5t12.5 28.5v712h135v-710zM424 0h-135l-100 982v-982h-134v1761h132l111 -1023v1023h126v-1761z" />
    <glyph glyph-name="eng" unicode="&#x14b;" horiz-adv-x="451" 
d="M395 0h-121l-100 855l12 -855h-131v1520h120l107 -883l-8 883h121v-1520zM395 -353q0 -27 -14 -50.5t-37 -41.5t-53.5 -28t-64.5 -10q-33 0 -63.5 10t-54 28t-37 41.5t-13.5 50.5v262h129l2 -262q0 -13 11.5 -20.5t25.5 -7.5t24 7.5t10 20.5v717h135v-717z" />
    <glyph glyph-name="Omacron" unicode="&#x14c;" 
d="M419 1865h-327v105h327v-105zM448 160q0 -12 -3 -43.5t-21 -64.5t-57 -58.5t-111 -25.5t-111 25.5t-57 58.5t-21 64.5t-3 43.5v1408q0 8 1 24t6 35.5t17 40t33 37.5t54 27.5t81 10.5t81 -10.5t54 -27.5t33 -37.5t17 -40t6 -35.5t1 -24v-1408zM192 160q0 -12 1 -28.5
t7 -31.5t19 -25.5t37 -10.5t37 10.5t19 25.5t7 31.5t1 28.5v1408q0 12 -1 26t-7 25.5t-19 19.5t-37 8t-37 -8t-19 -19.5t-7 -25.5t-1 -26v-1408z" />
    <glyph glyph-name="omacron" unicode="&#x14d;" 
d="M429 1672h-327v105h327v-105zM448 144q0 -42 -15.5 -72.5t-41.5 -50.5t-59 -29.5t-68 -9.5q-37 0 -73 10.5t-64 31t-45.5 51t-17.5 69.5v1248q0 38 17.5 67.5t46 49.5t64.5 30.5t73 10.5q35 0 68 -9.5t58.5 -29t41 -49.5t15.5 -70v-1248zM320 1392q0 34 -16.5 48.5
t-38.5 14.5q-13 0 -26 -4.5t-23.5 -13t-17 -20t-6.5 -25.5v-1248q0 -14 6.5 -26t17 -20t23 -12.5t25.5 -4.5q22 0 39 14.5t17 48.5v1248z" />
    <glyph glyph-name="Obreve" unicode="&#x14e;" 
d="M258 1865q-103 0 -148.5 52.5t-45.5 171.5h101q0 -36 7 -57.5t19 -33t28.5 -15t35.5 -3.5q21 0 38 3.5t29 15t18.5 33t6.5 57.5h101q0 -119 -45 -171.5t-145 -52.5zM448 160q0 -12 -3 -43.5t-21 -64.5t-57 -58.5t-111 -25.5t-111 25.5t-57 58.5t-21 64.5t-3 43.5v1408
q0 8 1 24t6 35.5t17 40t33 37.5t54 27.5t81 10.5t81 -10.5t54 -27.5t33 -37.5t17 -40t6 -35.5t1 -24v-1408zM192 160q0 -12 1 -28.5t7 -31.5t19 -25.5t37 -10.5t37 10.5t19 25.5t7 31.5t1 28.5v1408q0 12 -1 26t-7 25.5t-19 19.5t-37 8t-37 -8t-19 -19.5t-7 -25.5t-1 -26
v-1408z" />
    <glyph glyph-name="obreve" unicode="&#x14f;" 
d="M267 1672q-103 0 -148.5 52.5t-45.5 171.5h101q0 -36 7 -57.5t19 -33t28.5 -15t35.5 -3.5q21 0 38 3.5t29 15t18.5 33t6.5 57.5h101q0 -119 -45 -171.5t-145 -52.5zM448 144q0 -42 -15.5 -72.5t-41.5 -50.5t-59 -29.5t-68 -9.5q-37 0 -73 10.5t-64 31t-45.5 51
t-17.5 69.5v1248q0 38 17.5 67.5t46 49.5t64.5 30.5t73 10.5q35 0 68 -9.5t58.5 -29t41 -49.5t15.5 -70v-1248zM320 1392q0 34 -16.5 48.5t-38.5 14.5q-13 0 -26 -4.5t-23.5 -13t-17 -20t-6.5 -25.5v-1248q0 -14 6.5 -26t17 -20t23 -12.5t25.5 -4.5q22 0 39 14.5t17 48.5
v1248z" />
    <glyph glyph-name="Ohungarumlaut" unicode="&#x150;" 
d="M424 2275l-190 -410h-101l133 410h158zM621 2275l-241 -410h-101l184 410h158zM448 160q0 -12 -3 -43.5t-21 -64.5t-57 -58.5t-111 -25.5t-111 25.5t-57 58.5t-21 64.5t-3 43.5v1408q0 8 1 24t6 35.5t17 40t33 37.5t54 27.5t81 10.5t81 -10.5t54 -27.5t33 -37.5t17 -40
t6 -35.5t1 -24v-1408zM192 160q0 -12 1 -28.5t7 -31.5t19 -25.5t37 -10.5t37 10.5t19 25.5t7 31.5t1 28.5v1408q0 12 -1 26t-7 25.5t-19 19.5t-37 8t-37 -8t-19 -19.5t-7 -25.5t-1 -26v-1408z" />
    <glyph glyph-name="ohungarumlaut" unicode="&#x151;" 
d="M432 2082l-190 -410h-101l133 410h158zM629 2082l-241 -410h-101l184 410h158zM448 144q0 -42 -15.5 -72.5t-41.5 -50.5t-59 -29.5t-68 -9.5q-37 0 -73 10.5t-64 31t-45.5 51t-17.5 69.5v1248q0 38 17.5 67.5t46 49.5t64.5 30.5t73 10.5q35 0 68 -9.5t58.5 -29t41 -49.5
t15.5 -70v-1248zM320 1392q0 34 -16.5 48.5t-38.5 14.5q-13 0 -26 -4.5t-23.5 -13t-17 -20t-6.5 -25.5v-1248q0 -14 6.5 -26t17 -20t23 -12.5t25.5 -4.5q22 0 39 14.5t17 48.5v1248z" />
    <glyph glyph-name="OE" unicode="&#x152;" horiz-adv-x="603" 
d="M52 1637q0 30 14.5 57t39 47t57 31.5t68.5 11.5q53 0 97 -23h267v-117h-180v-648h133v-120h-133v-764h180v-112h-271q-23 -11 -45 -15q-23 -6 -48 -6q-36 0 -68.5 11.5t-57 31.5t-39 46.5t-14.5 55.5v1513zM186 127q0 -15 12.5 -27t32.5 -12q21 0 34.5 12t13.5 27v1511
q0 17 -14.5 29t-33.5 12q-20 0 -32.5 -12t-12.5 -29v-1511z" />
    <glyph glyph-name="oe" unicode="&#x153;" horiz-adv-x="589" 
d="M573 1429h-167v-571h125v-106h-125v-651h167v-101h-257q-18 -11 -42 -15q-20 -6 -44 -6q-37 0 -69.5 12t-56.5 33t-38 49.5t-14 61.5v1256q0 31 14 59t38 49t56.5 33.5t69.5 12.5q51 0 95 -25h248v-91zM267 1373q0 15 -1 29t-5 24.5t-11 17t-20 6.5q-27 0 -34 -23.5
t-7 -53.5v-1222q0 -11 0.5 -24t4 -24t12 -18t24.5 -7t26.5 9t10.5 22v1264z" />
    <glyph glyph-name="Racute" unicode="&#x154;" 
d="M368 2281l-192 -416h-96l128 416h160zM448 1024q0 -72 -24 -100t-72 -28q24 0 42 -11t30 -29t18 -41t6 -47v-768h-128v800q0 24 -11 37t-29 19t-41 7t-47 1v-864h-128v1728h128q48 0 94 -2.5t82 -17.5t58 -47.5t22 -92.5v-544zM320 1568q0 24 -6.5 37t-21.5 19t-39.5 7
t-60.5 1v-704q24 0 47 1t41 7t29 19t11 37v576z" />
    <glyph glyph-name="racute" unicode="&#x155;" horiz-adv-x="480" 
d="M480 2088l-192 -416h-96l128 416h160zM416 896q0 -48 -24 -74t-72 -37q48 -13 72 -39t24 -74v-672h-128v672q0 24 -6 37t-18 19t-30 7t-42 1v-736h-128v1536h144q65 0 111.5 -10.5t71.5 -37t25 -80.5v-512zM288 1376q0 24 -6 37t-18 19t-30 7t-42 1v-608q24 0 42 1t30 7
t18 19t6 37v480z" />
    <glyph glyph-name="Rcommaaccent" unicode="&#x156;" 
d="M320 -122l-32 -352h-96v352h128zM448 1024q0 -72 -24 -100t-72 -28q24 0 42 -11t30 -29t18 -41t6 -47v-768h-128v800q0 24 -11 37t-29 19t-41 7t-47 1v-864h-128v1728h128q48 0 94 -2.5t82 -17.5t58 -47.5t22 -92.5v-544zM320 1568q0 24 -6.5 37t-21.5 19t-39.5 7
t-60.5 1v-704q24 0 47 1t41 7t29 19t11 37v576z" />
    <glyph glyph-name="rcommaaccent" unicode="&#x157;" horiz-adv-x="480" 
d="M304 -122l-32 -352h-96v352h128zM416 896q0 -48 -24 -74t-72 -37q48 -13 72 -39t24 -74v-672h-128v672q0 24 -6 37t-18 19t-30 7t-42 1v-736h-128v1536h144q65 0 111.5 -10.5t71.5 -37t25 -80.5v-512zM288 1376q0 24 -6 37t-18 19t-30 7t-42 1v-608q24 0 42 1t30 7t18 19
t6 37v480z" />
    <glyph glyph-name="Rcaron" unicode="&#x158;" 
d="M55 1865l-58 346h100l30 -237l32 237h101l-60 -346h-145zM448 1024q0 -72 -24 -100t-72 -28q24 0 42 -11t30 -29t18 -41t6 -47v-768h-128v800q0 24 -11 37t-29 19t-41 7t-47 1v-864h-128v1728h128q48 0 94 -2.5t82 -17.5t58 -47.5t22 -92.5v-544zM320 1568q0 24 -6.5 37
t-21.5 19t-39.5 7t-60.5 1v-704q24 0 47 1t41 7t29 19t11 37v576z" />
    <glyph glyph-name="rcaron" unicode="&#x159;" horiz-adv-x="480" 
d="M167 1672l-58 346h100l30 -237l32 237h101l-60 -346h-145zM416 896q0 -48 -24 -74t-72 -37q48 -13 72 -39t24 -74v-672h-128v672q0 24 -6 37t-18 19t-30 7t-42 1v-736h-128v1536h144q65 0 111.5 -10.5t71.5 -37t25 -80.5v-512zM288 1376q0 24 -6 37t-18 19t-30 7t-42 1
v-608q24 0 42 1t30 7t18 19t6 37v480z" />
    <glyph glyph-name="Sacute" unicode="&#x15a;" horiz-adv-x="448" 
d="M464 2281l-192 -416h-96l128 416h160zM288 421q0 106 -11 182t-29 132.5t-41 98.5t-47 79t-47 74t-41 84t-29 108.5t-11 147.5v241q0 24 7.5 54.5t28.5 57t58.5 45t97.5 18.5t97.5 -18.5t58.5 -45t28.5 -57t7.5 -54.5v-448h-128v448q0 24 -5.5 39.5t-14.5 24t-20.5 12
t-23.5 3.5t-23.5 -3.5t-20.5 -12t-14.5 -24t-5.5 -39.5v-195q0 -113 19 -189t47.5 -132.5t61.5 -102.5t61.5 -99.5t47.5 -124t19 -175.5v-390q0 -12 -3 -43.5t-21 -64.5t-57 -58.5t-111 -25.5t-111 25.5t-57 58.5t-21 64.5t-3 43.5v576h128v-576q0 -12 1 -28.5t7 -31.5
t19 -25.5t37 -10.5t37 10.5t19 25.5t7 31.5t1 28.5v261z" />
    <glyph glyph-name="sacute" unicode="&#x15b;" horiz-adv-x="480" 
d="M480 2090l-192 -416h-96l128 416h160zM416 992h-128v400q0 36 -15 50t-33 14t-33 -14t-15 -50q0 -107 10 -197t26 -166t36 -138.5t40 -114.5q16 -41 35.5 -95t36.5 -129t28.5 -175t11.5 -233q0 -42 -15 -72.5t-40 -50t-56.5 -28.5t-64.5 -9t-64.5 9t-56.5 28.5t-40 50
t-15 72.5v400h128v-400q0 -36 15 -50t33 -14t33 14t15 50q0 129 -12.5 226.5t-31.5 172t-41.5 130.5t-41.5 103q-19 46 -36.5 105t-31 134t-21.5 168.5t-8 208.5q0 42 15 72t40 49.5t56.5 29t64.5 9.5t64.5 -9.5t56.5 -29t40 -49.5t15 -72v-400z" />
    <glyph glyph-name="Scircumflex" unicode="&#x15c;" horiz-adv-x="448" 
d="M297 2211l59 -346h-102l-30 238l-31 -238h-101l59 346h146zM288 421q0 106 -11 182t-29 132.5t-41 98.5t-47 79t-47 74t-41 84t-29 108.5t-11 147.5v241q0 24 7.5 54.5t28.5 57t58.5 45t97.5 18.5t97.5 -18.5t58.5 -45t28.5 -57t7.5 -54.5v-448h-128v448q0 24 -5.5 39.5
t-14.5 24t-20.5 12t-23.5 3.5t-23.5 -3.5t-20.5 -12t-14.5 -24t-5.5 -39.5v-195q0 -113 19 -189t47.5 -132.5t61.5 -102.5t61.5 -99.5t47.5 -124t19 -175.5v-390q0 -12 -3 -43.5t-21 -64.5t-57 -58.5t-111 -25.5t-111 25.5t-57 58.5t-21 64.5t-3 43.5v576h128v-576
q0 -12 1 -28.5t7 -31.5t19 -25.5t37 -10.5t37 10.5t19 25.5t7 31.5t1 28.5v261z" />
    <glyph glyph-name="scircumflex" unicode="&#x15d;" horiz-adv-x="480" 
d="M313 2020l59 -346h-102l-30 238l-31 -238h-101l59 346h146zM416 992h-128v400q0 36 -15 50t-33 14t-33 -14t-15 -50q0 -107 10 -197t26 -166t36 -138.5t40 -114.5q16 -41 35.5 -95t36.5 -129t28.5 -175t11.5 -233q0 -42 -15 -72.5t-40 -50t-56.5 -28.5t-64.5 -9t-64.5 9
t-56.5 28.5t-40 50t-15 72.5v400h128v-400q0 -36 15 -50t33 -14t33 14t15 50q0 129 -12.5 226.5t-31.5 172t-41.5 130.5t-41.5 103q-19 46 -36.5 105t-31 134t-21.5 168.5t-8 208.5q0 42 15 72t40 49.5t56.5 29t64.5 9.5t64.5 -9.5t56.5 -29t40 -49.5t15 -72v-400z" />
    <glyph glyph-name="Scedilla" unicode="&#x15e;" horiz-adv-x="448" 
d="M113 -427l58 409h106v-409h-164zM288 421q0 106 -11 182t-29 132.5t-41 98.5t-47 79t-47 74t-41 84t-29 108.5t-11 147.5v241q0 24 7.5 54.5t28.5 57t58.5 45t97.5 18.5t97.5 -18.5t58.5 -45t28.5 -57t7.5 -54.5v-448h-128v448q0 24 -5.5 39.5t-14.5 24t-20.5 12
t-23.5 3.5t-23.5 -3.5t-20.5 -12t-14.5 -24t-5.5 -39.5v-195q0 -113 19 -189t47.5 -132.5t61.5 -102.5t61.5 -99.5t47.5 -124t19 -175.5v-390q0 -12 -3 -43.5t-21 -64.5t-57 -58.5t-111 -25.5t-111 25.5t-57 58.5t-21 64.5t-3 43.5v576h128v-576q0 -12 1 -28.5t7 -31.5
t19 -25.5t37 -10.5t37 10.5t19 25.5t7 31.5t1 28.5v261z" />
    <glyph glyph-name="scedilla" unicode="&#x15f;" horiz-adv-x="480" 
d="M129 -411l58 409h106v-409h-164zM416 992h-128v400q0 36 -15 50t-33 14t-33 -14t-15 -50q0 -107 10 -197t26 -166t36 -138.5t40 -114.5q16 -41 35.5 -95t36.5 -129t28.5 -175t11.5 -233q0 -42 -15 -72.5t-40 -50t-56.5 -28.5t-64.5 -9t-64.5 9t-56.5 28.5t-40 50
t-15 72.5v400h128v-400q0 -36 15 -50t33 -14t33 14t15 50q0 129 -12.5 226.5t-31.5 172t-41.5 130.5t-41.5 103q-19 46 -36.5 105t-31 134t-21.5 168.5t-8 208.5q0 42 15 72t40 49.5t56.5 29t64.5 9.5t64.5 -9.5t56.5 -29t40 -49.5t15 -72v-400z" />
    <glyph glyph-name="Scaron" unicode="&#x160;" horiz-adv-x="448" 
d="M151 1865l-58 346h100l30 -237l32 237h101l-60 -346h-145zM288 421q0 106 -11 182t-29 132.5t-41 98.5t-47 79t-47 74t-41 84t-29 108.5t-11 147.5v241q0 24 7.5 54.5t28.5 57t58.5 45t97.5 18.5t97.5 -18.5t58.5 -45t28.5 -57t7.5 -54.5v-448h-128v448q0 24 -5.5 39.5
t-14.5 24t-20.5 12t-23.5 3.5t-23.5 -3.5t-20.5 -12t-14.5 -24t-5.5 -39.5v-195q0 -113 19 -189t47.5 -132.5t61.5 -102.5t61.5 -99.5t47.5 -124t19 -175.5v-390q0 -12 -3 -43.5t-21 -64.5t-57 -58.5t-111 -25.5t-111 25.5t-57 58.5t-21 64.5t-3 43.5v576h128v-576
q0 -12 1 -28.5t7 -31.5t19 -25.5t37 -10.5t37 10.5t19 25.5t7 31.5t1 28.5v261z" />
    <glyph glyph-name="scaron" unicode="&#x161;" horiz-adv-x="480" 
d="M167 1674l-58 346h100l30 -237l32 237h101l-60 -346h-145zM416 992h-128v400q0 36 -15 50t-33 14t-33 -14t-15 -50q0 -107 10 -197t26 -166t36 -138.5t40 -114.5q16 -41 35.5 -95t36.5 -129t28.5 -175t11.5 -233q0 -42 -15 -72.5t-40 -50t-56.5 -28.5t-64.5 -9t-64.5 9
t-56.5 28.5t-40 50t-15 72.5v400h128v-400q0 -36 15 -50t33 -14t33 14t15 50q0 129 -12.5 226.5t-31.5 172t-41.5 130.5t-41.5 103q-19 46 -36.5 105t-31 134t-21.5 168.5t-8 208.5q0 42 15 72t40 49.5t56.5 29t64.5 9.5t64.5 -9.5t56.5 -29t40 -49.5t15 -72v-400z" />
    <glyph glyph-name="Tcommaaccent" unicode="&#x162;" horiz-adv-x="448" 
d="M113 -395l58 409h106v-409h-164zM416 1728v-96h-128v-1632h-128v1632h-128v96h384z" />
    <glyph glyph-name="tcommaaccent" unicode="&#x163;" horiz-adv-x="416" 
d="M97 -395l58 409h106v-409h-164zM400 1536v-96h-128v-1440h-128v1440h-128v96h384z" />
    <glyph glyph-name="Tcaron" unicode="&#x164;" horiz-adv-x="448" 
d="M151 1865l-58 346h100l30 -237l32 237h101l-60 -346h-145zM416 1728v-96h-128v-1632h-128v1632h-128v96h384z" />
    <glyph glyph-name="tcaron" unicode="&#x165;" horiz-adv-x="416" 
d="M519 1550l-32 -352h-96v352h128zM400 1536v-96h-128v-1440h-128v1440h-128v96h384z" />
    <glyph glyph-name="Tbar" unicode="&#x166;" horiz-adv-x="364" 
d="M416 1728v-96h-128v-1632h-128v1632h-128v96h384zM348 1091h-327v105h327v-105z" />
    <glyph glyph-name="tbar" unicode="&#x167;" horiz-adv-x="350" 
d="M400 1536v-96h-128v-1440h-128v1440h-128v96h384zM344 840h-327v105h327v-105z" />
    <glyph glyph-name="Utilde" unicode="&#x168;" 
d="M66 1865q0 34 5.5 63t18 50.5t32 33.5t48.5 12q25 0 43.5 -6.5t36.5 -15t38.5 -15t47.5 -6.5q10 0 16 6.5t9 14.5q5 9 6 22h79q0 -23 -2 -42.5t-8 -36.5q-10 -31 -32.5 -55.5t-67.5 -24.5q-25 0 -46.5 7t-41 15t-38.5 15t-39 7q-9 0 -14.5 -6.5t-8.5 -15.5q-3 -8 -3 -22
h-79zM192 160q0 -12 1 -28.5t7 -31.5t19 -25.5t37 -10.5t37 10.5t19 25.5t7 31.5t1 28.5v1568h128v-1568q0 -12 -3 -43.5t-21 -64.5t-57 -58.5t-111 -25.5t-111 25.5t-57 58.5t-21 64.5t-3 43.5v1568h128v-1568z" />
    <glyph glyph-name="utilde" unicode="&#x169;" horiz-adv-x="480" 
d="M50 1672q0 34 5.5 63t18 50.5t32 33.5t48.5 12q25 0 43.5 -6.5t36.5 -15t38.5 -15t47.5 -6.5q10 0 16 6.5t9 14.5q5 9 6 22h79q0 -23 -2 -42.5t-8 -36.5q-10 -31 -32.5 -55.5t-67.5 -24.5q-25 0 -46.5 7t-41 15t-38.5 15t-39 7q-9 0 -14.5 -6.5t-8.5 -15.5q-3 -8 -3 -22
h-79zM288 1536h128v-1392q0 -42 -15 -72.5t-40 -50t-56.5 -28.5t-64.5 -9t-64.5 9t-56.5 28.5t-40 50t-15 72.5v1392h128v-1392q0 -36 15 -50t33 -14t33 14t15 50v1392z" />
    <glyph glyph-name="Umacron" unicode="&#x16a;" 
d="M419 1865h-327v105h327v-105zM192 160q0 -12 1 -28.5t7 -31.5t19 -25.5t37 -10.5t37 10.5t19 25.5t7 31.5t1 28.5v1568h128v-1568q0 -12 -3 -43.5t-21 -64.5t-57 -58.5t-111 -25.5t-111 25.5t-57 58.5t-21 64.5t-3 43.5v1568h128v-1568z" />
    <glyph glyph-name="umacron" unicode="&#x16b;" horiz-adv-x="480" 
d="M403 1672h-327v105h327v-105zM288 1536h128v-1392q0 -42 -15 -72.5t-40 -50t-56.5 -28.5t-64.5 -9t-64.5 9t-56.5 28.5t-40 50t-15 72.5v1392h128v-1392q0 -36 15 -50t33 -14t33 14t15 50v1392z" />
    <glyph glyph-name="Ubreve" unicode="&#x16c;" 
d="M258 1865q-103 0 -148.5 52.5t-45.5 171.5h101q0 -36 7 -57.5t19 -33t28.5 -15t35.5 -3.5q21 0 38 3.5t29 15t18.5 33t6.5 57.5h101q0 -119 -45 -171.5t-145 -52.5zM192 160q0 -12 1 -28.5t7 -31.5t19 -25.5t37 -10.5t37 10.5t19 25.5t7 31.5t1 28.5v1568h128v-1568
q0 -12 -3 -43.5t-21 -64.5t-57 -58.5t-111 -25.5t-111 25.5t-57 58.5t-21 64.5t-3 43.5v1568h128v-1568z" />
    <glyph glyph-name="ubreve" unicode="&#x16d;" horiz-adv-x="480" 
d="M242 1672q-103 0 -148.5 52.5t-45.5 171.5h101q0 -36 7 -57.5t19 -33t28.5 -15t35.5 -3.5q21 0 38 3.5t29 15t18.5 33t6.5 57.5h101q0 -119 -45 -171.5t-145 -52.5zM288 1536h128v-1392q0 -42 -15 -72.5t-40 -50t-56.5 -28.5t-64.5 -9t-64.5 9t-56.5 28.5t-40 50
t-15 72.5v1392h128v-1392q0 -36 15 -50t33 -14t33 14t15 50v1392z" />
    <glyph glyph-name="Uring" unicode="&#x16e;" 
d="M113 2005q0 30 11 56t30 45t45 30t56 11q63 0 103 -40t40 -102q0 -29 -11 -54.5t-30 -44.5t-45 -30t-57 -11q-30 0 -56 11t-45 30t-30 44.5t-11 54.5zM192 2006q0 -26 18 -44.5t45 -18.5q29 0 47 18.5t18 44.5q0 28 -18 45.5t-47 17.5q-27 0 -45 -17.5t-18 -45.5z
M192 160q0 -12 1 -28.5t7 -31.5t19 -25.5t37 -10.5t37 10.5t19 25.5t7 31.5t1 28.5v1568h128v-1568q0 -12 -3 -43.5t-21 -64.5t-57 -58.5t-111 -25.5t-111 25.5t-57 58.5t-21 64.5t-3 43.5v1568h128v-1568z" />
    <glyph glyph-name="uring" unicode="&#x16f;" horiz-adv-x="480" 
d="M97 1812q0 30 11 56t30 45t45 30t56 11q63 0 103 -40t40 -102q0 -29 -11 -54.5t-30 -44.5t-45 -30t-57 -11q-30 0 -56 11t-45 30t-30 44.5t-11 54.5zM176 1813q0 -26 18 -44.5t45 -18.5q29 0 47 18.5t18 44.5q0 28 -18 45.5t-47 17.5q-27 0 -45 -17.5t-18 -45.5z
M288 1536h128v-1392q0 -42 -15 -72.5t-40 -50t-56.5 -28.5t-64.5 -9t-64.5 9t-56.5 28.5t-40 50t-15 72.5v1392h128v-1392q0 -36 15 -50t33 -14t33 14t15 50v1392z" />
    <glyph glyph-name="Uhungarumlaut" unicode="&#x170;" 
d="M424 2275l-190 -410h-101l133 410h158zM621 2275l-241 -410h-101l184 410h158zM192 160q0 -12 1 -28.5t7 -31.5t19 -25.5t37 -10.5t37 10.5t19 25.5t7 31.5t1 28.5v1568h128v-1568q0 -12 -3 -43.5t-21 -64.5t-57 -58.5t-111 -25.5t-111 25.5t-57 58.5t-21 64.5t-3 43.5
v1568h128v-1568z" />
    <glyph glyph-name="uhungarumlaut" unicode="&#x171;" horiz-adv-x="480" 
d="M408 2082l-190 -410h-101l133 410h158zM605 2082l-241 -410h-101l184 410h158zM288 1536h128v-1392q0 -42 -15 -72.5t-40 -50t-56.5 -28.5t-64.5 -9t-64.5 9t-56.5 28.5t-40 50t-15 72.5v1392h128v-1392q0 -36 15 -50t33 -14t33 14t15 50v1392z" />
    <glyph glyph-name="Uogonek" unicode="&#x172;" horiz-adv-x="449" 
d="M192 160q0 -12 1 -28.5t7 -31.5t19 -25.5t37 -10.5t37 10.5t19 25.5t7 31.5t1 28.5v1568h128v-1568q0 -12 -3 -43.5t-21 -64.5t-57 -58.5t-111 -25.5t-111 25.5t-57 58.5t-21 64.5t-3 43.5v1568h128v-1568zM328 -283q-38 0 -67.5 12t-50 32.5t-31.5 48.5t-11 60
q0 57 73 130h50q-13 -20 -20 -40q-7 -17 -12.5 -38t-5.5 -42q0 -38 19.5 -58.5t62.5 -20.5q24 0 44 6t36 13q10 5 18.5 9.5t17.5 10.5v-72q-16 -16 -32 -26q-16 -9 -38 -17t-53 -8z" />
    <glyph glyph-name="uogonek" unicode="&#x173;" horiz-adv-x="439" 
d="M288 1536h128v-1392q0 -42 -15 -72.5t-40 -50t-56.5 -28.5t-64.5 -9t-64.5 9t-56.5 28.5t-40 50t-15 72.5v1392h128v-1392q0 -36 15 -50t33 -14t33 14t15 50v1392zM317 -283q-38 0 -67.5 12t-50 32.5t-31.5 48.5t-11 60q0 57 73 130h50q-13 -20 -20 -40q-7 -17 -12.5 -38
t-5.5 -42q0 -38 19.5 -58.5t62.5 -20.5q24 0 44 6t36 13q10 5 18.5 9.5t17.5 10.5v-72q-16 -16 -32 -26q-16 -9 -38 -17t-53 -8z" />
    <glyph glyph-name="Wcircumflex" unicode="&#x174;" horiz-adv-x="704" 
d="M425 2211l59 -346h-102l-30 238l-31 -238h-101l59 346h146zM352 1472l-32 -480l-64 -992h-128l-96 1728h128l32 -1216l96 1216h128l96 -1216l32 1216h128l-96 -1728h-128l-64 992z" />
    <glyph glyph-name="Ycircumflex" unicode="&#x176;" horiz-adv-x="448" 
d="M297 2211l59 -346h-102l-30 238l-31 -238h-101l59 346h146zM192 1280l32 -448l32 448l32 448h128l-128 -1120v-608h-128v608l-128 1120h128z" />
    <glyph glyph-name="ycircumflex" unicode="&#x177;" horiz-adv-x="448" 
d="M297 2018l59 -346h-102l-30 238l-31 -238h-101l59 346h146zM256 1152l32 384h128l-128 -1024v-512h-128v512l-128 1024h128l32 -384l32 -416z" />
    <glyph glyph-name="Ydieresis" unicode="&#x178;" horiz-adv-x="448" 
d="M397 2024v-159h-143v159h143zM196 2024v-159h-145v159h145zM192 1280l32 -448l32 448l32 448h128l-128 -1120v-608h-128v608l-128 1120h128z" />
    <glyph glyph-name="Zacute" unicode="&#x179;" horiz-adv-x="352" 
d="M416 2281l-192 -416h-96l128 416h160zM320 1728l-160 -1632h160v-96h-288l160 1632h-160v96h288z" />
    <glyph glyph-name="zacute" unicode="&#x17a;" horiz-adv-x="320" 
d="M400 2088l-192 -416h-96l128 416h160zM288 1536l-120 -1440h120v-96h-256l128 1440h-128v96h256z" />
    <glyph glyph-name="Zdotaccent" unicode="&#x17b;" horiz-adv-x="352" 
d="M267 2050v-185h-182v185h182zM320 1728l-160 -1632h160v-96h-288l160 1632h-160v96h288z" />
    <glyph glyph-name="zdotaccent" unicode="&#x17c;" horiz-adv-x="320" 
d="M251 1857v-185h-182v185h182zM288 1536l-120 -1440h120v-96h-256l128 1440h-128v96h256z" />
    <glyph glyph-name="Zcaron" unicode="&#x17d;" horiz-adv-x="352" 
d="M103 1865l-58 346h100l30 -237l32 237h101l-60 -346h-145zM320 1728l-160 -1632h160v-96h-288l160 1632h-160v96h288z" />
    <glyph glyph-name="zcaron" unicode="&#x17e;" horiz-adv-x="320" 
d="M87 1672l-58 346h100l30 -237l32 237h101l-60 -346h-145zM288 1536l-120 -1440h120v-96h-256l128 1440h-128v96h256z" />
    <glyph glyph-name="florin" unicode="&#x192;" horiz-adv-x="439" 
d="M443 1422h-166l-49 -558h120l-10 -105h-119l-66 -759h-129l133 1520h294z" />
    <glyph glyph-name="uni01CD" unicode="&#x1cd;" horiz-adv-x="448" 
d="M151 1865l-58 346h100l30 -237l32 237h101l-60 -346h-145zM416 0h-128l-16 416h-95l-17 -416h-128l96 1728h192zM256 896l-32 768l-32 -768l-15 -384h95z" />
    <glyph glyph-name="uni01CE" unicode="&#x1ce;" horiz-adv-x="448" 
d="M151 1672l-58 346h100l30 -237l32 237h101l-60 -346h-145zM416 0h-128l-20 332h-89l-19 -332h-128l128 1536h128zM261 436l-37 780l-38 -780h75z" />
    <glyph glyph-name="uni01CF" unicode="&#x1cf;" horiz-adv-x="288" 
d="M71 1865l-58 346h100l30 -237l32 237h101l-60 -346h-145zM208 1728v-1728h-128v1728h128z" />
    <glyph glyph-name="uni01D0" unicode="&#x1d0;" horiz-adv-x="292" 
d="M73 1672l-58 346h100l30 -237l32 237h101l-60 -346h-145zM213 1520v-1520h-134v1520h134z" />
    <glyph glyph-name="uni01D1" unicode="&#x1d1;" 
d="M183 1865l-58 346h100l30 -237l32 237h101l-60 -346h-145zM448 160q0 -12 -3 -43.5t-21 -64.5t-57 -58.5t-111 -25.5t-111 25.5t-57 58.5t-21 64.5t-3 43.5v1408q0 8 1 24t6 35.5t17 40t33 37.5t54 27.5t81 10.5t81 -10.5t54 -27.5t33 -37.5t17 -40t6 -35.5t1 -24v-1408z
M192 160q0 -12 1 -28.5t7 -31.5t19 -25.5t37 -10.5t37 10.5t19 25.5t7 31.5t1 28.5v1408q0 12 -1 26t-7 25.5t-19 19.5t-37 8t-37 -8t-19 -19.5t-7 -25.5t-1 -26v-1408z" />
    <glyph glyph-name="uni01D2" unicode="&#x1d2;" 
d="M191 1672l-58 346h100l30 -237l32 237h101l-60 -346h-145zM448 144q0 -42 -15.5 -72.5t-41.5 -50.5t-59 -29.5t-68 -9.5q-37 0 -73 10.5t-64 31t-45.5 51t-17.5 69.5v1248q0 38 17.5 67.5t46 49.5t64.5 30.5t73 10.5q35 0 68 -9.5t58.5 -29t41 -49.5t15.5 -70v-1248z
M320 1392q0 34 -16.5 48.5t-38.5 14.5q-13 0 -26 -4.5t-23.5 -13t-17 -20t-6.5 -25.5v-1248q0 -14 6.5 -26t17 -20t23 -12.5t25.5 -4.5q22 0 39 14.5t17 48.5v1248z" />
    <glyph glyph-name="uni01D3" unicode="&#x1d3;" 
d="M183 1865l-58 346h100l30 -237l32 237h101l-60 -346h-145zM192 160q0 -12 1 -28.5t7 -31.5t19 -25.5t37 -10.5t37 10.5t19 25.5t7 31.5t1 28.5v1568h128v-1568q0 -12 -3 -43.5t-21 -64.5t-57 -58.5t-111 -25.5t-111 25.5t-57 58.5t-21 64.5t-3 43.5v1568h128v-1568z" />
    <glyph glyph-name="uni01D4" unicode="&#x1d4;" horiz-adv-x="480" 
d="M167 1672l-58 346h100l30 -237l32 237h101l-60 -346h-145zM288 1536h128v-1392q0 -42 -15 -72.5t-40 -50t-56.5 -28.5t-64.5 -9t-64.5 9t-56.5 28.5t-40 50t-15 72.5v1392h128v-1392q0 -36 15 -50t33 -14t33 14t15 50v1392z" />
    <glyph glyph-name="circumflex" unicode="&#x2c6;" horiz-adv-x="326" 
d="M236 430l59 -346h-102l-30 238l-31 -238h-101l59 346h146z" />
    <glyph glyph-name="caron" unicode="&#x2c7;" horiz-adv-x="326" 
d="M91 84l-58 346h100l30 -237l32 237h101l-60 -346h-145z" />
    <glyph glyph-name="breve" unicode="&#x2d8;" horiz-adv-x="326" 
d="M166 84q-103 0 -148.5 52.5t-45.5 171.5h101q0 -36 7 -57.5t19 -33t28.5 -15t35.5 -3.5q21 0 38 3.5t29 15t18.5 33t6.5 57.5h101q0 -119 -45 -171.5t-145 -52.5z" />
    <glyph glyph-name="dotaccent" unicode="&#x2d9;" horiz-adv-x="254" 
d="M237 284v-185h-182v185h182z" />
    <glyph glyph-name="ring" unicode="&#x2da;" horiz-adv-x="326" 
d="M33 206q0 30 11 56t30 45t45 30t56 11q63 0 103 -40t40 -102q0 -29 -11 -54.5t-30 -44.5t-45 -30t-57 -11q-30 0 -56 11t-45 30t-30 44.5t-11 54.5zM112 207q0 -26 18 -44.5t45 -18.5q29 0 47 18.5t18 44.5q0 28 -18 45.5t-47 17.5q-27 0 -45 -17.5t-18 -45.5z" />
    <glyph glyph-name="ogonek" unicode="&#x2db;" horiz-adv-x="326" 
d="M223 -283q-38 0 -67.5 12t-50 32.5t-31.5 48.5t-11 60q0 57 73 130h50q-13 -20 -20 -40q-7 -17 -12.5 -38t-5.5 -42q0 -38 19.5 -58.5t62.5 -20.5q24 0 44 6t36 13q10 5 18.5 9.5t17.5 10.5v-72q-16 -16 -32 -26q-16 -9 -38 -17t-53 -8z" />
    <glyph glyph-name="tilde" unicode="&#x2dc;" horiz-adv-x="326" 
d="M-15 101q0 34 5.5 63t18 50.5t32 33.5t48.5 12q25 0 43.5 -6.5t36.5 -15t38.5 -15t47.5 -6.5q10 0 16 6.5t9 14.5q5 9 6 22h79q0 -23 -2 -42.5t-8 -36.5q-10 -31 -32.5 -55.5t-67.5 -24.5q-25 0 -46.5 7t-41 15t-38.5 15t-39 7q-9 0 -14.5 -6.5t-8.5 -15.5q-3 -8 -3 -22
h-79z" />
    <glyph glyph-name="hungarumlaut" unicode="&#x2dd;" horiz-adv-x="652" 
d="M338 494l-190 -410h-101l133 410h158zM535 494l-241 -410h-101l184 410h158z" />
    <glyph glyph-name="Delta" unicode="&#x394;" horiz-adv-x="436" 
d="M412 0h-388l99 1761h190zM278 114l-61 1361l-61 -1361h122z" />
    <glyph glyph-name="Delta" unicode="&#x2206;" horiz-adv-x="436" 
d="M412 0h-388l99 1761h190zM278 114l-61 1361l-61 -1361h122z" />
    <glyph glyph-name="Omega" unicode="&#x3a9;" horiz-adv-x="513" 
d="M259 1680q-22 0 -32.5 -9t-15 -24.5t-4.5 -36.5v-47v-1141q0 -85 4.5 -143.5t9.5 -97.5q6 -44 15 -74v-107h-206v107h100q-16 29 -30 74q-12 39 -21 97.5t-9 142.5v1142q0 37 5.5 76t25 70.5t57 52t101.5 20.5q63 0 100.5 -20.5t57 -52t25.5 -70.5t6 -76v-1142
q0 -84 -9.5 -142.5t-20.5 -97.5q-14 -45 -30 -74h96v-107h-202v107q4 15 7.5 33.5t6.5 40.5q5 39 9.5 97.5t4.5 143.5v1141v47q0 21 -4 36.5t-15 24.5t-32 9z" />
    <glyph glyph-name="Omega" unicode="&#x2126;" horiz-adv-x="513" 
d="M259 1680q-22 0 -32.5 -9t-15 -24.5t-4.5 -36.5v-47v-1141q0 -85 4.5 -143.5t9.5 -97.5q6 -44 15 -74v-107h-206v107h100q-16 29 -30 74q-12 39 -21 97.5t-9 142.5v1142q0 37 5.5 76t25 70.5t57 52t101.5 20.5q63 0 100.5 -20.5t57 -52t25.5 -70.5t6 -76v-1142
q0 -84 -9.5 -142.5t-20.5 -97.5q-14 -45 -30 -74h96v-107h-202v107q4 15 7.5 33.5t6.5 40.5q5 39 9.5 97.5t4.5 143.5v1141v47q0 21 -4 36.5t-15 24.5t-32 9z" />
    <glyph glyph-name="pi" unicode="&#x3c0;" horiz-adv-x="292" 
d="M213 1517v-1517h-134v1517h134z" />
    <glyph glyph-name="uni045D" unicode="&#x45d;" horiz-adv-x="0" 
d="M213 512l128 -416h-96l-192 416h160z" />
    <glyph glyph-name="uni1E44" unicode="&#x1e44;" 
d="M347 2050v-185h-182v185h182zM448 0h-128l-160 1280v-1280h-96v1728h128l160 -1280v1280h96v-1728z" />
    <glyph glyph-name="uni1E60" unicode="&#x1e60;" horiz-adv-x="448" 
d="M315 2050v-185h-182v185h182zM288 421q0 106 -11 182t-29 132.5t-41 98.5t-47 79t-47 74t-41 84t-29 108.5t-11 147.5v241q0 24 7.5 54.5t28.5 57t58.5 45t97.5 18.5t97.5 -18.5t58.5 -45t28.5 -57t7.5 -54.5v-448h-128v448q0 24 -5.5 39.5t-14.5 24t-20.5 12t-23.5 3.5
t-23.5 -3.5t-20.5 -12t-14.5 -24t-5.5 -39.5v-195q0 -113 19 -189t47.5 -132.5t61.5 -102.5t61.5 -99.5t47.5 -124t19 -175.5v-390q0 -12 -3 -43.5t-21 -64.5t-57 -58.5t-111 -25.5t-111 25.5t-57 58.5t-21 64.5t-3 43.5v576h128v-576q0 -12 1 -28.5t7 -31.5t19 -25.5
t37 -10.5t37 10.5t19 25.5t7 31.5t1 28.5v261z" />
    <glyph glyph-name="Wgrave" unicode="&#x1e80;" horiz-adv-x="704" 
d="M272 2281l128 -416h-96l-192 416h160zM352 1472l-32 -480l-64 -992h-128l-96 1728h128l32 -1216l96 1216h128l96 -1216l32 1216h128l-96 -1728h-128l-64 992z" />
    <glyph glyph-name="Wacute" unicode="&#x1e82;" horiz-adv-x="704" 
d="M592 2281l-192 -416h-96l128 416h160zM352 1472l-32 -480l-64 -992h-128l-96 1728h128l32 -1216l96 1216h128l96 -1216l32 1216h128l-96 -1728h-128l-64 992z" />
    <glyph glyph-name="wacute" unicode="&#x1e83;" horiz-adv-x="640" 
d="M560 2088l-192 -416h-96l128 416h160zM448 191v641l32 704h128l-96 -1536h-128l-32 608l-32 672l-32 -672l-32 -608h-128l-96 1536h128l32 -704v-641l32 641l32 704h128l32 -704z" />
    <glyph glyph-name="Wdieresis" unicode="&#x1e84;" horiz-adv-x="704" 
d="M525 2024v-159h-143v159h143zM324 2024v-159h-145v159h145zM352 1472l-32 -480l-64 -992h-128l-96 1728h128l32 -1216l96 1216h128l96 -1216l32 1216h128l-96 -1728h-128l-64 992z" />
    <glyph glyph-name="wdieresis" unicode="&#x1e85;" horiz-adv-x="640" 
d="M493 1831v-159h-143v159h143zM292 1831v-159h-145v159h145zM448 191v641l32 704h128l-96 -1536h-128l-32 608l-32 672l-32 -672l-32 -608h-128l-96 1536h128l32 -704v-641l32 641l32 704h128l32 -704z" />
    <glyph glyph-name="uni1E86" unicode="&#x1e86;" horiz-adv-x="704" 
d="M443 2050v-185h-182v185h182zM352 1472l-32 -480l-64 -992h-128l-96 1728h128l32 -1216l96 1216h128l96 -1216l32 1216h128l-96 -1728h-128l-64 992z" />
    <glyph glyph-name="uni1E8E" unicode="&#x1e8e;" horiz-adv-x="448" 
d="M315 2050v-185h-182v185h182zM192 1280l32 -448l32 448l32 448h128l-128 -1120v-608h-128v608l-128 1120h128z" />
    <glyph glyph-name="uni1E9E" unicode="&#x1e9e;" horiz-adv-x="0" 
 />
    <glyph glyph-name="uni1EBD" unicode="&#x1ebd;" horiz-adv-x="352" 
d="M2 1672q0 34 5.5 63t18 50.5t32 33.5t48.5 12q25 0 43.5 -6.5t36.5 -15t38.5 -15t47.5 -6.5q10 0 16 6.5t9 14.5q5 9 6 22h79q0 -23 -2 -42.5t-8 -36.5q-10 -31 -32.5 -55.5t-67.5 -24.5q-25 0 -46.5 7t-41 15t-38.5 15t-39 7q-9 0 -14.5 -6.5t-8.5 -15.5q-3 -8 -3 -22
h-79zM320 1440h-128v-576h128v-96h-128v-672h128v-96h-256v1536h256v-96z" />
    <glyph glyph-name="Ygrave" unicode="&#x1ef2;" horiz-adv-x="448" 
d="M144 2281l128 -416h-96l-192 416h160zM192 1280l32 -448l32 448l32 448h128l-128 -1120v-608h-128v608l-128 1120h128z" />
    <glyph glyph-name="ygrave" unicode="&#x1ef3;" horiz-adv-x="448" 
d="M144 2088l128 -416h-96l-192 416h160zM256 1152l32 384h128l-128 -1024v-512h-128v512l-128 1024h128l32 -384l32 -416z" />
    <glyph glyph-name="uni1EF8" unicode="&#x1ef8;" horiz-adv-x="448" 
d="M34 1865q0 34 5.5 63t18 50.5t32 33.5t48.5 12q25 0 43.5 -6.5t36.5 -15t38.5 -15t47.5 -6.5q10 0 16 6.5t9 14.5q5 9 6 22h79q0 -23 -2 -42.5t-8 -36.5q-10 -31 -32.5 -55.5t-67.5 -24.5q-25 0 -46.5 7t-41 15t-38.5 15t-39 7q-9 0 -14.5 -6.5t-8.5 -15.5q-3 -8 -3 -22
h-79zM192 1280l32 -448l32 448l32 448h128l-128 -1120v-608h-128v608l-128 1120h128z" />
    <glyph glyph-name="endash" unicode="&#x2013;" horiz-adv-x="691" 
d="M668 750h-645v135h645v-135z" />
    <glyph glyph-name="emdash" unicode="&#x2014;" horiz-adv-x="691" 
d="M668 750h-645v135h645v-135z" />
    <glyph glyph-name="quoteleft" unicode="&#x2018;" horiz-adv-x="488" 
d="M7 1403l74 360h85v-360h-159z" />
    <glyph glyph-name="quoteright" unicode="&#x2019;" horiz-adv-x="488" 
d="M400 1761l-74 -359h-84l-1 359h159z" />
    <glyph glyph-name="quotesinglbase" unicode="&#x201a;" horiz-adv-x="488" 
d="M7 0l74 360h85v-360h-159z" />
    <glyph glyph-name="quotedblleft" unicode="&#x201c;" horiz-adv-x="488" 
d="M226 1403l74 360h84l1 -360h-159zM7 1403l74 360h85v-360h-159z" />
    <glyph glyph-name="quotedblright" unicode="&#x201d;" horiz-adv-x="488" 
d="M181 1761l-73 -359h-85l-2 359h160zM400 1761l-74 -359h-84l-1 359h159z" />
    <glyph glyph-name="quotedblbase" unicode="&#x201e;" horiz-adv-x="488" 
d="M400 360l-74 -360h-84l-1 360h159z" />
    <glyph glyph-name="dagger" unicode="&#x2020;" horiz-adv-x="350" 
d="M114 1104v220h126v-220h108v-99h-110v-869h-126v869h-112v99h114z" />
    <glyph glyph-name="daggerdbl" unicode="&#x2021;" horiz-adv-x="659" 
d="M24 655h240v597h-240v130h240v379h133v-379h238v-130h-238v-597h238v-130h-238v-525h-133v525h-240v130z" />
    <glyph glyph-name="bullet" unicode="&#x2022;" horiz-adv-x="458" 
d="M406 683q0 -31 -14.5 -58.5t-38.5 -48t-56 -32.5t-67 -12q-37 0 -69.5 12t-56.5 33.5t-38 50t-14 61.5v470q0 32 14 60t38 49t56.5 33t69.5 12q35 0 67 -11t56 -31.5t38.5 -48t14.5 -60.5v-479z" />
    <glyph glyph-name="ellipsis" unicode="&#x2026;" horiz-adv-x="918" 
d="M852 160v-160h-160v160h160zM520 160v-160h-160v160h160zM192 160v-160h-160v160h160z" />
    <glyph glyph-name="perthousand" unicode="&#x2030;" horiz-adv-x="280" 
d="M324 1761l-189 -1761h-134l189 1761h134z" />
    <glyph glyph-name="guilsinglleft" unicode="&#x2039;" horiz-adv-x="342" 
d="M303 1460v-284l-147 -295l147 -273v-307l-283 580z" />
    <glyph glyph-name="guilsinglright" unicode="&#x203a;" horiz-adv-x="720" 
d="M193.056 1460v-284l146.973 -295l-146.973 -273v-307l282.948 580z" />
    <glyph glyph-name="fraction" unicode="&#x2044;" horiz-adv-x="324" 
d="M324 1761l-189 -1761h-134l189 1761h134z" />
    <glyph glyph-name="Euro" unicode="&#x20ac;" horiz-adv-x="538" 
d="M500 1030h-226v-54h211l-12 -106h-199v-743q0 -16 15 -27.5t35 -11.5q19 0 33.5 11.5t14.5 27.5v494h135v-494q0 -32 -13 -59t-37 -46.5t-58 -31t-75 -11.5q-38 0 -71.5 12t-58.5 32t-39 47.5t-14 59.5v740h-153v106h153v54h-150v107h150v497q0 32 13.5 59.5t38 47.5
t58 31.5t74.5 11.5q40 0 73.5 -11.5t57.5 -31t37.5 -46.5t13.5 -57v-290h-135v280q0 16 -14 27.5t-33 11.5q-23 0 -37 -11.5t-14 -27.5v-491h238z" />
    <glyph glyph-name="afii61352" unicode="&#x2116;" horiz-adv-x="937" 
d="M424 0h-135l-100 982v-982h-134v1761h132l111 -1023v1023h126v-1761zM885 130q0 -31 -14.5 -58.5t-38.5 -48t-56 -32.5t-66 -12q-36 0 -68.5 12t-57 33t-39 49.5t-14.5 61.5v1256q0 31 14.5 59t39 49t57 33.5t68.5 12.5q34 0 66 -11.5t56 -31.5t38.5 -48t14.5 -61v-1263z
M746 1415q0 15 -10.5 25t-25.5 10q-17 0 -29 -10t-12 -25v-1306q0 -8 10.5 -19.5t30.5 -11.5q15 0 25.5 9t10.5 22v1306z" />
    <glyph glyph-name="trademark" unicode="&#x2122;" horiz-adv-x="958" 
d="M776 1761h136v-981h-135v526l-80 -526h-60l-82 526v-526h-136v981h137l111 -572zM388 1761v-117h-115v-864h-135v864h-114v117h364z" />
    <glyph glyph-name="partialdiff" unicode="&#x2202;" horiz-adv-x="448" 
d="M36 789q0 85 56.5 119t167.5 34v818h135v-1600q0 -38 -14 -67.5t-38 -50.5t-57 -32t-72 -11q-37 0 -69.5 11t-56.5 31.5t-38 50t-14 67.5v630zM175 148q0 -22 12.5 -33.5t29.5 -11.5t30 11.5t13 35.5v676q-46 0 -65.5 -8t-19.5 -35v-635z" />
    <glyph glyph-name="product" unicode="&#x220f;" horiz-adv-x="1474" 
d="M932 1151q0 -38 -16.5 -63.5t-44 -42t-64 -24t-76.5 -9.5v-464h-130v1033h167q34 0 64 -10t52 -27.5t35 -41t13 -50.5v-301zM803 1452q0 17 -17.5 23.5t-51.5 6.5v-363q37 0 53 6t16 22v305zM24 1068q0 98 25.5 189t72 170.5t111.5 144.5t144.5 111.5t170.5 72t189 25.5
t189 -25.5t170 -72t144.5 -111.5t112 -144.5t72 -170.5t25.5 -189t-25.5 -189t-72 -170t-112 -144.5t-144.5 -112t-170 -72t-189 -25.5t-189 25.5t-170.5 72t-144.5 112t-111.5 144.5t-72 170t-25.5 189zM156 1068q0 -122 45 -229.5t123.5 -187.5t184.5 -126.5t228 -46.5
q81 0 155.5 21t139 59.5t117.5 92.5t90.5 119.5t58 140.5t20.5 157q0 81 -20.5 156t-58 141t-90.5 119.5t-117.5 92.5t-139 60t-155.5 21q-82 0 -156.5 -21t-139 -60t-117 -92.5t-90 -119.5t-58 -141t-20.5 -156z" />
    <glyph glyph-name="summation" unicode="&#x2211;" horiz-adv-x="362" 
d="M352 1644h-180l53 -648h128v-120h-128l-53 -764h180v-112h-313l62 932l-62 829h313v-117z" />
    <glyph glyph-name="minus" unicode="&#x2212;" horiz-adv-x="488" 
d="M445 750h-404v135h404v-135z" />
    <glyph glyph-name="radical" unicode="&#x221a;" horiz-adv-x="536" 
d="M256 888l60 -575l57 1448h141l-95 -1761h-194l-95 808h-130v80h256z" />
    <glyph glyph-name="infinity" unicode="&#x221e;" horiz-adv-x="743" 
d="M728 854q0 -47 -10.5 -89.5t-31 -74.5t-51.5 -51.5t-72 -19.5q-45 0 -80 26t-65 64q-12 15 -23 31.5t-22 33.5q-11 -17 -22 -33.5t-23 -31.5q-30 -38 -66 -64t-82 -26q-42 0 -73.5 19.5t-51.5 51.5t-30 74.5t-10 89.5q0 46 10 88t30 74t51.5 51.5t73.5 19.5q46 0 82 -26
t66 -64q12 -16 23 -32t22 -33q11 17 22 33t23 32q30 38 65 64t80 26q41 0 72 -19.5t51.5 -51.5t31 -74t10.5 -88zM312 876q-26 39 -54 65t-65 26q-26 0 -43 -9t-26.5 -24.5t-13 -36t-3.5 -43.5t3.5 -44t13 -36.5t26.5 -24.5t43 -9q37 0 65 25.5t54 64.5l16 22zM408 852
l16 -22q26 -39 54.5 -64.5t64.5 -25.5q26 0 43 9t26.5 24.5t13 36.5t3.5 44t-3.5 43.5t-13 36t-26.5 24.5t-43 9q-36 0 -64.5 -26t-54.5 -65z" />
    <glyph glyph-name="integral" unicode="&#x222b;" horiz-adv-x="433" 
d="M443 1422h-166l-49 -558h120l-10 -105h-119l-66 -759h-129l133 1520h294z" />
    <glyph glyph-name="approxequal" unicode="&#x2248;" horiz-adv-x="701" 
d="M24 795q0 33 5 62t16 50.5t30 34t48 12.5q16 0 51 -3.5t79.5 -8t94 -10.5t95 -10.5t82 -8t54.5 -3.5q10 0 16 7t8 15q4 11 5 22h67q5 -47 -6 -80q-8 -32 -30 -55.5t-66 -23.5q-17 0 -53.5 3.5t-82.5 8t-97 10.5t-95.5 10.5t-78.5 8t-46 3.5q-11 0 -16 -7t-8 -16
q-3 -8 -3 -21h-69zM24 599q0 34 5 63t16 50.5t30 34t48 12.5q16 0 51 -3t79.5 -8t94 -10.5t95 -10.5t82 -8t54.5 -3q10 0 16 6t8 15q4 11 5 22h67q2 -47 -9 -80q-6 -15 -14 -29t-19 -25.5t-27.5 -18.5t-38.5 -7q-17 0 -53 3.5t-81.5 8.5t-95 10.5t-93.5 10.5t-77.5 8.5
t-46.5 3.5q-11 0 -16 -7t-8 -16q-3 -8 -3 -22h-69z" />
    <glyph glyph-name="notequal" unicode="&#x2260;" horiz-adv-x="752" 
d="M574 512h-512v128h512v-128zM574 736h-512v128h512v-128z" />
    <glyph glyph-name="lessequal" unicode="&#x2264;" horiz-adv-x="425" 
d="M401 1340v-260l-190 -199l190 -177v-265l-386 442zM23 389h377v-146h-377v146z" />
    <glyph glyph-name="greaterequal" unicode="&#x2265;" horiz-adv-x="425" 
d="M409 881l-385 -442v265l190 177l-190 199v260zM402 243h-377v146h377v-146z" />
    <glyph glyph-name="lozenge" unicode="&#x25ca;" horiz-adv-x="458" 
d="M406 130q0 -31 -14.5 -58.5t-38.5 -48t-56 -32.5t-67 -12q-37 0 -69.5 12t-56.5 33t-38 49.5t-14 61.5v1496q0 32 14 59.5t38 48t56.5 32.5t69.5 12q35 0 67 -11.5t56 -31.5t38.5 -47.5t14.5 -60.5v-1502zM338 994q-2 -7 -4.5 -35t-6 -65.5t-7.5 -80t-8.5 -77.5
t-10.5 -57.5t-12 -21.5q3 62 3 119.5t-2.5 106t-5.5 86.5t-6 61l-5 35l-1 -47q-1 -46 -4 -113t-9 -148q-4 -41 -7.5 -77.5t-8.5 -68.5q-12 33 -19 73.5t-11.5 82.5t-6 84t-1 79.5t1.5 67t3 47.5l1 23q-15 -29 -22 -76t-9.5 -109.5t-0.5 -138t5 -159.5q-18 33 -28.5 87
t-16.5 113t-10.5 113t-11.5 87l21 -837q0 -37 21 -63.5t71 -26.5q24 0 40 7.5t25.5 19.5t14 26t6.5 28z" />
    <glyph glyph-name="uniFB01" unicode="&#xfb01;" horiz-adv-x="648" 
d="M416 1440h-160v-576h128v-96h-128v-768h-128v1536h288v-96zM585 1536v-1536h-128v1536h128z" />
    <glyph glyph-name="uniFB02" unicode="&#xfb02;" horiz-adv-x="667" 
d="M416 1440h-160v-576h128v-96h-128v-768h-128v1536h288v-96zM547 1536v-1440h128v-96h-256v1536h128z" />
    <glyph glyph-name="NULL" horiz-adv-x="0" 
 />
    <glyph glyph-name="NUL" horiz-adv-x="0" 
 />
    <glyph glyph-name="HT" horiz-adv-x="0" 
 />
    <glyph glyph-name="LF" horiz-adv-x="0" 
 />
    <glyph glyph-name="DLE" horiz-adv-x="0" 
 />
    <glyph glyph-name="DC1" horiz-adv-x="0" 
 />
    <glyph glyph-name="DC2" horiz-adv-x="0" 
 />
    <glyph glyph-name="DC3" horiz-adv-x="0" 
 />
    <glyph glyph-name="DC4" horiz-adv-x="0" 
 />
    <glyph glyph-name="RS" horiz-adv-x="0" 
 />
    <glyph glyph-name="US" horiz-adv-x="0" 
 />
    <glyph glyph-name="DEL" horiz-adv-x="0" 
 />
    <glyph glyph-name="apple" horiz-adv-x="458" 
d="M406 130q0 -31 -14.5 -58.5t-38.5 -48t-56 -32.5t-67 -12q-37 0 -69.5 12t-56.5 33t-38 49.5t-14 61.5v1496q0 32 14 59.5t38 48t56.5 32.5t69.5 12q35 0 67 -11.5t56 -31.5t38.5 -47.5t14.5 -60.5v-1502zM338 994q-2 -7 -4.5 -35t-6 -65.5t-7.5 -80t-8.5 -77.5
t-10.5 -57.5t-12 -21.5q3 62 3 119.5t-2.5 106t-5.5 86.5t-6 61l-5 35l-1 -47q-1 -46 -4 -113t-9 -148q-4 -41 -7.5 -77.5t-8.5 -68.5q-12 33 -19 73.5t-11.5 82.5t-6 84t-1 79.5t1.5 67t3 47.5l1 23q-15 -29 -22 -76t-9.5 -109.5t-0.5 -138t5 -159.5q-18 33 -28.5 87
t-16.5 113t-10.5 113t-11.5 87l21 -837q0 -37 21 -63.5t71 -26.5q24 0 40 7.5t25.5 19.5t14 26t6.5 28z" />
    <glyph glyph-name="ering" horiz-adv-x="376" 
d="M384 1440h-128v-576h128v-96h-128v-672h128v-96h-256v1536h256v-96zM57 1705q0 30 11 56t30 45t45 30t56 11q63 0 103 -40t40 -102q0 -29 -11 -54.5t-30 -44.5t-45 -30t-57 -11q-30 0 -56 11t-45 30t-30 44.5t-11 54.5zM136 1706q0 -26 18 -44.5t45 -18.5q29 0 47 18.5
t18 44.5q0 28 -18 45.5t-47 17.5q-27 0 -45 -17.5t-18 -45.5z" />
    <glyph glyph-name="iring" horiz-adv-x="244" 
d="M208 1536v-1536h-128v1536h128zM-14 1708q0 30 11 56t30 45t45 30t56 11q63 0 103 -40t40 -102q0 -29 -11 -54.5t-30 -44.5t-45 -30t-57 -11q-30 0 -56 11t-45 30t-30 44.5t-11 54.5zM65 1709q0 -26 18 -44.5t45 -18.5q29 0 47 18.5t18 44.5q0 28 -18 45.5t-47 17.5
q-27 0 -45 -17.5t-18 -45.5z" />
    <glyph glyph-name="oring" horiz-adv-x="458" 
d="M512 144q0 -42 -15.5 -72.5t-41.5 -50.5t-59 -29.5t-68 -9.5q-37 0 -73 10.5t-64 31t-45.5 51t-17.5 69.5v1248q0 38 17.5 67.5t46 49.5t64.5 30.5t73 10.5q35 0 68 -9.5t58.5 -29t41 -49.5t15.5 -70v-1248zM384 1392q0 34 -16.5 48.5t-38.5 14.5q-13 0 -26 -4.5
t-23.5 -13t-17 -20t-6.5 -25.5v-1248q0 -14 6.5 -26t17 -20t23 -12.5t25.5 -4.5q22 0 39 14.5t17 48.5v1248zM87 1708q0 30 11 56t30 45t45 30t56 11q63 0 103 -40t40 -102q0 -29 -11 -54.5t-30 -44.5t-45 -30t-57 -11q-30 0 -56 11t-45 30t-30 44.5t-11 54.5zM166 1709
q0 -26 18 -44.5t45 -18.5q29 0 47 18.5t18 44.5q0 28 -18 45.5t-47 17.5q-27 0 -45 -17.5t-18 -45.5z" />
    <glyph glyph-name="Ycaron" horiz-adv-x="413" 
d="M224 1280l32 -448l32 448l32 448h128l-128 -1120v-608h-128v608l-128 1120h128zM128 1830l-58 346h100l30 -237l32 237h101l-60 -346h-145z" />
    <glyph glyph-name="ycaron" horiz-adv-x="427" 
d="M226 1152l32 384h128l-128 -1024v-512h-128v512l-128 1024h128l32 -384l32 -416zM130 1596l-58 346h100l30 -237l32 237h101l-60 -346h-145z" />
    <glyph glyph-name="Ering" horiz-adv-x="390" 
d="M352 1632h-160v-672h128v-96h-128v-768h160v-96h-288v1728h288v-96zM75 1959q0 30 11 56t30 45t45 30t56 11q63 0 103 -40t40 -102q0 -29 -11 -54.5t-30 -44.5t-45 -30t-57 -11q-30 0 -56 11t-45 30t-30 44.5t-11 54.5zM154 1960q0 -26 18 -44.5t45 -18.5q29 0 47 18.5
t18 44.5q0 28 -18 45.5t-47 17.5q-27 0 -45 -17.5t-18 -45.5z" />
    <glyph glyph-name="Iring" horiz-adv-x="247" 
d="M208 1728v-1728h-128v1728h128zM-15 1952q0 30 11 56t30 45t45 30t56 11q63 0 103 -40t40 -102q0 -29 -11 -54.5t-30 -44.5t-45 -30t-57 -11q-30 0 -56 11t-45 30t-30 44.5t-11 54.5zM64 1953q0 -26 18 -44.5t45 -18.5q29 0 47 18.5t18 44.5q0 28 -18 45.5t-47 17.5
q-27 0 -45 -17.5t-18 -45.5z" />
    <glyph glyph-name="cdieresis" horiz-adv-x="428" 
d="M512 896h-128v496q0 34 -17 48.5t-39 14.5q-13 0 -25.5 -4.5t-23 -13t-17 -20t-6.5 -25.5v-1248q0 -14 6.5 -26t17 -20.5t23 -13t25.5 -4.5q22 0 39 15t17 49v560h128v-560q0 -40 -17 -70.5t-44 -51t-62 -31t-71 -10.5t-70 10t-61 30.5t-43 51t-16 71.5v1248
q0 40 16.5 71t43.5 51t62 30.5t71 10.5t70 -10t61 -30.5t43.5 -51t16.5 -71.5v-496zM395 1747v-159h-143v159h143zM194 1747v-159h-145v159h145z" />
    <glyph glyph-name="ndieresis" horiz-adv-x="451" 
d="M481 0h-96l-176 896v-896h-112v1536h96l177 -928v928h111v-1536zM403 1747v-159h-143v159h143zM202 1747v-159h-145v159h145z" />
    <glyph glyph-name="sdieresis" horiz-adv-x="406" 
d="M417 992h-128v400q0 36 -15 50t-33 14t-33 -14t-15 -50q0 -107 10 -197t26 -166t36 -138.5t40 -114.5q16 -41 35.5 -95t36.5 -129t28.5 -175t11.5 -233q0 -42 -15 -72.5t-40 -50t-56.5 -28.5t-64.5 -9t-64.5 9t-56.5 28.5t-40 50t-15 72.5v400h128v-400q0 -36 15 -50
t33 -14t33 14t15 50q0 129 -12.5 226.5t-31.5 172t-41.5 130.5t-41.5 103q-19 46 -36.5 105t-31 134t-21.5 168.5t-8 208.5q0 42 15 72t40 49.5t56.5 29t64.5 9.5t64.5 -9.5t56.5 -29t40 -49.5t15 -72v-400zM379 1747v-159h-143v159h143zM178 1747v-159h-145v159h145z" />
    <glyph glyph-name="zdieresis" horiz-adv-x="326" 
d="M288 1536l-120 -1440h120v-96h-256l128 1440h-128v96h256zM342 1747v-159h-143v159h143zM141 1747v-159h-145v159h145z" />
    <glyph glyph-name="Acedilla" horiz-adv-x="421" 
d="M455 0h-128l-16 416h-95l-17 -416h-128l96 1728h192zM295 896l-32 768l-32 -768l-15 -384h95zM100 -443l58 409h106v-409h-164z" />
    <glyph glyph-name="Ecedilla" horiz-adv-x="390" 
d="M352 1632h-160v-672h128v-96h-128v-768h160v-96h-288v1728h288v-96zM80 -409l58 409h106v-409h-164z" />
    <glyph glyph-name="Ndieresis" horiz-adv-x="479" 
d="M448 0h-128l-160 1280v-1280h-96v1728h128l160 -1280v1280h96v-1728zM416 1981v-159h-143v159h143zM215 1981v-159h-145v159h145z" />
    <glyph glyph-name="Sdieresis" horiz-adv-x="448" 
d="M320 421q0 106 -11 182t-29 132.5t-41 98.5t-47 79t-47 74t-41 84t-29 108.5t-11 147.5v241q0 24 7.5 54.5t28.5 57t58.5 45t97.5 18.5t97.5 -18.5t58.5 -45t28.5 -57t7.5 -54.5v-448h-128v448q0 24 -5.5 39.5t-14.5 24t-20.5 12t-23.5 3.5t-23.5 -3.5t-20.5 -12
t-14.5 -24t-5.5 -39.5v-195q0 -113 19 -189t47.5 -132.5t61.5 -102.5t61.5 -99.5t47.5 -124t19 -175.5v-390q0 -12 -3 -43.5t-21 -64.5t-57 -58.5t-111 -25.5t-111 25.5t-57 58.5t-21 64.5t-3 43.5v576h128v-576q0 -12 1 -28.5t7 -31.5t19 -25.5t37 -10.5t37 10.5t19 25.5
t7 31.5t1 28.5v261zM392 1981v-159h-143v159h143zM191 1981v-159h-145v159h145z" />
    <glyph glyph-name="Ngrave" horiz-adv-x="479" 
d="M448 0h-128l-160 1280v-1280h-96v1728h128l160 -1280v1280h96v-1728zM176 2258l128 -416h-96l-192 416h160z" />
    <glyph glyph-name="Sgrave" horiz-adv-x="448" 
d="M320 421q0 106 -11 182t-29 132.5t-41 98.5t-47 79t-47 74t-41 84t-29 108.5t-11 147.5v241q0 24 7.5 54.5t28.5 57t58.5 45t97.5 18.5t97.5 -18.5t58.5 -45t28.5 -57t7.5 -54.5v-448h-128v448q0 24 -5.5 39.5t-14.5 24t-20.5 12t-23.5 3.5t-23.5 -3.5t-20.5 -12
t-14.5 -24t-5.5 -39.5v-195q0 -113 19 -189t47.5 -132.5t61.5 -102.5t61.5 -99.5t47.5 -124t19 -175.5v-390q0 -12 -3 -43.5t-21 -64.5t-57 -58.5t-111 -25.5t-111 25.5t-57 58.5t-21 64.5t-3 43.5v576h128v-576q0 -12 1 -28.5t7 -31.5t19 -25.5t37 -10.5t37 10.5t19 25.5
t7 31.5t1 28.5v261zM242 2258l128 -416h-96l-192 416h160z" />
    <glyph glyph-name="adotaccent" horiz-adv-x="412" 
d="M448 0h-128l-20 332h-89l-19 -332h-128l128 1536h128zM293 436l-37 780l-38 -780h75zM308 1780v-185h-182v185h182z" />
    <glyph glyph-name="idotaccent" horiz-adv-x="244" 
d="M208 1536v-1536h-128v1536h128zM217 1786v-185h-182v185h182z" />
    <glyph glyph-name="odotaccent" horiz-adv-x="458" 
d="M512 144q0 -42 -15.5 -72.5t-41.5 -50.5t-59 -29.5t-68 -9.5q-37 0 -73 10.5t-64 31t-45.5 51t-17.5 69.5v1248q0 38 17.5 67.5t46 49.5t64.5 30.5t73 10.5q35 0 68 -9.5t58.5 -29t41 -49.5t15.5 -70v-1248zM384 1392q0 34 -16.5 48.5t-38.5 14.5q-13 0 -26 -4.5
t-23.5 -13t-17 -20t-6.5 -25.5v-1248q0 -14 6.5 -26t17 -20t23 -12.5t25.5 -4.5q22 0 39 14.5t17 48.5v1248zM318 1786v-185h-182v185h182z" />
    <glyph glyph-name="Ymacron" horiz-adv-x="413" 
d="M224 1280l32 -448l32 448l32 448h128l-128 -1120v-608h-128v608l-128 1120h128zM367 1833h-327v105h327v-105z" />
    <glyph glyph-name="Ybreve" horiz-adv-x="413" 
d="M224 1280l32 -448l32 448l32 448h128l-128 -1120v-608h-128v608l-128 1120h128zM202 1830q-103 0 -148.5 52.5t-45.5 171.5h101q0 -36 7 -57.5t19 -33t28.5 -15t35.5 -3.5q21 0 38 3.5t29 15t18.5 33t6.5 57.5h101q0 -119 -45 -171.5t-145 -52.5z" />
    <glyph glyph-name="Yring" horiz-adv-x="413" 
d="M224 1280l32 -448l32 448l32 448h128l-128 -1120v-608h-128v608l-128 1120h128zM62 1952q0 30 11 56t30 45t45 30t56 11q63 0 103 -40t40 -102q0 -29 -11 -54.5t-30 -44.5t-45 -30t-57 -11q-30 0 -56 11t-45 30t-30 44.5t-11 54.5zM141 1953q0 -26 18 -44.5t45 -18.5
q29 0 47 18.5t18 44.5q0 28 -18 45.5t-47 17.5q-27 0 -45 -17.5t-18 -45.5z" />
    <glyph glyph-name="Wtilde" horiz-adv-x="719" 
d="M352 1472l-32 -480l-64 -992h-128l-96 1728h128l32 -1216l96 1216h128l96 -1216l32 1216h128l-96 -1728h-128l-64 992zM156 1844q0 34 5.5 63t18 50.5t32 33.5t48.5 12q25 0 43.5 -6.5t36.5 -15t38.5 -15t47.5 -6.5q10 0 16 6.5t9 14.5q5 9 6 22h79q0 -23 -2 -42.5
t-8 -36.5q-10 -31 -32.5 -55.5t-67.5 -24.5q-25 0 -46.5 7t-41 15t-38.5 15t-39 7q-9 0 -14.5 -6.5t-8.5 -15.5q-3 -8 -3 -22h-79z" />
    <glyph glyph-name="Wmacron" horiz-adv-x="719" 
d="M352 1472l-32 -480l-64 -992h-128l-96 1728h128l32 -1216l96 1216h128l96 -1216l32 1216h128l-96 -1728h-128l-64 992zM519 1830h-327v105h327v-105z" />
    <glyph glyph-name="Wbreve" horiz-adv-x="719" 
d="M352 1472l-32 -480l-64 -992h-128l-96 1728h128l32 -1216l96 1216h128l96 -1216l32 1216h128l-96 -1728h-128l-64 992zM350 1827q-103 0 -148.5 52.5t-45.5 171.5h101q0 -36 7 -57.5t19 -33t28.5 -15t35.5 -3.5q21 0 38 3.5t29 15t18.5 33t6.5 57.5h101
q0 -119 -45 -171.5t-145 -52.5z" />
    <glyph glyph-name="Wring" horiz-adv-x="719" 
d="M352 1472l-32 -480l-64 -992h-128l-96 1728h128l32 -1216l96 1216h128l96 -1216l32 1216h128l-96 -1728h-128l-64 992zM210 1949q0 30 11 56t30 45t45 30t56 11q63 0 103 -40t40 -102q0 -29 -11 -54.5t-30 -44.5t-45 -30t-57 -11q-30 0 -56 11t-45 30t-30 44.5t-11 54.5z
M289 1950q0 -26 18 -44.5t45 -18.5q29 0 47 18.5t18 44.5q0 28 -18 45.5t-47 17.5q-27 0 -45 -17.5t-18 -45.5z" />
    <glyph glyph-name="Wcaron" horiz-adv-x="719" 
d="M352 1472l-32 -480l-64 -992h-128l-96 1728h128l32 -1216l96 1216h128l96 -1216l32 1216h128l-96 -1728h-128l-64 992zM275 1827l-58 346h100l30 -237l32 237h101l-60 -346h-145z" />
    <glyph glyph-name="Udotaccent" horiz-adv-x="451" 
d="M195 160q0 -12 1 -28.5t7 -31.5t19 -25.5t37 -10.5t37 10.5t19 25.5t7 31.5t1 28.5v1568h128v-1568q0 -12 -3 -43.5t-21 -64.5t-57 -58.5t-111 -25.5t-111 25.5t-57 58.5t-21 64.5t-3 43.5v1568h128v-1568zM319 2030v-185h-182v185h182z" />
    <glyph glyph-name="Stilde" horiz-adv-x="448" 
d="M320 421q0 106 -11 182t-29 132.5t-41 98.5t-47 79t-47 74t-41 84t-29 108.5t-11 147.5v241q0 24 7.5 54.5t28.5 57t58.5 45t97.5 18.5t97.5 -18.5t58.5 -45t28.5 -57t7.5 -54.5v-448h-128v448q0 24 -5.5 39.5t-14.5 24t-20.5 12t-23.5 3.5t-23.5 -3.5t-20.5 -12
t-14.5 -24t-5.5 -39.5v-195q0 -113 19 -189t47.5 -132.5t61.5 -102.5t61.5 -99.5t47.5 -124t19 -175.5v-390q0 -12 -3 -43.5t-21 -64.5t-57 -58.5t-111 -25.5t-111 25.5t-57 58.5t-21 64.5t-3 43.5v576h128v-576q0 -12 1 -28.5t7 -31.5t19 -25.5t37 -10.5t37 10.5t19 25.5
t7 31.5t1 28.5v261zM30 1847q0 34 5.5 63t18 50.5t32 33.5t48.5 12q25 0 43.5 -6.5t36.5 -15t38.5 -15t47.5 -6.5q10 0 16 6.5t9 14.5q5 9 6 22h79q0 -23 -2 -42.5t-8 -36.5q-10 -31 -32.5 -55.5t-67.5 -24.5q-25 0 -46.5 7t-41 15t-38.5 15t-39 7q-9 0 -14.5 -6.5
t-8.5 -15.5q-3 -8 -3 -22h-79z" />
    <glyph glyph-name="Smacron" horiz-adv-x="448" 
d="M320 421q0 106 -11 182t-29 132.5t-41 98.5t-47 79t-47 74t-41 84t-29 108.5t-11 147.5v241q0 24 7.5 54.5t28.5 57t58.5 45t97.5 18.5t97.5 -18.5t58.5 -45t28.5 -57t7.5 -54.5v-448h-128v448q0 24 -5.5 39.5t-14.5 24t-20.5 12t-23.5 3.5t-23.5 -3.5t-20.5 -12
t-14.5 -24t-5.5 -39.5v-195q0 -113 19 -189t47.5 -132.5t61.5 -102.5t61.5 -99.5t47.5 -124t19 -175.5v-390q0 -12 -3 -43.5t-21 -64.5t-57 -58.5t-111 -25.5t-111 25.5t-57 58.5t-21 64.5t-3 43.5v576h128v-576q0 -12 1 -28.5t7 -31.5t19 -25.5t37 -10.5t37 10.5t19 25.5
t7 31.5t1 28.5v261zM389 1833h-327v105h327v-105z" />
    <glyph glyph-name="Sbreve" horiz-adv-x="448" 
d="M320 421q0 106 -11 182t-29 132.5t-41 98.5t-47 79t-47 74t-41 84t-29 108.5t-11 147.5v241q0 24 7.5 54.5t28.5 57t58.5 45t97.5 18.5t97.5 -18.5t58.5 -45t28.5 -57t7.5 -54.5v-448h-128v448q0 24 -5.5 39.5t-14.5 24t-20.5 12t-23.5 3.5t-23.5 -3.5t-20.5 -12
t-14.5 -24t-5.5 -39.5v-195q0 -113 19 -189t47.5 -132.5t61.5 -102.5t61.5 -99.5t47.5 -124t19 -175.5v-390q0 -12 -3 -43.5t-21 -64.5t-57 -58.5t-111 -25.5t-111 25.5t-57 58.5t-21 64.5t-3 43.5v576h128v-576q0 -12 1 -28.5t7 -31.5t19 -25.5t37 -10.5t37 10.5t19 25.5
t7 31.5t1 28.5v261zM224 1830q-103 0 -148.5 52.5t-45.5 171.5h101q0 -36 7 -57.5t19 -33t28.5 -15t35.5 -3.5q21 0 38 3.5t29 15t18.5 33t6.5 57.5h101q0 -119 -45 -171.5t-145 -52.5z" />
    <glyph glyph-name="Sring" horiz-adv-x="448" 
d="M320 421q0 106 -11 182t-29 132.5t-41 98.5t-47 79t-47 74t-41 84t-29 108.5t-11 147.5v241q0 24 7.5 54.5t28.5 57t58.5 45t97.5 18.5t97.5 -18.5t58.5 -45t28.5 -57t7.5 -54.5v-448h-128v448q0 24 -5.5 39.5t-14.5 24t-20.5 12t-23.5 3.5t-23.5 -3.5t-20.5 -12
t-14.5 -24t-5.5 -39.5v-195q0 -113 19 -189t47.5 -132.5t61.5 -102.5t61.5 -99.5t47.5 -124t19 -175.5v-390q0 -12 -3 -43.5t-21 -64.5t-57 -58.5t-111 -25.5t-111 25.5t-57 58.5t-21 64.5t-3 43.5v576h128v-576q0 -12 1 -28.5t7 -31.5t19 -25.5t37 -10.5t37 10.5t19 25.5
t7 31.5t1 28.5v261zM84 1952q0 30 11 56t30 45t45 30t56 11q63 0 103 -40t40 -102q0 -29 -11 -54.5t-30 -44.5t-45 -30t-57 -11q-30 0 -56 11t-45 30t-30 44.5t-11 54.5zM163 1953q0 -26 18 -44.5t45 -18.5q29 0 47 18.5t18 44.5q0 28 -18 45.5t-47 17.5q-27 0 -45 -17.5
t-18 -45.5z" />
    <glyph glyph-name="Odotaccent" horiz-adv-x="467" 
d="M448 160q0 -12 -3 -43.5t-21 -64.5t-57 -58.5t-111 -25.5t-111 25.5t-57 58.5t-21 64.5t-3 43.5v1408q0 8 1 24t6 35.5t17 40t33 37.5t54 27.5t81 10.5t81 -10.5t54 -27.5t33 -37.5t17 -40t6 -35.5t1 -24v-1408zM192 160q0 -12 1 -28.5t7 -31.5t19 -25.5t37 -10.5
t37 10.5t19 25.5t7 31.5t1 28.5v1408q0 12 -1 26t-7 25.5t-19 19.5t-37 8t-37 -8t-19 -19.5t-7 -25.5t-1 -26v-1408zM319 2030v-185h-182v185h182z" />
    <glyph glyph-name="Oring" horiz-adv-x="467" 
d="M448 160q0 -12 -3 -43.5t-21 -64.5t-57 -58.5t-111 -25.5t-111 25.5t-57 58.5t-21 64.5t-3 43.5v1408q0 8 1 24t6 35.5t17 40t33 37.5t54 27.5t81 10.5t81 -10.5t54 -27.5t33 -37.5t17 -40t6 -35.5t1 -24v-1408zM192 160q0 -12 1 -28.5t7 -31.5t19 -25.5t37 -10.5
t37 10.5t19 25.5t7 31.5t1 28.5v1408q0 12 -1 26t-7 25.5t-19 19.5t-37 8t-37 -8t-19 -19.5t-7 -25.5t-1 -26v-1408zM88 1952q0 30 11 56t30 45t45 30t56 11q63 0 103 -40t40 -102q0 -29 -11 -54.5t-30 -44.5t-45 -30t-57 -11q-30 0 -56 11t-45 30t-30 44.5t-11 54.5z
M167 1953q0 -26 18 -44.5t45 -18.5q29 0 47 18.5t18 44.5q0 28 -18 45.5t-47 17.5q-27 0 -45 -17.5t-18 -45.5z" />
    <glyph glyph-name="Ncircumflex" horiz-adv-x="479" 
d="M448 0h-128l-160 1280v-1280h-96v1728h128l160 -1280v1280h96v-1728zM308 2176l59 -346h-102l-30 238l-31 -238h-101l59 346h146z" />
    <glyph glyph-name="Nmacron" horiz-adv-x="479" 
d="M448 0h-128l-160 1280v-1280h-96v1728h128l160 -1280v1280h96v-1728zM404 1833h-327v105h327v-105z" />
    <glyph glyph-name="Nbreve" horiz-adv-x="479" 
d="M448 0h-128l-160 1280v-1280h-96v1728h128l160 -1280v1280h96v-1728zM231 1830q-103 0 -148.5 52.5t-45.5 171.5h101q0 -36 7 -57.5t19 -33t28.5 -15t35.5 -3.5q21 0 38 3.5t29 15t18.5 33t6.5 57.5h101q0 -119 -45 -171.5t-145 -52.5z" />
    <glyph glyph-name="Nring" horiz-adv-x="479" 
d="M448 0h-128l-160 1280v-1280h-96v1728h128l160 -1280v1280h96v-1728zM91 1952q0 30 11 56t30 45t45 30t56 11q63 0 103 -40t40 -102q0 -29 -11 -54.5t-30 -44.5t-45 -30t-57 -11q-30 0 -56 11t-45 30t-30 44.5t-11 54.5zM170 1953q0 -26 18 -44.5t45 -18.5q29 0 47 18.5
t18 44.5q0 28 -18 45.5t-47 17.5q-27 0 -45 -17.5t-18 -45.5z" />
    </font>
</defs>
</svg>
