<?xml version="1.0" standalone="no"?>
<!DOCTYPE svg PUBLIC "-//W3C//DTD SVG 1.1//EN" "http://www.w3.org/Graphics/SVG/1.1/DTD/svg11.dtd" >
<svg xmlns="http://www.w3.org/2000/svg" xmlns:xlink="http://www.w3.org/1999/xlink" version="1.1">
<metadata>
Created by FontForge 20161013 at Sat Jan  1 00:31:15 2011
 By ,,,
Copyright (c) 2010 by Font Diner, Inc DBA Sideshow. All rights reserved.
</metadata>
<defs>
<font id="Slackey" horiz-adv-x="957" >
  <font-face 
    font-family="Slackey"
    font-weight="400"
    font-stretch="normal"
    units-per-em="1024"
    panose-1="2 0 0 0 0 0 0 0 0 0"
    ascent="819"
    descent="-205"
    x-height="575"
    cap-height="734"
    bbox="-108 -351 1333 1078"
    underline-thickness="51"
    underline-position="-152"
    unicode-range="U+0020-FB02"
  />
<missing-glyph horiz-adv-x="412" 
 />
    <glyph glyph-name=".notdef" horiz-adv-x="412" 
 />
    <glyph glyph-name=".null" horiz-adv-x="0" 
 />
    <glyph glyph-name="nonmarkingreturn" horiz-adv-x="341" 
 />
    <glyph glyph-name="space" unicode=" " horiz-adv-x="412" 
 />
    <glyph glyph-name="exclam" unicode="!" horiz-adv-x="325" 
d="M294 769q-1 -26 -2.5 -57t-3.5 -63t-5.5 -62.5t-8.5 -56.5q-15 -75 -30.5 -148t-30.5 -148l-110 -10l-25 252q-7 68 -10 136.5t-7 137.5zM276 80q0 -17 -10.5 -33.5t-26.5 -29.5t-35 -20.5t-35 -7.5q-15 0 -31.5 5.5t-30 15t-22 23.5t-8.5 32q0 19 11.5 34.5t28 26t36 16
t36.5 5.5q28 0 50.5 -13t33.5 -39q2 -4 2.5 -7.5t0.5 -7.5z" />
    <glyph glyph-name="quotedbl" unicode="&#x22;" horiz-adv-x="425" 
d="M394 756q-8 -81 -13 -160.5t-11 -160.5l-116 6q-2 77 -7 151.5t-7 150.5zM190 743q-2 -76 -7 -150.5t-7 -151.5l-116 -6q-5 81 -10.5 160.5t-13.5 160.5z" />
    <glyph glyph-name="numbersign" unicode="#" horiz-adv-x="693" 
d="M693 539l-20 -90l-98 -10l-37 -116l93 -5l-21 -77l-100 -9l-52 -155l-90 -5l30 143l-152 -9l-42 -156l-108 -8l49 164h-114l20 95l115 9l32 139h-137q1 2 4.5 16.5t8.5 31.5q5 19 12 42q11 0 20 1q8 0 15 0.5t9 0.5q22 0 43.5 -0.5t44.5 -1.5l38 181l77 -17l-35 -173
l187 5l53 159l79 -17l-34 -129zM461 461l-160 -8l-41 -156l159 4z" />
    <glyph glyph-name="dollar" unicode="$" horiz-adv-x="727" 
d="M707 247q0 -22 -4 -39q-7 -36 -29 -62t-51 -44t-61 -29t-59 -18t-45.5 -11t-20.5 -8q1 -1 1 -0.5t0 -6t-1 -25t-2 -57.5l-138 4l3 80q-59 8 -116.5 16.5t-114.5 25.5q-2 38 -7 75.5t-7 75.5q35 -8 72 -16t75 -15.5t76 -12t74 -4.5q10 0 33 1t48 3.5t47 6.5t30 9
q22 14 22 45q0 9 -2.5 20t-10.5 19q-4 3 -32.5 6.5t-69.5 8t-89 9t-91.5 10t-76.5 12t-43 14.5q-15 11 -28.5 29t-24 39.5t-17 43.5t-6.5 40q0 41 27 72t65.5 52t81.5 32.5t76 14.5v109l144 -16l-3 -93q13 1 25.5 1h24.5q45 0 88 -5t88 -16q-6 -33 -13 -66t-13 -66
q-46 3 -91.5 5t-90.5 2q-11 0 -36.5 -0.5t-54 -2t-53.5 -4t-35 -6.5q-24 -11 -24 -39q0 -20 14 -36q5 -5 34 -8t70 -6t88 -6.5t89.5 -8t74 -11.5t41.5 -17q24 -25 36.5 -58.5t12.5 -67.5z" />
    <glyph glyph-name="percent" unicode="%" horiz-adv-x="780" 
d="M760 133q0 -42 -9.5 -66.5t-29 -38t-48 -17.5t-66.5 -4q-12 0 -32.5 1t-42 5t-40.5 10t-27 17q-6 8 -10 21t-6.5 26.5t-3 27t-0.5 22.5q0 12 1 30.5t4 37.5t8 35.5t13 25.5t27.5 15t42 9.5t43.5 4.5t32 1q10 0 26 -0.5t32.5 -3t31 -7.5t21.5 -13q9 -10 15 -28t10 -38.5
t6 -40t2 -32.5zM608 722q-29 -57 -57.5 -113.5t-55.5 -113.5q-14 -28 -27 -56t-24 -57q-38 -99 -75.5 -196.5t-74.5 -196.5l-132 2q29 62 58 123t58 123q17 35 33 71t31 72q35 86 67.5 171.5t64.5 173.5zM326 572q0 -10 -1 -24.5t-3 -30t-6.5 -29.5t-10.5 -22
q-9 -11 -31 -18t-48.5 -11.5t-51 -6.5t-37.5 -2q-8 0 -20.5 0.5t-25.5 2.5t-24 5.5t-17 9.5q-10 11 -17.5 31t-12.5 42t-7.5 43.5t-2.5 35.5q0 24 5.5 49.5t25.5 42.5q10 9 28.5 14.5t39.5 8.5t40.5 4t32.5 1q11 0 28 -1t34.5 -4t32.5 -8t23 -13q8 -9 13 -24.5t8 -33t4 -34
t1 -28.5zM677 134q0 9 -1 20t-4 22t-7.5 21t-10.5 16q-8 8 -20 10.5t-23 2.5q-16 0 -36.5 -5t-31.5 -16t-14.5 -27t-3.5 -30q0 -23 4 -37t13.5 -22t24.5 -10.5t36 -2.5q19 0 33 1.5t23 7t13.5 17t4.5 32.5zM246 573q0 14 -3.5 33.5t-14.5 30.5q-8 8 -25 10t-28 2
q-5 0 -16 -0.5t-22.5 -2.5t-21.5 -5.5t-14 -8.5q-5 -8 -6.5 -18.5t-1.5 -19.5t1.5 -21t5 -24.5t8.5 -23t12 -16.5q8 -7 17.5 -8.5t20.5 -1.5q17 0 39 6t34 18q9 9 12 23.5t3 26.5z" />
    <glyph glyph-name="ampersand" unicode="&#x26;" horiz-adv-x="859" 
d="M859 11l-102 -77l-146 104l-38 -22t-38 -21q-60 -32 -119.5 -49.5t-128.5 -17.5q-33 0 -66.5 4t-66.5 12q-20 4 -34 9.5t-25.5 13t-22 18.5t-22.5 26q-13 17 -16 39t-3 42q0 29 4 58.5t12 57.5q5 19 25 48.5t45 60t48.5 57.5t36.5 41q-8 6 -25 20t-36 30.5t-35 32
t-20 23.5q-8 15 -8 37q0 17 4.5 43.5t12.5 54.5t18.5 52t23.5 35q14 13 46 19.5t68.5 9.5t70.5 4t54 2q8 1 17 1h18q25 0 56 -3.5t62 -12t59 -22t46 -33.5q5 -5 6 -16.5t1 -17.5q0 -25 -6 -53t-14 -52l-187 -10q1 15 1.5 29.5t0.5 28.5q0 2 -0.5 12.5t-1 22.5t-2 22t-4.5 11
q-8 3 -15.5 3.5t-16.5 0.5q-6 0 -20 -0.5t-30 -2t-29.5 -3.5t-17.5 -4q-10 -5 -12 -20t-2 -24t1 -18.5t3 -18.5q4 -20 19.5 -47t35 -54t40 -51t34.5 -38q23 -24 51 -48t57.5 -47t59.5 -45t57 -41q15 9 36 23.5t32 29.5q7 9 14 17.5t15 16.5l107 -96q-23 -29 -47.5 -52.5
t-53.5 -47.5zM521 151q-57 44 -112.5 88t-112.5 89q-8 -9 -22 -26t-27.5 -35.5t-23.5 -37.5t-10 -32q0 -24 18.5 -47t44.5 -41.5t55 -30t50 -11.5q5 0 8.5 0.5t8.5 2.5q11 4 28.5 14.5t35.5 23t34 24t25 19.5z" />
    <glyph glyph-name="quotesingle" unicode="'" horiz-adv-x="221" 
d="M190 743q-2 -76 -7 -150.5t-7 -151.5l-116 -6q-5 81 -10.5 160.5t-13.5 160.5z" />
    <glyph glyph-name="parenleft" unicode="(" horiz-adv-x="351" 
d="M341 -82q-50 35 -100 90t-90 120t-65 135t-25 135q0 62 16 123.5t43.5 119.5t64 111t77.5 98l25 -75q-30 -30 -49.5 -69.5t-30.5 -83t-15.5 -88t-4.5 -84.5q0 -51 9.5 -115.5t28.5 -128.5t47.5 -120t65.5 -89z" />
    <glyph glyph-name="parenright" unicode=")" horiz-adv-x="353" 
d="M292 372q0 -63 -21.5 -127.5t-56 -125.5t-78.5 -114.5t-88 -93.5l-17 75q37 32 62.5 79t41 100.5t22.5 108.5t7 102q0 42 -6 96.5t-19.5 109.5t-34.5 103.5t-51 79.5l4 79q49 -39 91.5 -93.5t74.5 -117t50.5 -130t18.5 -131.5z" />
    <glyph glyph-name="asterisk" unicode="*" horiz-adv-x="538" 
d="M507 515q-51 -5 -100 -6t-100 -3q44 -29 82.5 -61.5t78.5 -64.5l-123 -76q-11 21 -24 50t-25 56q-14 31 -28 64q-23 -26 -47 -52q-20 -23 -43 -50t-40 -53l-94 91q46 24 84.5 45t77.5 55q-42 31 -86 58t-89 53l92 82q29 -36 60.5 -73.5t71.5 -63.5q10 29 17 51t11.5 43
t8.5 43.5t10 51.5q33 -9 65 -19.5t65 -16.5q-19 -23 -34 -42t-28.5 -37t-27 -38t-29.5 -45l173 70z" />
    <glyph glyph-name="plus" unicode="+" horiz-adv-x="542" 
d="M511 414l-3 -73q-48 -5 -93.5 -7t-92.5 -5q0 -53 1.5 -105.5t3.5 -105.5l-89 1q-4 52 -5.5 103.5t-4.5 104.5h-191l-6 77q48 0 96.5 2t96.5 4l-4 191l86 1q3 -48 7 -94t9 -94q23 1 46.5 2t46.5 1t47.5 -1t48.5 -2z" />
    <glyph glyph-name="comma" unicode="," horiz-adv-x="279" 
d="M248 2q0 -35 -13.5 -67t-30.5 -62h-110q21 24 41 50t20 61v11l-95 2q-6 14 -12.5 37.5t-6.5 38.5q0 20 10 41t24 37l150 -13q23 -67 23 -136z" />
    <glyph glyph-name="hyphen" unicode="-" horiz-adv-x="446" 
d="M416 318h-385l4 81q91 3 186 3h187z" />
    <glyph glyph-name="period" unicode="." horiz-adv-x="250" 
d="M209 37v-13t-1 -16t-3 -15.5t-5 -10.5q-4 -3 -16 -5.5t-26 -4t-26.5 -2t-18.5 -0.5t-14.5 0.5t-17.5 1.5t-16.5 3.5t-10.5 6.5q-4 4 -6.5 14.5t-4 22.5t-2 23t-0.5 17q0 12 2 31t11 27q3 3 14.5 4.5t25 3t26.5 2t18 0.5q11 0 31.5 -1.5t28.5 -8.5q3 -5 5.5 -15.5t3.5 -23
t1.5 -24t0.5 -17.5z" />
    <glyph glyph-name="slash" unicode="/" horiz-adv-x="504" 
d="M524 753q-47 -88 -95 -174.5t-98 -172.5q-60 -105 -116.5 -210.5t-113.5 -212.5l-121 -10q49 99 98.5 197.5t104.5 195.5q56 97 112 193.5t113 193.5h116z" />
    <glyph glyph-name="zero" unicode="0" horiz-adv-x="729" 
d="M678 472v-48.5t-1 -68t-3 -77t-6 -75t-10.5 -62.5t-15.5 -39q-12 -14 -27.5 -30.5t-33.5 -32t-36.5 -27.5t-36.5 -17q-16 -5 -44.5 -8t-59 -4.5t-59.5 -2t-47 -0.5h-25.5t-34.5 1.5t-34 3.5t-23 7q-22 14 -40.5 33.5t-32.5 42.5q-13 21 -20 48t-12 52q-5 28 -9.5 61.5
t-8 68.5t-5.5 69t-2 64q0 17 2 53.5t6.5 75.5t11.5 73.5t18 47.5q11 14 34 25.5t52 20.5t61.5 15.5t63.5 11t57 6.5t42 2q17 0 38 -0.5t42.5 -2.5t41.5 -6t36 -11q13 -6 31 -18.5t34.5 -27.5t30 -31t18.5 -28q3 -6 4 -29.5t2 -50.5t1 -51.5v-33.5zM482 354q0 11 -1 34.5
t-2.5 53t-3.5 61t-5.5 59.5t-7.5 48.5t-9 27.5q-8 11 -24 13.5t-29 2.5q-11 0 -31.5 -2t-42.5 -6.5t-41 -10.5t-27 -14q-12 -12 -18.5 -47.5t-9.5 -77.5t-3.5 -81t-0.5 -58q0 -11 1 -33.5t2.5 -51t4 -59t5.5 -57t6.5 -45t8.5 -23.5q4 -4 11.5 -6t16.5 -3t17 -1h13
q11 0 27.5 1t34 3t33 5t25.5 8t18 23t13.5 43t9 53.5t5.5 55.5t3 49.5t1 34.5z" />
    <glyph glyph-name="one" unicode="1" horiz-adv-x="426" 
d="M349 3q-61 5 -120.5 7.5t-119.5 3.5l27 534l-80 8q16 48 22 96t14 97l215 6q12 -189 21.5 -376t20.5 -376z" />
    <glyph glyph-name="two" unicode="2" horiz-adv-x="666" 
d="M625 239q-2 -60 -3 -120t-4 -120l-523 -19q-5 76 -11.5 151.5t-12.5 152.5q40 15 82 33.5t82 41.5t77 50t66 59q15 17 26.5 33.5t11.5 39.5q0 54 -21.5 71.5t-68.5 17.5q-20 0 -40.5 -0.5t-38.5 -3.5q-29 -5 -35.5 -19t-6.5 -41q0 -8 0.5 -17t1.5 -18l-155 -21
q-6 45 -6 89q0 11 1.5 32t6 43t11.5 41t19 26q18 11 57 19t83.5 12.5t85.5 6.5t63 2q38 0 71.5 -2t61 -12.5t47.5 -34t30 -65.5q5 -23 6 -47t1 -47q0 -9 -0.5 -24t-1.5 -31t-4 -30t-7 -23q-6 -11 -23.5 -28.5t-38.5 -35t-41 -33t-31 -23.5q-17 -12 -35.5 -22.5t-35.5 -21.5
q-33 -19 -66.5 -37.5t-67.5 -36.5q193 3 387 12z" />
    <glyph glyph-name="three" unicode="3" horiz-adv-x="684" 
d="M653 205q0 -15 -1.5 -36t-5 -42.5t-9.5 -41.5t-15 -32q-11 -14 -41.5 -26.5t-66 -22.5t-69 -16.5t-50.5 -9.5q-54 -8 -114 -10t-115 -2q-26 0 -52.5 0.5t-53.5 1.5v146q0 48 3 96h39.5h67.5t80 0.5t77.5 2t59.5 3t27 4.5q5 5 6 8.5t1 11.5q0 15 -6.5 34.5t-16.5 32.5
q-2 3 -20.5 5.5t-44.5 4.5t-56.5 3t-57.5 1.5t-46 1t-23 0.5q-4 19 -4 42v45l258 129q-86 2 -171.5 4.5t-172.5 2.5q1 25 1.5 49t0.5 48q0 22 -2 43t-4 43q118 8 234 15t234 7h60q1 -34 1 -68v-68q0 -32 -0.5 -63t-1.5 -63q-91 -43 -179 -91q7 -2 24 -5.5t38.5 -8.5
t45.5 -11t45.5 -12t37.5 -11.5t22 -9.5q14 -11 21.5 -27t10.5 -35t3.5 -38t0.5 -35z" />
    <glyph glyph-name="four" unicode="4" horiz-adv-x="695" 
d="M665 323l-93 -2q0 -81 2.5 -160.5t7.5 -160.5l-223 -11q-2 78 -2.5 157t-2.5 158l-308 -7q5 109 8 218t8 218l124 11q14 -70 24.5 -140.5t19.5 -141.5l119 3q2 33 3.5 66t1.5 66q0 41 -1 82t-3 82q20 0 39 0.5t39 0.5q38 0 76.5 -2t77.5 -4l2 -277l66 2q8 -38 10.5 -78.5
t4.5 -79.5z" />
    <glyph glyph-name="five" unicode="5" horiz-adv-x="705" 
d="M674 611q-100 -9 -199.5 -18t-200.5 -23l4 -124q22 0 61.5 -2.5t82 -7.5t80.5 -13.5t59 -20.5q35 -21 53.5 -46t26 -54t8 -62t0.5 -70v-16.5t-1 -21.5t-2 -21t-4 -16q-8 -17 -28 -36.5t-44 -36.5t-48.5 -30t-43.5 -17q-21 -5 -43.5 -6t-44.5 -3q-38 -2 -75.5 -3.5
t-75.5 -1.5h-18t-23 0.5t-22.5 1.5t-16.5 3q-32 11 -52 35.5t-31 56.5q-3 9 -5.5 30t-4.5 45t-3.5 46t-1.5 31l231 6q-5 -28 -5 -52q0 -17 7 -25.5t18.5 -12t25.5 -3.5h28q23 0 39 3.5t26.5 12.5t15.5 25t5 41q0 20 -7 40.5t-27 28.5q-21 10 -51 15.5t-62.5 8.5t-64 3.5
t-53.5 0.5q-24 0 -48.5 -0.5t-49.5 -1.5l-17 438h70q131 0 259 3.5t258 7.5z" />
    <glyph glyph-name="six" unicode="6" horiz-adv-x="710" 
d="M674 468l-245 -18q1 18 1.5 37t0.5 37v13.5t-1 25t-2 24.5t-3 13q-4 2 -11.5 3.5t-15.5 2t-15.5 0.5h-11.5q-38 0 -64 -4t-41.5 -17t-22.5 -37.5t-7 -64.5t2 -79.5t4 -78.5q13 13 37.5 21.5t52 13.5t54.5 7t47 2q13 0 40.5 -1.5t57 -6t54 -13t30.5 -23.5
q6 -13 10.5 -38.5t7.5 -54t5 -55t2 -40.5q0 -15 -1.5 -33.5t-6.5 -32.5q-16 -42 -51.5 -73t-77.5 -42q-23 -6 -50 -6.5t-51 -0.5q-21 0 -52.5 1t-65 4.5t-63.5 9.5t-48 16q-53 28 -80.5 66.5t-34.5 97.5q-2 14 -2 28v28q0 22 1 57t3 76.5t5.5 86.5t8 85t11 72.5t15.5 50.5
q21 43 46 67t56 34.5t67.5 12.5t81.5 2q22 0 63.5 -0.5t85.5 -3t82 -8.5t53 -18q7 -6 12.5 -24t9.5 -42.5t7 -53t5.5 -54t3.5 -45t1 -27.5zM477 183q0 25 -4.5 40.5t-14 23.5t-26 11t-40.5 3q-10 0 -35.5 -2.5t-53 -6.5t-52 -9.5t-31.5 -12.5q-9 -8 -11 -26.5t-2 -29.5
q0 -6 0.5 -15.5t1.5 -19.5t3 -19t5 -15q4 -6 29 -10.5t55 -7t57 -3.5t36 -1h11.5t16.5 0.5t16.5 1.5t11.5 3q7 4 12.5 16.5t8.5 27.5t4.5 29.5t1.5 21.5z" />
    <glyph glyph-name="seven" unicode="7" horiz-adv-x="600" 
d="M595 597q-72 -157 -152 -307t-159 -301h-227q35 51 70 103t70 106q20 32 40.5 64t40.5 66q38 68 72 139t66 143q-11 1 -20.5 1h-20.5q-29 0 -64 -3t-62 -13l3 -88l-187 -10q-8 57 -11 115t-8 117q134 7 266.5 14t267.5 11z" />
    <glyph glyph-name="eight" unicode="8" horiz-adv-x="720" 
d="M658 116q0 -16 -1.5 -38t-9.5 -36q-5 -8 -13.5 -19t-19.5 -21.5t-22 -18.5t-20 -11q-4 -1 -16.5 -2t-31 -1.5t-41 -0.5h-44.5h-118q-30 -1 -59 -1h-53t-49 2q-17 1 -31.5 20t-25.5 44t-18.5 50t-10.5 39q-5 18 -6 34t-1 34q0 15 1 35t4.5 40t10.5 38t19 29q5 4 15.5 8.5
t22.5 9t22.5 8.5t16.5 6q-8 2 -20 6.5t-24 10.5t-22 14t-13 17q-5 14 -9.5 33t-8.5 39.5t-6 40t-2 34.5v30t1.5 41t4 39t8.5 26q15 20 32.5 32t37 18.5t41 8.5t44.5 3q37 1 73 1.5t73 0.5h30.5h40.5t40 -1t28 -3q17 -4 35.5 -23t35 -43t28 -48.5t13.5 -40.5q4 -24 4 -48.5
v-48.5v-17t-0.5 -22.5t-1.5 -22t-3 -15.5q-2 -4 -14.5 -14t-28 -21t-29 -20.5t-16.5 -11.5q10 -5 24 -13t28 -18.5t25 -22.5t14 -24q4 -17 7 -38t5 -43.5t3 -44.5t1 -39zM464 512q0 9 -1 32t-4 47.5t-7.5 45.5t-11.5 27q-3 3 -11 4.5t-16.5 2l-17 1t-12.5 0.5q-7 0 -29.5 -1
t-47.5 -3t-46 -5t-26 -7q-6 -5 -10.5 -17.5t-8 -27.5t-5.5 -29.5t-2 -21.5q0 -8 1 -27t3 -39t5.5 -37.5t8.5 -22.5t14.5 -7.5t20.5 -4t21 -1.5h17q14 0 36.5 -0.5t45.5 1t43.5 6.5t29.5 15q3 4 5 13.5t3 20t1.5 20.5t0.5 15zM475 217q0 10 -1 22.5t-4 24.5t-8.5 22.5
t-14.5 16.5q-7 5 -24.5 5.5t-27.5 0.5t-34 -1t-50.5 -3.5t-49.5 -6.5t-30 -10q-6 -5 -10.5 -16.5t-7.5 -25t-5 -26.5t-2 -20q0 -9 3 -27.5t8 -38t12 -35t16 -19.5q2 -1 7 -1.5t11 -0.5h11h8q7 0 32 0.5t52 1.5t50 3t27 4q8 4 14 22t10 39t6 41t2 28z" />
    <glyph glyph-name="nine" unicode="9" horiz-adv-x="716" 
d="M654 393v-39t-1 -64.5t-2.5 -76t-4.5 -74.5t-8 -60t-12 -32q-20 -19 -56.5 -31.5t-78.5 -20.5t-82.5 -11.5t-67.5 -3.5q-56 0 -110.5 3.5t-109.5 9.5q-9 49 -9 100v93q57 -6 116 -11.5t118 -5.5q16 0 37.5 1t40.5 6.5t32 17.5t13 33q0 19 -2 37t-5 37
q-28 -11 -57.5 -15.5t-58.5 -4.5q-9 0 -29.5 0.5t-47 2t-55 3.5t-53.5 5t-42.5 7t-22.5 9q-11 13 -20 39.5t-15.5 56.5t-10.5 58t-4 43q0 16 3 51.5t8.5 74t14 70.5t19.5 42q8 7 29.5 13t51 11.5t63 9.5t64 7t55.5 4.5t37 1.5q11 0 32 -1t46.5 -4t52.5 -7.5t51 -10.5
t41.5 -14.5t23.5 -19.5q3 -6 5.5 -30.5t4.5 -59t3 -74t1.5 -75.5t1 -63.5t0.5 -37.5zM508 487q0 12 -2 38t-6 54t-10 52t-14 33q-5 6 -15 9t-21.5 4.5t-23 2t-18.5 0.5q-10 0 -31 -1.5t-43.5 -4.5t-42 -8t-26.5 -12q-6 -6 -9.5 -20t-5 -29t-2 -29.5t-0.5 -22.5
q0 -11 1 -36.5t5 -52.5t10.5 -49t17.5 -27q8 -3 19.5 -3.5t19.5 -0.5q13 0 39.5 2t54.5 5.5t52.5 9t34.5 12.5q6 4 9 13.5t4.5 21t2 22.5t0.5 17z" />
    <glyph glyph-name="colon" unicode=":" horiz-adv-x="251" 
d="M209 322v-13t-1 -16.5t-3 -15.5t-5 -10q-4 -3 -16 -5.5t-26 -3.5t-26.5 -1.5t-18.5 -0.5h-14.5t-17.5 1t-16.5 3.5t-10.5 6.5q-4 5 -6.5 15.5t-4 22t-2 23t-0.5 17.5t0.5 14t1.5 16t3.5 15t7.5 11q3 3 14.5 5.5t25 3.5t26.5 1.5t18 0.5q11 0 31.5 -1.5t28.5 -9.5
q3 -4 5.5 -14.5t3.5 -23t1.5 -24t0.5 -17.5zM210 44v-12.5t-1 -16t-3 -15.5t-5 -10q-4 -3 -16 -5.5t-26 -4t-26.5 -2t-18.5 -0.5h-13.5t-17.5 1.5t-17 3.5t-11 7q-3 4 -5.5 14.5t-4 22.5t-2.5 23.5t-1 17.5t0.5 14t1.5 16t3.5 15t7.5 11q3 3 14.5 5t25.5 3t27 1.5t18 0.5
q11 0 31 -1t28 -9q3 -4 5.5 -14.5t3.5 -23t1.5 -24.5t0.5 -18z" />
    <glyph glyph-name="semicolon" unicode=";" horiz-adv-x="291" 
d="M209 327q0 -10 -1 -29t-8 -26q-4 -3 -16 -5.5t-26 -3.5t-26.5 -1.5t-18.5 -0.5h-14.5t-17.5 1t-16.5 3.5t-10.5 6.5q-4 5 -6.5 15.5t-4 22t-2 23t-0.5 17.5q0 12 2 30.5t11 26.5q3 3 14.5 5t25 3t26.5 1.5t18 0.5h13.5t17.5 -1t17 -3t12 -6q3 -4 5.5 -15t3.5 -23.5
t1.5 -24t0.5 -17.5zM250 2q0 -35 -14 -67t-31 -62h-109q10 12 21 24.5t20 26t14.5 28.5t5.5 32q0 2 -0.5 5t-0.5 6l-95 2q-6 14 -12.5 37.5t-6.5 38.5q0 20 10 41t24 37l150 -13q11 -33 17.5 -67t6.5 -69z" />
    <glyph glyph-name="less" unicode="&#x3c;" horiz-adv-x="355" 
d="M325 103l-17 -102q-73 69 -148 135.5t-150 136.5q35 29 72 58t70 61q39 39 78 77.5t78 76.5v-116q-42 -45 -88 -87.5t-88 -88.5q22 -18 44.5 -35t45.5 -33q27 -17 53 -39t50 -44z" />
    <glyph glyph-name="equal" unicode="=" horiz-adv-x="454" 
d="M416 388h-385l4 81q91 3 186 3h187zM423 317l-3 -80q-94 -5 -187 -5.5t-187 -1.5l-8 84z" />
    <glyph glyph-name="greater" unicode="&#x3e;" horiz-adv-x="355" 
d="M345 273q-74 -70 -149.5 -136.5t-148.5 -135.5l-16 102q23 22 49 44t53 39q24 16 46.5 33t43.5 35q-42 46 -88 88.5t-88 87.5v116q39 -38 78.5 -76.5t78.5 -77.5q32 -32 69 -61t72 -58z" />
    <glyph glyph-name="question" unicode="?" horiz-adv-x="652" 
d="M627 478v-23.5t-1 -35.5t-2 -35t-4 -22q-12 -22 -39.5 -38.5t-51.5 -21.5q-13 -3 -26 -4t-27 -2q-30 -2 -60.5 -3.5t-60.5 -3.5q-3 -30 -3 -59q0 -14 4 -30.5t9 -29.5l-194 -4v246l19 -1q5 -1 21 -0.5t37 1t44 1.5t43.5 3t35.5 4.5t19 6.5q17 13 22 30.5t5 37.5
q0 65 -36.5 100t-100.5 35q-23 0 -56 -9t-67.5 -21.5t-66.5 -26.5t-51 -23q-8 58 -15 116t-14 115q68 2 135.5 4t136.5 2h49.5t73 -1.5t72.5 -4t48 -6.5q26 -8 51 -26.5t36 -43.5q4 -9 7 -41t4.5 -69t2.5 -71t1 -46zM365 67q0 -18 -11 -34t-27.5 -29t-35 -20.5t-34.5 -7.5
q-15 0 -31.5 5.5t-30 15t-22.5 23.5t-9 31q0 19 11.5 34.5t28.5 26.5t37 16.5t37 5.5q27 0 49.5 -12.5t33.5 -38.5q4 -7 4 -16z" />
    <glyph glyph-name="at" unicode="@" horiz-adv-x="847" 
d="M826 362q0 -52 -13 -96t-38.5 -76.5t-63.5 -51t-87 -18.5q-12 0 -19 1t-16 8q-4 3 -16 18t-25.5 33t-25.5 33.5t-15 20.5q-1 -5 -4 -14.5t-6.5 -19.5t-7.5 -19t-7 -13q-8 -10 -22 -17t-30 -11.5t-32 -6.5t-27 -2q-28 0 -49 7q-22 7 -39 30t-29 51.5t-18 58t-6 50.5
q0 8 1.5 16.5t7.5 16.5q7 10 38 18.5t68.5 15t72.5 10t49 3.5q8 0 15 -7t12 -16.5t8.5 -19.5t4.5 -16q4 20 4 43q0 22 -2 36t-9.5 21t-21 9.5t-35.5 2.5q-44 0 -87.5 -7.5t-86.5 -17.5l-7 118q37 5 74.5 7.5t75.5 2.5q15 0 42 -1.5t56 -6t54 -13t36 -21.5q6 -8 9.5 -32
t5.5 -52t2.5 -53t0.5 -35q0 -33 -1 -66t-3 -66l64 -6q7 8 14.5 17t13.5 18q7 11 11.5 32.5t7.5 46t4 48t1 38.5q0 24 -4 54t-12.5 59.5t-22 56t-32.5 44.5q-40 38 -87 48.5t-101 10.5q-38 0 -69 -6t-60 -17t-56.5 -28.5t-57.5 -39.5q-51 -39 -77.5 -93t-26.5 -119
q0 -62 18.5 -120.5t54.5 -104t88.5 -73t120.5 -27.5q12 0 29.5 2t35.5 5.5t34 10t25 15.5l93 -47q-19 -27 -44.5 -43t-54 -25t-59.5 -11.5t-61 -2.5q-92 0 -163.5 35.5t-120.5 95t-74.5 137t-25.5 162.5q0 54 16 101t43.5 88t64.5 75.5t79 63.5q43 29 89.5 38.5t98.5 9.5
q38 0 87 -6.5t97 -20.5t88 -36.5t61 -54.5q16 -24 30.5 -61t26 -77.5t18.5 -80t7 -68.5zM464 257q0 24 -17.5 42t-42.5 18q-32 0 -52 -19.5t-20 -52.5q0 -27 18 -47t46 -20q16 0 28.5 7t21.5 18t13.5 25t4.5 29z" />
    <glyph glyph-name="A" unicode="A" horiz-adv-x="754" 
d="M723 3l-152 -23q-16 51 -32 101.5t-31 101.5l-246 -9l-31 -133h-154q14 170 29 338t29 337q72 12 143.5 20t144.5 8q89 0 178 -3q16 -104 31.5 -207.5t32.5 -207.5q12 -82 26.5 -162t31.5 -161zM473 319q-1 9 -5 33.5t-9 52t-11.5 50t-12.5 26.5q-2 1 -9.5 2t-16 2
t-16.5 1h-11h-13.5t-18 -0.5t-18 -2.5t-11.5 -5q-2 -1 -5 -13t-7.5 -29.5t-9 -37.5t-8.5 -38t-6.5 -31t-3.5 -15z" />
    <glyph glyph-name="B" unicode="B" horiz-adv-x="873" 
d="M822 495q0 -17 -2 -32t-7 -31q-6 -17 -23 -32.5t-38 -29t-43 -23t-37 -14.5q5 -1 20 -3.5t31.5 -6.5t30.5 -9.5t18 -11.5q7 -12 11.5 -29.5t6.5 -37t3 -38t1 -32.5v-10.5t-1 -10.5q-2 -10 -14 -26.5t-28 -33.5t-31.5 -31.5t-23.5 -20.5q-11 -8 -21.5 -14t-22.5 -11
q-9 -4 -38.5 -6t-62.5 -3.5t-62 -2t-39 -0.5q-80 0 -158 2.5t-158 6.5q2 71 3 141.5t1 142.5q0 81 -5 161t-11 160l-77 7q-5 40 -7.5 78.5t-6.5 77.5l164 -4l164 -4q35 -1 89 -6.5t110.5 -14.5t107 -22t79.5 -29q22 -12 36.5 -36t23.5 -52.5t13 -57.5t4 -51zM556 499
q0 10 -1 25.5t-4 31.5t-8 30t-12 23q-2 3 -11 5t-19.5 3t-20.5 1h-13q-50 0 -99 -5.5t-98 -13.5q6 -49 11 -98t12 -98q12 0 47 2t74.5 5t73.5 7.5t44 10.5q17 11 20.5 32t3.5 39zM548 217q0 15 -4 30.5t-16 25.5q-3 3 -14 5t-23 2.5t-23 1t-15 0.5q-43 0 -85 -4.5t-84 -9.5
l16 -127q5 0 23.5 1t43 2.5t52 3.5t51.5 5t41 6.5t21 8.5q9 11 12.5 23t3.5 26z" />
    <glyph glyph-name="C" unicode="C" horiz-adv-x="737" 
d="M707 237l-1 -156q-46 -9 -91 -17t-91 -14q-48 -6 -96 -11t-96 -5q-14 0 -41 1t-56 4t-55 7.5t-38 11.5q-11 7 -21 16.5t-18 19.5q-21 26 -35 57t-22 64t-11.5 67t-3.5 67q0 40 4.5 83t14.5 85t26.5 81t40.5 72q7 9 18 22t22 19q27 15 60.5 25t69.5 15.5t71.5 8t65.5 2.5
q57 0 114 -6.5t111 -22.5q-2 -27 -3 -54.5t-1 -54.5q0 -65 3 -131q-45 17 -94 24.5t-97 7.5q-10 0 -29 -1.5t-43 -4t-49.5 -6.5t-47.5 -10t-38.5 -14t-21.5 -17q-4 -8 -6.5 -22.5t-4 -30.5t-2 -31t-0.5 -24t2 -36t5 -57.5t7.5 -55.5t9.5 -29q5 -3 16.5 -3.5t15.5 -0.5
q49 0 105 5t113.5 13.5t113.5 18t104 18.5z" />
    <glyph glyph-name="D" unicode="D" horiz-adv-x="855" 
d="M788 359v-61t-7 -61q-5 -22 -11 -38.5t-15 -30t-22 -25t-32 -22.5q-6 -4 -32 -10.5t-64.5 -15.5t-86 -19t-97 -19.5t-98 -19t-88 -17t-67 -13t-36.5 -6.5q-17 183 -32 363t-23 364q84 -3 167 -6.5t168 -9.5q22 -2 64.5 -5t88.5 -8.5t86.5 -13.5t58.5 -20q23 -17 41 -46
t26 -57q4 -13 6 -40.5t3 -58.5t1.5 -60t0.5 -44zM539 346q0 11 -0.5 23.5t-1.5 23.5q-2 16 -5.5 33.5t-9.5 34t-15 31t-22 25.5q-7 6 -34 9.5t-59 5t-60 2t-36 0.5h-41q8 -78 14.5 -153.5t11.5 -153.5q19 1 54.5 5.5t72.5 12t69 19t46 27.5q11 12 13.5 25.5t2.5 29.5z" />
    <glyph glyph-name="E" unicode="E" horiz-adv-x="656" 
d="M636 609q-98 -5 -194.5 -10.5t-194.5 -13.5l-2 -79l258 15q5 -34 7.5 -67t2.5 -67q0 -14 -0.5 -29t-0.5 -29l-240 -43l15 -124q76 5 151.5 14.5t152.5 16.5q7 -50 14 -100.5t20 -98.5q-142 1 -282 -0.5t-282 -1.5q3 117 7 233t4 234v19q0 68 -2 135.5t-4 136.5
q79 -1 157.5 -0.5t158.5 0.5q61 0 121.5 -2.5t121.5 -5.5z" />
    <glyph glyph-name="F" unicode="F" horiz-adv-x="674" 
d="M638 527q-87 -5 -171.5 -8t-170.5 -11l8 -86l166 -11l28 -100q-45 -10 -90.5 -15.5t-90.5 -14.5q10 -75 14 -149.5t4 -149.5l-263 -9q5 117 6 232.5t1 232.5v89v201q58 1 114.5 2.5t114.5 1.5q78 0 156 -3.5t157 -7.5q6 -48 11.5 -96.5t5.5 -97.5z" />
    <glyph glyph-name="G" unicode="G" horiz-adv-x="791" 
d="M724 -16q-121 2 -247.5 6t-247.5 18q-14 2 -31.5 3.5t-31.5 6.5q-29 11 -45.5 24.5t-25.5 31t-13 39t-7 48.5q-9 70 -14 140.5t-5 141.5q0 13 0.5 31.5t2 38.5t4.5 38t8 30q24 52 70.5 83.5t102.5 49t115.5 23t109.5 5.5q107 0 214 -21l8 -214q-102 32 -211 32
q-20 0 -53 -2t-67.5 -7.5t-64.5 -16t-42 -28.5q-6 -9 -10.5 -25t-7 -33.5t-3.5 -34.5t-1 -28q0 -23 3.5 -54.5t8.5 -64.5t12 -63t15 -49h177l-9 193q69 -5 138.5 -4.5t138.5 0.5q7 -85 8 -169t1 -169z" />
    <glyph glyph-name="H" unicode="H" horiz-adv-x="777" 
d="M695 3l-199 -5q-2 65 -3 129t-3 129l-188 -9q-1 -10 -1 -19.5v-18.5q0 -56 4.5 -111.5t9.5 -110.5q-20 -1 -40.5 -1.5t-40.5 -0.5q-39 0 -78.5 1.5t-78.5 1.5q2 93 5 184t5 184q2 91 2.5 180t1.5 179h167q8 -75 11 -149.5t9 -149.5q48 1 95 1t96 1l10 324q14 1 27.5 1
h27.5q40 0 78.5 -2t77.5 -9q5 -183 4 -364.5t1 -364.5z" />
    <glyph glyph-name="I" unicode="I" horiz-adv-x="521" 
d="M460 734q-5 -61 -4 -121.5t-1 -120.5l-111 4q-1 -35 -1.5 -69t-0.5 -69q0 -42 0.5 -82.5t1.5 -82.5l102 -2q-2 -29 -2 -59v-60q0 -25 1.5 -50t6.5 -49l-359 -6q0 49 -1 96.5t-4 96.5l65 1q-5 94 -11.5 186t-13.5 185l-95 12q-2 42 -3.5 83.5t-3.5 83.5q109 4 216.5 9.5
t217.5 13.5z" />
    <glyph glyph-name="J" unicode="J" horiz-adv-x="628" 
d="M556 345q0 -24 -2 -58t-7 -70t-13.5 -69t-21.5 -55q-22 -38 -54.5 -59.5t-70 -32t-78.5 -13.5t-81 -3q-34 0 -59.5 2t-49 7t-48 15t-54.5 25q-4 47 -4.5 93.5t-2.5 94.5q31 -5 56 -10t49 -9t49 -6.5t57 -2.5q20 0 44.5 2.5t40.5 15.5q10 8 16 26t8.5 39t3 41t0.5 32
q0 75 -8 150t-20 149q-5 29 -9 58t-13 56q11 -1 22.5 -1h24.5q50 0 99 2.5t99 9.5q11 -93 15.5 -183.5t9.5 -183.5q1 -16 1.5 -31t0.5 -31z" />
    <glyph glyph-name="K" unicode="K" horiz-adv-x="797" 
d="M838 5q-48 -11 -95.5 -20.5t-96.5 -17.5q-60 91 -118.5 179.5t-121.5 176.5l-107 -104l-10 -222q-23 1 -45.5 1.5t-44.5 0.5q-21 0 -41 -1t-40 -4q-12 92 -22.5 183.5t-18.5 184.5t-12.5 185.5t-8.5 185.5q75 -2 148.5 -2.5t148.5 -2.5l-6 -232q54 56 102 114t99 118
q48 3 97 6.5t97 7.5l-4 -74l-212 -221q76 -113 153.5 -222t158.5 -220z" />
    <glyph glyph-name="L" unicode="L" horiz-adv-x="573" 
d="M553 25q-119 -9 -236.5 -17t-236.5 -15q-5 191 -8 379.5t-11 380.5q67 1 132 4t131 8q-11 -74 -20.5 -148.5t-14.5 -149.5q-4 -63 -6.5 -125.5t-4.5 -125.5q66 -2 130.5 -2t129.5 -2z" />
    <glyph glyph-name="M" unicode="M" horiz-adv-x="998" 
d="M921 -17q-19 1 -37 3q-15 2 -29.5 3t-21.5 1q-39 0 -78 -1.5t-77 -5.5q1 42 1.5 82.5t0.5 82.5q0 75 -2.5 149t-4.5 148l-210 -475q-46 125 -98.5 245.5t-109.5 240.5l16 -494q-11 0 -22.5 0.5t-23.5 0.5q-38 0 -74.5 -3t-73.5 -6q5 93 10 185t5 185q0 109 -1.5 217
t-2.5 217q72 0 140.5 4t140.5 11q24 -80 49.5 -158.5t54.5 -156.5q31 74 70.5 145t80.5 141q68 2 134.5 4t134.5 3q3 -90 7.5 -178t8.5 -178q3 -71 5.5 -142t4.5 -141l2 -84v-45z" />
    <glyph glyph-name="N" unicode="N" horiz-adv-x="933" 
d="M851 322q0 -88 -0.5 -173.5t-1.5 -173.5q-62 3 -123 3q-30 0 -60.5 -3t-60.5 -8q-38 83 -76 164.5t-76 164.5q-28 61 -53 122t-50 123q-9 -135 -18.5 -268.5t-15.5 -268.5l-216 6q-5 192 -9 382t-14 382l391 2q20 -50 37.5 -100.5t33.5 -102.5q23 -79 52 -156.5
t58 -155.5q-1 125 -4.5 249t-5.5 250l202 -24q4 -104 7 -207t3 -207z" />
    <glyph glyph-name="O" unicode="O" horiz-adv-x="956" 
d="M895 427v-25.5t-1 -24.5q-1 -10 -2.5 -35t-4 -57.5t-6 -68.5t-8 -66.5t-9.5 -52.5t-10 -27q-30 -30 -71.5 -44.5t-86.5 -19.5t-90 -4t-84 1q-13 0 -44 0.5t-70.5 1.5t-82.5 3.5t-80.5 7t-65 11t-34.5 16.5q-8 11 -14 24t-11 25q-13 33 -24 70.5t-18.5 77t-12 78.5
t-4.5 74q0 19 3 49.5t8 66t12 72.5t15.5 69t18.5 55.5t22 31.5q10 7 37 13t63 10.5t77 8t78 6t67 3.5t44 1q19 0 51.5 -2t70.5 -6.5t77 -11t72.5 -15.5t57.5 -20t30 -24q5 -11 9.5 -31.5t7.5 -46.5t5.5 -55t4 -55.5t2.5 -48.5t1 -35zM716 394q0 20 -2 42.5t-13 39.5
q-8 12 -38.5 19t-67 10t-70.5 3.5t-48 0.5q-11 0 -38.5 -2t-58 -6.5t-56.5 -11t-32 -15.5q-6 -7 -9.5 -26.5t-6 -42t-3.5 -43t-1 -29.5q0 -8 0.5 -24t2.5 -33t4.5 -32t7.5 -22q3 -5 18 -9t36.5 -7.5t45.5 -5.5t46.5 -3.5t40 -2t24.5 -0.5q12 0 41.5 2t62 6.5t60 11
t35.5 15.5q6 7 10 29.5t6 49t2.5 51t0.5 35.5z" />
    <glyph glyph-name="P" unicode="P" horiz-adv-x="859" 
d="M803 502q0 -22 -2.5 -53t-8 -63t-15.5 -60t-25 -44q-6 -7 -38.5 -13.5t-78 -13t-97.5 -12.5t-98.5 -10.5t-80.5 -7.5t-43 -3l-8 -208q-31 -2 -61 -0.5t-61 1.5q-20 0 -40 -1t-40 -3v186t-4 186q-3 85 -5.5 169t-4.5 169q103 7 207.5 17.5t208.5 10.5q18 0 57 -3.5t82 -11
t79.5 -18.5t48.5 -25q8 -9 13.5 -35t8.5 -55.5t4.5 -57.5t1.5 -41zM523 509q0 9 -1 23t-3.5 27.5t-7.5 25t-13 16.5q-5 3 -16 5t-23 3t-23 1.5t-16 0.5q-37 0 -74 -4t-75 -10q3 -30 3.5 -59t0.5 -58q0 -47 3 -95q13 0 45 1.5t67 5t66 10t42 17.5q18 17 21.5 41.5t3.5 48.5z
" />
    <glyph glyph-name="Q" unicode="Q" horiz-adv-x="974" 
d="M902 515q0 -17 -0.5 -51t-2.5 -76.5t-5.5 -88t-9.5 -85.5t-14.5 -70t-20.5 -40q-9 -8 -23.5 -16t-30 -15t-30.5 -12.5t-27 -8.5q19 -45 37 -88.5t36 -88.5l-148 -35q-29 42 -54.5 84t-54.5 83q-8 -1 -16 -1h-16q-17 0 -50.5 2t-75 6t-86.5 10t-83.5 13t-66.5 16t-36 19
q-14 17 -23.5 56.5t-15.5 85t-9 88t-3 64.5q-1 25 -1 49.5v50.5q0 19 0.5 49t3.5 62t10 60t21 43q8 9 35.5 17.5t65.5 16t82 13.5t86 11t77.5 7.5t55.5 3.5q29 1 58 1.5t58 0.5q38 0 80.5 -1.5t81 -13t68 -36.5t41.5 -71q2 -9 3.5 -24t2 -32t0.5 -33v-25zM686 457v13t-1 16
t-3.5 15t-6.5 11q-5 4 -14 7t-19.5 4t-21 1.5t-16.5 0.5q-14 0 -43.5 -2t-66 -6t-76.5 -9.5t-74 -12.5t-58.5 -15t-30.5 -17q-4 -6 -4.5 -16t-0.5 -18q0 -20 3 -50t8 -62t10.5 -62t10.5 -49q24 -9 43 -14.5t37 -8.5t37.5 -4.5t45.5 -2.5l-62 100q26 13 49 25t46 22t47.5 18
t53.5 15l67 -137q21 57 30.5 117.5t9.5 120.5z" />
    <glyph glyph-name="R" unicode="R" horiz-adv-x="839" 
d="M793 503q0 -82 -50 -129t-132 -51q99 -165 173 -338l-292 -7q-8 81 -24 149t-45 143q-33 -2 -65.5 -5t-64.5 -5l5 -227q-57 -3 -114 -3q-29 0 -56.5 1t-55.5 4q7 92 13 183.5t7 182.5q3 162 9 324q94 5 187.5 11t187.5 6q24 0 52 -1t56.5 -5.5t55 -12.5t47.5 -21
q51 -32 78.5 -85.5t27.5 -113.5zM561 519q0 8 -0.5 22t-2.5 28.5t-6 27t-11 18.5q-5 4 -17 6t-25.5 3.5t-26 2t-17.5 0.5q-40 0 -78.5 -4t-76.5 -10l27 -194q22 -5 46 -7t47 -2q10 0 29.5 1t40 4t38 8.5t24.5 14.5q3 4 5 15.5t2.5 24t1 24.5t0.5 17z" />
    <glyph glyph-name="S" unicode="S" horiz-adv-x="855" 
d="M824 176q0 -48 -23 -77.5t-65 -47.5q-35 -15 -88 -23.5t-110 -12t-112 -4.5t-92 -1q-63 0 -124.5 2t-124.5 6q3 102 -6 202q75 -2 149.5 -3.5t149.5 -3.5q29 -1 58.5 -2t59.5 -1h15t21 1t20.5 3t14.5 6q4 4 5 11.5t1 13.5q0 11 -3 26.5t-9 25.5q-1 1 -6.5 2t-12.5 1.5
t-13 1t-7 0.5q-64 5 -127.5 7t-127.5 7q-29 3 -59.5 6t-56.5 11q-25 7 -42.5 31.5t-28 56t-15 63.5t-4.5 54q0 36 7 68.5t22.5 60.5t39.5 49.5t59 35.5q60 23 128.5 32t131.5 9q74 0 146 -9t144 -23q-1 -29 -1.5 -57.5t-0.5 -57.5t3 -58.5t6 -58.5q-95 -2 -189.5 -3.5
t-190.5 -5.5q-12 0 -32.5 -1t-39.5 -2.5t-33 -2.5l-14 -1q-5 -11 -6 -22.5t-1 -23.5q0 -6 0.5 -15t4.5 -14q1 -1 17 -3t35.5 -4t37 -4t21.5 -2q33 -3 77.5 -7t91 -9t89.5 -12.5t75 -17.5q29 -10 53.5 -31.5t42.5 -50t28.5 -60t10.5 -61.5z" />
    <glyph glyph-name="T" unicode="T" horiz-adv-x="685" 
d="M644 582v-70l-193 -10q-4 -58 -6 -115t-2 -114q0 -70 -3.5 -139.5t-8.5 -138.5q-36 -2 -72 -3.5t-72 -1.5q-13 0 -25.5 0.5t-24.5 0.5q2 61 3.5 121.5t1.5 120.5t-3 120.5t-7 121.5q-29 -1 -58.5 -2t-59.5 -1h-33.5t-33.5 1q-3 74 -4 147l-2 146q150 -3 298 -8.5
t297 -9.5q4 -43 6 -83.5t2 -82.5z" />
    <glyph glyph-name="U" unicode="U" horiz-adv-x="890" 
d="M818 330q0 -57 -2.5 -113t-10.5 -113q-16 -12 -32 -22.5t-33 -22.5q-14 -9 -30.5 -20.5t-34.5 -22.5t-36.5 -19.5t-34.5 -11.5q-15 -4 -40 -3.5t-42 0.5q-42 -2 -84 -3t-86 -1q-20 0 -46 -0.5t-47 4.5q-6 1 -20 9.5t-31.5 21t-36.5 27t-36.5 28t-30 24t-17.5 14.5
q-5 53 -7.5 105.5t-2.5 105.5q0 103 7.5 204t16.5 203l206 5q-10 -64 -14 -135.5t-4 -137.5q0 -11 1 -38.5t4 -58.5t7.5 -57t11.5 -34q3 -3 15.5 -5.5t30 -4.5t37.5 -3t38 -1.5t32 -1t20 -0.5h17t24.5 0.5t23.5 1.5t15 4q12 8 18 39t9 68t3 71v49q0 23 0.5 46t0.5 46
q0 47 -1 92.5t-3 92.5q21 -2 41.5 -2.5t41.5 -0.5q25 0 49.5 1t48.5 6q21 -107 32.5 -216.5t11.5 -219.5z" />
    <glyph glyph-name="V" unicode="V" horiz-adv-x="712" 
d="M696 775q-40 -195 -82.5 -386t-87.5 -384l-320 -5q-25 108 -50.5 215.5t-57.5 214.5q-23 81 -47.5 160t-50.5 159q35 -4 70.5 -7t70.5 -3h15t15 2q40 -126 83 -247.5t88 -245.5q30 72 58.5 144.5t57.5 145.5q2 5 9 25t16.5 46.5t20 56t19 54.5t14 41.5l5.5 16.5
q11 -2 21.5 -2h21.5q29 -1 56 -1h55z" />
    <glyph glyph-name="W" unicode="W" horiz-adv-x="966" 
d="M930 729q-21 -187 -52 -363.5t-73 -360.5q-11 -1 -23 -1h-23q-26 0 -51.5 1t-51.5 6q-32 67 -67 132.5t-66 134.5q-14 -34 -31.5 -66t-37.5 -64q-26 -39 -50 -79t-47 -81l-163 4q-23 90 -43.5 178t-40.5 178q-26 112 -53.5 221.5t-56.5 220.5h290q4 -33 7 -66t6 -65
q8 -87 18 -172.5t20 -172.5q17 61 34.5 121t38.5 120q18 54 35 106.5t33 106.5h49q33 -121 74 -237.5t89 -232.5q25 109 43.5 219t38.5 220z" />
    <glyph glyph-name="X" unicode="X" horiz-adv-x="761" 
d="M802 750q-77 -95 -152.5 -188.5t-156.5 -185.5q57 -93 120 -183q34 -48 70 -94.5t73 -93.5l-252 -8q-33 57 -68 111.5t-68 111.5q-38 -56 -73 -111.5t-69 -113.5q-22 4 -45 4.5t-46 0.5q-38 0 -76.5 -1.5t-76.5 -3.5l262 338q-23 38 -45.5 75t-45.5 74
q-43 66 -88.5 130.5t-90.5 129.5q72 -4 142 -5t141 -5q30 -51 62.5 -100.5t64.5 -99.5q37 53 73.5 105.5t69.5 107.5q25 -2 49.5 -1.5t49.5 0.5q87 0 176 6z" />
    <glyph glyph-name="Y" unicode="Y" horiz-adv-x="824" 
d="M758 249q0 -36 -11 -75.5t-32 -74t-51.5 -60t-68.5 -33.5q-15 -3 -35.5 -5t-42.5 -3t-43.5 -2t-36.5 -1q-86 -4 -172 -4.5t-173 -0.5q-4 41 -7.5 81t-9.5 82q69 3 137.5 6.5t137.5 8.5q15 1 33.5 1t38 1t38 2.5t32.5 4.5q6 1 14.5 3.5t15.5 7t12 10.5t5 15
q0 21 -4.5 46.5t-6.5 45.5q-75 -7 -150.5 -13.5t-151.5 -6.5q-52 0 -83 29.5t-45 77.5q-3 11 -5.5 26.5t-4 32t-2.5 32.5t-2 27q-5 66 -7.5 130t-4.5 130q48 -5 96.5 -9t96.5 -7q0 -47 2.5 -99.5t12.5 -97.5q5 -24 19 -41.5t33.5 -29t42 -17t45.5 -5.5q27 0 54 5.5t52 13.5
q-4 75 -6.5 148t-9.5 147q30 1 60 2.5t60 1.5q47 0 95 -9q0 -43 1.5 -86t3.5 -86q2 -20 3.5 -40.5t2.5 -40.5q4 -68 13 -135.5t9 -135.5z" />
    <glyph glyph-name="Z" unicode="Z" horiz-adv-x="782" 
d="M731 497q-49 -42 -99.5 -81t-104.5 -74l-242 -161q106 4 211.5 9t212.5 5l-3 -165q-141 -17 -282 -24q-88 -5 -174.5 -11t-172.5 -13q-6 48 -9 95.5t-14 95.5q112 106 224 209t230 204q-55 -1 -108.5 -0.5t-107.5 0.5q-60 0 -119 -2.5t-119 -5.5l-8 155h346
q79 0 157 -1.5t157 -3.5q11 -58 15 -115.5t10 -115.5z" />
    <glyph glyph-name="bracketleft" unicode="[" horiz-adv-x="310" 
d="M290 731l-114 -17q2 -75 4 -148.5t2 -148.5v-356l96 -17l3 -82q-23 -5 -46.5 -9.5t-46.5 -4.5q-26 0 -52.5 2.5t-52.5 4.5q-8 128 -15 254t-7 254q0 91 7 187.5t15 187.5l201 -18z" />
    <glyph glyph-name="backslash" unicode="\" horiz-adv-x="504" 
d="M524 -27l-122 10q-56 107 -112 212.5t-117 210.5q-51 86 -98 172.5t-95 174.5h116q57 -97 113 -193.5t112 -193.5q55 -97 105 -195.5t98 -197.5z" />
    <glyph glyph-name="bracketright" unicode="]" horiz-adv-x="307" 
d="M246 304q0 -90 -5 -179t-13 -179l-200 13l-8 89l114 20q-2 74 -5 148t-4 149l-4 355l-96 16l-5 82q22 5 46 10t47 5q26 0 52.5 -2t52.5 -4q12 -158 21 -320q2 -51 4.5 -101.5t2.5 -101.5z" />
    <glyph glyph-name="asciicircum" unicode="^" horiz-adv-x="507" 
d="M486 375l-105 -18q-29 63 -57 124.5t-62 122.5q-13 -26 -26.5 -51t-27.5 -51q-21 -36 -37.5 -76t-33.5 -78l-117 3q60 105 120 208t120 207q59 -97 114 -195t112 -196z" />
    <glyph glyph-name="underscore" unicode="_" horiz-adv-x="580" 
d="M580 16q-68 -2 -134.5 -3t-133.5 -1q-77 0 -154 -4.5t-154 -10.5l-4 130q79 2 158.5 4t158.5 2q65 0 128.5 -1t127.5 -2z" />
    <glyph glyph-name="grave" unicode="`" 
d="M594 690l-36 -56q-29 16 -53.5 30t-47.5 29t-46 32.5t-48 38.5l72 99q23 -24 47 -48t46 -51q16 -20 32.5 -38t33.5 -36z" />
    <glyph glyph-name="a" unicode="a" horiz-adv-x="811" 
d="M755 451q0 -84 -6 -167l-12 -166q-112 -10 -223 -17t-223 -7q-10 0 -37 0.5t-57 2t-57 4t-36 7.5q-33 18 -46 45.5t-13 62.5q0 12 1 32t4 42t8 41t12 28q9 12 41 20.5t76.5 13.5t96 8t98.5 4.5t84 1.5h53q3 22 3 43v10.5t-1 10.5q-3 6 -19 10t-39.5 6t-51 3.5t-53.5 1.5
h-46h-29q-63 0 -126 -2.5t-126 -4.5q4 38 6.5 77t0.5 77q73 13 146.5 18.5t148.5 5.5q27 0 59 -0.5t64 -2t63.5 -4.5t58.5 -8q28 -5 55.5 -18t51.5 -32t42 -43.5t26 -52.5q1 -3 1.5 -10t0.5 -15.5v-15.5v-10zM532 216v128q-29 1 -58 1.5t-58 0.5q-6 0 -33.5 -0.5t-59 -2.5
t-57.5 -5t-30 -9q-5 -8 -6.5 -16.5t-1.5 -17.5q0 -7 1 -19t3.5 -25t5.5 -24t8 -16q4 -5 13.5 -7.5t20.5 -4t22 -2t17 -0.5q24 0 51.5 2t56 4.5t55.5 6t50 6.5z" />
    <glyph glyph-name="b" unicode="b" horiz-adv-x="862" 
d="M826 208q0 -54 -24 -98t-78 -61q-8 -2 -33 -3.5t-54 -2t-55 -0.5h-34q-71 0 -141.5 1t-140.5 3l-5 -43q-51 0 -103 -2t-104 -5q1 77 1.5 153t0.5 153q0 110 -3.5 218.5t-6.5 217.5l170 -7q-1 -13 -1 -26.5v-27.5q0 -66 2.5 -131.5t2.5 -131.5q16 29 44 55t59 34
q28 7 64 13t73.5 10.5t74.5 6.5t66 2q21 0 46.5 -5.5t50.5 -15.5t45.5 -24.5t32.5 -33.5q10 -17 19.5 -50.5t16 -71t10.5 -72.5t4 -55zM616 271q0 10 -2.5 26t-7 32.5t-10.5 31t-14 21.5q-4 4 -13 5.5t-18.5 2.5t-19 1h-14.5q-9 0 -28 -1t-43 -2.5t-50.5 -4t-49.5 -5.5
t-40 -6.5t-23 -7.5l12 -167q26 0 66.5 0.5t84 3t84 7.5t64.5 15q17 7 19.5 19t2.5 29z" />
    <glyph glyph-name="c" unicode="c" horiz-adv-x="722" 
d="M696 527q0 -46 -12 -89q-7 -1 -41.5 -2.5t-82 -4t-102 -6t-101 -7.5t-79 -8.5t-36.5 -8.5q-16 -14 -24 -34t-8 -40q0 -12 2.5 -18.5t8.5 -14.5q3 -3 21 -5t40 -3t41 -1.5t22 -0.5q72 0 144 3t144 8l8 -172q-100 -8 -200.5 -15.5t-201.5 -7.5h-14.5t-20.5 0.5t-21 1.5
t-14 2q-21 6 -41.5 13.5t-38.5 19t-31.5 27.5t-19.5 39q-4 15 -6.5 39.5t-3.5 50.5t-1.5 51t-0.5 42q0 39 1 73t11 62.5t32.5 51t64.5 39.5q19 8 57 12.5t79.5 7t79.5 3.5t59 1q70 0 139.5 -3t139.5 -8q3 -25 5 -49.5t2 -48.5z" />
    <glyph glyph-name="d" unicode="d" horiz-adv-x="794" 
d="M737 556v-83t-2 -83q-2 -92 -8 -182.5t-13 -181.5q-91 -6 -180 -10t-180 -4q-12 0 -38 0.5t-55.5 1.5t-55.5 3.5t-38 7.5q-77 28 -114.5 75.5t-37.5 131.5v16q2 37 6 66t14.5 53t29 44.5t50.5 41.5q22 15 52 25t62.5 17t64 10t57.5 3q48 0 95.5 -7t94.5 -21
q-5 66 -8.5 130.5t-10.5 129.5q54 5 107 11l106 12q1 -52 1.5 -103.5t0.5 -103.5zM584 254v46t-1 46q-63 3 -126 3q-9 0 -38 -0.5t-61.5 -2t-60.5 -5t-36 -8.5q-15 -11 -18.5 -31t-3.5 -37q0 -8 1 -21.5t3.5 -28t6.5 -27t9 -18.5q3 -3 10.5 -5t16.5 -3t17.5 -1h13.5
q57 0 113 5t113 13q8 2 19 2.5t20 3.5v2q0 1 1 2q2 16 1.5 32t-0.5 33z" />
    <glyph glyph-name="e" unicode="e" horiz-adv-x="757" 
d="M731 371q-131 -7 -261 -11.5t-261 -9.5q-1 -4 -1 -8v-8q0 -34 15.5 -52t38.5 -25.5t51 -8.5t52 -1q67 0 134 4.5t135 9.5l8 -159q-66 -3 -131.5 -5t-131.5 -2q-14 0 -51.5 0.5t-80 3t-79.5 6.5t-49 11q-31 18 -48.5 46t-27 61t-13 67.5t-4.5 66.5q-1 5 -0.5 10.5
t0.5 10.5q0 53 11.5 98.5t42.5 88.5q21 30 62 50t89 31.5t96 16t83 4.5q31 0 76 -5.5t89.5 -18.5t80.5 -33.5t49 -50.5q2 -6 4.5 -20.5t5.5 -33t5.5 -39.5t4.5 -40t3.5 -34t2.5 -21zM595 444q-6 44 -22.5 69.5t-41 38t-56 16t-67.5 3.5q-12 0 -30 -0.5t-36 -3t-34 -7.5
t-25 -14q-7 -6 -11.5 -16.5t-7.5 -22.5t-4.5 -23.5t-1.5 -19.5q0 -16 3 -31z" />
    <glyph glyph-name="f" unicode="f" horiz-adv-x="470" 
d="M470 709q0 -29 -2.5 -56.5t-6.5 -56.5q-5 1 -16 1q-14 0 -31.5 -2t-35 -6.5t-33.5 -12t-26 -18.5q-11 -13 -21.5 -32t-10.5 -37q0 -8 1 -12l112 -5q2 -16 4 -33t2 -33t-1 -31l-2 -30l-97 -20q8 -86 17 -170.5t14 -170.5q-12 0 -24 0.5t-23 0.5q-52 0 -102.5 -3.5
t-101.5 -4.5l9 331l-75 -4v27q0 35 4 69t6 69q32 1 47 2.5t20 3.5q6 2 4 5q2 34 6 65q3 26 8 53t13 42q25 48 58.5 73.5t73 37t84 13t92.5 1.5h15.5t15.5 -1q3 -29 3 -55z" />
    <glyph glyph-name="g" unicode="g" horiz-adv-x="769" 
d="M708 354q0 -42 -0.5 -83.5t-0.5 -83.5q-1 -22 -0.5 -45t-1.5 -46q-3 -22 -6 -46.5t-10 -48.5t-18.5 -45t-30.5 -36q-5 -4 -20 -7t-35 -6t-43 -5t-44 -3.5t-38 -3t-24 -1.5q-63 -2 -124.5 -3t-124.5 -1h-64q-2 17 -4 35t-2 36q0 20 -4 41.5t-9 42.5l66 -1q6 0 33.5 0.5
t64.5 1t79.5 2t78.5 4.5t61.5 7t28.5 9q8 13 10 29.5t2 31.5q0 8 -0.5 16.5t-1.5 16.5q-56 -4 -111 -7t-112 -3h-32.5t-40 1t-40 3t-31.5 6q-20 6 -40.5 13.5t-38.5 18.5t-31.5 26.5t-18.5 37.5q-3 11 -3.5 24t-0.5 24q0 28 3 71t10.5 87.5t20 84t31.5 59.5q11 12 35.5 21
t55.5 15t65.5 10.5t67.5 6.5t60.5 3t43.5 1q56 0 112 -3l7 64l168 -25q1 -87 1.5 -173t0.5 -174zM531 373q0 32 -1 62.5t-3 62.5q-44 10 -88 16t-90 6q-8 0 -24 -1t-33.5 -3.5t-32.5 -7t-21 -10.5q-9 -10 -11 -23t-2 -26q0 -11 2.5 -33.5t6.5 -46.5t10 -45t12 -29t15 -12
t19.5 -5.5t21 -2t18.5 -0.5q20 0 48.5 1.5t57 5.5t53.5 11.5t38 20.5q2 1 3 10t1 19v19v11z" />
    <glyph glyph-name="h" unicode="h" horiz-adv-x="764" 
d="M723 390q0 -37 -4.5 -74.5t-9.5 -74.5q-8 -65 -18 -128.5t-20 -128.5q-49 -1 -96 -4t-95 -7v144.5t-3 143.5q0 14 -0.5 36t-4.5 36q-6 23 -15 31.5t-35 8.5q-18 0 -42 -4t-49 -10t-47.5 -13.5t-37.5 -15.5q-8 -81 -19.5 -161t-14.5 -162l-141 7q-11 180 -21 358.5
t-19 358.5l220 14q-2 -66 -4 -131.5t-4 -131.5q19 16 43 24.5t49.5 11.5t51.5 3h50q36 0 81.5 -2.5t87 -14t73.5 -36.5t43 -70q1 -2 1 -4v-4z" />
    <glyph glyph-name="i" unicode="i" horiz-adv-x="324" 
d="M221 669q0 -20 -8.5 -37.5t-23 -30.5t-32.5 -20.5t-36 -7.5q-20 0 -37.5 9t-30.5 23t-20 32.5t-7 37.5t7.5 35.5t20 28.5t29 19t35.5 7t37.5 -7.5t33 -21t23.5 -31t9 -36.5zM262 499q-5 -53 -8 -105l-6 -104q-4 -61 -13.5 -121t-21.5 -120l-153 -16q0 32 0.5 63t0.5 63
q0 82 -3 164l-6 164q53 2 104.5 6t105.5 6z" />
    <glyph glyph-name="j" unicode="j" horiz-adv-x="315" 
d="M228 669q0 -20 -9 -37t-23 -30.5t-32 -21t-37 -7.5q-20 0 -37.5 9t-30.5 23t-20 32.5t-7 38.5q0 38 27.5 64t65.5 26q19 0 37.5 -7.5t33 -21t23.5 -31t9 -37.5zM249 372v-158t-1 -158q0 -26 -1 -52t-1 -52q0 -23 -2 -50t-8.5 -52.5t-21 -45.5t-40.5 -28q-9 -3 -38 -5
t-62 -3t-62.5 -1h-39.5q-15 0 -30 0.5t-29 0.5q-2 38 -8.5 72.5t-12.5 72.5l99 9q14 1 30.5 2t30.5 5.5t23 15t9 30.5q0 46 -4 92t-7 92q-5 75 -11 150t-12 152q11 -1 21 -1h21q39 0 78.5 2.5t78.5 4.5v-95z" />
    <glyph glyph-name="k" unicode="k" horiz-adv-x="690" 
d="M726 551l-257 -186q3 -12 12 -38.5t20 -55t23.5 -53t23.5 -31.5q7 -5 18 -8t22.5 -5t23 -2.5t19.5 -0.5q14 0 29 1t29 3q-2 -13 -3 -26.5t-1 -27.5q0 -24 1 -48t1 -47q-7 -1 -24.5 -2.5t-40 -3t-47.5 -3.5t-46.5 -3.5t-37 -1.5t-19.5 2q-17 8 -33 17t-27 25
q-5 7 -16.5 38t-24 68t-23 69t-13.5 41l-96 -62v-174l-198 -17q6 140 13 278.5t7 279.5q0 43 -0.5 85t-1.5 86q41 -8 81.5 -10t81.5 -6v-374q78 48 152.5 98t144.5 110q53 -6 103.5 -9t103.5 -6z" />
    <glyph glyph-name="l" unicode="l" horiz-adv-x="305" 
d="M264 769q-8 -97 -15.5 -193t-12.5 -193q-5 -88 -10.5 -174.5t-10.5 -174.5l-153 -8q0 91 0.5 180.5t-1.5 180.5t-8 180.5t-12 180.5z" />
    <glyph glyph-name="m" unicode="m" horiz-adv-x="1058" 
d="M996 253q0 -42 -1.5 -82.5t-5.5 -81.5q-42 -2 -80.5 -4.5t-80.5 -10.5q12 72 12 145q0 13 -2 44.5t-5.5 66t-9 63.5t-12.5 38q-5 6 -15 9t-21 4.5t-22 2t-18 0.5q-12 0 -28.5 -1t-33.5 -3.5t-32.5 -7.5t-25.5 -12q-5 -4 -8.5 -21t-5.5 -41t-3.5 -52t-2.5 -52.5t-1 -43
v-23.5q0 -66 3 -132q-29 -1 -56.5 -2t-56.5 -1h-8t-10 1q-6 0 -12 1v73q0 31 -1 64t-2 58q-1 17 -3 44t-9 52.5t-20.5 44t-37.5 18.5q-11 0 -29.5 -3.5t-38 -9t-36 -13t-23.5 -15.5q-2 -2 -4.5 -22.5t-4.5 -50t-4.5 -64t-4 -64.5t-3 -51.5t-1.5 -25.5q-20 -2 -40.5 -3.5
t-40.5 -1.5q-19 0 -38 1t-37 3q-5 127 -14.5 251t-20.5 251q28 3 55.5 5.5t55.5 2.5q27 0 54 -1t55 -2l-13 -86q46 37 88.5 55t101.5 18q23 0 40.5 -5.5t32 -15t28.5 -22.5t30 -28q18 28 41.5 44.5t50.5 25.5t57 11.5t60 2.5q24 0 50.5 -1.5t51 -8.5t44.5 -21t31 -38
q13 -29 21 -64t12.5 -72t6 -73t1.5 -67z" />
    <glyph glyph-name="n" unicode="n" horiz-adv-x="691" 
d="M635 297v-54.5t-2 -54.5l-223 -14q4 52 6.5 103t2.5 104v17t-1 25.5t-2 25.5t-2 17q-5 14 -10.5 24t-13 16t-18.5 8.5t-27 2.5q-12 0 -30.5 -2t-37.5 -6t-36 -10t-24 -14l-2 -295q-2 4 -11.5 4h-13.5q-30 0 -62 -2.5t-62 -6.5q-13 118 -23 235t-23 235q20 1 40 1.5
t40 0.5q26 0 52.5 -1.5t52.5 -2.5l7 -77q28 46 76 77t103 31q28 0 58 -3t57.5 -12t52 -25t41.5 -41q8 -12 13.5 -35.5t9.5 -53t6.5 -62.5t3.5 -63t1.5 -54.5t0.5 -37.5z" />
    <glyph glyph-name="o" unicode="o" horiz-adv-x="836" 
d="M784 396v-15.5t-1 -15.5q-1 -14 -5 -46t-11 -66.5t-17 -63.5t-22 -37q-6 -4 -40.5 -7t-84 -6t-107.5 -5t-110.5 -3.5t-92 -2.5t-52.5 -1h-20.5t-30.5 0.5t-30 1.5t-20 3q-14 5 -28 16.5t-26 26t-21.5 30t-13.5 29.5q-3 11 -5 33.5t-3 47t-1.5 47.5t-0.5 35q0 19 1 52.5
t6 68.5t14.5 65.5t27.5 42.5q8 5 30 9t52 7t64 4.5t66.5 2t60.5 0.5t45 -1q15 -1 43 -1.5t62.5 -1.5t71.5 -3.5t69 -6.5t56.5 -10.5t32.5 -15.5q13 -14 21 -42t12.5 -59.5t6 -62t1.5 -49.5zM572 375q0 12 -1 28t-3 32.5t-6 32t-10 25.5q-8 13 -31 20t-50.5 10.5t-54 4.5
t-39.5 1q-7 0 -25 -0.5t-37.5 -1.5t-36.5 -3.5t-22 -5.5q-9 -6 -14 -18.5t-7.5 -27.5t-3 -29.5t-0.5 -23.5t1.5 -32.5t4 -50t6.5 -48.5t10 -28q7 -8 26.5 -13t42 -8.5t43.5 -5t30 -1.5q16 0 38 1t44.5 5t42.5 11t32 19q7 7 11 21t6 30t2.5 31.5t0.5 24.5z" />
    <glyph glyph-name="p" unicode="p" horiz-adv-x="805" 
d="M759 341q0 -14 -0.5 -30.5t-3 -33.5t-7 -32.5t-12.5 -27.5q-17 -25 -32 -42.5t-32.5 -29t-39.5 -18.5t-52 -11q-45 -7 -89 -12.5t-89 -5.5q-20 0 -41 2t-39 13q-10 5 -21.5 13.5t-22.5 18t-21.5 19t-18.5 16.5l-6 -251q-28 -2 -56 -1.5t-57 0.5q-17 0 -32.5 -0.5
t-32.5 -1.5q4 86 7.5 171.5t3.5 170.5v12q0 95 -5 189t-9 189q50 4 99 7t99 7l7 -53q69 8 138.5 13.5t139.5 5.5q9 0 19.5 0.5t19.5 -1.5q24 -5 49 -12.5t47 -19.5t39 -30.5t26 -44.5q6 -20 11 -44t8 -49.5t4.5 -50t1.5 -45.5zM562 359q0 12 -2 26t-10 23q-20 23 -50 35.5
t-59 12.5q-24 0 -52 -4.5t-56 -12t-55 -17t-49 -18.5l9 -134q37 -11 79.5 -20t80.5 -9q10 0 31 -0.5t43.5 1t42 4.5t25.5 11q5 6 9 19.5t7 29t4.5 30t1.5 23.5z" />
    <glyph glyph-name="q" unicode="q" horiz-adv-x="815" 
d="M749 403q0 -18 -0.5 -37t-0.5 -37q-4 -94 -6 -186.5t-4 -186.5l-201 -7v222q-8 -8 -27.5 -12t-41.5 -6t-43 -2h-31q-19 0 -52.5 0.5t-69 2.5t-68 5.5t-49.5 9.5q-33 11 -58 34t-42.5 52.5t-26 63t-8.5 66.5v6q0 30 7.5 63.5t23 64.5t38 56.5t52.5 39.5q17 8 47 13t63 8
t63.5 4t49.5 1q40 0 79.5 -2t79.5 -5l2 51q56 -5 108.5 -13.5t106.5 -19.5q4 -63 6.5 -124.5t2.5 -124.5zM540 535q-35 5 -70.5 8t-70.5 3q-7 0 -24.5 -1t-37 -3.5t-36.5 -7t-22 -11.5q-5 -6 -8 -16.5t-4.5 -22.5t-2 -23.5t-0.5 -19.5q0 -18 0.5 -38.5t5.5 -37.5
q4 -14 22 -21.5t40.5 -12t44.5 -5.5t33 -1q32 0 65 6.5t64 15.5z" />
    <glyph glyph-name="r" unicode="r" horiz-adv-x="635" 
d="M630 422v-23l-193 -9q3 13 3 30q0 25 -7 32.5t-31 7.5q-34 0 -75 -12t-72 -23q-5 -44 -8 -88t-3 -88q0 -49 0.5 -97.5t1.5 -97.5l-172 -11q-5 64 -10 127.5t-9 127.5q-5 85 -13 169.5t-16 170.5q57 -4 113.5 -11.5t113.5 -18.5l-5 -84q30 24 57.5 41.5t56 29.5t60.5 17.5
t71 5.5q26 0 54 -5.5t48 -25.5q10 -11 17 -33t11 -46.5t5.5 -48t1.5 -37.5z" />
    <glyph glyph-name="s" unicode="s" horiz-adv-x="652" 
d="M606 694l-6 -130q-31 2 -62 3t-62 1q-13 0 -37 -0.5t-53.5 -1.5t-60.5 -3t-57 -4t-44 -5t-22 -6q-13 -13 -13 -30q0 -11 6 -18q2 -3 22 -5t49 -3.5t63.5 -2t66 -1t56 -1.5t34.5 -2q38 -5 60.5 -22t34.5 -42.5t15.5 -57.5t3.5 -65q0 -16 -2.5 -38t-7.5 -44t-14.5 -41
t-22.5 -30q-15 -12 -48.5 -20t-72 -13t-74.5 -7t-55 -2q-66 0 -132 7.5t-131 16.5v191q63 -13 126.5 -15t127.5 -7q13 -1 39.5 -1.5t53.5 1t49 6.5t27 14q2 3 2 7v7q0 8 -1.5 20.5t-6.5 19.5q-1 1 -7 1.5t-7 0.5q-56 3 -112 3.5t-113 5.5q-23 2 -46.5 4.5t-46.5 7.5
q-19 4 -34.5 9t-27 13t-19.5 20.5t-11 33.5q-2 7 -2 13.5v14.5q0 18 2 41t7.5 46t14 43.5t22.5 33.5q9 9 32 15t53 10.5t64 7.5t65.5 4.5t57 2t38.5 0.5q56 0 110.5 -2t108.5 -5z" />
    <glyph glyph-name="t" unicode="t" horiz-adv-x="492" 
d="M538 177l-17 -176q-32 -2 -64 -3.5t-64 -1.5q-17 0 -45 1t-58 3.5t-57 7t-43 11.5q-24 11 -39.5 29t-25.5 39.5t-16 46t-9 48.5q-3 23 -4.5 49.5t-2 54.5t-0.5 54.5v49.5v30h-62q4 45 4.5 89t4.5 89l60 -2v148q57 -11 113.5 -11.5t113.5 -4.5l-2 -153l84 -5q0 -7 0.5 -13
t0.5 -13q0 -28 -4.5 -54.5t-11.5 -53.5h-73q-2 -46 -3 -92t-1 -92q0 -22 1.5 -39.5t8 -29.5t21.5 -18t42 -6q37 0 74 5t74 13z" />
    <glyph glyph-name="u" unicode="u" horiz-adv-x="783" 
d="M726 51l-169 -7l-12 101q-19 -26 -45.5 -44t-57 -29t-63 -15.5t-63.5 -4.5q-24 0 -59.5 4t-72 11.5t-67.5 19.5t-45 28q-11 12 -16.5 38.5t-7.5 56.5t-2 58v45q0 75 6 148t17 145q28 3 60 3q26 0 52 -3.5t52 -8.5q0 -5 1 -29t2.5 -57t3.5 -70.5t4.5 -69.5t6 -54.5
t7.5 -24.5q15 -9 33 -10t35 -1q12 0 37.5 1.5t52.5 5t50 9t31 13.5q3 3 4.5 19t2 35t1 35.5t0.5 19.5q0 45 -2 89t-4 89l194 9q6 -70 11 -139.5t13 -139.5q3 -23 3.5 -47t1.5 -48q2 -45 2.5 -90t1.5 -91z" />
    <glyph glyph-name="v" unicode="v" horiz-adv-x="650" 
d="M666 564q-37 -69 -73 -133.5t-73.5 -127t-77.5 -124.5t-85 -126l-174 -7l-198 523l222 6q20 -93 38.5 -185.5t38.5 -186.5q38 88 73.5 175t64.5 179q62 0 122 1t122 6z" />
    <glyph glyph-name="w" unicode="w" horiz-adv-x="898" 
d="M888 682q-29 -141 -55.5 -281t-56.5 -281l-208 -2l-76 270l-174 -270l-227 -17q-8 69 -17 139t-20 139q-11 72 -22 142.5t-22 141.5l206 6l66 -313q20 45 41 89t42 89q22 50 48 95l113 -2q29 -73 56.5 -145.5t59.5 -143.5q18 48 31.5 89.5t24.5 82t21 83t20 92.5z" />
    <glyph glyph-name="x" unicode="x" horiz-adv-x="634" 
d="M675 664q-63 -67 -122 -134q-32 -35 -65.5 -68.5t-66.5 -65.5q56 -78 110 -156t112 -154l-194 -5q-41 51 -79 101t-83 95l-189 -180q-39 2 -78.5 4.5t-80.5 2.5q0 1 9 11t22.5 24.5t30 32t31.5 33t26.5 27.5t15.5 16q30 33 60 67.5t60 68.5l-234 269l236 6l100 -163
q21 23 36.5 41.5t29.5 36.5t28 37.5t31 45.5z" />
    <glyph glyph-name="y" unicode="y" horiz-adv-x="798" 
d="M736 197v-32t-1 -47.5t-2.5 -55t-3.5 -54t-5.5 -45t-7.5 -27.5q-17 -27 -31.5 -41.5t-31.5 -20.5t-38.5 -6.5t-50.5 -0.5q-96 0 -191 7.5t-190 17.5v137q9 0 39.5 0.5t71.5 1.5t87 3t86 5t69 7t36 10q9 7 14.5 21.5t8 30.5t3.5 32t1 26v19t-1 20q-15 -34 -40 -51t-56 -24
t-65 -7.5t-65 -0.5q-65 0 -125.5 5.5t-107 28.5t-75 69.5t-28.5 128.5q0 81 11 161.5t28 159.5l211 -2q-17 -63 -30 -128t-13 -131q0 -35 5 -57t18 -35.5t36 -18.5t58 -5q14 0 34.5 2t42 5.5t41 9.5t30.5 15q4 3 7 20t5 40.5t3 50.5t1.5 51t0.5 41.5v22.5v67.5t-2 67.5
q49 -5 96.5 -8.5t96.5 -5.5q4 -97 8.5 -192t9.5 -192q2 -24 2 -48.5v-47.5z" />
    <glyph glyph-name="z" unicode="z" horiz-adv-x="617" 
d="M592 126q-139 0 -276 -1t-275 -4l-7 155q50 31 99.5 62t98.5 63q35 23 68 47.5t65 50.5l-373 34l-2 131q97 5 193.5 8t193.5 3q48 0 94.5 -0.5t94.5 -2.5q-2 -30 -3.5 -60t-1.5 -60t1.5 -60.5t3.5 -60.5l-317 -173q24 -1 47.5 -1h47.5q62 0 123 1.5t123 -0.5z" />
    <glyph glyph-name="braceleft" unicode="{" horiz-adv-x="396" 
d="M407 841l-8 -103q-5 1 -9.5 1h-9.5q-32 0 -52.5 -12.5t-32.5 -33t-17 -46t-5 -52.5q0 -29 4.5 -56.5t4.5 -55.5q0 -19 -9.5 -34.5t-24 -27.5t-31.5 -20.5t-32 -14.5q15 -9 29.5 -22t26 -28.5t18.5 -33.5t7 -36t-4 -35t-8.5 -33.5t-8.5 -33t-4 -32.5q0 -29 14 -48.5
t35.5 -31.5t47.5 -18t50 -7l11 -116q-26 1 -56 5t-59.5 12.5t-56 22.5t-45.5 36q-18 20 -22.5 46.5t-4.5 54.5q0 34 6.5 66.5t6.5 65.5q0 12 -1 21t-9 18q-9 12 -23.5 20t-30.5 13t-32.5 7.5t-30.5 4.5v140q32 4 64.5 16.5t53.5 39.5q10 12 13 24.5t3 28.5q0 29 -5 56t-5 55
q0 38 13.5 65t42.5 49q40 30 88 45.5t98 17.5z" />
    <glyph glyph-name="bar" unicode="|" horiz-adv-x="224" 
d="M173 -23l-122 -4q2 102 4.5 202t5.5 201q1 26 1 50.5v50.5q0 140 -6 281l107 -10q-4 -102 -6.5 -202t-2.5 -201q0 -93 5 -184.5t14 -183.5z" />
    <glyph glyph-name="braceright" unicode="}" horiz-adv-x="397" 
d="M367 310q-23 -3 -47 -10.5t-43.5 -20.5t-31.5 -32.5t-12 -45.5q0 -29 7 -58t7 -58q0 -37 -14 -63t-43 -49q-38 -30 -85.5 -46t-97.5 -19l6 103q4 -1 8.5 -1h8.5q32 0 52.5 12t32.5 32t17 45.5t5 52.5q0 29 -5.5 58.5t-5.5 58.5q0 18 9.5 33.5t23.5 27.5t30.5 21t31.5 15
q-15 8 -29.5 21t-26.5 28.5t-19.5 33t-7.5 35.5q0 19 3.5 36.5t8 33.5t8.5 31.5t4 31.5q0 30 -14 49.5t-36 31.5t-48 17.5t-51 6.5l-13 117q27 -1 57 -4.5t59.5 -12t56 -22t45.5 -34.5q20 -22 24.5 -50t4.5 -57q0 -32 -5 -62t-5 -61q0 -12 0.5 -22t8.5 -19q9 -12 23.5 -20.5
t31 -13.5t33.5 -7.5t31 -3.5z" />
    <glyph glyph-name="asciitilde" unicode="~" horiz-adv-x="587" 
d="M566 329q-11 -8 -36 -24.5t-53 -33t-55 -29t-42 -12.5q-19 0 -41.5 13t-45.5 28.5t-44.5 28.5t-37.5 13q-14 0 -31 -9.5t-34 -23t-32 -27.5t-23 -23l-71 80q9 6 34 24t54 36.5t55.5 33t37.5 14.5q14 0 37.5 -11.5t49 -25.5t49.5 -25.5t40 -11.5q12 0 28.5 7.5t33 17.5
t31 21t23.5 19z" />
    <glyph glyph-name="uni00A0" unicode="&#xa0;" horiz-adv-x="412" 
 />
    <glyph glyph-name="exclamdown" unicode="&#xa1;" horiz-adv-x="325" 
d="M31 -197q1 26 2 57t3 63t5.5 62.5t8.5 56.5q15 75 30.5 148.5t31.5 147.5l109 10l26 -252q7 -68 10 -136t6 -137zM48 493q0 17 11 33.5t27 29t35 20.5t35 8q15 0 31.5 -5.5t30 -15.5t22 -24t8.5 -31q0 -20 -11.5 -35t-28.5 -26t-37 -16.5t-36 -5.5q-28 0 -50.5 13
t-33.5 39q-3 7 -3 16z" />
    <glyph glyph-name="cent" unicode="&#xa2;" horiz-adv-x="570" 
d="M535 161q-17 -4 -34 -5t-34 -1q-27 0 -54 3t-53 7l5 -107l-133 3v100q-8 1 -34.5 6.5t-56.5 12t-55.5 14.5t-30.5 16q-9 14 -15.5 34.5t-11 43t-6.5 44t-2 37.5q0 66 21 117.5t65 100.5q10 11 30 18.5t42.5 12.5t44 7.5t35.5 3.5l12 67h117l3 -84l122 -6q2 -17 4.5 -35.5
t2.5 -35.5q0 -16 -2.5 -32t-4.5 -32q-31 5 -66.5 11t-72 11.5t-72.5 9t-68 3.5q-1 0 -12.5 -0.5t-14.5 -2.5q-8 -5 -13 -21t-8 -34.5t-4 -35.5t-1 -26q0 -6 0.5 -15.5t2 -19t4 -18.5t7.5 -14q10 -11 29.5 -17t42 -8.5t44 -3t35.5 -0.5q46 0 92 5.5t91 16.5q0 -38 3.5 -75.5
t3.5 -75.5z" />
    <glyph glyph-name="sterling" unicode="&#xa3;" horiz-adv-x="744" 
d="M714 -20q-89 7 -177.5 11.5t-177.5 4.5q-71 0 -141.5 -2.5t-141.5 -7.5l-14 119q5 -1 9.5 -1.5t9.5 -0.5q18 0 38.5 8.5t34.5 22.5q6 7 10.5 19.5t6.5 26.5t3 27t1 22q0 34 -6 69l-102 -18q-9 34 -17.5 67.5t-18.5 67.5l119 12q-6 47 -9.5 93.5t-3.5 93.5q0 45 18 78.5
t63 47.5q9 3 21 4.5t24.5 2.5t24.5 1h21q27 0 77 -2.5t103.5 -7t101.5 -11.5t72 -16q15 -6 24 -27.5t14.5 -48t7.5 -52t2 -38.5v-15q-57 4 -110.5 -3.5t-108.5 -15.5q-1 7 -4.5 30.5t-8.5 49.5t-12.5 47.5t-16.5 24.5q-11 3 -20.5 4t-20.5 1t-29.5 -1.5t-38.5 -5t-37.5 -9
t-24.5 -12.5q-2 -2 -3 -8t-2 -13.5t-1 -14v-8.5q0 -42 6 -84.5t13 -84.5l122 3l4 -113l-107 -3q1 -27 2 -55t1 -57q0 -21 -7.5 -44t-17.5 -40q51 6 102.5 12.5t103.5 12.5q20 3 41 3h41q63 0 128 -3z" />
    <glyph glyph-name="currency" unicode="&#xa4;" horiz-adv-x="610" 
d="M590 200l-56 -70q-30 28 -57 47.5t-60 42.5q-6 -8 -18 -14t-26.5 -10t-29 -6t-24.5 -2q-18 0 -37.5 4t-34.5 14q-30 -31 -53.5 -56.5t-50.5 -60.5l-84 64l123 97q-15 17 -25.5 39.5t-10.5 46.5q0 17 4 35t10 35q-33 29 -70.5 52t-79.5 42l66 73q38 -26 69.5 -48.5
t74.5 -43.5q17 14 42.5 24.5t47.5 10.5q20 0 43 -5t41 -13q32 27 62 55.5t61 56.5l58 -63q-29 -26 -57.5 -53t-57.5 -54q14 -16 21 -37t7 -42q0 -19 -2.5 -37.5t-7.5 -36.5q26 -26 53 -47t59 -40zM402 358q0 15 -7 28.5t-18 23t-25 15t-28 5.5q-15 0 -30 -5.5t-27 -15
t-19.5 -22.5t-7.5 -29q0 -15 7 -29.5t18 -26t26 -18t30 -6.5t30 6.5t26 17.5t18 25.5t7 30.5z" />
    <glyph glyph-name="yen" unicode="&#xa5;" horiz-adv-x="797" 
d="M848 688q-48 -35 -101.5 -77.5t-94.5 -86.5q-32 -35 -63.5 -69.5t-62.5 -69.5l-3 -57l142 -6l3 -75l-142 -3l3 -71h97l-3 -55l-94 -6l7 -107q-58 0 -116 -0.5t-116 -2.5l3 96l-132 -3v65l126 6v78l-136 3l-3 81l142 -3v54q-30 28 -60.5 54t-62.5 52q-20 17 -40 35.5
t-40 36.5q-36 34 -71.5 68.5t-70.5 69.5l96 4t96 2q6 0 13.5 -0.5t15.5 -0.5q9 -1 18 -1q28 -28 52 -51q20 -20 39.5 -38.5t26.5 -23.5q25 -21 50.5 -41t50.5 -40q24 19 51 41.5t53 47t49 50t40 51.5z" />
    <glyph glyph-name="brokenbar" unicode="&#xa6;" horiz-adv-x="266" 
d="M195 441l-106 9q-3 75 -5.5 150.5t-4.5 151.5l116 2q0 -53 -1 -105t-1 -104v-52t2 -52zM185 278q-5 -78 -5.5 -156t-4.5 -156l-103 5q5 78 7 153.5t5 153.5h101z" />
    <glyph glyph-name="section" unicode="&#xa7;" horiz-adv-x="702" 
d="M651 69q0 -13 -3 -31t-8 -36.5t-13 -34.5t-18 -25q-10 -10 -40 -17t-65 -11.5t-67 -6.5t-46 -2l-68 -1q-54 -1 -108.5 1.5t-109.5 7.5l-8 140q75 -3 151 -3h55q6 0 22 1t36 3t42 5t41 6.5t31.5 8t14.5 10.5q4 11 4 27q0 7 -1 12t-7 10q-1 1 -18 3.5t-42 5.5t-55 6.5
t-57 7t-47.5 6t-26.5 3.5q-14 2 -39.5 7.5t-52 13.5t-49 18.5t-29.5 22.5q-5 9 -9 29t-6 43t-3 44t-1 32t0.5 22t3.5 22q2 6 14.5 14t31 17.5t40.5 19t41.5 17.5t34.5 13.5t20 7.5q-9 2 -29 8t-41.5 13.5t-40.5 15.5t-26 15q-9 10 -15.5 27t-10 36.5t-5.5 38t-2 31.5
q0 19 3.5 41.5t16.5 36.5q16 16 58.5 27.5t93 18t98 9.5t72.5 3q54 0 108 -3t108 -8l-21 -158q-54 5 -107.5 9t-107.5 4q-9 0 -37 -1t-58 -4.5t-53.5 -10.5t-23.5 -20q0 -9 12 -14.5t19 -7.5q18 -5 46 -9t60.5 -8t66 -8.5t63.5 -10t53.5 -13.5t34.5 -18q10 -10 21.5 -33
t21 -49t15.5 -51t6 -40q0 -4 -0.5 -7t-0.5 -7q-3 -12 -20.5 -29t-40 -33.5t-44 -30t-30.5 -18.5q10 -2 32 -8t44.5 -15t40 -21t20.5 -26q5 -28 9.5 -56t4.5 -55zM446 375q0 21 -11 35.5t-27.5 24.5t-35.5 15.5t-36 7.5q-10 -4 -24 -10t-28.5 -12.5t-28 -13.5t-22.5 -13
q-10 -8 -13 -13t-3 -18q0 -14 1 -27t10 -23q12 -12 31 -20.5t40.5 -14t42.5 -8t36 -3.5q10 6 22 16t22.5 23t17 26.5t6.5 27.5z" />
    <glyph glyph-name="dieresis" unicode="&#xa8;" 
d="M691 724q0 -19 -7.5 -35.5t-20.5 -29t-29.5 -19.5t-35.5 -7q-17 0 -33 6t-29 16.5t-21 25.5t-8 32q0 21 7.5 39.5t21 33t32 22.5t40.5 8q18 0 33.5 -8t26.5 -21t17 -29.5t6 -33.5zM450 726q0 -38 -27.5 -64t-65.5 -26q-16 0 -32 6t-29 16.5t-21 25t-8 31.5q0 21 8 40
t21.5 33.5t32 22.5t39.5 8q18 0 33 -8t26 -21t17 -30t6 -34z" />
    <glyph glyph-name="copyright" unicode="&#xa9;" horiz-adv-x="803" 
d="M772 408v-20t-1 -18q-2 -21 -3.5 -54.5t-6.5 -67.5t-16 -62.5t-32 -39.5t-65.5 -20.5t-94 -16t-95 -10.5t-68.5 -4q-17 0 -44.5 1.5t-60 5t-66.5 8.5t-63 12t-50.5 15.5t-28.5 18.5q-11 15 -19.5 52.5t-14.5 80t-9 82.5t-3 60q0 21 4.5 56.5t12.5 72t20 69t26 49.5
q11 12 33 23.5t49.5 20.5t59.5 16.5t62.5 12.5t57.5 7.5t46 2.5h20q20 -1 50 -6t64.5 -13t70 -19t65 -24t50.5 -28t27 -31q6 -17 10.5 -48.5t7 -66t4 -66.5t1.5 -51zM687 319q0 21 -1 63.5t-3 87.5t-7 83t-12 49q-6 9 -24 17.5t-41.5 16t-51 14t-52.5 11t-46 7.5t-32 3
q-10 0 -19 0.5t-17 0.5q-15 0 -46 -2t-64 -6.5t-61.5 -12t-39.5 -17.5q-11 -11 -19.5 -41t-14.5 -65.5t-10 -68t-5 -47.5q-1 -10 -1.5 -19t-0.5 -18q0 -15 2 -39.5t6.5 -50.5t12 -48.5t18.5 -33.5t44 -19t73 -13t78 -7t59 -2t58.5 5t77 14t74 22t49.5 29q6 7 9 18t4.5 24
t2 25t0.5 20zM574 377q-1 -7 -3.5 -26t-7 -40t-10 -38.5t-11.5 -21.5q-10 -6 -29.5 -11t-41.5 -8.5t-42.5 -5.5t-32.5 -2q-14 0 -35 3t-42 8.5t-39.5 13t-28.5 16.5q-7 6 -11.5 25.5t-7 42.5t-3.5 44.5t-1 30.5q0 14 1.5 39t7 50.5t15 46t26.5 25.5q16 5 36 10t40.5 8
t40.5 4t38 -1q9 -1 28.5 -3t39.5 -5.5t37.5 -8.5t22.5 -13q4 -5 6 -16t3.5 -23t2 -24t0.5 -19q0 -4 -0.5 -15.5t-3.5 -13.5h-4q-31 0 -62 -1.5t-62 -3.5v12q0 3 -0.5 11t-1.5 17t-3 16.5t-5 9.5q-8 5 -26 6.5t-28 1.5h-11t-14 -1t-13 -3.5t-9 -6.5q-3 -5 -6 -23.5
t-4.5 -39.5t-2.5 -40t-1 -26q0 -5 0.5 -14.5t1.5 -20t3 -19.5t6 -13q8 -8 24.5 -9.5t26.5 -1.5q5 0 15.5 0.5t21.5 1.5t21 2.5t14 3.5q8 5 11 18t3 21q0 7 -1 14.5t-3 13.5z" />
    <glyph glyph-name="ordfeminine" unicode="&#xaa;" horiz-adv-x="394" 
d="M364 577q0 -40 -2.5 -79t-4.5 -78l-86 -16l-19 61q-3 -10 -10.5 -29.5t-15.5 -27.5q-8 -9 -22.5 -15t-31.5 -9.5t-33.5 -5.5t-26.5 -2q-48 0 -70 17t-22 68q0 10 2 26.5t6 33.5t10 31.5t14 22.5q9 9 30 16.5t45 12t47 7t37 2.5q8 0 15 -5.5t12 -13t8.5 -16t5.5 -15.5
q2 9 3 18.5t1 18.5q0 10 -2 25t-8 24q-2 3 -8.5 5t-13.5 3t-13.5 1.5t-9.5 0.5q-32 0 -64 -6t-62 -14l-10 101q29 4 58 6.5t59 2.5q13 0 37 -1.5t48.5 -5.5t46.5 -11t33 -18q6 -6 9 -25.5t5 -41.5t2.5 -42t0.5 -27zM196 494q0 11 -4.5 31t-12.5 28q-3 4 -8 5t-10 1
q-14 0 -34 -7.5t-28 -20.5q-2 -5 -2.5 -11t-0.5 -11t1 -14t3.5 -18.5t6 -17.5t9.5 -10q6 -3 13 -3q13 0 31.5 6t27.5 16q5 5 6.5 11.5t1.5 14.5z" />
    <glyph glyph-name="guillemotleft" unicode="&#xab;" horiz-adv-x="495" 
d="M464 43l-54 -62l-204 194l250 183l-4 -112l-134 -79zM257 44l-53 -62l-204 195l249 182l-4 -111l-133 -79z" />
    <glyph glyph-name="logicalnot" unicode="&#xac;" horiz-adv-x="611" 
d="M570 185l-106 -4q-5 30 -9 59.5t-12 59.5q-103 0 -203.5 -5.5t-203.5 -14.5q1 12 1.5 24.5t0.5 25.5q0 15 -2 30.5t-5 30.5q27 -1 53 -1h53q92 0 183 3.5t184 3.5h46q5 -53 10 -105.5t10 -106.5z" />
    <glyph glyph-name="sfthyphen" unicode="&#xad;" horiz-adv-x="446" 
d="M416 318h-385l4 81q91 3 186 3h187z" />
    <glyph glyph-name="registered" unicode="&#xae;" horiz-adv-x="803" 
d="M772 506v-84q0 -22 -4 -57t-12 -72t-19.5 -69.5t-25.5 -49.5q-17 -19 -56.5 -34.5t-86.5 -27t-93.5 -17.5t-75.5 -6q-20 0 -51.5 4t-67.5 11.5t-73.5 18.5t-69 24t-54 28.5t-28.5 32.5t-10.5 49t-7.5 67t-4.5 68t-1.5 53v17t1 16q1 21 2.5 54.5t6.5 67.5t16 62t32 39
q10 5 23.5 8.5t24.5 6.5q67 17 138 28t140 11q13 0 41.5 -2t63.5 -6t73 -9.5t71 -13t57 -17t32 -20.5q7 -11 11 -35.5t6 -52t2 -53.5v-40zM690 561q0 9 -0.5 20t-2 22t-5 21t-9.5 16q-12 12 -46.5 20.5t-75 13.5t-78.5 8t-57 5q-6 1 -12.5 1h-12.5q-21 0 -59 -5t-78 -14.5
t-74.5 -23t-48.5 -29.5q-6 -7 -9 -17.5t-4.5 -22.5t-1.5 -23.5v-20.5q0 -13 0.5 -36.5t1.5 -53t2.5 -61t4.5 -59t6.5 -48t9.5 -28.5q7 -10 26 -18.5t45 -16t55.5 -13.5t58.5 -10t53.5 -6.5t39.5 -2.5t46.5 1.5t65.5 6t63.5 12t40.5 18.5q10 10 18.5 41t14.5 66t9.5 68
t4.5 48q2 30 5 60.5t3 60.5zM584 271l-110 -11q-13 31 -28 61l-30 60q-31 -5 -47 -7l-24 -3l-10 -1q1 -7 1 -13v-11.5t1 -10.5l4 -85l-104 2q1 32 1.5 63t0.5 63q0 21 -1 41.5t-1 40.5q-1 35 -6.5 68.5t-7.5 68.5q51 6 102.5 10.5t104.5 4.5q6 0 19.5 -0.5t28.5 -1.5
t28.5 -3t18.5 -5q12 -7 20.5 -21.5t14 -32t8 -35.5t2.5 -31q0 -38 -22.5 -57.5t-58.5 -24.5q23 -33 47.5 -65t47.5 -64zM433 472q0 11 -3.5 29.5t-10.5 28.5q-6 9 -23.5 10.5t-26.5 1.5q-14 0 -28.5 -2t-28.5 -2q-1 -1 -1 -3q0 -23 3.5 -45.5t8.5 -43.5h19t35 1t34.5 2.5
t17.5 4.5q3 4 3.5 8.5t0.5 9.5z" />
    <glyph glyph-name="macron" unicode="&#xaf;" 
d="M671 718h-385l4 81q93 3 187 3h186z" />
    <glyph glyph-name="degree" unicode="&#xb0;" horiz-adv-x="324" 
d="M308 620q0 -29 -13 -50.5t-34 -36.5t-47 -22.5t-51 -7.5q-20 0 -45.5 6.5t-48 19t-38.5 31t-16 41.5q0 5 1 7q5 27 20 48.5t36.5 36.5t47 23t52.5 8q23 0 47 -6.5t44 -19.5t32.5 -32.5t12.5 -45.5zM240 606q0 21 -2.5 34t-10 20t-20 9.5t-33.5 2.5q-5 0 -13 -0.5
t-16.5 -1.5t-16 -2.5t-11.5 -3.5q-5 -3 -8 -11t-4.5 -18t-2.5 -19t-1 -14q0 -30 10 -37t39 -7q5 0 17 0.5t24.5 2t23.5 4t15 5.5q8 6 9 17t1 19z" />
    <glyph glyph-name="plusminus" unicode="&#xb1;" horiz-adv-x="542" 
d="M511 414l-3 -73q-48 -5 -93.5 -7t-92.5 -5q0 -53 1.5 -105.5t3.5 -105.5l-96 -10v83q0 35 -0.5 72.5t-2.5 63.5h-191l-6 77q48 0 96.5 2t96.5 4l-4 191l86 1q3 -48 7 -94t9 -94q23 1 46.5 2t46.5 1t47.5 -1t48.5 -2zM511 -30h-480l4 81q117 4 234 3.5t235 -0.5z" />
    <glyph glyph-name="twosuperior" unicode="&#xb2;" horiz-adv-x="561" 
d="M520 477q-2 -29 -2.5 -57.5t-2.5 -57.5l-424 -9q-5 37 -9.5 73.5t-9.5 72.5q28 6 62 15t68 20.5t66 25.5t57 31q8 5 17 12.5t9 19.5q0 11 -8 22.5t-19 16.5q-7 2 -23 2.5t-23 0.5h-19.5t-28 -0.5t-27.5 -3t-18 -7.5q-3 -3 -4 -9.5t-1 -10.5v-8t2 -9l-126 -10
q-2 11 -3.5 21.5t-1.5 21.5q0 16 6.5 39t24.5 30q15 6 47 9.5t68 5.5t69 2.5t50 0.5q30 0 61.5 -0.5t57 -9t42 -29t16.5 -60.5q0 -11 -2 -27.5t-10 -24.5q-5 -7 -19.5 -15.5t-31.5 -17t-32.5 -15.5t-23.5 -10q-43 -14 -84 -28.5t-83 -27.5q78 1 156.5 2t156.5 3z" />
    <glyph glyph-name="threesuperior" unicode="&#xb3;" horiz-adv-x="556" 
d="M536 478q0 -17 -6.5 -39t-20.5 -33t-44.5 -18.5t-66.5 -12t-71.5 -6.5t-57.5 -3q-32 -2 -64.5 -2h-64.5h-42.5t-43.5 1v68q0 24 3 47h73h19.5h39.5t49 0.5t48.5 1t38 1.5t16.5 2q3 2 4.5 3.5t1.5 6.5q0 8 -6 17t-12 14q-2 2 -17 3t-36.5 2t-46.5 2t-47 1.5t-37.5 0.5
h-18.5q-1 5 -1.5 9.5t-0.5 9.5v21l209 63q-69 0 -139 1.5t-140 1.5q1 11 1.5 23t0.5 24q0 19 -5 41q90 3 178.5 6.5t178.5 3.5h71q0 -16 0.5 -32t0.5 -32q0 -31 -3 -61q-36 -11 -72 -21.5t-72 -22.5q9 -1 34 -4t53.5 -7t53 -8.5t32.5 -7.5q21 -10 25.5 -27.5t4.5 -37.5z" />
    <glyph glyph-name="acute" unicode="&#xb4;" 
d="M594 764q-25 -21 -47.5 -38.5t-45.5 -32.5t-47.5 -29t-53.5 -30l-37 56q18 18 34.5 36t32.5 38q21 27 45 51l48 48z" />
    <glyph glyph-name="mu" unicode="&#xb5;" horiz-adv-x="588" 
d="M552 36l-96 -4l-10 83q-8 -21 -21.5 -41.5t-32 -36.5t-40.5 -26t-46 -10q-19 0 -38.5 4.5t-37.5 13.5t-32.5 22t-23.5 30l5 -229h-114q-6 81 -12.5 160.5t-14.5 160.5q-5 40 -6 79.5t-1 80.5q0 44 3 91l153 -4q0 -15 2.5 -40.5t7.5 -55t13 -59.5t20 -54.5t29 -40
t40 -15.5h3q29 4 47.5 31.5t28.5 62.5t13.5 71t3.5 58q0 10 -0.5 20.5t-0.5 21.5l150 4q3 -95 3 -189t5 -189z" />
    <glyph glyph-name="paragraph" unicode="&#xb6;" horiz-adv-x="929" 
d="M878 738q-8 -97 -16 -193t-13 -193l-10 -174t-11 -175l-152 -8q0 91 0.5 180.5t-1.5 180.5q-2 56 -4.5 111.5t-6.5 111.5l-49 2q-2 -49 -4 -96.5t-4 -96.5q-5 -94 -5.5 -186t-1.5 -186q-20 0 -40 -0.5t-40 -2.5q-31 -2 -61 -6t-61 -6l-6 207h-32.5h-54t-64 1.5t-63 3.5
t-51 6t-27.5 10q-15 15 -24.5 42t-15 58.5t-7.5 62.5t-2 52q0 13 1.5 41t5 58.5t9.5 56.5t14 37q12 15 42 29t65.5 25t68.5 18t51 9q141 12 285 13t285 7zM440 587q-25 3 -49 2q-20 -1 -41 -4.5t-34 -13.5q-8 -6 -13 -18t-7.5 -25.5t-3.5 -27.5t-1 -23q-1 -25 2.5 -48
t21.5 -40q11 -10 30 -13t39 -3q23 0 48 2q0 17 1 35q1 15 1.5 31.5t0.5 28.5q0 14 0.5 34.5t1.5 38.5q1 21 3 44z" />
    <glyph glyph-name="periodcentered" unicode="&#xb7;" horiz-adv-x="229" 
d="M199 354v-13t-1 -16t-3 -15.5t-6 -10.5t-15.5 -5t-25.5 -3.5t-27 -2t-19 -0.5h-13.5t-17.5 1t-16.5 3.5t-10.5 6.5q-4 5 -6.5 15.5t-4 22t-2 23t-0.5 17.5q0 11 2 30t11 27q3 3 14.5 4.5t25 3t26.5 2t18 0.5t13.5 -0.5t17.5 -1.5t17 -3t11 -5q4 -4 6 -15t3.5 -23.5t2 -24
t0.5 -17.5z" />
    <glyph glyph-name="cedilla" unicode="&#xb8;" 
d="M597 -205q0 -12 -2.5 -28.5t-8 -32.5t-13.5 -29.5t-19 -19.5t-35.5 -11.5t-53 -10.5t-55 -8.5t-41.5 -5.5l-4 93q7 1 26 4.5t39.5 7.5t38 8t21.5 7q11 5 14.5 13t3.5 19q0 27 -22 41q-5 3 -22 4.5t-37.5 2t-39.5 0t-27 -0.5v91q0 17 0.5 34.5t1.5 34.5l116 24v-124
q26 -3 46 -9.5t34.5 -17.5t24 -29.5t13.5 -45.5q0 -3 0.5 -5.5t0.5 -5.5z" />
    <glyph glyph-name="onesuperior" unicode="&#xb9;" horiz-adv-x="278" 
d="M257 370l-195 5l23 256l-65 4q12 23 17 45t12 47l174 3q2 -23 5 -50t6 -56.5t5.5 -60t5.5 -58.5q6 -66 12 -135z" />
    <glyph glyph-name="ordmasculine" unicode="&#xba;" horiz-adv-x="482" 
d="M462 535q0 -17 -3.5 -33t-17.5 -27q-14 -13 -46.5 -24.5t-69.5 -20.5t-72 -14t-55 -5q-13 0 -36.5 1.5t-48 6.5t-44.5 13.5t-26 22.5q-5 10 -9 27t-7 35.5t-5 36t-2 29.5q0 10 1.5 20.5t8.5 19.5q10 12 36 25.5t56.5 25t59 18.5t43.5 7q11 0 31.5 -0.5t44.5 -3t49 -6.5
t46 -11t35.5 -17.5t17.5 -24.5q4 -25 8.5 -50.5t4.5 -50.5zM357 566q0 19 -11.5 31.5t-28.5 19t-35.5 9t-33.5 2.5q-17 0 -39 -4t-41.5 -13t-33 -23.5t-13.5 -35.5q0 -19 11 -32t27.5 -21.5t35 -12.5t33.5 -4q18 0 40.5 5t42 15t33 26t13.5 38z" />
    <glyph glyph-name="guillemotright" unicode="&#xbb;" horiz-adv-x="504" 
d="M504 175l-232 -204l-6 112l126 91l-155 111l48 66zM299 159l-220 -219l-18 127l125 90l-155 111l48 67z" />
    <glyph glyph-name="onequarter" unicode="&#xbc;" horiz-adv-x="1009" 
d="M978 155l-75 -2q0 -40 1.5 -77.5t6.5 -75.5l-181 -6q-1 38 -1.5 75.5t-2.5 75.5l-250 -4q4 53 6 105.5t7 103.5l101 6q11 -33 19.5 -67t16.5 -68l96 1q2 17 3.5 32t1.5 32q0 19 -1.5 38.5t-2.5 39.5q16 1 31.5 1h31.5q31 0 62 -1.5t63 -2.5l1 -132l55 1q5 -17 7 -37.5
t4 -37.5zM605 716q-26 -50 -50.5 -99t-48.5 -100l-34 -70t-31 -71q-38 -99 -75 -196.5t-75 -196.5l-132 2q29 62 57.5 123t57.5 122q17 37 33.5 72.5t31.5 71.5q35 86 67.5 171.5t64.5 173.5zM258 362q-98 6 -196 6l23 256l-65 4q13 22 18 44.5t12 47.5l173 2
q11 -91 19 -180t16 -180z" />
    <glyph glyph-name="onehalf" unicode="&#xbd;" horiz-adv-x="985" 
d="M944 128q-2 -29 -2.5 -57.5t-2.5 -57.5l-424 -9q-5 37 -10 73t-10 73q28 6 62 15t68.5 20.5t66.5 25.5t57 31q8 5 16.5 12t8.5 18q0 12 -7.5 24t-18.5 16q-7 2 -23 2.5t-24 0.5h-19.5t-28 -0.5t-27 -3t-17.5 -6.5q-4 -3 -5 -9.5t-1 -10.5t0.5 -8t1.5 -9l-126 -10
q-2 11 -3 21.5t-1 21.5q0 16 6.5 39t24.5 30q15 5 46.5 8.5t67.5 5.5t69 3t50 1q30 0 61.5 -0.5t57 -9t41.5 -29t16 -60.5q0 -11 -1.5 -27.5t-8.5 -24.5q-5 -7 -19.5 -15.5t-31.5 -17t-33 -15.5t-24 -10q-42 -14 -83.5 -28.5t-83.5 -27.5q78 1 156.5 2t157.5 3zM623 714
q-26 -50 -51 -99t-50 -100q-17 -35 -33 -70t-30 -71q-38 -99 -75.5 -196.5t-75.5 -196.5l-132 2q29 62 58 123l58 122q17 36 33.5 72t30.5 72q35 85 67.5 171t64.5 174zM258 373l-196 5l23 256l-65 4q13 23 18 45t12 47l173 3q5 -46 11.5 -107t11.5 -118q6 -66 12 -135z" />
    <glyph glyph-name="threequarters" unicode="&#xbe;" horiz-adv-x="1211" 
d="M1181 173l-76 -1q0 -39 2 -76.5t6 -77.5l-180 -5q-1 38 -1.5 75.5t-2.5 75.5l-250 -3q3 52 5.5 104t6.5 105l102 5q11 -33 19 -66.5t16 -68.5l97 2q2 15 3 31t1 31q0 20 -1 39.5t-2 39.5q15 0 31 0.5t31 0.5q32 0 63 -1l62 -2l1 -133l54 1q7 -18 9 -37.5t4 -38.5z
M826 727q-29 -57 -57.5 -113t-55.5 -114q-14 -28 -26.5 -56t-23.5 -57q-38 -99 -75.5 -196.5t-75.5 -197.5l-132 3l117 246q17 35 32.5 71t30.5 72q35 86 67.5 171.5t64.5 172.5zM536 478q0 -17 -6.5 -39t-20.5 -33t-44.5 -18.5t-66.5 -12t-71.5 -6.5t-57.5 -3
q-32 -2 -64.5 -2h-64.5h-42.5t-43.5 1v68q0 24 3 47h73h19.5h39.5t49 0.5t48.5 1t38 1.5t16.5 2q3 2 4.5 3.5t1.5 6.5q0 8 -6 17t-12 14q-2 2 -17 3t-36.5 2t-46.5 2t-47 1.5t-37.5 0.5h-18.5q-1 5 -1.5 9.5t-0.5 9.5v21l209 63q-69 0 -139 1.5t-140 1.5q1 11 1.5 23t0.5 24
q0 19 -5 41q90 3 178.5 6.5t178.5 3.5h71q0 -16 0.5 -32t0.5 -32q0 -31 -3 -61q-36 -11 -72 -21.5t-72 -22.5q9 -1 34 -4t53.5 -7t53 -8.5t32.5 -7.5q21 -10 25.5 -27.5t4.5 -37.5z" />
    <glyph glyph-name="questiondown" unicode="&#xbf;" horiz-adv-x="652" 
d="M26 81v23.5t0.5 35.5t2 35t4.5 22q11 22 38.5 38.5t51.5 21.5q13 3 26.5 4t26.5 2q30 2 60.5 3.5t60.5 3.5q3 30 3 59q0 14 -4 30.5t-8 29.5l193 4v-246l-19 1q-8 1 -38 0.5t-63.5 -2.5t-62.5 -5.5t-36 -8.5q-16 -13 -21 -30.5t-5 -36.5q0 -66 36.5 -101t100.5 -35
q22 0 55 9t67.5 21.5t66 26.5t51.5 23q9 -58 15.5 -115.5t13.5 -115.5q-68 -2 -135.5 -4t-135.5 -2h-50t-73.5 1.5t-72.5 3.5t-48 7q-26 8 -50.5 26.5t-36.5 44.5q-4 9 -7 40.5t-4.5 68.5t-2 71t-0.5 46zM288 493q0 17 11 33.5t27 29t34.5 20t34.5 7.5q15 0 31.5 -5.5
t30 -15t22.5 -23.5t9 -31q0 -20 -11.5 -35t-28.5 -26t-37 -16.5t-36 -5.5q-28 0 -50.5 12.5t-33.5 38.5q-3 7 -3 17z" />
    <glyph glyph-name="Agrave" unicode="&#xc0;" horiz-adv-x="754" 
d="M723 3l-152 -23q-16 51 -32 101.5t-31 101.5l-246 -9l-31 -133h-154q14 170 29 338t29 337q72 12 143.5 20t144.5 8q89 0 178 -3q16 -104 31.5 -207.5t32.5 -207.5q12 -82 26.5 -162t31.5 -161zM473 319q-1 9 -5 33.5t-9 52t-11.5 50t-12.5 26.5q-2 1 -9.5 2t-16 2
t-16.5 1h-11h-13.5t-18 -0.5t-18 -2.5t-11.5 -5q-2 -1 -5 -13t-7.5 -29.5t-9 -37.5t-8.5 -38t-6.5 -31t-3.5 -15zM462 874l-36 -56q-29 16 -53.5 30t-47.5 29t-46 32.5t-48 38.5l72 99q23 -24 47 -48t46 -51q16 -20 32.5 -38t33.5 -36z" />
    <glyph glyph-name="Aacute" unicode="&#xc1;" horiz-adv-x="754" 
d="M723 3l-152 -23q-16 51 -32 101.5t-31 101.5l-246 -9l-31 -133h-154q14 170 29 338t29 337q72 12 143.5 20t144.5 8q89 0 178 -3q16 -104 31.5 -207.5t32.5 -207.5q12 -82 26.5 -162t31.5 -161zM473 319q-1 9 -5 33.5t-9 52t-11.5 50t-12.5 26.5q-2 1 -9.5 2t-16 2
t-16.5 1h-11h-13.5t-18 -0.5t-18 -2.5t-11.5 -5q-2 -1 -5 -13t-7.5 -29.5t-9 -37.5t-8.5 -38t-6.5 -31t-3.5 -15zM523 938q-25 -21 -47.5 -38.5t-45.5 -32.5t-47.5 -29t-53.5 -30l-37 56q18 18 34.5 36t32.5 38q21 27 45 51l48 48z" />
    <glyph glyph-name="Acircumflex" unicode="&#xc2;" horiz-adv-x="754" 
d="M723 3l-152 -23q-16 51 -32 101.5t-31 101.5l-246 -9l-31 -133h-154q14 170 29 338t29 337q72 12 143.5 20t144.5 8q89 0 178 -3q16 -104 31.5 -207.5t32.5 -207.5q12 -82 26.5 -162t31.5 -161zM473 319q-1 9 -5 33.5t-9 52t-11.5 50t-12.5 26.5q-2 1 -9.5 2t-16 2
t-16.5 1h-11h-13.5t-18 -0.5t-18 -2.5t-11.5 -5q-2 -1 -5 -13t-7.5 -29.5t-9 -37.5t-8.5 -38t-6.5 -31t-3.5 -15zM565 862l-94 -4l-99 111l-98 -116l-105 -3q50 55 99.5 108.5t101.5 105.5q51 -49 98.5 -99.5t96.5 -102.5z" />
    <glyph glyph-name="Atilde" unicode="&#xc3;" horiz-adv-x="754" 
d="M723 3l-152 -23q-16 51 -32 101.5t-31 101.5l-246 -9l-31 -133h-154q14 170 29 338t29 337q72 12 143.5 20t144.5 8q89 0 178 -3q16 -104 31.5 -207.5t32.5 -207.5q12 -82 26.5 -162t31.5 -161zM473 319q-1 9 -5 33.5t-9 52t-11.5 50t-12.5 26.5q-2 1 -9.5 2t-16 2
t-16.5 1h-11h-13.5t-18 -0.5t-18 -2.5t-11.5 -5q-2 -1 -5 -13t-7.5 -29.5t-9 -37.5t-8.5 -38t-6.5 -31t-3.5 -15zM602 910q-11 -8 -32 -21.5t-43.5 -26.5t-44 -22.5t-34.5 -9.5q-15 0 -33.5 10.5t-37.5 23t-36.5 23t-30.5 10.5q-11 0 -25 -7.5t-28 -18.5t-26 -22.5
t-19 -18.5l-59 65q9 6 30 20.5t44 29.5t44 26.5t29 11.5q14 0 33 -9.5t39.5 -20.5t40 -20.5t33.5 -9.5q10 0 23.5 6t27 14t25.5 17.5t20 15.5z" />
    <glyph glyph-name="Adieresis" unicode="&#xc4;" horiz-adv-x="754" 
d="M723 3l-152 -23q-16 51 -32 101.5t-31 101.5l-246 -9l-31 -133h-154q14 170 29 338t29 337q72 12 143.5 20t144.5 8q89 0 178 -3q16 -104 31.5 -207.5t32.5 -207.5q12 -82 26.5 -162t31.5 -161zM473 319q-1 9 -5 33.5t-9 52t-11.5 50t-12.5 26.5q-2 1 -9.5 2t-16 2
t-16.5 1h-11h-13.5t-18 -0.5t-18 -2.5t-11.5 -5q-2 -1 -5 -13t-7.5 -29.5t-9 -37.5t-8.5 -38t-6.5 -31t-3.5 -15zM579 929q0 -19 -7.5 -35.5t-20.5 -29t-29.5 -19.5t-35.5 -7q-17 0 -33 6t-29 16.5t-21 25.5t-8 32q0 21 7.5 39.5t21 33t32 22.5t40.5 8q18 0 33.5 -8
t26.5 -21t17 -29.5t6 -33.5zM338 931q0 -38 -27.5 -64t-65.5 -26q-16 0 -32 6t-29 16.5t-21 25t-8 31.5q0 21 8 40t21.5 33.5t32 22.5t39.5 8q18 0 33 -8t26 -21t17 -30t6 -34z" />
    <glyph glyph-name="Aring" unicode="&#xc5;" horiz-adv-x="754" 
d="M473 319q-1 9 -5 33.5t-9 52t-11.5 50t-12.5 26.5q-2 1 -9.5 2t-16 2t-16.5 1h-11h-13.5t-18 -0.5t-18 -2.5t-11.5 -5q-2 -1 -5 -13t-7.5 -29.5t-9 -37.5t-8.5 -38t-6.5 -31t-3.5 -15zM510 845q0 -36 -20.5 -61.5t-50.5 -39.5q81 0 162 -3q16 -104 31.5 -207.5
t32.5 -207.5q12 -82 26.5 -162t31.5 -161l-152 -23q-16 51 -32 101.5t-31 101.5l-246 -9l-31 -133h-154q14 170 29 338t29 337q43 8 85.5 13.5t85.5 9.5q-34 11 -61 33t-27 54q0 5 1 8q5 27 20 48.5t36 36t47 22.5t52 8q23 0 47.5 -6.5t44 -19.5t32 -32.5t12.5 -45.5z
M442 831q0 21 -2.5 34t-9.5 20t-20 9.5t-34 2.5q-5 0 -13 -0.5t-16.5 -1t-16 -2t-11.5 -4.5q-5 -3 -7.5 -11t-4.5 -17.5t-2.5 -19t-0.5 -14.5q0 -30 9.5 -37t38.5 -7q5 0 17 1t24.5 2.5t24 4t15.5 5.5q7 5 8 16t1 19z" />
    <glyph glyph-name="AE" unicode="&#xc6;" horiz-adv-x="1033" 
d="M992 588q-48 -3 -95.5 -7t-95.5 -11q-40 -5 -81 -9.5t-81 -8.5l11 -142q65 -2 128 -5.5t127 -9.5v-123q-62 -11 -123 -23t-124 -23l4 -90l165 -17q30 -4 59 -7.5t52 -7.5q26 -4 50 -8q-1 -15 -1 -27q-1 -11 -1 -22v-17v-40q-133 -3 -264.5 -6t-265.5 -8l2 223l-192 4
l-115 -212l-182 -16q30 83 61.5 165t64.5 163q88 219 174 438q57 2 114 2h114q120 0 239 8.5t239 17.5q7 -45 11 -90t6 -91zM464 435q0 26 -1 51t-1 50l-60 3q-22 -44 -40.5 -88.5t-36.5 -90.5l136 4q3 34 3 71z" />
    <glyph glyph-name="Ccedilla" unicode="&#xc7;" horiz-adv-x="737" 
d="M536 -164q0 -12 -2.5 -28.5t-8 -32.5t-13.5 -29.5t-19 -19.5t-36 -11.5t-53.5 -10.5t-55 -8.5t-41.5 -5.5l-4 93q8 1 27 4.5t39.5 7.5t38 8t21.5 7q11 5 14 13t3 19q0 27 -21 41q-5 3 -22 4.5t-37.5 2t-39.5 0t-27 -0.5v91q0 14 0.5 27.5t0.5 27.5q-19 1 -42.5 2.5t-46 4
t-41 6.5t-28.5 10q-11 7 -21 16.5t-18 19.5q-21 26 -35 57t-22 64t-11.5 67t-3.5 67q0 40 4.5 83t14.5 85t26.5 81t40.5 72q7 9 18 22t22 19q27 15 60.5 25t69.5 15.5t71.5 8t65.5 2.5q57 0 114 -6.5t111 -22.5q-2 -27 -3 -54.5t-1 -54.5q0 -65 3 -131q-45 17 -94 24.5
t-97 7.5q-10 0 -29 -1.5t-43 -4t-49.5 -6.5t-47.5 -10t-38.5 -14t-21.5 -17q-4 -8 -6.5 -22.5t-4 -30.5t-2 -31t-0.5 -24t2 -36t5 -57.5t7.5 -55.5t9.5 -29q5 -3 16.5 -3.5t15.5 -0.5q49 0 105 5t113.5 13.5t113.5 18t104 18.5l-1 -156q-46 -9 -91 -17t-91 -14
q-52 -7 -107 -12v-89q25 -3 45 -9.5t35 -17.5t24 -29.5t14 -45.5q0 -3 0.5 -5.5t0.5 -5.5z" />
    <glyph glyph-name="Egrave" unicode="&#xc8;" horiz-adv-x="656" 
d="M636 609q-98 -5 -194.5 -10.5t-194.5 -13.5l-2 -79l258 15q5 -34 7.5 -67t2.5 -67q0 -14 -0.5 -29t-0.5 -29l-240 -43l15 -124q76 5 151.5 14.5t152.5 16.5q7 -50 14 -100.5t20 -98.5q-142 1 -282 -0.5t-282 -1.5q3 117 7 233t4 234v19q0 68 -2 135.5t-4 136.5
q79 -1 157.5 -0.5t158.5 0.5q61 0 121.5 -2.5t121.5 -5.5zM462 874l-36 -56q-29 16 -53.5 30t-47.5 29t-46 32.5t-48 38.5l72 99q23 -24 47 -48t46 -51q16 -20 32.5 -38t33.5 -36z" />
    <glyph glyph-name="Eacute" unicode="&#xc9;" horiz-adv-x="656" 
d="M636 609q-98 -5 -194.5 -10.5t-194.5 -13.5l-2 -79l258 15q5 -34 7.5 -67t2.5 -67q0 -14 -0.5 -29t-0.5 -29l-240 -43l15 -124q76 5 151.5 14.5t152.5 16.5q7 -50 14 -100.5t20 -98.5q-142 1 -282 -0.5t-282 -1.5q3 117 7 233t4 234v19q0 68 -2 135.5t-4 136.5
q79 -1 157.5 -0.5t158.5 0.5q61 0 121.5 -2.5t121.5 -5.5zM513 948q-25 -21 -47.5 -38.5t-45.5 -32.5t-47.5 -29t-53.5 -30l-37 56q18 18 34.5 36t32.5 38q21 27 45 51l48 48z" />
    <glyph glyph-name="Ecircumflex" unicode="&#xca;" horiz-adv-x="656" 
d="M636 609q-98 -5 -194.5 -10.5t-194.5 -13.5l-2 -79l258 15q5 -34 7.5 -67t2.5 -67q0 -14 -0.5 -29t-0.5 -29l-240 -43l15 -124q76 5 151.5 14.5t152.5 16.5q7 -50 14 -100.5t20 -98.5q-142 1 -282 -0.5t-282 -1.5q3 117 7 233t4 234v19q0 68 -2 135.5t-4 136.5
q79 -1 157.5 -0.5t158.5 0.5q61 0 121.5 -2.5t121.5 -5.5zM555 862l-94 -4l-99 111l-98 -116l-105 -3q50 55 99.5 108.5t101.5 105.5q51 -49 98.5 -99.5t96.5 -102.5z" />
    <glyph glyph-name="Edieresis" unicode="&#xcb;" horiz-adv-x="656" 
d="M636 609q-98 -5 -194.5 -10.5t-194.5 -13.5l-2 -79l258 15q5 -34 7.5 -67t2.5 -67q0 -14 -0.5 -29t-0.5 -29l-240 -43l15 -124q76 5 151.5 14.5t152.5 16.5q7 -50 14 -100.5t20 -98.5q-142 1 -282 -0.5t-282 -1.5q3 117 7 233t4 234v19q0 68 -2 135.5t-4 136.5
q79 -1 157.5 -0.5t158.5 0.5q61 0 121.5 -2.5t121.5 -5.5zM559 929q0 -19 -7.5 -35.5t-20.5 -29t-29.5 -19.5t-35.5 -7q-17 0 -33 6t-29 16.5t-21 25.5t-8 32q0 21 7.5 39.5t21 33t32 22.5t40.5 8q18 0 33.5 -8t26.5 -21t17 -29.5t6 -33.5zM318 931q0 -38 -27.5 -64
t-65.5 -26q-16 0 -32 6t-29 16.5t-21 25t-8 31.5q0 21 8 40t21.5 33.5t32 22.5t39.5 8q18 0 33 -8t26 -21t17 -30t6 -34z" />
    <glyph glyph-name="Igrave" unicode="&#xcc;" horiz-adv-x="521" 
d="M460 734q-5 -61 -4 -121.5t-1 -120.5l-111 4q-1 -35 -1.5 -69t-0.5 -69q0 -42 0.5 -82.5t1.5 -82.5l102 -2q-2 -29 -2 -59v-60q0 -25 1.5 -50t6.5 -49l-359 -6q0 49 -1 96.5t-4 96.5l65 1q-5 94 -11.5 186t-13.5 185l-95 12q-2 42 -3.5 83.5t-3.5 83.5q109 4 216.5 9.5
t217.5 13.5zM329 874l-36 -56q-29 16 -53.5 30t-47.5 29t-46 32.5t-48 38.5l72 99q23 -24 47 -48t46 -51q16 -20 32.5 -38t33.5 -36z" />
    <glyph glyph-name="Iacute" unicode="&#xcd;" horiz-adv-x="521" 
d="M460 734q-5 -61 -4 -121.5t-1 -120.5l-111 4q-1 -35 -1.5 -69t-0.5 -69q0 -42 0.5 -82.5t1.5 -82.5l102 -2q-2 -29 -2 -59v-60q0 -25 1.5 -50t6.5 -49l-359 -6q0 49 -1 96.5t-4 96.5l65 1q-5 94 -11.5 186t-13.5 185l-95 12q-2 42 -3.5 83.5t-3.5 83.5q109 4 216.5 9.5
t217.5 13.5zM411 938q-25 -21 -47.5 -38.5t-45.5 -32.5t-47.5 -29t-53.5 -30l-37 56q18 18 34.5 36t32.5 38q21 27 45 51l48 48z" />
    <glyph glyph-name="Icircumflex" unicode="&#xce;" horiz-adv-x="521" 
d="M460 734q-5 -61 -4 -121.5t-1 -120.5l-111 4q-1 -35 -1.5 -69t-0.5 -69q0 -42 0.5 -82.5t1.5 -82.5l102 -2q-2 -29 -2 -59v-60q0 -25 1.5 -50t6.5 -49l-359 -6q0 49 -1 96.5t-4 96.5l65 1q-5 94 -11.5 186t-13.5 185l-95 12q-2 42 -3.5 83.5t-3.5 83.5q109 4 216.5 9.5
t217.5 13.5zM432 852l-94 -4l-99 111l-98 -116l-105 -3q50 55 99.5 108.5t101.5 105.5q51 -49 98.5 -99.5t96.5 -102.5z" />
    <glyph glyph-name="Idieresis" unicode="&#xcf;" horiz-adv-x="521" 
d="M460 734q-5 -61 -4 -121.5t-1 -120.5l-111 4q-1 -35 -1.5 -69t-0.5 -69q0 -42 0.5 -82.5t1.5 -82.5l102 -2q-2 -29 -2 -59v-60q0 -25 1.5 -50t6.5 -49l-359 -6q0 49 -1 96.5t-4 96.5l65 1q-5 94 -11.5 186t-13.5 185l-95 12q-2 42 -3.5 83.5t-3.5 83.5q109 4 216.5 9.5
t217.5 13.5zM467 929q0 -19 -7.5 -35.5t-20.5 -29t-29.5 -19.5t-35.5 -7q-17 0 -33 6t-29 16.5t-21 25.5t-8 32q0 21 7.5 39.5t21 33t32 22.5t40.5 8q18 0 33.5 -8t26.5 -21t17 -29.5t6 -33.5zM226 931q0 -38 -27.5 -64t-65.5 -26q-16 0 -32 6t-29 16.5t-21 25t-8 31.5
q0 21 8 40t21.5 33.5t32 22.5t39.5 8q18 0 33 -8t26 -21t17 -30t6 -34z" />
    <glyph glyph-name="Eth" unicode="&#xd0;" horiz-adv-x="870" 
d="M117 349h-76l4 81q17 1 33 1t33 1q-6 74 -11 147.5t-8 148.5q85 -3 167.5 -6.5t167.5 -9.5q22 -2 64.5 -5t89 -8.5t87 -13.5t57.5 -20q23 -17 41.5 -46t26.5 -57q4 -13 6 -40.5t3 -58.5t1.5 -60t0.5 -44q0 -29 -0.5 -61t-6.5 -61q-5 -22 -11 -38.5t-15 -30t-22 -25
t-32 -22.5q-6 -4 -32 -10.5t-64.5 -15.5t-86 -19t-97.5 -19.5t-98 -19t-88 -17t-67.5 -13t-36.5 -6.5q-8 88 -15.5 174t-14.5 174zM426 349h-138q2 -31 4 -61t4 -61q19 1 54.5 5.5t73 12t69.5 19t46 27.5q11 12 13 25.5t2 29.5q0 11 -0.5 23.5t-1.5 23.5q-2 16 -5 33.5
t-9 34t-15 31t-22 25.5q-7 6 -34.5 9.5t-59 5t-59.5 2t-37 0.5h-41q3 -26 6 -50.5t5 -50.5h137z" />
    <glyph glyph-name="Ntilde" unicode="&#xd1;" horiz-adv-x="933" 
d="M851 322q0 -88 -0.5 -173.5t-1.5 -173.5q-62 3 -123 3q-30 0 -60.5 -3t-60.5 -8q-38 83 -76 164.5t-76 164.5q-28 61 -53 122t-50 123q-9 -135 -18.5 -268.5t-15.5 -268.5l-216 6q-5 192 -9 382t-14 382l391 2q20 -50 37.5 -100.5t33.5 -102.5q23 -79 52 -156.5
t58 -155.5q-1 125 -4.5 249t-5.5 250l202 -24q4 -104 7 -207t3 -207zM713 941q-11 -8 -32 -21.5t-43.5 -26.5t-44 -22.5t-34.5 -9.5q-15 0 -33.5 10.5t-37.5 23t-36.5 23t-30.5 10.5q-11 0 -25 -7.5t-28 -18.5t-26 -22.5t-19 -18.5l-59 65q9 6 30 20.5t44 29.5t44 26.5
t29 11.5q14 0 33 -9.5t39.5 -20.5t40 -20.5t33.5 -9.5q10 0 23.5 6t27 14t25.5 17.5t20 15.5z" />
    <glyph glyph-name="Ograve" unicode="&#xd2;" horiz-adv-x="956" 
d="M895 427v-25.5t-1 -24.5q-1 -10 -2.5 -35t-4 -57.5t-6 -68.5t-8 -66.5t-9.5 -52.5t-10 -27q-30 -30 -71.5 -44.5t-86.5 -19.5t-90 -4t-84 1q-13 0 -44 0.5t-70.5 1.5t-82.5 3.5t-80.5 7t-65 11t-34.5 16.5q-8 11 -14 24t-11 25q-13 33 -24 70.5t-18.5 77t-12 78.5
t-4.5 74q0 19 3 49.5t8 66t12 72.5t15.5 69t18.5 55.5t22 31.5q10 7 37 13t63 10.5t77 8t78 6t67 3.5t44 1q19 0 51.5 -2t70.5 -6.5t77 -11t72.5 -15.5t57.5 -20t30 -24q5 -11 9.5 -31.5t7.5 -46.5t5.5 -55t4 -55.5t2.5 -48.5t1 -35zM716 394q0 20 -2 42.5t-13 39.5
q-8 12 -38.5 19t-67 10t-70.5 3.5t-48 0.5q-11 0 -38.5 -2t-58 -6.5t-56.5 -11t-32 -15.5q-6 -7 -9.5 -26.5t-6 -42t-3.5 -43t-1 -29.5q0 -8 0.5 -24t2.5 -33t4.5 -32t7.5 -22q3 -5 18 -9t36.5 -7.5t45.5 -5.5t46.5 -3.5t40 -2t24.5 -0.5q12 0 41.5 2t62 6.5t60 11
t35.5 15.5q6 7 10 29.5t6 49t2.5 51t0.5 35.5zM614 895l-36 -56q-29 16 -53.5 30t-47.5 29t-46 32.5t-48 38.5l72 99q23 -24 47 -48t46 -51q16 -20 32.5 -38t33.5 -36z" />
    <glyph glyph-name="Oacute" unicode="&#xd3;" horiz-adv-x="956" 
d="M895 427v-25.5t-1 -24.5q-1 -10 -2.5 -35t-4 -57.5t-6 -68.5t-8 -66.5t-9.5 -52.5t-10 -27q-30 -30 -71.5 -44.5t-86.5 -19.5t-90 -4t-84 1q-13 0 -44 0.5t-70.5 1.5t-82.5 3.5t-80.5 7t-65 11t-34.5 16.5q-8 11 -14 24t-11 25q-13 33 -24 70.5t-18.5 77t-12 78.5
t-4.5 74q0 19 3 49.5t8 66t12 72.5t15.5 69t18.5 55.5t22 31.5q10 7 37 13t63 10.5t77 8t78 6t67 3.5t44 1q19 0 51.5 -2t70.5 -6.5t77 -11t72.5 -15.5t57.5 -20t30 -24q5 -11 9.5 -31.5t7.5 -46.5t5.5 -55t4 -55.5t2.5 -48.5t1 -35zM716 394q0 20 -2 42.5t-13 39.5
q-8 12 -38.5 19t-67 10t-70.5 3.5t-48 0.5q-11 0 -38.5 -2t-58 -6.5t-56.5 -11t-32 -15.5q-6 -7 -9.5 -26.5t-6 -42t-3.5 -43t-1 -29.5q0 -8 0.5 -24t2.5 -33t4.5 -32t7.5 -22q3 -5 18 -9t36.5 -7.5t45.5 -5.5t46.5 -3.5t40 -2t24.5 -0.5q12 0 41.5 2t62 6.5t60 11
t35.5 15.5q6 7 10 29.5t6 49t2.5 51t0.5 35.5zM666 979q-25 -21 -47.5 -38.5t-45.5 -32.5t-47.5 -29t-53.5 -30l-37 56q18 18 34.5 36t32.5 38q21 27 45 51l48 48z" />
    <glyph glyph-name="Ocircumflex" unicode="&#xd4;" horiz-adv-x="956" 
d="M895 427v-25.5t-1 -24.5q-1 -10 -2.5 -35t-4 -57.5t-6 -68.5t-8 -66.5t-9.5 -52.5t-10 -27q-30 -30 -71.5 -44.5t-86.5 -19.5t-90 -4t-84 1q-13 0 -44 0.5t-70.5 1.5t-82.5 3.5t-80.5 7t-65 11t-34.5 16.5q-8 11 -14 24t-11 25q-13 33 -24 70.5t-18.5 77t-12 78.5
t-4.5 74q0 19 3 49.5t8 66t12 72.5t15.5 69t18.5 55.5t22 31.5q10 7 37 13t63 10.5t77 8t78 6t67 3.5t44 1q19 0 51.5 -2t70.5 -6.5t77 -11t72.5 -15.5t57.5 -20t30 -24q5 -11 9.5 -31.5t7.5 -46.5t5.5 -55t4 -55.5t2.5 -48.5t1 -35zM716 394q0 20 -2 42.5t-13 39.5
q-8 12 -38.5 19t-67 10t-70.5 3.5t-48 0.5q-11 0 -38.5 -2t-58 -6.5t-56.5 -11t-32 -15.5q-6 -7 -9.5 -26.5t-6 -42t-3.5 -43t-1 -29.5q0 -8 0.5 -24t2.5 -33t4.5 -32t7.5 -22q3 -5 18 -9t36.5 -7.5t45.5 -5.5t46.5 -3.5t40 -2t24.5 -0.5q12 0 41.5 2t62 6.5t60 11
t35.5 15.5q6 7 10 29.5t6 49t2.5 51t0.5 35.5zM708 872l-94 -4l-99 111l-98 -116l-105 -3q50 55 99.5 108.5t101.5 105.5q51 -49 98.5 -99.5t96.5 -102.5z" />
    <glyph glyph-name="Otilde" unicode="&#xd5;" horiz-adv-x="956" 
d="M895 427v-25.5t-1 -24.5q-1 -10 -2.5 -35t-4 -57.5t-6 -68.5t-8 -66.5t-9.5 -52.5t-10 -27q-30 -30 -71.5 -44.5t-86.5 -19.5t-90 -4t-84 1q-13 0 -44 0.5t-70.5 1.5t-82.5 3.5t-80.5 7t-65 11t-34.5 16.5q-8 11 -14 24t-11 25q-13 33 -24 70.5t-18.5 77t-12 78.5
t-4.5 74q0 19 3 49.5t8 66t12 72.5t15.5 69t18.5 55.5t22 31.5q10 7 37 13t63 10.5t77 8t78 6t67 3.5t44 1q19 0 51.5 -2t70.5 -6.5t77 -11t72.5 -15.5t57.5 -20t30 -24q5 -11 9.5 -31.5t7.5 -46.5t5.5 -55t4 -55.5t2.5 -48.5t1 -35zM716 394q0 20 -2 42.5t-13 39.5
q-8 12 -38.5 19t-67 10t-70.5 3.5t-48 0.5q-11 0 -38.5 -2t-58 -6.5t-56.5 -11t-32 -15.5q-6 -7 -9.5 -26.5t-6 -42t-3.5 -43t-1 -29.5q0 -8 0.5 -24t2.5 -33t4.5 -32t7.5 -22q3 -5 18 -9t36.5 -7.5t45.5 -5.5t46.5 -3.5t40 -2t24.5 -0.5q12 0 41.5 2t62 6.5t60 11
t35.5 15.5q6 7 10 29.5t6 49t2.5 51t0.5 35.5zM734 941q-11 -8 -32 -21.5t-43.5 -26.5t-44 -22.5t-34.5 -9.5q-15 0 -33.5 10.5t-37.5 23t-36.5 23t-30.5 10.5q-11 0 -25 -7.5t-28 -18.5t-26 -22.5t-19 -18.5l-59 65q9 6 30 20.5t44 29.5t44 26.5t29 11.5q14 0 33 -9.5
t39.5 -20.5t40 -20.5t33.5 -9.5q10 0 23.5 6t27 14t25.5 17.5t20 15.5z" />
    <glyph glyph-name="Odieresis" unicode="&#xd6;" horiz-adv-x="956" 
d="M895 427v-25.5t-1 -24.5q-1 -10 -2.5 -35t-4 -57.5t-6 -68.5t-8 -66.5t-9.5 -52.5t-10 -27q-30 -30 -71.5 -44.5t-86.5 -19.5t-90 -4t-84 1q-13 0 -44 0.5t-70.5 1.5t-82.5 3.5t-80.5 7t-65 11t-34.5 16.5q-8 11 -14 24t-11 25q-13 33 -24 70.5t-18.5 77t-12 78.5
t-4.5 74q0 19 3 49.5t8 66t12 72.5t15.5 69t18.5 55.5t22 31.5q10 7 37 13t63 10.5t77 8t78 6t67 3.5t44 1q19 0 51.5 -2t70.5 -6.5t77 -11t72.5 -15.5t57.5 -20t30 -24q5 -11 9.5 -31.5t7.5 -46.5t5.5 -55t4 -55.5t2.5 -48.5t1 -35zM716 394q0 20 -2 42.5t-13 39.5
q-8 12 -38.5 19t-67 10t-70.5 3.5t-48 0.5q-11 0 -38.5 -2t-58 -6.5t-56.5 -11t-32 -15.5q-6 -7 -9.5 -26.5t-6 -42t-3.5 -43t-1 -29.5q0 -8 0.5 -24t2.5 -33t4.5 -32t7.5 -22q3 -5 18 -9t36.5 -7.5t45.5 -5.5t46.5 -3.5t40 -2t24.5 -0.5q12 0 41.5 2t62 6.5t60 11
t35.5 15.5q6 7 10 29.5t6 49t2.5 51t0.5 35.5zM722 949q0 -19 -7.5 -35.5t-20.5 -29t-29.5 -19.5t-35.5 -7q-17 0 -33 6t-29 16.5t-21 25.5t-8 32q0 21 7.5 39.5t21 33t32 22.5t40.5 8q18 0 33.5 -8t26.5 -21t17 -29.5t6 -33.5zM481 951q0 -38 -27.5 -64t-65.5 -26
q-16 0 -32 6t-29 16.5t-21 25t-8 31.5q0 21 8 40t21.5 33.5t32 22.5t39.5 8q18 0 33 -8t26 -21t17 -30t6 -34z" />
    <glyph glyph-name="multiply" unicode="&#xd7;" horiz-adv-x="462" 
d="M431 242l-65 -66q-34 40 -68 79t-69 77q-35 -40 -67.5 -82t-64.5 -85l-66 55q38 41 75 81.5t74 82.5q-33 46 -70 88t-73 85l69 54q31 -41 63 -84q14 -20 32.5 -38.5t36.5 -35.5q31 42 58 81.5t56 83.5l67 -59q-20 -21 -37 -40t-33 -38t-31.5 -39t-33.5 -43
q35 -42 71.5 -80t75.5 -77z" />
    <glyph glyph-name="Oslash" unicode="&#xd8;" horiz-adv-x="734" 
d="M765 748l-97 -108q5 -69 6.5 -137t1.5 -137q0 -20 -1 -54t-4.5 -69.5t-11 -67t-19.5 -46.5q-40 -50 -76.5 -75t-76 -36t-85.5 -11.5t-106 -0.5h-25.5t-34.5 1.5t-33.5 3.5t-23.5 7q-14 9 -27.5 26.5t-18.5 32.5l-108 -109q-11 9 -19 17t-14.5 16t-11.5 18t-11 23l132 134
q-5 29 -9 62.5t-7.5 68t-5.5 68t-2 63.5q0 18 2 50.5t6.5 67.5t11.5 65.5t18 45.5q25 34 57 53.5t68.5 29.5t76 12.5t79.5 2.5q18 0 45.5 -1.5t56 -6t53.5 -12t37 -19.5l90 95q31 -13 49 -30t38 -43zM475 595q0 19 -6 30t-16.5 16.5t-24 6.5t-29.5 1q-13 0 -29.5 -1t-33 -4
t-32 -8t-26.5 -14q-8 -6 -12.5 -29t-6.5 -49.5t-3 -50t-1 -31.5q0 -34 1.5 -67.5t3.5 -66.5zM494 454l-228 -276q0 -3 0.5 -11t2.5 -16.5t5.5 -15.5t8.5 -9t15.5 -3t22.5 -2t23 -1h17h19.5t23 1.5t22.5 3.5t17 7q9 7 16.5 30t13 54.5t9.5 67.5t6.5 69.5t4 60.5t1.5 40z" />
    <glyph glyph-name="Ugrave" unicode="&#xd9;" horiz-adv-x="890" 
d="M818 330q0 -57 -2.5 -113t-10.5 -113q-16 -12 -32 -22.5t-33 -22.5q-14 -9 -30.5 -20.5t-34.5 -22.5t-36.5 -19.5t-34.5 -11.5q-15 -4 -40 -3.5t-42 0.5q-42 -2 -84 -3t-86 -1q-20 0 -46 -0.5t-47 4.5q-6 1 -20 9.5t-31.5 21t-36.5 27t-36.5 28t-30 24t-17.5 14.5
q-5 53 -7.5 105.5t-2.5 105.5q0 103 7.5 204t16.5 203l206 5q-10 -64 -14 -135.5t-4 -137.5q0 -11 1 -38.5t4 -58.5t7.5 -57t11.5 -34q3 -3 15.5 -5.5t30 -4.5t37.5 -3t38 -1.5t32 -1t20 -0.5h17t24.5 0.5t23.5 1.5t15 4q12 8 18 39t9 68t3 71v49q0 23 0.5 46t0.5 46
q0 47 -1 92.5t-3 92.5q21 -2 41.5 -2.5t41.5 -0.5q25 0 49.5 1t48.5 6q21 -107 32.5 -216.5t11.5 -219.5zM523 854l-36 -56q-29 16 -53.5 30t-47.5 29t-46 32.5t-48 38.5l72 99q23 -24 47 -48t46 -51q16 -20 32.5 -38t33.5 -36z" />
    <glyph glyph-name="Uacute" unicode="&#xda;" horiz-adv-x="890" 
d="M818 330q0 -57 -2.5 -113t-10.5 -113q-16 -12 -32 -22.5t-33 -22.5q-14 -9 -30.5 -20.5t-34.5 -22.5t-36.5 -19.5t-34.5 -11.5q-15 -4 -40 -3.5t-42 0.5q-42 -2 -84 -3t-86 -1q-20 0 -46 -0.5t-47 4.5q-6 1 -20 9.5t-31.5 21t-36.5 27t-36.5 28t-30 24t-17.5 14.5
q-5 53 -7.5 105.5t-2.5 105.5q0 103 7.5 204t16.5 203l206 5q-10 -64 -14 -135.5t-4 -137.5q0 -11 1 -38.5t4 -58.5t7.5 -57t11.5 -34q3 -3 15.5 -5.5t30 -4.5t37.5 -3t38 -1.5t32 -1t20 -0.5h17t24.5 0.5t23.5 1.5t15 4q12 8 18 39t9 68t3 71v49q0 23 0.5 46t0.5 46
q0 47 -1 92.5t-3 92.5q21 -2 41.5 -2.5t41.5 -0.5q25 0 49.5 1t48.5 6q21 -107 32.5 -216.5t11.5 -219.5zM625 918q-25 -21 -47.5 -38.5t-45.5 -32.5t-47.5 -29t-53.5 -30l-37 56q18 18 34.5 36t32.5 38q21 27 45 51l48 48z" />
    <glyph glyph-name="Ucircumflex" unicode="&#xdb;" horiz-adv-x="890" 
d="M818 330q0 -57 -2.5 -113t-10.5 -113q-16 -12 -32 -22.5t-33 -22.5q-14 -9 -30.5 -20.5t-34.5 -22.5t-36.5 -19.5t-34.5 -11.5q-15 -4 -40 -3.5t-42 0.5q-42 -2 -84 -3t-86 -1q-20 0 -46 -0.5t-47 4.5q-6 1 -20 9.5t-31.5 21t-36.5 27t-36.5 28t-30 24t-17.5 14.5
q-5 53 -7.5 105.5t-2.5 105.5q0 103 7.5 204t16.5 203l206 5q-10 -64 -14 -135.5t-4 -137.5q0 -11 1 -38.5t4 -58.5t7.5 -57t11.5 -34q3 -3 15.5 -5.5t30 -4.5t37.5 -3t38 -1.5t32 -1t20 -0.5h17t24.5 0.5t23.5 1.5t15 4q12 8 18 39t9 68t3 71v49q0 23 0.5 46t0.5 46
q0 47 -1 92.5t-3 92.5q21 -2 41.5 -2.5t41.5 -0.5q25 0 49.5 1t48.5 6q21 -107 32.5 -216.5t11.5 -219.5zM627 852l-94 -4l-99 111l-98 -116l-105 -3q50 55 99.5 108.5t101.5 105.5q51 -49 98.5 -99.5t96.5 -102.5z" />
    <glyph glyph-name="Udieresis" unicode="&#xdc;" horiz-adv-x="890" 
d="M818 330q0 -57 -2.5 -113t-10.5 -113q-16 -12 -32 -22.5t-33 -22.5q-14 -9 -30.5 -20.5t-34.5 -22.5t-36.5 -19.5t-34.5 -11.5q-15 -4 -40 -3.5t-42 0.5q-42 -2 -84 -3t-86 -1q-20 0 -46 -0.5t-47 4.5q-6 1 -20 9.5t-31.5 21t-36.5 27t-36.5 28t-30 24t-17.5 14.5
q-5 53 -7.5 105.5t-2.5 105.5q0 103 7.5 204t16.5 203l206 5q-10 -64 -14 -135.5t-4 -137.5q0 -11 1 -38.5t4 -58.5t7.5 -57t11.5 -34q3 -3 15.5 -5.5t30 -4.5t37.5 -3t38 -1.5t32 -1t20 -0.5h17t24.5 0.5t23.5 1.5t15 4q12 8 18 39t9 68t3 71v49q0 23 0.5 46t0.5 46
q0 47 -1 92.5t-3 92.5q21 -2 41.5 -2.5t41.5 -0.5q25 0 49.5 1t48.5 6q21 -107 32.5 -216.5t11.5 -219.5zM661 929q0 -19 -7.5 -35.5t-20.5 -29t-29.5 -19.5t-35.5 -7q-17 0 -33 6t-29 16.5t-21 25.5t-8 32q0 21 7.5 39.5t21 33t32 22.5t40.5 8q18 0 33.5 -8t26.5 -21
t17 -29.5t6 -33.5zM420 931q0 -38 -27.5 -64t-65.5 -26q-16 0 -32 6t-29 16.5t-21 25t-8 31.5q0 21 8 40t21.5 33.5t32 22.5t39.5 8q18 0 33 -8t26 -21t17 -30t6 -34z" />
    <glyph glyph-name="Yacute" unicode="&#xdd;" horiz-adv-x="824" 
d="M758 249q0 -36 -11 -75.5t-32 -74t-51.5 -60t-68.5 -33.5q-15 -3 -35.5 -5t-42.5 -3t-43.5 -2t-36.5 -1q-86 -4 -172 -4.5t-173 -0.5q-4 41 -7.5 81t-9.5 82q69 3 137.5 6.5t137.5 8.5q15 1 33.5 1t38 1t38 2.5t32.5 4.5q6 1 14.5 3.5t15.5 7t12 10.5t5 15
q0 21 -4.5 46.5t-6.5 45.5q-75 -7 -150.5 -13.5t-151.5 -6.5q-52 0 -83 29.5t-45 77.5q-3 11 -5.5 26.5t-4 32t-2.5 32.5t-2 27q-5 66 -7.5 130t-4.5 130q48 -5 96.5 -9t96.5 -7q0 -47 2.5 -99.5t12.5 -97.5q5 -24 19 -41.5t33.5 -29t42 -17t45.5 -5.5q27 0 54 5.5t52 13.5
q-4 75 -6.5 148t-9.5 147q30 1 60 2.5t60 1.5q47 0 95 -9q0 -43 1.5 -86t3.5 -86q2 -20 3.5 -40.5t2.5 -40.5q4 -68 13 -135.5t9 -135.5zM554 969q-25 -21 -47.5 -38.5t-45.5 -32.5t-47.5 -29t-53.5 -30l-37 56q18 18 34.5 36t32.5 38q21 27 45 51l48 48z" />
    <glyph glyph-name="Thorn" unicode="&#xde;" horiz-adv-x="862" 
d="M806 364q0 -44 -7.5 -80t-25.5 -63t-49 -45t-78 -25q-32 -5 -65 -7.5t-66 -2.5q-57 0 -115 6t-115 15l-6 -209q-29 -2 -56.5 -2h-56.5h-32.5t-32.5 -2q3 86 7 171t4 172v11q0 49 -3 97t-5 97q-2 82 -5.5 164t-6.5 163q45 4 87.5 6.5t86.5 3.5l15 -196q75 8 151.5 15
t153.5 7q27 0 57.5 -6t58 -19t49 -33t30.5 -48q7 -20 11.5 -44.5t7.5 -50t4.5 -50t1.5 -45.5zM608 382q0 11 -2 25t-10 24q-20 23 -49.5 35t-59.5 12q-49 0 -104.5 -8t-103.5 -18l5 -159q38 -11 80 -20.5t81 -9.5h31t43.5 1t41.5 4.5t25 11.5q6 7 10 20.5t6.5 28.5t4 29.5
t1.5 23.5z" />
    <glyph glyph-name="germandbls" unicode="&#xdf;" horiz-adv-x="1014" 
d="M973 205q0 -16 -2 -38t-7.5 -44t-14.5 -41.5t-22 -29.5q-15 -12 -49 -20t-72.5 -13t-74 -7t-54.5 -2q-66 0 -132 7.5t-132 16.5v191q48 -10 97.5 -14t97.5 -6q29 -2 57 -3.5t57 -1.5q6 0 23.5 1t36.5 3.5t35.5 7t19.5 11.5q2 8 2 14q0 7 -2.5 20.5t-7.5 18.5
q-1 1 -8.5 1.5t-17 1t-18 1t-10.5 0.5q-31 1 -67 1.5t-72.5 2.5t-71.5 5.5t-65 10.5q-20 4 -35.5 9t-27 13t-19.5 20.5t-11 33.5q-2 9 -2.5 17.5t-0.5 17.5q0 15 2.5 34.5t8.5 38.5t16 34.5t26 21.5q7 3 20 4.5t27 3t26 3.5t18 5q9 5 9 17q0 3 -0.5 7.5t-2.5 6.5t-15 4
t-29 3.5t-31 2t-19 0.5q-34 0 -71.5 -7t-62.5 -32q-12 -11 -22.5 -31.5t-10.5 -37.5q0 -3 0.5 -6t0.5 -6l49 -493q-63 2 -125.5 -2t-125.5 -5l9 331l-74 -4v27q0 35 3.5 69t5.5 69l71 2q0 16 1 39t4 46.5t8.5 46t13.5 37.5q22 42 50 66.5t61 37.5t71.5 17t81.5 4
q36 0 76.5 -4t81 -13t77.5 -24.5t64 -39.5q8 -7 13.5 -20t8.5 -28t4.5 -29t1.5 -23q0 -12 -2.5 -29t-8 -34.5t-14 -31.5t-20.5 -20q-7 -3 -23.5 -5.5t-33.5 -4t-31.5 -2.5t-16.5 -2q-7 -5 -9 -13.5t-2 -16.5q0 -11 4 -18q2 -3 22.5 -5t49.5 -3.5t63.5 -2t66.5 -1t56.5 -1.5
t33.5 -2q26 -3 48 -12t36 -32q8 -14 13.5 -32t9.5 -37.5t5.5 -38.5t1.5 -35z" />
    <glyph glyph-name="agrave" unicode="&#xe0;" horiz-adv-x="811" 
d="M755 451q0 -84 -6 -167l-12 -166q-112 -10 -223 -17t-223 -7q-10 0 -37 0.5t-57 2t-57 4t-36 7.5q-33 18 -46 45.5t-13 62.5q0 12 1 32t4 42t8 41t12 28q9 12 41 20.5t76.5 13.5t96 8t98.5 4.5t84 1.5h53q3 22 3 43v10.5t-1 10.5q-3 6 -19 10t-39.5 6t-51 3.5t-53.5 1.5
h-46h-29q-63 0 -126 -2.5t-126 -4.5q4 38 6.5 77t0.5 77q73 13 146.5 18.5t148.5 5.5q27 0 59 -0.5t64 -2t63.5 -4.5t58.5 -8q28 -5 55.5 -18t51.5 -32t42 -43.5t26 -52.5q1 -3 1.5 -10t0.5 -15.5v-15.5v-10zM532 216v128q-29 1 -58 1.5t-58 0.5q-6 0 -33.5 -0.5t-59 -2.5
t-57.5 -5t-30 -9q-5 -8 -6.5 -16.5t-1.5 -17.5q0 -7 1 -19t3.5 -25t5.5 -24t8 -16q4 -5 13.5 -7.5t20.5 -4t22 -2t17 -0.5q24 0 51.5 2t56 4.5t55.5 6t50 6.5zM482 792l-36 -56q-29 16 -53.5 30t-47.5 29t-46 32.5t-48 38.5l72 99q23 -24 47 -48t46 -51q16 -20 32.5 -38
t33.5 -36z" />
    <glyph glyph-name="aacute" unicode="&#xe1;" horiz-adv-x="811" 
d="M755 451q0 -84 -6 -167l-12 -166q-112 -10 -223 -17t-223 -7q-10 0 -37 0.5t-57 2t-57 4t-36 7.5q-33 18 -46 45.5t-13 62.5q0 12 1 32t4 42t8 41t12 28q9 12 41 20.5t76.5 13.5t96 8t98.5 4.5t84 1.5h53q3 22 3 43v10.5t-1 10.5q-3 6 -19 10t-39.5 6t-51 3.5t-53.5 1.5
h-46h-29q-63 0 -126 -2.5t-126 -4.5q4 38 6.5 77t0.5 77q73 13 146.5 18.5t148.5 5.5q27 0 59 -0.5t64 -2t63.5 -4.5t58.5 -8q28 -5 55.5 -18t51.5 -32t42 -43.5t26 -52.5q1 -3 1.5 -10t0.5 -15.5v-15.5v-10zM532 216v128q-29 1 -58 1.5t-58 0.5q-6 0 -33.5 -0.5t-59 -2.5
t-57.5 -5t-30 -9q-5 -8 -6.5 -16.5t-1.5 -17.5q0 -7 1 -19t3.5 -25t5.5 -24t8 -16q4 -5 13.5 -7.5t20.5 -4t22 -2t17 -0.5q24 0 51.5 2t56 4.5t55.5 6t50 6.5zM564 856q-25 -21 -47.5 -38.5t-45.5 -32.5t-47.5 -29t-53.5 -30l-37 56q18 18 34.5 36t32.5 38q21 27 45 51
l48 48z" />
    <glyph glyph-name="acircumflex" unicode="&#xe2;" horiz-adv-x="811" 
d="M755 451q0 -84 -6 -167l-12 -166q-112 -10 -223 -17t-223 -7q-10 0 -37 0.5t-57 2t-57 4t-36 7.5q-33 18 -46 45.5t-13 62.5q0 12 1 32t4 42t8 41t12 28q9 12 41 20.5t76.5 13.5t96 8t98.5 4.5t84 1.5h53q3 22 3 43v10.5t-1 10.5q-3 6 -19 10t-39.5 6t-51 3.5t-53.5 1.5
h-46h-29q-63 0 -126 -2.5t-126 -4.5q4 38 6.5 77t0.5 77q73 13 146.5 18.5t148.5 5.5q27 0 59 -0.5t64 -2t63.5 -4.5t58.5 -8q28 -5 55.5 -18t51.5 -32t42 -43.5t26 -52.5q1 -3 1.5 -10t0.5 -15.5v-15.5v-10zM532 216v128q-29 1 -58 1.5t-58 0.5q-6 0 -33.5 -0.5t-59 -2.5
t-57.5 -5t-30 -9q-5 -8 -6.5 -16.5t-1.5 -17.5q0 -7 1 -19t3.5 -25t5.5 -24t8 -16q4 -5 13.5 -7.5t20.5 -4t22 -2t17 -0.5q24 0 51.5 2t56 4.5t55.5 6t50 6.5zM596 760l-94 -4l-99 111l-98 -116l-105 -3q50 55 99.5 108.5t101.5 105.5q51 -49 98.5 -99.5t96.5 -102.5z" />
    <glyph glyph-name="atilde" unicode="&#xe3;" horiz-adv-x="811" 
d="M755 451q0 -84 -6 -167l-12 -166q-112 -10 -223 -17t-223 -7q-10 0 -37 0.5t-57 2t-57 4t-36 7.5q-33 18 -46 45.5t-13 62.5q0 12 1 32t4 42t8 41t12 28q9 12 41 20.5t76.5 13.5t96 8t98.5 4.5t84 1.5h53q3 22 3 43v10.5t-1 10.5q-3 6 -19 10t-39.5 6t-51 3.5t-53.5 1.5
h-46h-29q-63 0 -126 -2.5t-126 -4.5q4 38 6.5 77t0.5 77q73 13 146.5 18.5t148.5 5.5q27 0 59 -0.5t64 -2t63.5 -4.5t58.5 -8q28 -5 55.5 -18t51.5 -32t42 -43.5t26 -52.5q1 -3 1.5 -10t0.5 -15.5v-15.5v-10zM532 216v128q-29 1 -58 1.5t-58 0.5q-6 0 -33.5 -0.5t-59 -2.5
t-57.5 -5t-30 -9q-5 -8 -6.5 -16.5t-1.5 -17.5q0 -7 1 -19t3.5 -25t5.5 -24t8 -16q4 -5 13.5 -7.5t20.5 -4t22 -2t17 -0.5q24 0 51.5 2t56 4.5t55.5 6t50 6.5zM632 818q-11 -8 -32 -21.5t-43.5 -26.5t-44 -22.5t-34.5 -9.5q-15 0 -33.5 10.5t-37.5 23t-36.5 23t-30.5 10.5
q-11 0 -25 -7.5t-28 -18.5t-26 -22.5t-19 -18.5l-59 65q9 6 30 20.5t44 29.5t44 26.5t29 11.5q14 0 33 -9.5t39.5 -20.5t40 -20.5t33.5 -9.5q10 0 23.5 6t27 14t25.5 17.5t20 15.5z" />
    <glyph glyph-name="adieresis" unicode="&#xe4;" horiz-adv-x="811" 
d="M755 451q0 -84 -6 -167l-12 -166q-112 -10 -223 -17t-223 -7q-10 0 -37 0.5t-57 2t-57 4t-36 7.5q-33 18 -46 45.5t-13 62.5q0 12 1 32t4 42t8 41t12 28q9 12 41 20.5t76.5 13.5t96 8t98.5 4.5t84 1.5h53q3 22 3 43v10.5t-1 10.5q-3 6 -19 10t-39.5 6t-51 3.5t-53.5 1.5
h-46h-29q-63 0 -126 -2.5t-126 -4.5q4 38 6.5 77t0.5 77q73 13 146.5 18.5t148.5 5.5q27 0 59 -0.5t64 -2t63.5 -4.5t58.5 -8q28 -5 55.5 -18t51.5 -32t42 -43.5t26 -52.5q1 -3 1.5 -10t0.5 -15.5v-15.5v-10zM532 216v128q-29 1 -58 1.5t-58 0.5q-6 0 -33.5 -0.5t-59 -2.5
t-57.5 -5t-30 -9q-5 -8 -6.5 -16.5t-1.5 -17.5q0 -7 1 -19t3.5 -25t5.5 -24t8 -16q4 -5 13.5 -7.5t20.5 -4t22 -2t17 -0.5q24 0 51.5 2t56 4.5t55.5 6t50 6.5zM620 826q0 -19 -7.5 -35.5t-20.5 -29t-29.5 -19.5t-35.5 -7q-17 0 -33 6t-29 16.5t-21 25.5t-8 32q0 21 7.5 39.5
t21 33t32 22.5t40.5 8q18 0 33.5 -8t26.5 -21t17 -29.5t6 -33.5zM379 828q0 -38 -27.5 -64t-65.5 -26q-16 0 -32 6t-29 16.5t-21 25t-8 31.5q0 21 8 40t21.5 33.5t32 22.5t39.5 8q18 0 33 -8t26 -21t17 -30t6 -34z" />
    <glyph glyph-name="aring" unicode="&#xe5;" horiz-adv-x="811" 
d="M532 216v128q-29 1 -58 1.5t-58 0.5q-6 0 -33.5 -0.5t-59 -2.5t-57.5 -5t-30 -9q-5 -8 -6.5 -16.5t-1.5 -17.5q0 -7 1 -19t3.5 -25t5.5 -24t8 -16q4 -5 13.5 -7.5t20.5 -4t22 -2t17 -0.5q24 0 51.5 2t56 4.5t55.5 6t50 6.5zM533 763q0 -38 -22 -63.5t-54 -39.5
q32 -2 63 -4.5t58 -7.5q28 -5 55.5 -18t51.5 -32t42 -43.5t26 -52.5q1 -3 1.5 -10t0.5 -15.5v-15.5v-10q0 -84 -6 -167l-12 -166q-112 -10 -223 -17t-223 -7q-10 0 -37 0.5t-57 2t-57 4t-36 7.5q-33 18 -46 45.5t-13 62.5q0 12 1 32t4 42t8 41t12 28q9 12 41 20.5t76.5 13.5
t96 8t98.5 4.5t84 1.5h53q3 22 3 43v10.5t-1 10.5q-3 6 -19 10t-39.5 6t-51 3.5t-53.5 1.5h-46h-29q-63 0 -126 -2.5t-126 -4.5q4 38 6.5 77t0.5 77q68 12 136.5 17.5t137.5 6.5q-29 13 -50.5 33t-21.5 48v4t1 4q5 27 20 48.5t36.5 36t47 22.5t52.5 8q23 0 47 -6.5t44 -19
t32.5 -32t12.5 -46.5zM464 750q0 21 -2.5 34t-9.5 19.5t-19.5 9t-33.5 2.5q-5 0 -13 -0.5t-16.5 -1t-16 -2t-11.5 -4.5q-5 -3 -8 -11t-5 -17.5t-2.5 -19t-0.5 -14.5q0 -29 9.5 -36.5t38.5 -7.5q6 0 18 1t24.5 2.5t23.5 4t15 5.5q7 5 8 16.5t1 19.5z" />
    <glyph glyph-name="ae" unicode="&#xe6;" horiz-adv-x="1356" 
d="M1320 368q0 -22 -1 -44t-3 -43q-53 -2 -105 -4t-105 -4q-75 -3 -150.5 -9t-150.5 -11q0 -18 7.5 -34.5t19.5 -30t27 -23t31 -14.5q15 -5 40 -6.5t42 -1.5q66 0 131 9t130 22l16 -174q-61 -5 -122 -8.5t-121 -3.5q-14 0 -40 0.5t-54.5 2.5t-54.5 5t-39 9q-31 14 -57 31.5
t-41 49.5q-2 2 -2.5 6t-2.5 9t-3 11l-2 -23q-2 -23 -3.5 -46.5t-4.5 -46.5q-106 -10 -211 -17.5t-211 -7.5q-10 0 -30 0.5t-42 1.5t-41.5 3t-28.5 6q-29 11 -47 22.5t-29.5 27t-17.5 37t-10 52.5q-3 18 -3 39q0 60 21.5 91t56.5 44t78.5 14t88.5 1q60 0 119.5 -2t119.5 -14
q1 3 1 9q0 11 -5 23.5t-12.5 23.5t-16.5 21t-18 16q-6 4 -17.5 7t-24 4t-24.5 1.5t-18 0.5q-76 0 -152.5 -14.5t-149.5 -33.5q-8 49 -12.5 94.5t-4.5 95.5q67 10 133.5 17t134.5 7q64 0 129 -10t122 -42q17 -10 35 -24.5t34 -32t27 -37t15 -38.5q5 22 16 47.5t26.5 49.5
t34.5 43.5t41 30.5q20 10 60.5 16.5t85.5 10.5t87 5.5t65 1.5h44t54 -3t50.5 -11.5t32.5 -24.5q10 -18 16.5 -41t10 -47.5t4.5 -48.5t1 -43zM1180 383q0 21 -20 31.5t-47 15t-53.5 5t-39.5 0.5h-28t-35.5 -1.5t-34.5 -4t-25 -7.5q-15 -8 -24.5 -29t-12.5 -37l318 13
q2 8 2 14zM532 158q0 32 -8 66q-13 9 -37.5 10.5t-40.5 1.5q-13 0 -44 -2t-65 -6.5t-62.5 -10.5t-36.5 -15q-9 -10 -11.5 -22.5t-2.5 -23.5q0 -8 1.5 -20t4.5 -24.5t7.5 -23t11.5 -16.5q4 -3 13.5 -5t21 -3t22 -1.5t15.5 -0.5q15 0 42.5 1.5t56.5 4.5t55 8.5t38 13.5
q6 4 9.5 13t6 19t3 20t0.5 16z" />
    <glyph glyph-name="ccedilla" unicode="&#xe7;" horiz-adv-x="722" 
d="M536 -92q0 -12 -2.5 -28.5t-8 -33t-13.5 -30t-19 -19.5t-36 -11.5t-53.5 -10t-55 -8.5t-41.5 -6l-4 94q8 1 27 4.5t39.5 7.5t38 8t21.5 6q11 6 14 14t3 19q0 26 -21 41q-5 3 -22 4.5t-37.5 2t-39.5 0t-27 -0.5v90q0 13 0.5 25.5t0.5 24.5q-15 0 -30.5 -0.5t-30.5 -0.5
h-14.5t-20.5 0.5t-21 1.5t-14 2q-21 6 -41.5 13.5t-38.5 19t-31.5 27.5t-19.5 39q-4 15 -6.5 39.5t-3.5 50.5t-1.5 51t-0.5 42q0 39 1 73t11 62.5t32.5 51t64.5 39.5q19 8 57 12.5t79.5 7t79.5 3.5t59 1q70 0 139.5 -3t139.5 -8q3 -25 5 -49.5t2 -48.5q0 -46 -12 -89
q-7 -1 -41.5 -2.5t-82 -4t-102 -6t-101 -7.5t-79 -8.5t-36.5 -8.5q-16 -14 -24 -34t-8 -40q0 -12 2.5 -18.5t8.5 -14.5q3 -3 21 -5t40 -3t41 -1.5t22 -0.5q72 0 144 3t144 8l8 -172q-56 -5 -111.5 -9.5t-112.5 -7.5v-86q25 -3 45 -9t35 -17.5t24 -29.5t14 -45q0 -3 0.5 -5.5
t0.5 -5.5z" />
    <glyph glyph-name="egrave" unicode="&#xe8;" horiz-adv-x="757" 
d="M731 371q-131 -7 -261 -11.5t-261 -9.5q-1 -4 -1 -8v-8q0 -34 15.5 -52t38.5 -25.5t51 -8.5t52 -1q67 0 134 4.5t135 9.5l8 -159q-66 -3 -131.5 -5t-131.5 -2q-14 0 -51.5 0.5t-80 3t-79.5 6.5t-49 11q-31 18 -48.5 46t-27 61t-13 67.5t-4.5 66.5q-1 5 -0.5 10.5
t0.5 10.5q0 53 11.5 98.5t42.5 88.5q21 30 62 50t89 31.5t96 16t83 4.5q31 0 76 -5.5t89.5 -18.5t80.5 -33.5t49 -50.5q2 -6 4.5 -20.5t5.5 -33t5.5 -39.5t4.5 -40t3.5 -34t2.5 -21zM595 444q-6 44 -22.5 69.5t-41 38t-56 16t-67.5 3.5q-12 0 -30 -0.5t-36 -3t-34 -7.5
t-25 -14q-7 -6 -11.5 -16.5t-7.5 -22.5t-4.5 -23.5t-1.5 -19.5q0 -16 3 -31zM503 782l-36 -56q-29 16 -53.5 30t-47.5 29t-46 32.5t-48 38.5l72 99q23 -24 47 -48t46 -51q16 -20 32.5 -38t33.5 -36z" />
    <glyph glyph-name="eacute" unicode="&#xe9;" horiz-adv-x="757" 
d="M731 371q-131 -7 -261 -11.5t-261 -9.5q-1 -4 -1 -8v-8q0 -34 15.5 -52t38.5 -25.5t51 -8.5t52 -1q67 0 134 4.5t135 9.5l8 -159q-66 -3 -131.5 -5t-131.5 -2q-14 0 -51.5 0.5t-80 3t-79.5 6.5t-49 11q-31 18 -48.5 46t-27 61t-13 67.5t-4.5 66.5q-1 5 -0.5 10.5
t0.5 10.5q0 53 11.5 98.5t42.5 88.5q21 30 62 50t89 31.5t96 16t83 4.5q31 0 76 -5.5t89.5 -18.5t80.5 -33.5t49 -50.5q2 -6 4.5 -20.5t5.5 -33t5.5 -39.5t4.5 -40t3.5 -34t2.5 -21zM595 444q-6 44 -22.5 69.5t-41 38t-56 16t-67.5 3.5q-12 0 -30 -0.5t-36 -3t-34 -7.5
t-25 -14q-7 -6 -11.5 -16.5t-7.5 -22.5t-4.5 -23.5t-1.5 -19.5q0 -16 3 -31zM523 856q-25 -21 -47.5 -38.5t-45.5 -32.5t-47.5 -29t-53.5 -30l-37 56q18 18 34.5 36t32.5 38q21 27 45 51l48 48z" />
    <glyph glyph-name="ecircumflex" unicode="&#xea;" horiz-adv-x="757" 
d="M731 371q-131 -7 -261 -11.5t-261 -9.5q-1 -4 -1 -8v-8q0 -34 15.5 -52t38.5 -25.5t51 -8.5t52 -1q67 0 134 4.5t135 9.5l8 -159q-66 -3 -131.5 -5t-131.5 -2q-14 0 -51.5 0.5t-80 3t-79.5 6.5t-49 11q-31 18 -48.5 46t-27 61t-13 67.5t-4.5 66.5q-1 5 -0.5 10.5
t0.5 10.5q0 53 11.5 98.5t42.5 88.5q21 30 62 50t89 31.5t96 16t83 4.5q31 0 76 -5.5t89.5 -18.5t80.5 -33.5t49 -50.5q2 -6 4.5 -20.5t5.5 -33t5.5 -39.5t4.5 -40t3.5 -34t2.5 -21zM595 444q-6 44 -22.5 69.5t-41 38t-56 16t-67.5 3.5q-12 0 -30 -0.5t-36 -3t-34 -7.5
t-25 -14q-7 -6 -11.5 -16.5t-7.5 -22.5t-4.5 -23.5t-1.5 -19.5q0 -16 3 -31zM596 760l-94 -4l-99 111l-98 -116l-105 -3q50 55 99.5 108.5t101.5 105.5q51 -49 98.5 -99.5t96.5 -102.5z" />
    <glyph glyph-name="edieresis" unicode="&#xeb;" horiz-adv-x="757" 
d="M731 371q-131 -7 -261 -11.5t-261 -9.5q-1 -4 -1 -8v-8q0 -34 15.5 -52t38.5 -25.5t51 -8.5t52 -1q67 0 134 4.5t135 9.5l8 -159q-66 -3 -131.5 -5t-131.5 -2q-14 0 -51.5 0.5t-80 3t-79.5 6.5t-49 11q-31 18 -48.5 46t-27 61t-13 67.5t-4.5 66.5q-1 5 -0.5 10.5
t0.5 10.5q0 53 11.5 98.5t42.5 88.5q21 30 62 50t89 31.5t96 16t83 4.5q31 0 76 -5.5t89.5 -18.5t80.5 -33.5t49 -50.5q2 -6 4.5 -20.5t5.5 -33t5.5 -39.5t4.5 -40t3.5 -34t2.5 -21zM595 444q-6 44 -22.5 69.5t-41 38t-56 16t-67.5 3.5q-12 0 -30 -0.5t-36 -3t-34 -7.5
t-25 -14q-7 -6 -11.5 -16.5t-7.5 -22.5t-4.5 -23.5t-1.5 -19.5q0 -16 3 -31zM610 826q0 -19 -7.5 -35.5t-20.5 -29t-29.5 -19.5t-35.5 -7q-17 0 -33 6t-29 16.5t-21 25.5t-8 32q0 21 7.5 39.5t21 33t32 22.5t40.5 8q18 0 33.5 -8t26.5 -21t17 -29.5t6 -33.5zM369 828
q0 -38 -27.5 -64t-65.5 -26q-16 0 -32 6t-29 16.5t-21 25t-8 31.5q0 21 8 40t21.5 33.5t32 22.5t39.5 8q18 0 33 -8t26 -21t17 -30t6 -34z" />
    <glyph glyph-name="igrave" unicode="&#xec;" horiz-adv-x="324" 
d="M262 499q-5 -53 -8 -105l-6 -104q-4 -61 -13.5 -121t-21.5 -120l-153 -16q0 32 0.5 63t0.5 63q0 82 -3 164l-6 164q53 2 104.5 6t105.5 6zM226 671l-36 -56q-29 16 -53.5 30t-47.5 29t-46 32.5t-48 38.5l72 99q23 -24 47 -48t46 -51q16 -20 32.5 -38t33.5 -36z" />
    <glyph glyph-name="iacute" unicode="&#xed;" horiz-adv-x="324" 
d="M262 499q-5 -53 -8 -105l-6 -104q-4 -61 -13.5 -121t-21.5 -120l-153 -16q0 32 0.5 63t0.5 63q0 82 -3 164l-6 164q53 2 104.5 6t105.5 6zM339 755q-25 -21 -47.5 -38.5t-45.5 -32.5t-47.5 -29t-53.5 -30l-37 56q18 18 34.5 36t32.5 38q21 27 45 51l48 48z" />
    <glyph glyph-name="icircumflex" unicode="&#xee;" horiz-adv-x="324" 
d="M262 499q-5 -53 -8 -105l-6 -104q-4 -61 -13.5 -121t-21.5 -120l-153 -16q0 32 0.5 63t0.5 63q0 82 -3 164l-6 164q53 2 104.5 6t105.5 6zM361 628l-94 -4l-99 111l-98 -116l-105 -3q50 55 99.5 108.5t101.5 105.5q51 -49 98.5 -99.5t96.5 -102.5z" />
    <glyph glyph-name="idieresis" unicode="&#xef;" horiz-adv-x="324" 
d="M262 499q-5 -53 -8 -105l-6 -104q-4 -61 -13.5 -121t-21.5 -120l-153 -16q0 32 0.5 63t0.5 63q0 82 -3 164l-6 164q53 2 104.5 6t105.5 6zM375 705q0 -19 -7.5 -35.5t-20.5 -29t-29.5 -19.5t-35.5 -7q-17 0 -33 6t-29 16.5t-21 25.5t-8 32q0 21 7.5 39.5t21 33t32 22.5
t40.5 8q18 0 33.5 -8t26.5 -21t17 -29.5t6 -33.5zM134 707q0 -38 -27.5 -64t-65.5 -26q-16 0 -32 6t-29 16.5t-21 25t-8 31.5q0 21 8 40t21.5 33.5t32 22.5t39.5 8q18 0 33 -8t26 -21t17 -30t6 -34z" />
    <glyph glyph-name="eth" unicode="&#xf0;" horiz-adv-x="825" 
d="M572 255q0 12 -1 28t-3 33t-6 32t-10 26q-8 13 -31 20t-50.5 10.5t-54 4.5t-39.5 1q-7 0 -25 -0.5t-37.5 -2t-36.5 -4t-22 -5.5q-9 -5 -14 -17.5t-7.5 -27.5t-3 -29.5t-0.5 -24.5q0 -9 1.5 -32.5t4 -50t6.5 -48.5t10 -28q7 -7 26.5 -12t42 -8.5t43.5 -5t30 -1.5
q16 0 38 1t44.5 5t42.5 10.5t32 18.5q7 7 11 21t6 30t2.5 31.5t0.5 24.5zM754 622l-61 -8q22 -33 41 -76t32 -98q18 -77 18 -158q1 -9 0.5 -18t-1.5 -18q-1 -14 -5 -46t-11 -66.5t-17 -63.5t-22 -37q-6 -4 -40.5 -7.5t-84 -6.5t-107.5 -5t-110.5 -3.5t-92 -2.5t-52.5 -1
h-20.5t-30.5 0.5t-30 1.5t-20 3q-14 5 -28 16.5t-26 26t-21.5 30.5t-13.5 30q-3 10 -5 32.5t-3 47.5t-1.5 48t-0.5 35q0 19 1 52.5t6 68.5t14.5 65t27.5 42q8 5 30 9t52 7t64 4.5t66.5 2t60.5 0.5t45 -1q11 0 30.5 -0.5t42.5 -1.5q-11 14 -22.5 28t-25.5 29l-130 -16l-6 80
l60 9q-18 18 -42 34l255 47q7 -5 17 -11q15 -9 42 -35l107 14z" />
    <glyph glyph-name="ntilde" unicode="&#xf1;" horiz-adv-x="691" 
d="M635 297v-54.5t-2 -54.5l-223 -14q4 52 6.5 103t2.5 104v17t-1 25.5t-2 25.5t-2 17q-5 14 -10.5 24t-13 16t-18.5 8.5t-27 2.5q-12 0 -30.5 -2t-37.5 -6t-36 -10t-24 -14l-2 -295q-2 4 -11.5 4h-13.5q-30 0 -62 -2.5t-62 -6.5q-13 118 -23 235t-23 235q20 1 40 1.5
t40 0.5q26 0 52.5 -1.5t52.5 -2.5l7 -77q28 46 76 77t103 31q28 0 58 -3t57.5 -12t52 -25t41.5 -41q8 -12 13.5 -35.5t9.5 -53t6.5 -62.5t3.5 -63t1.5 -54.5t0.5 -37.5zM540 828q-11 -8 -32 -21.5t-43.5 -26.5t-44 -22.5t-34.5 -9.5q-15 0 -33.5 10.5t-37.5 23t-36.5 23
t-30.5 10.5q-11 0 -25 -7.5t-28 -18.5t-26 -22.5t-19 -18.5l-59 65q9 6 30 20.5t44 29.5t44 26.5t29 11.5q14 0 33 -9.5t39.5 -20.5t40 -20.5t33.5 -9.5q10 0 23.5 6t27 14t25.5 17.5t20 15.5z" />
    <glyph glyph-name="ograve" unicode="&#xf2;" horiz-adv-x="836" 
d="M784 396v-15.5t-1 -15.5q-1 -14 -5 -46t-11 -66.5t-17 -63.5t-22 -37q-6 -4 -40.5 -7t-84 -6t-107.5 -5t-110.5 -3.5t-92 -2.5t-52.5 -1h-20.5t-30.5 0.5t-30 1.5t-20 3q-14 5 -28 16.5t-26 26t-21.5 30t-13.5 29.5q-3 11 -5 33.5t-3 47t-1.5 47.5t-0.5 35q0 19 1 52.5
t6 68.5t14.5 65.5t27.5 42.5q8 5 30 9t52 7t64 4.5t66.5 2t60.5 0.5t45 -1q15 -1 43 -1.5t62.5 -1.5t71.5 -3.5t69 -6.5t56.5 -10.5t32.5 -15.5q13 -14 21 -42t12.5 -59.5t6 -62t1.5 -49.5zM572 375q0 12 -1 28t-3 32.5t-6 32t-10 25.5q-8 13 -31 20t-50.5 10.5t-54 4.5
t-39.5 1q-7 0 -25 -0.5t-37.5 -1.5t-36.5 -3.5t-22 -5.5q-9 -6 -14 -18.5t-7.5 -27.5t-3 -29.5t-0.5 -23.5t1.5 -32.5t4 -50t6.5 -48.5t10 -28q7 -8 26.5 -13t42 -8.5t43.5 -5t30 -1.5q16 0 38 1t44.5 5t42.5 11t32 19q7 7 11 21t6 30t2.5 31.5t0.5 24.5zM503 782l-36 -56
q-29 16 -53.5 30t-47.5 29t-46 32.5t-48 38.5l72 99q23 -24 47 -48t46 -51q16 -20 32.5 -38t33.5 -36z" />
    <glyph glyph-name="oacute" unicode="&#xf3;" horiz-adv-x="836" 
d="M784 396v-15.5t-1 -15.5q-1 -14 -5 -46t-11 -66.5t-17 -63.5t-22 -37q-6 -4 -40.5 -7t-84 -6t-107.5 -5t-110.5 -3.5t-92 -2.5t-52.5 -1h-20.5t-30.5 0.5t-30 1.5t-20 3q-14 5 -28 16.5t-26 26t-21.5 30t-13.5 29.5q-3 11 -5 33.5t-3 47t-1.5 47.5t-0.5 35q0 19 1 52.5
t6 68.5t14.5 65.5t27.5 42.5q8 5 30 9t52 7t64 4.5t66.5 2t60.5 0.5t45 -1q15 -1 43 -1.5t62.5 -1.5t71.5 -3.5t69 -6.5t56.5 -10.5t32.5 -15.5q13 -14 21 -42t12.5 -59.5t6 -62t1.5 -49.5zM572 375q0 12 -1 28t-3 32.5t-6 32t-10 25.5q-8 13 -31 20t-50.5 10.5t-54 4.5
t-39.5 1q-7 0 -25 -0.5t-37.5 -1.5t-36.5 -3.5t-22 -5.5q-9 -6 -14 -18.5t-7.5 -27.5t-3 -29.5t-0.5 -23.5t1.5 -32.5t4 -50t6.5 -48.5t10 -28q7 -8 26.5 -13t42 -8.5t43.5 -5t30 -1.5q16 0 38 1t44.5 5t42.5 11t32 19q7 7 11 21t6 30t2.5 31.5t0.5 24.5zM564 856
q-25 -21 -47.5 -38.5t-45.5 -32.5t-47.5 -29t-53.5 -30l-37 56q18 18 34.5 36t32.5 38q21 27 45 51l48 48z" />
    <glyph glyph-name="ocircumflex" unicode="&#xf4;" horiz-adv-x="836" 
d="M784 396v-15.5t-1 -15.5q-1 -14 -5 -46t-11 -66.5t-17 -63.5t-22 -37q-6 -4 -40.5 -7t-84 -6t-107.5 -5t-110.5 -3.5t-92 -2.5t-52.5 -1h-20.5t-30.5 0.5t-30 1.5t-20 3q-14 5 -28 16.5t-26 26t-21.5 30t-13.5 29.5q-3 11 -5 33.5t-3 47t-1.5 47.5t-0.5 35q0 19 1 52.5
t6 68.5t14.5 65.5t27.5 42.5q8 5 30 9t52 7t64 4.5t66.5 2t60.5 0.5t45 -1q15 -1 43 -1.5t62.5 -1.5t71.5 -3.5t69 -6.5t56.5 -10.5t32.5 -15.5q13 -14 21 -42t12.5 -59.5t6 -62t1.5 -49.5zM572 375q0 12 -1 28t-3 32.5t-6 32t-10 25.5q-8 13 -31 20t-50.5 10.5t-54 4.5
t-39.5 1q-7 0 -25 -0.5t-37.5 -1.5t-36.5 -3.5t-22 -5.5q-9 -6 -14 -18.5t-7.5 -27.5t-3 -29.5t-0.5 -23.5t1.5 -32.5t4 -50t6.5 -48.5t10 -28q7 -8 26.5 -13t42 -8.5t43.5 -5t30 -1.5q16 0 38 1t44.5 5t42.5 11t32 19q7 7 11 21t6 30t2.5 31.5t0.5 24.5zM627 760l-94 -4
l-99 111l-98 -116l-105 -3q50 55 99.5 108.5t101.5 105.5q51 -49 98.5 -99.5t96.5 -102.5z" />
    <glyph glyph-name="otilde" unicode="&#xf5;" horiz-adv-x="836" 
d="M784 396v-15.5t-1 -15.5q-1 -14 -5 -46t-11 -66.5t-17 -63.5t-22 -37q-6 -4 -40.5 -7t-84 -6t-107.5 -5t-110.5 -3.5t-92 -2.5t-52.5 -1h-20.5t-30.5 0.5t-30 1.5t-20 3q-14 5 -28 16.5t-26 26t-21.5 30t-13.5 29.5q-3 11 -5 33.5t-3 47t-1.5 47.5t-0.5 35q0 19 1 52.5
t6 68.5t14.5 65.5t27.5 42.5q8 5 30 9t52 7t64 4.5t66.5 2t60.5 0.5t45 -1q15 -1 43 -1.5t62.5 -1.5t71.5 -3.5t69 -6.5t56.5 -10.5t32.5 -15.5q13 -14 21 -42t12.5 -59.5t6 -62t1.5 -49.5zM572 375q0 12 -1 28t-3 32.5t-6 32t-10 25.5q-8 13 -31 20t-50.5 10.5t-54 4.5
t-39.5 1q-7 0 -25 -0.5t-37.5 -1.5t-36.5 -3.5t-22 -5.5q-9 -6 -14 -18.5t-7.5 -27.5t-3 -29.5t-0.5 -23.5t1.5 -32.5t4 -50t6.5 -48.5t10 -28q7 -8 26.5 -13t42 -8.5t43.5 -5t30 -1.5q16 0 38 1t44.5 5t42.5 11t32 19q7 7 11 21t6 30t2.5 31.5t0.5 24.5zM663 797
q-11 -8 -32 -21.5t-43.5 -26.5t-44 -22.5t-34.5 -9.5q-15 0 -33.5 10.5t-37.5 23t-36.5 23t-30.5 10.5q-11 0 -25 -7.5t-28 -18.5t-26 -22.5t-19 -18.5l-59 65q9 6 30 20.5t44 29.5t44 26.5t29 11.5q14 0 33 -9.5t39.5 -20.5t40 -20.5t33.5 -9.5q10 0 23.5 6t27 14
t25.5 17.5t20 15.5z" />
    <glyph glyph-name="odieresis" unicode="&#xf6;" horiz-adv-x="836" 
d="M784 396v-15.5t-1 -15.5q-1 -14 -5 -46t-11 -66.5t-17 -63.5t-22 -37q-6 -4 -40.5 -7t-84 -6t-107.5 -5t-110.5 -3.5t-92 -2.5t-52.5 -1h-20.5t-30.5 0.5t-30 1.5t-20 3q-14 5 -28 16.5t-26 26t-21.5 30t-13.5 29.5q-3 11 -5 33.5t-3 47t-1.5 47.5t-0.5 35q0 19 1 52.5
t6 68.5t14.5 65.5t27.5 42.5q8 5 30 9t52 7t64 4.5t66.5 2t60.5 0.5t45 -1q15 -1 43 -1.5t62.5 -1.5t71.5 -3.5t69 -6.5t56.5 -10.5t32.5 -15.5q13 -14 21 -42t12.5 -59.5t6 -62t1.5 -49.5zM572 375q0 12 -1 28t-3 32.5t-6 32t-10 25.5q-8 13 -31 20t-50.5 10.5t-54 4.5
t-39.5 1q-7 0 -25 -0.5t-37.5 -1.5t-36.5 -3.5t-22 -5.5q-9 -6 -14 -18.5t-7.5 -27.5t-3 -29.5t-0.5 -23.5t1.5 -32.5t4 -50t6.5 -48.5t10 -28q7 -8 26.5 -13t42 -8.5t43.5 -5t30 -1.5q16 0 38 1t44.5 5t42.5 11t32 19q7 7 11 21t6 30t2.5 31.5t0.5 24.5zM631 826
q0 -19 -7.5 -35.5t-20.5 -29t-29.5 -19.5t-35.5 -7q-17 0 -33 6t-29 16.5t-21 25.5t-8 32q0 21 7.5 39.5t21 33t32 22.5t40.5 8q18 0 33.5 -8t26.5 -21t17 -29.5t6 -33.5zM390 828q0 -38 -27.5 -64t-65.5 -26q-16 0 -32 6t-29 16.5t-21 25t-8 31.5q0 21 8 40t21.5 33.5
t32 22.5t39.5 8q18 0 33 -8t26 -21t17 -30t6 -34z" />
    <glyph glyph-name="divide" unicode="&#xf7;" horiz-adv-x="452" 
d="M310 535q0 -14 -7.5 -28t-19.5 -25t-26.5 -17.5t-27.5 -6.5t-25 6.5t-21.5 17t-15 23.5t-5.5 26q0 15 8 28.5t21 24t28 17t29 6.5q13 0 24 -7t19.5 -17.5t13.5 -23.5t5 -24zM421 341q-97 -2 -192 -5.5t-192 -11.5l-6 88q19 -1 38.5 -1h39.5q76 0 151 5.5t152 10.5z
M307 215q0 -14 -7.5 -28t-19 -25t-26 -17.5t-28.5 -6.5t-26 6.5t-21 17t-14.5 23.5t-5.5 26q0 15 8 29t21 24.5t28.5 17t29.5 6.5q13 0 24 -7t19 -18t13 -23.5t5 -24.5z" />
    <glyph glyph-name="oslash" unicode="&#xf8;" horiz-adv-x="830" 
d="M784 276v-15t-1 -15q-1 -14 -5 -46t-11 -66.5t-17 -63.5t-22 -37q-6 -4 -40.5 -7.5t-84 -6.5t-107.5 -5t-110.5 -3.5t-92 -2.5t-52.5 -1h-3l-70 -67l-127 23l69 69q-20 17 -36 40t-23 43q-3 10 -5 32.5t-3 47.5t-1.5 48t-0.5 35q0 19 1 52.5t6 68.5t14.5 65t27.5 42
q8 5 30 9t52 7t64 4.5t66.5 2t60.5 0.5t45 -1q12 0 32 -0.5t45 -1.5t53.5 -2t57.5 -3l68 68l120 -49l-47 -45l3 -3l3 -3q13 -14 21 -42t12.5 -59.5t6 -62t1.5 -49.5zM572 255q0 14 -1 33.5t-5 39.5l-217 -212q15 -2 27.5 -2.5t18.5 -0.5q16 0 38 1t44.5 5t42.5 10.5t32 18.5
q7 7 11 21t6 30t2.5 31.5t0.5 24.5zM479 403q-30 5 -59 6t-43 1q-7 0 -25 -0.5t-37.5 -2t-36.5 -4t-22 -5.5q-9 -5 -14 -17.5t-7.5 -27.5t-3 -29.5t-0.5 -24.5q0 -6 1 -22t2.5 -35t4 -39.5t5.5 -35.5z" />
    <glyph glyph-name="ugrave" unicode="&#xf9;" horiz-adv-x="783" 
d="M726 51l-169 -7l-12 101q-19 -26 -45.5 -44t-57 -29t-63 -15.5t-63.5 -4.5q-24 0 -59.5 4t-72 11.5t-67.5 19.5t-45 28q-11 12 -16.5 38.5t-7.5 56.5t-2 58v45q0 75 6 148t17 145q28 3 60 3q26 0 52 -3.5t52 -8.5q0 -5 1 -29t2.5 -57t3.5 -70.5t4.5 -69.5t6 -54.5
t7.5 -24.5q15 -9 33 -10t35 -1q12 0 37.5 1.5t52.5 5t50 9t31 13.5q3 3 4.5 19t2 35t1 35.5t0.5 19.5q0 45 -2 89t-4 89l194 9q6 -70 11 -139.5t13 -139.5q3 -23 3.5 -47t1.5 -48q2 -45 2.5 -90t1.5 -91zM441 700l-36 -56q-29 16 -53.5 30t-47.5 29t-46 32.5t-48 38.5l72 99
q23 -24 47 -48t46 -51q16 -20 32.5 -38t33.5 -36z" />
    <glyph glyph-name="uacute" unicode="&#xfa;" horiz-adv-x="783" 
d="M726 51l-169 -7l-12 101q-19 -26 -45.5 -44t-57 -29t-63 -15.5t-63.5 -4.5q-24 0 -59.5 4t-72 11.5t-67.5 19.5t-45 28q-11 12 -16.5 38.5t-7.5 56.5t-2 58v45q0 75 6 148t17 145q28 3 60 3q26 0 52 -3.5t52 -8.5q0 -5 1 -29t2.5 -57t3.5 -70.5t4.5 -69.5t6 -54.5
t7.5 -24.5q15 -9 33 -10t35 -1q12 0 37.5 1.5t52.5 5t50 9t31 13.5q3 3 4.5 19t2 35t1 35.5t0.5 19.5q0 45 -2 89t-4 89l194 9q6 -70 11 -139.5t13 -139.5q3 -23 3.5 -47t1.5 -48q2 -45 2.5 -90t1.5 -91zM554 774q-25 -21 -47.5 -38.5t-45.5 -32.5t-47.5 -29t-53.5 -30
l-37 56q18 18 34.5 36t32.5 38q21 27 45 51l48 48z" />
    <glyph glyph-name="ucircumflex" unicode="&#xfb;" horiz-adv-x="783" 
d="M726 51l-169 -7l-12 101q-19 -26 -45.5 -44t-57 -29t-63 -15.5t-63.5 -4.5q-24 0 -59.5 4t-72 11.5t-67.5 19.5t-45 28q-11 12 -16.5 38.5t-7.5 56.5t-2 58v45q0 75 6 148t17 145q28 3 60 3q26 0 52 -3.5t52 -8.5q0 -5 1 -29t2.5 -57t3.5 -70.5t4.5 -69.5t6 -54.5
t7.5 -24.5q15 -9 33 -10t35 -1q12 0 37.5 1.5t52.5 5t50 9t31 13.5q3 3 4.5 19t2 35t1 35.5t0.5 19.5q0 45 -2 89t-4 89l194 9q6 -70 11 -139.5t13 -139.5q3 -23 3.5 -47t1.5 -48q2 -45 2.5 -90t1.5 -91zM565 739l-94 -4l-99 111l-98 -116l-105 -3q50 55 99.5 108.5
t101.5 105.5q51 -49 98.5 -99.5t96.5 -102.5z" />
    <glyph glyph-name="udieresis" unicode="&#xfc;" horiz-adv-x="783" 
d="M726 51l-169 -7l-12 101q-19 -26 -45.5 -44t-57 -29t-63 -15.5t-63.5 -4.5q-24 0 -59.5 4t-72 11.5t-67.5 19.5t-45 28q-11 12 -16.5 38.5t-7.5 56.5t-2 58v45q0 75 6 148t17 145q28 3 60 3q26 0 52 -3.5t52 -8.5q0 -5 1 -29t2.5 -57t3.5 -70.5t4.5 -69.5t6 -54.5
t7.5 -24.5q15 -9 33 -10t35 -1q12 0 37.5 1.5t52.5 5t50 9t31 13.5q3 3 4.5 19t2 35t1 35.5t0.5 19.5q0 45 -2 89t-4 89l194 9q6 -70 11 -139.5t13 -139.5q3 -23 3.5 -47t1.5 -48q2 -45 2.5 -90t1.5 -91zM590 796q0 -19 -7.5 -35.5t-20.5 -29t-29.5 -19.5t-35.5 -7
q-17 0 -33 6t-29 16.5t-21 25.5t-8 32q0 21 7.5 39.5t21 33t32 22.5t40.5 8q18 0 33.5 -8t26.5 -21t17 -29.5t6 -33.5zM349 798q0 -38 -27.5 -64t-65.5 -26q-16 0 -32 6t-29 16.5t-21 25t-8 31.5q0 21 8 40t21.5 33.5t32 22.5t39.5 8q18 0 33 -8t26 -21t17 -30t6 -34z" />
    <glyph glyph-name="yacute" unicode="&#xfd;" horiz-adv-x="798" 
d="M736 197v-32t-1 -47.5t-2.5 -55t-3.5 -54t-5.5 -45t-7.5 -27.5q-17 -27 -31.5 -41.5t-31.5 -20.5t-38.5 -6.5t-50.5 -0.5q-96 0 -191 7.5t-190 17.5v137q9 0 39.5 0.5t71.5 1.5t87 3t86 5t69 7t36 10q9 7 14.5 21.5t8 30.5t3.5 32t1 26v19t-1 20q-15 -34 -40 -51t-56 -24
t-65 -7.5t-65 -0.5q-65 0 -125.5 5.5t-107 28.5t-75 69.5t-28.5 128.5q0 81 11 161.5t28 159.5l211 -2q-17 -63 -30 -128t-13 -131q0 -35 5 -57t18 -35.5t36 -18.5t58 -5q14 0 34.5 2t42 5.5t41 9.5t30.5 15q4 3 7 20t5 40.5t3 50.5t1.5 51t0.5 41.5v22.5v67.5t-2 67.5
q49 -5 96.5 -8.5t96.5 -5.5q4 -97 8.5 -192t9.5 -192q2 -24 2 -48.5v-47.5zM575 877q-25 -21 -47.5 -38.5t-45.5 -32.5t-47.5 -29t-53.5 -30l-37 56q18 18 34.5 36t32.5 38q21 27 45 51l48 48z" />
    <glyph glyph-name="thorn" unicode="&#xfe;" horiz-adv-x="805" 
d="M759 261q0 -14 -0.5 -30.5t-3 -33.5t-7 -32.5t-12.5 -27.5q-17 -25 -32 -42.5t-32.5 -29t-39.5 -18.5t-52 -11q-45 -7 -89 -12.5t-89 -5.5q-20 0 -41 2.5t-39 12.5q-10 5 -21.5 13.5t-22.5 18t-21.5 19t-18.5 16.5l-6 -251q-28 -2 -56 -1.5t-57 0.5q-17 0 -32.5 -0.5
t-32.5 -1.5q4 86 7.5 171.5t3.5 170.5v13q0 137 -5.5 272t-8.5 272q50 4 99 7t99 7l7 -219q69 7 138.5 12.5t139.5 5.5q9 0 19.5 0.5t19.5 -1.5q24 -5 49 -12.5t47 -19.5t39 -30t26 -44q6 -20 11 -44.5t8 -50t4.5 -50t1.5 -45.5zM562 280q0 11 -2 25t-10 24q-20 23 -50 35
t-59 12q-24 0 -52 -4.5t-56 -12t-55 -16.5t-49 -18l9 -135q37 -11 79.5 -20t80.5 -9h31t43.5 1t42 4.5t25.5 10.5q5 6 9 19.5t7 29t4.5 30.5t1.5 24z" />
    <glyph glyph-name="ydieresis" unicode="&#xff;" horiz-adv-x="798" 
d="M736 197v-32t-1 -47.5t-2.5 -55t-3.5 -54t-5.5 -45t-7.5 -27.5q-17 -27 -31.5 -41.5t-31.5 -20.5t-38.5 -6.5t-50.5 -0.5q-96 0 -191 7.5t-190 17.5v137q9 0 39.5 0.5t71.5 1.5t87 3t86 5t69 7t36 10q9 7 14.5 21.5t8 30.5t3.5 32t1 26v19t-1 20q-15 -34 -40 -51t-56 -24
t-65 -7.5t-65 -0.5q-65 0 -125.5 5.5t-107 28.5t-75 69.5t-28.5 128.5q0 81 11 161.5t28 159.5l211 -2q-17 -63 -30 -128t-13 -131q0 -35 5 -57t18 -35.5t36 -18.5t58 -5q14 0 34.5 2t42 5.5t41 9.5t30.5 15q4 3 7 20t5 40.5t3 50.5t1.5 51t0.5 41.5v22.5v67.5t-2 67.5
q49 -5 96.5 -8.5t96.5 -5.5q4 -97 8.5 -192t9.5 -192q2 -24 2 -48.5v-47.5zM610 857q0 -19 -7.5 -35.5t-20.5 -29t-29.5 -19.5t-35.5 -7q-17 0 -33 6t-29 16.5t-21 25.5t-8 32q0 21 7.5 39.5t21 33t32 22.5t40.5 8q18 0 33.5 -8t26.5 -21t17 -29.5t6 -33.5zM369 859
q0 -38 -27.5 -64t-65.5 -26q-16 0 -32 6t-29 16.5t-21 25t-8 31.5q0 21 8 40t21.5 33.5t32 22.5t39.5 8q18 0 33 -8t26 -21t17 -30t6 -34z" />
    <glyph glyph-name="dotlessi" unicode="&#x131;" horiz-adv-x="324" 
d="M262 499q-5 -53 -8 -105l-6 -104q-4 -61 -13.5 -121t-21.5 -120l-153 -16q0 32 0.5 63t0.5 63q0 82 -3 164l-6 164q53 2 104.5 6t105.5 6z" />
    <glyph glyph-name="Lslash" unicode="&#x141;" horiz-adv-x="586" 
d="M401 417l-104 -38q-2 -41 -3 -81.5t-3 -81.5q66 -2 130.5 -2t129.5 -2l14 -187q-118 -9 -235.5 -17t-236.5 -15q-2 78 -3.5 155t-3.5 154l-46 -16l-25 76q17 8 34.5 14.5t35.5 13.5q-2 91 -4.5 181.5t-5.5 181.5q66 1 131 4t131 8q-10 -73 -20 -146.5t-15 -147.5l64 23z
" />
    <glyph glyph-name="lslash" unicode="&#x142;" horiz-adv-x="355" 
d="M386 427l-122 -44q-5 -88 -10 -174.5t-10 -174.5l-153 -8q0 74 0.5 147t-0.5 146l-66 -23l-25 77q23 9 44.5 17.5t44.5 17.5q-2 85 -8 170t-11 170l223 21q-6 -73 -12.5 -146.5t-11.5 -147.5l81 29z" />
    <glyph glyph-name="OE" unicode="&#x152;" horiz-adv-x="1286" 
d="M1245 586q-99 -5 -195 -11.5t-194 -14.5l-3 -79l259 17q5 -34 7 -67t2 -67v-30.5t-1 -29.5l-239 -42l14 -125q77 6 152.5 16t151.5 15q7 -50 14.5 -100t19.5 -99q-42 1 -83 1h-83q-100 0 -198.5 -1t-198.5 -1l2 86q-5 -6 -16.5 -19t-24.5 -26t-26 -24t-21 -12
q-30 -5 -64.5 -8t-70 -4.5t-70.5 -2.5t-65 -1h-20t-25 1t-24.5 2.5t-18.5 3.5q-31 11 -55 39t-42 65t-31 80.5t-21.5 86t-12 82t-3.5 68.5q0 36 11.5 81.5t30.5 91t43.5 85.5t50.5 66q14 14 43 22t61.5 12.5t63.5 5.5t50 1q15 0 45 -1t62 -4t60.5 -9t40.5 -15q7 -6 14.5 -15
t15 -19.5t14 -21t10.5 -18.5l-2 79q79 -1 158 -0.5t159 0.5q60 0 120.5 -2t120.5 -5zM634 332q0 12 -1.5 41t-4.5 60.5t-8.5 58t-13.5 35.5q-7 8 -29.5 12t-48.5 6t-50.5 2.5t-34.5 0.5q-8 0 -30 -0.5t-46.5 -1.5t-45.5 -3t-27 -5q-8 -5 -12.5 -22t-6.5 -37t-2.5 -39
t-0.5 -27q0 -9 1 -32t3 -53.5t5.5 -63.5t8.5 -61t12 -47.5t17 -21.5q14 -4 30 -3.5t30 0.5q15 0 50 1.5t72.5 6t68.5 12.5t39 22q8 13 13 34t7.5 43.5t3.5 44.5t1 37z" />
    <glyph glyph-name="oe" unicode="&#x153;" horiz-adv-x="1359" 
d="M1333 377q0 -22 -1 -44t-3 -43q-52 -2 -104.5 -3.5t-106.5 -3.5q-75 -4 -150 -10t-150 -11q1 -36 26.5 -63.5t58.5 -38.5q16 -5 41 -6t40 -1q66 0 131.5 8.5t130.5 21.5l17 -174q-61 -5 -122 -8.5t-122 -3.5q-14 0 -40 0.5t-54.5 2.5t-54.5 5.5t-39 8.5q-21 9 -37.5 18.5
t-29 21t-22.5 27t-17 37.5q-13 -26 -26 -49q-11 -20 -24 -38t-24 -25q-9 -6 -34 -10t-58 -7.5t-70 -6t-71 -4t-61.5 -2.5t-40.5 -1q-16 0 -38.5 0.5t-45.5 2t-45 4.5t-36 9q-28 10 -46 21.5t-29.5 27.5t-18 38t-10.5 52q-4 24 -5 49t-1 49t2.5 69.5t10.5 93.5t23 87t41 50
q14 6 44 11t67.5 8.5t79 6.5t80 4.5t70 2.5t49.5 1q27 0 54 -1t53 -3q13 -2 24 -11q16 -12 27.5 -31t19 -40.5t12 -43.5t7.5 -41q10 45 33 84t58 69q5 5 12 10t14 8q20 10 60.5 16.5t85.5 10.5t87 5.5t65 1.5h44t54.5 -3t50.5 -11.5t33 -25.5q10 -18 16 -40.5t9.5 -47
t4.5 -48.5t1 -43zM1193 392q0 21 -20 31.5t-47 15t-53.5 5t-39.5 0.5h-27t-35.5 -1.5t-35 -4t-25.5 -7.5q-14 -8 -24 -29t-13 -36l317 12q3 6 3 14zM539 179q0 58 -7.5 116.5t-16.5 115.5q-11 6 -28 9.5t-36.5 5.5t-37.5 2.5t-30 0.5q-9 0 -26.5 -0.5t-36 -2t-34.5 -5.5
t-23 -10q-6 -6 -10 -28.5t-5.5 -49t-2 -50t-0.5 -32.5q0 -8 0.5 -34t2.5 -54.5t5 -53t9 -28.5q4 -3 13.5 -5t21 -3t21.5 -1h16q15 0 42.5 1.5t56.5 4.5t55 8t38 13q4 3 7 14t4 24.5t1.5 25.5t0.5 16z" />
    <glyph glyph-name="Scaron" unicode="&#x160;" horiz-adv-x="855" 
d="M824 176q0 -48 -23 -77.5t-65 -47.5q-35 -15 -88 -23.5t-110 -12t-112 -4.5t-92 -1q-63 0 -124.5 2t-124.5 6q3 102 -6 202q75 -2 149.5 -3.5t149.5 -3.5q29 -1 58.5 -2t59.5 -1h15t21 1t20.5 3t14.5 6q4 4 5 11.5t1 13.5q0 11 -3 26.5t-9 25.5q-1 1 -6.5 2t-12.5 1.5
t-13 1t-7 0.5q-64 5 -127.5 7t-127.5 7q-29 3 -59.5 6t-56.5 11q-25 7 -42.5 31.5t-28 56t-15 63.5t-4.5 54q0 36 7 68.5t22.5 60.5t39.5 49.5t59 35.5q60 23 128.5 32t131.5 9q74 0 146 -9t144 -23q-1 -29 -1.5 -57.5t-0.5 -57.5t3 -58.5t6 -58.5q-95 -2 -189.5 -3.5
t-190.5 -5.5q-12 0 -32.5 -1t-39.5 -2.5t-33 -2.5l-14 -1q-5 -11 -6 -22.5t-1 -23.5q0 -6 0.5 -15t4.5 -14q1 -1 17 -3t35.5 -4t37 -4t21.5 -2q33 -3 77.5 -7t91 -9t89.5 -12.5t75 -17.5q29 -10 53.5 -31.5t42.5 -50t28.5 -60t10.5 -61.5zM627 1062q-49 -51 -96.5 -102
t-98.5 -100q-52 53 -101.5 106.5t-99.5 107.5l105 -2l98 -116l99 111z" />
    <glyph glyph-name="scaron" unicode="&#x161;" horiz-adv-x="652" 
d="M606 694l-6 -130q-31 2 -62 3t-62 1q-13 0 -37 -0.5t-53.5 -1.5t-60.5 -3t-57 -4t-44 -5t-22 -6q-13 -13 -13 -30q0 -11 6 -18q2 -3 22 -5t49 -3.5t63.5 -2t66 -1t56 -1.5t34.5 -2q38 -5 60.5 -22t34.5 -42.5t15.5 -57.5t3.5 -65q0 -16 -2.5 -38t-7.5 -44t-14.5 -41
t-22.5 -30q-15 -12 -48.5 -20t-72 -13t-74.5 -7t-55 -2q-66 0 -132 7.5t-131 16.5v191q63 -13 126.5 -15t127.5 -7q13 -1 39.5 -1.5t53.5 1t49 6.5t27 14q2 3 2 7v7q0 8 -1.5 20.5t-6.5 19.5q-1 1 -7 1.5t-7 0.5q-56 3 -112 3.5t-113 5.5q-23 2 -46.5 4.5t-46.5 7.5
q-19 4 -34.5 9t-27 13t-19.5 20.5t-11 33.5q-2 7 -2 13.5v14.5q0 18 2 41t7.5 46t14 43.5t22.5 33.5q9 9 32 15t53 10.5t64 7.5t65.5 4.5t57 2t38.5 0.5q56 0 110.5 -2t108.5 -5zM514 970q-49 -51 -96.5 -102t-98.5 -100q-52 53 -101.5 106.5t-99.5 107.5l105 -2l98 -116
l99 111z" />
    <glyph glyph-name="Ydieresis" unicode="&#x178;" horiz-adv-x="824" 
d="M758 249q0 -36 -11 -75.5t-32 -74t-51.5 -60t-68.5 -33.5q-15 -3 -35.5 -5t-42.5 -3t-43.5 -2t-36.5 -1q-86 -4 -172 -4.5t-173 -0.5q-4 41 -7.5 81t-9.5 82q69 3 137.5 6.5t137.5 8.5q15 1 33.5 1t38 1t38 2.5t32.5 4.5q6 1 14.5 3.5t15.5 7t12 10.5t5 15
q0 21 -4.5 46.5t-6.5 45.5q-75 -7 -150.5 -13.5t-151.5 -6.5q-52 0 -83 29.5t-45 77.5q-3 11 -5.5 26.5t-4 32t-2.5 32.5t-2 27q-5 66 -7.5 130t-4.5 130q48 -5 96.5 -9t96.5 -7q0 -47 2.5 -99.5t12.5 -97.5q5 -24 19 -41.5t33.5 -29t42 -17t45.5 -5.5q27 0 54 5.5t52 13.5
q-4 75 -6.5 148t-9.5 147q30 1 60 2.5t60 1.5q47 0 95 -9q0 -43 1.5 -86t3.5 -86q2 -20 3.5 -40.5t2.5 -40.5q4 -68 13 -135.5t9 -135.5zM610 949q0 -19 -7.5 -35.5t-20.5 -29t-29.5 -19.5t-35.5 -7q-17 0 -33 6t-29 16.5t-21 25.5t-8 32q0 21 7.5 39.5t21 33t32 22.5
t40.5 8q18 0 33.5 -8t26.5 -21t17 -29.5t6 -33.5zM369 951q0 -38 -27.5 -64t-65.5 -26q-16 0 -32 6t-29 16.5t-21 25t-8 31.5q0 21 8 40t21.5 33.5t32 22.5t39.5 8q18 0 33 -8t26 -21t17 -30t6 -34z" />
    <glyph glyph-name="Zcaron" unicode="&#x17d;" horiz-adv-x="782" 
d="M731 497q-49 -42 -99.5 -81t-104.5 -74l-242 -161q106 4 211.5 9t212.5 5l-3 -165q-141 -17 -282 -24q-88 -5 -174.5 -11t-172.5 -13q-6 48 -9 95.5t-14 95.5q112 106 224 209t230 204q-55 -1 -108.5 -0.5t-107.5 0.5q-60 0 -119 -2.5t-119 -5.5l-8 155h346
q79 0 157 -1.5t157 -3.5q11 -58 15 -115.5t10 -115.5zM596 1021q-49 -51 -96.5 -102t-98.5 -100q-52 53 -101.5 106.5t-99.5 107.5l105 -2l98 -116l99 111z" />
    <glyph glyph-name="zcaron" unicode="&#x17e;" horiz-adv-x="617" 
d="M592 126q-139 0 -276 -1t-275 -4l-7 155q50 31 99.5 62t98.5 63q35 23 68 47.5t65 50.5l-373 34l-2 131q97 5 193.5 8t193.5 3q48 0 94.5 -0.5t94.5 -2.5q-2 -30 -3.5 -60t-1.5 -60t1.5 -60.5t3.5 -60.5l-317 -173q24 -1 47.5 -1h47.5q62 0 123 1.5t123 -0.5zM494 960
q-49 -51 -96.5 -102t-98.5 -100q-52 53 -101.5 106.5t-99.5 107.5l105 -2l98 -116l99 111z" />
    <glyph glyph-name="circumflex" unicode="&#x2c6;" 
d="M677 647l-94 -4l-99 111l-98 -116l-105 -3q50 55 99.5 108.5t101.5 105.5q51 -49 98.5 -99.5t96.5 -102.5z" />
    <glyph glyph-name="caron" unicode="&#x2c7;" 
d="M677 837q-49 -51 -96.5 -102t-98.5 -100q-52 53 -101.5 106.5t-99.5 107.5l105 -2l98 -116l99 111z" />
    <glyph glyph-name="breve" unicode="&#x2d8;" 
d="M686 807q-22 -61 -67 -99t-105 -55q-16 -5 -31.5 -7.5t-31.5 -2.5q-36 0 -68.5 10.5t-57 30.5t-39 49.5t-14.5 68.5l124 -3q-3 -9 -3 -20q0 -16 7.5 -27t19 -17.5t25.5 -9t28 -2.5q18 0 36 5.5t32 16.5t21.5 27t4.5 37z" />
    <glyph glyph-name="dotaccent" unicode="&#x2d9;" 
d="M570 726q0 -38 -27.5 -64t-65.5 -26q-16 0 -32 6t-29 16.5t-21 25t-8 31.5q0 21 8 40t21.5 33t32 22.5t39.5 8.5q18 0 33.5 -8t26 -21t16.5 -30t6 -34z" />
    <glyph glyph-name="ring" unicode="&#x2da;" 
d="M625 722q0 -29 -13 -50.5t-34 -36.5t-47 -22.5t-51 -7.5q-20 0 -45.5 6.5t-48 19t-38.5 31t-16 41.5q0 6 1 8q5 27 20 48.5t36.5 36t47 22.5t52.5 8q23 0 47 -6.5t44 -19t32.5 -32t12.5 -46.5zM557 709q0 21 -2.5 34t-10 19.5t-20 9t-33.5 2.5q-5 0 -13 -0.5t-16.5 -1
t-16 -2t-11.5 -4.5q-5 -3 -8 -11t-4.5 -17.5t-2.5 -18.5t-1 -14q0 -30 9.5 -37.5t38.5 -7.5q6 0 18 1t24.5 2.5t23.5 4t15 5.5q7 5 8.5 16.5t1.5 19.5z" />
    <glyph glyph-name="ogonek" unicode="&#x2db;" 
d="M755 -141q-23 -18 -50 -31q-23 -12 -53.5 -21.5t-63.5 -9.5q-88 0 -136 41t-48 105q0 31 18 69h112q-25 -28 -25 -55q0 -32 23 -54t59 -22q20 0 41 5.5t39 13.5q21 9 42 20z" />
    <glyph glyph-name="tilde" unicode="&#x2dc;" 
d="M703 746q-11 -8 -32 -21.5t-43.5 -26.5t-44 -22.5t-34.5 -9.5q-15 0 -33.5 10.5t-37.5 23t-36.5 23t-30.5 10.5q-11 0 -25 -7.5t-28 -18.5t-26 -22.5t-19 -18.5l-59 65q9 6 30 20.5t44 29.5t44 26.5t29 11.5q14 0 33 -9.5t39.5 -20.5t40 -20.5t33.5 -9.5q10 0 23.5 6
t27 14t25.5 17.5t20 15.5z" />
    <glyph glyph-name="hungarumlaut" unicode="&#x2dd;" 
d="M497 764q-25 -21 -47.5 -38.5t-45.5 -32.5t-47.5 -29t-53.5 -30l-37 56l34 36t32 38q22 27 46 51t47 48zM692 764q-26 -21 -48.5 -38.5t-45.5 -32.5t-47.5 -29t-53.5 -30l-37 56q18 18 34.5 36t32.5 38q21 27 45 51l48 48z" />
    <glyph glyph-name="endash" unicode="&#x2013;" horiz-adv-x="344" 
d="M313 318h-282l4 81q91 3 186 3h84z" />
    <glyph glyph-name="emdash" unicode="&#x2014;" horiz-adv-x="641" 
d="M610 318h-579l4 81q91 3 186 3h381z" />
    <glyph glyph-name="quoteleft" unicode="&#x2018;" horiz-adv-x="278" 
d="M257 554q0 -20 -10 -40.5t-23 -36.5h-158q-25 70 -25 139q0 37 17 71.5t34 65.5l109 2q-10 -12 -20.5 -25t-19.5 -26.5t-14.5 -28t-5.5 -31.5q0 -8 1 -12l95 -1q3 -7 6.5 -17t6.5 -21t5 -21.5t2 -17.5z" />
    <glyph glyph-name="quoteright" unicode="&#x2019;" horiz-adv-x="297" 
d="M256 612q0 -38 -17 -72.5t-35 -66.5h-110q10 12 21 24.5t20 26t14.5 28.5t5.5 32v11l-95 2q-6 14 -12.5 37.5t-6.5 39.5q0 20 10 40.5t24 36.5l158 -2q11 -33 17 -67.5t6 -69.5z" />
    <glyph glyph-name="quotesinglbase" unicode="&#x201a;" horiz-adv-x="297" 
d="M256 29q0 -38 -17 -73t-35 -67h-110q10 12 21 24.5t20 26t14.5 28.5t5.5 32v11l-95 2q-6 14 -12.5 38t-6.5 39q0 20 10 40.5t24 36.5l158 -2q11 -33 17 -67t6 -69z" />
    <glyph glyph-name="quotedblleft" unicode="&#x201c;" horiz-adv-x="515" 
d="M495 556q0 -20 -10.5 -40.5t-22.5 -36.5h-159q-11 34 -17.5 69t-6.5 70q0 37 16.5 72t34.5 65l108 2q-20 -25 -39.5 -51t-19.5 -59q0 -4 0.5 -7t0.5 -6l94 -1q3 -7 6.5 -17t7 -21t5.5 -21.5t2 -17.5zM257 554q0 -20 -10 -40.5t-23 -36.5h-158q-25 70 -25 139
q0 37 17 71.5t34 65.5l109 2q-10 -12 -20.5 -25t-19.5 -26.5t-14.5 -28t-5.5 -31.5q0 -8 1 -12l95 -1q3 -7 6.5 -17t6.5 -21t5 -21.5t2 -17.5z" />
    <glyph glyph-name="quotedblright" unicode="&#x201d;" horiz-adv-x="535" 
d="M494 612q0 -38 -16.5 -72.5t-36.5 -66.5h-108q10 12 20.5 24.5t19.5 26t14.5 28t5.5 31.5q0 8 -1 12l-94 2q-6 13 -12.5 37t-6.5 39q0 20 10.5 40.5t22.5 37.5l159 -3q11 -32 17 -66.5t6 -69.5zM256 612q0 -38 -17 -72.5t-35 -66.5h-110q10 12 21 24.5t20 26t14.5 28.5
t5.5 32v11l-95 2q-6 14 -12.5 37.5t-6.5 39.5q0 20 10 40.5t24 36.5l158 -2q11 -33 17 -67.5t6 -69.5z" />
    <glyph glyph-name="quotedblbase" unicode="&#x201e;" horiz-adv-x="535" 
d="M494 29q0 -39 -16.5 -73.5t-36.5 -66.5h-108q10 12 20.5 24.5t19.5 26t14.5 28t5.5 31.5q0 8 -1 12l-94 2q-3 7 -6.5 17t-6 20.5t-4.5 21t-2 17.5q0 21 10.5 41t22.5 37l159 -3q11 -32 17 -66t6 -69zM256 29q0 -38 -17 -73t-35 -67h-110q10 12 21 24.5t20 26t14.5 28.5
t5.5 32v11l-95 2q-6 14 -12.5 38t-6.5 39q0 20 10 40.5t24 36.5l158 -2q11 -33 17 -67t6 -69z" />
    <glyph glyph-name="bullet" unicode="&#x2022;" horiz-adv-x="290" 
d="M249 341q0 -20 -10.5 -39t-27 -34t-37 -24.5t-39.5 -9.5t-36 9.5t-30 24t-20.5 33t-7.5 36.5q0 22 10 39.5t26 30.5t35.5 21.5t38.5 13.5q3 0 5.5 0.5t5.5 0.5q18 0 34 -10t27.5 -25t18.5 -33t7 -34z" />
    <glyph glyph-name="ellipsis" unicode="&#x2026;" horiz-adv-x="803" 
d="M209 37v-13t-1 -16t-3 -15.5t-5 -10.5q-4 -3 -16 -5.5t-26 -4t-26.5 -2t-18.5 -0.5t-14.5 0.5t-17.5 1.5t-16.5 3.5t-10.5 6.5q-4 4 -6.5 14.5t-4 22.5t-2 23t-0.5 17q0 12 2 31t11 27q3 3 14.5 4.5t25 3t26.5 2t18 0.5q11 0 31.5 -1.5t28.5 -8.5q3 -5 5.5 -15.5t3.5 -23
t1.5 -24t0.5 -17.5zM485 37v-13t-1 -16t-3 -15.5t-5 -10.5q-4 -3 -16 -5.5t-26 -4t-26.5 -2t-18.5 -0.5t-14.5 0.5t-17.5 1.5t-16.5 3.5t-10.5 6.5q-4 4 -6.5 14.5t-4 22.5t-2 23t-0.5 17q0 12 2 31t11 27q3 3 14.5 4.5t25 3t26.5 2t18 0.5q11 0 31.5 -1.5t28.5 -8.5
q3 -5 5.5 -15.5t3.5 -23t1.5 -24t0.5 -17.5zM762 37v-13t-1 -16t-3 -15.5t-5 -10.5q-4 -3 -16 -5.5t-26 -4t-26.5 -2t-18.5 -0.5t-14.5 0.5t-17.5 1.5t-16.5 3.5t-10.5 6.5q-4 4 -6.5 14.5t-4 22.5t-2 23t-0.5 17q0 12 2 31t11 27q3 3 14.5 4.5t25 3t26.5 2t18 0.5
q11 0 31.5 -1.5t28.5 -8.5q3 -5 5.5 -15.5t3.5 -23t1.5 -24t0.5 -17.5z" />
    <glyph glyph-name="perthousand" unicode="&#x2030;" horiz-adv-x="1139" 
d="M760 133q0 -42 -9.5 -66.5t-29 -38t-48 -17.5t-66.5 -4q-12 0 -32.5 1t-42 5t-40.5 10t-27 17q-6 8 -10 21t-6.5 26.5t-3 27t-0.5 22.5q0 12 1 30.5t4 37.5t8 35.5t13 25.5t27.5 15t42 9.5t43.5 4.5t32 1q10 0 26 -0.5t32.5 -3t31 -7.5t21.5 -13q9 -10 15 -28t10 -38.5
t6 -40t2 -32.5zM608 722q-29 -57 -57.5 -113.5t-55.5 -113.5q-14 -28 -27 -56t-24 -57q-38 -99 -75.5 -196.5t-74.5 -196.5l-132 2q29 62 58 123t58 123q17 35 33 71t31 72q35 86 67.5 171.5t64.5 173.5zM326 572q0 -10 -1 -24.5t-3 -30t-6.5 -29.5t-10.5 -22
q-9 -11 -31 -18t-48.5 -11.5t-51 -6.5t-37.5 -2q-8 0 -20.5 0.5t-25.5 2.5t-24 5.5t-17 9.5q-10 11 -17.5 31t-12.5 42t-7.5 43.5t-2.5 35.5q0 24 5.5 49.5t25.5 42.5q10 9 28.5 14.5t39.5 8.5t40.5 4t32.5 1q11 0 28 -1t34.5 -4t32.5 -8t23 -13q8 -9 13 -24.5t8 -33t4 -34
t1 -28.5zM677 134q0 9 -1 20t-4 22t-7.5 21t-10.5 16q-8 8 -20 10.5t-23 2.5q-16 0 -36.5 -5t-31.5 -16t-14.5 -27t-3.5 -30q0 -23 4 -37t13.5 -22t24.5 -10.5t36 -2.5q19 0 33 1.5t23 7t13.5 17t4.5 32.5zM246 573q0 14 -3.5 33.5t-14.5 30.5q-8 8 -25 10t-28 2
q-5 0 -16 -0.5t-22.5 -2.5t-21.5 -5.5t-14 -8.5q-5 -8 -6.5 -18.5t-1.5 -19.5t1.5 -21t5 -24.5t8.5 -23t12 -16.5q8 -7 17.5 -8.5t20.5 -1.5q17 0 39 6t34 18q9 9 12 23.5t3 26.5zM1118 133q0 -42 -9.5 -66.5t-29 -38t-48 -17.5t-65.5 -4q-12 0 -33 1t-42.5 5t-40.5 10
t-27 17q-6 8 -10 21t-6 26.5t-2.5 27t-0.5 22.5q0 12 1 30.5t4 37.5t7.5 35.5t12.5 25.5q9 9 28.5 15t41.5 9.5t43 4.5t33 1q9 0 25 -0.5t32.5 -3t31 -7.5t21.5 -13q9 -10 15 -28t10 -38.5t6 -40t2 -32.5zM1035 134q0 9 -1 20t-4 22t-7 21t-10 16q-9 8 -20.5 10.5t-22.5 2.5
q-17 0 -37 -5t-32 -16q-11 -11 -14 -27t-3 -30q0 -23 4 -37t13 -22t24 -10.5t37 -2.5q19 0 32.5 1.5t22.5 7t13.5 17t4.5 32.5z" />
    <glyph glyph-name="guilsinglleft" unicode="&#x2039;" horiz-adv-x="288" 
d="M257 44l-53 -62l-204 195l249 182l-4 -111l-133 -79z" />
    <glyph glyph-name="guilsinglright" unicode="&#x203a;" horiz-adv-x="299" 
d="M299 159l-220 -219l-18 127l125 90l-155 111l48 67z" />
    <glyph glyph-name="fraction" unicode="&#x2044;" horiz-adv-x="528" 
d="M487 727q-29 -57 -57.5 -113t-55.5 -114q-14 -28 -26.5 -56t-23.5 -57q-38 -99 -75.5 -196.5t-75.5 -197.5l-132 3q29 62 58 123t58 123q17 35 33 71t31 72q35 86 67.5 171.5t64.5 172.5z" />
    <glyph glyph-name="Euro" unicode="&#x20ac;" horiz-adv-x="812" 
d="M771 80q-44 -17 -82 -29.5t-76 -21t-78 -13t-86 -4.5q-21 0 -49.5 1t-57.5 5t-55.5 11.5t-43.5 20.5q-11 8 -26 30.5t-30.5 48.5t-28.5 50t-19 36l-109 3l-10 93l113 3l-3 65l-103 -3l-3 87l119 6q1 12 5 38t10 53.5t14.5 52t18.5 33.5q17 16 48.5 27t66.5 18t69 10.5
t57 3.5q39 0 80 -3t82.5 -9.5t81.5 -16.5t76 -23l-10 -132q-19 12 -43 19.5t-49.5 12t-51.5 6t-48 1.5q-17 0 -44.5 -1t-57.5 -4t-56.5 -9t-39.5 -16q-12 -8 -20.5 -24t-10.5 -30l186 -4l10 -68l-213 -15q-8 -11 -7 -30t1 -31l260 3l4 -65l-246 -28v-7q0 -14 9 -30.5
t24 -21.5q5 -2 17.5 -2h15.5q37 0 74.5 2.5t74.5 5.5q58 5 115.5 11t115.5 12z" />
    <glyph glyph-name="summation" unicode="&#x2211;" horiz-adv-x="1069" 
d="M992 218q0 -23 -4 -50.5t-13 -53.5t-24.5 -47.5t-39.5 -32.5q-14 -7 -41 -11t-57 -6.5t-58 -3.5t-44 -1q-11 0 -27 0.5t-33.5 1.5t-33 3.5t-25.5 7.5q-11 4 -22 15.5t-20.5 25t-16.5 27.5t-11 24q-5 -12 -12.5 -25t-18 -24.5t-23 -20t-25.5 -11.5q-34 -7 -69.5 -8
t-70.5 -1h-32t-41.5 1.5t-40.5 5t-29 9.5q-41 25 -59.5 60t-24.5 75t-4.5 83.5t1.5 84.5q0 59 1 116.5t4 115.5l200 -10q-4 -53 -6.5 -105.5t-2.5 -106.5q0 -6 0.5 -24t1.5 -38.5t3.5 -38.5t6.5 -23q6 -7 18 -11t25 -6.5t25.5 -3t20.5 -0.5q26 0 55 3l13 331q45 3 88 3
q36 0 72 -3q0 -7 1 -31t2 -57.5t2.5 -71t4 -70.5t5.5 -56.5t6 -28.5q7 -9 19 -14.5t25.5 -8.5t27 -4t23.5 -1q18 0 38 3.5t34 17.5q3 4 5.5 21t3.5 37t1.5 37.5t0.5 22.5q0 57 -3 113.5t-8 113.5q26 -1 51 -1.5t51 -0.5q23 0 46 0.5t46 1.5q5 -88 8.5 -175t3.5 -175z" />
    <glyph glyph-name="minus" unicode="&#x2212;" horiz-adv-x="446" 
d="M416 318h-385l4 81q91 3 186 3h187z" />
    <glyph glyph-name="fi" unicode="&#xfb01;" horiz-adv-x="750" 
d="M698 485q-4 -49 -7.5 -98t-5.5 -97q-3 -61 -12.5 -121t-22.5 -120l-153 -16q1 77 1 153.5t-3 154.5l-189 -16q8 -86 17 -170.5t14 -170.5q-63 2 -125.5 -2t-125.5 -5l9 331l-75 -4v27q0 35 4 69t6 69l71 2q0 17 1 39.5t4 46.5t8.5 46t13.5 37q19 36 45.5 63t66.5 41
q17 7 43 11t54 6t54.5 3t44.5 1h15.5t15.5 -1q3 -29 3 -55q0 -29 -2.5 -56.5t-6.5 -56.5q-15 1 -35 0t-40 -5.5t-37.5 -12.5t-29.5 -20q-11 -13 -21.5 -32t-10.5 -37q0 -8 1 -12l200 -4q54 2 106 6t104 6z" />
    <glyph glyph-name="fl" unicode="&#xfb02;" horiz-adv-x="738" 
d="M697 765q-14 -192 -25 -381.5t-23 -381.5l-153 -8v180t-1 180q-1 61 -5.5 121.5t-8.5 121.5q-18 0 -40.5 -1.5t-45 -6t-43 -12t-33.5 -19.5q-11 -11 -21.5 -31.5t-10.5 -37.5q0 -8 1 -12l112 -5q2 -16 4 -33t2 -33t-1 -31l-2 -30l-97 -20q8 -86 17 -170.5t14 -170.5
q-63 2 -125.5 -2t-125.5 -5l9 331l-75 -4v27q0 35 4 69t6 69l71 2q0 42 5 83.5t20 78t42.5 65.5t71.5 46q13 5 43.5 8.5t70.5 6t84.5 3.5t85 2t72 1h45.5h56z" />
    </font>
</defs>
</svg>
