<?xml version="1.0" standalone="no"?>
<!DOCTYPE svg PUBLIC "-//W3C//DTD SVG 1.1//EN" "http://www.w3.org/Graphics/SVG/1.1/DTD/svg11.dtd" >
<svg xmlns="http://www.w3.org/2000/svg" xmlns:xlink="http://www.w3.org/1999/xlink" version="1.1">
<metadata>
Created by FontForge 20161013 at Sat Apr  9 00:27:23 2011
 By ,,,
 Copyright (c) 2010, Kimberly Geswein (kimberlygeswein.com)
</metadata>
<defs>
<font id="SueEllenFrancisco" horiz-adv-x="256" >
  <font-face 
    font-family="Sue Ellen Francisco "
    font-weight="400"
    font-stretch="normal"
    units-per-em="1024"
    panose-1="2 0 0 0 0 0 0 0 0 0"
    ascent="819"
    descent="-205"
    x-height="336"
    cap-height="939"
    bbox="-119 -571 904 1362"
    underline-thickness="75"
    underline-position="-220"
    unicode-range="U+0020-FB02"
  />
<missing-glyph 
 />
    <glyph glyph-name=".notdef" 
 />
    <glyph glyph-name=".null" horiz-adv-x="0" 
 />
    <glyph glyph-name="nonmarkingreturn" 
 />
    <glyph glyph-name="space" unicode=" " 
 />
    <glyph glyph-name="exclam" unicode="!" horiz-adv-x="163" 
d="M85 891q41 0 41 -217l-15 -384l5 -104q0 -22 -34 -26q-32 0 -32 126l17 360v47q0 85 -17 170q0 22 35 28zM91 60q19 0 22 -35q0 -13 -25 -25q-31 8 -31 31q0 26 34 29z" />
    <glyph glyph-name="quotedbl" unicode="&#x22;" horiz-adv-x="211" 
d="M92 859q11 0 25 -18v-3l-9 -54v-15l9 -99q-8 -24 -32 -24q-37 0 -37 132q0 81 44 81zM164 847q29 -4 29 -28q-16 -54 -16 -88l9 -51q0 -12 -29 -22q-40 8 -40 79q12 110 40 110h7z" />
    <glyph glyph-name="numbersign" unicode="#" horiz-adv-x="559" 
d="M191 536q24 0 29 -37v-70l2 -31q76 4 76 12v22q0 98 31 98h7q20 -7 25 -22l-4 -82v-12h4l147 15q9 0 27 -25q0 -41 -108 -41l-66 -9q3 -57 12 -57l101 10h7q50 0 50 -35q0 -16 -16 -25h-44q-91 -3 -91 -13q9 -47 35 -120q0 -19 -32 -25q-32 0 -64 136h-2q-79 -18 -79 -26
q9 -49 28 -97q0 -18 -28 -28q-39 0 -56 119l-61 -6q-26 0 -31 34q0 32 82 32q-5 75 -10 75l-97 -12q-25 10 -25 34q0 26 119 38l3 3l-3 47v63q0 35 32 35zM226 338q2 -73 9 -73q75 14 75 22l-9 60z" />
    <glyph glyph-name="dollar" unicode="$" horiz-adv-x="337" 
d="M246 870q17 0 25 -25l-9 -104q66 -44 66 -89q0 -24 -38 -27q-16 0 -32 46h-6l-48 -280q64 -122 64 -214q0 -115 -98 -164l-25 -6l-3 -79l3 -66q0 -20 -32 -25q-31 0 -31 79l3 114q-56 77 -56 157q0 25 31 28q31 0 31 -76l3 -2h4l44 251q-54 109 -54 199q0 127 88 164
q32 0 32 41q0 78 34 78h4zM148 589l9 -84h7l31 186h-3q-37 0 -44 -98v-4zM183 284q-32 -164 -32 -210h9q48 37 48 91v25q0 40 -19 94h-6z" />
    <glyph glyph-name="percent" unicode="%" horiz-adv-x="466" 
d="M423 913q20 0 29 -34q-80 -110 -111 -205q-55 -192 -208 -624l4 -19q0 -26 -35 -28q-26 0 -32 35l233 702q85 173 120 173zM225 907q19 0 53 -60l6 -18q-30 -139 -103 -139q-58 0 -69 72q0 75 87 139zM171 766v-6l10 -10q40 28 40 65v20h-12q-17 0 -38 -69zM303 246
q85 -38 85 -114v-12q-19 -120 -94 -120h-10q-58 0 -75 91q0 76 65 142zM301 176q-29 -38 -29 -65v-38l12 -13h7q37 11 37 53v32q0 26 -27 31z" />
    <glyph glyph-name="ampersand" unicode="&#x26;" horiz-adv-x="314" 
d="M189 679q29 0 29 -35v-148q0 -18 -23 -32h-15q-17 13 -29 13h-12q-14 0 -26 -38v-10l13 -11h3q37 0 75 18q26 0 32 -35q-4 -12 -82 -65l-25 -32v-17h13q12 0 104 39h2q26 -8 26 -32q-66 -122 -66 -211q-12 -14 -28 -16q-29 7 -29 36q0 30 25 128l-40 -2q-59 0 -67 69
q0 16 29 66q-45 25 -45 75q0 66 79 95l25 3v104q0 38 32 38z" />
    <glyph glyph-name="quotesingle" unicode="'" horiz-adv-x="176" 
d="M75 733q41 0 55 -141v-3q0 -74 -62 -98q-22 0 -28 35l28 38l3 18v10q0 36 -25 116v4q12 21 29 21z" />
    <glyph glyph-name="parenleft" unicode="(" horiz-adv-x="307" 
d="M197 774q29 -9 29 -34q-107 -239 -107 -444v-29q0 -153 101 -218l6 -15q-7 -31 -32 -31q-135 73 -135 280v7q0 220 116 475q12 9 22 9z" />
    <glyph glyph-name="parenright" unicode=")" horiz-adv-x="216" 
d="M89 750q25 0 25 -58q67 -393 67 -532q0 -122 -60 -166q-9 -10 -47 -17q-29 8 -29 32q0 25 47 34q29 35 29 129q0 121 -67 533q0 45 35 45z" />
    <glyph glyph-name="asterisk" unicode="*" horiz-adv-x="440" 
d="M255 578q29 0 41 -101h3q91 0 91 -34q0 -29 -88 -54l-3 -3v-29q0 -110 -23 -110l-11 -6q-21 1 -80 82l-13 13q-25 -8 -75 -76l-12 -6q-27 0 -32 35l69 122v4l-56 66v6q0 18 28 28l75 -28q59 91 86 91z" />
    <glyph glyph-name="plus" unicode="+" horiz-adv-x="538" 
d="M274 583q26 -7 26 -31v-144l93 2h9q52 0 52 -31v-3q0 -20 -26 -29l-3 3h-38l-85 -3l4 -100v-86q-2 -38 -35 -38q-23 0 -25 35v89l-4 94l-144 -16q-22 12 -22 29q0 34 113 40q50 4 50 10l-3 104q0 75 35 75h3z" />
    <glyph glyph-name="comma" unicode="," 
d="M137 104q21 0 25 -34q-9 -125 -67 -151q-28 11 -28 31q36 65 36 104q0 50 34 50z" />
    <glyph glyph-name="hyphen" unicode="-" horiz-adv-x="307" 
d="M100 292q147 0 147 -32l4 -10q-8 -28 -25 -28q-66 9 -123 9l-19 -2q-22 0 -28 34q0 24 44 29z" />
    <glyph glyph-name="period" unicode="." 
d="M124 64q23 0 32 -29q0 -21 -35 -38q-26 0 -31 35q15 32 34 32z" />
    <glyph glyph-name="slash" unicode="/" 
d="M328 660q36 -19 -68 -210l-198 -331l-44 -94q-11 -20 -42 -5q-28 15 32 126l185 308l23 41q41 75 67 157q11 18 45 8z" />
    <glyph glyph-name="zero" unicode="0" horiz-adv-x="404" 
d="M222 685q85 0 110 -44q44 -65 44 -183v-20q0 -225 -107 -406q-49 -66 -91 -66h-7q-95 0 -122 157l-7 92v22q0 206 85 372q53 76 95 76zM103 234v-22q7 -186 59 -186h13q63 0 129 268q12 69 12 132v47q-8 148 -56 148h-20l-11 -3l-13 3q-32 0 -86 -160q-27 -114 -27 -227z
" />
    <glyph glyph-name="one" unicode="1" horiz-adv-x="166" 
d="M88 727q35 0 35 -98l3 -68l-22 -485v-36l7 -18h3q-11 -42 -32 -42q-38 0 -38 54v53l23 476l-7 142q12 22 28 22z" />
    <glyph glyph-name="two" unicode="2" horiz-adv-x="354" 
d="M214 671q44 0 44 -112q0 -96 -139 -422q-25 -63 -25 -79h3q132 16 186 16h7q17 0 28 -19v-13q0 -29 -57 -29q-121 -6 -202 -24q-31 10 -31 28q0 69 141 403q29 79 29 142v13q0 34 -13 34q-46 0 -98 -94l-18 -7q-17 0 -29 19v4q0 42 70 107q48 33 104 33z" />
    <glyph glyph-name="three" unicode="3" horiz-adv-x="328" 
d="M193 723q85 0 123 -126v-28q0 -88 -101 -222v-5q42 0 79 -70l7 -43q0 -141 -130 -228q-21 -12 -48 -12q-78 12 -78 50q5 14 22 26h18q22 -16 32 -16h16q53 0 104 135l3 18v38q0 44 -44 44q-27 0 -94 -18q-26 12 -26 32q0 12 76 66q104 125 104 198v18q-9 82 -63 82h-6
q-39 0 -70 -44l6 -25q-11 -24 -31 -24q-35 12 -35 49q0 68 127 105h9z" />
    <glyph glyph-name="four" unicode="4" horiz-adv-x="309" 
d="M230 766q33 -6 33 -26q-16 -102 -16 -186v-16l3 -160q0 -6 28 -23q0 -15 6 -15q0 -12 -31 -38l3 -22v-88q0 -151 -37 -236q-13 -9 -23 -9q-16 0 -29 18q29 119 29 221v100l-113 63h-22l-20 -3q-25 11 -25 36q63 118 63 276v73q5 29 29 29q28 0 31 -42v-57
q0 -121 -44 -254q35 -16 92 -52h6q-6 72 -6 193q0 218 43 218z" />
    <glyph glyph-name="five" unicode="5" horiz-adv-x="334" 
d="M87 816q0 -13 164 -47q38 -4 38 -35q-8 -25 -28 -25l-136 28l3 -38v-38l3 -2l-3 -9l-3 -199q50 19 67 19q74 0 91 -145v-19q0 -145 -70 -284q-38 -50 -72 -50q-60 0 -107 145q0 21 28 25h4q26 0 46 -75q18 -32 32 -32q43 24 73 186l3 60v54q0 75 -35 75q-19 0 -82 -57h-6
q-26 0 -31 35l2 309q0 39 -16 94q0 22 35 25z" />
    <glyph glyph-name="six" unicode="6" horiz-adv-x="354" 
d="M168 805q18 -7 25 -23v-15q-94 -137 -94 -378v-38q4 -135 16 -135q53 97 116 97q73 0 105 -135l2 -20q0 -119 -107 -166l-25 -3q-93 0 -148 192q-19 83 -19 183v18q0 265 108 416zM143 109q32 -60 73 -60q45 0 62 107q-13 98 -47 98h-9q-75 -63 -75 -136z" />
    <glyph glyph-name="seven" unicode="7" horiz-adv-x="283" 
d="M63 764q22 -16 155 -26q30 0 30 -125q-21 -252 -37 -574q-9 -50 -41 -50q-16 0 -28 28q14 0 28 388q19 118 19 204v25q0 51 -13 51q-126 0 -147 44v3q0 27 34 32z" />
    <glyph glyph-name="eight" unicode="8" horiz-adv-x="343" 
d="M181 753q123 -10 123 -40l3 -4v-3q-15 -26 -29 -114l-78 -175q86 -143 92 -187l6 -46q0 -106 -105 -180l-40 -7h-6q-94 0 -108 117v3q0 96 88 296q-62 112 -62 179v10l-4 4q0 100 79 141zM124 630v-44q0 -52 34 -104h4q69 124 69 186q0 25 -22 25l-28 4q-57 -9 -57 -67z
M162 350q-63 -152 -63 -227v-15q8 -54 54 -54h3q52 0 78 113v32q0 63 -66 151h-6z" />
    <glyph glyph-name="nine" unicode="9" horiz-adv-x="343" 
d="M237 775q85 -22 85 -53q-53 -232 -53 -518l3 -122q19 -11 19 -32q0 -55 -41 -75q-38 0 -38 126l-3 113l6 186h-6q-48 -41 -88 -41q-68 0 -80 113q0 127 111 265q41 38 85 38zM102 472v-3q0 -41 19 -50h6q49 0 101 132l28 157l-19 7h-12q-58 0 -120 -202z" />
    <glyph glyph-name="colon" unicode=":" horiz-adv-x="138" 
d="M76 405q23 0 33 -28q0 -21 -35 -38q-26 0 -32 34q15 32 34 32zM83 279q29 -5 29 -28v-4q-5 -27 -29 -27q-28 9 -28 31q8 28 28 28z" />
    <glyph glyph-name="semicolon" unicode=";" horiz-adv-x="185" 
d="M74 250q21 0 25 -35q-11 -25 -28 -25q-29 6 -29 31q0 26 32 29zM93 130q37 0 54 -144q0 -72 -64 -99q-22 0 -28 36q0 6 28 37l3 18v8q0 45 -25 113v3q0 23 32 28z" />
    <glyph glyph-name="less" unicode="&#x3c;" horiz-adv-x="322" 
d="M225 392q26 0 31 -34q0 -12 -107 -126v-3q89 -40 89 -60v-3q-5 -28 -29 -28q-128 50 -142 91q0 17 89 91q44 59 69 72z" />
    <glyph glyph-name="equal" unicode="=" horiz-adv-x="538" 
d="M162 349q252 0 252 -19l4 -22q-10 -25 -33 -25l-227 7q-26 0 -31 34q0 22 35 25zM240 232q178 0 178 -43q0 -23 -29 -32q-17 9 -142 15l-79 -3h-15q-38 0 -38 32q0 28 34 28z" />
    <glyph glyph-name="greater" unicode="&#x3e;" horiz-adv-x="264" 
d="M73 326q12 0 160 -97q10 -12 10 -28q0 -8 -69 -57q-48 -60 -70 -60q-25 8 -25 28v3q0 15 76 88v7q-107 64 -107 85v4q0 14 25 27z" />
    <glyph glyph-name="question" unicode="?" horiz-adv-x="311" 
d="M194 772q72 0 85 -117q0 -95 -122 -185q-13 -21 -13 -35v-3q0 -73 28 -182q-12 -26 -31 -26q-37 0 -51 149q-5 0 -6 53q0 65 101 145q35 39 35 72v16q0 54 -28 54h-4q-76 -24 -76 -101q-17 -16 -28 -16q-28 0 -28 34q0 96 123 142h15zM148 57q21 0 31 -31
q-11 -29 -31 -29h-4q-32 6 -32 29q0 24 36 31z" />
    <glyph glyph-name="at" unicode="@" horiz-adv-x="494" 
d="M294 613q102 0 132 -177l3 -59v-31q41 0 41 -42v-9q0 -108 -104 -246q-62 -66 -136 -66h-11q-114 0 -162 138q-16 58 -16 105v12q0 272 202 369zM102 238v-12q0 -160 100 -184h38q92 0 158 184l-4 3h-3q-28 -19 -50 -19q-13 0 -38 21h-6q-33 -53 -69 -53q-47 0 -61 97
q0 87 80 168q21 16 40 16q67 -7 67 -32v-6l-9 -114q0 -32 9 -32q16 30 16 86v28q-10 164 -73 164h-16q-79 0 -151 -144q-28 -74 -28 -171zM228 266l2 -15h4q24 16 57 141v3l-4 4h-3q-27 0 -56 -114v-19z" />
    <glyph glyph-name="A" unicode="A" horiz-adv-x="491" 
d="M317 930q15 0 29 -29l-3 -15q87 -575 122 -876q-10 -28 -31 -28q-35 0 -42 150l-11 79l-55 -3q-52 0 -157 13q-74 -253 -101 -253h-2q-32 9 -32 32q81 198 176 678q41 148 75 239q14 13 32 13zM185 281q55 -13 116 -13h54q11 0 19 9l-73 486h-2q-20 -31 -58 -218z" />
    <glyph glyph-name="B" unicode="B" horiz-adv-x="382" 
d="M68 886q13 -2 32 -26l30 3q121 0 174 -140q13 -44 13 -80v-9l2 -3l-2 -4v-12q0 -89 -60 -177q98 -62 98 -179v-22q0 -125 -89 -236q-39 -38 -82 -38l-46 9h-3l-11 -6h-12q-27 0 -35 64q-25 127 -25 286v57l-15 35v2l15 28v86q0 208 -15 336q7 26 31 26zM103 801
q9 -139 9 -302v-67h26q78 0 116 142l3 38v35q0 113 -89 151l-38 7h-12zM121 373h-9v-54q0 -280 38 -280q12 -16 28 -16h13q60 0 101 173l3 57q0 114 -75 132h-27z" />
    <glyph glyph-name="C" unicode="C" horiz-adv-x="440" 
d="M260 868q20 0 29 -34q0 -177 -29 -177l-9 -3q-31 0 -31 63q-13 73 -38 73q-87 -71 -87 -284q21 -332 55 -394q41 -72 91 -72h13q72 0 117 142q13 12 24 12q25 0 29 -31q-8 -68 -78 -145q-59 -38 -99 -38q-134 0 -176 208q-34 205 -34 311v13q0 189 87 309q29 29 67 29
l35 -9q0 21 34 27z" />
    <glyph glyph-name="D" unicode="D" horiz-adv-x="491" 
d="M68 879q21 0 38 -60h6q34 26 95 31q177 0 237 -320l15 -167q0 -286 -204 -372l-52 -6h-2q-22 0 -66 15v-9l3 -19q0 -14 -28 -28q-38 0 -38 82q-26 351 -26 431l10 294q0 45 -22 99q0 23 34 29zM106 461l15 -331q25 -86 73 -86h26q54 0 119 82q57 91 57 215v53
q0 200 -82 337q-48 57 -88 57h-38q-64 0 -73 -79z" />
    <glyph glyph-name="E" unicode="E" horiz-adv-x="408" 
d="M80 958q25 0 29 -38h-3l3 -10q34 0 189 21q25 -9 25 -31q0 -32 -135 -41l-88 -12v-44q0 -47 38 -381h128q26 0 32 -29q0 -31 -47 -31h-113v-4l-3 -207q0 -74 15 -108l198 13q32 -4 32 -28q0 -32 -70 -32q-180 -10 -180 -19q-36 0 -50 110l-5 76l2 227l-37 413v31
q0 124 37 124h3z" />
    <glyph glyph-name="F" unicode="F" horiz-adv-x="340" 
d="M66 916q22 0 28 -38h176q35 0 35 -34q-6 -26 -38 -26h-164l32 -311h91q35 0 35 -35q-6 -25 -38 -25h-82v-3q28 -300 28 -368v-61q0 -38 -28 -38h-13q-18 12 -18 28v48q0 173 -76 838q7 25 32 25z" />
    <glyph glyph-name="G" unicode="G" horiz-adv-x="432" 
d="M217 956q28 -11 28 -32q0 -23 -57 -38q-98 -71 -98 -346q0 -331 117 -473q27 -22 40 -22q70 0 86 209l4 44q-3 47 -11 47q-35 -14 -106 -58l-19 -3q-17 0 -29 29q0 24 69 54q59 38 89 38q57 0 66 -89v-6q0 -256 -111 -318q-30 -2 -30 -6q-145 0 -209 346q-15 104 -15 193
v21q0 302 128 391q44 19 58 19z" />
    <glyph glyph-name="H" unicode="H" horiz-adv-x="410" 
d="M274 936q29 0 29 -38v-63q0 -131 81 -787v-16q0 -47 -31 -47q-28 4 -28 28v22q0 59 -51 419q-138 -8 -138 -22l3 -4v-2q13 -207 13 -378v-80q0 -46 -35 -46q-23 0 -25 35v75q0 200 -13 387h-6q-25 0 -38 22v16q17 24 38 25q0 76 -51 406q0 25 38 29q25 0 38 -145
q13 -64 34 -271h4l135 13q-32 257 -32 369q0 53 35 53z" />
    <glyph glyph-name="I" unicode="I" horiz-adv-x="382" 
d="M189 939h3q79 -3 79 -22v-20q-7 -15 -25 -21l-44 3h-22v-3q14 -803 44 -803l107 15q22 -10 22 -28v-3q0 -32 -123 -42q-82 -15 -126 -15q-22 9 -22 29q0 34 75 34v4q-25 163 -37 806h-4l-91 -16q-25 11 -25 34q0 29 126 41q0 5 63 7z" />
    <glyph glyph-name="J" unicode="J" horiz-adv-x="340" 
d="M248 951h4q66 0 66 -31q0 -18 -26 -33l-31 4h-44v-97q0 -392 35 -687v-13q0 -90 -69 -114l-26 -3q-90 0 -119 152l-7 34q9 29 32 29q26 0 38 -85q19 -55 47 -69h21q23 11 23 53v10q-29 300 -29 368q-6 116 -6 311v102h-3l-76 -6h-9q-38 4 -38 31q5 28 38 28h16z" />
    <glyph glyph-name="K" unicode="K" horiz-adv-x="461" 
d="M337 974q17 -1 26 -30q-55 -90 -127 -327q-28 -67 -79 -136q135 -362 217 -441q40 -30 39 -45q-8 -28 -31 -27h-2q-41 10 -133 153q-64 129 -114 269l-6 1q-13 -226 9 -380q-12 -27 -33 -25h-9q-39 2 -27 452q-27 333 -18 493q2 35 34 33q26 -1 26 -42q-9 -155 12 -386h2
q37 35 96 212q70 228 118 226z" />
    <glyph glyph-name="L" unicode="L" horiz-adv-x="365" 
d="M57 943q31 0 31 -94q25 -782 48 -782l28 7l113 -3l38 9q15 0 29 -29q-10 -40 -82 -40l-105 2q-12 0 -44 -21h-15q-31 0 -41 233q-12 149 -32 697q8 21 32 21z" />
    <glyph glyph-name="M" unicode="M" horiz-adv-x="544" 
d="M66 955q23 0 35 -82q126 -212 126 -256l25 -100h3q43 239 91 340q37 79 60 79q33 0 41 -86q18 -99 18 -264v-249q8 -261 35 -261q19 -10 19 -32q0 -55 -28 -72h-19q-53 25 -70 416l4 113v91q-2 212 -16 212h-3q-38 -88 -79 -315q-12 -133 -41 -133h-15q-30 0 -86 268
l-41 91h-9l9 -261l-3 -444q-4 -32 -31 -32q-28 6 -28 26l3 472q0 222 -35 450q0 23 35 29z" />
    <glyph glyph-name="N" unicode="N" horiz-adv-x="435" 
d="M123 923q27 0 41 -141q73 -419 151 -633h6q29 423 29 667v10q0 32 -6 32q10 34 35 34q31 0 31 -62v-23q-20 -812 -57 -812l-16 -7q-28 0 -60 101q-53 122 -116 407q-17 97 -25 97v-6l3 -224v-329v-50q0 -25 -29 -25q-32 0 -32 49v32q0 53 1 316l-3 256q0 309 28 309z" />
    <glyph glyph-name="O" unicode="O" horiz-adv-x="424" 
d="M157 854q134 0 216 -375q11 -78 15 -160q0 -243 -129 -328q-51 -19 -79 -19q-106 0 -141 170q-17 65 -17 151v16q0 233 80 497v10l-4 3q11 35 59 35zM161 795q-79 -230 -79 -486v-9q0 -221 73 -261l25 -7h10q88 0 125 158q10 40 10 93v58q0 242 -126 431q-24 23 -38 23z
" />
    <glyph glyph-name="P" unicode="P" horiz-adv-x="340" 
d="M167 949q98 0 149 -122l6 -38q0 -114 -129 -299q-43 -42 -79 -54l3 -28l6 -391q0 -23 -31 -28q-28 0 -28 38q0 437 -19 437q-25 35 -25 53q0 20 31 26l-10 308q0 76 33 76l18 -3q38 25 75 25zM105 855l7 -328l2 -22q66 26 129 199q20 47 20 94q-28 91 -88 91h-14
q-32 0 -56 -34z" />
    <glyph glyph-name="Q" unicode="Q" horiz-adv-x="491" 
d="M235 960q24 0 29 -47q113 -79 157 -233q34 -116 34 -223v-41q0 -149 -56 -290q0 -38 60 -146q0 -18 -29 -30q-32 0 -69 97h-6q-74 -79 -135 -79q-144 0 -187 414v18q8 446 149 539q33 21 53 21zM93 407q0 -223 95 -363q23 -15 41 -15q54 0 107 107q-5 66 -63 173
q-38 37 -38 46q5 32 29 32q50 0 107 -148h6q22 98 22 186q0 306 -158 434l-38 20q-36 0 -85 -186q-25 -143 -25 -286z" />
    <glyph glyph-name="R" unicode="R" horiz-adv-x="418" 
d="M238 960q90 -8 108 -164v-42q-12 -125 -126 -251q22 -47 91 -302l84 -192q-13 -27 -34 -24q-27 1 -84 155q-39 77 -86 284q-12 36 -19 37l-67 -35q2 -219 18 -413q-2 -16 -25 -29l-10 1q-28 2 -28 62q-27 547 -7 767q-20 18 -18 36q1 7 22 27q3 41 35 37l15 -7
q84 58 131 53zM113 837q-11 -219 -7 -341l9 -1q98 46 163 216l7 43l1 9q9 91 -41 137l-16 1q-34 3 -116 -64z" />
    <glyph glyph-name="S" unicode="S" horiz-adv-x="396" 
d="M209 931q100 0 142 -120q6 -12 6 -35q0 -25 -31 -28q-27 0 -34 66q-34 57 -76 57h-14q-61 0 -72 -120v-3q0 -144 183 -435q57 -111 57 -186q0 -102 -104 -158l-35 -6q-92 0 -176 126q-16 28 -16 60q0 51 35 57h9q22 -15 22 -28l-6 -29v-2q0 -65 107 -120l19 -4h9
q52 0 76 89v12q0 107 -139 315q-100 197 -100 309q0 126 97 176z" />
    <glyph glyph-name="T" unicode="T" horiz-adv-x="384" 
d="M170 951h50q99 0 133 -35l6 -19v-3q0 -25 -31 -28q-30 25 -120 25h-10v-4q0 -185 4.5 -513t30.5 -363q-10 -28 -34 -28q-42 -45 -51 344t-9 560v4l-89 -6q-25 11 -25 31q0 35 145 35z" />
    <glyph glyph-name="U" unicode="U" horiz-adv-x="466" 
d="M318 967q41 0 41 -220q6 -44 6 -230l-3 -182q23 -254 60 -300q29 -20 29 -31q-6 -24 -23 -32h-12q-50 0 -82 132q-6 -2 -34 -82q-36 -50 -73 -50q-127 0 -151 337l-51 592q10 22 28 22q35 0 35 -94l60 -649q32 -148 79 -148q55 15 73 312q-17 263 -17 475v117q0 26 35 31
z" />
    <glyph glyph-name="V" unicode="V" horiz-adv-x="392" 
d="M347 936q20 -2 24 -30q-36 -217 -69 -475q-50 -204 -61 -319l-3 -99q-9 -20 -33 -18q-35 3 -60 204q-25 141 -84 570l-24 120q10 24 34 23q32 -3 42 -125q22 -110 80 -539l3 -3h3q42 155 106 638q5 57 42 53z" />
    <glyph glyph-name="W" unicode="W" horiz-adv-x="542" 
d="M481 944q24 -8 24 -35l-12 -378l18 -365q0 -180 -38 -180h-6q-49 0 -145 283q0 16 -9 20q-58 -186 -117 -294l-18 -2q-31 0 -38 82q-98 551 -98 809q0 35 32 35q25 0 29 -42q0 -255 88 -742h2q32 50 91 274q0 50 35 50q29 0 35 -67q27 -150 91 -277l4 -3l3 3v51l-19 374
l12 379q0 22 36 25z" />
    <glyph glyph-name="X" unicode="X" horiz-adv-x="446" 
d="M357 972q27 -13 25 -35q-24 -37 -70 -236q-76 -210 -80 -238q115 -240 174 -404q17 -12 14 -37q-13 -36 -42 -32q-25 3 -50 113q-45 117 -116 271l-10 1q-40 -152 -126 -384l-23 -6q-26 11 -24 30q101 305 129 413l8 37q-130 291 -124 444q3 23 33 28q33 -5 28 -99
q26 -141 87 -284l9 -1q51 134 107 359q25 64 51 60z" />
    <glyph glyph-name="Y" unicode="Y" horiz-adv-x="379" 
d="M367 937q15 0 28 -28q-57 -232 -80 -488t-65 -445l-19 -13q-35 11 -35 29l59 393q-63 78 -97 174q-43 118 -160 306l-9 24q0 23 34 29q17 -3 51 -73q68 -91 173 -340l11 -27q63 507 109 459z" />
    <glyph glyph-name="Z" unicode="Z" horiz-adv-x="416" 
d="M64 982q46 -23 135 -23l148 3l16 -18v-10q0 -288 -264 -876q133 -12 195 -12h22l75 3q23 -9 23 -28q0 -35 -98 -35h-4l-267 13q-22 7 -22 32q227 527 227 585q37 109 53 286l-38 -3h-40l-13 -3l-13 3h-15q-158 14 -158 51q11 32 38 32z" />
    <glyph glyph-name="bracketleft" unicode="[" 
d="M209 852q20 0 25 -28v-3q0 -34 -113 -44q-45 -17 -45 -50v-20q0 -22 45 -242q19 -422 116 -422l35 9q29 -10 29 -30q0 -27 -67 -38q-125 0 -158 295q-15 261 -40 312q-20 84 -20 116v4q0 116 136 130z" />
    <glyph glyph-name="backslash" unicode="\" 
d="M21 684q38 13 105 -194l104 -370l38 -98q6 -20 -25 -34q-30 -10 -68 110l-97 347l-14 45q-27 81 -68 156q-7 21 25 38z" />
    <glyph glyph-name="bracketright" unicode="]" 
d="M62 846q93 0 135 -113q13 -48 16 -123l-7 -523q0 -103 -97 -103l-32 -4h-6q-38 0 -38 32q0 28 57 28q54 0 54 26l3 15l3 510v54q0 109 -60 135q-57 12 -57 38q5 28 29 28z" />
    <glyph glyph-name="asciicircum" unicode="^" horiz-adv-x="357" 
d="M328 663q1 -26 -33 -33q-12 0 -129 103h-3q-39 -88 -58 -89h-2q-29 4 -29 27q45 131 86 144q17 1 95 -85q58 -42 73 -67z" />
    <glyph glyph-name="underscore" unicode="_" horiz-adv-x="371" 
d="M85 61h110q155 0 155 -40v-8q0 -9 -25 -24q-61 12 -117 12h-126q-34 0 -34 35q6 25 37 25z" />
    <glyph glyph-name="grave" unicode="`" horiz-adv-x="274" 
d="M91 1153q30 -14 89 -101q47 -33 47 -48q0 -17 -32 -31q-56 24 -135 145v6q10 29 31 29z" />
    <glyph glyph-name="a" unicode="a" horiz-adv-x="322" 
d="M191 335l60 -10v3q22 0 34 -35l-3 -63v-44q0 -97 28 -145q-8 -25 -31 -25q-33 0 -48 76l-2 16h-9q-36 -85 -102 -113l-15 -4q-86 24 -86 126v6q0 127 123 202zM77 104q7 -50 32 -50h3q35 0 110 211v3l-29 6h-2q-80 0 -114 -138v-32z" />
    <glyph glyph-name="b" unicode="b" horiz-adv-x="326" 
d="M51 909q32 -5 32 -28l-7 -58v-15q16 -370 45 -491l2 -4h4q25 25 63 33q111 -32 111 -162v-25q-5 -153 -96 -189l-24 -3h-10l-4 3l-9 -3v-16q0 -17 -19 -25h-12q-32 0 -32 69q-6 42 -28 80v9l9 16l-6 62l4 35q-58 439 -58 620q0 92 35 92zM137 193q0 -162 34 -162l4 -4h18
q50 39 50 141q0 83 -44 114h-22q-40 -31 -40 -89z" />
    <glyph glyph-name="c" unicode="c" horiz-adv-x="319" 
d="M187 394q25 0 25 -59l9 -85q0 -22 -34 -29q-21 0 -54 91l-3 4h-7q-39 0 -44 -111v-15q0 -113 73 -133h19q31 0 94 55h7v2q31 -9 31 -35q-22 -40 -94 -72l-48 -12q-94 0 -135 144l-6 54v6q0 153 92 177h9l31 -3q14 21 35 21z" />
    <glyph glyph-name="d" unicode="d" horiz-adv-x="324" 
d="M212 851q12 0 26 -18v-75q0 -332 54 -719l21 -66q-7 -25 -31 -25q-31 0 -44 75h-7q-37 -34 -73 -34q-82 0 -122 106q-13 35 -13 83q0 114 76 158l22 2h3q30 0 72 -28h4v3q-22 258 -22 422v67q0 49 34 49zM83 181v-23q0 -74 54 -107l21 -2q48 0 48 94v28q0 85 -88 107
q-35 -21 -35 -97z" />
    <glyph glyph-name="e" unicode="e" horiz-adv-x="322" 
d="M122 357q56 0 76 -101q-26 -113 -107 -113h-4v-3q16 -91 85 -91q53 0 86 91l22 9q22 0 28 -34q0 -62 -97 -117l-48 -9q-86 0 -129 123q-12 49 -12 81v13q0 102 85 148zM85 231v-2l22 -23q15 0 28 41v16q-5 31 -13 31h-6q-15 0 -31 -63z" />
    <glyph glyph-name="f" unicode="f" horiz-adv-x="270" 
d="M209 863q72 0 92 -120l3 -10h3q0 -24 -38 -27q-22 0 -40 85l-17 13h-3q-53 0 -53 -243l9 -215h28q51 0 51 -35q0 -19 -28 -25h-45v-3q10 -234 22 -289q-8 -32 -28 -32q-44 0 -44 160l-12 161l-33 -3h-37q-26 0 -28 31q0 29 47 29h31l16 4l-10 232q0 287 114 287z" />
    <glyph glyph-name="g" unicode="g" horiz-adv-x="300" 
d="M232 359q38 0 38 -106q6 -58 6 -265q0 -255 -47 -457q-40 -76 -108 -76q-91 0 -198 108l-6 15q7 32 32 32q9 0 50 -41q73 -54 113 -54h19q62 0 72 249q14 113 14 240v35q-47 -23 -73 -23q-82 0 -116 98q-14 36 -14 76q0 111 92 156l42 4q23 0 46 -15h7q19 24 31 24z
M115 291q-40 -35 -40 -107q0 -92 60 -108h13q55 0 55 101q-8 110 -53 110z" />
    <glyph glyph-name="h" unicode="h" horiz-adv-x="301" 
d="M68 968q22 0 26 -35v-56q0 -203 -3 -540q37 37 69 37q81 0 105 -176q3 -131 15 -227q0 -17 -32 -31q-34 17 -34 37l4 3v4q-15 302 -32 302q-12 24 -22 28h-10q-50 -44 -50 -107l2 -215q-12 -29 -31 -29q-33 0 -42 92q7 61 7 105v3l-2 3l2 3v25l6 457q-12 112 -12 220v60
q2 37 34 37z" />
    <glyph glyph-name="i" unicode="i" horiz-adv-x="160" 
d="M87 508q26 0 32 -34q0 -16 -22 -31h-10q-28 0 -28 34q8 31 28 31zM94 373q34 -5 19 -101q-12 -79 -4 -265q-15 -29 -39 -25q-28 4 -23 99q-2 166 17 278q2 15 30 14z" />
    <glyph glyph-name="j" unicode="j" horiz-adv-x="182" 
d="M82 567q26 -9 26 -32v-3q-5 -34 -35 -34q-21 0 -25 28q0 41 34 41zM92 409q17 0 28 -28l-6 -47q50 -474 50 -587q0 -179 -100 -236l-32 -3q-84 0 -151 133v6q0 22 34 24q17 0 42 -53q43 -50 65 -50h22q58 38 58 145v72q0 111 -48 552q0 72 38 72z" />
    <glyph glyph-name="k" unicode="k" horiz-adv-x="343" 
d="M88 1031q23 -1 24 -36l-5 -78l-14 -617l2 -1q98 114 131 112h5q22 -17 21 -33q0 -8 -50 -50q-76 -80 -86 -112q-2 -44 153 -141q47 -10 45 -41q-2 -21 -31 -24q-64 3 -184 125h-6q-6 -95 -1 -120q-10 -75 -49 -74q-34 6 -33 32l18 27l19 917l4 79q5 37 37 35z" />
    <glyph glyph-name="l" unicode="l" horiz-adv-x="171" 
d="M82 886q15 -1 28 -25q-7 -11 -9 -40l-1 -13l6 -394q-5 -268 6 -393l2 -8q-9 -19 -29 -18q-45 3 -36 124q-6 66 -6 607q-6 33 -3 87v4q5 71 42 69z" />
    <glyph glyph-name="m" unicode="m" horiz-adv-x="437" 
d="M321 375q73 -35 70 -223q5 -100 27 -139v-4q-2 -21 -32 -27q-55 5 -56 272l-14 46l-12 1q-34 -41 -39 -100q-6 -44 -3 -143q-15 -27 -35 -25q-34 5 -31 130q-18 127 -39 129h-6q-30 -9 -36 -63l10 -194l-1 -13q-3 -22 -35 -30q-50 5 -35 349q3 21 31 28q28 -11 27 -25h3
l45 7q34 -4 68 -54l2 -1q47 69 91 79z" />
    <glyph glyph-name="n" unicode="n" horiz-adv-x="320" 
d="M200 354q101 -8 82 -243l-8 -89q-6 -36 -35 -34q-27 2 -24 36l7 97q14 171 -30 174q-47 4 -68 -178l4 -108q-2 -21 -34 -22q-37 3 -28 106l-24 229q2 23 37 25q21 -1 25 -45l4 -1q45 56 92 53z" />
    <glyph glyph-name="o" unicode="o" horiz-adv-x="260" 
d="M144 345q86 -31 91 -190v-6q-4 -133 -69 -163l-28 -4q-107 26 -107 161v3q0 146 94 195zM90 155v-22q11 -94 58 -94q27 30 27 116v6q-5 107 -34 117q-51 -23 -51 -123z" />
    <glyph glyph-name="p" unicode="p" horiz-adv-x="391" 
d="M183 370q101 0 172 -161l14 -66q0 -121 -158 -142h-7q-36 0 -65 19h-10q15 -414 15 -556q-9 -35 -32 -35q-32 0 -32 51v13q0 154 -11 537q-13 170 -13 261v21q0 51 31 51h14q18 -11 18 -28q32 31 47 31zM145 202q-18 -141 53 -141h16q81 0 95 76v9q0 67 -70 138
q-29 26 -53 26q-33 2 -41 -108z" />
    <glyph glyph-name="q" unicode="q" horiz-adv-x="353" 
d="M269 445q41 2 47 -29q0 -129 4 -779v-47l-3 -104l6 -20v-2q0 -22 -28 -32q-26 0 -38 60l4 104q-10 247 -2 439h-6q-38 -41 -86 -41h-6q-85 0 -120 97q-9 39 -9 69v4q0 192 114 255l44 6l47 -16q0 36 32 36zM92 160q0 -107 63 -107h22q51 0 60 136v19q0 114 -47 157h-3
q-73 -26 -73 -75q-22 -36 -22 -130z" />
    <glyph glyph-name="r" unicode="r" horiz-adv-x="250" 
d="M40 402q27 0 41 -65h3q38 45 82 45q72 -13 72 -45q-9 -28 -31 -28l-38 12h-10q-59 -11 -59 -243v-47q-6 -31 -28 -31q-32 0 -32 38v116q0 128 -32 224q8 24 32 24z" />
    <glyph glyph-name="s" unicode="s" horiz-adv-x="260" 
d="M157 380q52 0 63 -44q0 -21 -28 -26h-9q-13 9 -23 9h-9q-66 -28 -66 -84v-9q5 -33 31 -33h9l69 13q51 -6 51 -50q0 -65 -79 -139q-37 -28 -75 -28q-69 15 -69 57q10 25 34 25l31 -22h16q73 28 73 91l-4 4q-25 -9 -56 -9q-74 0 -91 96q0 87 97 142z" />
    <glyph glyph-name="t" unicode="t" 
d="M121 872q32 0 28.5 -192.5t-3.5 -272.5h2l60 9q29 -4 29 -29q0 -34 -63 -34l-26 -9l9 -335q-4 -34 -31 -34q-32 0 -32 47v79l-2 223l-4 10l-44 -3q-28 6 -28 31q0 31 69 31v4q0 128 4 447q0 25 32 28z" />
    <glyph glyph-name="u" unicode="u" horiz-adv-x="317" 
d="M233 335q32 0 32 -70q0 -80 11 -194q32 -14 32 -34v-4q0 -25 -34 -31q-22 0 -38 42q-42 -55 -82 -55q-89 3 -114 89q-9 96 -9 204v19q0 35 32 35q23 0 28 -38v-16q-20 -238 63 -227q55 37 57 97v28l-12 91v10q0 54 34 54z" />
    <glyph glyph-name="v" unicode="v" horiz-adv-x="269" 
d="M42 384q28 0 41 -92q49 -126 70 -151h3q28 243 69 243h4q27 -11 27 -32q-25 -49 -56 -337q-21 -19 -29 -19q-24 0 -68 117q-81 146 -92 242q0 17 31 29z" />
    <glyph glyph-name="w" unicode="w" horiz-adv-x="385" 
d="M53 391q34 0 41 -99q36 -127 42 -127h3q9 122 31 122h13q28 0 94 -122h3v3q9 227 54 227h6q29 -6 29 -25q-29 -83 -29 -192l4 -151q-8 -29 -33 -29q-29 0 -107 180h-6q-16 -205 -62 -205q-31 0 -38 101q-55 185 -73 286q0 21 28 31z" />
    <glyph glyph-name="x" unicode="x" horiz-adv-x="286" 
d="M212 392q28 -5 28 -28q-75 -147 -75 -220q42 -69 85 -69q13 -14 16 -29q0 -12 -19 -25h-3q-46 0 -88 41h-3q-6 0 -23 -111q-13 -12 -31 -12q-25 13 -25 28l25 180q-76 130 -76 138q11 25 35 25q17 0 60 -75q5 2 35 88q36 69 59 69z" />
    <glyph glyph-name="y" unicode="y" horiz-adv-x="265" 
d="M45 350q31 0 31 -94v-61q0 -119 51 -119h3q35 35 35 94v117q0 36 44 50h12q22 -17 22 -28l-18 -145l3 -251v-48q0 -372 -129 -428l-25 -7q-74 0 -126 107l-35 107q9 26 28 26h9q19 0 54 -120q35 -59 66 -59q85 0 101 368v63l-4 104l-44 -10q-93 0 -107 183l-3 129
q9 22 32 22z" />
    <glyph glyph-name="z" unicode="z" horiz-adv-x="379" 
d="M45 362l40 -10h42q132 0 132 -44q-28 -68 -122 -227l-7 -18v-4l47 -3h60q42 0 98 16q25 -13 25 -29q0 -40 -123 -47h-35q-148 0 -148 38q0 26 133 249v7l-3 2h-85q-83 6 -83 38q0 22 29 32z" />
    <glyph glyph-name="braceleft" unicode="{" horiz-adv-x="308" 
d="M223 1066q25 -11 25 -35q0 -9 -50 -57q-44 -63 -44 -148v-31q0 -124 73 -261q0 -31 -79 -44q-12 -9 -26 -9v-11q67 -4 67 -34q-48 -87 -48 -202v-53q0 -186 97 -231l20 -2h32q28 -5 28 -29v-13q-10 -19 -51 -19q-119 0 -166 164q-20 63 -20 139v29q0 88 29 195
q-107 32 -107 69q0 23 82 41q62 25 66 31q-60 142 -60 255q0 167 123 253z" />
    <glyph glyph-name="bar" unicode="|" horiz-adv-x="171" 
d="M82 886q15 -1 28 -25q-7 -11 -9 -40l-1 -13l6 -394q-5 -268 6 -393l2 -8q-9 -19 -29 -18q-45 3 -36 124q-6 66 -6 607q-6 33 -3 87v4q5 71 42 69z" />
    <glyph glyph-name="braceright" unicode="}" horiz-adv-x="308" 
d="M48 1038q39 0 95 -148q15 -69 15 -111v-44q0 -67 -35 -163l114 -119l3 -10q0 -25 -73 -57v-3q76 -191 76 -288v-27q-15 -168 -59 -186q-23 0 -35 32q35 84 35 141v48q0 78 -85 302v4q0 17 59 37v9q-13 18 -101 95l-3 16q45 80 45 173v38q0 128 -79 223l-4 10q11 28 32 28
z" />
    <glyph glyph-name="asciitilde" unicode="~" horiz-adv-x="448" 
d="M363 834q28 -7 28 -50q-8 -69 -63 -69h-3q-36 6 -141 47l-29 3q-16 -6 -16 -23v-2l4 -4q-12 -34 -41 -34h-3q-27 0 -35 38q42 84 101 84q27 0 154 -50h6q7 0 7 10l-4 22q0 22 35 28z" />
    <glyph glyph-name="nonbreakingspace" unicode="&#xa0;" 
 />
    <glyph glyph-name="exclamdown" unicode="&#xa1;" horiz-adv-x="163" 
d="M88.4102 14.1611q37.3389 0 37.3389 184.325l-13.6611 326.18l4.55371 88.3408q0 18.6875 -30.9639 22.085q-29.1426 0 -29.1426 -107.027l15.4824 -305.794v-39.9229q0 -72.2012 -15.4824 -144.402q0 -18.6875 31.875 -23.7842zM93.874 720.034
q17.3037 0 20.0361 29.7305q0 11.042 -22.7676 21.2354q-28.2324 -6.79492 -28.2324 -26.332q0 -22.085 30.9639 -24.6338z" />
    <glyph glyph-name="cent" unicode="&#xa2;" horiz-adv-x="360" 
d="M216 323q31 -28 64 -71v-21l-34 -6q-13 0 -29 32l1 -23q-2 -95 -2 -173h14q31 0 94 54h7v3q31 -9 31 -35q-22 -42 -94 -72l-48 -13h-3q-16 -140 -57 -58q-2 17 -3 64q-100 23 -131 135l-6 54l19 130q46 72 116 42l2 54q69 97 59 -96zM79 205v-15q0 -86 78 -116
q-1 92 -2 244l-32 -2q-39 0 -44 -111z" />
    <glyph glyph-name="sterling" unicode="&#xa3;" horiz-adv-x="461" 
d="M71 546h26q6 38 12.5 99.5t6.5 123.5v13q-8 45 158 60.5t103 -151.5l-19 -6q-16 0 -28 19v2q65 125 -154 61q0 -65 3 -221h3q154 0 154 -41v-6q0 -10 -26 -26q-60 14 -117 14h-22q-7 -57 -35 -330l-6 -74l281 10q116 -64 -92 -62q-163 -3 -243 -23q-32 12 -32 29
q0 52 45 450h-21q-35 0 -35 34q7 25 38 25z" />
    <glyph glyph-name="currency" unicode="&#xa4;" horiz-adv-x="490" 
d="M427 549l27 -43q-75 -53 -122 -97q1 -39 -11 -89l-2 -6q-10 -38 -24 -64q42 -48 93 -62q19 -21 20 -38q-4 -12 -40 -19l-6 2q-61 16 -114 57q-17 -13 -37 -16l-27 3q-2 1 -29 18q-16 -32 -72 -84q-41 26 -36 42l83 78q-20 88 -10 129l1 3q6 25 16 46q-91 104 -89 112
q27 22 68 12q22 -6 56 -61q35 44 90 56l19 -2q10 -7 35 -52zM176 351l-2 -22q-3 -95 44 -100q32 26 43 111l1 6q8 107 -20 120q-53 -16 -66 -115z" />
    <glyph glyph-name="yen" unicode="&#xa5;" horiz-adv-x="505" 
d="M240 232h12l3 54l-97 4q-26 0 -31 34q0 22 35 25q53 0 95 -1l6 108q-64 79 -208 342l-10 25q0 22 35 28q17 -3 50 -73q69 -90 136 -230l177 294q15 0 28 -28q-88 -150 -161 -345q-3 -63 -7 -123q111 -3 111 -16l4 -22q-10 -25 -33 -25l-84 2q-1 -28 -2 -54
q119 -6 119 -42q0 -23 -29 -32q-14 7 -93 12q-3 -104 -1 -184l-19 -14q-35 12 -35 29l9 172h-3l-79 -3h-15q-38 0 -38 32q0 28 34 28z" />
    <glyph glyph-name="brokenbar" unicode="&#xa6;" horiz-adv-x="166" 
d="M119 404l-15 -328v-36l7 -18h3q-11 -42 -32 -42q-38 0 -38 54v53l16 314zM57 443l10 120l-7 142q12 22 28 22q35 0 35 -98l3 -68l-3 -118h-66z" />
    <glyph glyph-name="section" unicode="&#xa7;" horiz-adv-x="360" 
d="M185 537h2l57 11q50 -6 50 -50q0 -63 -74 -134l3 1q51 -7 51 -51q0 -66 -80 -139q-37 -27 -75 -27q-70 14 -70 55q12 26 36 26l31 -22h15q73 29 73 92l-3 2q-26 -9 -56 -9q-74 0 -92 98q0 63 53 109q-23 26 -32 74q0 86 97 142l35 7q52 0 63 -44q0 -21 -29 -26h-9
q-11 9 -22 9h-9q-67 -29 -67 -85v-9q6 -32 32 -32h7zM137 391h16q65 26 71 78q-2 0 -32 8q-8 -1 -17 -2q-54 -25 -61 -68z" />
    <glyph glyph-name="dieresis" unicode="&#xa8;" horiz-adv-x="426" 
d="M172 740q21 0 25 -35q-6 -31 -31 -31q-27 0 -31 34q12 32 37 32zM260 740q25 -9 25 -32q0 -21 -34 -28q-20 0 -31 28q0 30 40 32z" />
    <glyph glyph-name="copyright" unicode="&#xa9;" horiz-adv-x="679" 
d="M308 612q128 -22 191 -73q82 -88 82 -192q0 -172 -169 -262q-57 -15 -92 -15q-164 0 -248 170q-13 43 -13 79q0 176 186 255q33 0 40 29zM346 521l-20 3q-145 0 -198 -133q-9 -34 -9 -66v-15q0 -127 160 -177l41 -3q150 0 196 164q6 14 6 60q0 141 -148 182h-3zM310 473
q58 -7 58 -47q2 -26 6 -26q-6 -27 -31 -27q-20 0 -35 31h-7q-40 -78 -40 -130q0 -34 15 -34q27 4 95 51h6q17 0 29 -28q0 -34 -111 -79l-22 -3q-66 11 -66 66l-4 18v9q0 124 86 193z" />
    <glyph glyph-name="ordfeminine" unicode="&#xaa;" horiz-adv-x="233" 
d="M133.264 789.591l40.9199 -6.10742v1.83203q15.0039 0 23.1885 -21.375l-2.0459 -38.4756v-26.8711q0 -59.2402 19.0957 -88.5547q-5.45605 -15.2676 -21.1416 -15.2676q-22.5068 0 -32.7363 46.4141l-1.36426 9.77148h-6.13867q-24.5518 -51.9102 -69.5645 -69.0107
l-10.2295 -2.44238q-58.6533 14.6572 -58.6533 76.9502v3.66406q0 77.5615 83.8867 123.365zM55.5146 648.515q4.77441 -30.5361 21.8242 -30.5361h2.0459q23.8701 0 75.0205 128.861v1.83203l-19.7783 3.66504h-1.36328q-54.5605 0 -77.749 -84.2793v-19.543z" />
    <glyph glyph-name="guillemotleft" unicode="&#xab;" horiz-adv-x="468" 
d="M225 392q26 0 31 -34q0 -12 -107 -126v-3q89 -40 89 -60v-3q-5 -28 -29 -28q-128 50 -142 91q0 17 89 91q44 59 69 72zM368 405q26 0 32 -35q0 -12 -108 -126v-4q89 -40 89 -59v-3q-4 -29 -29 -29q-128 50 -141 91q0 17 88 92q44 58 69 73z" />
    <glyph glyph-name="logicalnot" unicode="&#xac;" horiz-adv-x="407" 
d="M376 347q-3 -31 -36 -31h-1q-19 21 -13 135q0 11 -21 12h-11q-17 3 -68 -11q-168 -5 -169 -18q-11 12 -11 27q2 29 24 36q139 7 249 20q54 -1 54 -29q-2 -120 3 -141z" />
    <glyph glyph-name="uni00AD" unicode="&#xad;" horiz-adv-x="307" 
d="M100 292q147 0 147 -32l4 -10q-8 -28 -25 -28q-66 9 -123 9l-19 -2q-22 0 -28 34q0 24 44 29z" />
    <glyph glyph-name="registered" unicode="&#xae;" horiz-adv-x="486" 
d="M312 634q132 0 171 -34q68 -50 68 -142v-15q0 -176 -166 -317q-75 -51 -140 -51h-10q-147 0 -189 122l-10 72v16q0 160 131 291q81 58 145 58zM77 234q63 -113 143 -113h19q122 -6 194 117q-20 5 -60 43q-29 20 -65 75q-9 11 -15 11l-50 -10q1 -58 14 -110q-1 -5 -19 -9
l-8 1q-21 0 -21 17q-21 146 -6 206q-14 4 -13 9q1 2 16 7q3 12 27 11l11 -2q43 36 111 25q56 -13 70 -55v-12q-9 -33 -95 -66q16 -13 70 -82l45 -37q14 27 25 60q20 54 20 104l1 82q-46 79 -119 79h-30l-20 -3l-19 3q-83 4 -173 -120q-60 -86 -53 -231zM248 467
q-8 -58 -7 -74h7q77 -5 126 41l6 11l1 3q5 24 -32 37h-12q-26 1 -89 -18z" />
    <glyph glyph-name="macron" unicode="&#xaf;" horiz-adv-x="355" 
d="M62 733q241 7 241 -25l4 -9q-8 -29 -26 -29q-65 10 -215 3l-20 -3q-22 0 -28 34q0 25 44 29z" />
    <glyph glyph-name="degree" unicode="&#xb0;" horiz-adv-x="369" 
d="M165 905q85 -38 85 -119q-20 -126 -104 -126q-64 0 -76 91q0 108 91 154h4zM130 767v-25q0 -18 13 -22h15q18 0 32 59v17q0 28 -25 44q-35 -34 -35 -73z" />
    <glyph glyph-name="plusminus" unicode="&#xb1;" horiz-adv-x="538" 
d="M151 157h95v1v89l-4 94l-144 -16q-22 12 -22 29q0 34 113 40q50 4 50 10l-3 104q0 75 35 75h3q26 -7 26 -31v-144l93 2h9q52 0 52 -31v-3q0 -20 -26 -29l-3 3h-38l-85 -3l4 -100v-86q-1 -3 -1 -4q111 -5 111 -40v-6q0 -10 -25 -26q-62 13 -117 13h-126q-35 0 -35 34
q7 25 38 25z" />
    <glyph glyph-name="twosuperior" unicode="&#xb2;" horiz-adv-x="269" 
d="M166.168 671.236q32.7256 0 32.7256 -38.9307q0 -33.3691 -103.385 -146.686q-18.5938 -21.8984 -18.5938 -27.46h2.23145q98.1777 5.56152 138.342 5.56152h5.20605q12.6445 0 20.8262 -6.60352v-4.51953q0 -10.0801 -42.3955 -10.0801
q-89.9961 -2.08496 -150.242 -8.3418q-23.0566 3.47559 -23.0566 9.73242q0 23.9844 104.872 140.081q21.5693 27.46 21.5693 49.3584v4.51855q0 11.8184 -9.66895 11.8184q-34.2139 0 -72.8906 -32.6738l-13.3877 -2.43359q-12.6445 0 -21.5693 6.60449v1.39062
q0 14.5986 52.0645 37.1924q35.7012 11.4707 77.3525 11.4707z" />
    <glyph glyph-name="threesuperior" unicode="&#xb3;" horiz-adv-x="303" 
d="M158.755 722.248q65.5146 0 94.8027 -50.7578v-11.2793q0 -35.4492 -77.8457 -89.4277v-2.01465q32.3711 0 60.8896 -28.1982l5.39453 -17.3223q0 -56.7988 -100.197 -91.8457q-16.1855 -4.83398 -36.9961 -4.83398q-60.1191 4.83398 -60.1191 20.1426
q3.85352 5.63867 16.957 10.4727h13.873q16.957 -6.44531 24.6641 -6.44531h12.332q40.8496 0 80.1582 54.3828l2.3125 7.25098v15.3076q0 17.7246 -33.9131 17.7246q-20.8105 0 -72.4502 -7.25098q-20.04 4.83398 -20.04 12.8906q0 4.83398 58.5771 26.5869
q80.1582 50.3535 80.1582 79.7607v7.25098q-6.93652 33.0322 -48.5576 33.0322h-4.62402q-30.0596 0 -53.9531 -17.7246l4.625 -10.0713q-8.47852 -9.66797 -23.8936 -9.66797q-26.9766 4.83398 -26.9766 19.7393q0 27.3926 97.8857 42.2979h6.93652z" />
    <glyph glyph-name="acute" unicode="&#xb4;" horiz-adv-x="391" 
d="M265 779q31 -8 31 -31q0 -10 -120 -116q-52 -51 -60 -51q-31 8 -31 35q151 163 180 163z" />
    <glyph glyph-name="mu" unicode="&#xb5;" horiz-adv-x="331" 
d="M246 373q31 0 31 -69q0 -80 13 -194q30 -15 30 -34v-4q0 -25 -34 -32q-21 0 -38 42q0 -7 -41 -43q-45 -39 -103 4v-3l-6 -89h3q-12 -41 -32 -41q-38 0 -25 124v53l4 79q-5 74 -5 154v20q0 5 1 9v4q1 2 3 5q3 9 11 13q7 4 15 4q3 0 7 -1q20 -3 23 -37v-6q4 -22 4 -54
l4 -69l-3 -58q14 -62 58 -56q55 36 58 97v28l-13 91v9q0 54 35 54z" />
    <glyph glyph-name="paragraph" unicode="&#xb6;" horiz-adv-x="340" 
d="M393 764q20 -29 23 -195l-23 -486v-34l7 -19h2q-11 -41 -30 -41q-38 0 -38 53v53l21 476l-6 143q-17 3 -30 7q-53 -231 -53 -517l3 -122q18 -11 18 -32q0 -55 -40 -75q-38 0 -38 126l-3 113l6 186h-6q-48 -41 -88 -41q-68 0 -79 113q0 127 110 265q42 38 85 38
q115 6 159 -11z" />
    <glyph glyph-name="periodcentered" unicode="&#xb7;" 
d="M126 299q55 0 80 -80q0 -58 -88 -107q-67 0 -80 97q38 90 88 90z" />
    <glyph glyph-name="cedilla" unicode="&#xb8;" horiz-adv-x="352" 
d="M199 -47q31 9 43 9q48 0 55 -54v-3q0 -73 -68 -137q-24 -16 -50 -16q-64 13 -64 42q0 9 21 17q4 0 33 -22h17q33 0 64 83l4 33q-3 20 -9 20h-3q-16 0 -54 -23q-33 0 -34 93q32 51 45 -42z" />
    <glyph glyph-name="onesuperior" unicode="&#xb9;" horiz-adv-x="166" 
d="M78.1426 727.017q27.499 0 27.499 -41.1162l2.35742 -28.5293l-17.2861 -203.484v-15.1045l5.5 -7.55176h2.35742q-8.64258 -17.6211 -25.1426 -17.6211q-29.8564 0 -29.8564 22.6553v22.2363l18.0713 199.709l-5.5 59.5771q9.42773 9.22949 22 9.22949z" />
    <glyph glyph-name="ordmasculine" unicode="&#xba;" horiz-adv-x="369" 
d="M165 905q85 -38 85 -119q-20 -126 -104 -126q-64 0 -76 91q0 108 91 154h4zM130 767v-25q0 -18 13 -22h15q18 0 32 59v17q0 28 -25 44q-35 -34 -35 -73z" />
    <glyph glyph-name="guillemotright" unicode="&#xbb;" horiz-adv-x="401" 
d="M73 326q12 0 160 -97q10 -12 10 -28q0 -8 -69 -57q-48 -60 -70 -60q-25 8 -25 28v3q0 15 76 88v7q-107 64 -107 85v4q0 14 25 27zM216 334q12 0 161 -98q9 -12 9 -28q0 -7 -69 -57q-48 -60 -70 -60q-25 9 -25 29v2q0 16 76 89v7q-107 63 -107 84v4q0 14 25 28z" />
    <glyph glyph-name="onequarter" unicode="&#xbc;" horiz-adv-x="553" 
d="M74 727q28 0 28 -39l1 -27l-17 -191v-14l5 -7h3q-9 -17 -25 -17q-30 0 -30 22v20l17 188l-5 57q9 8 23 8zM377 732q36 -19 -68 -210l-197 -330l-45 -94q-11 -20 -42 -6q-28 15 32 126l185 308l23 41q41 76 68 157q11 19 44 8zM461 459q24 -4 24 -14q-13 -55 -13 -100v-8
l2 -87q0 -4 23 -12q0 -9 4 -9q0 -7 -24 -20l4 -13v-47q0 -81 -30 -127q-10 -6 -18 -6q-12 0 -21 11q21 63 21 119v54l-87 34h-17l-15 -2q-19 6 -19 19q49 65 49 149v39q2 16 21 16q21 0 25 -22v-31q0 -65 -35 -137q27 -8 71 -27h5q-5 37 -5 103q0 118 35 118z" />
    <glyph glyph-name="onehalf" unicode="&#xbd;" horiz-adv-x="585" 
d="M79 727q27 0 27 -48l3 -36l-18 -243v-18l4 -9h4q-10 -21 -24 -21q-31 0 -31 27v27l18 239l-5 71q9 11 22 11zM408 701q36 -19 -68 -210l-198 -331l-44 -93q-11 -20 -42 -6q-28 15 32 126l186 308l22 41q41 75 68 157q10 20 44 8zM472 362q39 0 39 -55q0 -47 -124 -204
q-22 -32 -22 -39h2q120 8 168 8h5q15 0 26 -10v-6q0 -14 -52 -14q-108 -3 -180 -11q-29 4 -29 12q0 34 127 196q26 39 26 70v5q0 18 -12 18q-42 0 -88 -47l-16 -2q-16 0 -26 9v1q0 20 63 53q43 16 93 16z" />
    <glyph glyph-name="threequarters" unicode="&#xbe;" horiz-adv-x="676" 
d="M145 723q57 0 83 -63v-14q0 -42 -69 -109v-2q30 0 54 -36l5 -21q0 -69 -88 -112q-14 -6 -32 -6q-53 6 -53 24q4 7 15 13h13q13 -8 21 -8h11q35 0 70 67l2 9v19q0 22 -29 22q-19 0 -65 -9q-16 5 -16 15q0 5 50 32q71 63 71 99v9q-6 41 -43 41h-4q-26 0 -47 -23l4 -11
q-8 -13 -22 -13q-23 6 -23 24q0 34 86 53h6zM483 691q36 -20 -68 -210l-197 -331l-44 -94q-12 -19 -44 -6q-27 16 33 126l185 308l24 42q40 75 66 157q12 19 45 8zM573 432q26 -3 26 -13q-13 -52 -13 -95v-8l3 -83q0 -4 24 -11q0 -8 4 -8q0 -7 -26 -20l3 -11v-45
q0 -78 -31 -122q-10 -5 -19 -5q-13 0 -23 10q23 61 23 114v51l-93 33h-19l-15 -2q-21 5 -21 18q52 61 52 142v38q4 14 24 14q22 0 26 -20v-30q0 -62 -37 -132q29 -7 76 -25h5q-5 36 -5 98q0 112 36 112z" />
    <glyph glyph-name="questiondown" unicode="&#xbf;" horiz-adv-x="311" 
d="M187.853 8.83203q68.2334 0 80.5537 115.965q0 94.1592 -115.618 183.362q-12.3203 20.8145 -12.3203 34.6904v2.97363q0 72.3535 26.5352 180.39q-11.3721 25.7695 -29.3779 25.7695q-35.0645 0 -48.333 -147.682q-4.73828 0 -5.68555 -52.5303
q0 -64.4248 95.7168 -143.717q33.1689 -38.6553 33.1689 -71.3633v-15.8584q0 -53.5215 -26.5352 -53.5215h-3.79102q-72.0244 23.7871 -72.0244 100.105q-16.1104 15.8584 -26.5352 15.8584q-26.5361 0 -26.5361 -33.6992q0 -95.1504 116.566 -140.743h14.2158z
M144.259 717.505q19.9014 0 29.3779 30.7256q-10.4238 28.7432 -29.3779 28.7432h-3.79102q-30.3262 -5.94727 -30.3262 -28.7432q0 -23.7881 34.1172 -30.7256z" />
    <glyph glyph-name="Agrave" unicode="&#xc0;" horiz-adv-x="491" 
d="M314 938q15 0 29 -28l-4 -16q88 -575 123 -876q-9 -28 -32 -28q-34 0 -40 151l-13 79l-54 -3q-53 0 -157 12q-73 -252 -100 -252h-4q-31 9 -31 32q81 198 176 678q40 147 76 238q13 13 31 13zM182 290q56 -14 117 -14h53q11 0 19 10l-72 485h-4q-19 -31 -57 -218z
M256 1051h23q27 0 103 -59q29 -9 29 -24v-11l-14 -8h-33q-44 0 -123 72v22z" />
    <glyph glyph-name="Aacute" unicode="&#xc1;" horiz-adv-x="491" 
d="M317 930q15 0 29 -29l-3 -15q87 -575 122 -876q-10 -28 -31 -28q-35 0 -42 150l-11 79l-55 -3q-52 0 -157 13q-74 -253 -101 -253h-2q-32 9 -32 32q81 198 176 678q41 148 75 239q14 13 32 13zM185 281q55 -13 116 -13h54q11 0 19 9l-73 486h-2q-20 -31 -58 -218z
M365 1132q31 -8 31 -30q0 -11 -120 -117q-51 -51 -59 -51q-32 8 -32 34q152 164 180 164z" />
    <glyph glyph-name="Acircumflex" unicode="&#xc2;" horiz-adv-x="491" 
d="M317 930q15 0 29 -29l-3 -15q87 -575 122 -876q-10 -28 -31 -28q-35 0 -42 150l-11 79l-55 -3q-52 0 -157 13q-74 -253 -101 -253h-2q-32 9 -32 32q81 198 176 678q41 148 75 239q14 13 32 13zM185 281q55 -13 116 -13h54q11 0 19 9l-73 486h-2q-20 -31 -58 -218z
M445 951q1 -26 -33 -33q-12 -1 -134 97h-3q-34 -91 -53 -93h-3q-29 2 -30 27q40 131 80 148q16 1 98 -82q60 -39 78 -64z" />
    <glyph glyph-name="Atilde" unicode="&#xc3;" horiz-adv-x="491" 
d="M317 944q15 0 29 -29l-3 -16q87 -574 122 -875q-10 -29 -31 -29q-35 0 -42 152l-11 79l-55 -4q-52 0 -157 13q-74 -252 -101 -252h-2q-32 8 -32 31q81 198 176 677q41 149 75 240q14 13 32 13zM185 295q55 -13 116 -13h54q11 0 19 10l-73 485h-2q-20 -32 -58 -217z
M451 1075q28 -7 28 -50q-8 -69 -62 -69h-4q-37 6 -142 47l-28 3q-15 -6 -15 -21v-4l2 -4q-10 -34 -40 -34h-4q-27 0 -34 38q41 85 101 85q26 0 154 -51h6q6 0 6 10l-2 22q0 22 34 28z" />
    <glyph glyph-name="Adieresis" unicode="&#xc4;" horiz-adv-x="491" 
d="M317 930q15 0 29 -29l-3 -15q87 -575 122 -876q-10 -28 -31 -28q-35 0 -42 150l-11 79l-55 -3q-52 0 -157 13q-74 -253 -101 -253h-2q-32 9 -32 32q81 198 176 678q41 148 75 239q14 13 32 13zM185 281q55 -13 116 -13h54q11 0 19 9l-73 486h-2q-20 -31 -58 -218z
M268 1001q23 0 25 -34q-6 -32 -31 -32q-26 0 -32 34q12 32 38 32zM356 1001q26 -8 26 -32q0 -21 -36 -28q-18 0 -31 28q0 30 41 32z" />
    <glyph glyph-name="Aring" unicode="&#xc5;" horiz-adv-x="491" 
d="M317 930q15 0 29 -29l-3 -15q87 -575 122 -876q-10 -28 -31 -28q-35 0 -42 150l-11 79l-55 -3q-52 0 -157 13q-74 -253 -101 -253h-2q-32 9 -32 32q81 198 176 678q41 148 75 239q14 13 32 13zM185 281q55 -13 116 -13h54q11 0 19 9l-73 486h-2q-20 -31 -58 -218z
M436 1036q5 -25 -52 -74l-14 -4q-74 -17 -144 47l-12 24q-13 55 61 82q68 16 152 -54zM289 1053l-13 -4l-4 -7l1 -3q42 -32 80 -23l12 3l1 10q-5 20 -77 24z" />
    <glyph glyph-name="AE" unicode="&#xc6;" horiz-adv-x="724" 
d="M345 953h15q223 0 223 -25l4 -13q0 -22 -32 -31l-192 9h-13l54 -349h13q46 0 128 22q20 0 29 -29q0 -39 -148 -53q-12 0 -12 -7l49 -371q79 -51 174 -51h22q24 0 29 -31q0 -25 -51 -29q-61 0 -164 36v-4q-4 -28 -28 -28h-4q-33 0 -33 101l-20 126l-60 -4l-151 13
q-71 -252 -103 -252q-21 0 -33 28q85 218 180 693q32 117 66 211q0 38 58 38zM196 295q60 -13 129 -13h22q23 0 35 7l-72 488h-3q-15 -19 -64 -237l-50 -245h3z" />
    <glyph glyph-name="Ccedilla" unicode="&#xc7;" horiz-adv-x="440" 
d="M215 46q5 -2 10 -5q8 -1 16 -1h13q72 0 117 142q13 12 24 12q25 0 29 -31q-8 -68 -78 -145q-59 -38 -99 -38h-7l-1 -10v-3l4 -70q42 17 60 17q66 0 76 -89v-3q0 -118 -96 -220q-31 -25 -68 -25q-89 22 -89 66q0 14 29 28q6 0 47 -35h22q46 0 88 133l7 53q-5 31 -13 31h-3
q-24 0 -75 -38q-48 0 -48 162v18v1q-78 42 -109 192q-34 205 -34 311v13q0 189 87 309q29 29 67 29l35 -9q0 21 34 27q20 0 29 -34q0 -177 -29 -177l-9 -3q-31 0 -31 63q-13 73 -38 73q-87 -71 -87 -284q21 -332 55 -394q29 -51 62 -66h3z" />
    <glyph glyph-name="Egrave" unicode="&#xc8;" horiz-adv-x="408" 
d="M80 958q25 0 29 -38h-3l3 -10q34 0 189 21q25 -9 25 -31q0 -32 -135 -41l-88 -12v-44q0 -47 38 -381h128q26 0 32 -29q0 -31 -47 -31h-113v-4l-3 -207q0 -74 15 -108l198 13q32 -4 32 -28q0 -32 -70 -32q-180 -10 -180 -19q-36 0 -50 110l-5 76l2 227l-37 413v31
q0 124 37 124h3zM347 998q-2 -33 -25 -37q-11 -2 -135 98q-58 43 -60 51q3 32 29 37q187 -121 191 -149z" />
    <glyph glyph-name="Eacute" unicode="&#xc9;" horiz-adv-x="408" 
d="M80 958q25 0 29 -38h-3l3 -10q34 0 189 21q25 -9 25 -31q0 -32 -135 -41l-88 -12v-44q0 -47 38 -381h128q26 0 32 -29q0 -31 -47 -31h-113v-4l-3 -207q0 -74 15 -108l198 13q32 -4 32 -28q0 -32 -70 -32q-180 -10 -180 -19q-36 0 -50 110l-5 76l2 227l-37 413v31
q0 124 37 124h3zM311 1153q32 -8 32 -32q0 -10 -120 -117q-51 -49 -60 -49q-32 7 -32 34q152 164 180 164z" />
    <glyph glyph-name="Ecircumflex" unicode="&#xca;" horiz-adv-x="408" 
d="M80 958q25 0 29 -38h-3l3 -10q34 0 189 21q25 -9 25 -31q0 -32 -135 -41l-88 -12v-44q0 -47 38 -381h128q26 0 32 -29q0 -31 -47 -31h-113v-4l-3 -207q0 -74 15 -108l198 13q32 -4 32 -28q0 -32 -70 -32q-180 -10 -180 -19q-36 0 -50 110l-5 76l2 227l-37 413v31
q0 124 37 124h3zM379 973q1 -26 -33 -32q-12 0 -129 103h-4q-38 -89 -57 -89l-3 -1q-29 4 -30 28q46 129 88 144q17 0 94 -86q59 -42 74 -67z" />
    <glyph glyph-name="Edieresis" unicode="&#xcb;" horiz-adv-x="408" 
d="M80 958q25 0 29 -38h-3l3 -10q34 0 189 21q25 -9 25 -31q0 -32 -135 -41l-88 -12v-44q0 -47 38 -381h128q26 0 32 -29q0 -31 -47 -31h-113v-4l-3 -207q0 -74 15 -108l198 13q32 -4 32 -28q0 -32 -70 -32q-180 -10 -180 -19q-36 0 -50 110l-5 76l2 227l-37 413v31
q0 124 37 124h3zM148 1030q21 0 24 -35q-6 -31 -31 -31q-26 0 -31 34q11 32 38 32zM235 1030q26 -9 26 -32q0 -22 -35 -28q-19 0 -32 28q0 31 41 32z" />
    <glyph glyph-name="Igrave" unicode="&#xcc;" horiz-adv-x="382" 
d="M189 939h3q79 -3 79 -22v-20q-7 -15 -25 -21l-44 3h-22v-3q14 -803 44 -803l107 15q22 -10 22 -28v-3q0 -32 -123 -42q-82 -15 -126 -15q-22 9 -22 29q0 34 75 34v4q-25 163 -37 806h-4l-91 -16q-25 11 -25 34q0 29 126 41q0 5 63 7zM91 1153q30 -14 89 -101
q47 -33 47 -48q0 -17 -32 -31q-56 24 -135 145v6q10 29 31 29z" />
    <glyph glyph-name="Iacute" unicode="&#xcd;" horiz-adv-x="382" 
d="M189 939h3q79 -3 79 -22v-20q-7 -15 -25 -21l-44 3h-22v-3q14 -803 44 -803l107 15q22 -10 22 -28v-3q0 -32 -123 -42q-82 -15 -126 -15q-22 9 -22 29q0 34 75 34v4q-25 163 -37 806h-4l-91 -16q-25 11 -25 34q0 29 126 41q0 5 63 7zM238 1142q32 -8 32 -31
q0 -10 -119 -117q-51 -50 -60 -50q-32 8 -32 34q152 164 179 164z" />
    <glyph glyph-name="Icircumflex" unicode="&#xce;" horiz-adv-x="382" 
d="M189 939h3q79 -3 79 -22v-20q-7 -15 -25 -21l-44 3h-22v-3q14 -803 44 -803l107 15q22 -10 22 -28v-3q0 -32 -123 -42q-82 -15 -126 -15q-22 9 -22 29q0 34 75 34v4q-25 163 -37 806h-4l-91 -16q-25 11 -25 34q0 29 126 41q0 5 63 7zM329 954q-6 -26 -40 -24
q-12 2 -102 130l-3 1q-58 -78 -77 -75l-3 1q-28 9 -22 34q75 116 118 120q16 -3 72 -104q47 -55 57 -83z" />
    <glyph glyph-name="Idieresis" unicode="&#xcf;" horiz-adv-x="382" 
d="M189 939h3q79 -3 79 -22v-20q-7 -15 -25 -21l-44 3h-22v-3q14 -803 44 -803l107 15q22 -10 22 -28v-3q0 -32 -123 -42q-82 -15 -126 -15q-22 9 -22 29q0 34 75 34v4q-25 163 -37 806h-4l-91 -16q-25 11 -25 34q0 29 126 41q0 5 63 7zM94 1042q23 0 26 -35q-6 -31 -32 -31
q-25 0 -31 35q12 31 37 31zM184 1042q24 -8 24 -31q0 -22 -34 -28q-19 0 -32 28q0 29 42 31z" />
    <glyph glyph-name="Eth" unicode="&#xd0;" horiz-adv-x="509" 
d="M46 443h19v14l9 294q0 45 -23 99q0 23 35 29q21 0 38 -60q163 76 225 -22q58 -33 112 -267l16 -167q0 -286 -205 -372l-50 -6h-3q-23 0 -66 15v-9l3 -19q0 -14 -29 -28q-38 0 -38 82q-17 244 -22 356q-9 1 -18 1l-18 -3q-23 0 -29 35q0 23 44 28zM124 461l1 -22
q69 -6 69 -28l3 -10q-7 -28 -25 -28q-22 4 -44 6l12 -249q23 -86 72 -86h26q54 0 119 82q57 91 57 215v53q0 200 -82 337q-49 57 -88 57h-38q-64 0 -73 -79z" />
    <glyph glyph-name="Ntilde" unicode="&#xd1;" horiz-adv-x="435" 
d="M123 923q27 0 41 -141q73 -419 151 -633h6q29 423 29 667v10q0 32 -6 32q10 34 35 34q31 0 31 -62v-23q-20 -812 -57 -812l-16 -7q-28 0 -60 101q-53 122 -116 407q-17 97 -25 97v-6l3 -224v-329v-50q0 -25 -29 -25q-32 0 -32 49v32q0 53 1 316l-3 256q0 309 28 309z
M378 1086q29 -7 29 -49q-9 -70 -63 -70h-4q-37 6 -142 47l-28 3q-16 -6 -16 -22v-2l3 -4q-10 -34 -41 -34h-3q-27 0 -35 38q43 84 102 84q26 0 154 -50h6q6 0 6 10l-2 21q0 22 34 28z" />
    <glyph glyph-name="Ograve" unicode="&#xd2;" horiz-adv-x="427" 
d="M160 854q133 0 215 -375q12 -78 16 -160q0 -243 -129 -328q-51 -19 -79 -19q-107 0 -143 170q-15 65 -15 151v16q0 233 79 497v10l-3 3q11 35 59 35zM164 795q-79 -230 -79 -486v-9q0 -221 72 -261l26 -7h9q89 0 126 158q10 40 10 93v58q0 242 -126 431q-24 23 -38 23z
M154 1034q30 -14 88 -102q48 -33 48 -46q0 -18 -32 -32q-56 23 -136 145v6q10 29 32 29z" />
    <glyph glyph-name="Oacute" unicode="&#xd3;" horiz-adv-x="424" 
d="M157 854q134 0 216 -375q11 -78 15 -160q0 -243 -129 -328q-51 -19 -79 -19q-106 0 -141 170q-17 65 -17 151v16q0 233 80 497v10l-4 3q11 35 59 35zM161 795q-79 -230 -79 -486v-9q0 -221 73 -261l25 -7h10q88 0 125 158q10 40 10 93v58q0 242 -126 431q-24 23 -38 23z
M206 1031q32 -8 32 -31q0 -10 -120 -117q-51 -50 -60 -50q-31 8 -31 35q151 163 179 163z" />
    <glyph glyph-name="Ocircumflex" unicode="&#xd4;" horiz-adv-x="424" 
d="M157 854q134 0 216 -375q11 -78 15 -160q0 -243 -129 -328q-51 -19 -79 -19q-106 0 -141 170q-17 65 -17 151v16q0 233 80 497v10l-4 3q11 35 59 35zM161 795q-79 -230 -79 -486v-9q0 -221 73 -261l25 -7h10q88 0 125 158q10 40 10 93v58q0 242 -126 431q-24 23 -38 23z
M22 882q1 11 108 154q13 8 29 6q7 0 52 -73q57 -50 55 -73q-10 -24 -30 -22h-3q-14 1 -83 81l-6 1q-71 -104 -93 -102h-2q-16 1 -27 28z" />
    <glyph glyph-name="Otilde" unicode="&#xd5;" horiz-adv-x="440" 
d="M181 877q131 0 213 -376q14 -77 16 -160q0 -243 -129 -328q-51 -18 -79 -18q-107 0 -141 170q-16 64 -16 151v16q0 233 78 498v9l-2 3q9 35 60 35zM184 816q-79 -229 -79 -484v-10q0 -219 72 -261l25 -7h10q89 0 126 158q9 41 9 95v56q0 244 -126 432q-24 21 -37 21z
M339 1008q28 -8 28 -50q-9 -70 -63 -70h-3q-36 7 -142 47l-29 4q-15 -7 -15 -22v-4l3 -2q-11 -35 -41 -35h-2q-27 0 -35 37q41 85 100 85q26 0 155 -49h6q6 0 6 9l-3 22q0 22 35 28z" />
    <glyph glyph-name="Odieresis" unicode="&#xd6;" horiz-adv-x="424" 
d="M157 854q134 0 216 -375q11 -78 15 -160q0 -243 -129 -328q-51 -19 -79 -19q-106 0 -141 170q-17 65 -17 151v16q0 233 80 497v10l-4 3q11 35 59 35zM161 795q-79 -230 -79 -486v-9q0 -221 73 -261l25 -7h10q88 0 125 158q10 40 10 93v58q0 242 -126 431q-24 23 -38 23z
M111 976q21 0 25 -35q-6 -31 -32 -31t-31 34q12 32 38 32zM199 976q25 -9 25 -32q0 -22 -34 -28q-20 0 -33 28q0 30 42 32z" />
    <glyph glyph-name="multiply" unicode="&#xd7;" horiz-adv-x="286" 
d="M202 456q28 -5 28 -29q-75 -147 -75 -220q42 -69 84 -69q14 -14 17 -28q0 -12 -19 -26h-4q-45 0 -87 41h-4q-6 0 -22 -111q-13 -12 -32 -12q-24 13 -24 29l24 179q-75 131 -75 138q11 26 35 26q17 0 60 -75q5 2 34 87q37 70 60 70z" />
    <glyph glyph-name="Oslash" unicode="&#xd8;" horiz-adv-x="424" 
d="M420 805q32 -18 -76 -214q15 -51 29 -112q12 -78 15 -160q0 -243 -129 -328q-50 -19 -78 -19q-96 0 -134 136l-7 -11l-64 -124q-15 -24 -47 -12q-27 16 57 161l44 70q-7 46 -7 101v16q0 233 79 497v10l-3 3q10 35 59 35q92 0 160 -183q29 59 54 118q14 25 48 16zM155 39
l26 -7h9q88 0 126 158q9 40 9 93v58q0 95 -20 183l-215 -347q15 -111 65 -138zM161 795q-78 -230 -78 -486v-9v-23l156 253l32 54q5 10 11 20q-30 89 -83 168q-24 23 -38 23z" />
    <glyph glyph-name="Ugrave" unicode="&#xd9;" horiz-adv-x="466" 
d="M318 967q41 0 41 -220q6 -44 6 -230l-3 -182q23 -254 60 -300q29 -20 29 -31q-6 -24 -23 -32h-12q-50 0 -82 132q-6 -2 -34 -82q-36 -50 -73 -50q-127 0 -151 337l-51 592q10 22 28 22q35 0 35 -94l60 -649q32 -148 79 -148q55 15 73 312q-17 263 -17 475v117q0 26 35 31
zM97 1105q29 -14 88 -101q47 -33 47 -46q0 -18 -31 -33q-56 24 -135 146v5q10 29 31 29z" />
    <glyph glyph-name="Uacute" unicode="&#xda;" horiz-adv-x="466" 
d="M318 967q41 0 41 -220q6 -44 6 -230l-3 -182q23 -254 60 -300q29 -20 29 -31q-6 -24 -23 -32h-12q-50 0 -82 132q-6 -2 -34 -82q-36 -50 -73 -50q-127 0 -151 337l-51 592q10 22 28 22q35 0 35 -94l60 -649q32 -148 79 -148q55 15 73 312q-17 263 -17 475v117q0 26 35 31
zM281 1160q31 -8 31 -31q0 -11 -119 -117q-52 -51 -61 -51q-30 8 -30 35q151 164 179 164z" />
    <glyph glyph-name="Ucircumflex" unicode="&#xdb;" horiz-adv-x="466" 
d="M318 967q41 0 41 -220q6 -44 6 -230l-3 -182q23 -254 60 -300q29 -20 29 -31q-6 -24 -23 -32h-12q-50 0 -82 132q-6 -2 -34 -82q-36 -50 -73 -50q-127 0 -151 337l-51 592q10 22 28 22q35 0 35 -94l60 -649q32 -148 79 -148q55 15 73 312q-17 263 -17 475v117q0 26 35 31
zM275 991q-1 -27 -37 -29q-10 1 -116 118l-2 1q-48 -84 -68 -83l-3 1q-27 6 -26 31q62 123 104 132q17 -1 83 -96q54 -49 65 -75z" />
    <glyph glyph-name="Udieresis" unicode="&#xdc;" horiz-adv-x="466" 
d="M318 967q41 0 41 -220q6 -44 6 -230l-3 -182q23 -254 60 -300q29 -20 29 -31q-6 -24 -23 -32h-12q-50 0 -82 132q-6 -2 -34 -82q-36 -50 -73 -50q-127 0 -151 337l-51 592q10 22 28 22q35 0 35 -94l60 -649q32 -148 79 -148q55 15 73 312q-17 263 -17 475v117q0 26 35 31
zM128 1009q22 0 25 -34q-6 -32 -32 -32t-31 34q13 32 38 32zM216 1009q25 -8 25 -32q0 -21 -35 -28q-18 0 -31 28q0 30 41 32z" />
    <glyph glyph-name="Yacute" unicode="&#xdd;" horiz-adv-x="379" 
d="M367 937q15 0 28 -28q-57 -232 -80 -488t-65 -445l-19 -13q-35 11 -35 29l59 393q-63 78 -97 174q-43 118 -160 306l-9 24q0 23 34 29q17 -3 51 -73l173 -340l11 -27q63 507 109 459zM238 1142q32 -8 32 -31q0 -10 -119 -117q-51 -50 -60 -50q-32 8 -32 34
q152 164 179 164z" />
    <glyph glyph-name="Thorn" unicode="&#xde;" horiz-adv-x="326" 
d="M49 759q32 -6 32 -29l-5 -57l27 -142l3 -3h3q24 25 63 32q110 -32 110 -161v-26q-5 -152 -94 -189l-26 -2h-9l-3 2l-10 -2l6 -154q0 -17 -20 -25h-12q-32 0 -37 207q-5 41 -28 79v9l9 15l-6 64l3 34l-40 256q0 92 34 92zM118 409q0 -165 35 -165l3 -3h19q51 39 51 142
q0 81 -44 114h-23q-41 -33 -41 -88z" />
    <glyph glyph-name="germandbls" unicode="&#xdf;" horiz-adv-x="491" 
d="M68 894q7 0 27 -26h5q36 19 68 19h10q116 0 177 -176q9 -40 9 -66q0 -91 -69 -146v-5q160 -161 160 -302q-26 -164 -145 -164q-69 0 -97 84l-13 70q0 97 66 113q27 0 47 -40q0 -20 -28 -35l-3 3h-16l-2 -16v-44q0 -54 34 -76h21q76 22 76 101v4q0 120 -135 254
q-13 15 -76 38l-2 15v4q0 31 65 38q57 30 57 78v48q0 93 -98 157l-22 4h-22q-24 0 -59 -25q21 -614 35 -817q-6 -27 -29 -27q-34 0 -34 72h-4l4 3l-38 832q9 28 31 28z" />
    <glyph glyph-name="agrave" unicode="&#xe0;" horiz-adv-x="322" 
d="M191 335l60 -10v3q22 0 34 -35l-3 -63v-44q0 -97 28 -145q-8 -25 -31 -25q-33 0 -48 76l-2 16h-9q-36 -85 -102 -113l-15 -4q-86 24 -86 126v6q0 127 123 202zM77 104q7 -50 32 -50h3q35 0 110 211v3l-29 6h-2q-80 0 -114 -138v-32zM124 538q30 -13 88 -101
q48 -32 48 -46q0 -18 -31 -32q-57 23 -136 145v6q10 28 31 28z" />
    <glyph glyph-name="aacute" unicode="&#xe1;" horiz-adv-x="322" 
d="M191 335l60 -10v3q22 0 34 -35l-3 -63v-44q0 -97 28 -145q-8 -25 -31 -25q-33 0 -48 76l-2 16h-9q-36 -85 -102 -113l-15 -4q-86 24 -86 126v6q0 127 123 202zM77 104q7 -50 32 -50h3q35 0 110 211v3l-29 6h-2q-80 0 -114 -138v-32zM236 527q31 -8 31 -31
q0 -11 -119 -117q-53 -51 -61 -51q-31 9 -31 35q151 164 180 164z" />
    <glyph glyph-name="acircumflex" unicode="&#xe2;" horiz-adv-x="322" 
d="M191 335l60 -10v3q22 0 34 -35l-3 -63v-44q0 -97 28 -145q-8 -25 -31 -25q-33 0 -48 76l-2 16h-9q-36 -85 -102 -113l-15 -4q-86 24 -86 126v6q0 127 123 202zM77 104q7 -50 32 -50h3q35 0 110 211v3l-29 6h-2q-80 0 -114 -138v-32zM71 408q5 10 146 118q13 6 30 0
q6 -2 30 -85q41 -63 33 -85q-15 -20 -35 -13l-2 1q-14 3 -59 100l-6 2q-95 -80 -115 -73l-4 1q-13 5 -18 34z" />
    <glyph glyph-name="atilde" unicode="&#xe3;" horiz-adv-x="322" 
d="M191 335l60 -10v3q22 0 34 -35l-3 -63v-44q0 -97 28 -145q-8 -25 -31 -25q-33 0 -48 76l-2 16h-9q-36 -85 -102 -113l-15 -4q-86 24 -86 126v6q0 127 123 202zM77 104q7 -50 32 -50h3q35 0 110 211v3l-29 6h-2q-80 0 -114 -138v-32zM313 483q29 -8 29 -50q-9 -69 -64 -69
h-3q-37 6 -142 47l-28 3q-16 -6 -16 -23v-2l4 -4q-12 -34 -42 -34h-2q-27 0 -36 38q43 84 102 84q26 0 154 -50h6q7 0 7 10l-4 22q0 22 35 28z" />
    <glyph glyph-name="adieresis" unicode="&#xe4;" horiz-adv-x="322" 
d="M191 335l60 -10v3q22 0 34 -35l-3 -63v-44q0 -97 28 -145q-8 -25 -31 -25q-33 0 -48 76l-2 16h-9q-36 -85 -102 -113l-15 -4q-86 24 -86 126v6q0 127 123 202zM77 104q7 -50 32 -50h3q35 0 110 211v3l-29 6h-2q-80 0 -114 -138v-32zM136 434q21 0 25 -35q-6 -31 -31 -31
q-27 0 -32 34q13 32 38 32zM224 434q26 -9 26 -32q0 -21 -35 -28q-20 0 -31 28q0 30 40 32z" />
    <glyph glyph-name="aring" unicode="&#xe5;" horiz-adv-x="322" 
d="M191 335l60 -10v3q22 0 34 -35l-3 -63v-44q0 -97 28 -145q-8 -25 -31 -25q-33 0 -48 76l-2 16h-9q-36 -85 -102 -113l-15 -4q-86 24 -86 126v6q0 127 123 202zM77 104q7 -50 32 -50h3q35 0 110 211v3l-29 6h-2q-80 0 -114 -138v-32zM295 421q5 -20 -39 -58l-13 -4
q-59 -13 -114 38l-10 19q-9 44 49 66q54 13 121 -45zM179 435l-10 -2l-3 -6v-3q34 -25 63 -18l10 3v7q-3 17 -60 19z" />
    <glyph glyph-name="ae" unicode="&#xe6;" horiz-adv-x="522" 
d="M230 298q23 0 26 -35v-13h6q39 34 79 34q50 -10 50 -65q-17 -110 -98 -110h-2v-6q15 -20 40 -20h10q29 0 129 64h9q22 -16 22 -32q-28 -50 -142 -88l-28 -4q-17 0 -63 16h-3l3 -18q-11 -29 -31 -29q-38 15 -38 73h-4q-59 -64 -103 -64q-61 0 -72 92q0 115 137 182
q25 0 71 23h2zM79 105q0 -44 13 -44q65 0 98 161h-4q-55 0 -101 -92zM281 175l12 -10q31 0 38 54v3h-3q-29 0 -47 -47z" />
    <glyph glyph-name="ccedilla" unicode="&#xe7;" horiz-adv-x="319" 
d="M187 394q25 0 25 -59l9 -85q0 -22 -34 -29q-21 0 -54 91l-3 4h-7q-39 0 -44 -111v-15q0 -113 73 -133h19q31 0 94 55h7v2q31 -9 31 -35q-22 -40 -94 -72l-12 -3v-6v-2l2 -43q31 9 43 9q48 0 55 -54v-3q0 -73 -68 -137q-24 -16 -50 -16q-64 13 -64 42q0 9 21 17
q4 0 33 -22h17q33 0 64 83l4 33q-3 20 -9 20h-3q-16 0 -54 -23q-33 0 -34 93q-89 5 -128 144l-6 54v6q0 153 92 177h9l31 -3q14 21 35 21z" />
    <glyph glyph-name="egrave" unicode="&#xe8;" horiz-adv-x="317" 
d="M117 357q55 0 76 -101q-27 -113 -108 -113h-3v-3q16 -91 85 -91q53 0 86 91l21 9q23 0 29 -34q0 -62 -98 -117l-48 -9q-85 0 -128 123q-13 49 -13 81v13q0 102 86 148zM79 231v-2l23 -23q15 0 28 41v16q-5 31 -13 31h-6q-17 0 -32 -63zM103 519q28 -14 88 -101
q47 -33 47 -46q0 -18 -32 -32q-56 23 -135 145v6q9 28 32 28z" />
    <glyph glyph-name="eacute" unicode="&#xe9;" horiz-adv-x="322" 
d="M122 357q56 0 76 -101q-26 -113 -107 -113h-4v-3q16 -91 85 -91q53 0 86 91l22 9q22 0 28 -34q0 -62 -97 -117l-48 -9q-86 0 -129 123q-12 49 -12 81v13q0 102 85 148zM85 231v-2l22 -23q15 0 28 41v16q-5 31 -13 31h-6q-15 0 -31 -63zM196 561q33 -8 33 -32
q0 -10 -120 -116q-52 -51 -60 -51q-32 9 -32 35q151 164 179 164z" />
    <glyph glyph-name="ecircumflex" unicode="&#xea;" horiz-adv-x="322" 
d="M122 357q56 0 76 -101q-26 -113 -107 -113h-4v-3q16 -91 85 -91q53 0 86 91l22 9q22 0 28 -34q0 -62 -97 -117l-48 -9q-86 0 -129 123q-12 49 -12 81v13q0 102 85 148zM85 231v-2l22 -23q15 0 28 41v16q-5 31 -13 31h-6q-15 0 -31 -63zM21 386q1 12 112 151q14 7 29 6
q7 0 50 -74q55 -53 53 -76q-10 -23 -31 -21l-4 1q-13 0 -79 83h-6q-75 -100 -96 -98h-3q-15 2 -25 28z" />
    <glyph glyph-name="edieresis" unicode="&#xeb;" horiz-adv-x="322" 
d="M122 357q56 0 76 -101q-26 -113 -107 -113h-4v-3q16 -91 85 -91q53 0 86 91l22 9q22 0 28 -34q0 -62 -97 -117l-48 -9q-86 0 -129 123q-12 49 -12 81v13q0 102 85 148zM85 231v-2l22 -23q15 0 28 41v16q-5 31 -13 31h-6q-15 0 -31 -63zM85 441q23 0 26 -33
q-7 -32 -32 -32q-26 0 -31 34q12 31 37 31zM174 441q25 -8 25 -31q0 -22 -35 -28q-18 0 -32 28q0 30 42 31z" />
    <glyph glyph-name="igrave" unicode="&#xec;" horiz-adv-x="160" 
d="M94 373q34 -5 19 -101q-12 -79 -4 -265q-15 -29 -39 -25q-28 4 -23 99q-2 166 17 278q2 15 30 14zM54 550q29 -14 88 -101q48 -33 48 -48q0 -17 -33 -30q-54 22 -135 144v7q10 28 32 28z" />
    <glyph glyph-name="iacute" unicode="&#xed;" horiz-adv-x="160" 
d="M94 373q34 -5 19 -101q-12 -79 -4 -265q-15 -29 -39 -25q-28 4 -23 99q-2 166 17 278q2 15 30 14zM171 580q31 -8 31 -31q0 -11 -119 -117q-52 -50 -60 -50q-31 8 -31 35q151 163 179 163z" />
    <glyph glyph-name="icircumflex" unicode="&#xee;" horiz-adv-x="160" 
d="M94 373q35 -5 19 -101q-12 -79 -3 -265q-16 -29 -40 -25q-27 4 -22 99q-3 166 16 278q3 15 30 14zM-32 421q2 11 117 148q13 7 29 6q7 -1 48 -76q54 -54 51 -76q-11 -24 -30 -22h-4q-14 3 -78 87l-7 1q-76 -100 -97 -98l-2 1q-16 2 -27 29z" />
    <glyph glyph-name="idieresis" unicode="&#xef;" horiz-adv-x="160" 
d="M94 373q34 -5 19 -101q-12 -79 -4 -265q-15 -29 -39 -25q-28 4 -23 99q-2 166 17 278q2 15 30 14zM46 481q22 0 26 -34q-6 -31 -32 -31q-27 0 -32 34q13 31 38 31zM135 481q24 -9 24 -31q0 -23 -34 -28q-19 0 -31 28q0 31 41 31z" />
    <glyph glyph-name="eth" unicode="&#xf0;" horiz-adv-x="393" 
d="M172 11q-98 28 -124 201l5 67q32 117 189 95l6 -1q35 -10 59 -36l9 -2q-15 93 -53 141q-63 -87 -87 -36l34 69q-52 24 -118 -2q-28 77 91 75q25 -8 47 -17q93 123 65 -35q113 -79 77 -220q-33 -169 -130 -281q-39 -23 -53 -18h-17zM254 163q54 131 -16 150l-15 4
q-77 22 -111 -48l-2 -8q-18 -66 30 -152q22 -33 45 -39q31 -12 69 93z" />
    <glyph glyph-name="ntilde" unicode="&#xf1;" horiz-adv-x="320" 
d="M200 354q101 -8 82 -243l-8 -89q-6 -36 -35 -34q-27 2 -24 36l7 97q14 171 -30 174q-47 4 -68 -178l4 -108q-2 -21 -34 -22q-37 3 -28 106l-24 229q2 23 37 25q21 -1 25 -45l4 -1q45 56 92 53zM300 508q28 -8 28 -50q-9 -69 -63 -69h-3q-37 6 -142 47l-29 3
q-15 -6 -15 -21v-4l2 -3q-11 -35 -40 -35h-3q-27 0 -35 38q41 85 101 85q26 0 155 -50h6q6 0 6 9l-3 23q0 21 35 27z" />
    <glyph glyph-name="ograve" unicode="&#xf2;" horiz-adv-x="260" 
d="M144 345q86 -31 91 -190v-6q-4 -133 -69 -163l-28 -4q-107 26 -107 161v3q0 146 94 195zM90 155v-22q11 -94 58 -94q27 30 27 116v6q-5 107 -34 117q-51 -23 -51 -123zM95 526q30 -15 89 -102q47 -33 47 -47q0 -18 -31 -31q-56 23 -135 144v7q10 29 30 29z" />
    <glyph glyph-name="oacute" unicode="&#xf3;" horiz-adv-x="260" 
d="M144 345q86 -31 91 -190v-6q-4 -133 -69 -163l-28 -4q-107 26 -107 161v3q0 146 94 195zM90 155v-22q11 -94 58 -94q27 30 27 116v6q-5 107 -34 117q-51 -23 -51 -123zM180 513q31 -8 31 -32q0 -10 -120 -116q-51 -51 -60 -51q-31 8 -31 35q151 164 180 164z" />
    <glyph glyph-name="ocircumflex" unicode="&#xf4;" horiz-adv-x="260" 
d="M144 345q86 -31 91 -190v-6q-4 -133 -69 -163l-28 -4q-107 26 -107 161v3q0 146 94 195zM90 155v-22q11 -94 58 -94q27 30 27 116v6q-5 107 -34 117q-51 -23 -51 -123zM267 364q1 -27 -34 -32q-11 0 -127 105l-3 -1q-39 -88 -59 -88h-4q-27 4 -28 28q48 129 90 143
q16 0 91 -87q60 -43 74 -68z" />
    <glyph glyph-name="otilde" unicode="&#xf5;" horiz-adv-x="260" 
d="M144 345q86 -31 91 -190v-6q-4 -133 -69 -163l-28 -4q-107 26 -107 161v3q0 146 94 195zM90 155v-22q11 -94 58 -94q27 30 27 116v6q-5 107 -34 117q-51 -23 -51 -123zM274 455q28 -8 28 -50q-8 -69 -63 -69h-3q-37 6 -142 46l-27 3q-17 -5 -17 -21v-4l3 -3
q-11 -35 -40 -35h-4q-26 0 -34 38q41 85 101 85q27 0 154 -50h6q6 0 6 10l-3 22q0 22 35 28z" />
    <glyph glyph-name="odieresis" unicode="&#xf6;" horiz-adv-x="260" 
d="M144 345q86 -31 91 -190v-6q-4 -133 -69 -163l-28 -4q-107 26 -107 161v3q0 146 94 195zM90 155v-22q11 -94 58 -94q27 30 27 116v6q-5 107 -34 117q-51 -23 -51 -123zM91 431q22 0 25 -35q-5 -31 -31 -31t-32 35q13 31 38 31zM180 431q24 -9 24 -31t-34 -28
q-19 0 -31 28q0 29 41 31z" />
    <glyph glyph-name="divide" unicode="&#xf7;" horiz-adv-x="538" 
d="M240 232q178 0 178 -43q0 -23 -29 -32q-17 9 -142 15l-79 -3h-15q-38 0 -38 32q0 28 34 28zM261 357q32 0 47 -33q0 -23 -52 -45q-38 0 -47 41q22 37 52 37zM251 127q43 -6 43 -33v-5q-8 -33 -43 -33q-42 12 -42 38q12 33 42 33z" />
    <glyph glyph-name="oslash" unicode="&#xf8;" horiz-adv-x="260" 
d="M259 394q24 -11 -39 -115q13 -41 15 -99v-6q-4 -134 -69 -164l-28 -4q-46 12 -72 43l-30 -55q-8 -14 -32 -4q-19 10 25 79l13 20q-11 33 -11 78v3q0 147 94 196l19 3q34 -12 55 -44q16 31 29 64q7 12 31 5zM148 64q27 30 27 116v6q0 12 -1 23l-72 -106q15 -39 46 -39z
M90 180v-22l72 106l3 3q-9 31 -24 36q-51 -24 -51 -123z" />
    <glyph glyph-name="ugrave" unicode="&#xf9;" horiz-adv-x="339" 
d="M256 335q31 0 31 -70q0 -80 12 -194q31 -14 31 -34v-4q0 -25 -34 -31q-22 0 -38 42q-41 -55 -82 -55q-90 3 -114 89q-9 96 -9 204v19q0 35 32 35q24 0 28 -38v-16q-20 -238 63 -227q54 37 57 97v28l-12 91v10q0 54 35 54zM115 534q30 -15 88 -102q48 -33 48 -47
q0 -17 -31 -31q-57 23 -136 145v6q10 29 31 29z" />
    <glyph glyph-name="uacute" unicode="&#xfa;" horiz-adv-x="317" 
d="M233 335q32 0 32 -70q0 -80 11 -194q32 -14 32 -34v-4q0 -25 -34 -31q-22 0 -38 42q-42 -55 -82 -55q-89 3 -114 89q-9 96 -9 204v19q0 35 32 35q23 0 28 -38v-16q-20 -238 63 -227q55 37 57 97v28l-12 91v10q0 54 34 54zM207 572q31 -8 31 -32q0 -10 -119 -116
q-51 -51 -60 -51q-31 9 -31 36q151 163 179 163z" />
    <glyph glyph-name="ucircumflex" unicode="&#xfb;" horiz-adv-x="317" 
d="M233 335q32 0 32 -70q0 -80 11 -194q32 -14 32 -34v-4q0 -25 -34 -31q-22 0 -38 42q-42 -55 -82 -55q-89 3 -114 89q-9 96 -9 204v19q0 35 32 35q23 0 28 -38v-16q-21 -238 63 -227q55 37 57 97v28l-12 91v10q0 54 34 54zM29 400q2 12 128 138q13 6 29 4q7 -2 42 -80
q48 -58 44 -80q-13 -23 -33 -19l-3 1q-14 3 -71 92l-6 1q-83 -92 -105 -87l-4 1q-14 2 -21 29z" />
    <glyph glyph-name="udieresis" unicode="&#xfc;" horiz-adv-x="317" 
d="M233 335q32 0 32 -70q0 -80 11 -194q32 -14 32 -34v-4q0 -25 -34 -31q-22 0 -38 42q-42 -55 -82 -55q-89 3 -114 89q-9 96 -9 204v19q0 35 32 35q23 0 28 -38v-16q-20 -238 63 -227q55 37 57 97v28l-12 91v10q0 54 34 54zM111 431q21 0 25 -35q-6 -31 -32 -31t-31 35
q12 31 38 31zM199 431q25 -9 25 -31t-34 -28q-20 0 -33 28q0 29 42 31z" />
    <glyph glyph-name="yacute" unicode="&#xfd;" horiz-adv-x="265" 
d="M45 350q31 0 31 -94v-61q0 -119 51 -119h3q35 35 35 94v117q0 36 44 50h12q22 -17 22 -28l-18 -145l3 -251v-48q0 -372 -129 -428l-25 -7q-74 0 -126 107l-35 107q9 26 28 26h9q19 0 54 -120q35 -59 66 -59q85 0 101 368v63l-4 104l-44 -10q-93 0 -107 183l-3 129
q9 22 32 22zM216 598q31 -8 31 -31q0 -11 -120 -116q-51 -51 -60 -51q-31 9 -31 35q151 163 180 163z" />
    <glyph glyph-name="thorn" unicode="&#xfe;" horiz-adv-x="391" 
d="M159 569q102 0 174 -161l13 -66q0 -122 -158 -142h-6q-37 0 -67 19h-9l9 -201q-9 -34 -32 -34q-32 0 -32 50l-5 195q-13 170 -13 261v21q-23 256 34 226l13 -36q15 -150 15 -167q32 31 48 31zM121 400q-18 -140 54 -140h16q81 0 94 76v9q0 67 -69 138q-30 25 -54 25
q-32 3 -41 -108z" />
    <glyph glyph-name="ydieresis" unicode="&#xff;" horiz-adv-x="265" 
d="M45 350q31 0 31 -94v-61q0 -119 51 -119h3q35 35 35 94v117q0 36 44 50h12q22 -17 22 -28l-18 -145l3 -251v-48q0 -372 -129 -428l-25 -7q-74 0 -126 107l-35 107q9 26 28 26h9q19 0 54 -120q35 -59 66 -59q85 0 101 368v63l-4 104l-44 -10q-93 0 -107 183l-3 129
q9 22 32 22zM88 436q23 0 26 -36q-6 -30 -32 -30t-32 34q13 32 38 32zM177 436q25 -9 25 -32q0 -22 -35 -28q-19 0 -31 28q0 30 41 32z" />
    <glyph glyph-name="Amacron" unicode="&#x100;" horiz-adv-x="491" 
d="M317 930q15 0 29 -29l-3 -15q87 -575 122 -876q-10 -28 -31 -28q-35 0 -42 150l-11 79l-55 -3q-52 0 -157 13q-74 -253 -101 -253h-2q-32 9 -32 32q81 198 176 678q41 148 75 239q14 13 32 13zM185 281q55 -13 116 -13h54q11 0 19 9l-73 486h-2q-20 -31 -58 -218z
M207 1045q242 8 242 -24l3 -9q-8 -28 -25 -28q-66 10 -216 1l-19 -2q-23 0 -29 34q0 24 44 28z" />
    <glyph glyph-name="Abreve" unicode="&#x102;" horiz-adv-x="491" 
d="M317 930q15 0 29 -29l-3 -15q87 -575 122 -876q-10 -28 -31 -28q-35 0 -42 150l-11 79l-55 -3q-52 0 -157 13q-74 -253 -101 -253h-2q-32 9 -32 32q81 198 176 678q41 148 75 239q14 13 32 13zM185 281q55 -13 116 -13h54q11 0 19 9l-73 486h-2q-20 -31 -58 -218z
M419 1092q-115 -142 -189.5 -87t-74.5 77q8 26 29 26h2q86 -103 133 -47t68 56h4q15 0 28 -25z" />
    <glyph glyph-name="Aogonek" unicode="&#x104;" horiz-adv-x="491" 
d="M317 930q15 0 29 -29l-3 -15q87 -575 122 -876q-10 -28 -31 -28q-7 0 -14 6q-33 -26 -33 -65v-9q5 -32 32 -32h9l70 12q50 -7 -19 -66l-4 4q-26 -10 -56 -10q-73 0 -91 98q31 86 78 97q-11 38 -14 115l-11 79l-55 -3q-52 0 -157 13q-74 -253 -101 -253h-2q-32 9 -32 32
q81 198 176 678q41 148 75 239q14 13 32 13zM185 281q55 -13 116 -13h54q11 0 19 9l-73 486h-2q-20 -31 -58 -218z" />
    <glyph glyph-name="Cacute" unicode="&#x106;" horiz-adv-x="440" 
d="M260 868q20 0 29 -34q0 -177 -29 -177l-9 -3q-31 0 -31 63q-13 73 -38 73q-87 -71 -87 -284q21 -332 55 -394q41 -72 91 -72h13q72 0 117 142q13 12 24 12q25 0 29 -31q-8 -68 -78 -145q-59 -38 -99 -38q-134 0 -176 208q-34 205 -34 311v13q0 189 87 309q29 29 67 29
l35 -9q0 21 34 27zM231 1040q33 -8 33 -31q0 -11 -120 -117q-52 -50 -60 -50q-32 8 -32 35q151 163 179 163z" />
    <glyph glyph-name="Ccircumflex" unicode="&#x108;" horiz-adv-x="440" 
d="M260 868q20 0 29 -34q0 -177 -29 -177l-9 -3q-31 0 -31 63q-13 73 -38 73q-87 -71 -87 -284q21 -332 55 -394q41 -72 91 -72h13q72 0 117 142q13 12 24 12q25 0 29 -31q-8 -68 -78 -145q-59 -38 -99 -38q-134 0 -176 208q-34 205 -34 311v13q0 189 87 309q29 29 67 29
l35 -9q0 21 34 27zM344 968q1 -26 -34 -32q-11 0 -128 103h-4q-38 -89 -57 -89l-4 -1q-28 4 -29 28q47 130 88 144q16 0 93 -85q59 -42 75 -68z" />
    <glyph glyph-name="Cdotaccent" unicode="&#x10a;" horiz-adv-x="440" 
d="M260 868q20 0 29 -34q0 -177 -29 -177l-9 -3q-31 0 -31 63q-13 73 -38 73q-87 -71 -87 -284q21 -332 55 -394q41 -72 91 -72h13q72 0 117 142q13 12 24 12q25 0 29 -31q-8 -68 -78 -145q-59 -38 -99 -38q-134 0 -176 208q-34 205 -34 311v13q0 189 87 309q29 29 67 29
l35 -9q0 21 34 27zM222 1037q25 0 38 -40q0 -28 -41 -52q-32 0 -38 48q17 44 41 44z" />
    <glyph glyph-name="Ccaron" unicode="&#x10c;" horiz-adv-x="440" 
d="M260 868q20 0 29 -34q0 -177 -29 -177l-9 -3q-31 0 -31 63q-13 73 -38 73q-87 -71 -87 -284q21 -332 55 -394q41 -72 91 -72h13q72 0 117 142q13 12 24 12q25 0 29 -31q-8 -68 -78 -145q-59 -38 -99 -38q-134 0 -176 208q-34 205 -34 311v13q0 189 87 309q29 29 67 29
l35 -9q0 21 34 27zM330 1095q0 -12 -98 -161q-12 -10 -29 -10q-6 0 -55 70q-61 47 -61 70q8 24 28 24h4q14 0 88 -76h6q63 108 86 108h2q16 0 29 -25z" />
    <glyph glyph-name="Dcaron" unicode="&#x10e;" horiz-adv-x="491" 
d="M68 879q21 0 38 -60h6q34 26 95 31q177 0 237 -320l15 -167q0 -286 -204 -372l-52 -6h-2q-22 0 -66 15v-9l3 -19q0 -14 -28 -28q-38 0 -38 82q-26 351 -26 431l10 294q0 45 -22 99q0 23 34 29zM106 461l15 -331q25 -86 73 -86h26q54 0 119 82q57 91 57 215v53
q0 200 -82 337q-48 57 -88 57h-38q-64 0 -73 -79zM339 1141q0 -12 -98 -160q-12 -10 -28 -10q-7 0 -56 69q-60 47 -60 70q8 25 28 25h3q15 0 89 -76h6q63 107 85 107h2q16 0 29 -25z" />
    <glyph glyph-name="Emacron" unicode="&#x112;" horiz-adv-x="408" 
d="M80 958q25 0 29 -38h-3l3 -10q34 0 189 21q25 -9 25 -31q0 -32 -135 -41l-88 -12v-44q0 -47 38 -381h128q26 0 32 -29q0 -31 -47 -31h-113v-4l-3 -207q0 -74 15 -108l198 13q32 -4 32 -28q0 -32 -70 -32q-180 -10 -180 -19q-36 0 -50 110l-5 76l2 227l-37 413v31
q0 124 37 124h3zM95 1113q242 7 242 -24l3 -10q-8 -28 -25 -28q-65 10 -216 2l-19 -4q-22 0 -29 35q0 25 44 29z" />
    <glyph glyph-name="Ebreve" unicode="&#x114;" horiz-adv-x="408" 
d="M80 958q25 0 29 -38h-3l3 -10q34 0 189 21q25 -9 25 -31q0 -32 -135 -41l-88 -12v-44q0 -47 38 -381h128q26 0 32 -29q0 -31 -47 -31h-113v-4l-3 -207q0 -74 15 -108l198 13q32 -4 32 -28q0 -32 -70 -32q-180 -10 -180 -19q-36 0 -50 110l-5 76l2 227l-37 413v31
q0 124 37 124h3zM324 1146q-115 -143 -189.5 -88t-74.5 78q8 24 28 24h3q86 -102 133 -46t68 56h4q14 0 28 -24z" />
    <glyph glyph-name="Edotaccent" unicode="&#x116;" horiz-adv-x="408" 
d="M80 958q25 0 29 -38h-3l3 -10q34 0 189 21q25 -9 25 -31q0 -32 -135 -41l-88 -12v-44q0 -47 38 -381h128q26 0 32 -29q0 -31 -47 -31h-113v-4l-3 -207q0 -74 15 -108l198 13q32 -4 32 -28q0 -32 -70 -32q-180 -10 -180 -19q-36 0 -50 110l-5 76l2 227l-37 413v31
q0 124 37 124h3zM205 1211q26 0 38 -39q0 -28 -41 -52q-32 0 -38 47q18 44 41 44z" />
    <glyph glyph-name="Eogonek" unicode="&#x118;" horiz-adv-x="408" 
d="M356 -2h-9q-66 -30 -66 -84v-9q5 -33 31 -33h10l69 13q50 -7 -18 -67l-3 4q-27 -10 -58 -10q-73 0 -91 98q22 60 51 85q-142 -10 -142 -18q-36 0 -50 110l-5 76l2 227l-37 413v31q0 124 37 124h3q25 0 29 -38h-3l3 -10q34 0 189 21q25 -9 25 -31q0 -32 -135 -41l-88 -12
v-44q0 -47 38 -381h128q26 0 32 -29q0 -31 -47 -31h-113v-4l-3 -207q0 -74 15 -108l198 13q32 -4 32 -28q0 -20 -28 -28q2 0 4 -2z" />
    <glyph glyph-name="Ecaron" unicode="&#x11a;" horiz-adv-x="408" 
d="M80 958q25 0 29 -38h-3l3 -10q34 0 189 21q25 -9 25 -31q0 -32 -135 -41l-88 -12v-44q0 -47 38 -381h128q26 0 32 -29q0 -31 -47 -31h-113v-4l-3 -207q0 -74 15 -108l198 13q32 -4 32 -28q0 -32 -70 -32q-180 -10 -180 -19q-36 0 -50 110l-5 76l2 227l-37 413v31
q0 124 37 124h3zM317 1227q0 -12 -97 -161q-13 -9 -28 -9q-8 0 -57 69q-60 48 -60 69q8 25 28 25h3q15 0 88 -75h7q64 107 84 107h4q15 0 28 -25z" />
    <glyph glyph-name="Gcircumflex" unicode="&#x11c;" horiz-adv-x="432" 
d="M217 956q28 -11 28 -32q0 -23 -57 -38q-98 -71 -98 -346q0 -331 117 -473q27 -22 40 -22q70 0 86 209l4 44q-3 47 -11 47q-35 -14 -106 -58l-19 -3q-17 0 -29 29q0 24 69 54q59 38 89 38q57 0 66 -89v-6q0 -256 -111 -318q-30 -2 -30 -6q-145 0 -209 346q-15 104 -15 193
v21q0 302 128 391q44 19 58 19zM347 1063q1 -27 -34 -33q-11 0 -128 102h-3q-38 -88 -58 -89h-3q-28 4 -29 28q47 130 88 144q15 1 93 -86q59 -42 74 -66z" />
    <glyph glyph-name="Gbreve" unicode="&#x11e;" horiz-adv-x="432" 
d="M217 956q28 -11 28 -32q0 -23 -57 -38q-98 -71 -98 -346q0 -331 117 -473q27 -22 40 -22q70 0 86 209l4 44q-3 47 -11 47q-35 -14 -106 -58l-19 -3q-17 0 -29 29q0 24 69 54q59 38 89 38q57 0 66 -89v-6q0 -256 -111 -318q-30 -2 -30 -6q-145 0 -209 346q-15 104 -15 193
v21q0 302 128 391q44 19 58 19zM325 1134q-115 -142 -189.5 -87t-74.5 76q8 26 28 26h3q86 -102 133 -46.5t68 55.5h4q14 0 28 -24z" />
    <glyph glyph-name="Gdotaccent" unicode="&#x120;" horiz-adv-x="432" 
d="M217 956q28 -11 28 -32q0 -23 -57 -38q-98 -71 -98 -346q0 -331 117 -473q27 -22 40 -22q70 0 86 209l4 44q-3 47 -11 47q-35 -14 -106 -58l-19 -3q-17 0 -29 29q0 24 69 54q59 38 89 38q57 0 66 -89v-6q0 -256 -111 -318q-30 -2 -30 -6q-145 0 -209 346q-15 104 -15 193
v21q0 302 128 391q44 19 58 19zM218 1211q26 0 38 -39q0 -28 -42 -52q-31 0 -38 47q18 44 42 44z" />
    <glyph glyph-name="Gcommaaccent" unicode="&#x122;" horiz-adv-x="432" 
d="M217 956q28 -11 28 -32q0 -23 -57 -38q-98 -71 -98 -346q0 -331 117 -473q27 -22 40 -22q70 0 86 209l4 44q-3 47 -11 47q-35 -14 -106 -58l-19 -3q-17 0 -29 29q0 24 69 54q59 38 89 38q57 0 66 -89v-6q0 -256 -111 -318q-30 -2 -30 -6q-145 0 -209 346q-15 104 -15 193
v21q0 302 128 391q44 19 58 19zM223 -86q55 -13 44 -91q-28 -68 -84 -94q-29 11 -29 32q89 56 35 103q0 50 34 50z" />
    <glyph glyph-name="Hcircumflex" unicode="&#x124;" horiz-adv-x="410" 
d="M274 936q29 0 29 -38v-63q0 -131 81 -787v-16q0 -47 -31 -47q-28 4 -28 28v22q0 59 -51 419q-138 -8 -138 -22l3 -4v-2q13 -207 13 -378v-80q0 -46 -35 -46q-23 0 -25 35v75q0 200 -13 387h-6q-25 0 -38 22v16q17 24 38 25q0 76 -51 406q0 25 38 29q25 0 38 -145
q13 -64 34 -271h4l135 13q-32 257 -32 369q0 53 35 53zM290 1089q1 -26 -34 -32q-11 0 -129 103h-3q-39 -89 -57 -89l-3 -1q-29 4 -29 28q45 130 86 144q18 0 95 -86q58 -42 74 -67z" />
    <glyph glyph-name="Itilde" unicode="&#x128;" horiz-adv-x="382" 
d="M189 939h3q79 -3 79 -22v-20q-7 -15 -25 -21l-44 3h-22v-3q14 -803 44 -803l107 15q22 -10 22 -28v-3q0 -32 -123 -42q-82 -15 -126 -15q-22 9 -22 29q0 34 75 34v4q-25 163 -37 806h-4l-91 -16q-25 11 -25 34q0 29 126 41q0 5 63 7zM326 1141q29 -9 29 -51
q-9 -69 -63 -69h-3q-37 7 -142 47l-29 4q-15 -6 -15 -23v-3l3 -3q-12 -35 -41 -35h-3q-27 0 -35 38q42 85 101 85q26 0 154 -50h7q6 0 6 9l-3 22q0 23 34 29z" />
    <glyph glyph-name="Ibreve" unicode="&#x12c;" horiz-adv-x="382" 
d="M189 939h3q79 -3 79 -22v-20q-7 -15 -25 -21l-44 3h-22v-3q14 -803 44 -803l107 15q22 -10 22 -28v-3q0 -32 -123 -42q-82 -15 -126 -15q-22 9 -22 29q0 34 75 34v4q-25 163 -37 806h-4l-91 -16q-25 11 -25 34q0 29 126 41q0 5 63 7zM300 1114q-116 -142 -190.5 -87
t-74.5 77q8 25 29 25h3q85 -101 132 -45.5t69 55.5h3q15 0 29 -25z" />
    <glyph glyph-name="Iogonek" unicode="&#x12e;" horiz-adv-x="382" 
d="M189 939h3q79 -3 79 -22v-20q-7 -15 -25 -21l-44 3h-22v-3q14 -803 44 -803l107 15q22 -10 22 -28v-3q0 -24 -64 -35q-39 -27 -39 -70v-11q6 -30 32 -30h10l68 12q51 -6 -18 -66l-4 3q-27 -9 -56 -9q-74 0 -91 98q14 41 32 64q-76 -13 -119 -13q-22 9 -22 29q0 34 75 34
v4q-25 163 -37 806h-4l-91 -16q-25 11 -25 34q0 29 126 41q0 5 63 7z" />
    <glyph glyph-name="Idotaccent" unicode="&#x130;" horiz-adv-x="382" 
d="M189 939h3q79 -3 79 -22v-20q-7 -15 -25 -21l-44 3h-22v-3q14 -803 44 -803l107 15q22 -10 22 -28v-3q0 -32 -123 -42q-82 -15 -126 -15q-22 9 -22 29q0 34 75 34v4q-25 163 -37 806h-4l-91 -16q-25 11 -25 34q0 29 126 41q0 5 63 7zM157 1125q27 0 38 -39q0 -28 -41 -52
q-32 0 -38 48q19 43 41 43z" />
    <glyph glyph-name="Jcircumflex" unicode="&#x134;" horiz-adv-x="340" 
d="M248 951h4q66 0 66 -31q0 -18 -26 -33l-31 4h-44v-97q0 -392 35 -687v-13q0 -90 -69 -114l-26 -3q-90 0 -119 152l-7 34q9 29 32 29q26 0 38 -85q19 -55 47 -69h21q23 11 23 53v10q-29 300 -29 368q-6 116 -6 311v102h-3l-76 -6h-9q-38 4 -38 31q5 28 38 28h16zM336 1089
q1 -26 -34 -32q-11 0 -128 103h-4q-39 -89 -58 -89l-2 -1q-29 4 -30 28q46 130 87 144q17 0 95 -86q58 -42 74 -67z" />
    <glyph glyph-name="Kcommaaccent" unicode="&#x136;" horiz-adv-x="461" 
d="M337 974q17 -1 26 -30q-55 -90 -127 -327q-28 -67 -79 -136q135 -362 217 -441q40 -30 39 -45q-8 -28 -31 -27h-2q-41 10 -133 153q-64 129 -114 269l-6 1q-13 -226 9 -380q-12 -27 -33 -25h-9q-39 2 -27 452q-27 333 -18 493q2 35 34 33q26 -1 26 -42q-9 -155 12 -386h2
q37 35 96 212q70 228 118 226zM237 -86q55 -13 44 -91q-27 -68 -85 -94q-29 11 -29 32q90 56 35 103q0 50 35 50z" />
    <glyph glyph-name="Lacute" unicode="&#x139;" horiz-adv-x="365" 
d="M57 943q31 0 31 -94q25 -782 48 -782l28 7l113 -3l38 9q15 0 29 -29q-10 -40 -82 -40l-105 2q-12 0 -44 -21h-15q-31 0 -41 233q-12 149 -32 697q8 21 32 21zM256 1362q31 -8 31 -32q0 -11 -119 -116q-51 -51 -59 -51q-33 9 -33 35q153 164 180 164z" />
    <glyph glyph-name="Lcommaaccent" unicode="&#x13b;" horiz-adv-x="365" 
d="M57 943q31 0 31 -94q25 -782 48 -782l28 7l113 -3l38 9q15 0 29 -29q-10 -40 -82 -40l-105 2q-12 0 -44 -21h-15q-31 0 -41 233q-12 149 -32 697q8 21 32 21zM190 -86q55 -13 43 -91q-28 -68 -85 -94q-28 11 -28 32q89 56 35 103q0 50 35 50z" />
    <glyph glyph-name="Ldot" unicode="&#x13f;" horiz-adv-x="365" 
d="M57 943q31 0 31 -94q25 -782 48 -782l28 7l113 -3l38 9q15 0 29 -29q-10 -40 -82 -40l-105 2q-12 0 -44 -21h-15q-31 0 -41 233q-12 149 -32 697q8 21 32 21zM299 388q55 0 80 -81q0 -57 -88 -107q-66 0 -80 99q37 89 88 89z" />
    <glyph glyph-name="Lslash" unicode="&#x141;" horiz-adv-x="365" 
d="M45 345h4q-10 187 -24 577q8 21 32 21q31 0 31 -94q10 -318 20 -506q85 -6 85 -30l3 -10q-8 -28 -25 -28q-31 4 -60 7q13 -215 25 -215l28 7l113 -3l38 9q15 0 29 -29q-10 -40 -82 -40l-105 2q-12 0 -44 -21h-15q-31 0 -41 233q-2 24 -5 59h-3l-20 -2q-22 0 -28 34
q0 24 44 29z" />
    <glyph glyph-name="lslash" unicode="&#x142;" horiz-adv-x="171" 
d="M32 292h12q-1 153 -1 434q-6 33 -3 87v4q5 71 42 69q15 -1 28 -25q-7 -11 -9 -40l-1 -13l6 -394q-2 -68 -2 -125q76 -6 76 -29l4 -10q-9 -28 -26 -28q-28 4 -54 6q1 -131 8 -207l2 -8q-9 -19 -29 -18q-45 3 -36 124q-2 24 -4 112h-9l-20 -2q-21 0 -28 34q0 24 44 29z" />
    <glyph glyph-name="Nacute" unicode="&#x143;" horiz-adv-x="435" 
d="M123 923q27 0 41 -141q73 -419 151 -633h6q29 423 29 667v10q0 32 -6 32q10 34 35 34q31 0 31 -62v-23q-20 -812 -57 -812l-16 -7q-28 0 -60 101q-53 122 -116 407q-17 97 -25 97v-6l3 -224v-329v-50q0 -25 -29 -25q-32 0 -32 49v32q0 53 1 316l-3 256q0 309 28 309z
M292 1362q31 -8 31 -32q0 -11 -120 -116q-51 -51 -59 -51q-32 9 -32 35q152 164 180 164z" />
    <glyph glyph-name="Ncommaaccent" unicode="&#x145;" horiz-adv-x="435" 
d="M123 923q27 0 41 -141q73 -419 151 -633h6q29 423 29 667v10q0 32 -6 32q10 34 35 34q31 0 31 -62v-23q-20 -812 -57 -812l-16 -7q-28 0 -60 101q-53 122 -116 407q-17 97 -25 97v-6l3 -224v-329v-50q0 -25 -29 -25q-32 0 -32 49v32q0 53 1 316l-3 256q0 309 28 309z
M225 -86q55 -13 44 -91q-29 -68 -85 -94q-29 11 -29 32q89 56 35 103q0 50 35 50z" />
    <glyph glyph-name="Ncaron" unicode="&#x147;" horiz-adv-x="435" 
d="M123 923q27 0 41 -141q73 -419 151 -633h6q29 423 29 667v10q0 32 -6 32q10 34 35 34q31 0 31 -62v-23q-20 -812 -57 -812l-16 -7q-28 0 -60 101q-53 122 -116 407q-17 97 -25 97v-6l3 -224v-329v-50q0 -25 -29 -25q-32 0 -32 49v32q0 53 1 316l-3 256q0 309 28 309z
M350 1200q0 -12 -97 -161q-13 -9 -28 -9q-7 0 -58 69q-59 48 -59 69q8 25 29 25h2q15 0 89 -75h6q64 107 85 107h3q15 0 28 -25z" />
    <glyph glyph-name="Omacron" unicode="&#x14c;" horiz-adv-x="424" 
d="M157 854q134 0 216 -375q11 -78 15 -160q0 -243 -129 -328q-51 -19 -79 -19q-106 0 -141 170q-17 65 -17 151v16q0 233 80 497v10l-4 3q11 35 59 35zM161 795q-79 -230 -79 -486v-9q0 -221 73 -261l25 -7h10q88 0 125 158q10 40 10 93v58q0 242 -126 431q-24 23 -38 23z
M108 1015q240 8 240 -23l4 -10q-8 -28 -26 -28q-64 9 -215 2l-19 -4q-22 0 -28 35q0 24 44 28z" />
    <glyph glyph-name="Obreve" unicode="&#x14e;" horiz-adv-x="424" 
d="M157 854q134 0 216 -375q11 -78 15 -160q0 -243 -129 -328q-51 -19 -79 -19q-106 0 -141 170q-17 65 -17 151v16q0 233 80 497v10l-4 3q11 35 59 35zM161 795q-79 -230 -79 -486v-9q0 -221 73 -261l25 -7h10q88 0 125 158q10 40 10 93v58q0 242 -126 431q-24 23 -38 23z
M320 1072q-115 -142 -189.5 -87.5t-74.5 77.5q9 24 29 24h2q87 -101 133.5 -45t68.5 56h3q15 0 28 -25z" />
    <glyph glyph-name="Ohungarumlaut" unicode="&#x150;" horiz-adv-x="424" 
d="M157 854q134 0 216 -375q11 -78 15 -160q0 -243 -129 -328q-51 -19 -79 -19q-106 0 -141 170q-17 65 -17 151v16q0 233 80 497v10l-4 3q11 35 59 35zM161 795q-79 -230 -79 -486v-9q0 -221 73 -261l25 -7h10q88 0 125 158q10 40 10 93v58q0 242 -126 431q-24 23 -38 23z
M240 1105q32 -8 32 -31q0 -10 -73 -73q-51 -50 -60 -50q-31 8 -31 34q104 120 132 120zM354 1083q31 -8 31 -32q0 -11 -74 -73q-50 -50 -59 -50q-32 8 -32 35q105 120 134 120z" />
    <glyph glyph-name="OE" unicode="&#x152;" horiz-adv-x="922" 
d="M357 933q25 0 29 -35h-3l3 -9q34 0 189 21q25 -9 25 -29q0 -31 -136 -39l-87 -11v-42q0 -44 38 -355h129q25 0 31 -26q0 -30 -47 -30h-113v-3l-4 -193q0 -69 16 -101l198 12q32 -4 32 -26q0 -29 -69 -29q-179 -11 -179 -18q-36 0 -51 94q-30 -55 -78 -86q-51 -20 -79 -20
q-108 0 -144 176q-16 66 -16 155v16q0 241 80 513v10l-3 3q11 36 60 36q78 0 139 -134v6v29q0 115 38 115h2zM181 831q-79 -230 -79 -485v-9q0 -221 73 -262l24 -7h10q89 0 126 158q10 41 10 94v57q0 243 -126 431q-25 23 -38 23z" />
    <glyph glyph-name="oe" unicode="&#x153;" horiz-adv-x="486" 
d="M280 369q57 0 75 -101q-25 -114 -107 -114h-2v-3q15 -91 85 -91q52 0 85 91l21 9q23 0 29 -34q0 -61 -97 -117l-48 -9q-62 0 -102 63q-17 -49 -53 -66l-28 -2q-107 26 -107 160v2q0 147 94 196l19 3q36 -13 58 -49q21 36 63 58zM90 167v-21q11 -96 58 -96q27 31 27 117v7
q-5 106 -34 117q-51 -24 -51 -124zM242 242v-3l23 -21q15 0 28 40v16q-4 32 -13 32h-6q-16 0 -32 -64z" />
    <glyph glyph-name="Racute" unicode="&#x154;" horiz-adv-x="418" 
d="M238 960q90 -8 108 -164v-42q-12 -125 -126 -251q22 -47 91 -302l84 -192q-13 -27 -34 -24q-27 1 -84 155q-39 77 -86 284q-12 36 -19 37l-67 -35q2 -219 18 -413q-2 -16 -25 -29l-10 1q-28 2 -28 62q-27 547 -7 767q-20 18 -18 36q1 7 22 27q3 41 35 37l15 -7
q84 58 131 53zM113 837q-11 -219 -7 -341l9 -1q98 46 163 216l7 43l1 9q9 91 -41 137l-16 1q-34 3 -116 -64zM256 1214q31 -8 31 -31q0 -10 -120 -117q-51 -51 -59 -51q-32 9 -32 35q152 164 180 164z" />
    <glyph glyph-name="Rcommaaccent" unicode="&#x156;" horiz-adv-x="418" 
d="M238 960q90 -8 108 -164v-42q-12 -125 -126 -251q22 -47 91 -302l84 -192q-13 -27 -34 -24q-27 1 -84 155q-39 77 -86 284q-12 36 -19 37l-67 -35q2 -219 18 -413q-2 -16 -25 -29l-10 1q-28 2 -28 62q-27 547 -7 767q-20 18 -18 36q1 7 22 27q3 41 35 37l15 -7
q84 58 131 53zM113 837q-11 -219 -7 -341l9 -1q98 46 163 216l7 43l1 9q9 91 -41 137l-16 1q-34 3 -116 -64zM216 -86q55 -13 44 -91q-28 -68 -85 -94q-28 11 -28 32q89 56 35 103q0 50 34 50z" />
    <glyph glyph-name="Rcaron" unicode="&#x158;" horiz-adv-x="418" 
d="M238 960q90 -8 108 -164v-42q-12 -125 -126 -251q22 -47 91 -302l84 -192q-13 -27 -34 -24q-27 1 -84 155q-39 77 -86 284q-12 36 -19 37l-67 -35q2 -219 18 -413q-2 -16 -25 -29l-10 1q-28 2 -28 62q-27 547 -7 767q-20 18 -18 36q1 7 22 27q3 41 35 37l15 -7
q84 58 131 53zM113 837q-11 -219 -7 -341l9 -1q98 46 163 216l7 43l1 9q9 91 -41 137l-16 1q-34 3 -116 -64zM303 1184q0 -11 -98 -161q-12 -10 -28 -10q-7 0 -56 70q-60 47 -60 69q8 26 28 26h3q15 0 89 -76h6q63 107 85 107h2q17 0 29 -25z" />
    <glyph glyph-name="Sacute" unicode="&#x15a;" horiz-adv-x="396" 
d="M209 931q100 0 142 -120q6 -12 6 -35q0 -25 -31 -28q-27 0 -34 66q-34 57 -76 57h-14q-61 0 -72 -120v-3q0 -144 183 -435q57 -111 57 -186q0 -102 -104 -158l-35 -6q-92 0 -176 126q-16 28 -16 60q0 51 35 57h9q22 -15 22 -28l-6 -29v-2q0 -65 107 -120l19 -4h9
q52 0 76 89v12q0 107 -139 315q-100 197 -100 309q0 126 97 176zM265 1187q31 -8 31 -31q0 -10 -120 -117q-52 -50 -60 -50q-31 8 -31 34q151 164 180 164z" />
    <glyph glyph-name="Scircumflex" unicode="&#x15c;" horiz-adv-x="396" 
d="M209 931q100 0 142 -120q6 -12 6 -35q0 -25 -31 -28q-27 0 -34 66q-34 57 -76 57h-14q-61 0 -72 -120v-3q0 -144 183 -435q57 -111 57 -186q0 -102 -104 -158l-35 -6q-92 0 -176 126q-16 28 -16 60q0 51 35 57h9q22 -15 22 -28l-6 -29v-2q0 -65 107 -120l19 -4h9
q52 0 76 89v12q0 107 -139 315q-100 197 -100 309q0 126 97 176zM320 1039q1 -27 -33 -34q-12 0 -129 105h-3q-38 -89 -57 -90h-4q-27 3 -28 27q46 130 87 144q16 1 94 -85q59 -42 73 -67z" />
    <glyph glyph-name="Scedilla" unicode="&#x15e;" horiz-adv-x="396" 
d="M241 -74q31 9 43 9q48 0 55 -54v-3q0 -73 -68 -137q-24 -16 -50 -16q-64 13 -64 42q0 8 21 17q5 0 34 -22h17q32 0 63 83l4 33q-3 20 -9 20h-3q-16 0 -54 -23q-33 0 -34 93q-73 19 -141 121q-16 28 -16 60q0 51 35 57h9q22 -15 22 -28l-6 -29v-2q0 -65 107 -120l19 -4h9
q52 0 76 89v12q0 107 -139 315q-100 197 -100 309q0 126 97 176l41 7q100 0 142 -120q6 -12 6 -35q0 -25 -31 -28q-27 0 -34 66q-34 57 -76 57h-14q-61 0 -72 -120v-3q0 -144 183 -435q57 -111 57 -186q0 -102 -104 -158l-33 -5q5 -14 8 -38z" />
    <glyph glyph-name="Scaron" unicode="&#x160;" horiz-adv-x="396" 
d="M209 931q100 0 142 -120q6 -12 6 -35q0 -25 -31 -28q-27 0 -34 66q-34 57 -76 57h-14q-61 0 -72 -120v-3q0 -144 183 -435q57 -111 57 -186q0 -102 -104 -158l-35 -6q-92 0 -176 126q-16 28 -16 60q0 51 35 57h9q22 -15 22 -28l-6 -29v-2q0 -65 107 -120l19 -4h9
q52 0 76 89v12q0 107 -139 315q-100 197 -100 309q0 126 97 176zM338 1187q0 -12 -98 -160q-12 -10 -27 -10q-8 0 -58 69q-59 48 -59 69q8 25 28 25h3q14 0 88 -75h7q63 107 84 107h4q15 0 28 -25z" />
    <glyph glyph-name="scaron" unicode="&#x161;" horiz-adv-x="260" 
d="M157 380q52 0 63 -44q0 -21 -28 -26h-9q-13 9 -23 9h-9q-66 -28 -66 -84v-9q5 -33 31 -33h9l69 13q51 -6 51 -50q0 -65 -79 -139q-37 -28 -75 -28q-69 15 -69 57q10 25 34 25l31 -22h16q73 28 73 91l-4 4q-25 -9 -56 -9q-74 0 -91 96q0 87 97 142zM250 588
q0 -12 -98 -160q-12 -10 -27 -10q-8 0 -58 69q-59 48 -59 69q8 25 28 25h3q14 0 88 -75h7q63 107 84 107h4q15 0 28 -25z" />
    <glyph glyph-name="Tcommaaccent" unicode="&#x162;" horiz-adv-x="384" 
d="M170 951h50q99 0 133 -35l6 -19v-3q0 -25 -31 -28q-30 25 -120 25h-10v-4q0 -185 4.5 -513t30.5 -363q-10 -28 -34 -28q-42 -45 -51 344t-9 560v4l-89 -6q-25 11 -25 31q0 35 145 35zM199 -86q56 -13 44 -91q-27 -68 -85 -94q-28 11 -28 32q90 56 35 103q0 50 34 50z" />
    <glyph glyph-name="Tcaron" unicode="&#x164;" horiz-adv-x="384" 
d="M170 951h50q99 0 133 -35l6 -19v-3q0 -25 -31 -28q-30 25 -120 25h-10v-4q0 -185 4.5 -513t30.5 -363q-10 -28 -34 -28q-42 -45 -51 344t-9 560v4l-89 -6q-25 11 -25 31q0 35 145 35zM306 1250q0 -12 -98 -161q-13 -9 -28 -9q-8 0 -58 69q-59 47 -59 70q8 25 28 25h3
q15 0 89 -76h6q64 107 85 107h3q15 0 29 -25z" />
    <glyph glyph-name="Utilde" unicode="&#x168;" horiz-adv-x="466" 
d="M318 967q41 0 41 -220q6 -44 6 -230l-3 -182q23 -254 60 -300q29 -20 29 -31q-6 -24 -23 -32h-12q-50 0 -82 132q-6 -2 -34 -82q-36 -50 -73 -50q-127 0 -151 337l-51 592q10 22 28 22q35 0 35 -94l60 -649q32 -148 79 -148q55 15 73 312q-17 263 -17 475v117q0 26 35 31
zM326 1148q28 -7 28 -50q-8 -69 -62 -69h-5q-36 6 -140 46l-29 4q-15 -6 -15 -22v-3l2 -4q-11 -34 -40 -34h-4q-26 0 -34 38q41 85 100 85q27 0 155 -51h5q7 0 7 10l-2 22q0 22 34 28z" />
    <glyph glyph-name="Umacron" unicode="&#x16a;" horiz-adv-x="466" 
d="M318 967q41 0 41 -220q6 -44 6 -230l-3 -182q23 -254 60 -300q29 -20 29 -31q-6 -24 -23 -32h-12q-50 0 -82 132q-6 -2 -34 -82q-36 -50 -73 -50q-127 0 -151 337l-51 592q10 22 28 22q35 0 35 -94l60 -649q32 -148 79 -148q55 15 73 312q-17 263 -17 475v117q0 26 35 31
zM125 1120q241 8 241 -23l4 -10q-9 -28 -25 -28q-66 9 -217 2l-18 -4q-23 0 -29 35q0 24 44 28z" />
    <glyph glyph-name="Ubreve" unicode="&#x16c;" horiz-adv-x="466" 
d="M318 967q41 0 41 -220q6 -44 6 -230l-3 -182q23 -254 60 -300q29 -20 29 -31q-6 -24 -23 -32h-12q-50 0 -82 132q-6 -2 -34 -82q-36 -50 -73 -50q-127 0 -151 337l-51 592q10 22 28 22q35 0 35 -94l60 -649q32 -148 79 -148q55 15 73 312q-17 263 -17 475v117q0 26 35 31
zM365 1281q-115 -142 -189.5 -87t-74.5 77q8 26 28 26h3q86 -103 132.5 -47t69.5 56h3q15 0 28 -25z" />
    <glyph glyph-name="Uring" unicode="&#x16e;" horiz-adv-x="466" 
d="M318 967q41 0 41 -220q6 -44 6 -230l-3 -182q23 -254 60 -300q29 -20 29 -31q-6 -24 -23 -32h-12q-50 0 -82 132q-6 -2 -34 -82q-36 -50 -73 -50q-127 0 -151 337l-51 592q10 22 28 22q35 0 35 -94l60 -649q32 -148 79 -148q55 15 73 312q-17 263 -17 475v117q0 26 35 31
zM243 1253q94 3 95 -97v-6q-2 -68 -69 -99l-28 -3q-106 27 -108 96v3q-6 78 91 102zM193 1156v-21q11 -30 58 -30q28 31 27 51v7q-15 20 -46 29q-49 -23 -39 -36z" />
    <glyph glyph-name="Uhungarumlaut" unicode="&#x170;" horiz-adv-x="466" 
d="M318 967q41 0 41 -220q6 -44 6 -230l-3 -182q23 -254 60 -300q29 -20 29 -31q-6 -24 -23 -32h-12q-50 0 -82 132q-6 -2 -34 -82q-36 -50 -73 -50q-127 0 -151 337l-51 592q10 22 28 22q35 0 35 -94l60 -649q32 -148 79 -148q55 15 73 312q-17 263 -17 475v117q0 26 35 31
zM220 1241q31 -8 31 -32q0 -10 -73 -71q-52 -52 -60 -52q-32 9 -32 35q106 120 134 120zM333 1219q31 -9 31 -32q0 -10 -73 -73q-52 -49 -61 -49q-31 8 -31 34q105 120 134 120z" />
    <glyph glyph-name="Uogonek" unicode="&#x172;" horiz-adv-x="466" 
d="M439 -22h-2q-4 -3 -9 -6h-12q-52 -28 -52 -78v-9q5 -33 31 -33h10l68 13q52 -6 -18 -66l-3 4q-27 -10 -57 -10q-74 0 -91 97q31 88 78 99q-27 30 -48 115q-6 -2 -34 -82q-36 -50 -73 -50q-127 0 -151 337l-51 592q10 22 28 22q35 0 35 -94l60 -649q32 -148 79 -148
q55 15 73 312q-17 263 -17 475v117q0 26 35 31q41 0 41 -220q6 -44 6 -230l-3 -182q23 -254 60 -300q29 -20 29 -31q-5 -16 -14 -25z" />
    <glyph glyph-name="Wcircumflex" unicode="&#x174;" horiz-adv-x="542" 
d="M481 944q24 -8 24 -35l-12 -378l18 -365q0 -180 -38 -180h-6q-49 0 -145 283q0 16 -9 20q-58 -186 -117 -294l-18 -2q-31 0 -38 82q-98 551 -98 809q0 35 32 35q25 0 29 -42q0 -255 88 -742h2q32 50 91 274q0 50 35 50q29 0 35 -67q27 -150 91 -277l4 -3l3 3v51l-19 374
l12 379q0 22 36 25zM371 1003q1 -27 -34 -33q-12 0 -129 105h-4q-38 -90 -56 -90h-4q-29 3 -29 27q46 130 87 144q17 0 94 -85q59 -42 75 -68z" />
    <glyph glyph-name="Ycircumflex" unicode="&#x176;" horiz-adv-x="379" 
d="M367 937q15 0 28 -28q-57 -232 -80 -488t-65 -445l-19 -13q-35 11 -35 29l59 393q-63 78 -97 174q-43 118 -160 306l-9 24q0 23 34 29q17 -3 51 -73q68 -91 173 -340l11 -27q63 507 109 459zM344 1031q1 -27 -34 -33q-11 0 -129 104h-3q-39 -90 -58 -90h-3q-29 3 -29 27
q47 130 87 144q17 1 94 -85q59 -41 75 -67z" />
    <glyph glyph-name="Ydieresis" unicode="&#x178;" horiz-adv-x="379" 
d="M367 937q15 0 28 -28q-57 -232 -80 -488t-65 -445l-19 -13q-35 11 -35 29l59 393q-63 78 -97 174q-43 118 -160 306l-9 24q0 23 34 29q17 -3 51 -73q68 -91 173 -340l11 -27q63 507 109 459zM144 1014q21 0 25 -35q-6 -31 -31 -31q-27 0 -31 34q12 32 37 32zM232 1014
q25 -9 25 -32q0 -21 -34 -28q-20 0 -31 28q0 30 40 32z" />
    <glyph glyph-name="Zacute" unicode="&#x179;" horiz-adv-x="416" 
d="M64 982q46 -23 135 -23l148 3l16 -18v-10q0 -288 -264 -876q133 -12 195 -12h22l75 3q23 -9 23 -28q0 -35 -98 -35h-4l-267 13q-22 7 -22 32q227 527 227 585q37 109 53 286l-38 -3h-40l-13 -3l-13 3h-15q-158 14 -158 51q11 32 38 32zM282 1362q31 -8 31 -32
q0 -11 -120 -116q-51 -51 -60 -51q-30 9 -30 35q151 164 179 164z" />
    <glyph glyph-name="Zdotaccent" unicode="&#x17b;" horiz-adv-x="416" 
d="M64 982q46 -23 135 -23l148 3l16 -18v-10q0 -288 -264 -876q133 -12 195 -12h22l75 3q23 -9 23 -28q0 -35 -98 -35h-4l-267 13q-22 7 -22 32q227 527 227 585q37 109 53 286l-38 -3h-40l-13 -3l-13 3h-15q-158 14 -158 51q11 32 38 32zM210 1211q26 0 37 -39
q0 -28 -41 -52q-31 0 -38 47q18 44 42 44z" />
    <glyph glyph-name="Zcaron" unicode="&#x17d;" horiz-adv-x="416" 
d="M64 982q46 -23 135 -23l148 3l16 -18v-10q0 -288 -264 -876q133 -12 195 -12h22l75 3q23 -9 23 -28q0 -35 -98 -35h-4l-267 13q-22 7 -22 32q227 527 227 585q37 109 53 286l-38 -3h-40l-13 -3l-13 3h-15q-158 14 -158 51q11 32 38 32zM332 1252q0 -12 -98 -160
q-12 -10 -27 -10q-8 0 -58 69q-59 48 -59 69q8 25 28 25h3q14 0 88 -75h7q63 107 84 107h4q15 0 28 -25z" />
    <glyph glyph-name="zcaron" unicode="&#x17e;" horiz-adv-x="379" 
d="M45 362l40 -10h42q132 0 132 -44q-28 -68 -122 -227l-7 -18v-4l47 -3h60q42 0 98 16q25 -13 25 -29q0 -40 -123 -47h-35q-148 0 -148 38q0 26 133 249v7l-3 2h-85q-83 6 -83 38q0 22 29 32zM276 591q0 -12 -98 -160q-12 -10 -27 -10q-8 0 -58 69q-59 48 -59 69
q8 25 28 25h3q14 0 88 -75h7q63 107 84 107h4q15 0 28 -25z" />
    <glyph glyph-name="florin" unicode="&#x192;" horiz-adv-x="254" 
d="M209 863q72 0 92 -120l3 -10h3q0 -24 -38 -27q-22 0 -40 85l-17 13h-3q-53 0 -53 -243l9 -215h28q51 0 51 -35q0 -19 -28 -25h-45v-3q10 -385 22 -440q-8 -31 -82 -28q-180 37 24 66q-14 92 -14 241l-12 161l-33 -3h-37q-26 0 -28 31q0 29 47 29h31l16 4l-10 232
q0 287 114 287z" />
    <glyph glyph-name="AEacute" unicode="&#x1fc;" horiz-adv-x="724" 
d="M345 953h15q223 0 223 -25l4 -13q0 -22 -32 -31l-192 9h-13l54 -349h13q46 0 128 22q20 0 29 -29q0 -39 -148 -53q-12 0 -12 -7l49 -371q79 -51 174 -51h22q24 0 29 -31q0 -25 -51 -29q-61 0 -164 36v-4q-4 -28 -28 -28h-4q-33 0 -33 101l-20 126l-60 -4l-151 13
q-71 -252 -103 -252q-21 0 -33 28q85 218 180 693q32 117 66 211q0 38 58 38zM196 295q60 -13 129 -13h22q23 0 35 7l-72 488h-3q-15 -19 -64 -237l-50 -245h3zM457 1199q32 -8 32 -32q0 -11 -120 -117q-52 -50 -60 -50q-32 8 -32 35q151 164 180 164z" />
    <glyph glyph-name="Oslashacute" unicode="&#x1fe;" horiz-adv-x="424" 
d="M384 660q27 -15 -25 -125q7 -27 14 -56q11 -78 15 -160q0 -243 -129 -328q-51 -19 -79 -19q-64 0 -102 60l-3 -7q-11 -20 -43 -5q-24 12 14 90q-4 15 -7 32q-17 65 -17 151v16q0 233 80 497v10l-4 3q11 35 59 35q103 0 175 -225q5 11 8 23q10 18 44 8zM161 795
q-79 -230 -79 -486v-9q0 -66 6 -116l162 270l22 41q14 26 27 53q-31 120 -100 224q-24 23 -38 23zM155 39l25 -7h10q88 0 125 158q10 40 10 93v58q0 58 -7 113l-2 -4l-198 -331l-10 -21q18 -44 47 -59zM258 1148q32 -8 32 -32q0 -10 -120 -116q-51 -51 -59 -51q-33 9 -33 36
q152 163 180 163z" />
    <glyph glyph-name="circumflex" unicode="&#x2c6;" horiz-adv-x="357" 
d="M328 663q1 -26 -33 -33q-12 0 -129 103h-3q-39 -88 -58 -89h-2q-29 4 -29 27q45 131 86 144q17 1 95 -85q58 -42 73 -67z" />
    <glyph glyph-name="caron" unicode="&#x2c7;" horiz-adv-x="326" 
d="M273 812q0 -12 -98 -160q-12 -10 -27 -10q-8 0 -58 69q-59 48 -59 69q8 25 28 25h3q14 0 88 -75h7q63 107 84 107h4q15 0 28 -25z" />
    <glyph glyph-name="breve" unicode="&#x2d8;" horiz-adv-x="326" 
d="M302 699q-114 -141 -188.5 -86.5t-74.5 76.5q7 26 28 26h3q85 -102 132.5 -46.5t68.5 55.5h3q16 0 28 -25z" />
    <glyph glyph-name="dotaccent" unicode="&#x2d9;" horiz-adv-x="196" 
d="M118 629q26 0 38 -40q0 -27 -42 -52q-31 0 -38 48q18 44 42 44z" />
    <glyph glyph-name="ring" unicode="&#x2da;" 
d="M112 670q92 5 94 -95v-6q-3 -69 -68 -100l-28 -3q-108 26 -108 96v3q-7 78 90 102zM62 575v-22q11 -30 57 -30q29 30 28 52v5q-17 21 -46 31q-51 -23 -39 -36z" />
    <glyph glyph-name="ogonek" unicode="&#x2db;" horiz-adv-x="260" 
d="M161 2h-9q-67 -30 -67 -85v-9q6 -31 32 -31h9l69 11q51 -5 -18 -65l-3 2q-26 -9 -57 -9q-74 0 -91 98q49 135 135 88z" />
    <glyph glyph-name="tilde" unicode="&#x2dc;" horiz-adv-x="448" 
d="M363 834q28 -7 28 -50q-8 -69 -63 -69h-3q-36 6 -141 47l-29 3q-16 -6 -16 -23v-2l4 -4q-12 -34 -41 -34h-3q-27 0 -35 38q42 84 101 84q27 0 154 -50h6q7 0 7 10l-4 22q0 22 35 28z" />
    <glyph glyph-name="hungarumlaut" unicode="&#x2dd;" horiz-adv-x="371" 
d="M183 835q31 -8 31 -31q0 -11 -73 -73q-52 -51 -60 -51q-32 8 -32 35q105 120 134 120zM296 812q32 -7 32 -32q0 -10 -74 -72q-52 -50 -61 -50q-31 8 -31 34q105 120 134 120z" />
    <glyph glyph-name="Wgrave" unicode="&#x1e80;" horiz-adv-x="542" 
d="M481 944q24 -8 24 -35l-12 -378l18 -365q0 -180 -38 -180h-6q-49 0 -145 283q0 16 -9 20q-58 -186 -117 -294l-18 -2q-31 0 -38 82q-98 551 -98 809q0 35 32 35q25 0 29 -42q0 -255 88 -742h2q32 50 91 274q0 50 35 50q29 0 35 -67q27 -150 91 -277l4 -3l3 3v51l-19 374
l12 379q0 22 36 25zM203 1215q29 -14 89 -102q47 -33 47 -47q0 -18 -32 -31q-55 23 -135 145v6q10 29 31 29z" />
    <glyph glyph-name="Wacute" unicode="&#x1e82;" horiz-adv-x="542" 
d="M481 944q24 -8 24 -35l-12 -378l18 -365q0 -180 -38 -180h-6q-49 0 -145 283q0 16 -9 20q-58 -186 -117 -294l-18 -2q-31 0 -38 82q-98 551 -98 809q0 35 32 35q25 0 29 -42q0 -255 88 -742h2q32 50 91 274q0 50 35 50q29 0 35 -67q27 -150 91 -277l4 -3l3 3v51l-19 374
l12 379q0 22 36 25zM302 1214q32 -8 32 -31q0 -10 -120 -117q-52 -51 -60 -51q-32 9 -32 35q152 164 180 164z" />
    <glyph glyph-name="Wdieresis" unicode="&#x1e84;" horiz-adv-x="542" 
d="M481 944q24 -8 24 -35l-12 -378l18 -365q0 -180 -38 -180h-6q-49 0 -145 283q0 16 -9 20q-58 -186 -117 -294l-18 -2q-31 0 -38 82q-98 551 -98 809q0 35 32 35q25 0 29 -42q0 -255 88 -742h2q32 50 91 274q0 50 35 50q29 0 35 -67q27 -150 91 -277l4 -3l3 3v51l-19 374
l12 379q0 22 36 25zM233 1046q23 0 25 -35q-6 -31 -31 -31q-26 0 -32 34q12 32 38 32zM321 1046q25 -9 25 -32q0 -21 -35 -28q-18 0 -31 28q0 30 41 32z" />
    <glyph glyph-name="Ygrave" unicode="&#x1ef2;" horiz-adv-x="379" 
d="M367 937q15 0 28 -28q-57 -232 -80 -488t-65 -445l-19 -13q-35 11 -35 29l59 393q-63 78 -97 174q-43 118 -160 306l-9 24q0 23 34 29q17 -3 51 -73q68 -91 173 -340l11 -27q63 507 109 459zM138 1237q28 -13 88 -100q47 -34 47 -48q0 -17 -32 -31q-56 23 -135 144v7
q9 28 32 28z" />
    <glyph glyph-name="endash" unicode="&#x2013;" horiz-adv-x="357" 
d="M100 292q210 18 210 -14l3 -9q-8 -29 -26 -29q-127 -9 -184 -9l-19 -2q-22 0 -28 34q0 24 44 29z" />
    <glyph glyph-name="emdash" unicode="&#x2014;" horiz-adv-x="383" 
d="M100 292q246 9 246 -23l4 -9q-8 -29 -25 -29h-222l-19 -2q-22 0 -28 34q0 24 44 29z" />
    <glyph glyph-name="quoteleft" unicode="&#x2018;" horiz-adv-x="176" 
d="M75 733q41 0 55 -141v-3q0 -74 -62 -98q-22 0 -28 35l28 38l3 18v10q0 36 -25 116v4q12 21 29 21z" />
    <glyph glyph-name="quoteright" unicode="&#x2019;" horiz-adv-x="176" 
d="M75 733q41 0 55 -141v-3q0 -74 -62 -98q-22 0 -28 35l28 38l3 18v10q0 36 -25 116v4q12 21 29 21z" />
    <glyph glyph-name="quotesinglbase" unicode="&#x201a;" horiz-adv-x="176" 
d="M76 193q41 0 55 -141v-3q0 -74 -62 -98q-22 0 -29 35l29 38l3 18v10q0 36 -25 116v4q12 21 29 21z" />
    <glyph glyph-name="quotedblleft" unicode="&#x201c;" horiz-adv-x="211" 
d="M92 859q11 0 25 -18v-3l-9 -54v-15l9 -99q-8 -24 -32 -24q-37 0 -37 132q0 81 44 81zM164 847q29 -4 29 -28q-16 -54 -16 -88l9 -51q0 -12 -29 -22q-40 8 -40 79q12 110 40 110h7z" />
    <glyph glyph-name="quotedblright" unicode="&#x201d;" horiz-adv-x="211" 
d="M92 859q11 0 25 -18v-3l-9 -54v-15l9 -99q-8 -24 -32 -24q-37 0 -37 132q0 81 44 81zM164 847q29 -4 29 -28q-16 -54 -16 -88l9 -51q0 -12 -29 -22q-40 8 -40 79q12 110 40 110h7z" />
    <glyph glyph-name="quotedblbase" unicode="&#x201e;" horiz-adv-x="211" 
d="M81 193q12 0 26 -18v-3l-10 -54v-15l10 -99q-9 -25 -31 -25q-38 0 -38 133q0 81 43 81zM154 182q29 -5 29 -29q-17 -54 -17 -88l10 -51q0 -12 -28 -21q-41 7 -41 78q11 111 41 111h6z" />
    <glyph glyph-name="dagger" unicode="&#x2020;" 
d="M131 852q32 0 29 -77.5t-3 -158.5h3l60 10q28 -4 28 -28q0 -35 -62 -35l-26 -10l-3 -544q-4 -34 -31 -34q-32 0 -32 47v79l10 434l-3 9l-44 -3q-28 6 -28 32q0 32 69 32v2q0 128 3 216q0 26 30 29z" />
    <glyph glyph-name="daggerdbl" unicode="&#x2021;" 
d="M63 514q21 1 40 2l1 19l-3 9l-44 -3q-28 6 -28 32q0 32 69 32v2q0 128 3 216q0 26 30 29q32 0 29 -77.5t-3 -158.5h3l60 10q28 -4 28 -28q0 -35 -62 -35l-26 -10v-36q106 10 106 -15l3 -11q-6 -30 -21 -30l-88 -13l-3 -439q-4 -34 -31 -34q-32 0 -32 47v79l9 347h-37
l-17 -3q-18 0 -22 38q0 26 36 31z" />
    <glyph glyph-name="bullet" unicode="&#x2022;" 
d="M126 299q55 0 80 -80q0 -58 -88 -107q-67 0 -80 97q38 90 88 90z" />
    <glyph glyph-name="ellipsis" unicode="&#x2026;" horiz-adv-x="768" 
d="M124 64q23 0 32 -29q0 -21 -35 -38q-26 0 -31 35q15 32 34 32zM381 64q21 0 31 -29q0 -21 -34 -38q-27 0 -32 35q15 32 35 32zM637 64q21 0 31 -29q0 -21 -35 -38q-26 0 -31 35q14 32 35 32z" />
    <glyph glyph-name="guilsinglleft" unicode="&#x2039;" horiz-adv-x="322" 
d="M225 392q26 0 31 -34q0 -12 -107 -126v-3q89 -40 89 -60v-3q-5 -28 -29 -28q-128 50 -142 91q0 17 89 91q44 59 69 72z" />
    <glyph glyph-name="guilsinglright" unicode="&#x203a;" horiz-adv-x="264" 
d="M73 326q12 0 160 -97q10 -12 10 -28q0 -8 -69 -57q-48 -60 -70 -60q-25 8 -25 28v3q0 15 76 88v7q-107 64 -107 85v4q0 14 25 27z" />
    <glyph glyph-name="fraction" unicode="&#x2044;" 
d="M328 660q36 -19 -68 -210l-198 -331l-44 -94q-11 -20 -42 -5q-28 15 32 126l185 308l23 41q41 75 67 157q11 18 45 8z" />
    <glyph glyph-name="Euro" unicode="&#x20ac;" horiz-adv-x="611" 
d="M61 452h23q-1 26 -1 47v13q0 189 109 292q222 116 341 -68l-22 -29l-10 -2q-31 0 -63.5 31.5t-155.5 37.5q-139 -55 -139 -268q2 -29 3 -55q167 -3 167 -19l3 -22q-9 -25 -32 -25l-133 4q2 -29 5 -54q160 -2 160 -44q0 -22 -29 -32q-15 9 -125 15q14 -126 34 -162
q41 -72 91 -72q195 -14 251 79q14 12 26 12q24 0 28 -30q-27 -98 -142 -109.5t-156 -11.5q-134 0 -176 208q-8 45 -14 85l-37 -1h-16q-38 0 -38 31q0 29 36 29l46 1q-3 31 -6 58h-31q-26 0 -31 35q0 22 34 26z" />
    <glyph glyph-name="trademark" unicode="&#x2122;" horiz-adv-x="929" 
d="M170 951h50q99 0 133 -35l6 -19v-3q0 -25 -31 -28q-30 25 -120 25h-10v-4q0 -185 4.5 -513t30.5 -363q-10 -28 -34 -28q-42 -45 -51 344t-9 560v4l-89 -6q-25 11 -25 31q0 35 145 35zM451 955q23 0 34 -82q126 -212 126 -256l25 -100h4q43 239 91 340q37 79 60 79
q32 0 41 -86q18 -99 18 -264v-249q9 -261 35 -261q19 -10 19 -32q0 -55 -28 -72h-19q-53 25 -70 416l4 113v91q-3 212 -16 212h-4q-38 -88 -78 -315q-13 -133 -41 -133h-16q-29 0 -85 268l-41 91h-10l10 -261l-3 -444q-4 -32 -32 -32q-28 6 -28 26l4 472q0 222 -35 450
q0 23 35 29z" />
    <glyph glyph-name="minus" unicode="&#x2212;" horiz-adv-x="307" 
d="M100 292q147 0 147 -32l4 -10q-8 -28 -25 -28q-66 9 -123 9l-19 -2q-22 0 -28 34q0 24 44 29z" />
    <glyph glyph-name="commaaccent" unicode="&#xf6c3;" 
d="M148 -86q54 -13 44 -91q-29 -68 -86 -94q-29 11 -29 32q89 56 35 103q0 50 36 50z" />
    <glyph glyph-name="fi" unicode="&#xfb01;" horiz-adv-x="364" 
d="M260 365q34 -5 20 -101q-13 -80 -5 -265q-14 -29 -38 -25q-28 4 -24 99q-2 121 8 214q-2 -1 -5 -1h-45v-3q10 -234 22 -289q-8 -32 -28 -32q-44 0 -44 160l-12 161l-33 -3h-37q-26 0 -28 31q0 29 47 29h31l16 4l-10 232q0 287 114 287q72 0 92 -120l3 -10h3
q0 -24 -38 -27q-22 0 -40 85l-17 13h-3q-53 0 -53 -243l9 -215h28q23 0 36 -7l1 12q2 15 30 14zM254 500q26 0 31 -34q0 -16 -21 -31h-10q-28 0 -28 34q7 31 28 31z" />
    <glyph glyph-name="fl" unicode="&#xfb02;" horiz-adv-x="414" 
d="M315 875q15 -2 28 -25q-7 -11 -9 -41l-1 -13l6 -394q-5 -268 7 -393l1 -8q-9 -19 -29 -17q-44 2 -36 123q-6 66 -6 599h-7q-22 0 -40 85l-17 13h-3q-53 0 -53 -243l9 -215h28q51 0 51 -35q0 -19 -28 -25h-45v-3q10 -234 22 -289q-8 -32 -28 -32q-44 0 -44 160l-12 161
l-33 -3h-37q-26 0 -28 31q0 29 47 29h31l16 4l-10 232q0 287 114 287q41 0 65 -40q9 53 41 52z" />
  </font>
</defs>
</svg>
