<?xml version="1.0" standalone="no"?>
<!DOCTYPE svg PUBLIC "-//W3C//DTD SVG 1.1//EN" "http://www.w3.org/Graphics/SVG/1.1/DTD/svg11.dtd" >
<svg xmlns="http://www.w3.org/2000/svg" xmlns:xlink="http://www.w3.org/1999/xlink" version="1.1">
<metadata>
Created by FontForge 20161013 at Fri Apr 22 16:45:25 2011
 By ,,,
Copyright (c) 2010, Kimberly Geswein (kimberlygeswein.com)
</metadata>
<defs>
<font id="SwankyandMooMoo" horiz-adv-x="467" >
  <font-face 
    font-family="Swanky and Moo Moo"
    font-weight="400"
    font-stretch="normal"
    units-per-em="1024"
    panose-1="2 0 0 0 0 0 0 0 0 0"
    ascent="819"
    descent="-205"
    x-height="246"
    cap-height="429"
    bbox="-254 -507 1151 955.514"
    underline-thickness="51"
    underline-position="-152"
    unicode-range="U+0020-FB02"
  />
<missing-glyph horiz-adv-x="326" 
 />
    <glyph glyph-name=".notdef" horiz-adv-x="326" 
 />
    <glyph glyph-name=".null" horiz-adv-x="0" 
 />
    <glyph glyph-name="nonmarkingreturn" horiz-adv-x="326" 
 />
    <glyph glyph-name="space" unicode=" " horiz-adv-x="326" 
 />
    <glyph glyph-name="exclam" unicode="!" horiz-adv-x="166" 
d="M49 282q3 48 3 85t-2.5 67.5t-6.5 58.5t-7.5 58.5t-6 67.5t-2.5 85v7q0 6 0.5 12t0.5 12v8q1 2 5 6.5t9 9t9 8.5t6 5q1 0 8 -4l12 -6l10 -9q1 -17 3 -41t3.5 -51.5t3.5 -56t4 -55.5t3 -51t3 -41q1 -3 1 -17t-0.5 -30.5t-0.5 -31.5v-18q1 -5 2 -15.5t2.5 -23t2.5 -24.5
l2 -15q-6 -13 -13.5 -16.5t-20.5 -3.5q-11 0 -19.5 3.5t-13.5 16.5zM37 59q0 12 6 21.5t15 16t21 9.5t24 3t21.5 -5.5t17 -14t11 -19.5t3.5 -22t-6 -19.5t-16.5 -15t-21.5 -10t-19 -3.5q-28 0 -42 17t-14 42z" />
    <glyph glyph-name="quotedbl" unicode="&#x22;" horiz-adv-x="312" 
d="M60 691q9 0 19.5 -4.5t10.5 -15.5v-205q0 -11 -9.5 -20.5t-20.5 -9.5q-8 0 -18.5 4t-10.5 16v215q0 11 10.5 15.5t18.5 4.5zM265 691q14 0 22 -11t12.5 -27.5t6 -38t1 -41.5t-1.5 -37t-1 -26q0 -4 -2 -10.5t-5 -12t-7.5 -9.5t-9.5 -4q-10 0 -18 5t-13.5 12t-9.5 16t-4 17
v147q0 12 10.5 16t19.5 4z" />
    <glyph glyph-name="numbersign" unicode="#" horiz-adv-x="740" 
d="M350 9v11.5t-0.5 16t-1 15.5t-0.5 11q0 33 6 65.5t13.5 64.5t13.5 64t6 65h-105q-6 0 -15 -7t-14 -13q-2 -7 -6.5 -21.5t-9 -32.5t-10 -38t-10.5 -38.5t-8 -33.5t-4 -22q-3 -8 -0.5 -26.5t1.5 -36.5t-8.5 -31.5t-27.5 -13.5q-16 0 -25 11.5t-9 28.5t4 39.5t9 46
t11.5 47.5t13 45.5t12.5 38.5t9 27v17q-22 0 -43.5 -3t-42.5 -6t-43 -5.5t-44 -2.5q-14 0 -18.5 8.5t-4.5 21.5q0 9 3 12t18 7l194 39q2 1 7 13t9.5 27.5t8.5 29t4 17.5q0 3 -3.5 7t-5.5 4q-17 -4 -30 -6t-24.5 -3.5t-23 -1.5h-25.5h-24q-2 1 -3 5.5t-2.5 9t-2.5 9t-1 5.5
q0 2 3.5 6t5.5 5q15 9 36.5 14.5t43 8.5t40.5 4t26 2q16 8 24.5 28t12.5 44.5t6.5 52t8 50t16 36.5t29.5 14q16 0 18.5 -10.5t2.5 -23.5q0 -25 -5.5 -47.5t-13 -44.5t-13 -44t-5.5 -45h123l50 136q-4 9 -2 21t7.5 23t14.5 18t20 7q6 0 10.5 -3t6 -8.5t2 -11.5t0.5 -11
q0 -20 -4 -41.5t-10.5 -42.5t-13.5 -41t-12 -37l10 -9l166 -20q7 -1 11 -4.5t6 -8.5t2.5 -10t0.5 -10q0 -7 -0.5 -15t-10.5 -11q-26 6 -46.5 10t-38.5 6t-36 3.5t-40 1.5h-6.5h-10t-10.5 -0.5t-7 -0.5q-12 -20 -21 -41.5t-9 -46.5q0 -2 0.5 -9.5t0.5 -9.5q10 -2 31 -2t46 -1
t52 -3.5t49 -9t36 -19.5t14 -33h-248q-11 0 -18.5 -13.5t-13 -35.5t-9.5 -50.5t-8 -57.5t-8.5 -57t-10.5 -50t-14 -35.5t-20 -13.5h-3q-2 0 -2 1l-4.5 4.5t-5.5 4.5zM281 399v-5t1.5 -6.5t3.5 -5.5t6 -2h117q3 0 6.5 4t6.5 10q3 7 7 15q3 7 6.5 18.5t6.5 23t5 19.5t1 8l-9 9
h-108l-19 -9q-1 0 -5 -8t-8.5 -19.5l-9 -23t-7.5 -18.5q0 -1 -0.5 -4.5t-0.5 -5.5z" />
    <glyph glyph-name="dollar" unicode="$" horiz-adv-x="536" 
d="M214 116q-30 1 -65.5 13t-66.5 33.5t-52.5 51t-21.5 62.5q0 10 1.5 25.5t5.5 31.5t12 27.5t22 11.5v-109q0 -21 18 -37t42.5 -27.5t50 -17.5t41.5 -6h4l5 5q4 4 4 5v282q0 3 -13.5 5.5t-34 6.5t-45 11t-46 18t-37 27.5t-18.5 39.5q-4 27 6.5 45t29.5 31t44 21.5t49 15
t43.5 14.5t31.5 18q5 5 8 25.5t6 47.5t6.5 57.5t10 54.5t15.5 38.5t22 11.5q5 -1 10 -6.5t9.5 -12t7.5 -13.5t3 -12q0 -18 -3.5 -37t-7.5 -38t-7 -38t-3 -38q0 -4 0.5 -10.5t0.5 -14v-14.5v-10q11 -4 22 -8.5t19 -11.5t13 -16t5 -21q0 -13 -2.5 -22t-17.5 -9q-7 0 -11.5 3.5
t-8.5 7l-8 7t-11 3.5q-1 0 -5 -0.5t-5 -0.5q0 -6 -1.5 -19.5t-3 -29t-3.5 -29t-2 -19.5v-10l5.5 -5.5l4.5 -4.5q45 0 85.5 -14t71.5 -40t50 -62.5t19 -81.5q0 -30 -11.5 -53.5t-30.5 -43t-43 -34t-50.5 -27t-52.5 -23t-48 -20.5q-1 -11 0 -32.5t-2.5 -42.5t-13.5 -36.5
t-32 -15.5q-5 0 -12.5 3.5t-7.5 5.5v107zM282 193q23 0 53.5 13t58.5 33.5t46.5 46t18.5 50.5q0 12 -10 29.5t-25.5 35t-34.5 33.5t-38 26t-34 13t-25 -6l-10 -10v-264zM87 585q0 -14 13 -23.5t31 -15.5t36 -8.5t28 -2.5q2 0 9.5 0.5t9.5 0.5q1 5 2.5 17t3 25.5t3 26.5
t1.5 18q0 3 0.5 11.5t0.5 10.5q-8 0 -21.5 -1t-29 -3.5t-31.5 -7t-28 -11t-20 -15.5t-8 -22z" />
    <glyph glyph-name="percent" unicode="%" 
d="M-1 107q0 1 0.5 5l0.5 4q1 6 3.5 14.5t6 18t6.5 17t4 9.5l302 536q9 6 17 18.5t15 28t15 31t17 29t20.5 22t26.5 8.5q1 0 1.5 -0.5t2.5 -0.5h2l9 -9q0 -1 1 -2q0 -1 0.5 -1.5t0.5 -1.5l-1 -1v-2q-1 0 -1 -2l-399 -730q-7 -13 -13 -17t-16 -4q-13 0 -17 9.5t-4 20.5z
M195 88q0 14 6 24.5t13.5 19t13.5 17.5t6 21v5q0 1 -2 4l-4 6q-2 4 -3 7l-1 3q6 16 19 24.5t28 12t31.5 3.5h29.5q21 0 42 -7t38 -20t27.5 -32.5t10.5 -42.5q0 -30 -14 -54.5t-36 -42t-49.5 -27.5t-55.5 -10q-21 0 -39.5 5t-32 16t-21 28t-7.5 40zM127 794q0 19 8 41.5
t21 42.5t31 34t38 14q27 0 49.5 -7t39.5 -21t26.5 -35.5t9.5 -49.5t-12.5 -48t-33 -32t-44.5 -17.5t-46 -5.5q-2 0 -7.5 0.5t-11.5 0.5h-11.5h-8.5q-8 7 -17 16.5t-15.5 20t-11 22t-4.5 24.5zM253 88q0 -10 4.5 -15.5t11 -9t14 -5t14.5 -1.5q15 0 33 6.5t33.5 16.5t26 25
t10.5 32q0 13 -6 22.5t-15.5 16t-21 9.5t-21.5 3q-1 0 -5 -0.5t-7.5 -0.5t-6.5 -1t-5 -1q1 -1 2.5 -5t3.5 -8.5t3 -9t1 -6.5q0 -7 -11 -14.5t-23.5 -15t-23.5 -17t-11 -21.5zM184 795q0 -19 12 -27t33 -8q12 0 24.5 6.5t23.5 16t18.5 22t7.5 23.5q0 14 -10 22t-24 8
q-13 0 -27.5 -4t-27.5 -11.5t-21.5 -20t-8.5 -27.5z" />
    <glyph glyph-name="ampersand" unicode="&#x26;" horiz-adv-x="702" 
d="M458 89q-1 0 -4.5 -0.5t-5.5 -0.5q-37 -21 -67.5 -36t-60 -24.5t-62 -14.5t-73.5 -5h-14h-21t-20 0.5t-14 0.5q-24 16 -44 28t-34 27t-22 36.5t-8 55.5q0 39 14.5 69.5t37 57t51 50.5t56.5 47t53.5 46.5t42.5 51.5q12 18 23 40.5t22.5 45.5t25.5 44.5t32.5 38t42 26.5
t53.5 10q13 0 29.5 -4.5t30.5 -13t23.5 -21t9.5 -30.5q0 -22 -14 -41t-36 -36.5t-49 -32.5t-53 -28.5t-48 -25t-33 -21.5q0 -13 6 -35.5t15.5 -49.5t21.5 -55.5t26.5 -52t30 -38t31.5 -14.5h3t2 1l175 165q1 0 4.5 1.5t5.5 1.5q7 0 14 -4t13 -9t9.5 -12.5t3.5 -15.5
t-3.5 -13t-9.5 -9t-13 -5.5t-14 -2.5l-127 -126l-1 -3l-3 -6q-1 -3 -3 -5.5t-2 -5.5v-9q12 -11 23 -24t20.5 -25.5t20.5 -25.5t24 -23q-9 -15 -17.5 -22.5t-22.5 -7.5q-1 0 -4.5 0.5t-4.5 0.5q-5 6 -15.5 21.5t-23 30t-26 26t-23.5 11.5zM77 98q13 -14 31 -20.5t36.5 -9
t37.5 -2t36 0.5q22 0 49.5 3t55 11t50.5 21.5t36 33.5q-21 22 -45 51t-44.5 61t-34 66t-12.5 66q-2 0 -5.5 0.5t-4.5 0.5q-20 0 -42 -13t-43 -34.5t-39.5 -48t-32.5 -52.5t-22.5 -51t-8.5 -41q0 -2 0.5 -8.5t0.5 -13t0.5 -13t0.5 -8.5zM448 623q-3 -2 -12 -7.5t-21.5 -14
t-25.5 -18t-24 -19.5t-18 -20t-7 -18q0 -2 0.5 -5t0.5 -5q15 10 35.5 20.5t41.5 22t39 25.5t30 30q-8 6 -14 8.5t-15 2.5q-1 0 -4.5 -1t-5.5 -1z" />
    <glyph glyph-name="quotesingle" unicode="'" horiz-adv-x="77" 
d="M-1 413q0 6 -0.5 20t0.5 31t2.5 35.5t6.5 33t12 24.5t19 10q15 0 23 -10t8 -23q0 -28 -2.5 -54t-5.5 -51.5t-4 -52t1 -54.5q-2 -2 -9.5 -6t-10.5 -4q-12 0 -19.5 12.5t-12 30t-6.5 34t-2 24.5z" />
    <glyph glyph-name="parenleft" unicode="(" horiz-adv-x="371" 
d="M8 322q0 36 14.5 78t38.5 84t57 81.5t70 70t76.5 48.5t78.5 18q6 0 9.5 -3t5.5 -8t2 -11v-12v-6q-30 -10 -63.5 -28.5t-65.5 -44t-62 -56t-53 -64t-36 -69.5t-13 -73q0 -41 15.5 -78t41 -71t58 -63t66.5 -55t67 -47.5t58.5 -39t40.5 -32t15 -24.5q0 -9 -6.5 -12.5
t-13.5 -3.5q-1 0 -4.5 0.5t-5.5 0.5q-39 22 -84 47t-88 54.5t-82.5 63t-70 73t-48.5 85t-18 97.5z" />
    <glyph glyph-name="parenright" unicode=")" horiz-adv-x="341" 
d="M-30 -244q0 13 13.5 33t34.5 43t46 48.5t48.5 50t43 45t28.5 33.5q24 35 39.5 69.5t24.5 70t12 73.5t3 78q0 63 -19.5 115t-48.5 95.5t-63.5 78t-64 60.5t-49.5 45t-20 31q0 11 4 18.5t18 7.5h4.5h4.5q48 -34 90.5 -69t79 -74.5t65 -86t47.5 -102.5q-2 -17 -0.5 -35.5
t3.5 -37.5l6 -38q2 -19 2 -37q0 -38 -7 -83.5t-21.5 -90.5t-36.5 -86t-52 -69l-205 -195q-2 -1 -4 -1h-5q-5 0 -13 1t-8 9z" />
    <glyph glyph-name="asterisk" unicode="*" horiz-adv-x="389" 
d="M156 536q-1 0 -2.5 0.5t-2.5 0.5q-12 0 -24.5 -10t-25.5 -22t-28 -22t-34 -10q0 30 15.5 54t43.5 38v12q-7 0 -20 -1.5t-26 -1t-23 5t-10 18.5v6q0 5 1 10.5t3 9.5t6 4h87l-28 18q-12 8 -21.5 16.5t-14 18t-4.5 24.5q0 8 2 17.5t13 9.5q6 0 15 -5.5t18 -12.5t17.5 -13.5
t13.5 -8.5q0 -1 1 -1q2 -1 4 -1q1 0 2.5 1l1.5 1q1 8 2 16.5t4.5 15.5t8.5 12t15 5q14 0 18 -9.5t5 -21t3 -22.5t13 -16q13 10 25 28t26 36t30.5 31.5t35.5 13.5q1 0 4.5 -1t4.5 -1q-4 -17 -12.5 -34t-19.5 -34t-23.5 -31.5t-22.5 -26.5q9 -4 15.5 -5.5t12.5 -3t12 -1.5h14
h15.5t14.5 1.5t15 3t19 5.5q9 -2 9.5 -11t0.5 -16q0 -16 -7 -23.5t-32 -7.5v-10q0 -1 1.5 -5.5t3 -9.5t2.5 -9t1 -6v-4q0 -10 -6 -13t-13 -3q-2 0 -5.5 0.5l-3.5 0.5l-98 49h-4l-1 1q-1 0 -1 -0.5t-1 -0.5h-2l-5 -5l-5 -5v-6q0 -11 3 -22.5t6.5 -23t6.5 -23t3 -22.5
q0 -27 -9.5 -40t-34.5 -13q0 30 -5.5 56.5t-18.5 54.5z" />
    <glyph glyph-name="plus" unicode="+" horiz-adv-x="487" 
d="M175 20q-1 9 -3.5 32.5t-5.5 50t-6 50t-4 32.5q0 5 -2 12.5t-3.5 14t-3.5 12.5l-1 5h-126q-6 0 -8 5t-3 11t-1 11v7v6t0.5 10t3 9t8.5 4h128q0 8 -1 23.5t-0.5 34t2.5 37.5t6.5 35.5t13 26.5t21.5 10q17 0 21 -7.5t4 -25.5q0 -27 -6 -52.5t-6 -53.5q0 -12 3 -20t16 -8
q49 0 96 5.5t96 5.5h16q11 0 21.5 -2t19 -7.5t8.5 -16.5l-1 -1v-1v-2q-3 -2 -5.5 -6t-5.5 -6.5t-5.5 -5t-3.5 -2.5l-234 -19q-5 0 -7 -3t-3 -7t-1 -7v-7q0 -31 6 -59.5t6 -59.5q0 -3 0.5 -18.5t-1 -31.5t-7 -29t-17.5 -13h-3q-2 0 -2 1q-1 1 -4 3.5t-6 5.5t-6 6.5t-4 4.5z
" />
    <glyph glyph-name="comma" unicode="," horiz-adv-x="214" 
d="M69 -107q16 17 26 30.5t16 27.5t8.5 30t2.5 38q-1 0 -2.5 0.5t-3.5 0.5q-1 -1 -8.5 -2.5l-15 -3t-14.5 -3.5t-9 -2h-7q-9 0 -18.5 6t-17 15t-13 19t-5.5 18q0 21 10 33.5t24.5 21t31.5 12t32 3.5q21 0 37.5 -10.5t28 -26.5t17.5 -36t6 -40q0 -18 -6 -46t-18.5 -53.5
t-30.5 -43.5t-43 -18q-13 0 -18.5 6.5t-9.5 23.5z" />
    <glyph glyph-name="hyphen" unicode="-" horiz-adv-x="301" 
d="M29 234q-11 11 -8 19t16.5 13t34.5 8t45.5 4.5t49.5 1t46.5 -1.5t37 -3t20.5 -4q0 -5 1.5 -12t1.5 -12.5t-2.5 -9.5t-10.5 -4z" />
    <glyph glyph-name="period" unicode="." horiz-adv-x="234" 
d="M19 103q0 15 14.5 25.5t34 16.5t39 8.5t29.5 2.5q15 0 29 -10t25.5 -24.5t18.5 -30.5t7 -28q0 -9 -0.5 -19t-3 -18.5t-9 -15.5t-18.5 -10q-1 0 -7 -0.5l-12 -1t-11.5 -0.5h-8.5q-23 0 -46 5.5t-40.5 18.5t-29 33t-11.5 48z" />
    <glyph glyph-name="slash" unicode="/" horiz-adv-x="302" 
d="M-1 29q0 24 6.5 45t16 41t19.5 39.5t18 40.5q0 4 4 18t9 30.5t9.5 31t6.5 17.5q4 11 14.5 34t23.5 52t28 61t28.5 61t24.5 52t17 33q1 5 4.5 7t8 3t9 0.5t7.5 -0.5q19 0 24.5 -5.5t5.5 -24.5q0 -2 -0.5 -10t-0.5 -9q-36 -55 -67 -121.5t-58 -135.5t-49.5 -136.5
t-40.5 -123.5q-6 -18 -13 -24t-26 -6q-17 0 -23 7t-6 23z" />
    <glyph glyph-name="zero" unicode="0" horiz-adv-x="399" 
d="M18 248q0 49 11 100.5t32 100.5t52.5 91.5t71.5 73.5q1 0 5 0.5t5 0.5q12 0 18.5 -9.5t10.5 -20.5q47 -4 79 -19.5t51 -42t27 -63.5t8 -84q0 -33 -2.5 -74t-10.5 -82.5t-22.5 -81t-38 -70.5t-58 -49.5t-82.5 -18.5q-53 0 -84.5 23t-47.5 59t-20.5 80.5t-4.5 85.5zM107 88
q10 -16 26 -18.5t33 -2.5q41 0 69 15.5t46.5 40.5t28.5 57t15 67.5t6 70.5t1 65q0 23 -2.5 48.5t-11 46.5t-25.5 34.5t-47 13.5q-13 0 -23.5 -1t-20 -4t-20.5 -9t-26 -16q-38 -63 -58.5 -129.5t-20.5 -141.5q0 -20 1 -34.5t4 -29t9.5 -31.5t15.5 -42z" />
    <glyph glyph-name="one" unicode="1" horiz-adv-x="127" 
d="M110 520q0 -63 -6 -123.5t-14 -121.5t-12 -122t0 -124q-23 -31 -62 -31q0 8 0.5 27.5t1.5 41.5t1.5 41.5t0.5 27.5q1 33 3.5 74t6 83t8 84.5t11.5 79.5q5 31 18 47t43 16z" />
    <glyph glyph-name="two" unicode="2" horiz-adv-x="603" 
d="M19 30q0 8 0.5 14t2.5 11t5.5 10.5t11.5 11.5l214 205q8 8 23 28t29.5 44.5t26 49t11.5 39.5q0 11 -6 19.5t-14.5 14.5t-19.5 8.5t-21 2.5q-26 0 -49.5 -10.5t-44 -25.5t-38 -33t-31.5 -33t-27 -25.5t-23 -10.5q-16 0 -18.5 9t-2.5 23q0 21 12 40.5t32.5 37.5t45 33
t49.5 27t48 21t38 14q1 0 7 0.5t7 0.5q22 0 42 -11.5t36 -29.5t26 -39t10 -42q0 -27 -11 -56t-29 -57.5t-40 -56t-45 -52.5t-44.5 -46.5t-36.5 -38.5l10 -11q2 0 24 -6.5t51 -14t60 -15.5t49 -13h12h15q23 0 45 6.5t43.5 14t42.5 14.5t42 7q0 -37 -18 -58.5t-46 -32.5
t-62.5 -14.5t-67.5 -3.5h-6l-223 59h-7h-8q-18 0 -33 -9t-28 -20.5t-25 -21t-26 -9.5t-17 8.5t-3 22.5z" />
    <glyph glyph-name="three" unicode="3" horiz-adv-x="409" 
d="M39 82q19 0 36.5 -4t34 -8.5t33.5 -8.5t35 -4q17 0 42.5 3.5t48.5 12t39 23.5t16 39q0 30 -13 51t-34 35t-47.5 22t-53.5 10.5t-52.5 2t-45.5 -2.5q-12 6 -16.5 12.5t-4.5 16.5q0 15 18 24t43.5 17t56.5 16t57 19.5t43.5 28.5t17.5 42q0 30 -13.5 40t-40.5 10t-55 -9.5
t-55.5 -21t-51.5 -21.5t-43 -10q-5 0 -8.5 2.5t-4.5 7t-1.5 9t-0.5 9.5q0 11 2.5 18.5t17.5 14.5q23 9 48.5 19t52.5 19t54.5 14.5t52.5 5.5q28 0 47.5 -8t32.5 -23.5t19 -37.5t6 -50q0 -26 -10 -39.5t-23.5 -22t-28.5 -17.5t-27 -26q13 -16 27.5 -29.5t28.5 -26.5t27 -26
t22.5 -29t15 -35.5t5.5 -43.5q0 -37 -22.5 -61t-55 -37.5t-68.5 -19t-64 -5.5q-20 0 -44.5 3t-46 11.5t-35.5 24.5t-14 44z" />
    <glyph glyph-name="four" unicode="4" horiz-adv-x="487" 
d="M59 185q-17 0 -25 6t-11 16t-3.5 22t-0.5 23q0 40 6.5 74.5t18.5 68t28 67.5t35 74q3 9 11 10t15 1q12 0 17.5 -6t5.5 -20v-5q-2 -7 -7.5 -21.5t-13 -32t-14.5 -38t-14 -39t-12 -33.5l-7 -21q-4 -10 -6 -17t-3.5 -13.5t-1.5 -13v-16.5q0 -2 -0.5 -6.5t0.5 -8.5t3 -7.5
t8 -5.5h8h13.5h13.5h21q14 0 29.5 0.5t28 2.5t13.5 7l19 166q1 13 5.5 16.5t13.5 3.5q5 0 10 -1t9 -3t7 -6.5t3 -9.5v-166h166q14 0 22.5 -11t8.5 -23q0 -7 -1 -14.5t-11 -9.5h-20h-32h-33h-22q-7 0 -20.5 -1.5t-25.5 -2.5t-21.5 -3t-10.5 -3l-9 -10v-181q-4 0 -12.5 1.5
t-16.5 4.5t-14 7.5t-6 12.5l-19 165h-146z" />
    <glyph glyph-name="five" unicode="5" horiz-adv-x="682" 
d="M59 118q12 0 29 -11t41.5 -24t56.5 -24t71 -11h34.5t42.5 2t44.5 7t40.5 13t29 21.5t11 32.5q0 37 -16 66t-43 49.5t-60 31.5t-67 11q-31 0 -59.5 -7.5t-56.5 -17t-56 -17t-57 -7.5q-15 0 -20 5.5t-5 19.5q0 17 11.5 43t26 55.5t29 56.5t21.5 44q1 2 5 6l4 4
q-19 -5 -29 0.5t-10 24.5q0 6 1 14t10 10q92 20 184.5 25.5t187.5 5.5h53q24 0 48.5 -1t49 -3t51.5 -7q0 -1 1 -7t1 -8q0 -10 -1.5 -17.5t-9.5 -16.5q-14 1 -41 1h-207q-34 0 -62.5 -0.5t-40.5 -0.5q-5 0 -22 -1t-35 -2.5t-35 -3t-25 -2.5q-9 -2 -17 -11.5t-14.5 -22.5
t-11.5 -29t-8.5 -31.5t-5 -28t-1.5 -19.5v-5l4 -5q4 -4 5 -4h10q3 0 10 4t10 5q7 1 26.5 3.5t41.5 4t41 2.5t27 0q44 -4 83 -23t68.5 -49.5t47 -70t17.5 -83.5q0 -26 -12.5 -47t-32.5 -36.5t-44.5 -23.5t-48.5 -8h-205q-23 0 -44 10.5t-37 27.5t-25.5 38.5t-9.5 41.5z" />
    <glyph glyph-name="six" unicode="6" horiz-adv-x="614" 
d="M9 293q0 32 12 64.5t32.5 62.5t47.5 57t58 46.5t64 31t66 11.5q14 0 18.5 -8.5t4.5 -21.5v-5.5v-4.5q-14 -6 -37 -16t-48.5 -24t-52 -31.5t-48 -37t-35.5 -41.5t-14 -45v-117l11 -19q25 32 61.5 50t78 26.5t83.5 10t78 1.5h20q13 0 29 -0.5t29 -0.5h20q21 -7 40.5 -17.5
t34.5 -25t24 -33.5t9 -42q0 -34 -16.5 -59.5t-43.5 -44t-61 -30t-68.5 -18.5t-67.5 -10t-57 -3q-63 0 -113 22.5t-85 62.5t-54.5 93.5t-19.5 115.5zM136 142q0 -25 16 -41.5t39.5 -26t49 -13.5t44.5 -4q18 0 43.5 1t53 5t55 11.5t50.5 19t38.5 29.5t20.5 43q2 16 -7.5 27.5
t-27 19.5t-39 12t-41.5 6.5t-36.5 3t-23.5 0.5q-13 0 -35.5 -2.5t-48.5 -7t-53 -11.5t-49 -17.5t-35.5 -24t-13.5 -30.5z" />
    <glyph glyph-name="seven" unicode="7" horiz-adv-x="809" 
d="M322 253q-13 4 -22 6t-17.5 3t-17.5 1h-20h-30.5t-26.5 -1.5t-27.5 -3.5t-33.5 -5q-4 2 -9 5.5t-11 7t-11 8t-8 8.5q27 17 61.5 25.5t70.5 11.5t70 3h60q18 11 32 30.5t27 42t24.5 45t24.5 38.5q-5 1 -17.5 2.5t-26.5 3t-26 2.5t-17 1q-13 1 -40 1h-195q-33 0 -59 -0.5
t-38 -0.5q-15 6 -17.5 13.5t-2.5 19.5q0 6 0.5 14.5t9.5 11.5h59q21 0 43.5 0.5t41.5 0.5h61h71.5h81.5t83 -3t76 -8q6 -6 11 -13.5t8 -15.5q-4 -7 -15.5 -21.5t-26 -32.5t-29.5 -38t-27.5 -39t-21 -34.5t-8.5 -25.5q0 -2 1 -2q0 -2 1 -2q1 -2 9 -5.5t10 -4.5
q80 -10 164.5 -18.5t166.5 -20.5q9 -2 10 -9.5t1 -14.5t-1 -14.5t-10 -10.5h-9q-6 0 -12.5 -0.5t-13.5 -0.5h-9q-41 0 -83 5t-82.5 10.5t-82 10t-83.5 4.5h-15q-13 -25 -19.5 -52.5t-11.5 -55t-9.5 -53t-14 -44.5t-26 -30.5t-45.5 -11.5q0 35 7.5 66t17 62t17 61.5t7.5 62.5
v5z" />
    <glyph glyph-name="eight" unicode="8" horiz-adv-x="565" 
d="M194 116q0 90 36.5 159t110.5 124q-3 2 -10 5.5l-9 4.5q-30 6 -63 8.5t-65.5 3.5t-65 0t-59.5 -2q-6 3 -16 6.5t-19.5 10t-17 14t-7.5 17.5q0 32 16.5 56t42 40t58.5 26t67 16t65 8t54 2h15h23.5t23.5 -0.5t15 -0.5q15 -6 18 -14t3 -19q0 -12 -3 -19t-16 -7
q-20 0 -37 5.5t-36 5.5q-25 0 -60 -3.5t-70 -12t-65 -24t-46 -39.5l21 -9l10 -1q10 -1 26 -2t36 -2l40 -2t39.5 -2.5t32.5 -1.5h8h12h12h8q4 0 15 -2.5t23.5 -5.5t23.5 -6t15 -5q18 13 32.5 25t25 26.5t16 33t5.5 42.5h4h5q11 0 17 -4t9 -11t4 -15.5t1 -15.5
q0 -21 -8.5 -35.5t-18 -27t-17.5 -25t-8 -27.5q0 -21 12 -42.5t27.5 -44.5t28.5 -49.5t13 -58.5q0 -27 -13 -54t-34.5 -52t-49.5 -45.5t-57.5 -36t-59.5 -24t-56 -8.5q-24 0 -40.5 10.5t-26 27.5t-13 37.5t-3.5 41.5zM243 77q10 -14 24.5 -17t30.5 -3q29 0 59.5 13.5
t57.5 35t48.5 47.5t32.5 52q0 1 1 4t1 5q0 10 -4 25.5t-11 33t-16.5 35t-20 32t-23 23t-24.5 8.5q-22 0 -42 -13t-37.5 -34t-31.5 -47.5t-24.5 -54t-15.5 -53t-5 -42.5v-11v-14v-14v-11z" />
    <glyph glyph-name="nine" unicode="9" horiz-adv-x="448" 
d="M341 14q0 76 6 145t13 143v10q0 3 -4 10.5t-6 8.5h-2h-1l-1 1q-1 0 -2 -0.5t-3 -0.5q-10 -4 -34.5 -11l-52.5 -15t-53 -14.5t-35 -8.5q-1 0 -5.5 -0.5t-11 -0.5h-13h-10.5q-23 0 -46 4.5t-41 16t-29 30t-11 47.5q0 28 13.5 50t35.5 38.5t50 28t57 18t57 9.5t49 3
q25 0 54.5 -4t54.5 -15.5t42 -33t17 -54.5q0 -51 -3.5 -100.5t-8 -98.5t-7.5 -99t-1 -101q-7 -11 -17.5 -16t-20.5 -5q-5 0 -10 0.5t-9 2t-7.5 4t-3.5 8.5zM59 376q0 -16 8 -23.5t19.5 -10t24 -2.5h22.5q11 0 32.5 1.5t47 5.5t52 11t48 18t35 26t13.5 37q0 11 -3.5 17
t-16.5 11h-13.5t-20.5 0.5t-21 1t-13 0.5q-13 0 -34 -1t-44.5 -4.5t-48 -10t-44 -16.5t-31.5 -25.5t-12 -35.5z" />
    <glyph glyph-name="colon" unicode=":" horiz-adv-x="218" 
d="M33 106q0 20 7.5 36.5t20 29t30 18.5t36.5 6q12 0 23.5 -6t20.5 -16t14 -22.5t5 -24.5v-5v-5q-15 -13 -26 -21t-21 -12t-21.5 -5.5t-26.5 -1.5q-7 0 -18 0.5t-20.5 3.5t-16.5 8.5t-7 16.5zM65 400q0 17 6 28t16 17.5t23.5 9t30.5 2.5q24 0 39 -17.5t15 -42.5
q0 -14 -8 -23t-19.5 -15t-24 -8.5t-22.5 -2.5q-31 0 -43.5 10.5t-12.5 41.5z" />
    <glyph glyph-name="semicolon" unicode=";" horiz-adv-x="166" 
d="M29 -360q0 22 9.5 42.5t23 41.5t26 41t19.5 40q0 2 -1 6.5t-3 9t-3.5 8.5t-1.5 5q-1 3 -5.5 6.5l-4.5 3.5q-2 0 -7.5 -1.5t-12 -3t-12.5 -3t-7 -2.5h-12q-20 0 -34.5 8t-14.5 30q0 19 9 29.5t21.5 15t28.5 5.5t30 1h8q6 0 12 -0.5t12 -0.5h7q13 -9 22.5 -21t15.5 -26
t9 -29.5t3 -30.5q0 -29 -9.5 -55t-24.5 -49t-34.5 -43t-39.5 -39h-4.5h-4.5q-5 0 -12.5 1t-7.5 10zM8 239q0 16 5.5 29t15.5 23.5t23.5 15.5t29.5 5q11 0 23.5 -6.5t24 -16.5t19 -22t7.5 -24q0 -13 -9.5 -22t-23 -15t-28 -9t-24.5 -3t-21 2.5t-20.5 8t-15.5 14.5t-6 20z" />
    <glyph glyph-name="less" unicode="&#x3c;" 
d="M-1 312q0 10 4.5 16.5t16.5 13.5q52 24 93.5 45t81.5 40.5t83.5 38.5t101.5 41q1 0 2 0.5t3 0.5q11 0 18 -10t7 -20q0 -11 -4.5 -18t-16.5 -12l-256 -113l13 -13q0 -1 10.5 -5.5t27.5 -12.5t38.5 -17.5l43 -19t41.5 -18t34 -15.5q10 -5 28.5 -7.5t36 -6.5t31 -11.5
t13.5 -23.5q0 -14 -10.5 -21.5t-23.5 -7.5t-37.5 5.5t-56 15t-68 22.5t-72.5 26t-69 27t-58.5 25.5t-40.5 20.5t-15 14z" />
    <glyph glyph-name="equal" unicode="=" 
d="M29 331q7 1 20.5 2.5t31 3.5t36.5 4t36.5 4.5t31 3.5t20.5 2h19q6 0 21.5 -1t35 -1.5t41 -2t40.5 -2.5t34 -1t23 -1q6 -5 13 -14.5t7 -15.5q0 -2 -1.5 -5l-3 -6t-3.5 -5.5t-2 -3.5q-58 2 -109.5 0.5t-101.5 -4.5t-99 -5.5t-103 -2.5q0 2 0.5 8t1.5 13t1.5 13t0.5 8t4 5.5
t5 3.5zM48 195q0 17 20 26.5t50.5 15.5t67.5 7.5t72.5 1.5t64 -0.5t42.5 -0.5q18 0 32 -1t24.5 -6.5t15.5 -16.5t5 -31q-48 0 -95 -3t-93.5 -5.5t-93.5 -4.5t-93 -2q-19 0 -19 20z" />
    <glyph glyph-name="greater" unicode="&#x3e;" horiz-adv-x="546" 
d="M106 118v30q0 6 2 9.5t6 7.5t13 9l253 176q12 2 20 10t9 20q-7 2 -21.5 6t-32.5 9.5t-38.5 12t-39.5 11.5l-32 11q-15 5 -21 8q-4 1 -14.5 6.5t-26 12t-33 15l-35 17t-33 15.5t-23.5 12q-8 4 -17 9t-16 12t-12.5 15t-5.5 17q0 6 1.5 12t5 11.5t7.5 9t12 3.5l1 -0.5
t2 -0.5q1 -1 2 -1q2 0 5 -2.5t6 -5.5t5.5 -6t3.5 -5q54 -31 106.5 -52t105.5 -37.5t106 -32t110 -34.5q17 -6 28.5 -18.5t11.5 -31.5q0 -7 -3 -13t-17 -5l-371 -262q-1 -1 -3 -1h-5q-9 0 -13.5 3t-6.5 7.5t-2 10.5z" />
    <glyph glyph-name="question" unicode="?" horiz-adv-x="409" 
d="M37 269q0 33 21.5 59.5t53 51t68.5 46t68.5 43.5t52.5 44.5t21 48.5q0 21 -13.5 35t-33 22.5t-41 12.5t-36.5 4q-31 0 -61 -14t-55 -30.5t-43 -30.5t-25 -14q-6 0 -9 3t-4.5 8t-1.5 10v10q0 18 11 34t29.5 30t41.5 25.5t45.5 19t43 12t35.5 4.5q26 0 57.5 -11t57.5 -30
t43.5 -45.5t17.5 -55.5q0 -35 -21 -63.5t-52.5 -53.5t-68.5 -46.5t-68.5 -43.5t-52.5 -43.5t-21 -47.5q0 -10 4.5 -18.5t10 -16t10.5 -15t5 -17.5q0 -8 -8 -9.5t-12 -1.5q-16 0 -29 8t-22 20.5t-14 27.5t-5 28zM28 44q0 12 6.5 20.5t15.5 14t20.5 7.5t22.5 2q25 0 35 -14.5
t10 -36.5q0 -23 -12.5 -31t-34.5 -8q-9 0 -20.5 2.5t-20.5 7.5t-15.5 14t-6.5 22z" />
    <glyph glyph-name="at" unicode="@" horiz-adv-x="1003" 
d="M19 336q0 70 25.5 125t68.5 95.5t99.5 68.5t118.5 45t126.5 24.5t123.5 7.5q40 0 87 -5t93 -16.5t88 -31t74.5 -48.5t52 -68t19.5 -90q0 -49 -14.5 -80t-39.5 -52.5t-56.5 -38.5t-65.5 -38h-12q-8 0 -18 -0.5t-18 -0.5h-11q-22 0 -42 6.5t-37 14t-31 14t-25 6.5
q-17 0 -33.5 -5.5t-34 -11t-35 -10t-36.5 -4.5q-24 0 -45.5 6.5t-37 19t-24.5 32t-9 45.5q0 22 9.5 41t26 33.5t37.5 25.5t43 18.5t44 11t39 3.5q4 0 13.5 -0.5t12.5 -0.5q28 -15 41 -34.5t19 -40t10 -40.5t13 -36t27.5 -25.5t55.5 -9.5t69 8.5t55.5 26.5t37 46t13.5 66
q0 42 -17.5 75t-47.5 56.5t-67.5 39.5t-78.5 25.5t-81.5 14t-74.5 4.5q-49 0 -104.5 -7.5t-110 -23t-104.5 -41t-88.5 -61.5t-61.5 -84t-23 -108q0 -59 27 -103t70.5 -75t99 -51t112 -31.5t109.5 -16t92 -4.5q54 0 107.5 5.5t107.5 5.5h9.5t10 -1.5t6.5 -5.5t0 -13
q-3 -10 -22.5 -17.5t-48.5 -11.5t-62.5 -6.5t-64 -3.5t-54.5 -1h-32q-52 0 -111.5 6.5t-118 21.5t-112 40.5t-94.5 62.5t-65 88t-24 118zM428 341q0 -14 5.5 -21.5t14 -12t19.5 -5.5t21 -1q11 0 29 1.5t35 6.5t30 13.5t13 21.5q0 11 -1.5 24t-5 24.5t-11.5 19t-20 7.5
q-16 0 -37.5 -5t-42.5 -15.5t-35 -24.5t-14 -33z" />
    <glyph glyph-name="A" unicode="A" horiz-adv-x="448" 
d="M360 9q-4 13 -7 34.5t-6 47t-6.5 52t-7 50.5t-9 42.5t-12.5 27.5h-10h-14.5h-14.5h-10h-38t-33 -2.5t-34 -6t-42 -11.5q-6 -2 -11 -11t-8.5 -19.5t-6 -20.5t-2.5 -17t-1.5 -25t-3 -38t-3.5 -38.5t-3 -24.5q-7 -12 -20 -21t-28 -9q-13 0 -17 6t-4 19q0 1 0.5 7t0.5 8
q15 136 53 268t94 258q0 1 2.5 4t6 6t6.5 5.5t4 2.5q2 0 3 1h1l1 1q23 0 44.5 -16.5t41.5 -41.5t36 -56.5t28.5 -61.5t20 -56.5t9.5 -41.5q11 -6 22.5 -9.5t22.5 -8t19.5 -11t14.5 -20.5q0 -1 -0.5 -4t-2.5 -6t-3.5 -6t-3.5 -3q-2 -1 -9.5 -3t-15 -3.5t-15 -2.5t-9.5 -1v-5
q0 -46 8 -95.5t21 -93.5q0 -1 1.5 -4t3.5 -6t3 -6.5t2 -3.5v-5q0 -17 -12.5 -26t-26.5 -9q-7 0 -12 1.5t-8 8.5zM127 309q19 0 44.5 2.5t51 6.5t47.5 7.5t32 5.5q-1 6 -6.5 23t-11.5 36t-12 35.5t-9 22.5q-2 4 -8.5 14.5t-15 20.5t-18 17.5t-16.5 7.5q-6 0 -11 -1t-9 -11
l-58 -165v-22z" />
    <glyph glyph-name="B" unicode="B" horiz-adv-x="478" 
d="M20 429q-9 3 -10.5 7.5t-1.5 11.5q0 22 14.5 36.5t35.5 23.5t48 13t52.5 6t48.5 1.5t36 -0.5q5 0 18 -0.5t27 -1t26 -0.5h17q13 -6 31.5 -11.5t35.5 -13.5t29 -21t12 -32q0 -20 -10.5 -34.5t-26.5 -25.5t-35.5 -19.5t-38.5 -17t-33.5 -17.5t-21.5 -22q27 -7 58 -19
t57.5 -29.5t44 -43t17.5 -59.5q0 -42 -18.5 -72.5t-48 -50t-67 -29t-77.5 -9.5h-5q-4 1 -10 2t-12.5 2.5t-11.5 2.5t-5 2l-156 89q-2 1 -5.5 8t-4.5 10q-5 36 -7.5 77t-3.5 82.5t0 81t2 72.5zM76 267q0 -47 13.5 -86t39.5 -66t64.5 -42.5t88.5 -15.5q17 0 36 6.5t35.5 18
t27 27.5t10.5 35q0 35 -17.5 58t-45 36.5t-62.5 19.5t-70 8.5t-66.5 1.5t-53.5 -1zM224 479q-50 0 -79 -7t-44.5 -25.5t-20.5 -50t-5 -78.5q14 0 41.5 5.5t60.5 15t67.5 22t62.5 26t46 28t18 28.5q0 7 -9 13t-24 10t-33 6.5t-34.5 4t-29 2t-17.5 0.5z" />
    <glyph glyph-name="C" unicode="C" horiz-adv-x="526" 
d="M8 200q0 39 20 69t51 52.5t71 37.5t80 24t77.5 12.5t64.5 3.5q11 0 20 -8t9 -20q0 -11 -2.5 -19.5t-9.5 -20.5q-21 3 -53 3t-66.5 -4t-68.5 -13.5t-62 -26t-45 -39.5t-17 -56q0 -30 10 -51.5t27 -37t39 -25t46.5 -15t49.5 -7.5t48 -2q26 0 51.5 1t49.5 4t49 8.5t49 17.5
q11 -3 11.5 -10.5t0.5 -15.5q0 -19 -12.5 -31t-33 -19t-45.5 -10t-49 -3.5t-44.5 0t-31.5 0.5q-30 0 -63.5 4.5t-64.5 13.5t-59.5 24.5t-49.5 37.5t-34 52t-13 69z" />
    <glyph glyph-name="D" unicode="D" horiz-adv-x="439" 
d="M20 148v64.5t3 67.5t8.5 66t17.5 63q-12 -4 -18 -2t-9 7t-3.5 11.5t-0.5 11.5q0 13 4 19t11 8.5t16.5 3t19.5 0.5q36 0 75.5 -6t78.5 -18.5t74 -32t62.5 -47t43.5 -61.5t16 -78q0 -53 -21 -95t-56.5 -70.5t-82.5 -44.5t-97 -16q-32 0 -58.5 11t-45.5 30.5t-28.5 47.5
t-9.5 60zM88 88q7 -12 20 -18t27 -9t28.5 -3.5t26.5 -0.5q34 0 65.5 12.5t55.5 34.5t37.5 52.5t13.5 65.5q0 28 -12 52.5t-31.5 45.5t-45 37.5t-53.5 28t-56 17.5t-54 6h-3q-15 -15 -21.5 -40.5t-8 -54t-0.5 -56t1 -44.5v-19q0 -6 1.5 -21.5t2.5 -33t3 -32.5t3 -20z" />
    <glyph glyph-name="E" unicode="E" 
d="M8 140q0 55 7 115.5t14 115.5q2 19 20 32.5t45 22.5t59.5 14t64 7t59.5 2.5t45 0.5h17t24 0.5t27 -0.5t24.5 -4.5t17.5 -10.5t7 -18q0 -7 -3.5 -12.5t-16.5 -5.5q-84 10 -168 -2.5t-163 -36.5v-10v-28v-10t-2 -7.5t-3.5 -12t-3.5 -12.5t-2 -7q0 -2 4 -5.5t7 -4.5h10
q5 0 23 1.5t42 4t51 4.5t51 4t42.5 3t23.5 2h4q4 0 8.5 0.5t7.5 0.5h7q18 0 25.5 -3.5t7.5 -22.5q0 -16 -14 -22.5t-36.5 -9t-51.5 -2t-59 1t-59.5 -1.5t-52 -9t-36 -22t-13.5 -41q0 -35 13 -56t35 -32.5t50 -15.5t57.5 -3.5t59.5 2.5t56 2q24 0 43.5 5.5t40.5 5.5
q6 0 9.5 -3.5t4.5 -8.5t1 -10v-9q0 -12 -2 -20t-18 -8h-283q-33 0 -57.5 10.5t-39.5 29.5t-23 44.5t-8 55.5z" />
    <glyph glyph-name="F" unicode="F" horiz-adv-x="448" 
d="M49 175q-16 5 -23 12.5t-7 22.5q0 9 3 13t7.5 6.5t9.5 5t10 8.5q0 7 2 24t3 35t2.5 35t2.5 23q0 1 -0.5 4.5t-0.5 7.5t-0.5 7t-0.5 4q-3 0 -9.5 -1t-12.5 -1t-10.5 2.5t-4.5 10.5q0 10 5.5 20t13.5 15q43 11 86.5 17t88 8.5t88 2.5h86.5q16 0 28.5 -4.5t12.5 -23.5
q0 -11 -3.5 -17.5t-16.5 -12.5q-12 0 -42 0.5t-64.5 0.5t-65 -0.5t-42.5 -0.5q-9 0 -22.5 -1.5t-26 -2.5t-21.5 -3t-9 -3v-154l234 -21q7 -1 11.5 -6.5t8 -11.5t5 -14t1.5 -12h-269v-178q-21 0 -34 9.5t-19.5 25t-8.5 35.5t-1.5 40t2.5 39.5t3 33.5z" />
    <glyph glyph-name="G" unicode="G" horiz-adv-x="536" 
d="M439 29q-35 -13 -59.5 -21t-45 -12t-41.5 -5t-50 -1q-43 0 -85 12t-75.5 36.5t-54 62.5t-20.5 89q0 41 19.5 74t51 57t71.5 41.5t82 27.5t82 15t71 5h9q5 0 12.5 -0.5t13.5 -0.5h9q1 0 4 -2.5t6 -6t5.5 -6.5t3.5 -5q0 -1 1 -1v-2l1 -1q0 -1 -0.5 -1.5t-0.5 -1.5
q-1 -1 -1 -2q-1 -2 -3.5 -5t-5.5 -6.5t-6 -6t-4 -2.5q-25 -1 -61 -4t-75 -10.5t-77.5 -19t-69 -29.5t-50 -43.5t-19.5 -61.5q0 -31 11.5 -57.5t31 -47t46.5 -33t58 -15.5q21 -2 49.5 0.5t57.5 9t54.5 16.5t43.5 23q5 5 10.5 13.5t11.5 16.5t12.5 14.5t14.5 6.5q13 0 21 -9
t17 -23v-4q0 -35 -1 -62.5t-2.5 -52t-3 -47.5t-2.5 -48.5t-1 -56.5t1 -70q-3 -6 -10 -9.5t-15 -6t-15 -3t-9 -0.5q-4 0 -11.5 3t-7.5 6v273z" />
    <glyph glyph-name="H" unicode="H" horiz-adv-x="478" 
d="M69 185q0 -3 1.5 -14.5t3 -24.5t2.5 -24.5t1 -14.5v-12q0 -7 -3 -10t-8.5 -5.5t-11 -2.5h-10.5q-19 0 -24.5 10.5t-10.5 28.5v17q0 13 -0.5 27t-0.5 27v18q0 33 0.5 60t1.5 53.5t3.5 54.5t6.5 66q-1 7 0.5 11.5t5 6t8.5 2t9 0.5q6 0 14 -1t12 -10q6 -42 8.5 -82.5
t-0.5 -83.5l11 -9h280q0 21 1 34t1.5 21.5t0.5 15.5t-1 16.5t-3 22.5t-7 36q3 9 11 9.5t15 0.5q10 0 18.5 -15t15.5 -40.5t13 -59.5t10 -70.5t7.5 -73.5t5.5 -70t3 -59.5t1 -40.5h-41q-2 0 -5.5 11t-8 26.5t-9 32t-7.5 28.5q-1 3 -2 17.5t-2.5 30.5t-2.5 30.5t-2 18.5
t-5 11.5l-4 7.5h-294l-3.5 -7.5t-4.5 -11.5v-10z" />
    <glyph glyph-name="I" unicode="I" horiz-adv-x="127" 
d="M8 337v28t3 30.5t10.5 24t24.5 9.5q8 0 13.5 -14t8.5 -36.5t5 -49.5t2.5 -52t1 -45t0.5 -27q2 -26 7.5 -52.5t11 -53.5t10 -53t4.5 -50q-35 0 -56 15t-31.5 40t-13.5 57.5t-2 66t2.5 67t-0.5 60.5v5q0 5 -0.5 10t-0.5 10v10z" />
    <glyph glyph-name="J" unicode="J" horiz-adv-x="565" 
d="M78 136q0 6 2 17t6 21t10.5 18t16.5 8q0 -32 6.5 -59.5t21.5 -48.5t40 -33t62 -12q14 0 27.5 1.5t26.5 6t24 12.5t21 21q0 3 0.5 11.5t0.5 17.5t0.5 17.5t0.5 11.5q0 30 -2 53.5t-7.5 46.5t-15.5 47.5t-27 56.5v39h-276v9q0 6 1.5 12t4 12t7.5 7q6 0 21 3t32 6t32.5 6
t21.5 4h20q14 -1 44 -1.5t67.5 -1t79 -2t78.5 -2.5t67 -1.5t44 -0.5q8 -4 9.5 -9t1.5 -11q0 -10 -9.5 -20t-21.5 -10h-145q-16 0 -18.5 -6t-2.5 -18q0 -28 8.5 -56t19 -56t20 -57t11.5 -60q2 -38 -13 -64t-40.5 -42t-58 -23.5t-63.5 -7.5q-29 0 -56.5 9.5t-50 27.5t-36 43.5
t-13.5 56.5z" />
    <glyph glyph-name="K" unicode="K" horiz-adv-x="536" 
d="M9 371q0 7 0.5 18.5t3 22.5t8.5 19t18 8q13 0 19.5 -6t8.5 -15t1.5 -19.5t0.5 -18.5q0 -8 1 -27.5t2.5 -41t3 -41t1.5 -27.5h11l155 79q10 12 23 22.5t25.5 21t25.5 21t24 22.5h30v-38q0 -6 -13 -18.5t-29.5 -26.5t-32.5 -27t-23 -17q-6 -3 -21.5 -11.5t-32.5 -18
t-32 -17.5t-21 -11l273 -147q4 0 18.5 -1t30 -5t27.5 -11.5t12 -20.5q0 -6 -1.5 -11t-9.5 -8q-3 0 -9 -0.5t-12.5 -0.5h-13h-8.5q-35 0 -66.5 10.5t-62 27t-59 35.5t-58.5 35.5t-62 28t-67 11.5q-2 0 -6 -0.5l-4 -0.5q-2 -9 -1 -24.5t1 -34t-1.5 -38t-6 -35t-13.5 -26
t-24 -10.5q-14 0 -18 5t-5 26q0 4 -0.5 14.5t-0.5 24.5v30q0 15 0.5 29t0.5 24v15q0 5 -1 20.5t-2.5 36.5t-2.5 45t-2 45t-2 36.5t-1 21.5z" />
    <glyph glyph-name="L" unicode="L" horiz-adv-x="565" 
d="M20 49v23q0 18 -0.5 37t-0.5 37v55q0 21 0.5 40.5t0.5 33.5v46q0 16 1.5 31t5.5 29.5t12 27.5q5 7 8 8.5t12 1.5q4 0 11.5 -1.5t7.5 -8.5v-311q0 -17 11 -25t26.5 -11t31.5 -3h27q44 0 89 3t89 6.5t88.5 6t89.5 2.5h11q6 0 8.5 -2t4 -8t1.5 -18q0 -3 -4.5 -6.5t-9.5 -5.5
q-7 -4 -15 -8q-13 -1 -41.5 -3.5t-64 -5.5t-74.5 -6t-75 -6t-64 -5t-41 -3h-50q-21 0 -39.5 4t-33.5 14.5t-23 30.5z" />
    <glyph glyph-name="M" unicode="M" horiz-adv-x="594" 
d="M507 29q-1 9 -2.5 27.5t-3 41.5t-3.5 48.5t-4.5 48.5t-4 41t-2.5 27q0 3 -1 10.5t-3.5 16t-7.5 15.5t-13 7q-15 0 -36 -6t-43.5 -13t-44 -12t-39.5 -5q-36 0 -64 13t-53.5 28t-52 28t-59.5 13q0 -59 4.5 -115t4.5 -113q0 -5 -0.5 -12.5t-0.5 -13.5q-1 -8 -1 -16l-48 -29
l-9 8q-1 1 -1.5 12t-1.5 29t-2 40t-2.5 44.5t-2 44t-1.5 36.5v12q0 11 -0.5 24.5t-0.5 27.5v41q0 13 0.5 27t0.5 26v17q2 9 10 10t15 1q1 0 7.5 -1t7.5 -1q34 -24 64.5 -46t62 -38.5t65.5 -26.5t76 -10q21 -7 45 0.5t47 21t43.5 28.5t34.5 24q10 0 18.5 -6t15.5 -15
t10.5 -19t4.5 -20q0 -10 2.5 -30.5t5.5 -46.5l12 -109q3 -25 5.5 -46t3.5 -30q1 -10 4 -18l7 -18q4 -8 7 -17t3 -16q0 -8 -5.5 -12t-12 -6t-15.5 -2h-13q-15 0 -21.5 7.5t-11.5 22.5z" />
    <glyph glyph-name="N" unicode="N" horiz-adv-x="623" 
d="M9 195q5 9 10 26t8.5 38t8.5 42.5t10.5 39.5t13 29t17.5 11q2 0 6 -0.5t5 -0.5q96 -82 204.5 -147.5t223.5 -116.5h5h5q6 0 11 1t9 10q-13 29 -23.5 66t-18.5 75t-13 73.5t-5 62.5q0 4 1.5 11t3.5 14.5t6 13t10 5.5q4 0 12 -1.5t16.5 -5.5t14.5 -9.5t6 -12.5
q0 -11 -5 -21.5t-5 -21.5v-5q0 -3 1.5 -12t3 -18.5t2.5 -18t2 -10.5v-10q7 -24 16 -53t16.5 -59.5t12.5 -62t5 -60.5q0 -10 -1 -18.5t-4.5 -15.5t-10.5 -10.5t-18 -3.5q-12 0 -24 4t-23 11.5t-20 16t-17 16.5l-380 206h-4v1q-6 0 -10.5 -9.5t-8 -20.5t-5.5 -20t-2 -10
q0 -4 1 -14t2 -24.5t2 -30t2 -29.5t2.5 -24.5t1.5 -14.5v-68q-2 -5 -6.5 -7t-10 -3t-11 -0.5t-6.5 0.5q-4 0 -13 0.5t-12 0.5z" />
    <glyph glyph-name="O" unicode="O" horiz-adv-x="496" 
d="M9 205q0 28 11.5 54.5t31 49.5t45 41.5t53.5 31.5t56 20.5t53 7.5q54 0 94.5 -18.5t68.5 -50.5t42.5 -76t14.5 -96q0 -86 -49.5 -128t-140.5 -42q-26 0 -57 6.5t-62 18.5t-60 29.5t-51 40t-36 50.5t-14 61zM77 203q0 -34 22.5 -61t55 -46t68 -29t62.5 -10q32 0 59 5.5
t47 19t32 36.5t16 57q3 40 -10.5 72.5t-38.5 55.5t-58 35t-69 12q-28 0 -61 -11t-60.5 -30.5t-46 -46.5t-18.5 -59z" />
    <glyph glyph-name="P" unicode="P" horiz-adv-x="399" 
d="M8 168q0 10 0.5 30t3 43.5t5.5 48t8.5 45t15 33.5t22.5 13h1.5h1.5q1 -1 3 -1q1 -1 4 -3.5t6 -5.5t5.5 -6.5t3.5 -4.5q-9 -19 -13 -30.5t-6 -19.5t-1 -13.5t2 -13t2 -19t1 -29.5q17 0 42.5 3t53 8.5t55 14.5t49.5 22.5t35.5 31.5t13.5 43q0 15 -18 26t-46 18t-61.5 10.5
t-65 5t-57 1.5h-35.5q-8 3 -9.5 8.5t-1.5 11.5q0 11 4.5 17t16.5 11h10.5h16t16 0.5t11.5 0.5q28 0 50 -0.5t44 -3t47 -6t58 -10.5q18 -11 32.5 -17.5t25.5 -15t16 -22t5 -39.5q0 -34 -16.5 -59t-42.5 -43.5t-59.5 -31t-68.5 -21t-68 -14.5t-57 -10v-34q0 -18 0.5 -31
t1 -26.5t2.5 -28.5t4 -35q-5 -9 -14 -14.5t-19 -5.5q-13 0 -20 10.5t-11 27t-5 36t-0.5 38.5t0.5 34v22z" />
    <glyph glyph-name="Q" unicode="Q" horiz-adv-x="516" 
d="M292 -20q-43 3 -90.5 12t-88.5 29.5t-67.5 54t-26.5 85.5q0 35 9 66t26 59t40.5 51t51.5 43q2 1 7.5 3.5t12.5 6.5t12 6l7 3q2 1 5.5 5t4.5 5h15q12 0 24 0.5t24 0.5h15q59 0 103.5 -12t73.5 -39t43.5 -71t14.5 -109q0 -42 -9 -70.5t-28 -49.5t-46.5 -36.5t-64.5 -31.5
q5 -17 12.5 -31.5t15.5 -28.5l16 -28t15 -30q-8 -7 -14.5 -8.5t-16.5 -1.5q-20 0 -32.5 15.5t-22.5 35.5t-19 39t-22 27zM77 149q0 -33 21.5 -55t52.5 -34t64.5 -17.5t58.5 -5.5q0 29 -5.5 57t-5.5 57v6v11v10v7q0 2 3 5t6 6.5t5.5 5.5t4.5 3q15 2 21.5 -8t10 -27t5 -38.5
t4 -39.5t7.5 -30.5t15 -12.5q31 0 52 13.5t34.5 34.5t20 46.5t6.5 51.5q0 49 -11 83t-33.5 54.5t-56 29.5t-78.5 9q-41 0 -78 -20t-64 -52t-43.5 -72t-16.5 -78z" />
    <glyph glyph-name="R" unicode="R" horiz-adv-x="603" 
d="M82 156v-107q0 -1 -3.5 -5t-8.5 -8.5t-11 -9.5t-10 -6q-2 -1 -4 -1h-3h-3q-6 0 -11 1t-8 9v15q0 12 -0.5 24.5t-0.5 23.5v15q0 83 12 146.5t45.5 109.5t92.5 72.5t153 31.5q14 -4 25 -12t18.5 -19.5t11.5 -24t4 -26.5q0 -26 -14 -48.5t-34.5 -42.5t-45 -36.5t-45 -29.5
t-34.5 -24t-14 -19q0 -12 9 -25t24 -25t33 -22.5t35.5 -19.5t32.5 -15.5t22 -10.5h18h27h26h18q21 0 40.5 2t38.5 4.5t38.5 4.5t40.5 2q0 -21 -11.5 -35t-29.5 -23t-40.5 -14t-44 -6.5t-42.5 -1.5h-30q-41 0 -80.5 13t-76 35t-68.5 50t-58 58h-34zM97 252q0 -12 9.5 -15.5
t20.5 -3.5q14 0 34 6.5t41 16.5t41 24t35.5 30.5t25.5 34.5t10 35q0 14 -5 21.5t-22 7.5q-33 0 -66.5 -10.5t-61 -30.5t-45 -49.5t-17.5 -66.5z" />
    <glyph glyph-name="S" unicode="S" horiz-adv-x="496" 
d="M19 112q0 11 1 18t9 16q19 -12 28.5 -24t15.5 -22.5t13 -19.5t23 -16t44 -11t76 -4h28t39.5 2.5t43.5 7t40 13t29.5 21t11.5 30.5q0 3 -1 7.5t-1 5.5l-48 49l-322 88q-9 2 -13.5 7t-6.5 11t-2 13v14q0 27 18.5 47t47 33t64 21.5t70 13t64 5.5t45.5 1h11h15.5h15.5h11
q10 -3 11 -10.5t1 -14.5q0 -14 -18.5 -20.5t-47 -10t-64.5 -6.5t-69.5 -8.5t-61.5 -16.5t-42 -30l18 -10l283 -78q17 -5 32 -18.5t25.5 -31t16.5 -37t6 -35.5q0 -24 -11 -42.5t-28 -31t-39 -20t-45 -12t-45.5 -6t-40.5 -1.5q-19 0 -45.5 0.5t-54.5 3.5t-55 9.5t-48.5 19
t-34.5 31.5t-13 49z" />
    <glyph glyph-name="T" unicode="T" horiz-adv-x="633" 
d="M292 371h-11.5h-23.5t-26 0.5t-19 0.5q-48 0 -91.5 -6t-87.5 -6q-10 0 -12 8.5t-2 16.5q0 16 11.5 25.5t28.5 14.5t38 6.5t41 1t36.5 -2t25.5 -1.5q99 0 202 -7.5t202 -12.5q1 0 4 -2.5t6.5 -6t6 -6.5t2.5 -5q0 -1 1 -1v-2l1 -1q0 -1 -0.5 -1.5t-0.5 -1.5q-1 -1 -1 -2
q-1 -2 -4 -5.5t-6 -6.5l-5.5 -5.5t-3.5 -2.5h-228q0 -20 -4.5 -37.5t-10.5 -34.5t-11.5 -35t-7.5 -39v-9q-1 -8 -1.5 -22.5t-2 -32.5t-2 -38t-2 -38.5t-2 -33t-1.5 -20.5q-6 -17 -22 -21.5t-30 -4.5q0 43 -2.5 91t0.5 96.5t14.5 94.5t39.5 84z" />
    <glyph glyph-name="U" unicode="U" 
d="M8 314v22q0 14 1.5 30t4.5 32.5t8.5 30t14.5 22t22 8.5q8 0 12 -4.5t6 -12t2 -14.5v-13q0 -11 -0.5 -19t-1.5 -16.5t-3 -17.5t-5 -21q3 -32 6.5 -66t9.5 -65.5t16 -59t27.5 -48t44.5 -33t66 -12.5q19 0 42 2.5t45 9.5t39.5 21t23.5 37q0 4 0.5 15t0.5 23.5t0.5 23.5
t0.5 16q0 24 -5 47.5t-11 46t-10.5 44.5t-4.5 46q0 13 2.5 21.5t17.5 8.5q18 0 30 -14t20 -36t11.5 -49t6 -53t2.5 -47v-30q0 -52 -17.5 -88.5t-48 -59t-73 -32.5t-92.5 -10q-41 0 -72 13.5t-54.5 37t-39.5 54.5t-26 66.5t-14.5 72t-4.5 70.5z" />
    <glyph glyph-name="V" unicode="V" horiz-adv-x="487" 
d="M39 331q-5 6 -10 14.5t-10 18t-8 19t-3 16.5q0 20 21 20q25 0 43.5 -20.5t33.5 -52.5t28 -70t26 -73.5t28.5 -64.5t35.5 -40l78 145l10 10q5 6 15 19.5t22 31.5t25.5 37t26.5 36t22.5 31t15.5 21h4h5q15 0 23 -10t8 -25q0 -1 -0.5 -7t-0.5 -7q-5 -7 -14 -19.5
t-20.5 -29.5t-24.5 -34.5t-24.5 -34t-20.5 -29.5t-14 -19q0 -2 -4 -5t-6 -4l-97 -185q0 -1 -5 -3.5l-11 -5.5t-12.5 -6.5t-10.5 -4.5q-1 0 -5 -0.5t-7 -0.5h-4q-2 0 -3 1z" />
    <glyph glyph-name="W" unicode="W" horiz-adv-x="730" 
d="M29 389q-8 10 -9 17t-1 18t3.5 18.5t16.5 7.5q8 0 14 -4t11.5 -10.5t8.5 -13t5 -13.5q12 -41 21 -74t15.5 -66.5t11.5 -70t10 -82.5l10 -18q8 2 16 7t13 11q5 7 15.5 22.5t24 35t28.5 40.5t28.5 40.5t24.5 34.5t16 23q8 11 13 15.5t17 4.5q10 0 25.5 -15.5t35 -40
t39.5 -54t39.5 -56.5t36 -49t28.5 -29q1 0 2 -0.5t2 -0.5h3q1 0 2 1l10 10l107 369q4 13 6 17t12 4t15.5 -4.5t9.5 -11t5.5 -14.5t1.5 -16q0 -11 -4.5 -36.5t-12 -58.5t-18 -72.5t-23.5 -77.5t-26.5 -73.5t-27.5 -63.5t-28 -44.5t-27 -16.5q-1 0 -4.5 0.5t-4.5 0.5
q-30 26 -55.5 54t-48.5 57.5t-45.5 59.5t-46.5 63q-1 1 -4 5t-4 4q-2 0 -3 1q-2 0 -2 0.5t-1 0.5q-13 0 -28.5 -18.5t-32.5 -45.5t-36.5 -59t-39.5 -58.5t-40.5 -45t-42.5 -18.5l-3 2t-5.5 5.5t-5.5 7t-4 5.5q-1 1 -1 4.5t1 4.5z" />
    <glyph glyph-name="X" unicode="X" horiz-adv-x="516" 
d="M19 30q0 16 11 35t26.5 38.5t34.5 38t34.5 33.5t24.5 25.5t6 13.5l-136 146q-1 1 -3.5 5.5t-4 9t-2.5 9t-1 5.5q0 2 2.5 5t6 6.5t6.5 6t5 2.5t6 -1t9 -2t9 -3t6 -4l136 -136h19q21 23 50 53t62.5 57.5t68.5 46.5t67 19h11.5t11.5 -2.5t9 -6t4 -11.5t-2 -14.5t-9 -15.5
q-11 -3 -32.5 -15t-47.5 -28t-53.5 -35.5t-50 -38t-36.5 -34t-14 -24.5v-9q0 -5 10.5 -16.5t26 -25.5t35 -29.5t38.5 -28t35 -20.5t26 -8q7 0 11 2l8 4t8.5 3.5t12.5 1.5q15 0 19.5 -8.5t4.5 -22.5q0 -13 -7.5 -20.5t-19 -11.5t-24 -5t-21.5 -1q-17 0 -37 8.5t-41 21.5
t-41 29.5t-37.5 33t-32 30.5t-22.5 24q-38 -36 -72.5 -70t-63.5 -76q-5 -8 -6.5 -12.5t-2.5 -6t-3.5 -2t-11.5 -0.5q-18 0 -22 6.5t-4 24.5z" />
    <glyph glyph-name="Y" unicode="Y" horiz-adv-x="419" 
d="M97 34q0 3 0.5 12t0.5 13q3 6 10.5 20.5t17.5 33t20.5 38.5t20.5 38t17.5 32.5t10.5 21.5q1 3 4 10t6 14.5t5.5 14.5t3.5 10q-13 17 -33.5 32.5t-44.5 32t-48 34.5t-43.5 37.5t-32 41t-12.5 46.5q0 19 4.5 25.5t19.5 6.5q1 0 7 -0.5t8 -1.5q9 -15 22.5 -35t29.5 -42
t34.5 -43t37.5 -38t39.5 -27.5t40.5 -10.5h5.5h4.5q4 7 12.5 24t17.5 35.5t17.5 35t11.5 22.5q2 6 6 19.5t8.5 28.5t10.5 31t13 29t15.5 21.5t19.5 8.5l1 -1h2q0 -1 1 -1q2 0 5 -2.5t6.5 -5.5t6 -6t2.5 -4q-19 -73 -46 -144t-61 -139v-20q-7 -8 -23 -32.5t-35 -56
t-39.5 -65.5t-38.5 -62.5t-31 -47.5t-17 -19q-17 0 -19 10t-2 25z" />
    <glyph glyph-name="Z" unicode="Z" horiz-adv-x="730" 
d="M9 39q0 2 3 5l6 9q3 5 6 8.5t5 5.5l244 225q7 5 19 12.5t26.5 18t29.5 22.5t26.5 23t19 20.5t7.5 15.5q0 1 -1 2.5t-1 2.5q-21 2 -55.5 0.5t-74.5 -3t-79.5 -0.5t-72 8.5t-52.5 22t-20 42.5q3 0 12 -0.5t19 -0.5h19h12q14 0 44 -1t67.5 -2t79 -2t79 -2t67 -2.5t43.5 -1.5
q13 -5 17 -11t4 -17q0 -15 -14 -34t-37 -42t-53 -49t-63.5 -52.5t-68 -53t-66 -52t-57.5 -48t-42 -41.5h29q66 0 133 6.5t134 14t133.5 13.5t130.5 6q45 0 45 -40q0 -8 -24.5 -14.5t-65.5 -12.5t-94.5 -11.5t-110.5 -10t-115 -8t-107.5 -6t-86.5 -4t-54 -1.5h-7
q-5 0 -10.5 0.5t-10.5 0.5h-6l-3.5 7t-4 11.5t-2.5 12.5t-1 8z" />
    <glyph glyph-name="bracketleft" unicode="[" horiz-adv-x="371" 
d="M8 63q0 22 5.5 41t6.5 42q0 8 1.5 29.5t3 51.5t4 65.5t5.5 72.5t5.5 73t4 66t3 51.5t2.5 29.5q0 2 -0.5 7t0 9t2.5 8t8 5l223 29q2 0 6 -3t9 -7.5t9 -9.5t6 -9q2 -6 -2.5 -12.5t-11.5 -12t-14.5 -10t-10.5 -4.5q-4 0 -14.5 0.5t-25 1t-31.5 0t-33 -1.5t-30 -3.5t-23 -6.5
q-2 -1 -5 -23t-6 -57t-6.5 -79.5t-6.5 -90.5t-5.5 -90.5t-4.5 -79t-3.5 -56t-1.5 -22.5h8h12h12h7q28 0 54.5 6.5t53 13.5t52 13.5t50.5 6.5q13 0 24 -8.5t11 -21.5q0 -12 -4.5 -20t-15.5 -18q-42 -11 -74 -19t-61 -12.5t-58.5 -7t-65.5 -2.5h-9.5t-16.5 0.5t-17 1t-10 0.5
q-8 3 -12 11t-6.5 17t-2.5 19v16z" />
    <glyph glyph-name="backslash" unicode="\" horiz-adv-x="409" 
d="M9 507q-1 1 -2.5 5t-3 9t-2.5 9t-1 6q0 3 2 8t6 9.5t8 8t8 3.5h5l10 -5l10 -5q4 -6 11 -17.5t17 -25.5t20.5 -30t19.5 -31l17 -25q8 -12 12 -17q0 -1 4.5 -5t5.5 -5l175 -243q6 -17 17 -32.5l22 -31t21.5 -30.5t17.5 -33q-3 -2 -9.5 -6t-14.5 -9t-15 -9t-10 -5
q0 -1 -2 -1h-3q-10 0 -22.5 15t-22.5 33t-17.5 36t-10.5 24z" />
    <glyph glyph-name="bracketright" unicode="]" horiz-adv-x="331" 
d="M-1 35q0 11 14 17.5t35.5 11t47 7t47 6t36.5 8t16 13.5q7 52 14.5 108.5t13 114.5t8.5 115t3 110v9q-22 5 -50 5t-57 1t-55.5 5t-42.5 19q1 7 1.5 15.5t3.5 16t8.5 12.5t14.5 5q29 0 61 -3t64 -7t63 -6.5t57 -3.5q7 -9 8.5 -16.5t1.5 -17.5q0 -13 -1.5 -22t-8.5 -22
q-8 -48 -16.5 -109.5t-15.5 -126.5t-9.5 -130.5t2.5 -120.5q-13 -18 -40.5 -28t-58.5 -14.5t-61 -6t-49 -1.5h-7q-5 0 -10.5 0.5t-10.5 0.5h-6q-9 5 -15 15t-6 20z" />
    <glyph glyph-name="asciicircum" unicode="^" horiz-adv-x="312" 
d="M8 448q0 17 6 42t15.5 52t23.5 54t30.5 48.5t35.5 34.5t39 13q6 0 13 0.5t14 -1.5t12 -5.5t8 -13.5q5 -29 14.5 -58.5t23 -58t28.5 -55.5t31 -52q-10 -15 -17 -23t-21 -8q-13 0 -25 15t-22 36.5t-19.5 47t-17.5 48t-15.5 37t-13.5 14.5q-18 0 -28.5 -15t-17 -38t-12 -50
t-12.5 -50t-19.5 -38t-32.5 -15q-5 0 -8.5 5t-6.5 11.5t-4.5 13t-1.5 9.5z" />
    <glyph glyph-name="underscore" unicode="_" horiz-adv-x="429" 
d="M29 9q-5 1 -7 5.5t-2.5 9.5t-0.5 10v8q0 15 10 21t24.5 7.5t29.5 0.5t24 -1q37 0 70.5 -1.5t67 -2.5t68.5 -3.5t76 -3.5l6 -3t6.5 -5.5t5 -6.5t2.5 -5t-3.5 -9t-6.5 -10q0 -1 -4 -5.5t-6 -5.5q-18 -3 -32 -5t-27 -3t-26 -1h-30q-31 0 -62 2l-61 4q-30 2 -61 3.5t-61 -0.5
z" />
    <glyph glyph-name="grave" unicode="`" horiz-adv-x="544" 
d="M478 422q-20 -7 -47.5 -6.5t-58 6t-62 14t-58.5 17.5t-47.5 17t-30.5 11q-5 2 -9 3.5t-10 4.5t-16 7l-23 12q-7 4 -15.5 9t-16.5 11.5t-12.5 15t-4.5 18.5q0 5 1.5 11t4.5 11.5t7.5 9t11.5 3.5q1 0 1 -0.5t2 -0.5q1 -1 3 -1q1 0 4 -2.5t5.5 -6t5.5 -6.5t3 -5
q37 -20 64.5 -32t50.5 -19.5t44.5 -12t44.5 -9t51 -11.5t66 -20q18 -5 29.5 -18t11.5 -31z" />
    <glyph glyph-name="a" unicode="a" horiz-adv-x="509" 
d="M297 49q-16 0 -33.5 -4.5t-34.5 -10.5t-35.5 -10.5t-37.5 -4.5q-29 0 -56 9t-47.5 27t-32.5 43.5t-12 57.5q0 28 17.5 52t43.5 40t56 25t54 9q11 0 27.5 -1.5t36 -5t39.5 -9t36.5 -14.5t28 -20.5t13.5 -26.5q0 -5 -2 -17.5t-3 -26.5t-2.5 -26.5t-2.5 -18.5v-6
q0 -22 10 -33t24.5 -15.5t30.5 -4.5h32q15 0 19 0.5t5.5 0.5t5 0.5t19.5 0.5q13 0 20 -5t7 -21q0 -17 -11 -24t-26 -9.5t-30 -1.5t-23 1q-23 0 -43.5 8t-37.5 17.5t-31 17t-24 7.5zM67 146q0 -24 10.5 -38.5t26 -21t34.5 -8t37 -1.5q7 0 23.5 1t34.5 4.5t32.5 9.5t16.5 15
l20 78q2 8 -4 14t-16.5 10t-23 7t-24.5 5t-21.5 3t-11.5 1q-18 0 -41.5 -3.5t-44 -12t-34.5 -23.5t-14 -40z" />
    <glyph glyph-name="b" unicode="b" horiz-adv-x="457" 
d="M88 9q-8 5 -13 13.5t-8 18.5t-5.5 20t-2.5 16q-2 11 -5 34t-7 53.5t-8 64.5t-8 65.5t-7 56.5t-4 38q0 2 -0.5 8t-0.5 8q0 15 6 19.5t21 4.5q18 0 26 -13.5t11.5 -34.5t4 -45t3 -45t8.5 -34.5t21 -13.5q22 0 44 3t44 7.5t44.5 7t44.5 2.5h10h16.5h16.5h10
q23 -12 39.5 -30.5t28 -40t18.5 -46t12 -48.5q-5 -23 -20.5 -39t-36.5 -27t-46 -17.5t-50.5 -10t-48.5 -4.5t-41 -1q-17 0 -30.5 0.5t-26.5 1.5t-27.5 3t-32.5 5zM116 141q0 -43 17 -63.5t61 -20.5q9 0 27 0.5t38.5 2.5t42.5 5.5t39.5 10t28.5 16t11 24.5q0 22 -8 38.5
t-22 28t-32 17.5t-38 6q-21 0 -42.5 -2t-43.5 -5.5t-42 -12t-37 -20.5v-13v-12z" />
    <glyph glyph-name="c" unicode="c" horiz-adv-x="457" 
d="M8 154q0 43 23 70.5t56.5 42.5t73 20.5t73.5 5.5h12q7 0 16.5 -0.5t17.5 -0.5h12q20 -3 26 -11.5t6 -21.5q0 -16 -10.5 -26t-26.5 -10q-10 0 -13.5 3.5t-6 7.5t-6.5 7.5t-15 3.5q-15 0 -34 -2t-39 -6t-39 -11t-34 -18t-24 -26.5t-9 -37.5q0 -18 10.5 -32.5t27.5 -25.5
t38.5 -18.5t42.5 -11.5t40.5 -6t31.5 -2q28 0 52 8.5t47.5 18.5t46.5 18t47 8q0 -36 -20.5 -57t-51.5 -31t-66 -12t-64 -2q-24 0 -51.5 2.5t-54.5 9t-51 17.5t-42.5 28.5t-30 41.5t-11.5 56z" />
    <glyph glyph-name="d" unicode="d" horiz-adv-x="478" 
d="M368 30q-33 0 -64.5 -5.5t-63.5 -5.5q-22 0 -47.5 0.5t-51 4t-49.5 11t-42.5 21t-30 33.5t-11.5 50q0 36 19.5 62t48 41.5t63 23t66.5 7.5q42 0 85.5 -13.5t80.5 -35.5v185q0 13 4.5 16.5t12.5 3.5q14 0 24 -27.5t17 -70.5t11.5 -95t6.5 -100t2.5 -85.5t0.5 -53.5
q-16 0 -27.5 5.5t-20 11.5t-16.5 11t-18 5zM67 139q0 -20 11 -32.5t29 -20.5t40 -12t44 -5.5t42 -1.5h33q2 0 18.5 -1t35.5 0.5t35 6t16 15.5v107q-11 -11 -19.5 -16t-21.5 -5q-1 0 -11 6.5t-26.5 14t-38 14t-46.5 6.5q-17 0 -41 -3.5t-46.5 -12t-38 -23.5t-15.5 -37z" />
    <glyph glyph-name="e" unicode="e" horiz-adv-x="487" 
d="M19 176q0 34 19 66t48.5 56t65 38t67.5 14q26 0 51.5 -6.5t45.5 -20.5t32.5 -34.5t12.5 -48.5q0 -13 -1.5 -20.5t-6.5 -13t-12.5 -10t-18.5 -11.5q-6 -1 -18 -4.5t-27.5 -7.5t-32.5 -8t-32.5 -8t-27.5 -7t-18 -4q-3 -1 -13 -2t-21.5 -2.5t-21.5 -3t-12 -2.5
q-3 -1 -6.5 -4.5t-3.5 -4.5q0 -20 11 -33.5t28 -22.5t38.5 -13.5t42.5 -7t39 -2.5h29q50 0 98 5.5t98 5.5v-8q0 -6 -1.5 -12.5t-4.5 -12t-8 -6.5q-38 -8 -67.5 -12.5t-55.5 -6t-54 -2t-62 -0.5h-17q-11 0 -24 0.5t-25 0.5h-17q-31 8 -53.5 25.5t-36.5 41.5t-20.5 52t-6.5 57
zM243 294q-13 0 -29.5 -2.5t-34 -8t-34.5 -14t-30 -20t-21.5 -25.5t-8.5 -31h41q22 0 45 2t45 6.5t38.5 14t27 24.5t10.5 37v5l-10 10q-2 0 -7.5 0.5t-11.5 1t-11.5 0.5h-8.5z" />
    <glyph glyph-name="f" unicode="f" horiz-adv-x="360" 
d="M19 312q0 37 2 74.5t9 72.5t19.5 65t34 52.5t53.5 35.5t76 13q28 0 52.5 -6.5t43.5 -20t31 -35t12 -51.5q0 -8 -2 -18.5t-6 -21t-10.5 -18t-16.5 -7.5h-3t-2 1l-5 5l-5 5q1 4 2.5 12t3 17t2.5 17.5t2 11.5v11q0 16 -11.5 25.5t-27 15t-32 7.5t-26.5 2q-37 0 -61.5 -13
t-40 -35t-24.5 -50.5t-13 -59t-5 -61t-2 -56.5q3 -8 7 -16t12 -13q53 2 111.5 0.5t112.5 -10.5q5 -1 7.5 -5.5t4 -10.5t2 -11.5t0.5 -7.5q-6 0 -20.5 -0.5t-32.5 -1t-37.5 -1t-37.5 -0.5t-32 -0.5t-20 -0.5h-13q-8 0 -19 -2t-21.5 -6t-14.5 -11v-10l49 -283q1 -7 -2 -12.5
t-9 -9.5t-12 -5.5t-11 -1.5q-18 0 -30 26t-20 66.5t-13 90.5t-7.5 97.5t-3 87.5t-0.5 61z" />
    <glyph glyph-name="g" unicode="g" horiz-adv-x="429" 
d="M17 -242q12 0 22.5 -11.5t20.5 -26.5t19 -30.5t19 -21.5q21 -17 47.5 -28t54.5 -17.5t56.5 -10t55.5 -3.5q2 0 7.5 0.5t11.5 0.5t11.5 0.5t7.5 0.5q15 7 23.5 18.5t12 25t4.5 28.5t1 30q0 11 -1.5 37.5t-4.5 62t-7.5 74.5t-12 74t-18.5 61t-25 36q-10 -11 -20 -21.5
t-22.5 -18.5t-25.5 -13t-29 -5q-32 0 -68 7t-67 24t-51 43.5t-20 66.5q0 37 20 62.5t49.5 41t64.5 22.5t66 7q10 0 24.5 -0.5t29.5 -2.5t28 -6t21 -12q1 -2 2.5 -10.5t3 -18.5t2.5 -19t1 -10q4 -18 11.5 -34.5t16.5 -34t17 -34.5t13 -34q27 -86 44 -171t17 -175
q0 -4 -0.5 -14.5t-0.5 -22t-0.5 -22t-0.5 -14.5q-1 -26 -16 -43.5t-36.5 -27t-46 -14t-43.5 -4.5q-32 0 -66.5 5.5t-66.5 16.5t-60.5 27.5t-49.5 39.5t-33.5 52t-12.5 67zM77 135q0 -20 12 -35t30 -24.5t38 -14t35 -4.5q57 0 79 28.5t22 83.5q0 16 -6 25.5t-16 13.5t-23 5.5
t-26 1.5q-18 0 -43 -3.5t-47.5 -12.5t-38.5 -24.5t-16 -39.5z" />
    <glyph glyph-name="h" unicode="h" horiz-adv-x="516" 
d="M314 215q-30 0 -51.5 -11t-38.5 -27t-29 -35.5t-24 -36t-25 -27.5t-30 -11q-12 0 -18.5 10t-9.5 21q-13 43 -26.5 92.5t-25.5 100.5t-20 102.5t-8 98.5v6q0 5 0.5 10.5t0.5 9.5v8q2 9 10 9.5t15 0.5h7.5h7.5q2 -15 7 -46t12.5 -69t16 -78.5t18 -73.5t19.5 -54t19 -21
q15 0 35 12t42.5 27t48 28t53.5 13q6 0 16 -0.5t20.5 -1.5t20 -3t12.5 -6l89 -88q8 -8 14 -29t10 -45t5 -45.5t1 -33.5q0 -14 -9 -18.5t-21 -4.5q-16 0 -23 16t-12.5 40.5t-12.5 52t-20 52t-35.5 40t-60.5 15.5z" />
    <glyph glyph-name="i" unicode="i" horiz-adv-x="117" 
d="M49 9q-7 20 -12.5 43.5t-9 48.5t-5.5 49t-2 45q0 3 1 11.5t2.5 17.5t3.5 17.5t3 11.5q1 1 9 2t10 1q13 0 21 -14t14 -36t8.5 -48.5t4.5 -51t2 -43.5v-26q0 -3 0.5 -9.5t-0.5 -13t-4.5 -10.5t-11.5 -4h-4q-2 0 -6 1.5t-9 3t-9 2.5t-6 2zM38 450q0 25 32 37q7 3 12.5 -2
t9 -13t5 -16.5t1.5 -12.5q0 -6 -3 -9.5t-7.5 -4.5t-9.5 -1h-8q-14 0 -23 3t-9 19z" />
    <glyph glyph-name="j" unicode="j" horiz-adv-x="156" 
d="M-254 -229q0 21 1 36.5t9 36.5q1 0 2.5 0.5t2.5 0.5l1 -0.5t2 -0.5h2l5 -5l5 -5q-9 -98 38 -146.5t143 -48.5q44 0 71.5 18.5t43 48.5t21 67.5t5.5 75.5q0 47 -8.5 93t-19.5 91.5t-22.5 90t-18.5 90.5q0 6 2.5 11t6.5 9.5t10 7t11 2.5q13 0 23.5 -14.5t19 -38t14.5 -52.5
t11.5 -57t9.5 -52.5t9 -38.5v-24v-35.5v-35.5v-23q0 -35 -1 -69.5t-7.5 -66t-18.5 -58.5t-33 -47t-51.5 -31t-73.5 -11q-46 0 -85 10.5t-68 32t-45.5 56t-16.5 82.5zM-1 394q0 12 10 18.5t20 6.5q11 0 20.5 -9.5t9.5 -20.5t-10 -20t-21 -9q-14 0 -21.5 11t-7.5 23z" />
    <glyph glyph-name="k" unicode="k" horiz-adv-x="575" 
d="M136 167q-5 0 -12.5 -1.5t-7.5 -9.5v-136q0 -1 -7 -5t-11 -6h-10q-9 5 -16 7q-5 4 -9 7t-4 6v117q-2 0 -8.5 4t-13 9t-12 10.5t-5.5 10.5q0 12 10 25t19 19v14v23v22v14v52.5t-2 45t-6 46t-12 55.5q0 4 3 9.5t7 11t9.5 9t10.5 0.5q11 -5 20 -24t15 -46t10 -58.5t6.5 -60
t4 -51.5t1.5 -33q16 13 34 21.5t36.5 16.5t35.5 17t31 23q6 6 13 17.5l14 23t16 19.5t21 8q6 0 9.5 -2.5t4.5 -7t1 -9.5v-9q0 -26 -14 -47t-34.5 -38.5t-44.5 -31t-44 -20.5q40 -47 76 -79t75.5 -54.5t87.5 -37t112 -24.5q12 0 16.5 -5t4.5 -14q0 -1 -1 -5.5t-1 -5.5
q-18 -6 -32 -8t-32 -2q-23 0 -49 2t-52.5 6.5t-51 12t-46.5 19.5t-40 33t-36.5 42.5t-40 37t-49.5 15.5z" />
    <glyph glyph-name="l" unicode="l" horiz-adv-x="263" 
d="M8 167q0 53 4.5 100t9 95t7 97t0.5 106q1 4 3 9t5.5 9.5t7.5 8t9 3.5q12 0 20 -12.5t11.5 -32t4.5 -42.5t0.5 -44.5t-1.5 -37.5t-1 -22q0 -59 -5.5 -116.5t-5.5 -117.5v-16v-25v-25v-16q1 -10 7 -16.5t13.5 -11t15.5 -7.5t14 -4q4 0 13.5 -0.5t20.5 -0.5h20.5h13.5
q17 0 27.5 0.5t17 1.5t12.5 2.5t13 2t17 1.5t27 1q0 -33 -13 -46t-33.5 -15.5t-45 0.5t-47.5 3h-14q-10 0 -22 0.5t-23 0.5h-13q-31 6 -49 22.5t-26.5 40t-11.5 50.5t-3 54z" />
    <glyph glyph-name="m" unicode="m" horiz-adv-x="779" 
d="M589 225q-30 0 -51.5 -12.5t-39.5 -31t-33 -40.5t-31.5 -40.5t-35.5 -31t-44 -12.5q0 19 -1 43t-5 49t-11 49.5t-20 43t-32.5 30t-46.5 11.5q-34 0 -58.5 -16t-41 -41t-24.5 -55.5t-8 -60.5q-13 0 -19.5 -2.5t-13 -5.5l-13 -6t-18.5 -3q0 25 -4 49.5t-8 48.5t-7.5 48
t-3.5 48v7q0 5 0.5 10.5t0.5 9.5v8q3 8 8 9t11 1q13 0 20 -10t11 -23.5t5.5 -27t2.5 -18.5h10q32 44 74.5 66t95.5 22q36 0 60.5 -16t41.5 -40t28 -53.5t21 -56.5h10q22 20 45.5 40t48 34.5t52 24t60.5 9.5q24 0 44.5 -15.5t37 -40.5t28.5 -55.5t20 -62.5t12 -61t4 -51
q-37 0 -54 17t-25 42.5t-11 55t-11 54.5t-26 42t-55 17z" />
    <glyph glyph-name="n" unicode="n" horiz-adv-x="448" 
d="M261 215q-35 0 -61.5 -12.5t-47.5 -32.5t-35 -42.5t-24.5 -42.5t-16 -33t-7.5 -13q-27 0 -38 14t-14 34.5t-0.5 43t2.5 39.5v17q0 12 0.5 25t0.5 24v17q3 8 8 9t11 1q9 0 15 -10.5t11 -25.5t8 -29.5t5 -22.5q12 2 22 10t20.5 19t22.5 23t28 22.5t37.5 17.5t49.5 7
q56 0 92 -24.5t55.5 -64t26.5 -89t7 -100.5q-30 0 -46.5 9.5t-23.5 25t-8 35t-1 40t-2.5 40.5t-12 35t-29 24.5t-55.5 9.5z" />
    <glyph glyph-name="o" unicode="o" horiz-adv-x="419" 
d="M19 118q0 34 12 70t34.5 66t53.5 49t71 19q56 0 94 -11t62 -33.5t34.5 -58t10.5 -83.5q0 -3 -0.5 -11.5t-0.5 -17.5t-0.5 -17.5t-0.5 -12.5q-7 -25 -26.5 -40.5t-45 -23.5t-53 -11t-49.5 -3q-31 0 -65 4t-63.5 16.5t-48.5 36t-19 62.5zM69 131q0 -26 15.5 -42.5
t37.5 -25.5t47.5 -12t43.5 -3h31.5t26.5 3t27 9t33 17q10 16 11 31.5t1 32.5q0 34 -13 60t-35 42t-52.5 21.5t-67.5 -1.5q-15 -3 -34 -18t-35 -35t-26.5 -41.5t-10.5 -37.5z" />
    <glyph glyph-name="p" unicode="p" horiz-adv-x="423" 
d="M36 -337q11 101 9.5 187.5t-6.5 158t-10 128.5t-1.5 98t18.5 68t51 37.5t95.5 6.5t152.5 -25q21 -12 33 -25.5t17.5 -30t7 -36.5t1.5 -43q0 -26 -18 -46t-46 -34t-62.5 -24.5t-68 -17t-62.5 -10.5t-46 -6q-4 -7 -6 -27.5t-2 -49.5t1 -61.5t2.5 -63.5t1.5 -57t-1 -40
q-2 -9 -3 -24.5t-3 -29.5t-3 -23l-1 -10h-51zM241 286q-52 11 -93.5 6t-63.5 -26.5t-21.5 -61.5t32.5 -102q18 0 43 1.5t52.5 6.5t55.5 13t50.5 20.5t36 29.5t13.5 39q5 23 -1 36t-21 20t-36.5 11t-46.5 7z" />
    <glyph glyph-name="q" unicode="q" horiz-adv-x="389" 
d="M214 -344q0 2 0.5 6t0.5 5l59 341v38q-22 0 -42 -4.5t-42 -4.5q-24 0 -54 2.5t-56 12.5t-43 29t-17 51t21.5 56.5t52.5 41t65 25t59 8.5q23 0 48.5 -4.5t47 -15t35.5 -28.5t14 -46v-8q0 -5 -0.5 -11t-1 -10t-1.5 -6l-86 -368q40 44 70 76t54 50.5t41.5 21.5t32.5 -13
q0 -4 -10.5 -16t-26 -29t-35 -37t-38.5 -40t-34.5 -39.5t-24.5 -34.5q-11 -18 -16 -30.5t-10.5 -20.5t-15.5 -12t-32 -4q-9 0 -12 5.5t-3 12.5zM77 136q0 -10 5.5 -16.5t13.5 -10.5t16.5 -7.5t14.5 -6.5h12h18t18 -0.5t11 -0.5q27 0 49 1.5t37 9.5t23 25.5t8 48.5
q0 14 -7 21t-17.5 9.5t-24 2.5h-25.5q-14 0 -39.5 -3.5t-50 -13t-43.5 -24.5t-19 -35z" />
    <glyph glyph-name="r" unicode="r" horiz-adv-x="457" 
d="M29 195q-1 0 -5 3.5t-4 6.5q-1 0 -1 2v5q0 1 1 2q11 11 18.5 16t20.5 5q4 0 7.5 -2t5.5 -4t4.5 -4t5.5 -2t12 9.5t24 23.5t37 30.5t49.5 30.5t60 23.5t71.5 9.5h6q4 -1 16.5 -3.5t26.5 -6t26.5 -6l17.5 -3.5q1 -1 4 -3.5l6 -5t5.5 -5.5t3.5 -5q0 -1 1 -3l0.5 -1l0.5 -1
l-1 -2v-1q-1 -1 -1 -2q-1 -3 -5 -6.5l-4 -3.5h-176q-22 0 -47.5 -12.5t-48 -32t-37 -44t-14.5 -47.5v-142q-11 0 -16 -2.5t-8.5 -5.5t-7.5 -5t-11 -2h-2q-1 0 -2 1q-4 1 -7 4.5t-3 4.5z" />
    <glyph glyph-name="s" unicode="s" horiz-adv-x="457" 
d="M106 61v21q0 13 2 25t8 21t17 9v-1h3l20 -77q0 -4 4 -6t8.5 -3.5t9 -1.5h7.5q2 0 5.5 0.5t4.5 0.5q6 1 23 5.5t35.5 8.5t35 8.5t23.5 5.5q5 8 15 14.5t20 12.5t17 13t7 18q0 25 -12.5 40t-32 22.5t-41.5 10.5t-42 6q-8 1 -25.5 3.5t-39.5 5.5t-46 6.5t-46.5 6t-40 4.5
t-25.5 3q-6 4 -13 14t-7 16q0 17 18.5 31.5t46.5 26.5t63.5 21t70 16t64 10t45.5 3q12 0 22.5 -8t10.5 -23q0 -12 -6.5 -17.5t-16 -7t-19 -2t-17.5 -1.5q-16 -3 -40.5 -8t-48.5 -10t-40 -8l-17 -4v-11q19 0 48 -1t62 -5t65.5 -12.5t58.5 -23t42.5 -36t16.5 -52.5
q0 -42 -23 -71t-58 -47t-76 -26t-76 -8q-14 0 -30 2.5t-29.5 9.5t-22 19t-8.5 31z" />
    <glyph glyph-name="t" unicode="t" horiz-adv-x="516" 
d="M140 261q-28 0 -51.5 -4.5t-51.5 -4.5q-11 0 -14 8.5t-3 16.5v5q2 4 6.5 10t9.5 11.5t8.5 9.5t4.5 4h92v150q0 4 3 6t7.5 3.5t8.5 2t6 0.5q16 0 23.5 -11.5t10 -28.5t2 -37t-0.5 -37t2.5 -29.5t11.5 -13.5q8 -1 30.5 -3.5t47 -6t46.5 -6.5t32 -4q2 0 7.5 -1.5t12 -2.5
t11.5 -3t7 -3q2 0 6 -4t4 -6q0 -7 -4 -13t-10 -9.5t-12.5 -5t-12.5 -1.5q-2 0 -11 1.5t-18.5 3.5t-18 3.5t-10.5 1.5h-10h-19h-20h-27h-14h-12h-5l-10 -10v-7t-1 -14t-1.5 -16.5t-0.5 -13.5q0 -54 11 -85t34.5 -46.5t60 -19t89.5 -3.5h16h20t17 0.5t8 0.5t5 1.5t9.5 3t9 3.5
t5.5 2q4 0 6.5 -3.5t3.5 -8.5t1 -9v-7q0 -16 -7 -23t-33 -8h-17q-12 0 -24.5 -0.5t-25.5 -0.5h-15q-57 0 -97 4.5t-66 15t-41 28.5t-21.5 47t-8.5 70t-2 97z" />
    <glyph glyph-name="u" unicode="u" horiz-adv-x="614" 
d="M346 88q-26 0 -51.5 -12.5t-52.5 -28.5t-56 -28.5t-59 -12.5q-4 0 -12 0.5t-17.5 1t-17.5 0.5t-11 1q-19 11 -30.5 26t-18 32.5t-9.5 36.5t-3 38v28q0 18 1.5 39t4 43t7.5 40.5t14 31.5t24 17q6 2 12 -3t9.5 -11.5t5.5 -14t2 -10.5t-3 -13t-6.5 -21.5t-6.5 -21.5t-3 -12
q0 -1 -0.5 -8.5t-1 -16.5t-0.5 -19.5v-16.5q0 -13 -1 -29.5t1.5 -32.5t8.5 -30t22 -22q1 0 6.5 -0.5t12 -0.5t12 -0.5t7.5 -0.5q54 0 102 24t84 65q-1 6 -1.5 23t-0.5 35.5t0.5 35t1.5 23.5q0 6 2 12.5t5 12.5t8.5 10t12.5 4q15 0 21 -11t8.5 -29t4 -41.5t6.5 -47.5
t17 -47.5t35 -42t60 -31t93 -13.5v-5v-5q0 -15 -13 -21.5t-31.5 -8.5t-36.5 -1t-27 1q-30 0 -54 14t-43 30.5t-30.5 30.5t-13.5 14z" />
    <glyph glyph-name="v" unicode="v" horiz-adv-x="429" 
d="M0 292q-2 9 1 16.5t8.5 12.5t13.5 8t16 2q13 -9 27 -29.5t28 -45t26.5 -51.5t24 -49t20.5 -36t15 -14q4 0 15.5 19t28.5 47.5t36.5 61.5t41 61.5t44 47t43.5 18.5q8 0 14.5 -3t6.5 -12q0 -1 -0.5 -2t-0.5 -3q-34 -27 -67 -66.5t-61 -84t-48.5 -91.5t-27.5 -90
q-18 -6 -28 -7.5t-26 -1.5h-15q-5 16 -12.5 40.5t-16 52t-18.5 56.5t-23.5 55.5t-29.5 49.5t-36 38z" />
    <glyph glyph-name="w" unicode="w" horiz-adv-x="614" 
d="M19 273q0 13 7.5 26t22.5 13q19 0 26.5 -15t10 -35.5t1.5 -42t1 -34.5q0 -7 2.5 -23.5t5.5 -35t6 -35.5t5 -24q1 0 7.5 -1t7.5 -1q19 0 32 11.5t21.5 28t15 36.5t14 36.5t18 27.5t25.5 11q21 0 35.5 -12t28 -29.5t25 -38t26 -38t31.5 -29.5t39 -12q1 0 7.5 1t7.5 1
q9 13 18 38t18.5 54.5t19 59.5t19 55.5t19.5 40.5t18 15h1.5h2.5h1q2 -1 4.5 -3.5l6 -6t6 -6.5t3.5 -4v-2q0 -1 0.5 -2l0.5 -1l-0.5 -2t-0.5 -3q-3 -8 -8 -25.5t-12 -39.5t-14 -46.5t-14 -47.5t-13 -40t-8 -26q-7 -16 -14 -29q-6 -11 -12.5 -20t-11.5 -9h-98q-12 0 -24.5 9
t-24 22.5t-23 30t-21.5 31.5t-19 27t-15 17q-21 -13 -33 -28t-20 -31.5t-15 -32t-18 -28t-28.5 -19.5t-47.5 -7q-10 0 -19.5 18t-17.5 45t-14.5 60t-11 63.5t-7 53.5t-2.5 33z" />
    <glyph glyph-name="x" unicode="x" horiz-adv-x="496" 
d="M156 166q-3 14 -16.5 33t-29 37.5t-30.5 35.5t-21 30q0 1 -1 4.5t-1 5.5q0 13 7 16.5t18 3.5q2 0 8 -0.5t8 -0.5q2 -5 10 -16t17.5 -23.5t18 -23.5t12.5 -15q5 -5 13 -13.5t15.5 -16t13.5 -13t7 -5.5h10q3 2 12 8.5t20.5 14t24.5 16t24.5 16.5t20.5 14t14 8q12 7 31 17
t37 19t32.5 16t16.5 7h25q0 -18 -13 -34.5t-34 -32.5t-46.5 -30.5t-50.5 -29t-45.5 -29t-30.5 -29.5q16 -10 36 -24t41 -26t43.5 -20.5t45.5 -8.5q15 0 25.5 5.5t23.5 5.5q5 0 10 -1t8.5 -4t3.5 -9t-3 -15q-1 -3 -4.5 -7.5t-8 -9.5t-9 -8.5t-7.5 -4.5q-2 0 -8.5 -1
t-13.5 -1.5t-13.5 -0.5h-8.5q-31 0 -56.5 13t-49.5 28t-48.5 28t-50.5 13q-14 0 -24.5 -5t-20.5 -13t-19 -16.5t-18 -14.5q-9 -7 -21.5 -17t-25.5 -19t-22 -17l-9 -6h-31q0 29 15 51t36.5 41t45.5 36.5t41 37.5z" />
    <glyph glyph-name="y" unicode="y" horiz-adv-x="389" 
d="M-78 -338q0 12 1 29t6.5 33t15.5 28t26 14q0 -1 0.5 -4.5t0.5 -5.5q0 -14 -6 -25.5t-6 -28.5q0 -28 11 -51t29 -41t41.5 -31t50 -21.5t53.5 -12.5t50 -4q33 0 56 11t39.5 29.5t26.5 43t15.5 51t8 53.5t2.5 51q0 4 -1 24.5t-3 48t-5 58.5t-8 58t-12 44t-16 17
q-19 0 -37.5 -5t-36.5 -11t-37.5 -11t-40.5 -5h-13.5t-20.5 0.5t-20.5 1t-13.5 0.5q-21 8 -34.5 24t-21.5 36.5t-11 43t-3 41.5q0 28 1.5 50.5t10.5 47.5q1 2 7 2.5t7 0.5q18 0 24 -15t7 -37t1.5 -47.5t7.5 -47.5t23.5 -36.5t50.5 -14.5q46 0 72 11t39 33.5t15 55t-1 76.5
q-1 13 5 17t14 4q10 0 21.5 -22t21.5 -56t20 -73.5t17 -75.5t11.5 -62.5t5.5 -33.5q1 -4 3 -15.5t3.5 -28t3.5 -34t4 -34t4 -28.5t2 -16v-5q0 -52 -12.5 -100t-39 -85.5t-67 -60t-97.5 -22.5q-24 0 -53.5 4t-59.5 12.5t-58.5 21.5t-50.5 32.5t-35.5 43.5t-13.5 55z" />
    <glyph glyph-name="z" unicode="z" horiz-adv-x="594" 
d="M78 20q7 27 23.5 50t38.5 43t48 38l52 36q26 18 49.5 36.5t41.5 39.5q-19 -2 -51 -3.5t-68 -1.5t-73 2.5t-67 12t-48.5 25.5t-18.5 43h83q0 -2 4 -5.5t6 -4.5q3 -1 13 -2.5t21 -3t20 -2.5t14 -1q10 0 31 -0.5t46.5 -0.5t54 -0.5t54.5 0t46.5 0.5t30.5 1q0 -2 2 -6
t3.5 -8.5l3 -9t1.5 -6.5q0 -1 -1.5 -5.5l-3 -9t-3.5 -9t-2 -5.5q-24 -28 -54 -51l-60 -46t-58.5 -47t-51.5 -52h370l4 -6.5t6 -11.5v-2q0 -1 0.5 -2l0.5 -1q0 -18 -11 -25.5t-26 -9.5t-30 -1t-23 1q-6 -1 -23.5 -1t-41.5 -1t-51 -2.5t-51 -2.5t-42 -1.5t-24 -0.5h-16
q-42 0 -85.5 2t-83.5 18z" />
    <glyph glyph-name="braceleft" unicode="{" horiz-adv-x="282" 
d="M77 59q0 21 12.5 36t27 27t27 25.5t12.5 32.5q0 17 -15.5 26t-35.5 13t-39 4.5t-27 0.5q-5 1 -7.5 5t-3.5 8t-0.5 8.5t0.5 7.5q0 18 9 28.5t23.5 17.5t32 11t34.5 12v9q-28 22 -50 43.5t-37 46t-23 52.5t-8 63q0 18 14 41.5t35.5 47.5t48 46.5t52.5 40.5t48.5 28.5
t35.5 10.5q15 0 23 -7.5t16 -21.5q-13 -20 -33.5 -34.5t-43.5 -28t-45.5 -27.5t-41 -31.5t-30 -38.5t-11.5 -50q0 -18 2.5 -34t18.5 -30l107 -97q0 -1 1 -3.5t1 -6.5v-7v-4q0 -19 -5.5 -34t-26.5 -23q9 -8 19.5 -17.5t19.5 -21t15 -24.5t6 -25q0 -21 -11 -40t-26 -37
t-32 -33t-30 -26v-2.5v-2.5q0 -25 16.5 -40t41.5 -24.5t54.5 -14t54.5 -9t41.5 -11.5t16.5 -19q0 -4 -0.5 -9t-2 -8.5t-6 -5.5t-11.5 -1q-4 0 -12 -0.5t-17.5 -0.5t-17.5 -0.5t-12 -0.5q-36 0 -72.5 9.5t-66 30t-48 50t-18.5 69.5z" />
    <glyph glyph-name="bar" unicode="|" horiz-adv-x="127" 
d="M110 520q0 -63 -6 -123.5t-14 -121.5t-12 -122t0 -124q-23 -31 -62 -31q0 8 0.5 27.5t1.5 41.5t1.5 41.5t0.5 27.5q1 33 3.5 74t6 83t8 84.5t11.5 79.5q5 31 18 47t43 16z" />
    <glyph glyph-name="braceright" unicode="}" horiz-adv-x="389" 
d="M48 -111q0 14 18.5 17.5t47 4.5t61 2t61 10t47.5 28.5t19 56.5q0 29 -8 53.5t-20 47t-26.5 44t-26.5 43.5t-20 45.5t-8 50.5v21q0 10 2 20t6 19t13 19q-7 12 -17 19.5t-22 13t-24 10.5t-22 15t-16 25.5t-6 41.5q0 22 7.5 38.5t18.5 30.5t23.5 26.5t23 26.5t18 31t7.5 38
q0 20 -10.5 35.5t-28 26t-39.5 17t-43.5 10t-41 4.5t-33.5 1v38l7 2.5t16.5 5.5t19.5 6t17 4q1 0 6 1t7 1q34 0 66 -13.5t58 -36t42 -53t16 -64.5q0 -28 -14 -50t-31 -42t-31 -41t-14 -47q0 -10 1.5 -17.5t9.5 -17.5q10 -4 26 -7.5t34 -7t37.5 -8.5t34.5 -12t25 -17.5
t10 -24.5q0 -3 -1 -10t-1 -10q-15 -5 -30.5 -10t-28 -12.5t-20.5 -19.5t-8 -31q0 -23 7 -43.5t18.5 -41t24.5 -40.5t24 -41t18.5 -44t7.5 -48v-12t-1 -17.5t-1.5 -17t-0.5 -12.5q-14 -37 -34.5 -61.5t-47 -39t-58.5 -20.5t-70 -6q-11 0 -29 0.5t-34 5t-27.5 14t-11.5 26.5z
" />
    <glyph glyph-name="asciitilde" unicode="~" horiz-adv-x="478" 
d="M151 526q-17 0 -28 -6.5t-19.5 -16.5t-15 -21.5t-13 -21.5t-15 -16.5t-21.5 -6.5t-16.5 6.5t-3.5 18.5q0 25 14 47t34.5 39t45.5 27.5t47 10.5q18 0 32 -7t25.5 -17t22.5 -21.5t23.5 -21.5t28 -16.5t34.5 -6.5q18 0 31.5 8t25 17.5t23 17.5t27.5 8q17 0 23 -7.5t11 -23.5
q-6 -8 -19.5 -22.5t-30 -29t-34 -25t-31.5 -10.5q-26 0 -48 7.5t-41 18t-35 23t-30 23t-25.5 18t-21.5 7.5z" />
    <glyph glyph-name="nonbreakingspace" unicode="&#xa0;" horiz-adv-x="326" 
 />
    <glyph glyph-name="exclamdown" unicode="&#xa1;" horiz-adv-x="166" 
d="M74.7812 552.313q2.9873 -44.8828 2.9873 -79.4795q0 -34.5977 -2.48926 -63.1172q-2.48828 -28.5195 -6.4707 -54.7012t-7.4668 -54.7002q-3.48438 -28.5195 -5.97363 -63.1162q-2.48828 -34.5977 -2.48828 -79.4805v-6.54492q0 -5.61133 0.498047 -11.2207
q0.49707 -5.61133 0.49707 -11.2207v-7.48047q0.996094 -1.87109 4.97754 -6.07812q3.98242 -4.20801 8.95996 -8.41602q4.97852 -4.20703 8.95996 -7.94727q3.98242 -3.74023 5.97363 -4.67578q0.995117 0 7.96387 3.74023l11.9473 5.61035l9.95508 8.41504
q0.995117 15.8965 2.98633 38.3379t3.48438 48.1553q1.49414 25.7139 3.48438 52.3633q1.99121 26.6494 3.98242 51.8955q1.99121 25.2471 2.9873 47.6885q0.995117 22.4414 2.98633 38.3369q0.995117 2.80566 0.995117 15.8965t-0.49707 28.5195
q-0.498047 15.4277 -0.498047 29.4541v16.8311q0.995117 4.67578 1.99121 14.4932q0.995117 9.81836 2.48828 21.5068q1.49316 11.6875 2.48926 22.9082l1.99121 14.0264q-5.97363 12.1553 -13.4404 15.4287q-7.46582 3.27246 -20.4082 3.27246
q-10.9512 0 -19.4131 -3.27246q-8.46191 -3.27344 -13.4404 -15.4287zM62.835 760.832q0 -11.2207 5.97363 -20.1045q5.97266 -8.88281 14.9326 -14.9609q8.95996 -6.07715 20.9072 -8.88281q11.9463 -2.80566 23.8926 -2.80566t21.4043 5.14355
q9.45801 5.14258 16.9238 13.0908q7.4668 7.94727 10.9512 18.2334t3.48438 20.5713t-5.97266 18.2334q-5.97363 7.94824 -16.4268 14.0264t-21.4043 9.35059t-18.915 3.27246q-27.876 0 -41.8135 -15.8965q-13.9375 -15.8955 -13.9375 -39.2715z" />
    <glyph glyph-name="cent" unicode="&#xa2;" horiz-adv-x="457" 
d="M10 207q0 34 13 56.5t33.5 38t47.5 25t56 14.5q1 16 2.5 25.5t3 18.5t2.5 20t0 31q1 3 3 8.5t5 10t7.5 8t8.5 3.5q16 0 23.5 -11t9 -28.5t0 -38.5t-1.5 -41h23q9 0 18.5 -0.5t16.5 -0.5h13q20 -3 25.5 -11.5t5.5 -22.5q0 -16 -10.5 -26t-25.5 -10q-10 0 -14 4t-6.5 8
t-6.5 7t-14 3q-7 0 -13.5 -0.5t-14.5 -0.5q-1 -48 -5 -95.5t-5 -96.5q14 -2 27.5 -3t22.5 -1q26 0 50.5 8.5t48 19t46.5 18.5t47 8q0 -37 -20.5 -58t-51.5 -30.5t-66 -11.5t-63 -2q-10 0 -20.5 0.5t-20.5 0.5v-30v-21q2 -12 -1.5 -27t-11 -26.5t-17 -16t-18 6.5t-14.5 39.5
t-7 85.5q-25 6 -49 17t-42.5 28.5t-29 41.5t-10.5 55zM69 198q0 -14 5.5 -25.5t15.5 -21t23.5 -17t28.5 -12.5q2 44 6 84l8 80q-17 -5 -33 -12t-28.5 -17.5t-19 -25t-6.5 -33.5z" />
    <glyph glyph-name="sterling" unicode="&#xa3;" horiz-adv-x="416" 
d="M-40 224q-9 9 -8.5 16t9.5 12.5t24.5 8.5t34.5 5v26q0 51 4 86.5t17.5 54.5t41 21t73.5 -17q45 -18 65.5 -29.5t23.5 -18.5t-8.5 -9.5t-30 -2.5t-41 2t-42 4.5t-33.5 3.5l-13 1l1 -119h41.5t37.5 -1.5t28.5 -3t15.5 -3.5q0 -5 2 -11.5t2 -13t-2.5 -10t-11.5 -3.5h-113
v-125q0 -11 5.5 -14.5t13.5 -1.5t19 7.5t22 10.5t20 10t16 5q31 0 47.5 -4t26.5 -10t16.5 -12.5t17 -12t26.5 -9.5t46 -4q34 0 43 -7.5t0 -16.5t-31.5 -16.5t-50.5 -7.5t-55.5 11t-47.5 37q-22 2 -47.5 -6.5t-50 -19t-45 -20t-34 -12t-18.5 7t3 36.5v23q0 18 -0.5 37
t-0.5 37v77z" />
    <glyph glyph-name="currency" unicode="&#xa4;" horiz-adv-x="555" 
d="M97 221q0 36 12.5 73t36.5 66q-15 20 -28.5 37.5t-18.5 27.5q0 1 -0.5 4t-0.5 4q0 12 6 15.5t15 3.5q2 0 6.5 -0.5t5.5 -0.5q2 -2 6.5 -9t11 -16.5t13.5 -19.5l16 -20q27 20 61 20q82 0 121 -33q12 8 30.5 20.5t36.5 22t32 13.5t16 -6q0 -12 -6.5 -24.5t-18.5 -24
t-27.5 -22.5t-31.5 -21q15 -38 15 -94v-10v-14.5t-0.5 -15t-0.5 -10.5q8 -7 16.5 -15t18.5 -15t19.5 -12.5t19.5 -5.5q8 0 14 -5t0 -22q1 -13 -6 -17t-18.5 -2t-25 8.5t-26 15t-22 16.5t-13.5 13q-11 -10 -26.5 -17t-32 -10.5t-33 -5t-29.5 -1.5q-28 0 -57.5 4t-54.5 17
q-11 -16 -23.5 -30.5t-22.5 -23t-18.5 -9t-13.5 11.5q0 23 11 43t28 40q-6 12 -9.5 25t-3.5 31zM365 241q-7 48 -23 75.5t-37 38.5t-44 8.5t-45 -14.5t-41 -30.5t-29.5 -39.5t-12 -43t10.5 -39.5t40 -29t74 -11.5q22 0 36 1.5t25 6t20.5 14t24.5 27.5q1 8 1 18v18z" />
    <glyph glyph-name="yen" unicode="&#xa5;" horiz-adv-x="419" 
d="M98 172q19 1 42.5 -0.5t43.5 1.5h6v28h-29h-51q-20 0 -20 19q0 17 13 25.5t34 12t47 3.5h2q0 4 -1 8q-12 17 -30.5 34t-39.5 36.5t-41 40t-37 43t-27 45.5t-10 48q0 19 4.5 25.5t19.5 6.5q1 0 7 -0.5t8 -1.5q9 -15 20 -38l25 -48q14 -27 28.5 -53t31 -47t34.5 -34.5
t39 -13.5q1 0 4.5 1t4.5 1q29 34 46.5 73.5t33 78t33.5 74.5t46 65l1 -1h2q0 -1 1 -1q2 0 5 -2.5t6.5 -5.5t6 -6t2.5 -4q-10 -36 -27 -76.5t-37 -81t-40.5 -79.5t-36.5 -72q-6 -8 -10 -20q13 -1 25 -3q22 -1 37 -1h23t5.5 -3t-3.5 -13t-3 -30q-33 0 -53.5 -0.5t-36.5 -0.5
q-3 0 -6 -1q-1 -12 -3 -25q0 -3 -1 -7q15 1 32 1h40q18 0 29 -1q6 -4 13 -13.5t7 -15.5q0 -2 -1.5 -4.5t-2.5 -6t-3 -6t-3 -3.5q-39 2 -64.5 2.5t-42.5 -0.5q-5 0 -8 -1v-8q-3 -31 -4 -58t-3.5 -43.5t-6.5 -16.5q-9 0 -15.5 -0.5t-11.5 -0.5t-7.5 3t-2.5 9q0 17 1.5 47
t1.5 66v0h-8q-17 -1 -40 -1.5t-59 -0.5q0 2 1 8t1.5 13t1.5 13t1 7q0 3 4 7t6 4z" />
    <glyph glyph-name="brokenbar" unicode="&#xa6;" horiz-adv-x="127" 
d="M76 230q-4 -37 -5 -58.5t-0.5 -40.5t3 -41.5t4.5 -60.5q-23 -31 -62 -31q0 8 0.5 27.5t1.5 41.5t1.5 41.5t0.5 27.5q0 28 -1.5 49.5t2.5 34t16 15.5t39 -5zM24 269q1 17 4 43t7 53.5t8 52.5t6 39q5 31 18 47t43 16q0 -25 -2.5 -58t-6.5 -65.5t-10 -62t-15.5 -49t-22 -25
t-29.5 8.5z" />
    <glyph glyph-name="section" unicode="&#xa7;" horiz-adv-x="390" 
d="M39 62q0 9 1.5 15t6.5 13q12 -9 18.5 -19.5t10.5 -19.5t9 -17t15 -14t29.5 -9t50.5 -3h19.5t27 2t28.5 6t26 11t20 17.5t8 26.5q0 2 -0.5 6.5t-1.5 4.5l-32 43l-60 20q-18 0 -39.5 2t-44.5 11t-45 27t-40 53q0 25 14.5 43t36.5 29.5t48.5 17.5t49.5 9l-119 42q-5 2 -8 6
t-4.5 9.5t-1.5 11.5v11q0 24 12 41t31 28.5t43 18.5t47 10t42.5 4.5t31.5 1.5h6h11h11h7q5 -3 6 -9t1 -12q0 -12 -12.5 -17t-31.5 -8.5t-42.5 -6t-46 -7.5t-41.5 -14.5t-29 -25.5l13 -9l189 -66q12 -3 22 -15t16.5 -27t10.5 -31.5t4 -30.5q0 -35 -16.5 -54t-40.5 -29
q9 -7 17 -19t13.5 -25.5t8.5 -27.5t3 -25q0 -32 -15.5 -51.5t-37 -29.5t-45.5 -13t-42 -3q-19 0 -48 1.5t-56 10.5t-46 28.5t-19 56.5zM288 306q-8 -7 -23.5 -10t-34 -5.5t-40 -5t-40 -7.5t-34.5 -13.5t-24 -23.5q11 -25 32 -38t47 -18.5t53.5 -2t50 13t36.5 23.5t14 32v6.5
t-1 5.5l-32 41z" />
    <glyph glyph-name="dieresis" unicode="&#xa8;" horiz-adv-x="544" 
d="M62 563q0 12 10.5 20.5t25 13.5t29 6.5t22.5 1.5q12 0 22.5 -8t19 -19.5t13.5 -24t5 -21.5q0 -8 -0.5 -15.5t-2 -14t-6.5 -12.5t-14 -8q-2 0 -6 -0.5t-8.5 -0.5t-8.5 -0.5t-6 -0.5q-17 0 -34.5 5t-30.5 15t-21.5 25.5t-8.5 37.5zM270 560q0 13 11 21.5t25 13t28.5 6.5
t22.5 2q11 0 21 -8.5t18.5 -19.5t14 -23.5t5.5 -22.5q0 -8 -0.5 -15.5t-2.5 -14t-7 -12t-13 -8.5h-6h-8.5t-9 -0.5t-5.5 -0.5q-17 0 -34 4.5t-30.5 14.5t-21.5 25.5t-8 37.5z" />
    <glyph glyph-name="copyright" unicode="&#xa9;" horiz-adv-x="625" 
d="M21 306q0 39 14 74.5t38 66t55 55t65.5 42.5t69 27.5t66.5 9.5q66 0 115 -24t81.5 -67t49 -101.5t16.5 -127.5q0 -117 -56.5 -173.5t-169.5 -56.5q-32 0 -70 8.5t-76.5 24.5t-74 39.5t-63 54t-44 68t-16.5 80.5zM71 307q0 -31 15 -59t39.5 -52.5t55.5 -45t63.5 -35.5
t62.5 -22.5t53 -7.5q62 0 109.5 29.5t67.5 88.5q-13 -17 -35.5 -26.5t-48 -14.5t-52 -5.5t-48.5 -0.5q-37 0 -79 5.5t-78 22.5t-59.5 47.5t-23.5 77.5q0 29 10 51t27.5 37.5t40.5 25.5t47.5 16t50 8.5t48.5 2.5q4 0 12.5 -0.5t17.5 -0.5t17.5 -0.5t11.5 -0.5q20 -3 26 -11.5
t6 -21.5q0 -16 -10.5 -26t-26.5 -10q-10 0 -14 3.5t-6.5 7.5t-6.5 7.5t-14 3.5q-15 0 -34 -1.5t-39 -6t-39.5 -11t-33.5 -18t-23.5 -27t-9.5 -36.5q0 -20 10.5 -34.5t27.5 -25.5t38.5 -18t42.5 -11.5t40 -6.5t32 -2q26 0 51.5 8t50.5 19t47 21.5t39 16.5q4 53 -14 100.5
t-49 82.5t-73.5 55.5t-87.5 20.5q-23 0 -51 -8.5t-56.5 -23.5t-55 -35.5t-47.5 -45.5t-33 -52t-12 -55z" />
    <glyph glyph-name="ordfeminine" unicode="&#xaa;" horiz-adv-x="267" 
d="M143 261q-8 0 -16 -2.5t-16.5 -6t-17.5 -6t-18 -2.5q-30 0 -51 19.5t-21 53.5q0 15 8.5 28t20.5 21.5t27 13t27 4.5q7 0 21.5 -1.5t28.5 -6.5t25 -13t12 -20q0 -3 -0.5 -9.5t-1.5 -14t-1.5 -14t-0.5 -8.5v-4q0 -12 4.5 -18t11.5 -8t16 -2h24q3 0 3.5 0.5t1.5 0.5h10
q6 0 9 -2.5t3 -11.5t-5.5 -13t-12 -5t-14.5 -0.5t-11 0.5q-12 0 -21.5 4t-18 9t-15 9.5t-11.5 4.5zM31 312q0 -13 5.5 -20.5t13 -11t16.5 -4.5t18 -1q4 0 11.5 0.5t16.5 2.5t15.5 5t8.5 9l9 40q1 6 -5.5 10.5t-15 7t-17 3.5t-10.5 1q-9 0 -20.5 -2t-21.5 -6t-17 -12.5
t-7 -21.5z" />
    <glyph glyph-name="guillemotleft" unicode="&#xab;" horiz-adv-x="718" 
d="M-1 312q0 10 4.5 16.5t16.5 13.5q52 24 93.5 45t81.5 40.5t83.5 38.5t101.5 41q1 0 2 0.5t3 0.5q11 0 18 -10t7 -20q0 -11 -4.5 -18t-16.5 -12l-256 -113l13 -13q0 -1 10.5 -5.5t27.5 -12.5t38.5 -17.5l43 -19t41.5 -18t34 -15.5q10 -5 28.5 -7.5t36 -6.5t31 -11.5
t13.5 -23.5q0 -14 -10.5 -21.5t-23.5 -7.5t-37.5 5.5t-56 15t-68 22.5t-72.5 26t-69 27t-58.5 25.5t-40.5 20.5t-15 14zM248 328q0 11 4 17.5t17 12.5q52 24 93.5 45t81 40.5t83 38.5t101.5 41q2 0 3 0.5t2 0.5q12 0 19 -10t7 -20t-4.5 -17t-16.5 -12l-257 -113l14 -15
q1 0 11 -5t27 -12.5t38.5 -17l43 -19t41 -18.5t34.5 -15q10 -4 28 -6.5t35.5 -6.5t31 -12t13.5 -24q0 -14 -10.5 -21.5t-23.5 -7.5t-37 5.5t-56 15t-68 22.5t-72.5 26t-69 26.5t-58 26t-40.5 21.5t-15 13z" />
    <glyph glyph-name="logicalnot" unicode="&#xac;" horiz-adv-x="457" 
d="M317 347q43 2 69.5 -15.5t40 -45.5t16 -60.5t-5.5 -59.5t-24.5 -43.5t-37.5 -12.5q1 21 2 29.5t2.5 15t2 15.5t1.5 28q0 14 1 27.5t0 25.5t-5.5 22.5t-15.5 17.5q-23 4 -50.5 4t-57.5 -1.5t-59.5 -2t-56 2t-47.5 10.5t-33 23q0 8 7.5 13t11.5 6q34 -5 64 -4.5t58 2t57 3
t60 0.5z" />
    <glyph glyph-name="uni00AD" unicode="&#xad;" horiz-adv-x="301" 
d="M29 234q-11 11 -8 19t16.5 13t34.5 8t45.5 4.5t49.5 1t46.5 -1.5t37 -3t20.5 -4q0 -5 1.5 -12t1.5 -12.5t-2.5 -9.5t-10.5 -4z" />
    <glyph glyph-name="registered" unicode="&#xae;" horiz-adv-x="619" 
d="M8 273q0 38 14.5 73t38.5 64.5t55 54.5t65.5 42t69.5 26.5t66 9.5q65 0 116 -23.5t85 -66t51.5 -100.5t17.5 -126q0 -112 -61 -168t-172 -56q-33 0 -71 8.5t-76.5 24t-74 39t-63 53t-44.5 66t-17 79.5zM63 269q0 -21 7.5 -40t21 -36t31 -32.5t36.5 -27.5v3v53q0 55 8 98
t31 73.5t64 48.5t107 23q20 -5 31 -21.5t11 -34.5q0 -17 -10 -32.5t-24.5 -28.5t-31.5 -24t-31.5 -20.5t-24 -17t-9.5 -12.5q0 -12 13.5 -25t32 -23.5t36.5 -18.5t26 -12h13q9 0 18.5 -0.5t18.5 -0.5h12q21 0 38.5 3t35.5 4q11 27 15 67q3 53 -15.5 97.5t-51.5 77t-76 51
t-88 18.5q-23 0 -50.5 -8.5t-54.5 -22.5t-52 -33.5t-44.5 -42.5t-31.5 -49t-12 -54zM202 149l-2.5 -2.5l-6 -6t-7.5 -6.5t-7 -4q-1 -1 -2 -1h-4q-6 0 -9 1q25 -15 51 -27.5t52 -20t49.5 -12.5t41.5 -5q46 0 81.5 13.5t59.5 42.5q-22 -5 -44 -5h-33q-28 0 -54.5 10
t-52.5 26.5t-51.5 36.5t-51.5 40zM212 287q0 -8 7 -10.5t14 -2.5q15 0 37.5 9t43.5 23t35 31.5t14 35.5q0 9 -3 14t-15 5q-23 0 -46.5 -7t-43 -20.5t-31.5 -33t-12 -44.5z" />
    <glyph glyph-name="macron" unicode="&#xaf;" horiz-adv-x="377" 
d="M22 479q0 16 14.5 25t37.5 13.5t51.5 5t55.5 -1t51 -3t37 -1.5q18 0 32.5 -1t25 -6.5t15.5 -16.5t5 -31q-49 0 -85 -0.5t-69.5 -1t-69 -1t-81.5 -0.5q-20 0 -20 20z" />
    <glyph glyph-name="degree" unicode="&#xb0;" horiz-adv-x="170" 
d="M19 251q0 11 3.5 23.5t10.5 23.5t16.5 17.5t22.5 6.5q36 0 50 -15.5t14 -50.5v-20q-3 -8 -9.5 -15t-15 -11t-17.5 -6.5t-15 -2.5q-9 0 -20 3t-19.5 8.5t-14.5 14.5t-6 24zM46 253q0 -12 5.5 -17.5t14.5 -6t19 2.5t20 10q4 12 4.5 23.5t-2 19t-11 10t-24.5 -2.5
q-11 -2 -18.5 -15t-7.5 -24z" />
    <glyph glyph-name="plusminus" unicode="&#xb1;" horiz-adv-x="439" 
d="M29 9q-5 1 -7 5.5t-2.5 9.5t-0.5 10v8q0 15 10 21t24.5 7.5t29.5 0.5t24 -1q16 0 32.5 -0.5t30.5 -0.5q-2 16 -4 34t-3.5 34t-4 29t-2.5 19q0 5 -2 12.5t-3.5 14t-3.5 12.5l-1 5h-126q-6 0 -8 5t-3 11t-1 11v7v6t0.5 10t3 9t8.5 4h128q0 8 -1 23.5t-0.5 34t2.5 37.5
t6.5 35.5t13 26.5t21.5 10q17 0 21 -7.5t4 -25.5q0 -27 -6 -52.5t-6 -53.5q0 -12 3 -20t16 -8q24 0 38 0.5t25 1t24 0.5h37h16q11 0 21.5 -1.5t19 -7t8.5 -16.5l-1 -1v-2q-1 -1 -1 -2q-1 -1 -4 -4.5l-6 -7t-5.5 -5.5t-3.5 -2l-166 -11q-5 0 -7 -3t-3 -7t-1 -7v-7
q0 -31 6 -59.5t6 -59.5v-9.5v-15.5q38 -1 78 -3t86 -4l6 -3t6.5 -5.5t5 -6.5t2.5 -5t-3.5 -9t-6.5 -10q0 -1 -4 -5.5t-6 -5.5q-18 -3 -32 -5t-27 -3t-26 -1h-30q-33 0 -64 2q-3 -1 -5.5 -2t-4.5 -1h-3q-2 0 -2 1q-1 1 -5 3q-40 3 -80 5.5t-81 0.5z" />
    <glyph glyph-name="twosuperior" unicode="&#xb2;" horiz-adv-x="350" 
d="M14.4668 152.586q0 4.68945 0.275391 8.20605t1.37793 6.44824q1.10156 2.93066 3.0293 6.1543q1.92871 3.22461 6.33594 6.74121l117.894 120.167q4.40723 4.68945 12.6699 16.4141q8.26367 11.7227 16.252 26.085q7.98828 14.3613 14.3232 28.7227
q6.33594 14.3613 6.33594 23.1543q0 6.44824 -3.30566 11.4307t-7.98828 8.49902q-4.68262 3.51758 -10.7422 4.98242q-6.06055 1.46582 -11.5693 1.46582q-14.3232 0 -27.2695 -6.15527q-12.9463 -6.1543 -24.2393 -14.9473q-11.2939 -8.79297 -20.9346 -19.3438
q-9.64062 -10.5518 -17.3535 -19.3447q-7.71289 -8.79199 -14.874 -14.9473q-7.16211 -6.1543 -12.6709 -6.1543q-8.81445 0 -10.1924 5.27539q-1.37695 5.27539 -1.37695 13.4824q0 12.3096 6.61133 23.7402q6.61035 11.4297 17.9043 21.9814q11.293 10.5518 24.79 19.3438
q13.4971 8.79297 27.2695 15.8271t26.4434 12.3096q12.6709 5.27637 20.9346 8.20703q0.550781 0 3.85645 0.292969t3.85645 0.292969q12.1201 0 23.1377 -6.74121q11.0186 -6.74121 19.833 -17.292q8.81445 -10.5518 14.3232 -22.8613t5.50879 -24.6201
q0 -15.8262 -6.05957 -32.8262q-6.06055 -16.999 -15.9766 -33.7051t-22.0361 -32.8262t-24.791 -30.7744q-12.6699 -14.6543 -24.5146 -27.2578q-11.8447 -12.6025 -20.1084 -22.5674l5.50977 -6.44824q1.10156 0 13.2217 -3.81055q12.1191 -3.80957 28.0957 -8.20605
t33.0537 -9.08594q17.0781 -4.68945 26.9951 -7.62012h6.61035h8.26367q12.6709 0 24.791 3.80957q12.1191 3.81055 23.9639 8.20703t23.4131 8.5q11.5693 4.10254 23.1387 4.10254q0 -21.6885 -9.91699 -34.291q-9.91602 -12.6035 -25.3408 -19.0518
q-15.4258 -6.44727 -34.4316 -8.49902t-37.1865 -2.05176h-3.30469l-122.852 34.585h-3.85645h-4.40723q-9.91602 0 -18.1797 -5.27637q-8.26367 -5.27539 -15.4258 -12.0166q-7.16113 -6.74121 -13.7725 -12.3096q-6.61035 -5.56836 -14.3232 -5.56836t-9.36523 4.98242
q-1.65332 4.98242 -1.65332 13.1895z" />
    <glyph glyph-name="threesuperior" unicode="&#xb3;" horiz-adv-x="233" 
d="M24.3906 176.736q9.93359 0 19.083 -2.08398q9.14941 -2.08496 17.7764 -4.43066q8.62598 -2.34473 17.5146 -4.42969q8.8877 -2.08496 18.2988 -2.08496q8.8877 0 22.2197 1.82422t25.3574 6.25391q12.0254 4.43066 20.3906 12.248t8.36523 20.3262
q0 15.6348 -6.79688 26.5801q-6.79688 10.9443 -17.7764 18.2412t-24.834 11.4658q-13.8555 4.16992 -27.9717 5.47266t-27.4482 1.04199t-23.7891 -1.30273q-6.27344 3.12695 -8.62598 6.51465q-2.35352 3.3877 -2.35352 8.59961q0 7.81738 9.41113 12.5078
q9.41113 4.69141 22.7432 8.86035q13.332 4.16992 29.54 8.33887q16.207 4.16992 29.8008 10.1631t22.7432 14.8535t9.14941 21.8896q0 15.6357 -7.05859 20.8467q-7.05762 5.21191 -21.1738 5.21191t-28.7559 -4.95117t-29.0166 -10.9443
q-14.3779 -5.99414 -26.9258 -11.2051q-12.5479 -5.21191 -22.4814 -5.21191q-2.61426 0 -4.44434 1.30273t-2.35254 3.64844q-0.522461 2.34473 -0.78418 4.69043q-0.261719 2.34473 -0.261719 4.95117q0 5.7334 1.30762 9.6416q1.30664 3.90918 9.14941 7.55762
q12.0244 4.69043 25.3564 9.90234t27.4482 9.90234q14.1172 4.69043 28.4941 7.55664q14.3779 2.86621 27.4492 2.86621q14.6387 0 24.834 -4.16895t16.9922 -12.248q6.79688 -8.07812 9.93359 -19.5439t3.13672 -26.0586q0 -13.5508 -5.22852 -20.5869t-12.2861 -11.4658
q-7.05859 -4.42969 -14.9004 -9.12109q-7.84277 -4.69043 -14.1162 -13.5508q6.79688 -8.33789 14.377 -15.374q7.58105 -7.03613 14.9014 -13.8115q7.31934 -6.77539 14.1162 -13.5508t11.7637 -15.1143t7.8418 -18.502q2.87598 -10.1631 2.87598 -22.6709
q0 -19.2842 -11.7637 -31.792q-11.7637 -12.5088 -28.7559 -19.5439q-16.9912 -7.03613 -35.8135 -9.90234q-18.8213 -2.86719 -33.4609 -2.86719q-10.4561 0 -23.2656 1.56348t-24.0498 5.99414q-11.2412 4.42969 -18.5605 12.7686t-7.31934 22.9316z" />
    <glyph glyph-name="acute" unicode="&#xb4;" horiz-adv-x="544" 
d="M144 462q0 13 8.5 21t19.5 13q38 12 63 17t46.5 9.5t46 13.5t60.5 29l7 7l7 7h2l0.5 0.5t1.5 0.5q9 0 12.5 -8.5t3.5 -15.5q0 -13 -11.5 -22.5t-22.5 -14.5q-17 -8 -24.5 -11.5t-13.5 -6.5q-7 -2 -20.5 -7t-32 -11t-39.5 -12t-42 -9.5t-39.5 -4t-32.5 4.5z" />
    <glyph glyph-name="mu" unicode="&#xb5;" horiz-adv-x="434" 
d="M350 75q-9 -19 -30 -39t-53 -31.5t-73 -9.5t-91 25q-3 0 -3 -12.5t1 -31.5t2.5 -41t2 -40.5t0.5 -31.5t-1 -12q-13 -24 -24.5 -22t-20.5 22.5t-16 54.5t-12 74t-7 82.5t-1 79.5v28q0 18 0.5 39t3.5 43t8.5 40.5t14 31.5t22.5 17q7 2 12.5 -3t9.5 -11.5t6 -14t1 -10.5
q-5 -18 -11 -42.5t-10 -51t-3.5 -53.5t8 -48t22.5 -34.5t43 -15.5q42 0 82 14t67.5 41t39 65t-3.5 86q0 6 2 12.5t5.5 12.5t8.5 10t13 4q6 6 12 -8.5t12 -40t11 -58.5t7 -64t0 -57t-8 -37q-18 -6 -28.5 -6t-15.5 3.5t-6 10t0 13t2 11.5t-1 6z" />
    <glyph glyph-name="paragraph" unicode="&#xb6;" horiz-adv-x="529" 
d="M490 532q0 -62 -7 -123l-14 -122t-12 -122t0 -123q-12 -17 -27 -25t-36 -8q0 8 0.5 28t1 42t2 41.5t1.5 27.5q0 22 3 54.5t6.5 68.5t7.5 71t7 63.5t4 46l1 17.5q-23 0 -43 1t-37 3q17 -22 17 -54q0 -51 -5 -100l-7 -99q-4 -49 -7 -99t-1 -101q-7 -11 -17.5 -16t-21.5 -5
q-4 0 -9 0.5t-9.5 2t-8 4t-3.5 8.5q0 38 2 74t5 71.5t6 70.5t8 72v10q-1 3 -5 10.5t-6 8.5h-2h-2l-1 1q-1 0 -2 -0.5t-3 -0.5q-18 -7 -40 -17t-42 -12q-1 0 -5.5 -0.5t-11 -0.5t-13 -0.5t-10.5 -0.5q-23 0 -46 4.5t-41 16t-29 30.5t-11 48q0 41 14.5 66.5t38.5 39t54.5 17.5
t62.5 4q29 0 50.5 -1t40 -2t37 -1.5t41 0t52 2.5t72.5 8z" />
    <glyph glyph-name="periodcentered" unicode="&#xb7;" horiz-adv-x="215" 
d="M53 263q0 11 7.5 17t18 10t21 5.5t16.5 1.5q9 0 16.5 -6.5t13.5 -15.5t10 -19t4 -16q0 -12 -2 -23.5t-14 -16.5q-3 0 -11 -0.5t-11 -0.5q-13 0 -25.5 3.5t-22 11.5t-15.5 20t-6 29z" />
    <glyph glyph-name="cedilla" unicode="&#xb8;" horiz-adv-x="544" 
d="M116 26q0 -24 10.5 -42.5t25.5 -31t32 -19t30 -9.5q9 -2 32 -6t48.5 -9t48.5 -9t33 -5q4 -4 8.5 -13.5t4.5 -15.5q0 -16 -13 -30.5t-33.5 -26.5t-46 -21.5t-50 -16t-46 -9.5t-33.5 -3q-8 0 -15.5 8.5t-7.5 21.5q0 12 4.5 17.5t11.5 7.5t14 2t12 1q12 4 30 8.5t34.5 9
t28.5 8.5l13 3v12q-14 0 -35.5 3t-45.5 10.5t-48.5 20t-44.5 30.5t-32.5 41t-12.5 54z" />
    <glyph glyph-name="onesuperior" unicode="&#xb9;" horiz-adv-x="127" 
d="M99.1895 429.244q0 -36.6182 -5.30078 -71.7832t-12.3691 -70.6201q-7.06836 -35.4561 -10.6035 -70.9111q-3.5332 -35.4561 0 -72.0742q-20.3213 -18.0176 -54.7793 -18.0176q0 4.64941 0.441406 15.9834q0.442383 11.334 1.32617 24.1221
q0.882812 12.7871 1.3252 24.1211q0.441406 11.334 0.441406 15.9844q0.883789 19.1807 3.09277 43.0107q2.20898 23.8311 5.30078 48.2432q3.09277 24.4121 7.06836 49.1143q3.97656 24.7031 10.1611 46.209q4.41699 18.0186 15.9033 27.3174
q11.4863 9.30078 37.9922 9.30078z" />
    <glyph glyph-name="ordmasculine" unicode="&#xba;" horiz-adv-x="192" 
d="M19 238q0 14 5 28.5t14 27t22 20.5t29 8q47 0 65 -18.5t18 -58.5v-25q-3 -10 -12 -17.5t-20 -13t-22.5 -8t-19.5 -2.5q-13 0 -27 3t-25.5 10t-19 18t-7.5 28zM54 241q0 -13 7.5 -20t19 -8t25 3t25.5 11q6 15 7.5 28.5t-3 22.5t-16 12t-31.5 -4q-6 -1 -12 -6t-11.5 -11
t-8 -14t-2.5 -14z" />
    <glyph glyph-name="guillemotright" unicode="&#xbb;" horiz-adv-x="546" 
d="M106 118v30q0 6 2 9.5t6 7.5t13 9l253 176q12 2 20 10t9 20q-7 2 -21.5 6t-32.5 9.5t-38.5 12t-39.5 11.5l-32 11q-15 5 -21 8q-4 1 -14.5 6.5t-26 12t-33 15l-35 17t-33 15.5t-23.5 12q-8 4 -17 9t-16 12t-12.5 15t-5.5 17q0 6 1.5 12t5 11.5t7.5 9t12 3.5l1 -0.5
t2 -0.5q1 -1 2 -1q2 0 5 -2.5t6 -5.5t5.5 -6t3.5 -5q54 -31 106.5 -52t105.5 -37.5t106 -32t110 -34.5q17 -6 28.5 -18.5t11.5 -31.5q0 -7 -3 -13t-17 -5l-371 -262q-1 -1 -3 -1h-5q-9 0 -13.5 3t-6.5 7.5t-2 10.5zM374 157v29q0 6 1.5 10t5.5 7.5t13 9.5l254 175
q11 2 19.5 10t9.5 20q-7 2 -21.5 6t-33 9.5t-38.5 12t-38.5 12.5t-33 11t-21.5 8q-3 1 -13.5 6t-26 12t-34 15t-35.5 16.5l-32 16t-24 11.5q-7 4 -16 9.5t-16.5 12t-12.5 14.5t-5 18q0 6 1.5 12t4.5 11.5t7.5 8.5t12.5 3h0.5h1.5h3q1 -1 4 -3.5t6 -5.5t6 -6.5t3 -4.5
q55 -31 107.5 -52t105 -38t106 -32.5t110.5 -33.5q17 -5 28.5 -18.5t11.5 -32.5q0 -7 -3 -12.5t-19 -4.5l-369 -263q-1 -1 -3 -1h-5q-9 0 -13.5 3t-6.5 8t-2 11z" />
    <glyph glyph-name="onequarter" unicode="&#xbc;" horiz-adv-x="490" 
d="M96.417 436.622q0 -37.875 -5.0957 -74.248q-5.0957 -36.3721 -11.8896 -73.0449t-10.1904 -73.3457q-3.39746 -36.6729 0 -74.5488q-19.5332 -18.6367 -52.6533 -18.6367q0 4.80957 0.424805 16.5322q0.424805 11.7236 1.27344 24.9502
q0.849609 13.2266 1.27441 24.9492q0.423828 11.7236 0.423828 16.5332q0.849609 19.8398 2.97266 44.4883q2.12305 24.6494 5.0957 49.8994t6.79395 50.8008t9.7666 47.7959q4.24609 18.6367 15.2861 28.2559t36.5176 9.61914zM22 10q0 24 6.5 45t16 41t19.5 39.5t18 40.5
q0 4 4 18t9 30.5t9.5 31t6.5 17.5q4 11 14.5 34t23.5 52t28 61t28.5 61t24.5 52t17 33q1 5 4.5 7t8 3t9 0.5t7.5 -0.5q19 0 24.5 -5.5t5.5 -24.5q0 -2 -0.5 -10t-0.5 -9q-36 -55 -67 -121.5t-58 -135.5t-49.5 -136.5t-40.5 -123.5q-6 -18 -13 -24t-26 -6q-17 0 -23 7t-6 23z
M142.903 126.47q-9.48047 0 -13.9424 4.13379q-4.46094 4.13477 -6.13477 11.0244q-1.67285 6.89062 -1.95117 15.1592q-0.279297 8.26855 -0.279297 15.8477q0 27.5605 3.625 51.332t10.3174 46.8535q6.69238 23.083 15.6143 46.5098q8.92383 23.4268 19.5195 50.9883
q1.67285 6.20117 6.13379 6.88965q4.46191 0.689453 8.36523 0.689453q6.69238 0 9.75977 -4.13477q3.06738 -4.13379 3.06738 -13.7803v-3.44531q-1.11523 -4.82324 -4.18262 -14.8135q-3.06738 -9.99121 -7.25 -22.0488q-4.18262 -12.0586 -8.08594 -26.1836
q-3.9043 -14.125 -7.80762 -26.8721q-3.9043 -12.7471 -6.69238 -23.082t-3.90332 -14.4697q-2.23145 -6.88965 -3.34668 -11.7129t-1.95215 -9.30176q-0.835938 -4.47949 -0.835938 -8.95801v-11.3691q0 -1.37793 -0.279297 -4.47852q-0.27832 -3.10059 0.279297 -5.85645
t1.67285 -5.16797q1.11523 -2.41113 4.46191 -3.78906h4.46094h7.52832h7.5293h11.7109q7.80762 0 16.4512 0.34375q8.64453 0.344727 15.6152 1.72266q6.9707 1.37891 7.52832 4.82324l10.5967 114.379q0.557617 8.95703 3.06641 11.3682q2.50977 2.41211 7.5293 2.41211
q2.78809 0 5.57617 -0.689453q2.78906 -0.688477 5.01953 -2.06641t3.90332 -4.47852q1.67383 -3.10156 1.67383 -6.5459v-114.379h92.5742q7.80762 0 12.5479 -7.5791t4.74023 -15.8477q0 -4.82324 -0.557617 -9.99023q-0.557617 -5.16797 -6.13477 -6.5459h-11.1533
h-17.8457h-18.4033h-12.2695q-3.90332 0 -11.4316 -1.03418q-7.5293 -1.0332 -14.2207 -1.72266q-6.69238 -0.688477 -11.9902 -2.06641t-5.85547 -2.06738l-5.01953 -6.89062v-124.713q-2.23047 0 -6.9707 1.0332t-9.20215 3.10059q-4.46094 2.06738 -7.80762 5.16797
q-3.3457 3.10059 -3.3457 8.6123l-10.5957 113.689h-81.4209z" />
    <glyph glyph-name="onehalf" unicode="&#xbd;" horiz-adv-x="582" 
d="M96.417 440.891q0 -38.2705 -5.0957 -75.0234t-11.8896 -73.8096t-10.1904 -74.1123q-3.39746 -37.0566 0 -75.3281q-19.5332 -18.832 -52.6533 -18.832q0 4.85938 0.424805 16.7061q0.424805 11.8457 1.27344 25.21q0.849609 13.3652 1.27441 25.2109
q0.423828 11.8457 0.423828 16.7051q0.849609 20.0479 2.97266 44.9541q2.12305 24.9072 5.0957 50.4209q2.97266 25.5146 6.79395 51.333q3.82129 25.8174 9.7666 48.2949q4.24609 18.8311 15.2861 28.5518q11.04 9.71875 36.5176 9.71875zM48 4q0 24 6.5 45t16 41
t19.5 39.5t18 40.5q0 4 4 18t9 30.5t9.5 31t6.5 17.5q4 11 14.5 34t23.5 52t28 61t28.5 61t24.5 52t17 33q1 5 4.5 7t8 3t9 0.5t7.5 -0.5q19 0 24.5 -5.5t5.5 -24.5q0 -2 -0.5 -10t-0.5 -9q-36 -55 -67 -121.5t-58 -135.5t-49.5 -136.5t-40.5 -123.5q-6 -18 -13 -24t-26 -6
q-17 0 -23 7t-6 23zM134.621 22.5293q0 4.40723 0.305664 7.71289t1.5293 6.06055t3.36426 5.78516t7.0332 6.33594l130.89 112.948q4.89355 4.40723 14.0674 15.4268q9.1748 11.0195 18.043 24.5176q8.86914 13.499 15.9033 26.998q7.0332 13.498 7.0332 21.7627
q0 6.06055 -3.66992 10.7441q-3.66992 4.68262 -8.86816 7.98828q-5.19922 3.30664 -11.9268 4.68359q-6.72852 1.37793 -12.8447 1.37793q-15.9023 0 -30.2754 -5.78516q-14.374 -5.78516 -26.9121 -14.0498q-12.5391 -8.26465 -23.2422 -18.1816
q-10.7031 -9.91797 -19.2666 -18.1826q-8.5625 -8.26367 -16.5137 -14.0488t-14.0674 -5.78516q-9.78613 0 -11.3154 4.95801q-1.5293 4.95898 -1.5293 12.6729q0 11.5703 7.33984 22.3135q7.33887 10.7441 19.8779 20.6611q12.5381 9.91797 27.5234 18.1816
q14.9854 8.26465 30.2754 14.877q15.291 6.61133 29.3584 11.5693q14.0684 4.95898 23.2422 7.71387q0.612305 0 4.28223 0.275391q3.66895 0.275391 4.28125 0.275391q13.4561 0 25.6885 -6.33594t22.0186 -16.2529q9.78613 -9.91797 15.9023 -21.4883t6.11621 -23.1406
q0 -14.876 -6.72754 -30.8535q-6.72852 -15.9785 -17.7373 -31.6807q-11.0098 -15.7021 -24.4658 -30.8535q-13.4561 -15.1523 -27.5234 -28.9258q-14.0674 -13.7744 -27.2178 -25.6201q-13.1494 -11.8457 -22.3242 -21.2119l6.11621 -6.06055q1.22363 0 14.6797 -3.58105
q13.4551 -3.58203 31.1934 -7.71387q17.7373 -4.13281 36.6973 -8.54004q18.9609 -4.40723 29.9707 -7.16211h7.33887h9.1748q14.0674 0 27.5234 3.58105t26.6064 7.71289q13.1494 4.13281 25.9941 7.98926t25.6885 3.85645q0 -20.3848 -11.0098 -32.2314
q-11.0088 -11.8457 -28.1348 -17.9062t-38.2266 -7.98828q-21.1016 -1.92871 -41.2861 -1.92871h-3.66895l-136.395 32.5068h-4.28125h-4.89355q-11.0088 0 -20.1836 -4.95898q-9.1748 -4.95801 -17.126 -11.2939q-7.95117 -6.33691 -15.291 -11.5703
q-7.33887 -5.23438 -15.9023 -5.23438q-8.5625 0 -10.3975 4.68262q-1.83496 4.68359 -1.83496 12.3975z" />
    <glyph glyph-name="threequarters" unicode="&#xbe;" horiz-adv-x="672" 
d="M27.5518 178.822q11.4736 0 22.041 -2.38086q10.5684 -2.38184 20.5322 -5.06152q9.96387 -2.67871 20.2305 -5.06055q10.2656 -2.38184 21.1357 -2.38184q10.2656 0 25.665 2.08398q15.3984 2.08398 29.2881 7.14453q13.8896 5.06152 23.5518 13.9922t9.66211 23.2207
q0 17.8613 -7.85059 30.3652q-7.85059 12.5029 -20.5322 20.8389t-28.6846 13.0986q-16.0029 4.76367 -32.3076 6.25195t-31.7041 1.19043q-15.3984 -0.297852 -27.4766 -1.48828q-7.24609 3.57227 -9.96387 7.44238t-2.71777 9.82422q0 8.93066 10.8701 14.2891
q10.8701 5.35938 26.2686 10.1221q15.3994 4.76367 34.1201 9.52637q18.7197 4.76367 34.4209 11.6104t26.2686 16.9688q10.5684 10.1221 10.5684 25.0068q0 17.8623 -8.15234 23.8154q-8.15234 5.9541 -24.457 5.9541t-33.2139 -5.65625t-33.5156 -12.5029
q-16.6064 -6.84766 -31.0996 -12.8008q-14.4932 -5.9541 -25.9668 -5.9541q-3.01953 0 -5.13281 1.48828q-2.11426 1.48828 -2.71777 4.16797q-0.603516 2.67871 -0.90625 5.3584q-0.301758 2.67871 -0.301758 5.65625q0 6.5498 1.50977 11.0146
q1.50977 4.46582 10.5684 8.63379q13.8887 5.3584 29.2881 11.3125q15.3984 5.9541 31.7031 11.3125q16.3057 5.3584 32.9121 8.63281t31.7041 3.27441q16.9082 0 28.6836 -4.7627q11.7764 -4.7627 19.627 -13.9922q7.85059 -9.22852 11.4736 -22.3271t3.62305 -29.7695
q0 -15.4805 -6.03906 -23.5186t-14.1914 -13.0986t-17.21 -10.4199q-9.05859 -5.3584 -16.3047 -15.4805q7.85059 -9.52539 16.6064 -17.5635t17.2109 -15.7783q8.4541 -7.74023 16.3047 -15.4805t13.5869 -17.2666q5.7373 -9.52637 9.05859 -21.1367t3.32129 -25.8994
q0 -22.0303 -13.5879 -36.3193q-13.5869 -14.29 -33.2129 -22.3271q-19.626 -8.03809 -41.3662 -11.3125q-21.7393 -3.27539 -38.6484 -3.27539q-12.0771 0 -26.873 1.78613q-14.7949 1.78613 -27.7783 6.84766q-12.9834 5.06055 -21.4375 14.5869t-8.4541 26.1973zM189 29
q0 24 6.5 45t16 41t19.5 39.5t18 40.5q0 4 4 18t9 30.5t9.5 31t6.5 17.5q4 11 14.5 34t23.5 52t28 61t28.5 61t24.5 52t17 33q1 5 4.5 7t8 3t9 0.5t7.5 -0.5q19 0 24.5 -5.5t5.5 -24.5q0 -2 -0.5 -10t-0.5 -9q-36 -55 -67 -121.5t-58 -135.5t-49.5 -136.5t-40.5 -123.5
q-6 -18 -13 -24t-26 -6q-17 0 -23 7t-6 23zM259.146 122.454q-10.7031 0 -15.7402 3.80957q-5.03613 3.80957 -6.9248 10.1582t-2.2041 13.9678q-0.314453 7.61816 -0.314453 14.6025q0 25.3945 4.09277 47.2988q4.0918 21.9033 11.6465 43.1719
q7.55469 21.2695 17.6289 42.8555q10.0723 21.5859 22.0352 46.9814q1.88867 5.71387 6.9248 6.34863q5.03711 0.634766 9.44336 0.634766q7.55566 0 11.0176 -3.80859q3.46289 -3.80957 3.46289 -12.6982v-3.1748q-1.25879 -4.44336 -4.72168 -13.6494t-8.18457 -20.3164
t-9.12891 -24.126t-8.81348 -24.7607q-4.40723 -11.7451 -7.55566 -21.2686q-3.14746 -9.52344 -4.40723 -13.333q-2.51758 -6.34863 -3.77734 -10.793q-1.25879 -4.44434 -2.20312 -8.57031q-0.944336 -4.12695 -0.944336 -8.25391v-10.4756q0 -1.26953 -0.314453 -4.12695
q-0.31543 -2.85742 0.314453 -5.39648t1.88867 -4.76172q1.25879 -2.22168 5.03613 -3.49219h5.03711h8.49902h8.5h13.2207q8.81445 0 18.5723 0.317383q9.75879 0.317383 17.6289 1.58789q7.86914 1.26953 8.49902 4.44434l11.9619 105.391
q0.629883 8.25391 3.46289 10.4756q2.83301 2.22266 8.49902 2.22266q3.14746 0 6.2959 -0.634766q3.14746 -0.634766 5.66602 -1.90527q2.51855 -1.26953 4.40723 -4.12598q1.88867 -2.85742 1.88867 -6.03223v-105.391h104.51q8.81445 0 14.165 -6.98438
q5.35156 -6.9834 5.35156 -14.6025q0 -4.44434 -0.628906 -9.20508q-0.629883 -4.76172 -6.92578 -6.03223h-12.5918h-20.1465h-20.7754h-13.8506q-4.40723 0 -12.9072 -0.952148q-8.49902 -0.952148 -16.0537 -1.58691t-13.5361 -1.9043
q-5.98047 -1.27051 -6.61035 -1.90527l-5.66602 -6.34863v-114.915q-2.51855 0 -7.87012 0.952148q-5.35156 0.953125 -10.3877 2.85742q-5.03711 1.9043 -8.81445 4.76172t-3.77734 7.93555l-11.9619 104.757h-91.918z" />
    <glyph glyph-name="questiondown" unicode="&#xbf;" horiz-adv-x="409" 
d="M54.1123 261.174q0 -25.6182 20.4023 -46.1904q20.4033 -20.5723 50.2959 -39.5918t65.0049 -35.71t65.0049 -33.7695q29.8926 -17.0781 49.8213 -34.5449t19.9287 -37.6514q0 -16.3027 -12.8115 -27.1709t-31.3164 -17.4668t-38.9082 -9.70312
q-20.4023 -3.10547 -34.6377 -3.10547q-29.418 0 -57.8867 10.8682q-28.4697 10.8682 -52.1934 23.6768q-23.7246 12.8096 -40.8066 23.6777q-17.0811 10.8682 -23.7246 10.8682q-5.69336 0 -8.54004 -2.3291q-2.84668 -2.32812 -4.27051 -6.20996t-1.42383 -7.7627
v-7.76367q0 -13.9736 10.4395 -26.3945q10.4385 -12.4209 27.9941 -23.2891q17.5566 -10.8682 39.3828 -19.7959t43.1777 -14.75q21.3525 -5.82227 40.8066 -9.31543q19.4531 -3.49316 33.6885 -3.49316q24.6729 0 54.5654 8.53906q29.8926 8.54004 54.5664 23.2891
q24.6738 14.75 41.2803 35.3223q16.6074 20.5723 16.6074 43.085q0 27.1709 -19.9287 49.2959q-19.9287 22.124 -49.8213 41.5322q-29.8926 19.4072 -65.0049 36.0977q-35.1113 16.6914 -65.0049 33.7695q-29.8926 17.0791 -49.8213 33.7695
q-19.9277 16.6904 -19.9277 36.874q0 7.76367 4.27051 14.3623t9.48926 12.4209q5.21973 5.82227 9.96484 11.6445q4.74414 5.82227 4.74414 13.585q0 6.21094 -7.5918 7.375q-7.5918 1.16504 -11.3877 1.16504q-15.1836 0 -27.5205 -6.21094
q-12.3359 -6.20996 -20.877 -15.9141t-13.2852 -21.3486q-4.74512 -11.6445 -4.74512 -21.7363zM45.5713 435.843q0 -9.31543 6.16797 -15.9141q6.16895 -6.59863 14.71 -10.8691q8.54004 -4.26953 19.4531 -5.82227q10.9141 -1.55176 21.3525 -1.55176
q23.7236 0 33.2139 11.2559q9.49023 11.2568 9.49023 28.335q0 17.8555 -11.8623 24.0654q-11.8623 6.21094 -32.7402 6.21094q-8.54004 0 -19.4541 -1.94043q-10.9131 -1.94141 -19.4531 -5.82324q-8.54102 -3.88086 -14.71 -10.8682q-6.16797 -6.98633 -6.16797 -17.0781z
" />
    <glyph glyph-name="Agrave" unicode="&#xc0;" horiz-adv-x="448" 
d="M360 9q-4 13 -7 34.5t-6 47t-6.5 52t-7 50.5t-9 42.5t-12.5 27.5h-10h-14.5h-14.5h-10h-38t-33 -2.5t-34 -6t-42 -11.5q-6 -2 -11 -11t-8.5 -19.5t-6 -20.5t-2.5 -17t-1.5 -25t-3 -38t-3.5 -38.5t-3 -24.5q-7 -12 -20 -21t-28 -9q-13 0 -17 6t-4 19q0 1 0.5 7t0.5 8
q15 136 53 268t94 258q0 1 2.5 4t6 6t6.5 5.5t4 2.5q2 0 3 1h1l1 1q23 0 44.5 -16.5t41.5 -41.5t36 -56.5t28.5 -61.5t20 -56.5t9.5 -41.5q11 -6 22.5 -9.5t22.5 -8t19.5 -11t14.5 -20.5q0 -1 -0.5 -4t-2.5 -6t-3.5 -6t-3.5 -3q-2 -1 -9.5 -3t-15 -3.5t-15 -2.5t-9.5 -1v-5
q0 -46 8 -95.5t21 -93.5q0 -1 1.5 -4t3.5 -6t3 -6.5t2 -3.5v-5q0 -17 -12.5 -26t-26.5 -9q-7 0 -12 1.5t-8 8.5zM127 309q19 0 44.5 2.5t51 6.5t47.5 7.5t32 5.5q-1 6 -6.5 23t-11.5 36t-12 35.5t-9 22.5q-2 4 -8.5 14.5t-15 20.5t-18 17.5t-16.5 7.5q-6 0 -11 -1t-9 -11
l-58 -165v-22zM394.253 507.312q-16.1191 -4.74902 -38.2832 -4.40918q-22.1641 0.338867 -46.7461 4.07031t-49.9697 9.49902q-25.3887 5.7666 -47.1494 11.873q-21.7617 6.10547 -38.2842 11.5332q-16.5215 5.42773 -24.582 7.46387q-4.0293 1.35645 -7.25293 2.37402
q-3.22461 1.01758 -8.06055 3.05371q-4.83496 2.03516 -12.8955 4.74902l-18.5371 8.1416q-5.6416 2.71387 -12.4922 6.10645t-13.2988 7.80176q-6.44727 4.41016 -10.0742 10.1777q-3.62695 5.7666 -3.62695 12.5518q0 3.3916 1.20898 7.46289
q1.20898 4.07031 3.62695 7.80176t6.04492 6.10645t9.26855 2.375q0.805664 0 0.805664 -0.339844q0 -0.338867 1.6123 -0.338867q0.805664 -0.678711 2.41797 -0.678711q0.805664 0 3.22363 -1.69629t4.43262 -4.07031q2.01465 -2.375 4.43262 -4.41016t2.41797 -3.39258
q29.8213 -13.5693 51.9854 -21.7109t40.7012 -13.2295q18.5371 -5.08887 35.8662 -8.1416q17.3281 -3.05371 35.8652 -6.10645t41.1045 -7.80273q22.5674 -4.74902 53.1943 -13.5693q14.5068 -3.3916 23.7754 -12.2119t9.26855 -21.0332z" />
    <glyph glyph-name="Aacute" unicode="&#xc1;" horiz-adv-x="448" 
d="M360 9q-4 13 -7 34.5t-6 47t-6.5 52t-7 50.5t-9 42.5t-12.5 27.5h-10h-14.5h-14.5h-10h-38t-33 -2.5t-34 -6t-42 -11.5q-6 -2 -11 -11t-8.5 -19.5t-6 -20.5t-2.5 -17t-1.5 -25t-3 -38t-3.5 -38.5t-3 -24.5q-7 -12 -20 -21t-28 -9q-13 0 -17 6t-4 19q0 1 0.5 7t0.5 8
q15 136 53 268t94 258q0 1 2.5 4t6 6t6.5 5.5t4 2.5q2 0 3 1h1l1 1q23 0 44.5 -16.5t41.5 -41.5t36 -56.5t28.5 -61.5t20 -56.5t9.5 -41.5q11 -6 22.5 -9.5t22.5 -8t19.5 -11t14.5 -20.5q0 -1 -0.5 -4t-2.5 -6t-3.5 -6t-3.5 -3q-2 -1 -9.5 -3t-15 -3.5t-15 -2.5t-9.5 -1v-5
q0 -46 8 -95.5t21 -93.5q0 -1 1.5 -4t3.5 -6t3 -6.5t2 -3.5v-5q0 -17 -12.5 -26t-26.5 -9q-7 0 -12 1.5t-8 8.5zM127 309q19 0 44.5 2.5t51 6.5t47.5 7.5t32 5.5q-1 6 -6.5 23t-11.5 36t-12 35.5t-9 22.5q-2 4 -8.5 14.5t-15 20.5t-18 17.5t-16.5 7.5q-6 0 -11 -1t-9 -11
l-58 -165v-22zM86 626q0 13 8.5 21t19.5 13q38 12 63 17t46.5 9.5t46 13.5t60.5 29l7 7l7 7h2l0.5 0.5t1.5 0.5q9 0 12.5 -8.5t3.5 -15.5q0 -13 -11.5 -22.5t-22.5 -14.5q-17 -8 -24.5 -11.5t-13.5 -6.5q-7 -2 -20.5 -7t-32 -11t-39.5 -12t-42 -9.5t-39.5 -4t-32.5 4.5z" />
    <glyph glyph-name="Acircumflex" unicode="&#xc2;" horiz-adv-x="448" 
d="M360 9q-4 13 -7 34.5t-6 47t-6.5 52t-7 50.5t-9 42.5t-12.5 27.5h-10h-14.5h-14.5h-10h-38t-33 -2.5t-34 -6t-42 -11.5q-6 -2 -11 -11t-8.5 -19.5t-6 -20.5t-2.5 -17t-1.5 -25t-3 -38t-3.5 -38.5t-3 -24.5q-7 -12 -20 -21t-28 -9q-13 0 -17 6t-4 19q0 1 0.5 7t0.5 8
q15 136 53 268t94 258q0 1 2.5 4t6 6t6.5 5.5t4 2.5q2 0 3 1h1l1 1q23 0 44.5 -16.5t41.5 -41.5t36 -56.5t28.5 -61.5t20 -56.5t9.5 -41.5q11 -6 22.5 -9.5t22.5 -8t19.5 -11t14.5 -20.5q0 -1 -0.5 -4t-2.5 -6t-3.5 -6t-3.5 -3q-2 -1 -9.5 -3t-15 -3.5t-15 -2.5t-9.5 -1v-5
q0 -46 8 -95.5t21 -93.5q0 -1 1.5 -4t3.5 -6t3 -6.5t2 -3.5v-5q0 -17 -12.5 -26t-26.5 -9q-7 0 -12 1.5t-8 8.5zM127 309q19 0 44.5 2.5t51 6.5t47.5 7.5t32 5.5q-1 6 -6.5 23t-11.5 36t-12 35.5t-9 22.5q-2 4 -8.5 14.5t-15 20.5t-18 17.5t-16.5 7.5q-6 0 -11 -1t-9 -11
l-58 -165v-22zM77 612q0 17 6 42t15.5 52t23.5 54t30.5 48.5t35.5 34.5t39 13q6 0 13 0.5t14 -1.5t12 -5.5t8 -13.5q5 -29 14.5 -58.5t23 -58t28.5 -55.5t31 -52q-10 -15 -17 -23t-21 -8q-13 0 -25 15t-22 36.5t-19.5 47t-17.5 48t-15.5 37t-13.5 14.5q-18 0 -28.5 -15
t-17 -38t-12 -50t-12.5 -50t-19.5 -38t-32.5 -15q-5 0 -8.5 5t-6.5 11.5t-4.5 13t-1.5 9.5z" />
    <glyph glyph-name="Atilde" unicode="&#xc3;" horiz-adv-x="448" 
d="M360 9q-4 13 -7 34.5t-6 47t-6.5 52t-7 50.5t-9 42.5t-12.5 27.5h-10h-14.5h-14.5h-10h-38t-33 -2.5t-34 -6t-42 -11.5q-6 -2 -11 -11t-8.5 -19.5t-6 -20.5t-2.5 -17t-1.5 -25t-3 -38t-3.5 -38.5t-3 -24.5q-7 -12 -20 -21t-28 -9q-13 0 -17 6t-4 19q0 1 0.5 7t0.5 8
q15 136 53 268t94 258q0 1 2.5 4t6 6t6.5 5.5t4 2.5q2 0 3 1h1l1 1q23 0 44.5 -16.5t41.5 -41.5t36 -56.5t28.5 -61.5t20 -56.5t9.5 -41.5q11 -6 22.5 -9.5t22.5 -8t19.5 -11t14.5 -20.5q0 -1 -0.5 -4t-2.5 -6t-3.5 -6t-3.5 -3q-2 -1 -9.5 -3t-15 -3.5t-15 -2.5t-9.5 -1v-5
q0 -46 8 -95.5t21 -93.5q0 -1 1.5 -4t3.5 -6t3 -6.5t2 -3.5v-5q0 -17 -12.5 -26t-26.5 -9q-7 0 -12 1.5t-8 8.5zM127 309q19 0 44.5 2.5t51 6.5t47.5 7.5t32 5.5q-1 6 -6.5 23t-11.5 36t-12 35.5t-9 22.5q-2 4 -8.5 14.5t-15 20.5t-18 17.5t-16.5 7.5q-6 0 -11 -1t-9 -11
l-58 -165v-22zM133 690q-17 0 -28 -6.5t-19.5 -16.5t-15 -21.5t-13 -21.5t-15 -16.5t-21.5 -6.5t-16.5 6.5t-3.5 18.5q0 25 14 47t34.5 39t45.5 27.5t47 10.5q18 0 32 -7t25.5 -17t22.5 -21.5t23.5 -21.5t28 -16.5t34.5 -6.5q18 0 31.5 8t25 17.5t23 17.5t27.5 8
q17 0 23 -7.5t11 -23.5q-6 -8 -19.5 -22.5t-30 -29t-34 -25t-31.5 -10.5q-26 0 -48 7.5t-41 18t-35 23t-30 23t-25.5 18t-21.5 7.5z" />
    <glyph glyph-name="Adieresis" unicode="&#xc4;" horiz-adv-x="448" 
d="M360 9q-4 13 -7 34.5t-6 47t-6.5 52t-7 50.5t-9 42.5t-12.5 27.5h-10h-14.5h-14.5h-10h-38t-33 -2.5t-34 -6t-42 -11.5q-6 -2 -11 -11t-8.5 -19.5t-6 -20.5t-2.5 -17t-1.5 -25t-3 -38t-3.5 -38.5t-3 -24.5q-7 -12 -20 -21t-28 -9q-13 0 -17 6t-4 19q0 1 0.5 7t0.5 8
q15 136 53 268t94 258q0 1 2.5 4t6 6t6.5 5.5t4 2.5q2 0 3 1h1l1 1q23 0 44.5 -16.5t41.5 -41.5t36 -56.5t28.5 -61.5t20 -56.5t9.5 -41.5q11 -6 22.5 -9.5t22.5 -8t19.5 -11t14.5 -20.5q0 -1 -0.5 -4t-2.5 -6t-3.5 -6t-3.5 -3q-2 -1 -9.5 -3t-15 -3.5t-15 -2.5t-9.5 -1v-5
q0 -46 8 -95.5t21 -93.5q0 -1 1.5 -4t3.5 -6t3 -6.5t2 -3.5v-5q0 -17 -12.5 -26t-26.5 -9q-7 0 -12 1.5t-8 8.5zM127 309q19 0 44.5 2.5t51 6.5t47.5 7.5t32 5.5q-1 6 -6.5 23t-11.5 36t-12 35.5t-9 22.5q-2 4 -8.5 14.5t-15 20.5t-18 17.5t-16.5 7.5q-6 0 -11 -1t-9 -11
l-58 -165v-22zM48 727q0 12 10.5 20.5t25 13.5t29 6.5t22.5 1.5q12 0 22.5 -8t19 -19.5t13.5 -24t5 -21.5q0 -8 -0.5 -15.5t-2 -14t-6.5 -12.5t-14 -8q-2 0 -6 -0.5t-8.5 -0.5t-8.5 -0.5t-6 -0.5q-17 0 -34.5 5t-30.5 15t-21.5 25.5t-8.5 37.5zM256 724q0 13 11 21.5t25 13
t28.5 6.5t22.5 2q11 0 21 -8.5t18.5 -19.5t14 -23.5t5.5 -22.5q0 -8 -0.5 -15.5t-2.5 -14t-7 -12t-13 -8.5h-6h-8.5t-9 -0.5t-5.5 -0.5q-17 0 -34 4.5t-30.5 14.5t-21.5 25.5t-8 37.5z" />
    <glyph glyph-name="Aring" unicode="&#xc5;" horiz-adv-x="448" 
d="M76 656q0 23 7 47.5t21 45t33.5 34t44.5 13.5q34 0 58 -7.5t39 -23.5t21.5 -40.5t6.5 -57.5v-7v-12.5v-11.5v-9q-5 -17 -18 -28t-28 -17l-22 -6q14 -12 27 -29q20 -25 36 -56.5t28.5 -61.5t20 -56.5t9.5 -41.5q11 -6 22.5 -9.5t22.5 -8t19.5 -11t14.5 -20.5q0 -1 -0.5 -4
t-2.5 -6t-3.5 -6t-3.5 -3q-2 -1 -9.5 -3t-15 -3.5t-15 -2.5t-9.5 -1v-5q0 -46 8 -95.5t21 -93.5q0 -1 1.5 -4t3.5 -6t3 -6.5t2 -3.5v-5q0 -17 -12.5 -26t-26.5 -9q-7 0 -12 1.5t-8 8.5q-4 13 -7 34.5t-6 47t-6.5 52t-7 50.5t-9 42.5t-12.5 27.5h-10h-14.5h-14.5h-10h-38
t-33 -2.5t-34 -6t-42 -11.5q-6 -2 -11 -11t-8.5 -19.5t-6 -20.5t-2.5 -17t-1.5 -25t-3 -38t-3.5 -38.5t-3 -24.5q-7 -12 -20 -21t-28 -9q-13 0 -17 6t-4 19q0 1 0.5 7t0.5 8q15 136 53 268q37 128 90 249q-19 3 -35 10q-18 9 -29.5 25.5t-11.5 44.5zM127 309q19 0 44.5 2.5
t51 6.5t47.5 7.5t32 5.5q-1 6 -6.5 23t-11.5 36t-12 35.5t-9 22.5q-2 4 -8.5 14.5t-15 20.5t-18 17.5t-16.5 7.5q-6 0 -11 -1t-9 -11l-58 -165v-22zM106 664q0 -18 10 -29.5t24 -18t29 -8.5t27 -2q11 0 19.5 0.5t17 2t17 6.5t20.5 12q6 11 6 22v22q0 23 -7.5 41t-21.5 29.5
t-33 15t-41 -1.5q-10 -2 -22 -12.5t-21.5 -24t-16.5 -28.5t-7 -26z" />
    <glyph glyph-name="AE" unicode="&#xc6;" horiz-adv-x="819" 
d="M360 9q-4 13 -7 34.5t-6 47t-6.5 52t-7 50.5t-9 42.5t-12.5 27.5h-10h-14.5h-14.5h-10h-38t-33 -2.5t-34 -6t-42 -11.5q-6 -2 -11 -11t-8.5 -19.5t-6 -20.5t-2.5 -17t-1.5 -25t-3 -38t-3.5 -38.5t-3 -24.5q-7 -12 -20 -21t-28 -9q-13 0 -17 6t-4 19q0 1 0.5 7t0.5 8
q15 136 53 268t94 258q0 1 2.5 4t6 6t6.5 5.5t4 2.5q2 0 3 1h1l1 1q23 0 44.5 -16.5t41.5 -41.5t36 -56.5t28.5 -61.5t19.5 -57q7 -23 10 -37q5 51 11 98q3 20 21 33.5t44.5 22.5t59.5 14t64.5 7t59.5 2.5t45 0.5h17t23.5 0.5t26 -0.5t25 -4.5t18 -10.5t6.5 -18
q0 -7 -3.5 -12.5t-16.5 -5.5q-84 10 -168 -2.5t-164 -36.5q1 -2 1 -9v-29q0 -7 -1 -10q0 -2 -1 -7.5t-3 -12.5t-3.5 -12.5t-1.5 -6.5t4 -5l5 -5h10q6 1 24 2.5t42.5 3.5t51.5 3.5t51 4.5t42 4t24 1h3q5 0 8.5 0.5t8.5 0.5h6q18 0 25.5 -3.5t7.5 -22.5q0 -16 -14 -22.5
t-36.5 -9t-51 -2t-59.5 1t-59.5 -1.5t-51 -9.5t-36.5 -22t-14 -40.5q0 -35 13 -56t34.5 -32.5t49.5 -15.5t58.5 -3.5t60.5 2t56 1.5q23 0 42.5 6t40.5 6q7 0 10 -3t4 -8.5t1 -10.5v-9q0 -12 -1.5 -20t-18.5 -8h-282q-34 0 -58 11q-10 4 -19 10l7 -25q0 -1 1.5 -4t3.5 -6
t3 -6.5t2 -3.5v-5q0 -17 -12.5 -26t-26.5 -9q-7 0 -12 1.5t-8 8.5zM127 309q19 0 44.5 2.5t51 6.5t47.5 7.5t32 5.5q-1 6 -6.5 23t-11.5 36t-12 35.5t-9 22.5q-2 4 -8.5 14.5t-15 20.5t-18 17.5t-16.5 7.5q-6 0 -11 -1t-9 -11l-58 -165v-22z" />
    <glyph glyph-name="Ccedilla" unicode="&#xc7;" horiz-adv-x="526" 
d="M8 200q0 39 20 69t51 52.5t71 37.5t80 24t77.5 12.5t64.5 3.5q11 0 20 -8t9 -20q0 -11 -2.5 -19.5t-9.5 -20.5q-21 3 -53 3t-66.5 -4t-68.5 -13.5t-62 -26t-45 -39.5t-17 -56q0 -30 10 -51.5t27 -37t39 -25t46.5 -15t49.5 -7.5t48 -2q26 0 51.5 1t49.5 4t49 8.5t49 17.5
q11 -3 11.5 -10.5t0.5 -15.5q0 -19 -12.5 -31t-33 -19t-45.5 -10t-49 -3.5t-44.5 0t-31.5 0.5q-30 0 -63 4q-11 1 -22 3q9 -15 22 -26q15 -12 32.5 -19.5t30.5 -9.5q9 -2 32 -6.5t49 -9t49 -8.5t32 -5q3 -4 8 -13.5t5 -15.5q0 -17 -13 -31t-34 -26t-46 -22t-50 -16t-45.5 -9
t-32.5 -3q-9 0 -16.5 8t-7.5 22q0 11 4 16.5t11 8t14 2.5t12 1q13 4 31 8.5t34.5 9t28.5 8.5l12 3v11q-14 0 -35 3.5t-45.5 11t-49 19.5t-44 30t-32.5 42q-7 13 -10 30q-26 9 -48 22q-29 15 -50 37t-34 52t-13 69z" />
    <glyph glyph-name="Egrave" unicode="&#xc8;" 
d="M8 140q0 55 7 115.5t14 115.5q2 19 20 32.5t45 22.5t59.5 14t64 7t59.5 2.5t45 0.5h17t24 0.5t27 -0.5t24.5 -4.5t17.5 -10.5t7 -18q0 -7 -3.5 -12.5t-16.5 -5.5q-84 10 -168 -2.5t-163 -36.5v-10v-28v-10t-2 -7.5t-3.5 -12t-3.5 -12.5t-2 -7q0 -2 4 -5.5t7 -4.5h10
q5 0 23 1.5t42 4t51 4.5t51 4t42.5 3t23.5 2h4q4 0 8.5 0.5t7.5 0.5h7q18 0 25.5 -3.5t7.5 -22.5q0 -16 -14 -22.5t-36.5 -9t-51.5 -2t-59 1t-59.5 -1.5t-52 -9t-36 -22t-13.5 -41q0 -35 13 -56t35 -32.5t50 -15.5t57.5 -3.5t59.5 2.5t56 2q24 0 43.5 5.5t40.5 5.5
q6 0 9.5 -3.5t4.5 -8.5t1 -10v-9q0 -12 -2 -20t-18 -8h-283q-33 0 -57.5 10.5t-39.5 29.5t-23 44.5t-8 55.5zM437 503q-20 -7 -47.5 -6.5t-58 6t-62 14t-58.5 17.5t-47.5 17t-30.5 11q-5 2 -9 3.5t-10 4.5t-16 7l-23 12q-7 4 -15.5 9t-16.5 11.5t-12.5 15t-4.5 18.5
q0 5 1.5 11t4.5 11.5t7.5 9t11.5 3.5q1 0 1 -0.5t2 -0.5q1 -1 3 -1q1 0 4 -2.5t5.5 -6t5.5 -6.5t3 -5q37 -20 64.5 -32t50.5 -19.5t44.5 -12t44.5 -9t51 -11.5t66 -20q18 -5 29.5 -18t11.5 -31z" />
    <glyph glyph-name="Eacute" unicode="&#xc9;" 
d="M8 140q0 55 7 115.5t14 115.5q2 19 20 32.5t45 22.5t59.5 14t64 7t59.5 2.5t45 0.5h17t24 0.5t27 -0.5t24.5 -4.5t17.5 -10.5t7 -18q0 -7 -3.5 -12.5t-16.5 -5.5q-84 10 -168 -2.5t-163 -36.5v-10v-28v-10t-2 -7.5t-3.5 -12t-3.5 -12.5t-2 -7q0 -2 4 -5.5t7 -4.5h10
q5 0 23 1.5t42 4t51 4.5t51 4t42.5 3t23.5 2h4q4 0 8.5 0.5t7.5 0.5h7q18 0 25.5 -3.5t7.5 -22.5q0 -16 -14 -22.5t-36.5 -9t-51.5 -2t-59 1t-59.5 -1.5t-52 -9t-36 -22t-13.5 -41q0 -35 13 -56t35 -32.5t50 -15.5t57.5 -3.5t59.5 2.5t56 2q24 0 43.5 5.5t40.5 5.5
q6 0 9.5 -3.5t4.5 -8.5t1 -10v-9q0 -12 -2 -20t-18 -8h-283q-33 0 -57.5 10.5t-39.5 29.5t-23 44.5t-8 55.5zM75 502q0 13 8.5 21t19.5 13q38 12 63 17t46.5 9.5t46 13.5t60.5 29l7 7l7 7h2l0.5 0.5t1.5 0.5q9 0 12.5 -8.5t3.5 -15.5q0 -13 -11.5 -22.5t-22.5 -14.5
q-17 -8 -24.5 -11.5t-13.5 -6.5q-7 -2 -20.5 -7t-32 -11t-39.5 -12t-42 -9.5t-39.5 -4t-32.5 4.5z" />
    <glyph glyph-name="Ecircumflex" unicode="&#xca;" 
d="M8 140q0 55 7 115.5t14 115.5q2 19 20 32.5t45 22.5t59.5 14t64 7t59.5 2.5t45 0.5h17t24 0.5t27 -0.5t24.5 -4.5t17.5 -10.5t7 -18q0 -7 -3.5 -12.5t-16.5 -5.5q-84 10 -168 -2.5t-163 -36.5v-10v-28v-10t-2 -7.5t-3.5 -12t-3.5 -12.5t-2 -7q0 -2 4 -5.5t7 -4.5h10
q5 0 23 1.5t42 4t51 4.5t51 4t42.5 3t23.5 2h4q4 0 8.5 0.5t7.5 0.5h7q18 0 25.5 -3.5t7.5 -22.5q0 -16 -14 -22.5t-36.5 -9t-51.5 -2t-59 1t-59.5 -1.5t-52 -9t-36 -22t-13.5 -41q0 -35 13 -56t35 -32.5t50 -15.5t57.5 -3.5t59.5 2.5t56 2q24 0 43.5 5.5t40.5 5.5
q6 0 9.5 -3.5t4.5 -8.5t1 -10v-9q0 -12 -2 -20t-18 -8h-283q-33 0 -57.5 10.5t-39.5 29.5t-23 44.5t-8 55.5zM75 536q0 17 6 42t15.5 52t23.5 54t30.5 48.5t35.5 34.5t39 13q6 0 13 0.5t14 -1.5t12 -5.5t8 -13.5q5 -29 14.5 -58.5t23 -58t28.5 -55.5t31 -52q-10 -15 -17 -23
t-21 -8q-13 0 -25 15t-22 36.5t-19.5 47t-17.5 48t-15.5 37t-13.5 14.5q-18 0 -28.5 -15t-17 -38t-12 -50t-12.5 -50t-19.5 -38t-32.5 -15q-5 0 -8.5 5t-6.5 11.5t-4.5 13t-1.5 9.5z" />
    <glyph glyph-name="Edieresis" unicode="&#xcb;" 
d="M8 140q0 55 7 115.5t14 115.5q2 19 20 32.5t45 22.5t59.5 14t64 7t59.5 2.5t45 0.5h17t24 0.5t27 -0.5t24.5 -4.5t17.5 -10.5t7 -18q0 -7 -3.5 -12.5t-16.5 -5.5q-84 10 -168 -2.5t-163 -36.5v-10v-28v-10t-2 -7.5t-3.5 -12t-3.5 -12.5t-2 -7q0 -2 4 -5.5t7 -4.5h10
q5 0 23 1.5t42 4t51 4.5t51 4t42.5 3t23.5 2h4q4 0 8.5 0.5t7.5 0.5h7q18 0 25.5 -3.5t7.5 -22.5q0 -16 -14 -22.5t-36.5 -9t-51.5 -2t-59 1t-59.5 -1.5t-52 -9t-36 -22t-13.5 -41q0 -35 13 -56t35 -32.5t50 -15.5t57.5 -3.5t59.5 2.5t56 2q24 0 43.5 5.5t40.5 5.5
q6 0 9.5 -3.5t4.5 -8.5t1 -10v-9q0 -12 -2 -20t-18 -8h-283q-33 0 -57.5 10.5t-39.5 29.5t-23 44.5t-8 55.5zM51 594q0 12 10.5 20.5t25 13.5t29 6.5t22.5 1.5q12 0 22.5 -8t19 -19.5t13.5 -24t5 -21.5q0 -8 -0.5 -15.5t-2 -14t-6.5 -12.5t-14 -8q-2 0 -6 -0.5t-8.5 -0.5
t-8.5 -0.5t-6 -0.5q-17 0 -34.5 5t-30.5 15t-21.5 25.5t-8.5 37.5zM259 591q0 13 11 21.5t25 13t28.5 6.5t22.5 2q11 0 21 -8.5t18.5 -19.5t14 -23.5t5.5 -22.5q0 -8 -0.5 -15.5t-2.5 -14t-7 -12t-13 -8.5h-6h-8.5t-9 -0.5t-5.5 -0.5q-17 0 -34 4.5t-30.5 14.5t-21.5 25.5
t-8 37.5z" />
    <glyph glyph-name="Igrave" unicode="&#xcc;" horiz-adv-x="127" 
d="M8 337v28t3 30.5t10.5 24t24.5 9.5q8 0 13.5 -14t8.5 -36.5t5 -49.5t2.5 -52t1 -45t0.5 -27q2 -26 7.5 -52.5t11 -53.5t10 -53t4.5 -50q-35 0 -56 15t-31.5 40t-13.5 57.5t-2 66t2.5 67t-0.5 60.5v5q0 5 -0.5 10t-0.5 10v10zM274 503q-20 -7 -47.5 -6.5t-58 6t-62 14
t-58.5 17.5t-47.5 17t-30.5 11q-5 2 -9 3.5t-10 4.5t-16 7l-23 12q-7 4 -15.5 9t-16.5 11.5t-12.5 15t-4.5 18.5q0 5 1.5 11t4.5 11.5t7.5 9t11.5 3.5q1 0 1 -0.5t2 -0.5q1 -1 3 -1q1 0 4 -2.5t5.5 -6t5.5 -6.5t3 -5q37 -20 64.5 -32t50.5 -19.5t44.5 -12t44.5 -9t51 -11.5
t66 -20q18 -5 29.5 -18t11.5 -31z" />
    <glyph glyph-name="Iacute" unicode="&#xcd;" horiz-adv-x="127" 
d="M8 337v28t3 30.5t10.5 24t24.5 9.5q8 0 13.5 -14t8.5 -36.5t5 -49.5t2.5 -52t1 -45t0.5 -27q2 -26 7.5 -52.5t11 -53.5t10 -53t4.5 -50q-35 0 -56 15t-31.5 40t-13.5 57.5t-2 66t2.5 67t-0.5 60.5v5q0 5 -0.5 10t-0.5 10v10zM-110.547 472.645q0 16.7324 8.93945 27.0293
q8.94043 10.2969 20.5098 16.7324q39.9668 15.4453 66.2607 21.8809t48.9072 12.2275q22.6123 5.79199 48.3809 17.376q25.7676 11.584 63.6309 37.3262l7.3623 9.00977l7.3623 9.00977h2.10352l0.525391 0.643555q0.526367 0.643555 1.57812 0.643555
q9.46582 0 13.1465 -10.9404q3.68164 -10.9404 3.68164 -19.9502q0 -16.7324 -12.0957 -28.96q-12.0947 -12.2275 -23.6641 -18.6631q-17.8799 -10.2969 -25.7676 -14.8018q-7.88867 -4.50488 -14.1992 -8.36621q-7.3623 -2.57422 -21.5605 -9.00977
q-14.1992 -6.43555 -33.6562 -14.1582q-19.458 -7.72266 -41.5449 -15.4453t-44.1738 -12.2275t-41.5449 -5.14844q-19.457 -0.643555 -34.1816 5.79199z" />
    <glyph glyph-name="Icircumflex" unicode="&#xce;" horiz-adv-x="127" 
d="M8 337v28t3 30.5t10.5 24t24.5 9.5q8 0 13.5 -14t8.5 -36.5t5 -49.5t2.5 -52t1 -45t0.5 -27q2 -26 7.5 -52.5t11 -53.5t10 -53t4.5 -50q-35 0 -56 15t-31.5 40t-13.5 57.5t-2 66t2.5 67t-0.5 60.5v5q0 5 -0.5 10t-0.5 10v10zM-86 455q0 17 6 42t15.5 52t23.5 54
t30.5 48.5t35.5 34.5t39 13q6 0 13 0.5t14 -1.5t12 -5.5t8 -13.5q5 -29 14.5 -58.5t23 -58t28.5 -55.5t31 -52q-10 -15 -17 -23t-21 -8q-13 0 -25 15t-22 36.5t-19.5 47t-17.5 48t-15.5 37t-13.5 14.5q-18 0 -28.5 -15t-17 -38t-12 -50t-12.5 -50t-19.5 -38t-32.5 -15
q-5 0 -8.5 5t-6.5 11.5t-4.5 13t-1.5 9.5z" />
    <glyph glyph-name="Idieresis" unicode="&#xcf;" horiz-adv-x="127" 
d="M8 337v28t3 30.5t10.5 24t24.5 9.5q8 0 13.5 -14t8.5 -36.5t5 -49.5t2.5 -52t1 -45t0.5 -27q2 -26 7.5 -52.5t11 -53.5t10 -53t4.5 -50q-35 0 -56 15t-31.5 40t-13.5 57.5t-2 66t2.5 67t-0.5 60.5v5q0 5 -0.5 10t-0.5 10v10zM-44.6982 565.41q0 12.8613 7.50195 21.9717
q7.50293 9.11035 17.8643 14.4697q10.3604 5.3584 20.7207 6.96582q10.3613 1.6084 16.0771 1.6084q8.5752 0 16.0771 -8.57422q7.50293 -8.57422 13.5762 -20.9004q6.07422 -12.3252 9.64648 -25.7227q3.57324 -13.3965 3.57324 -23.043q0 -8.57422 -0.357422 -16.6123
t-1.42969 -15.0049q-1.07129 -6.9668 -4.64355 -13.3975q-3.57324 -6.43066 -10.0039 -8.57422q-1.42969 0 -4.28711 -0.536133q-2.8584 -0.535156 -6.07422 -0.535156q-3.21484 0 -6.07324 -0.536133t-4.28711 -0.536133q-12.1475 0 -24.6514 5.35938
q-12.5049 5.3584 -21.7939 16.0762t-15.3623 27.3301q-6.07324 16.6133 -6.07324 40.1914zM103.926 562.195q0 13.9336 7.85938 23.043q7.86035 9.11035 17.8633 13.9336q10.0039 4.82227 20.3643 6.9668q10.3613 2.14258 16.0771 2.14258q7.86035 0 15.0059 -9.10938
q7.14551 -9.11035 13.2188 -20.9004q6.07324 -11.7891 10.0039 -25.1865q3.92969 -13.3975 3.92969 -24.1143q0 -8.57422 -0.357422 -16.6133q-0.357422 -8.03809 -1.78613 -15.0049q-1.42871 -6.96582 -5.00195 -12.8613q-3.57227 -5.89453 -9.28906 -9.11035h-4.28711
h-6.07324q-3.21582 0 -6.43066 -0.535156q-3.21582 -0.536133 -3.93066 -0.536133q-12.1465 0 -24.2939 4.82324q-12.1475 4.82227 -21.7939 15.541q-9.64551 10.7168 -15.3623 27.3301q-5.71582 16.6123 -5.71582 40.1914z" />
    <glyph glyph-name="Eth" unicode="&#xd0;" horiz-adv-x="439" 
d="M20 148v25l-34 -6l-3 66l15 2q10 1 22 3q1 20 3 42q3 34 8.5 66t17.5 63q-12 -4 -18 -2t-9 7t-3.5 11.5t-0.5 11.5q0 13 4 19t11 8.5t16.5 3t19.5 0.5q36 0 75.5 -6t78.5 -18.5t74 -32t62.5 -47t43.5 -61.5t16 -78q0 -53 -21 -95t-56.5 -70.5t-82.5 -44.5t-97 -16
q-32 0 -58.5 11t-45.5 30.5t-28.5 47.5t-9.5 60zM88 88q7 -12 20 -18t27 -9t28.5 -3.5t26.5 -0.5q34 0 65.5 12.5t55.5 34.5t37.5 52.5t13.5 65.5q0 28 -12 52.5t-31.5 45.5t-45 37.5t-53.5 28t-56 17.5t-54 6h-3q-15 -15 -21.5 -40.5t-8 -54t-0.5 -56.5v-12h7q26 4 49 7
t38 5t16 2q12 0 21.5 0.5t15.5 -2t9.5 -8t3.5 -17.5q0 -10 -2 -16.5t-18 -6.5l-139 -26q1 -5 2 -11q1 -15 2 -32.5t3 -32.5t3 -20z" />
    <glyph glyph-name="Ntilde" unicode="&#xd1;" horiz-adv-x="623" 
d="M9 195q5 9 10 26t8.5 38t8.5 42.5t10.5 39.5t13 29t17.5 11q2 0 6 -0.5t5 -0.5q96 -82 204.5 -147.5t223.5 -116.5h5h5q6 0 11 1t9 10q-13 29 -23.5 66t-18.5 75t-13 73.5t-5 62.5q0 4 1.5 11t3.5 14.5t6 13t10 5.5q4 0 12 -1.5t16.5 -5.5t14.5 -9.5t6 -12.5
q0 -11 -5 -21.5t-5 -21.5v-5q0 -3 1.5 -12t3 -18.5t2.5 -18t2 -10.5v-10q7 -24 16 -53t16.5 -59.5t12.5 -62t5 -60.5q0 -10 -1 -18.5t-4.5 -15.5t-10.5 -10.5t-18 -3.5q-12 0 -24 4t-23 11.5t-20 16t-17 16.5l-380 206h-4v1q-6 0 -10.5 -9.5t-8 -20.5t-5.5 -20t-2 -10
q0 -4 1 -14t2 -24.5t2 -30t2 -29.5t2.5 -24.5t1.5 -14.5v-68q-2 -5 -6.5 -7t-10 -3t-11 -0.5t-6.5 0.5q-4 0 -13 0.5t-12 0.5zM188 527q-17 0 -28 -6.5t-19.5 -16.5t-15 -21.5t-13 -21.5t-15 -16.5t-21.5 -6.5t-16.5 6.5t-3.5 18.5q0 25 14 47t34.5 39t45.5 27.5t47 10.5
q18 0 32 -7t25.5 -17t22.5 -21.5t23.5 -21.5t28 -16.5t34.5 -6.5q18 0 31.5 8t25 17.5t23 17.5t27.5 8q17 0 23 -7.5t11 -23.5q-6 -8 -19.5 -22.5t-30 -29t-34 -25t-31.5 -10.5q-26 0 -48 7.5t-41 18t-35 23t-30 23t-25.5 18t-21.5 7.5z" />
    <glyph glyph-name="Ograve" unicode="&#xd2;" horiz-adv-x="496" 
d="M9 205q0 28 11.5 54.5t31 49.5t45 41.5t53.5 31.5t56 20.5t53 7.5q54 0 94.5 -18.5t68.5 -50.5t42.5 -76t14.5 -96q0 -86 -49.5 -128t-140.5 -42q-26 0 -57 6.5t-62 18.5t-60 29.5t-51 40t-36 50.5t-14 61zM77 203q0 -34 22.5 -61t55 -46t68 -29t62.5 -10q32 0 59 5.5
t47 19t32 36.5t16 57q3 40 -10.5 72.5t-38.5 55.5t-58 35t-69 12q-28 0 -61 -11t-60.5 -30.5t-46 -46.5t-18.5 -59zM400.909 425.947q-15.7705 -5.67188 -37.4541 -5.2666q-21.6846 0.405273 -45.7344 4.8623q-24.0488 4.45605 -48.8877 11.3438
q-24.8379 6.8877 -46.1279 14.1807q-21.29 7.29199 -37.4541 13.7744q-16.165 6.48242 -24.0498 8.91406q-3.94238 1.62012 -7.09668 2.83594q-3.1543 1.21484 -7.88477 3.64648q-4.73145 2.43066 -12.6162 5.67188l-18.1357 9.72363q-5.51953 3.24121 -12.2227 7.29297
q-6.70215 4.05176 -13.0098 9.31836q-6.30859 5.2666 -9.85645 12.1543q-3.54883 6.8877 -3.54883 14.9912q0 4.05078 1.18262 8.91309q1.18359 4.86133 3.54883 9.31836q2.36523 4.45605 5.91406 7.29297q3.54785 2.83594 9.06738 2.83594q0.789062 0 0.789062 -0.405273
t1.57715 -0.405273q0.788086 -0.810547 2.36523 -0.810547q0.788086 0 3.1543 -2.02539q2.36523 -2.02637 4.33691 -4.8623q1.9707 -2.83594 4.33594 -5.2666q2.36621 -2.43066 2.36621 -4.05176q29.1748 -16.2061 50.8584 -25.9297q21.6846 -9.72363 39.8203 -15.8008
t35.0889 -9.72363t35.0889 -7.29297q18.1357 -3.64551 40.2139 -9.31836q22.0791 -5.67188 52.042 -16.2061q14.1934 -4.05078 23.2617 -14.585q9.06738 -10.5342 9.06738 -25.1201z" />
    <glyph glyph-name="Oacute" unicode="&#xd3;" horiz-adv-x="496" 
d="M9 205q0 28 11.5 54.5t31 49.5t45 41.5t53.5 31.5t56 20.5t53 7.5q54 0 94.5 -18.5t68.5 -50.5t42.5 -76t14.5 -96q0 -86 -49.5 -128t-140.5 -42q-26 0 -57 6.5t-62 18.5t-60 29.5t-51 40t-36 50.5t-14 61zM77 203q0 -34 22.5 -61t55 -46t68 -29t62.5 -10q32 0 59 5.5
t47 19t32 36.5t16 57q3 40 -10.5 72.5t-38.5 55.5t-58 35t-69 12q-28 0 -61 -11t-60.5 -30.5t-46 -46.5t-18.5 -59zM47.3506 380.55q0 17.6025 9.81934 28.4346t22.5264 17.6016q43.8984 16.248 72.7783 23.0176q28.8809 6.77051 53.7178 12.8633
q24.8369 6.09375 53.1396 18.2793t69.8906 39.2656q2.31055 2.70898 8.08594 9.47852q5.77637 6.76953 8.08691 9.47852h2.31055l0.577148 0.676758q0.578125 0.676758 1.7334 0.676758q10.3965 0 14.4395 -11.5088q4.04395 -11.5088 4.04395 -20.9873
q0 -17.6016 -13.2852 -30.4648t-25.9922 -19.6328q-19.6387 -10.832 -28.3027 -15.5713t-15.5957 -8.80176q-8.08594 -2.70703 -23.6816 -9.47754t-36.9668 -14.8936q-21.3711 -8.125 -45.6309 -16.248q-24.2598 -8.125 -48.5195 -12.8633
q-24.2588 -4.73926 -45.6309 -5.41602q-21.3711 -0.677734 -37.5439 6.09277z" />
    <glyph glyph-name="Ocircumflex" unicode="&#xd4;" horiz-adv-x="496" 
d="M9 205q0 28 11.5 54.5t31 49.5t45 41.5t53.5 31.5t56 20.5t53 7.5q54 0 94.5 -18.5t68.5 -50.5t42.5 -76t14.5 -96q0 -86 -49.5 -128t-140.5 -42q-26 0 -57 6.5t-62 18.5t-60 29.5t-51 40t-36 50.5t-14 61zM77 203q0 -34 22.5 -61t55 -46t68 -29t62.5 -10q32 0 59 5.5
t47 19t32 36.5t16 57q3 40 -10.5 72.5t-38.5 55.5t-58 35t-69 12q-28 0 -61 -11t-60.5 -30.5t-46 -46.5t-18.5 -59zM101 492q0 17 6 42t15.5 52t23.5 54t30.5 48.5t35.5 34.5t39 13q6 0 13 0.5t14 -1.5t12 -5.5t8 -13.5q5 -29 14.5 -58.5t23 -58t28.5 -55.5t31 -52
q-10 -15 -17 -23t-21 -8q-13 0 -25 15t-22 36.5t-19.5 47t-17.5 48t-15.5 37t-13.5 14.5q-18 0 -28.5 -15t-17 -38t-12 -50t-12.5 -50t-19.5 -38t-32.5 -15q-5 0 -8.5 5t-6.5 11.5t-4.5 13t-1.5 9.5z" />
    <glyph glyph-name="Otilde" unicode="&#xd5;" horiz-adv-x="496" 
d="M9 205q0 28 11.5 54.5t31 49.5t45 41.5t53.5 31.5t56 20.5t53 7.5q54 0 94.5 -18.5t68.5 -50.5t42.5 -76t14.5 -96q0 -86 -49.5 -128t-140.5 -42q-26 0 -57 6.5t-62 18.5t-60 29.5t-51 40t-36 50.5t-14 61zM77 203q0 -34 22.5 -61t55 -46t68 -29t62.5 -10q32 0 59 5.5
t47 19t32 36.5t16 57q3 40 -10.5 72.5t-38.5 55.5t-58 35t-69 12q-28 0 -61 -11t-60.5 -30.5t-46 -46.5t-18.5 -59zM155 544q-17 0 -28 -6.5t-19.5 -16.5t-15 -21.5t-13 -21.5t-15 -16.5t-21.5 -6.5t-16.5 6.5t-3.5 18.5q0 25 14 47t34.5 39t45.5 27.5t47 10.5q18 0 32 -7
t25.5 -17t22.5 -21.5t23.5 -21.5t28 -16.5t34.5 -6.5q18 0 31.5 8t25 17.5t23 17.5t27.5 8q17 0 23 -7.5t11 -23.5q-6 -8 -19.5 -22.5t-30 -29t-34 -25t-31.5 -10.5q-26 0 -48 7.5t-41 18t-35 23t-30 23t-25.5 18t-21.5 7.5z" />
    <glyph glyph-name="Odieresis" unicode="&#xd6;" horiz-adv-x="496" 
d="M9 205q0 28 11.5 54.5t31 49.5t45 41.5t53.5 31.5t56 20.5t53 7.5q54 0 94.5 -18.5t68.5 -50.5t42.5 -76t14.5 -96q0 -86 -49.5 -128t-140.5 -42q-26 0 -57 6.5t-62 18.5t-60 29.5t-51 40t-36 50.5t-14 61zM77 203q0 -34 22.5 -61t55 -46t68 -29t62.5 -10q32 0 59 5.5
t47 19t32 36.5t16 57q3 40 -10.5 72.5t-38.5 55.5t-58 35t-69 12q-28 0 -61 -11t-60.5 -30.5t-46 -46.5t-18.5 -59zM55 532q0 12 10.5 20.5t25 13.5t29 6.5t22.5 1.5q12 0 22.5 -8t19 -19.5t13.5 -24t5 -21.5q0 -8 -0.5 -15.5t-2 -14t-6.5 -12.5t-14 -8q-2 0 -6 -0.5
t-8.5 -0.5t-8.5 -0.5t-6 -0.5q-17 0 -34.5 5t-30.5 15t-21.5 25.5t-8.5 37.5zM263 529q0 13 11 21.5t25 13t28.5 6.5t22.5 2q11 0 21 -8.5t18.5 -19.5t14 -23.5t5.5 -22.5q0 -8 -0.5 -15.5t-2.5 -14t-7 -12t-13 -8.5h-6h-8.5t-9 -0.5t-5.5 -0.5q-17 0 -34 4.5t-30.5 14.5
t-21.5 25.5t-8 37.5z" />
    <glyph glyph-name="multiply" unicode="&#xd7;" horiz-adv-x="377" 
d="M149 242q-8 11 -22 27.5t-22.5 33t-6.5 29.5t25 18h3h4q1 -3 5 -11t7.5 -16.5t7.5 -16t6 -9.5q2 -5 6 -10.5t7.5 -11t6 -9l2.5 -3.5h4q10 11 23.5 25t28 26.5t28.5 23.5t25 18h12q12 -17 4 -33t-26 -32t-40 -31.5t-37 -31.5q7 -7 15.5 -16.5t18 -18t19.5 -14t21 -5.5
q7 0 12 4t11 4q5 0 8 -4t-1 -17q0 -2 -1.5 -5t-3.5 -6.5t-4.5 -6l-2.5 -2.5q-14 -19 -24 -21.5t-21 7t-26.5 28t-41.5 40.5q-5 0 -10 -3t-9 -8.5t-8.5 -11.5t-8.5 -11t-10 -11.5t-11.5 -13t-10.5 -11.5l-3 -4l-20 19q0 20 6.5 33.5t16.5 24.5t20 21t18 23z" />
    <glyph glyph-name="Oslash" unicode="&#xd8;" horiz-adv-x="496" 
d="M116 -33q0 24 7 44q4 15 10 29q-12 7 -23 14q-29 17 -51 39.5t-36 50.5t-14 61q0 28 11.5 54.5t31 49.5t45 41.5t53.5 31.5t56 20.5t53 7.5q14 0 27 -1q7 14 13 28q15 29 25.5 52t16.5 34q2 4 5 6t7.5 3.5t9 1t8.5 -0.5q18 0 23.5 -6t5.5 -24q0 -2 -0.5 -10t-0.5 -10
q-27 -41 -51 -89q3 -1 6 -3q40 -18 68 -50t42.5 -76t14.5 -96q0 -86 -49.5 -128t-140.5 -42q-26 0 -57 7q-16 2 -32 8q-8 -25 -16 -47q-6 -19 -13 -24.5t-26 -5.5q-17 0 -23 6.5t-6 23.5zM223 67q35 -10 62 -10q32 0 59 5.5t47 19t32 36.5t16 57q3 40 -10.5 72.5t-38.5 55.5
t-58 34l-10 5q-25 -57 -48 -116q-27 -69 -50 -136l-6 -22zM77 203q0 -34 22.5 -61t54.5 -47q2 -1 5 -2q9 19 17 40q1 3 4.5 17t9 30.5t9.5 31t6 18.5q4 11 14.5 33.5t23.5 51.5q8 17 16 35q-26 0 -57 -11q-33 -11 -60.5 -30.5t-46 -46.5t-18.5 -59z" />
    <glyph glyph-name="Ugrave" unicode="&#xd9;" 
d="M8 314v22q0 14 1.5 30t4.5 32.5t8.5 30t14.5 22t22 8.5q8 0 12 -4.5t6 -12t2 -14.5v-13q0 -11 -0.5 -19t-1.5 -16.5t-3 -17.5t-5 -21q3 -32 6.5 -66t9.5 -65.5t16 -59t27.5 -48t44.5 -33t66 -12.5q19 0 42 2.5t45 9.5t39.5 21t23.5 37q0 4 0.5 15t0.5 23.5t0.5 23.5
t0.5 16q0 24 -5 47.5t-11 46t-10.5 44.5t-4.5 46q0 13 2.5 21.5t17.5 8.5q18 0 30 -14t20 -36t11.5 -49t6 -53t2.5 -47v-30q0 -52 -17.5 -88.5t-48 -59t-73 -32.5t-92.5 -10q-41 0 -72 13.5t-54.5 37t-39.5 54.5t-26 66.5t-14.5 72t-4.5 70.5zM418 476q-20 -7 -47.5 -6.5
t-58 6t-62 14t-58.5 17.5t-47.5 17t-30.5 11q-5 2 -9 3.5t-10 4.5t-16 7l-23 12q-7 4 -15.5 9t-16.5 11.5t-12.5 15t-4.5 18.5q0 5 1.5 11t4.5 11.5t7.5 9t11.5 3.5q1 0 1 -0.5t2 -0.5q1 -1 3 -1q1 0 4 -2.5t5.5 -6t5.5 -6.5t3 -5q37 -20 64.5 -32t50.5 -19.5t44.5 -12
t44.5 -9t51 -11.5t66 -20q18 -5 29.5 -18t11.5 -31z" />
    <glyph glyph-name="Uacute" unicode="&#xda;" 
d="M8 314v22q0 14 1.5 30t4.5 32.5t8.5 30t14.5 22t22 8.5q8 0 12 -4.5t6 -12t2 -14.5v-13q0 -11 -0.5 -19t-1.5 -16.5t-3 -17.5t-5 -21q3 -32 6.5 -66t9.5 -65.5t16 -59t27.5 -48t44.5 -33t66 -12.5q19 0 42 2.5t45 9.5t39.5 21t23.5 37q0 4 0.5 15t0.5 23.5t0.5 23.5
t0.5 16q0 24 -5 47.5t-11 46t-10.5 44.5t-4.5 46q0 13 2.5 21.5t17.5 8.5q18 0 30 -14t20 -36t11.5 -49t6 -53t2.5 -47v-30q0 -52 -17.5 -88.5t-48 -59t-73 -32.5t-92.5 -10q-41 0 -72 13.5t-54.5 37t-39.5 54.5t-26 66.5t-14.5 72t-4.5 70.5zM35.5498 455.018
q0 19.2197 10.5391 31.0469q10.54 11.8271 24.1787 19.2188q47.1172 17.7402 78.1162 25.1328q30.998 7.3916 57.6562 14.0449q26.6582 6.65234 57.0371 19.958q30.3779 13.3057 75.0156 42.873q2.47949 2.95703 8.67969 10.3486q6.19922 7.39258 8.67871 10.3496h2.48047
l0.620117 0.739258q0.619141 0.739258 1.85938 0.739258q11.1592 0 15.499 -12.5664t4.33984 -22.916q0 -19.2188 -14.2588 -33.2637q-14.2598 -14.0449 -27.8984 -21.4365q-21.0791 -11.8271 -30.3789 -17.001q-9.29883 -5.1748 -16.7383 -9.61035
q-8.67969 -2.95605 -25.4189 -10.3486q-16.7393 -7.3916 -39.6777 -16.2617q-22.9385 -8.87109 -48.9775 -17.7412q-26.0381 -8.87012 -52.0771 -14.0449q-26.0381 -5.17383 -48.9766 -5.91309t-40.2979 6.65234z" />
    <glyph glyph-name="Ucircumflex" unicode="&#xdb;" 
d="M8 314v22q0 14 1.5 30t4.5 32.5t8.5 30t14.5 22t22 8.5q8 0 12 -4.5t6 -12t2 -14.5v-13q0 -11 -0.5 -19t-1.5 -16.5t-3 -17.5t-5 -21q3 -32 6.5 -66t9.5 -65.5t16 -59t27.5 -48t44.5 -33t66 -12.5q19 0 42 2.5t45 9.5t39.5 21t23.5 37q0 4 0.5 15t0.5 23.5t0.5 23.5
t0.5 16q0 24 -5 47.5t-11 46t-10.5 44.5t-4.5 46q0 13 2.5 21.5t17.5 8.5q18 0 30 -14t20 -36t11.5 -49t6 -53t2.5 -47v-30q0 -52 -17.5 -88.5t-48 -59t-73 -32.5t-92.5 -10q-41 0 -72 13.5t-54.5 37t-39.5 54.5t-26 66.5t-14.5 72t-4.5 70.5zM85 522q0 17 6 42t15.5 52
t23.5 54t30.5 48.5t35.5 34.5t39 13q6 0 13 0.5t14 -1.5t12 -5.5t8 -13.5q5 -29 14.5 -58.5t23 -58t28.5 -55.5t31 -52q-10 -15 -17 -23t-21 -8q-13 0 -25 15t-22 36.5t-19.5 47t-17.5 48t-15.5 37t-13.5 14.5q-18 0 -28.5 -15t-17 -38t-12 -50t-12.5 -50t-19.5 -38
t-32.5 -15q-5 0 -8.5 5t-6.5 11.5t-4.5 13t-1.5 9.5z" />
    <glyph glyph-name="Udieresis" unicode="&#xdc;" 
d="M8 314v22q0 14 1.5 30t4.5 32.5t8.5 30t14.5 22t22 8.5q8 0 12 -4.5t6 -12t2 -14.5v-13q0 -11 -0.5 -19t-1.5 -16.5t-3 -17.5t-5 -21q3 -32 6.5 -66t9.5 -65.5t16 -59t27.5 -48t44.5 -33t66 -12.5q19 0 42 2.5t45 9.5t39.5 21t23.5 37q0 4 0.5 15t0.5 23.5t0.5 23.5
t0.5 16q0 24 -5 47.5t-11 46t-10.5 44.5t-4.5 46q0 13 2.5 21.5t17.5 8.5q18 0 30 -14t20 -36t11.5 -49t6 -53t2.5 -47v-30q0 -52 -17.5 -88.5t-48 -59t-73 -32.5t-92.5 -10q-41 0 -72 13.5t-54.5 37t-39.5 54.5t-26 66.5t-14.5 72t-4.5 70.5zM48 590q0 12 10.5 20.5
t25 13.5t29 6.5t22.5 1.5q12 0 22.5 -8t19 -19.5t13.5 -24t5 -21.5q0 -8 -0.5 -15.5t-2 -14t-6.5 -12.5t-14 -8q-2 0 -6 -0.5t-8.5 -0.5t-8.5 -0.5t-6 -0.5q-17 0 -34.5 5t-30.5 15t-21.5 25.5t-8.5 37.5zM256 587q0 13 11 21.5t25 13t28.5 6.5t22.5 2q11 0 21 -8.5
t18.5 -19.5t14 -23.5t5.5 -22.5q0 -8 -0.5 -15.5t-2.5 -14t-7 -12t-13 -8.5h-6h-8.5t-9 -0.5t-5.5 -0.5q-17 0 -34 4.5t-30.5 14.5t-21.5 25.5t-8 37.5z" />
    <glyph glyph-name="Yacute" unicode="&#xdd;" horiz-adv-x="419" 
d="M97 34q0 3 0.5 12t0.5 13q3 6 10.5 20.5t17.5 33t20.5 38.5t20.5 38t17.5 32.5t10.5 21.5q1 3 4 10t6 14.5t5.5 14.5t3.5 10q-13 17 -33.5 32.5t-44.5 32t-48 34.5t-43.5 37.5t-32 41t-12.5 46.5q0 19 4.5 25.5t19.5 6.5q1 0 7 -0.5t8 -1.5q9 -15 22.5 -35t29.5 -42
t34.5 -43t37.5 -38t39.5 -27.5t40.5 -10.5h5.5h4.5q4 7 12.5 24t17.5 35.5t17.5 35t11.5 22.5q2 6 6 19.5t8.5 28.5t10.5 31t13 29t15.5 21.5t19.5 8.5l1 -1h2q0 -1 1 -1q2 0 5 -2.5t6.5 -5.5t6 -6t2.5 -4q-19 -73 -46 -144t-61 -139v-20q-7 -8 -23 -32.5t-35 -56
t-39.5 -65.5t-38.5 -62.5t-31 -47.5t-17 -19q-17 0 -19 10t-2 25zM72 626q0 13 8.5 21t19.5 13q38 12 63 17t46.5 9.5t46 13.5t60.5 29l7 7l7 7h2l0.5 0.5t1.5 0.5q9 0 12.5 -8.5t3.5 -15.5q0 -13 -11.5 -22.5t-22.5 -14.5q-17 -8 -24.5 -11.5t-13.5 -6.5q-7 -2 -20.5 -7
t-32 -11t-39.5 -12t-42 -9.5t-39.5 -4t-32.5 4.5z" />
    <glyph glyph-name="Thorn" unicode="&#xde;" horiz-adv-x="434" 
d="M97 170q10 -54 8 -101.5t-11 -76.5t-20.5 -36t-21 17t-12.5 84.5t5 165.5q-2 10 -5 33.5t-7 54t-8 64.5t-7.5 65.5t-7 56.5t-4.5 38q0 1 -0.5 7t-0.5 9q0 14 6 19t20 5q18 0 26.5 -14t12 -34.5t4.5 -45t3 -45t8.5 -34.5t20.5 -14q74 24 131 22t95.5 -21t59 -50t22 -64.5
t-17 -64t-58 -48.5t-99.5 -18t-142 26zM103 286q0 -43 16.5 -63.5t60.5 -20.5h26q17 0 35.5 2t37.5 5t35 9.5t25.5 16t9.5 23.5q0 44 -20.5 68.5t-60.5 24.5q-22 0 -44 -1.5t-43 -5.5t-41 -12t-37 -21v-12v-13z" />
    <glyph glyph-name="germandbls" unicode="&#xdf;" horiz-adv-x="478" 
d="M80 -106l-47 -3q-1 0 -1.5 19t-1 47.5t-1 62t-1.5 62t-1.5 48.5t-0.5 21q-5 36 -7.5 77t-3.5 82t0 80.5t2 72.5q-9 4 -10 8.5t-1 11.5q0 33 19.5 48t47 19t57.5 3t50 -1q26 -12 42.5 -29t26 -36.5t12 -39t1 -38t-7 -33.5t-12.5 -23q19 -5 41 -12t44.5 -17t44.5 -22.5
t38.5 -28.5t26 -35.5t9.5 -41.5q0 -62 -20.5 -102t-51.5 -62.5t-68.5 -26.5t-71.5 6.5t-59 35t-31 59.5l-9 45q12 6 22 1t19.5 -15.5t19.5 -25t21.5 -27t25.5 -21.5t32 -9q17 0 37 12t36.5 31t28 41t11.5 41q0 31 -13 52t-35 34.5t-50.5 21t-58.5 11.5t-61 4h-56
q-9 20 -4 30.5t17 16.5t28.5 11t31.5 13.5t24.5 23.5t8.5 42q-1 12 -7.5 23t-15.5 19.5t-19 14t-17 5.5q-33 0 -52.5 -2t-29 -8t-12 -16t-1.5 -26.5t3.5 -40.5t2.5 -55l1 -51z" />
    <glyph glyph-name="agrave" unicode="&#xe0;" horiz-adv-x="509" 
d="M297 49q-16 0 -33.5 -4.5t-34.5 -10.5t-35.5 -10.5t-37.5 -4.5q-29 0 -56 9t-47.5 27t-32.5 43.5t-12 57.5q0 28 17.5 52t43.5 40t56 25t54 9q11 0 27.5 -1.5t36 -5t39.5 -9t36.5 -14.5t28 -20.5t13.5 -26.5q0 -5 -2 -17.5t-3 -26.5t-2.5 -26.5t-2.5 -18.5v-6
q0 -22 10 -33t24.5 -15.5t30.5 -4.5h32q15 0 19 0.5t5.5 0.5t5 0.5t19.5 0.5q13 0 20 -5t7 -21q0 -17 -11 -24t-26 -9.5t-30 -1.5t-23 1q-23 0 -43.5 8t-37.5 17.5t-31 17t-24 7.5zM67 146q0 -24 10.5 -38.5t26 -21t34.5 -8t37 -1.5q7 0 23.5 1t34.5 4.5t32.5 9.5t16.5 15
l20 78q2 8 -4 14t-16.5 10t-23 7t-24.5 5t-21.5 3t-11.5 1q-18 0 -41.5 -3.5t-44 -12t-34.5 -23.5t-14 -40zM339.592 310.131q-13.1631 -5.87402 -31.2617 -5.45508q-18.0986 0.419922 -38.1719 5.03516t-40.8047 11.749q-20.7314 7.13281 -38.502 14.6855
q-17.7695 7.55176 -31.2617 14.2656q-13.4922 6.71289 -20.0732 9.23047q-3.29102 1.67871 -5.92285 2.9375q-2.63281 1.25879 -6.58203 3.77637q-3.94824 2.51758 -10.5303 5.87402l-15.1367 10.0703q-4.60742 3.35645 -10.2012 7.55273q-5.59473 4.19531 -10.8594 9.65039
q-5.26562 5.4541 -8.22656 12.5869q-2.96191 7.13281 -2.96191 15.5254q0 4.19531 0.987305 9.23047t2.96094 9.65039q1.97461 4.61523 4.93652 7.55273t7.56836 2.9375q0.658203 0 0.658203 -0.419922t1.31641 -0.419922q0.658203 -0.838867 1.97461 -0.838867
q0.658203 0 2.63281 -2.09766q1.97363 -2.09863 3.61914 -5.03516q1.64551 -2.9375 3.62012 -5.45508t1.97461 -4.19531q24.3506 -16.7842 42.4502 -26.8535q18.0986 -10.0703 33.2363 -16.3643q15.1367 -6.29395 29.2871 -10.0703q14.1494 -3.77637 29.2871 -7.55176
q15.1377 -3.77637 33.5654 -9.65137q18.4277 -5.87402 43.4375 -16.7832q11.8467 -4.19531 19.415 -15.1045t7.56836 -26.0146z" />
    <glyph glyph-name="aacute" unicode="&#xe1;" horiz-adv-x="509" 
d="M297 49q-16 0 -33.5 -4.5t-34.5 -10.5t-35.5 -10.5t-37.5 -4.5q-29 0 -56 9t-47.5 27t-32.5 43.5t-12 57.5q0 28 17.5 52t43.5 40t56 25t54 9q11 0 27.5 -1.5t36 -5t39.5 -9t36.5 -14.5t28 -20.5t13.5 -26.5q0 -5 -2 -17.5t-3 -26.5t-2.5 -26.5t-2.5 -18.5v-6
q0 -22 10 -33t24.5 -15.5t30.5 -4.5h32q15 0 19 0.5t5.5 0.5t5 0.5t19.5 0.5q13 0 20 -5t7 -21q0 -17 -11 -24t-26 -9.5t-30 -1.5t-23 1q-23 0 -43.5 8t-37.5 17.5t-31 17t-24 7.5zM67 146q0 -24 10.5 -38.5t26 -21t34.5 -8t37 -1.5q7 0 23.5 1t34.5 4.5t32.5 9.5t16.5 15
l20 78q2 8 -4 14t-16.5 10t-23 7t-24.5 5t-21.5 3t-11.5 1q-18 0 -41.5 -3.5t-44 -12t-34.5 -23.5t-14 -40zM60 314q0 13 8.5 21t19.5 13q38 12 63 17t46.5 9.5t46 13.5t60.5 29l7 7l7 7h2l0.5 0.5t1.5 0.5q9 0 12.5 -8.5t3.5 -15.5q0 -13 -11.5 -22.5t-22.5 -14.5
q-17 -8 -24.5 -11.5t-13.5 -6.5q-7 -2 -20.5 -7t-32 -11t-39.5 -12t-42 -9.5t-39.5 -4t-32.5 4.5z" />
    <glyph glyph-name="acircumflex" unicode="&#xe2;" horiz-adv-x="509" 
d="M297 49q-16 0 -33.5 -4.5t-34.5 -10.5t-35.5 -10.5t-37.5 -4.5q-29 0 -56 9t-47.5 27t-32.5 43.5t-12 57.5q0 28 17.5 52t43.5 40t56 25t54 9q11 0 27.5 -1.5t36 -5t39.5 -9t36.5 -14.5t28 -20.5t13.5 -26.5q0 -5 -2 -17.5t-3 -26.5t-2.5 -26.5t-2.5 -18.5v-6
q0 -22 10 -33t24.5 -15.5t30.5 -4.5h32q15 0 19 0.5t5.5 0.5t5 0.5t19.5 0.5q13 0 20 -5t7 -21q0 -17 -11 -24t-26 -9.5t-30 -1.5t-23 1q-23 0 -43.5 8t-37.5 17.5t-31 17t-24 7.5zM67 146q0 -24 10.5 -38.5t26 -21t34.5 -8t37 -1.5q7 0 23.5 1t34.5 4.5t32.5 9.5t16.5 15
l20 78q2 8 -4 14t-16.5 10t-23 7t-24.5 5t-21.5 3t-11.5 1q-18 0 -41.5 -3.5t-44 -12t-34.5 -23.5t-14 -40zM53 379q0 17 6 42t15.5 52t23.5 54t30.5 48.5t35.5 34.5t39 13q6 0 13 0.5t14 -1.5t12 -5.5t8 -13.5q5 -29 14.5 -58.5t23 -58t28.5 -55.5t31 -52q-10 -15 -17 -23
t-21 -8q-13 0 -25 15t-22 36.5t-19.5 47t-17.5 48t-15.5 37t-13.5 14.5q-18 0 -28.5 -15t-17 -38t-12 -50t-12.5 -50t-19.5 -38t-32.5 -15q-5 0 -8.5 5t-6.5 11.5t-4.5 13t-1.5 9.5z" />
    <glyph glyph-name="atilde" unicode="&#xe3;" horiz-adv-x="509" 
d="M297 49q-16 0 -33.5 -4.5t-34.5 -10.5t-35.5 -10.5t-37.5 -4.5q-29 0 -56 9t-47.5 27t-32.5 43.5t-12 57.5q0 28 17.5 52t43.5 40t56 25t54 9q11 0 27.5 -1.5t36 -5t39.5 -9t36.5 -14.5t28 -20.5t13.5 -26.5q0 -5 -2 -17.5t-3 -26.5t-2.5 -26.5t-2.5 -18.5v-6
q0 -22 10 -33t24.5 -15.5t30.5 -4.5h32q15 0 19 0.5t5.5 0.5t5 0.5t19.5 0.5q13 0 20 -5t7 -21q0 -17 -11 -24t-26 -9.5t-30 -1.5t-23 1q-23 0 -43.5 8t-37.5 17.5t-31 17t-24 7.5zM67 146q0 -24 10.5 -38.5t26 -21t34.5 -8t37 -1.5q7 0 23.5 1t34.5 4.5t32.5 9.5t16.5 15
l20 78q2 8 -4 14t-16.5 10t-23 7t-24.5 5t-21.5 3t-11.5 1q-18 0 -41.5 -3.5t-44 -12t-34.5 -23.5t-14 -40zM155 418q-17 0 -28 -6.5t-19.5 -16.5t-15 -21.5t-13 -21.5t-15 -16.5t-21.5 -6.5t-16.5 6.5t-3.5 18.5q0 25 14 47t34.5 39t45.5 27.5t47 10.5q18 0 32 -7t25.5 -17
t22.5 -21.5t23.5 -21.5t28 -16.5t34.5 -6.5q18 0 31.5 8t25 17.5t23 17.5t27.5 8q17 0 23 -7.5t11 -23.5q-6 -8 -19.5 -22.5t-30 -29t-34 -25t-31.5 -10.5q-26 0 -48 7.5t-41 18t-35 23t-30 23t-25.5 18t-21.5 7.5z" />
    <glyph glyph-name="adieresis" unicode="&#xe4;" horiz-adv-x="509" 
d="M297 49q-16 0 -33.5 -4.5t-34.5 -10.5t-35.5 -10.5t-37.5 -4.5q-29 0 -56 9t-47.5 27t-32.5 43.5t-12 57.5q0 28 17.5 52t43.5 40t56 25t54 9q11 0 27.5 -1.5t36 -5t39.5 -9t36.5 -14.5t28 -20.5t13.5 -26.5q0 -5 -2 -17.5t-3 -26.5t-2.5 -26.5t-2.5 -18.5v-6
q0 -22 10 -33t24.5 -15.5t30.5 -4.5h32q15 0 19 0.5t5.5 0.5t5 0.5t19.5 0.5q13 0 20 -5t7 -21q0 -17 -11 -24t-26 -9.5t-30 -1.5t-23 1q-23 0 -43.5 8t-37.5 17.5t-31 17t-24 7.5zM67 146q0 -24 10.5 -38.5t26 -21t34.5 -8t37 -1.5q7 0 23.5 1t34.5 4.5t32.5 9.5t16.5 15
l20 78q2 8 -4 14t-16.5 10t-23 7t-24.5 5t-21.5 3t-11.5 1q-18 0 -41.5 -3.5t-44 -12t-34.5 -23.5t-14 -40zM18 389q0 12 10.5 20.5t25 13.5t29 6.5t22.5 1.5q12 0 22.5 -8t19 -19.5t13.5 -24t5 -21.5q0 -8 -0.5 -15.5t-2 -14t-6.5 -12.5t-14 -8q-2 0 -6 -0.5t-8.5 -0.5
t-8.5 -0.5t-6 -0.5q-17 0 -34.5 5t-30.5 15t-21.5 25.5t-8.5 37.5zM226 386q0 13 11 21.5t25 13t28.5 6.5t22.5 2q11 0 21 -8.5t18.5 -19.5t14 -23.5t5.5 -22.5q0 -8 -0.5 -15.5t-2.5 -14t-7 -12t-13 -8.5h-6h-8.5t-9 -0.5t-5.5 -0.5q-17 0 -34 4.5t-30.5 14.5t-21.5 25.5
t-8 37.5z" />
    <glyph glyph-name="aring" unicode="&#xe5;" horiz-adv-x="509" 
d="M96 360q0 23 7 48t21.5 45t34 34t43.5 14q34 0 58.5 -8t39 -24t21 -40t6.5 -58v-7v-12.5v-11.5v-9q-5 -17 -17.5 -28t-28.5 -16.5t-33 -7.5l-18 -2l12 -2q20 -3 40 -8.5t36.5 -14.5t28 -20.5t13.5 -26.5q0 -5 -2 -17.5t-3 -26.5t-2.5 -26.5t-2.5 -18.5v-6q0 -22 10 -33
t24.5 -15.5t30.5 -4.5h32q15 0 19 0.5t5.5 0.5t5 0.5t19.5 0.5q13 0 20 -5t7 -21q0 -17 -11 -24t-26 -9.5t-30 -1.5t-23 1q-23 0 -43.5 8t-37.5 17.5t-31 17t-24 7.5q-16 0 -33.5 -4.5t-34.5 -10.5t-35.5 -10.5t-37.5 -4.5q-29 0 -56 9t-47.5 27t-32.5 43.5t-12 57.5
q0 28 17.5 52t43.5 40t56 26q21 6 39 7q-14 4 -26 10q-18 8 -30 24.5t-12 44.5zM67 146q0 -24 10.5 -38.5t26 -21t34.5 -8t37 -1.5q7 0 23.5 1t34.5 4.5t32.5 9.5t16.5 15l20 78q2 8 -4 14t-16.5 10t-23 7t-24.5 5t-21.5 3t-11.5 1q-18 0 -41.5 -3.5t-44 -12t-34.5 -23.5
t-14 -40zM127 368q0 -18 9.5 -29.5t23.5 -18t29.5 -8.5t27.5 -2q11 0 19.5 0.5t16.5 2t17 6.5t21 12q6 12 6 22.5v21.5q0 24 -8 41.5t-22 29t-32.5 15t-41.5 -1.5q-9 -2 -21 -12.5t-22 -24t-16.5 -28.5t-6.5 -26z" />
    <glyph glyph-name="ae" unicode="&#xe6;" horiz-adv-x="802" 
d="M297 49q-16 0 -33.5 -4.5t-34.5 -10.5t-35.5 -10.5t-37.5 -4.5q-29 0 -56 9t-47.5 27t-32.5 43.5t-12 57.5q0 28 17.5 52t43.5 40t56 25t54 9q11 0 27.5 -1.5t36 -5t39.5 -9t37 -14.5q12 -6 21 -14q3 7 8 13q18 32 47.5 56t65 38.5t68.5 14.5q25 0 50.5 -6.5t45.5 -20
t33 -35t13 -49.5q0 -13 -2.5 -20.5t-6.5 -12.5t-11.5 -10t-19.5 -11q-5 -2 -18 -5t-28.5 -7t-32 -8.5t-31.5 -8.5t-28 -7t-18 -3q-2 -1 -12.5 -2.5t-22 -2.5t-21.5 -3t-13 -2q-2 -2 -6 -5t-4 -5q0 -20 11.5 -33t28.5 -22t38.5 -14t42.5 -7t39.5 -2.5t28.5 -0.5q50 0 98.5 6
t97.5 6v-9q0 -6 -1 -12t-4 -11.5t-8 -7.5q-39 -8 -68 -11.5t-55.5 -6t-54 -3t-61.5 -0.5h-18q-11 -6 -26 -8q-14 -3 -29 -2t-23 1q-23 0 -43.5 8t-37.5 17.5t-31 17t-24 7.5zM67 146q0 -24 10.5 -38.5t26 -21t34.5 -8t37 -1.5q7 0 23.5 1t34.5 4.5t32.5 9.5t16.5 15l20 78
q2 8 -4 14t-16.5 10t-23 7t-24.5 5t-21.5 3t-11.5 1q-18 0 -41.5 -3.5t-44 -12t-34.5 -23.5t-14 -40zM552 304q-12 0 -28.5 -3t-34 -8.5t-34.5 -14t-30.5 -19.5t-22 -25t-8.5 -32h40q23 0 46 2.5t45 6.5t39 14t27.5 24.5t10.5 36.5v6l-10 10q-2 0 -8 0.5t-12 0.5t-12 0.5
t-8 0.5z" />
    <glyph glyph-name="ccedilla" unicode="&#xe7;" horiz-adv-x="457" 
d="M8 154q0 43 23 70.5t56.5 42.5t73 20.5t73.5 5.5h12q7 0 16.5 -0.5t17.5 -0.5h12q20 -3 26 -11.5t6 -21.5q0 -16 -10.5 -26t-26.5 -10q-10 0 -13.5 3.5t-6 7.5t-6.5 7.5t-15 3.5q-15 0 -34 -2t-39 -6t-39 -11t-34 -18t-24 -26.5t-9 -37.5q0 -18 10.5 -32.5t27.5 -25.5
t38.5 -18.5t42.5 -11.5t40.5 -6t31.5 -2q28 0 52 8.5t47.5 18.5t46.5 18t47 8q0 -36 -20.5 -57t-51.5 -31t-66 -12t-64 -2q-24 0 -52 3l-24 2q4 -8 8 -17q10 -18 24.5 -30.5t32 -20t31.5 -9.5q8 -2 31 -6t49 -9t49 -8.5t32 -4.5q4 -5 9 -14.5t5 -15.5q0 -16 -13.5 -30.5
t-34 -26.5t-45.5 -21t-50 -15.5t-46 -10t-33 -3.5q-9 0 -16.5 8.5t-7.5 22.5q0 11 4.5 16.5t11 7.5t14 2.5t13.5 1.5q11 3 29 7.5t34.5 9.5t28.5 8l12 4v11q-13 0 -34.5 3t-45.5 11t-48.5 19.5t-44.5 29.5t-33 42q-11 22 -12 48q-18 6 -34 14q-25 11 -43.5 28.5t-30 41.5
t-11.5 56z" />
    <glyph glyph-name="egrave" unicode="&#xe8;" horiz-adv-x="487" 
d="M19 176q0 34 19 66t48.5 56t65 38t67.5 14q26 0 51.5 -6.5t45.5 -20.5t32.5 -34.5t12.5 -48.5q0 -13 -1.5 -20.5t-6.5 -13t-12.5 -10t-18.5 -11.5q-6 -1 -18 -4.5t-27.5 -7.5t-32.5 -8t-32.5 -8t-27.5 -7t-18 -4q-3 -1 -13 -2t-21.5 -2.5t-21.5 -3t-12 -2.5
q-3 -1 -6.5 -4.5t-3.5 -4.5q0 -20 11 -33.5t28 -22.5t38.5 -13.5t42.5 -7t39 -2.5h29q50 0 98 5.5t98 5.5v-8q0 -6 -1.5 -12.5t-4.5 -12t-8 -6.5q-38 -8 -67.5 -12.5t-55.5 -6t-54 -2t-62 -0.5h-17q-11 0 -24 0.5t-25 0.5h-17q-31 8 -53.5 25.5t-36.5 41.5t-20.5 52t-6.5 57
zM243 294q-13 0 -29.5 -2.5t-34 -8t-34.5 -14t-30 -20t-21.5 -25.5t-8.5 -31h41q22 0 45 2t45 6.5t38.5 14t27 24.5t10.5 37v5l-10 10q-2 0 -7.5 0.5t-11.5 1t-11.5 0.5h-8.5zM371.834 389.947q-16.3115 -5.67188 -38.7393 -5.2666t-47.3018 4.8623
q-24.874 4.45605 -50.5645 11.3438q-25.6895 6.8877 -47.709 14.1807q-22.0205 7.29199 -38.7393 13.7744t-24.874 8.91406q-4.07812 1.62012 -7.33984 2.83594q-3.2627 1.21484 -8.15625 3.64648q-4.89258 2.43066 -13.0488 5.67188l-18.7578 9.72363
q-5.70801 3.24121 -12.6406 7.29297q-6.93164 4.05176 -13.457 9.31836q-6.52344 5.2666 -10.1943 12.1543q-3.66992 6.8877 -3.66992 14.9912q0 4.05078 1.22363 8.91309q1.22363 4.86133 3.66992 9.31836q2.44727 4.45605 6.11719 7.29297
q3.66992 2.83594 9.37891 2.83594q0.81543 0 0.81543 -0.405273t1.63086 -0.405273q0.81543 -0.810547 2.44629 -0.810547q0.81543 0 3.2627 -2.02539q2.44629 -2.02637 4.48535 -4.8623t4.48535 -5.2666t2.44629 -4.05176q30.1758 -16.2061 52.6035 -25.9297
t41.1855 -15.8008t36.292 -9.72363t36.292 -7.29297q18.7578 -3.64551 41.5928 -9.31836q22.8359 -5.67188 53.8271 -16.2061q14.6797 -4.05078 24.0586 -14.585t9.37891 -25.1201z" />
    <glyph glyph-name="eacute" unicode="&#xe9;" horiz-adv-x="487" 
d="M19 176q0 34 19 66t48.5 56t65 38t67.5 14q26 0 51.5 -6.5t45.5 -20.5t32.5 -34.5t12.5 -48.5q0 -13 -1.5 -20.5t-6.5 -13t-12.5 -10t-18.5 -11.5q-6 -1 -18 -4.5t-27.5 -7.5t-32.5 -8t-32.5 -8t-27.5 -7t-18 -4q-3 -1 -13 -2t-21.5 -2.5t-21.5 -3t-12 -2.5
q-3 -1 -6.5 -4.5t-3.5 -4.5q0 -20 11 -33.5t28 -22.5t38.5 -13.5t42.5 -7t39 -2.5h29q50 0 98 5.5t98 5.5v-8q0 -6 -1.5 -12.5t-4.5 -12t-8 -6.5q-38 -8 -67.5 -12.5t-55.5 -6t-54 -2t-62 -0.5h-17q-11 0 -24 0.5t-25 0.5h-17q-31 8 -53.5 25.5t-36.5 41.5t-20.5 52t-6.5 57
zM243 294q-13 0 -29.5 -2.5t-34 -8t-34.5 -14t-30 -20t-21.5 -25.5t-8.5 -31h41q22 0 45 2t45 6.5t38.5 14t27 24.5t10.5 37v5l-10 10q-2 0 -7.5 0.5t-11.5 1t-11.5 0.5h-8.5zM72 381q0 13 8.5 21t19.5 13q38 12 63 17t46.5 9.5t46 13.5t60.5 29l7 7l7 7h2l0.5 0.5t1.5 0.5
q9 0 12.5 -8.5t3.5 -15.5q0 -13 -11.5 -22.5t-22.5 -14.5q-17 -8 -24.5 -11.5t-13.5 -6.5q-7 -2 -20.5 -7t-32 -11t-39.5 -12t-42 -9.5t-39.5 -4t-32.5 4.5z" />
    <glyph glyph-name="ecircumflex" unicode="&#xea;" horiz-adv-x="487" 
d="M19 176q0 34 19 66t48.5 56t65 38t67.5 14q26 0 51.5 -6.5t45.5 -20.5t32.5 -34.5t12.5 -48.5q0 -13 -1.5 -20.5t-6.5 -13t-12.5 -10t-18.5 -11.5q-6 -1 -18 -4.5t-27.5 -7.5t-32.5 -8t-32.5 -8t-27.5 -7t-18 -4q-3 -1 -13 -2t-21.5 -2.5t-21.5 -3t-12 -2.5
q-3 -1 -6.5 -4.5t-3.5 -4.5q0 -20 11 -33.5t28 -22.5t38.5 -13.5t42.5 -7t39 -2.5h29q50 0 98 5.5t98 5.5v-8q0 -6 -1.5 -12.5t-4.5 -12t-8 -6.5q-38 -8 -67.5 -12.5t-55.5 -6t-54 -2t-62 -0.5h-17q-11 0 -24 0.5t-25 0.5h-17q-31 8 -53.5 25.5t-36.5 41.5t-20.5 52t-6.5 57
zM243 294q-13 0 -29.5 -2.5t-34 -8t-34.5 -14t-30 -20t-21.5 -25.5t-8.5 -31h41q22 0 45 2t45 6.5t38.5 14t27 24.5t10.5 37v5l-10 10q-2 0 -7.5 0.5t-11.5 1t-11.5 0.5h-8.5zM89 396q0 17 6 42t15.5 52t23.5 54t30.5 48.5t35.5 34.5t39 13q6 0 13 0.5t14 -1.5t12 -5.5
t8 -13.5q5 -29 14.5 -58.5t23 -58t28.5 -55.5t31 -52q-10 -15 -17 -23t-21 -8q-13 0 -25 15t-22 36.5t-19.5 47t-17.5 48t-15.5 37t-13.5 14.5q-18 0 -28.5 -15t-17 -38t-12 -50t-12.5 -50t-19.5 -38t-32.5 -15q-5 0 -8.5 5t-6.5 11.5t-4.5 13t-1.5 9.5z" />
    <glyph glyph-name="edieresis" unicode="&#xeb;" horiz-adv-x="487" 
d="M19 176q0 34 19 66t48.5 56t65 38t67.5 14q26 0 51.5 -6.5t45.5 -20.5t32.5 -34.5t12.5 -48.5q0 -13 -1.5 -20.5t-6.5 -13t-12.5 -10t-18.5 -11.5q-6 -1 -18 -4.5t-27.5 -7.5t-32.5 -8t-32.5 -8t-27.5 -7t-18 -4q-3 -1 -13 -2t-21.5 -2.5t-21.5 -3t-12 -2.5
q-3 -1 -6.5 -4.5t-3.5 -4.5q0 -20 11 -33.5t28 -22.5t38.5 -13.5t42.5 -7t39 -2.5h29q50 0 98 5.5t98 5.5v-8q0 -6 -1.5 -12.5t-4.5 -12t-8 -6.5q-38 -8 -67.5 -12.5t-55.5 -6t-54 -2t-62 -0.5h-17q-11 0 -24 0.5t-25 0.5h-17q-31 8 -53.5 25.5t-36.5 41.5t-20.5 52t-6.5 57
zM243 294q-13 0 -29.5 -2.5t-34 -8t-34.5 -14t-30 -20t-21.5 -25.5t-8.5 -31h41q22 0 45 2t45 6.5t38.5 14t27 24.5t10.5 37v5l-10 10q-2 0 -7.5 0.5t-11.5 1t-11.5 0.5h-8.5zM26 478q0 12 10.5 20.5t25 13.5t29 6.5t22.5 1.5q12 0 22.5 -8t19 -19.5t13.5 -24t5 -21.5
q0 -8 -0.5 -15.5t-2 -14t-6.5 -12.5t-14 -8q-2 0 -6 -0.5t-8.5 -0.5t-8.5 -0.5t-6 -0.5q-17 0 -34.5 5t-30.5 15t-21.5 25.5t-8.5 37.5zM234 475q0 13 11 21.5t25 13t28.5 6.5t22.5 2q11 0 21 -8.5t18.5 -19.5t14 -23.5t5.5 -22.5q0 -8 -0.5 -15.5t-2.5 -14t-7 -12t-13 -8.5
h-6h-8.5t-9 -0.5t-5.5 -0.5q-17 0 -34 4.5t-30.5 14.5t-21.5 25.5t-8 37.5z" />
    <glyph glyph-name="igrave" unicode="&#xec;" horiz-adv-x="88" 
d="M49 9q-7 20 -12.5 43.5t-9 48.5t-5.5 49t-2 45q0 3 1 11.5t2.5 17.5t3.5 17.5t3 11.5q1 1 9 2t10 1q13 0 21 -14t14 -36t8.5 -48.5t4.5 -51t2 -43.5v-26q0 -3 0.5 -9.5t-0.5 -13t-4.5 -10.5t-11.5 -4h-4q-2 0 -6 1.5t-9 3t-9 2.5t-6 2zM248 395q-13 -6 -32 -5t-39.5 5
t-41.5 10.5t-39.5 14t-32 13.5t-19.5 9q-3 2 -6 3t-7.5 3t-10.5 5.5t-15 8.5q-10 7 -21.5 17.5t-11.5 25.5q0 8 4 17.5t12 9.5l1 -1h3q2 -1 6.5 -7t6.5 -8q25 -16 43.5 -26t34 -15.5t29.5 -9t29.5 -7t34.5 -8.5t44 -16q13 -5 20.5 -14.5t7.5 -24.5z" />
    <glyph glyph-name="iacute" unicode="&#xed;" horiz-adv-x="117" 
d="M49 9q-7 20 -12.5 43.5t-9 48.5t-5.5 49t-2 45q0 3 1 11.5t2.5 17.5t3.5 17.5t3 11.5q1 1 9 2t10 1q13 0 21 -14t14 -36t8.5 -48.5t4.5 -51t2 -43.5v-26q0 -3 0.5 -9.5t-0.5 -13t-4.5 -10.5t-11.5 -4h-4q-2 0 -6 1.5t-9 3t-9 2.5t-6 2zM-80 392q0 13 8 21.5t19 11.5
q39 13 64 17.5t46.5 9.5t45.5 14t61 30q2 1 7 6t7 6h1l1 0.5t2 0.5q8 0 12 -8t4 -16q0 -12 -11.5 -21t-22.5 -14q-18 -10 -25 -13t-13 -5q-7 -3 -20.5 -8t-32.5 -11.5t-39.5 -12t-41.5 -9t-39.5 -4t-32.5 4.5z" />
    <glyph glyph-name="icircumflex" unicode="&#xee;" horiz-adv-x="117" 
d="M49 9q-7 20 -12.5 43.5t-9 48.5t-5.5 49t-2 45q0 3 1 11.5t2.5 17.5t3.5 17.5t3 11.5q1 1 9 2t10 1q13 0 21 -14t14 -36t8.5 -48.5t4.5 -51t2 -43.5v-26q0 -3 0.5 -9.5t-0.5 -13t-4.5 -10.5t-11.5 -4h-4q-2 0 -6 1.5t-9 3t-9 2.5t-6 2zM-50 354q0 15 4 37t11.5 46
t17.5 47.5t22.5 42.5t26 30.5t27.5 11.5h11t10 -1t9 -5t6 -11q7 -53 27 -103.5t44 -94.5q-7 -14 -12 -20.5t-15 -6.5q-11 0 -20 13t-16.5 32t-14 42t-12.5 42t-11.5 32t-10.5 13q-12 0 -20 -13.5t-13 -34t-9 -43.5t-9 -43.5t-14 -33.5t-24 -13q-3 0 -6 3.5t-5 9.5t-3 11.5
t-1 9.5z" />
    <glyph glyph-name="idieresis" unicode="&#xef;" horiz-adv-x="117" 
d="M49 9q-7 20 -12.5 43.5t-9 48.5t-5.5 49t-2 45q0 3 1 11.5t2.5 17.5t3.5 17.5t3 11.5q1 1 9 2t10 1q13 0 21 -14t14 -36t8.5 -48.5t4.5 -51t2 -43.5v-26q0 -3 0.5 -9.5t-0.5 -13t-4.5 -10.5t-11.5 -4h-4q-2 0 -6 1.5t-9 3t-9 2.5t-6 2zM-56 425q0 11 6.5 18t15 11t17 6
t13.5 2q7 0 13 -7t11 -17t8 -21t3 -18q0 -13 -1 -26t-12 -18h-8.5h-8.5q-11 0 -21 4t-18.5 12.5t-13 21.5t-4.5 32zM69 423q0 11 6.5 18t14.5 11t17 5.5t14 1.5q6 0 12 -7t11.5 -16.5t8.5 -20.5t3 -19q0 -13 -1.5 -25t-12.5 -17q-2 0 -8.5 -0.5t-8.5 -0.5q-10 0 -20.5 3.5
t-18.5 12t-12.5 22t-4.5 32.5z" />
    <glyph glyph-name="eth" unicode="&#xf0;" horiz-adv-x="517" 
d="M273 373q-27 23 -45 45.5t-25.5 39t-4 25t20 4t45 -24.5t73.5 -61l72 29q36 15 81 32q1 0 4.5 -1t7.5 -2.5t6.5 -3.5t3.5 -3q1 -2 0 -10t-1 -12q0 -1 -2 -6t-3 -7q-16 -11 -26 -17.5t-20 -12t-20.5 -11t-23.5 -11.5l-17 -7q-8 -4 -17 -8q54 -64 78 -115t26 -90t-14.5 -66
t-44.5 -46t-63 -29.5t-69 -15.5q-21 0 -48 3t-55.5 10t-56 18.5t-49 29t-35 40t-13.5 52.5t10.5 49.5t28.5 31t40 16.5t45 5q5 0 11 -0.5t12 -0.5t11 -0.5l5 -0.5q11 -1 35.5 -8.5t51.5 -15t51.5 -15t33.5 -11.5q2 0 3 -0.5t2 -0.5l4 1q1 0 2.5 2.5t3 5.5t3 6.5t1.5 5.5v10
q-2 17 -8.5 32t-16 27.5t-21 24t-24.5 22.5q-27 -9 -54 -20t-52 -25q-5 -1 -8 1.5t-5.5 7.5t-4 9t-1.5 7q-5 13 1.5 23t17.5 17t23 11.5t19 6.5q4 3 7.5 4.5t7.5 3.5zM97 144q0 -21 12 -37t31 -26.5t43 -17t47 -10.5t43.5 -5t33.5 -1q3 0 13 0.5l20 1t20 0.5h13q13 6 17 12
t4 18q0 21 -14 37.5t-35 28t-47.5 18.5t-51 11t-46 6t-31.5 2h-22.5t-23.5 -2.5t-18.5 -10.5t-7.5 -25z" />
    <glyph glyph-name="ntilde" unicode="&#xf1;" horiz-adv-x="448" 
d="M261 215q-35 0 -61.5 -12.5t-47.5 -32.5t-35 -42.5t-24.5 -42.5t-16 -33t-7.5 -13q-27 0 -38 14t-14 34.5t-0.5 43t2.5 39.5v17q0 12 0.5 25t0.5 24v17q3 8 8 9t11 1q9 0 15 -10.5t11 -25.5t8 -29.5t5 -22.5q12 2 22 10t20.5 19t22.5 23t28 22.5t37.5 17.5t49.5 7
q56 0 92 -24.5t55.5 -64t26.5 -89t7 -100.5q-30 0 -46.5 9.5t-23.5 25t-8 35t-1 40t-2.5 40.5t-12 35t-29 24.5t-55.5 9.5zM137 424q-17 0 -28 -6.5t-19.5 -16.5t-15 -21.5t-13 -21.5t-15 -16.5t-21.5 -6.5t-16.5 6.5t-3.5 18.5q0 25 14 47t34.5 39t45.5 27.5t47 10.5
q18 0 32 -7t25.5 -17t22.5 -21.5t23.5 -21.5t28 -16.5t34.5 -6.5q18 0 31.5 8t25 17.5t23 17.5t27.5 8q17 0 23 -7.5t11 -23.5q-6 -8 -19.5 -22.5t-30 -29t-34 -25t-31.5 -10.5q-26 0 -48 7.5t-41 18t-35 23t-30 23t-25.5 18t-21.5 7.5z" />
    <glyph glyph-name="ograve" unicode="&#xf2;" horiz-adv-x="419" 
d="M19 118q0 34 12 70t34.5 66t53.5 49t71 19q56 0 94 -11t62 -33.5t34.5 -58t10.5 -83.5q0 -3 -0.5 -11.5t-0.5 -17.5t-0.5 -17.5t-0.5 -12.5q-7 -25 -26.5 -40.5t-45 -23.5t-53 -11t-49.5 -3q-31 0 -65 4t-63.5 16.5t-48.5 36t-19 62.5zM69 131q0 -26 15.5 -42.5
t37.5 -25.5t47.5 -12t43.5 -3h31.5t26.5 3t27 9t33 17q10 16 11 31.5t1 32.5q0 34 -13 60t-35 42t-52.5 21.5t-67.5 -1.5q-15 -3 -34 -18t-35 -35t-26.5 -41.5t-10.5 -37.5zM417 343q-20 -7 -47.5 -6.5t-58 6t-62 14t-58.5 17.5t-47.5 17t-30.5 11q-5 2 -9 3.5t-10 4.5
t-16 7l-23 12q-7 4 -15.5 9t-16.5 11.5t-12.5 15t-4.5 18.5q0 5 1.5 11t4.5 11.5t7.5 9t11.5 3.5q1 0 1 -0.5t2 -0.5q1 -1 3 -1q1 0 4 -2.5t5.5 -6t5.5 -6.5t3 -5q37 -20 64.5 -32t50.5 -19.5t44.5 -12t44.5 -9t51 -11.5t66 -20q18 -5 29.5 -18t11.5 -31z" />
    <glyph glyph-name="oacute" unicode="&#xf3;" horiz-adv-x="419" 
d="M19 118q0 34 12 70t34.5 66t53.5 49t71 19q56 0 94 -11t62 -33.5t34.5 -58t10.5 -83.5q0 -3 -0.5 -11.5t-0.5 -17.5t-0.5 -17.5t-0.5 -12.5q-7 -25 -26.5 -40.5t-45 -23.5t-53 -11t-49.5 -3q-31 0 -65 4t-63.5 16.5t-48.5 36t-19 62.5zM69 131q0 -26 15.5 -42.5
t37.5 -25.5t47.5 -12t43.5 -3h31.5t26.5 3t27 9t33 17q10 16 11 31.5t1 32.5q0 34 -13 60t-35 42t-52.5 21.5t-67.5 -1.5q-15 -3 -34 -18t-35 -35t-26.5 -41.5t-10.5 -37.5zM23.3398 320.43q0 15.4883 9.75977 25.0195t22.3896 15.4883q43.6318 14.2969 72.3359 20.2539
q28.7051 5.95703 53.3916 11.3184q24.6855 5.36133 52.8164 16.084t69.4658 34.5508q2.2959 2.38281 8.03711 8.33984t8.03809 8.33984h2.2959l0.574219 0.595703t1.72168 0.595703q10.334 0 14.3525 -10.127t4.01855 -18.4668q0 -15.4883 -13.2041 -26.8066
t-25.834 -17.2754q-19.5195 -9.53125 -28.1309 -13.7012t-15.501 -7.74414q-8.03711 -2.38281 -23.5371 -8.33984q-15.501 -5.95703 -36.7422 -13.1055q-21.2422 -7.14844 -45.3535 -14.2969q-24.1123 -7.14844 -48.2246 -11.3184t-45.3535 -4.76562
q-21.2422 -0.595703 -37.3164 5.36133z" />
    <glyph glyph-name="ocircumflex" unicode="&#xf4;" horiz-adv-x="419" 
d="M19 118q0 34 12 70t34.5 66t53.5 49t71 19q56 0 94 -11t62 -33.5t34.5 -58t10.5 -83.5q0 -3 -0.5 -11.5t-0.5 -17.5t-0.5 -17.5t-0.5 -12.5q-7 -25 -26.5 -40.5t-45 -23.5t-53 -11t-49.5 -3q-31 0 -65 4t-63.5 16.5t-48.5 36t-19 62.5zM69 131q0 -26 15.5 -42.5
t37.5 -25.5t47.5 -12t43.5 -3h31.5t26.5 3t27 9t33 17q10 16 11 31.5t1 32.5q0 34 -13 60t-35 42t-52.5 21.5t-67.5 -1.5q-15 -3 -34 -18t-35 -35t-26.5 -41.5t-10.5 -37.5zM67 406q0 17 6 42t15.5 52t23.5 54t30.5 48.5t35.5 34.5t39 13q6 0 13 0.5t14 -1.5t12 -5.5
t8 -13.5q5 -29 14.5 -58.5t23 -58t28.5 -55.5t31 -52q-10 -15 -17 -23t-21 -8q-13 0 -25 15t-22 36.5t-19.5 47t-17.5 48t-15.5 37t-13.5 14.5q-18 0 -28.5 -15t-17 -38t-12 -50t-12.5 -50t-19.5 -38t-32.5 -15q-5 0 -8.5 5t-6.5 11.5t-4.5 13t-1.5 9.5z" />
    <glyph glyph-name="otilde" unicode="&#xf5;" horiz-adv-x="419" 
d="M19 118q0 34 12 70t34.5 66t53.5 49t71 19q56 0 94 -11t62 -33.5t34.5 -58t10.5 -83.5q0 -3 -0.5 -11.5t-0.5 -17.5t-0.5 -17.5t-0.5 -12.5q-7 -25 -26.5 -40.5t-45 -23.5t-53 -11t-49.5 -3q-31 0 -65 4t-63.5 16.5t-48.5 36t-19 62.5zM69 131q0 -26 15.5 -42.5
t37.5 -25.5t47.5 -12t43.5 -3h31.5t26.5 3t27 9t33 17q10 16 11 31.5t1 32.5q0 34 -13 60t-35 42t-52.5 21.5t-67.5 -1.5q-15 -3 -34 -18t-35 -35t-26.5 -41.5t-10.5 -37.5zM132 450q-17 0 -28 -6.5t-19.5 -16.5t-15 -21.5t-13 -21.5t-15 -16.5t-21.5 -6.5t-16.5 6.5
t-3.5 18.5q0 25 14 47t34.5 39t45.5 27.5t47 10.5q18 0 32 -7t25.5 -17t22.5 -21.5t23.5 -21.5t28 -16.5t34.5 -6.5q18 0 31.5 8t25 17.5t23 17.5t27.5 8q17 0 23 -7.5t11 -23.5q-6 -8 -19.5 -22.5t-30 -29t-34 -25t-31.5 -10.5q-26 0 -48 7.5t-41 18t-35 23t-30 23
t-25.5 18t-21.5 7.5z" />
    <glyph glyph-name="odieresis" unicode="&#xf6;" horiz-adv-x="419" 
d="M19 118q0 34 12 70t34.5 66t53.5 49t71 19q56 0 94 -11t62 -33.5t34.5 -58t10.5 -83.5q0 -3 -0.5 -11.5t-0.5 -17.5t-0.5 -17.5t-0.5 -12.5q-7 -25 -26.5 -40.5t-45 -23.5t-53 -11t-49.5 -3q-31 0 -65 4t-63.5 16.5t-48.5 36t-19 62.5zM69 131q0 -26 15.5 -42.5
t37.5 -25.5t47.5 -12t43.5 -3h31.5t26.5 3t27 9t33 17q10 16 11 31.5t1 32.5q0 34 -13 60t-35 42t-52.5 21.5t-67.5 -1.5q-15 -3 -34 -18t-35 -35t-26.5 -41.5t-10.5 -37.5zM33 454q0 12 10.5 20.5t25 13.5t29 6.5t22.5 1.5q12 0 22.5 -8t19 -19.5t13.5 -24t5 -21.5
q0 -8 -0.5 -15.5t-2 -14t-6.5 -12.5t-14 -8q-2 0 -6 -0.5t-8.5 -0.5t-8.5 -0.5t-6 -0.5q-17 0 -34.5 5t-30.5 15t-21.5 25.5t-8.5 37.5zM241 451q0 13 11 21.5t25 13t28.5 6.5t22.5 2q11 0 21 -8.5t18.5 -19.5t14 -23.5t5.5 -22.5q0 -8 -0.5 -15.5t-2.5 -14t-7 -12t-13 -8.5
h-6h-8.5t-9 -0.5t-5.5 -0.5q-17 0 -34 4.5t-30.5 14.5t-21.5 25.5t-8 37.5z" />
    <glyph glyph-name="divide" unicode="&#xf7;" horiz-adv-x="539" 
d="M137 177q-5 1 -7.5 5t-3 8.5t0 10t0.5 8.5q0 15 10 20.5t24.5 7.5t29.5 0.5t24 -1.5q37 0 70.5 -0.5t67 -2t68.5 -3.5t76 -5q2 0 5.5 -2.5t6.5 -5.5t5.5 -6t2.5 -4t-1 -3.5t-2.5 -5.5t-3.5 -6t-3 -5q0 -2 -4.5 -5.5t-5.5 -4.5q-19 -4 -33 -6t-26.5 -3t-26.5 -1h-29
q-31 0 -62 2l-61 4q-30 3 -61 4t-61 0zM215 50q0 20 7.5 36.5t20 28.5t29.5 18.5t37 6.5q12 0 24 -6t21 -16t14 -22.5t5 -24.5q0 -1 -0.5 -5t-0.5 -5q-15 -13 -26 -21.5t-21.5 -12t-21.5 -5t-26 -1.5q-8 0 -18.5 0.5t-20 3.5t-16.5 8.5t-7 16.5zM248 344q0 34 21 45.5
t54 11.5q25 0 39.5 -17.5t14.5 -42.5q0 -14 -8 -23t-19.5 -15t-24 -8.5t-22.5 -2.5q-31 0 -43 10.5t-12 41.5z" />
    <glyph glyph-name="oslash" unicode="&#xf8;" horiz-adv-x="419" 
d="M77 -77q0 24 6.5 45t15.5 40q1 3 1 6q-7 2 -13 6q-30 12 -49 35.5t-19 62.5q0 34 12 70t34.5 66t53.5 49t71 19q19 0 35 -2l7 13q14 32 28 60.5t25 51.5t17 34q1 5 4 7t8 3t9 1h8q19 0 24 -6t5 -24v-10.5v-10.5q-35 -53 -67 -120l-4 -10q34 -11 56 -32q25 -22 35.5 -57.5
t10.5 -83.5q0 -3 -0.5 -11.5t-0.5 -17.5t-0.5 -17.5t-0.5 -12.5q-7 -25 -26.5 -40.5t-45 -23.5t-53 -11t-49.5 -3q-21 0 -46 2q-13 -41 -24 -78q-6 -18 -13.5 -23.5t-26.5 -5.5q-16 0 -22 6t-6 23zM213 48h31.5t26.5 3t27 9t33 17q10 16 11 31.5t1 32.5q0 34 -13 60t-35 42
q-14 9 -29 15q-16 -37 -31 -75q-27 -67 -49 -134q15 -1 27 -1zM69 131q0 -26 15.5 -42.5t37.5 -25.5l3 -1q6 13 11 27q1 4 5 18t9 30.5t9.5 31t5.5 18.5q4 10 14 33q11 21 22 46q-12 0 -26 -3q-15 -3 -34 -18t-35 -35t-26.5 -41.5t-10.5 -37.5z" />
    <glyph glyph-name="ugrave" unicode="&#xf9;" horiz-adv-x="614" 
d="M346 88q-26 0 -51.5 -12.5t-52.5 -28.5t-56 -28.5t-59 -12.5q-4 0 -12 0.5t-17.5 1t-17.5 0.5t-11 1q-19 11 -30.5 26t-18 32.5t-9.5 36.5t-3 38v28q0 18 1.5 39t4 43t7.5 40.5t14 31.5t24 17q6 2 12 -3t9.5 -11.5t5.5 -14t2 -10.5t-3 -13t-6.5 -21.5t-6.5 -21.5t-3 -12
q0 -1 -0.5 -8.5t-1 -16.5t-0.5 -19.5v-16.5q0 -13 -1 -29.5t1.5 -32.5t8.5 -30t22 -22q1 0 6.5 -0.5t12 -0.5t12 -0.5t7.5 -0.5q54 0 102 24t84 65q-1 6 -1.5 23t-0.5 35.5t0.5 35t1.5 23.5q0 6 2 12.5t5 12.5t8.5 10t12.5 4q15 0 21 -11t8.5 -29t4 -41.5t6.5 -47.5
t17 -47.5t35 -42t60 -31t93 -13.5v-5v-5q0 -15 -13 -21.5t-31.5 -8.5t-36.5 -1t-27 1q-30 0 -54 14t-43 30.5t-30.5 30.5t-13.5 14zM406 377q-20 -7 -47.5 -6.5t-58 6t-62 14t-58.5 17.5t-47.5 17t-30.5 11q-5 2 -9 3.5t-10 4.5t-16 7l-23 12q-7 4 -15.5 9t-16.5 11.5
t-12.5 15t-4.5 18.5q0 5 1.5 11t4.5 11.5t7.5 9t11.5 3.5q1 0 1 -0.5t2 -0.5q1 -1 3 -1q1 0 4 -2.5t5.5 -6t5.5 -6.5t3 -5q37 -20 64.5 -32t50.5 -19.5t44.5 -12t44.5 -9t51 -11.5t66 -20q18 -5 29.5 -18t11.5 -31z" />
    <glyph glyph-name="uacute" unicode="&#xfa;" horiz-adv-x="614" 
d="M346 88q-26 0 -51.5 -12.5t-52.5 -28.5t-56 -28.5t-59 -12.5q-4 0 -12 0.5t-17.5 1t-17.5 0.5t-11 1q-19 11 -30.5 26t-18 32.5t-9.5 36.5t-3 38v28q0 18 1.5 39t4 43t7.5 40.5t14 31.5t24 17q6 2 12 -3t9.5 -11.5t5.5 -14t2 -10.5t-3 -13t-6.5 -21.5t-6.5 -21.5t-3 -12
q0 -1 -0.5 -8.5t-1 -16.5t-0.5 -19.5v-16.5q0 -13 -1 -29.5t1.5 -32.5t8.5 -30t22 -22q1 0 6.5 -0.5t12 -0.5t12 -0.5t7.5 -0.5q54 0 102 24t84 65q-1 6 -1.5 23t-0.5 35.5t0.5 35t1.5 23.5q0 6 2 12.5t5 12.5t8.5 10t12.5 4q15 0 21 -11t8.5 -29t4 -41.5t6.5 -47.5
t17 -47.5t35 -42t60 -31t93 -13.5v-5v-5q0 -15 -13 -21.5t-31.5 -8.5t-36.5 -1t-27 1q-30 0 -54 14t-43 30.5t-30.5 30.5t-13.5 14zM102 416q0 13 8.5 21t19.5 13q38 12 63 17t46.5 9.5t46 13.5t60.5 29l7 7l7 7h2l0.5 0.5t1.5 0.5q9 0 12.5 -8.5t3.5 -15.5
q0 -13 -11.5 -22.5t-22.5 -14.5q-17 -8 -24.5 -11.5t-13.5 -6.5q-7 -2 -20.5 -7t-32 -11t-39.5 -12t-42 -9.5t-39.5 -4t-32.5 4.5z" />
    <glyph glyph-name="ucircumflex" unicode="&#xfb;" horiz-adv-x="614" 
d="M346 88q-26 0 -51.5 -12.5t-52.5 -28.5t-56 -28.5t-59 -12.5q-4 0 -12 0.5t-17.5 1t-17.5 0.5t-11 1q-19 11 -30.5 26t-18 32.5t-9.5 36.5t-3 38v28q0 18 1.5 39t4 43t7.5 40.5t14 31.5t24 17q6 2 12 -3t9.5 -11.5t5.5 -14t2 -10.5t-3 -13t-6.5 -21.5t-6.5 -21.5t-3 -12
q0 -1 -0.5 -8.5t-1 -16.5t-0.5 -19.5v-16.5q0 -13 -1 -29.5t1.5 -32.5t8.5 -30t22 -22q1 0 6.5 -0.5t12 -0.5t12 -0.5t7.5 -0.5q54 0 102 24t84 65q-1 6 -1.5 23t-0.5 35.5t0.5 35t1.5 23.5q0 6 2 12.5t5 12.5t8.5 10t12.5 4q15 0 21 -11t8.5 -29t4 -41.5t6.5 -47.5
t17 -47.5t35 -42t60 -31t93 -13.5v-5v-5q0 -15 -13 -21.5t-31.5 -8.5t-36.5 -1t-27 1q-30 0 -54 14t-43 30.5t-30.5 30.5t-13.5 14zM56 433q0 17 6 42t15.5 52t23.5 54t30.5 48.5t35.5 34.5t39 13q6 0 13 0.5t14 -1.5t12 -5.5t8 -13.5q5 -29 14.5 -58.5t23 -58t28.5 -55.5
t31 -52q-10 -15 -17 -23t-21 -8q-13 0 -25 15t-22 36.5t-19.5 47t-17.5 48t-15.5 37t-13.5 14.5q-18 0 -28.5 -15t-17 -38t-12 -50t-12.5 -50t-19.5 -38t-32.5 -15q-5 0 -8.5 5t-6.5 11.5t-4.5 13t-1.5 9.5z" />
    <glyph glyph-name="udieresis" unicode="&#xfc;" horiz-adv-x="614" 
d="M346 88q-26 0 -51.5 -12.5t-52.5 -28.5t-56 -28.5t-59 -12.5q-4 0 -12 0.5t-17.5 1t-17.5 0.5t-11 1q-19 11 -30.5 26t-18 32.5t-9.5 36.5t-3 38v28q0 18 1.5 39t4 43t7.5 40.5t14 31.5t24 17q6 2 12 -3t9.5 -11.5t5.5 -14t2 -10.5t-3 -13t-6.5 -21.5t-6.5 -21.5t-3 -12
q0 -1 -0.5 -8.5t-1 -16.5t-0.5 -19.5v-16.5q0 -13 -1 -29.5t1.5 -32.5t8.5 -30t22 -22q1 0 6.5 -0.5t12 -0.5t12 -0.5t7.5 -0.5q54 0 102 24t84 65q-1 6 -1.5 23t-0.5 35.5t0.5 35t1.5 23.5q0 6 2 12.5t5 12.5t8.5 10t12.5 4q15 0 21 -11t8.5 -29t4 -41.5t6.5 -47.5
t17 -47.5t35 -42t60 -31t93 -13.5v-5v-5q0 -15 -13 -21.5t-31.5 -8.5t-36.5 -1t-27 1q-30 0 -54 14t-43 30.5t-30.5 30.5t-13.5 14zM49 478q0 12 10.5 20.5t25 13.5t29 6.5t22.5 1.5q12 0 22.5 -8t19 -19.5t13.5 -24t5 -21.5q0 -8 -0.5 -15.5t-2 -14t-6.5 -12.5t-14 -8
q-2 0 -6 -0.5t-8.5 -0.5t-8.5 -0.5t-6 -0.5q-17 0 -34.5 5t-30.5 15t-21.5 25.5t-8.5 37.5zM257 475q0 13 11 21.5t25 13t28.5 6.5t22.5 2q11 0 21 -8.5t18.5 -19.5t14 -23.5t5.5 -22.5q0 -8 -0.5 -15.5t-2.5 -14t-7 -12t-13 -8.5h-6h-8.5t-9 -0.5t-5.5 -0.5q-17 0 -34 4.5
t-30.5 14.5t-21.5 25.5t-8 37.5z" />
    <glyph glyph-name="yacute" unicode="&#xfd;" horiz-adv-x="389" 
d="M-78 -338q0 12 1 29t6.5 33t15.5 28t26 14q0 -1 0.5 -4.5t0.5 -5.5q0 -14 -6 -25.5t-6 -28.5q0 -28 11 -51t29 -41t41.5 -31t50 -21.5t53.5 -12.5t50 -4q33 0 56 11t39.5 29.5t26.5 43t15.5 51t8 53.5t2.5 51q0 4 -1 24.5t-3 48t-5 58.5t-8 58t-12 44t-16 17
q-19 0 -37.5 -5t-36.5 -11t-37.5 -11t-40.5 -5h-13.5t-20.5 0.5t-20.5 1t-13.5 0.5q-21 8 -34.5 24t-21.5 36.5t-11 43t-3 41.5q0 28 1.5 50.5t10.5 47.5q1 2 7 2.5t7 0.5q18 0 24 -15t7 -37t1.5 -47.5t7.5 -47.5t23.5 -36.5t50.5 -14.5q46 0 72 11t39 33.5t15 55t-1 76.5
q-1 13 5 17t14 4q10 0 21.5 -22t21.5 -56t20 -73.5t17 -75.5t11.5 -62.5t5.5 -33.5q1 -4 3 -15.5t3.5 -28t3.5 -34t4 -34t4 -28.5t2 -16v-5q0 -52 -12.5 -100t-39 -85.5t-67 -60t-97.5 -22.5q-24 0 -53.5 4t-59.5 12.5t-58.5 21.5t-50.5 32.5t-35.5 43.5t-13.5 55zM44 327
q0 13 8.5 21t19.5 13q38 12 63 17t46.5 9.5t46 13.5t60.5 29l7 7l7 7h2l0.5 0.5t1.5 0.5q9 0 12.5 -8.5t3.5 -15.5q0 -13 -11.5 -22.5t-22.5 -14.5q-17 -8 -24.5 -11.5t-13.5 -6.5q-7 -2 -20.5 -7t-32 -11t-39.5 -12t-42 -9.5t-39.5 -4t-32.5 4.5z" />
    <glyph glyph-name="thorn" unicode="&#xfe;" horiz-adv-x="423" 
d="M25 3q7 70 9 141t-0.5 137.5t-6 125.5t-6.5 106t-4 79.5t3 45.5l73 5l-11 -206q59 30 104.5 41.5t79.5 7.5t58 -20t39 -40t23 -52.5t11 -57.5q0 -26 -18 -45.5t-46 -34t-63 -25t-68.5 -16.5t-62.5 -10.5t-46 -6.5q-5 -10 -6.5 -31.5t-1.5 -47.5t1 -53t-1 -48zM338 343
q-1 22 -16 39t-37 28.5t-48 14.5t-52 -1.5t-49 -17.5t-37.5 -37t-18.5 -58.5t8 -80.5q17 0 42.5 2.5t53.5 7t55 12.5t49.5 20.5t36 30t13.5 40.5z" />
    <glyph glyph-name="ydieresis" unicode="&#xff;" horiz-adv-x="389" 
d="M-78 -338q0 12 1 29t6.5 33t15.5 28t26 14q0 -1 0.5 -4.5t0.5 -5.5q0 -14 -6 -25.5t-6 -28.5q0 -28 11 -51t29 -41t41.5 -31t50 -21.5t53.5 -12.5t50 -4q33 0 56 11t39.5 29.5t26.5 43t15.5 51t8 53.5t2.5 51q0 4 -1 24.5t-3 48t-5 58.5t-8 58t-12 44t-16 17
q-19 0 -37.5 -5t-36.5 -11t-37.5 -11t-40.5 -5h-13.5t-20.5 0.5t-20.5 1t-13.5 0.5q-21 8 -34.5 24t-21.5 36.5t-11 43t-3 41.5q0 28 1.5 50.5t10.5 47.5q1 2 7 2.5t7 0.5q18 0 24 -15t7 -37t1.5 -47.5t7.5 -47.5t23.5 -36.5t50.5 -14.5q46 0 72 11t39 33.5t15 55t-1 76.5
q-1 13 5 17t14 4q10 0 21.5 -22t21.5 -56t20 -73.5t17 -75.5t11.5 -62.5t5.5 -33.5q1 -4 3 -15.5t3.5 -28t3.5 -34t4 -34t4 -28.5t2 -16v-5q0 -52 -12.5 -100t-39 -85.5t-67 -60t-97.5 -22.5q-24 0 -53.5 4t-59.5 12.5t-58.5 21.5t-50.5 32.5t-35.5 43.5t-13.5 55z
M28.1836 391.476q0 11.2002 8.16016 19.1338t19.4297 12.6006q11.2686 4.66699 22.5371 6.06641q11.2695 1.40039 17.4863 1.40039q9.32617 0 17.4863 -7.4668t14.7656 -18.2002q6.60645 -10.7344 10.4922 -22.4004q3.88574 -11.667 3.88574 -20.0674
q0 -7.4668 -0.388672 -14.4668t-1.55469 -13.0674q-1.16504 -6.06641 -5.05176 -11.666q-3.88574 -5.60059 -10.8799 -7.4668q-1.55371 0 -4.66309 -0.466797q-3.1084 -0.466797 -6.60547 -0.466797t-6.60645 -0.466797q-3.1084 -0.466797 -4.66211 -0.466797
q-13.2119 0 -26.8125 4.66699t-23.7031 14q-10.1035 9.33301 -16.709 23.8008q-6.60645 14.4668 -6.60645 35zM189.833 388.676q0 12.1338 8.54883 20.0674q8.54883 7.93262 19.4297 12.1328q10.8799 4.2002 22.1484 6.06738q11.2695 1.86621 17.4863 1.86621
q8.54883 0 16.3203 -7.93359q7.77148 -7.93262 14.3779 -18.2002q6.60547 -10.2666 10.8799 -21.9336t4.27441 -21q0 -7.4668 -0.388672 -14.4668t-1.94238 -13.0674q-1.55469 -6.06641 -5.44043 -11.2002q-3.88574 -5.13281 -10.1035 -7.93359h-4.66309h-6.60547
t-6.99414 -0.466797t-4.27441 -0.466797q-13.2119 0 -26.4238 4.2002t-23.7031 13.5342q-10.4922 9.33301 -16.709 23.7998q-6.21777 14.4678 -6.21777 35.001z" />
    <glyph glyph-name="Amacron" unicode="&#x100;" horiz-adv-x="448" 
d="M360 9q-4 13 -7 34.5t-6 47t-6.5 52t-7 50.5t-9 42.5t-12.5 27.5h-10h-14.5h-14.5h-10h-38t-33 -2.5t-34 -6t-42 -11.5q-6 -2 -11 -11t-8.5 -19.5t-6 -20.5t-2.5 -17t-1.5 -25t-3 -38t-3.5 -38.5t-3 -24.5q-7 -12 -20 -21t-28 -9q-13 0 -17 6t-4 19q0 1 0.5 7t0.5 8
q15 136 53 268t94 258q0 1 2.5 4t6 6t6.5 5.5t4 2.5q2 0 3 1h1l1 1q23 0 44.5 -16.5t41.5 -41.5t36 -56.5t28.5 -61.5t20 -56.5t9.5 -41.5q11 -6 22.5 -9.5t22.5 -8t19.5 -11t14.5 -20.5q0 -1 -0.5 -4t-2.5 -6t-3.5 -6t-3.5 -3q-2 -1 -9.5 -3t-15 -3.5t-15 -2.5t-9.5 -1v-5
q0 -46 8 -95.5t21 -93.5q0 -1 1.5 -4t3.5 -6t3 -6.5t2 -3.5v-5q0 -17 -12.5 -26t-26.5 -9q-7 0 -12 1.5t-8 8.5zM127 309q19 0 44.5 2.5t51 6.5t47.5 7.5t32 5.5q-1 6 -6.5 23t-11.5 36t-12 35.5t-9 22.5q-2 4 -8.5 14.5t-15 20.5t-18 17.5t-16.5 7.5q-6 0 -11 -1t-9 -11
l-58 -165v-22zM61 643q0 16 14.5 25t37.5 13.5t51.5 5t55.5 -1t51 -3t37 -1.5q18 0 32.5 -1t25 -6.5t15.5 -16.5t5 -31q-49 0 -85 -0.5t-69.5 -1t-69 -1t-81.5 -0.5q-20 0 -20 20z" />
    <glyph glyph-name="amacron" unicode="&#x101;" horiz-adv-x="509" 
d="M297 49q-16 0 -33.5 -4.5t-34.5 -10.5t-35.5 -10.5t-37.5 -4.5q-29 0 -56 9t-47.5 27t-32.5 43.5t-12 57.5q0 28 17.5 52t43.5 40t56 25t54 9q11 0 27.5 -1.5t36 -5t39.5 -9t36.5 -14.5t28 -20.5t13.5 -26.5q0 -5 -2 -17.5t-3 -26.5t-2.5 -26.5t-2.5 -18.5v-6
q0 -22 10 -33t24.5 -15.5t30.5 -4.5h32q15 0 19 0.5t5.5 0.5t5 0.5t19.5 0.5q13 0 20 -5t7 -21q0 -17 -11 -24t-26 -9.5t-30 -1.5t-23 1q-23 0 -43.5 8t-37.5 17.5t-31 17t-24 7.5zM67 146q0 -24 10.5 -38.5t26 -21t34.5 -8t37 -1.5q7 0 23.5 1t34.5 4.5t32.5 9.5t16.5 15
l20 78q2 8 -4 14t-16.5 10t-23 7t-24.5 5t-21.5 3t-11.5 1q-18 0 -41.5 -3.5t-44 -12t-34.5 -23.5t-14 -40zM30 371q0 16 14.5 25t37.5 13.5t51.5 5t55.5 -1t51 -3t37 -1.5q18 0 32.5 -1t25 -6.5t15.5 -16.5t5 -31q-49 0 -85 -0.5t-69.5 -1t-69 -1t-81.5 -0.5q-20 0 -20 20z
" />
    <glyph glyph-name="Abreve" unicode="&#x102;" horiz-adv-x="448" 
d="M360 9q-4 13 -7 34.5t-6 47t-6.5 52t-7 50.5t-9 42.5t-12.5 27.5h-10h-14.5h-14.5h-10h-38t-33 -2.5t-34 -6t-42 -11.5q-6 -2 -11 -11t-8.5 -19.5t-6 -20.5t-2.5 -17t-1.5 -25t-3 -38t-3.5 -38.5t-3 -24.5q-7 -12 -20 -21t-28 -9q-13 0 -17 6t-4 19q0 1 0.5 7t0.5 8
q15 136 53 268t94 258q0 1 2.5 4t6 6t6.5 5.5t4 2.5q2 0 3 1h1l1 1q23 0 44.5 -16.5t41.5 -41.5t36 -56.5t28.5 -61.5t20 -56.5t9.5 -41.5q11 -6 22.5 -9.5t22.5 -8t19.5 -11t14.5 -20.5q0 -1 -0.5 -4t-2.5 -6t-3.5 -6t-3.5 -3q-2 -1 -9.5 -3t-15 -3.5t-15 -2.5t-9.5 -1v-5
q0 -46 8 -95.5t21 -93.5q0 -1 1.5 -4t3.5 -6t3 -6.5t2 -3.5v-5q0 -17 -12.5 -26t-26.5 -9q-7 0 -12 1.5t-8 8.5zM127 309q19 0 44.5 2.5t51 6.5t47.5 7.5t32 5.5q-1 6 -6.5 23t-11.5 36t-12 35.5t-9 22.5q-2 4 -8.5 14.5t-15 20.5t-18 17.5t-16.5 7.5q-6 0 -11 -1t-9 -11
l-58 -165v-22zM121 726q0 4 4.5 12t14.5 8q16 -25 33 -40.5t35 -17.5t39 11t46 45q12 0 18.5 -4t15.5 -12q-14 -29 -33 -48.5t-41 -28.5t-43 -8.5t-39.5 10t-32 28t-17.5 45.5z" />
    <glyph glyph-name="abreve" unicode="&#x103;" horiz-adv-x="509" 
d="M297 49q-16 0 -33.5 -4.5t-34.5 -10.5t-35.5 -10.5t-37.5 -4.5q-29 0 -56 9t-47.5 27t-32.5 43.5t-12 57.5q0 28 17.5 52t43.5 40t56 25t54 9q11 0 27.5 -1.5t36 -5t39.5 -9t36.5 -14.5t28 -20.5t13.5 -26.5q0 -5 -2 -17.5t-3 -26.5t-2.5 -26.5t-2.5 -18.5v-6
q0 -22 10 -33t24.5 -15.5t30.5 -4.5h32q15 0 19 0.5t5.5 0.5t5 0.5t19.5 0.5q13 0 20 -5t7 -21q0 -17 -11 -24t-26 -9.5t-30 -1.5t-23 1q-23 0 -43.5 8t-37.5 17.5t-31 17t-24 7.5zM67 146q0 -24 10.5 -38.5t26 -21t34.5 -8t37 -1.5q7 0 23.5 1t34.5 4.5t32.5 9.5t16.5 15
l20 78q2 8 -4 14t-16.5 10t-23 7t-24.5 5t-21.5 3t-11.5 1q-18 0 -41.5 -3.5t-44 -12t-34.5 -23.5t-14 -40zM85 426q0 4 4.5 12t14.5 8q16 -25 33 -40.5t35 -17.5t39 11t46 45q12 0 18.5 -4t15.5 -12q-14 -29 -33 -48.5t-41 -28.5t-43 -8.5t-39.5 10t-32 28t-17.5 45.5z" />
    <glyph glyph-name="Aogonek" unicode="&#x104;" horiz-adv-x="448" 
d="M317 -49q31 34 50 49l1 1q-5 1 -8 8q-4 13 -7 34.5t-6 47t-6.5 52t-7 50.5t-9 42.5t-12.5 27.5h-10h-14.5h-14.5h-10h-38t-33 -2.5t-34 -6t-42 -11.5q-6 -2 -11 -11t-8.5 -19.5t-6 -20.5t-2.5 -17t-1.5 -25t-3 -38t-3.5 -38.5t-3 -24.5q-7 -12 -20 -21t-28 -9
q-13 0 -17 6t-4 19q0 1 0.5 7t0.5 8q15 136 53 268t94 258q0 1 2.5 4t6 6t6.5 5.5t4 2.5q2 0 3 1h1l1 1q23 0 44.5 -16.5t41.5 -41.5t36 -56.5t28.5 -61.5t20 -56.5t9.5 -41.5q11 -6 22.5 -9.5t22.5 -8t19.5 -11t14.5 -20.5q0 -1 -0.5 -4t-2.5 -6t-3.5 -6t-3.5 -3
q-2 -1 -9.5 -3t-15 -3.5t-15 -2.5t-9.5 -1v-5q0 -46 8 -95.5t21 -93.5q0 -1 1.5 -4t3.5 -6t3 -6.5t2 -3.5v-5q0 -17 -13 -26q0 -7 -5 -19q-7 -14 -18.5 -29.5t-28.5 -28.5q41 -31 60 -52t22 -33.5t-5.5 -16.5t-23.5 -0.5t-33 13.5t-32.5 26t-22 37t-2.5 46zM127 309
q19 0 44.5 2.5t51 6.5t47.5 7.5t32 5.5q-1 6 -6.5 23t-11.5 36t-12 35.5t-9 22.5q-2 4 -8.5 14.5t-15 20.5t-18 17.5t-16.5 7.5q-6 0 -11 -1t-9 -11l-58 -165v-22z" />
    <glyph glyph-name="aogonek" unicode="&#x105;" horiz-adv-x="509" 
d="M303 -14q24 27 42 42q-14 7 -25 14q-13 7 -23 7q-16 0 -33.5 -4.5t-34.5 -10.5t-35.5 -10.5t-37.5 -4.5q-29 0 -56 9t-47.5 27t-32.5 43.5t-12 57.5q0 28 17.5 52t43.5 40t56 25t54 9q11 0 27.5 -1.5t36 -5t39.5 -9t36.5 -14.5t28 -20.5t13.5 -26.5q0 -5 -2 -17.5
t-3 -26.5t-2.5 -26.5t-2.5 -18.5v-6q0 -22 10 -33t24.5 -15.5t30.5 -4.5h32q15 0 19 0.5t5.5 0.5t5 0.5t19.5 0.5q13 0 20 -5t7 -21q0 -17 -11 -24t-26 -9.5t-30 -1.5t-23 1q-23 0 -44 8q-5 1 -9 4q-5 -8 -11 -15q-12 -16 -28 -29q41 -32 60 -52.5t22.5 -33.5t-5.5 -16.5
t-24.5 -0.5t-33 13.5t-32 26t-22.5 37t-3 45.5zM67 146q0 -24 10.5 -38.5t26 -21t34.5 -8t37 -1.5q7 0 23.5 1t34.5 4.5t32.5 9.5t16.5 15l20 78q2 8 -4 14t-16.5 10t-23 7t-24.5 5t-21.5 3t-11.5 1q-18 0 -41.5 -3.5t-44 -12t-34.5 -23.5t-14 -40z" />
    <glyph glyph-name="Cacute" unicode="&#x106;" horiz-adv-x="526" 
d="M8 200q0 39 20 69t51 52.5t71 37.5t80 24t77.5 12.5t64.5 3.5q11 0 20 -8t9 -20q0 -11 -2.5 -19.5t-9.5 -20.5q-21 3 -53 3t-66.5 -4t-68.5 -13.5t-62 -26t-45 -39.5t-17 -56q0 -30 10 -51.5t27 -37t39 -25t46.5 -15t49.5 -7.5t48 -2q26 0 51.5 1t49.5 4t49 8.5t49 17.5
q11 -3 11.5 -10.5t0.5 -15.5q0 -19 -12.5 -31t-33 -19t-45.5 -10t-49 -3.5t-44.5 0t-31.5 0.5q-30 0 -63.5 4.5t-64.5 13.5t-59.5 24.5t-49.5 37.5t-34 52t-13 69zM107 449q0 13 8.5 21t19.5 13q38 12 63 17t46.5 9.5t46 13.5t60.5 29l7 7l7 7h2l0.5 0.5t1.5 0.5
q9 0 12.5 -8.5t3.5 -15.5q0 -13 -11.5 -22.5t-22.5 -14.5q-17 -8 -24.5 -11.5t-13.5 -6.5q-7 -2 -20.5 -7t-32 -11t-39.5 -12t-42 -9.5t-39.5 -4t-32.5 4.5z" />
    <glyph glyph-name="cacute" unicode="&#x107;" horiz-adv-x="457" 
d="M8 154q0 43 23 70.5t56.5 42.5t73 20.5t73.5 5.5h12q7 0 16.5 -0.5t17.5 -0.5h12q20 -3 26 -11.5t6 -21.5q0 -16 -10.5 -26t-26.5 -10q-10 0 -13.5 3.5t-6 7.5t-6.5 7.5t-15 3.5q-15 0 -34 -2t-39 -6t-39 -11t-34 -18t-24 -26.5t-9 -37.5q0 -18 10.5 -32.5t27.5 -25.5
t38.5 -18.5t42.5 -11.5t40.5 -6t31.5 -2q28 0 52 8.5t47.5 18.5t46.5 18t47 8q0 -36 -20.5 -57t-51.5 -31t-66 -12t-64 -2q-24 0 -51.5 2.5t-54.5 9t-51 17.5t-42.5 28.5t-30 41.5t-11.5 56zM57 331q0 13 8.5 21t19.5 13q38 12 63 17t46.5 9.5t46 13.5t60.5 29l7 7l7 7h2
l0.5 0.5t1.5 0.5q9 0 12.5 -8.5t3.5 -15.5q0 -13 -11.5 -22.5t-22.5 -14.5q-17 -8 -24.5 -11.5t-13.5 -6.5q-7 -2 -20.5 -7t-32 -11t-39.5 -12t-42 -9.5t-39.5 -4t-32.5 4.5z" />
    <glyph glyph-name="Ccircumflex" unicode="&#x108;" horiz-adv-x="526" 
d="M8 200q0 39 20 69t51 52.5t71 37.5t80 24t77.5 12.5t64.5 3.5q11 0 20 -8t9 -20q0 -11 -2.5 -19.5t-9.5 -20.5q-21 3 -53 3t-66.5 -4t-68.5 -13.5t-62 -26t-45 -39.5t-17 -56q0 -30 10 -51.5t27 -37t39 -25t46.5 -15t49.5 -7.5t48 -2q26 0 51.5 1t49.5 4t49 8.5t49 17.5
q11 -3 11.5 -10.5t0.5 -15.5q0 -19 -12.5 -31t-33 -19t-45.5 -10t-49 -3.5t-44.5 0t-31.5 0.5q-30 0 -63.5 4.5t-64.5 13.5t-59.5 24.5t-49.5 37.5t-34 52t-13 69zM107 457q0 17 6 42t15.5 52t23.5 54t30.5 48.5t35.5 34.5t39 13q6 0 13 0.5t14 -1.5t12 -5.5t8 -13.5
q5 -29 14.5 -58.5t23 -58t28.5 -55.5t31 -52q-10 -15 -17 -23t-21 -8q-13 0 -25 15t-22 36.5t-19.5 47t-17.5 48t-15.5 37t-13.5 14.5q-18 0 -28.5 -15t-17 -38t-12 -50t-12.5 -50t-19.5 -38t-32.5 -15q-5 0 -8.5 5t-6.5 11.5t-4.5 13t-1.5 9.5z" />
    <glyph glyph-name="ccircumflex" unicode="&#x109;" horiz-adv-x="457" 
d="M8 154q0 43 23 70.5t56.5 42.5t73 20.5t73.5 5.5h12q7 0 16.5 -0.5t17.5 -0.5h12q20 -3 26 -11.5t6 -21.5q0 -16 -10.5 -26t-26.5 -10q-10 0 -13.5 3.5t-6 7.5t-6.5 7.5t-15 3.5q-15 0 -34 -2t-39 -6t-39 -11t-34 -18t-24 -26.5t-9 -37.5q0 -18 10.5 -32.5t27.5 -25.5
t38.5 -18.5t42.5 -11.5t40.5 -6t31.5 -2q28 0 52 8.5t47.5 18.5t46.5 18t47 8q0 -36 -20.5 -57t-51.5 -31t-66 -12t-64 -2q-24 0 -51.5 2.5t-54.5 9t-51 17.5t-42.5 28.5t-30 41.5t-11.5 56zM60 395q0 17 6 42t15.5 52t23.5 54t30.5 48.5t35.5 34.5t39 13q6 0 13 0.5
t14 -1.5t12 -5.5t8 -13.5q5 -29 14.5 -58.5t23 -58t28.5 -55.5t31 -52q-10 -15 -17 -23t-21 -8q-13 0 -25 15t-22 36.5t-19.5 47t-17.5 48t-15.5 37t-13.5 14.5q-18 0 -28.5 -15t-17 -38t-12 -50t-12.5 -50t-19.5 -38t-32.5 -15q-5 0 -8.5 5t-6.5 11.5t-4.5 13t-1.5 9.5z
" />
    <glyph glyph-name="Cdotaccent" unicode="&#x10a;" horiz-adv-x="526" 
d="M8 200q0 39 20 69t51 52.5t71 37.5t80 24t77.5 12.5t64.5 3.5q11 0 20 -8t9 -20q0 -11 -2.5 -19.5t-9.5 -20.5q-21 3 -53 3t-66.5 -4t-68.5 -13.5t-62 -26t-45 -39.5t-17 -56q0 -30 10 -51.5t27 -37t39 -25t46.5 -15t49.5 -7.5t48 -2q26 0 51.5 1t49.5 4t49 8.5t49 17.5
q11 -3 11.5 -10.5t0.5 -15.5q0 -19 -12.5 -31t-33 -19t-45.5 -10t-49 -3.5t-44.5 0t-31.5 0.5q-30 0 -63.5 4.5t-64.5 13.5t-59.5 24.5t-49.5 37.5t-34 52t-13 69zM187 491q0 10 8 16.5t19 10t21.5 4.5t16.5 1q8 0 15.5 -6t13.5 -14.5t9.5 -19t3.5 -17.5q0 -11 -1.5 -22.5
t-14.5 -16.5q-2 0 -10 -0.5t-11 -0.5q-13 0 -25 3.5t-22.5 11t-16.5 20t-6 30.5z" />
    <glyph glyph-name="cdotaccent" unicode="&#x10b;" horiz-adv-x="457" 
d="M8 154q0 43 23 70.5t56.5 42.5t73 20.5t73.5 5.5h12q7 0 16.5 -0.5t17.5 -0.5h12q20 -3 26 -11.5t6 -21.5q0 -16 -10.5 -26t-26.5 -10q-10 0 -13.5 3.5t-6 7.5t-6.5 7.5t-15 3.5q-15 0 -34 -2t-39 -6t-39 -11t-34 -18t-24 -26.5t-9 -37.5q0 -18 10.5 -32.5t27.5 -25.5
t38.5 -18.5t42.5 -11.5t40.5 -6t31.5 -2q28 0 52 8.5t47.5 18.5t46.5 18t47 8q0 -36 -20.5 -57t-51.5 -31t-66 -12t-64 -2q-24 0 -51.5 2.5t-54.5 9t-51 17.5t-42.5 28.5t-30 41.5t-11.5 56zM132 404q0 10 8 16.5t19 10t21.5 4.5t16.5 1q8 0 15.5 -6t13.5 -14.5t9.5 -19
t3.5 -17.5q0 -11 -1.5 -22.5t-14.5 -16.5q-2 0 -10 -0.5t-11 -0.5q-13 0 -25 3.5t-22.5 11t-16.5 20t-6 30.5z" />
    <glyph glyph-name="Ccaron" unicode="&#x10c;" horiz-adv-x="526" 
d="M8 200q0 39 20 69t51 52.5t71 37.5t80 24t77.5 12.5t64.5 3.5q11 0 20 -8t9 -20q0 -11 -2.5 -19.5t-9.5 -20.5q-21 3 -53 3t-66.5 -4t-68.5 -13.5t-62 -26t-45 -39.5t-17 -56q0 -30 10 -51.5t27 -37t39 -25t46.5 -15t49.5 -7.5t48 -2q26 0 51.5 1t49.5 4t49 8.5t49 17.5
q11 -3 11.5 -10.5t0.5 -15.5q0 -19 -12.5 -31t-33 -19t-45.5 -10t-49 -3.5t-44.5 0t-31.5 0.5q-30 0 -63.5 4.5t-64.5 13.5t-59.5 24.5t-49.5 37.5t-34 52t-13 69zM102 589q0 4 4.5 12.5t12.5 8.5q20 0 30.5 -8t17.5 -20.5t11.5 -26.5t10.5 -26.5t15.5 -20.5t25.5 -8
q6 0 13 7.5t14 19.5t15 25.5t18 25.5t20.5 20t23.5 8q12 0 18.5 -4t15.5 -13q-29 -27 -54 -57t-34 -62q-2 -6 -7.5 -8t-11.5 -2.5t-12.5 -0.5h-11.5q-28 0 -52.5 15t-43 36.5t-29 43t-10.5 35.5z" />
    <glyph glyph-name="ccaron" unicode="&#x10d;" horiz-adv-x="457" 
d="M8 154q0 43 23 70.5t56.5 42.5t73 20.5t73.5 5.5h12q7 0 16.5 -0.5t17.5 -0.5h12q20 -3 26 -11.5t6 -21.5q0 -16 -10.5 -26t-26.5 -10q-10 0 -13.5 3.5t-6 7.5t-6.5 7.5t-15 3.5q-15 0 -34 -2t-39 -6t-39 -11t-34 -18t-24 -26.5t-9 -37.5q0 -18 10.5 -32.5t27.5 -25.5
t38.5 -18.5t42.5 -11.5t40.5 -6t31.5 -2q28 0 52 8.5t47.5 18.5t46.5 18t47 8q0 -36 -20.5 -57t-51.5 -31t-66 -12t-64 -2q-24 0 -51.5 2.5t-54.5 9t-51 17.5t-42.5 28.5t-30 41.5t-11.5 56zM83 510q0 4 4.5 12.5t12.5 8.5q20 0 30.5 -8t17.5 -20.5t11.5 -26.5t10.5 -26.5
t15.5 -20.5t25.5 -8q6 0 13 7.5t14 19.5t15 25.5t18 25.5t20.5 20t23.5 8q12 0 18.5 -4t15.5 -13q-29 -27 -54 -57t-34 -62q-2 -6 -7.5 -8t-11.5 -2.5t-12.5 -0.5h-11.5q-28 0 -52.5 15t-43 36.5t-29 43t-10.5 35.5z" />
    <glyph glyph-name="Dcaron" unicode="&#x10e;" horiz-adv-x="439" 
d="M20 148v64.5t3 67.5t8.5 66t17.5 63q-12 -4 -18 -2t-9 7t-3.5 11.5t-0.5 11.5q0 13 4 19t11 8.5t16.5 3t19.5 0.5q36 0 75.5 -6t78.5 -18.5t74 -32t62.5 -47t43.5 -61.5t16 -78q0 -53 -21 -95t-56.5 -70.5t-82.5 -44.5t-97 -16q-32 0 -58.5 11t-45.5 30.5t-28.5 47.5
t-9.5 60zM88 88q7 -12 20 -18t27 -9t28.5 -3.5t26.5 -0.5q34 0 65.5 12.5t55.5 34.5t37.5 52.5t13.5 65.5q0 28 -12 52.5t-31.5 45.5t-45 37.5t-53.5 28t-56 17.5t-54 6h-3q-15 -15 -21.5 -40.5t-8 -54t-0.5 -56t1 -44.5v-19q0 -6 1.5 -21.5t2.5 -33t3 -32.5t3 -20zM88 722
q0 4 4.5 12.5t12.5 8.5q20 0 30.5 -8t17.5 -20.5t11.5 -26.5t10.5 -26.5t15.5 -20.5t25.5 -8q6 0 13 7.5t14 19.5t15 25.5t18 25.5t20.5 20t23.5 8q12 0 18.5 -4t15.5 -13q-29 -27 -54 -57t-34 -62q-2 -6 -7.5 -8t-11.5 -2.5t-12.5 -0.5h-11.5q-28 0 -52.5 15t-43 36.5
t-29 43t-10.5 35.5z" />
    <glyph glyph-name="Emacron" unicode="&#x112;" 
d="M8 140q0 55 7 115.5t14 115.5q2 19 20 32.5t45 22.5t59.5 14t64 7t59.5 2.5t45 0.5h17t24 0.5t27 -0.5t24.5 -4.5t17.5 -10.5t7 -18q0 -7 -3.5 -12.5t-16.5 -5.5q-84 10 -168 -2.5t-163 -36.5v-10v-28v-10t-2 -7.5t-3.5 -12t-3.5 -12.5t-2 -7q0 -2 4 -5.5t7 -4.5h10
q5 0 23 1.5t42 4t51 4.5t51 4t42.5 3t23.5 2h4q4 0 8.5 0.5t7.5 0.5h7q18 0 25.5 -3.5t7.5 -22.5q0 -16 -14 -22.5t-36.5 -9t-51.5 -2t-59 1t-59.5 -1.5t-52 -9t-36 -22t-13.5 -41q0 -35 13 -56t35 -32.5t50 -15.5t57.5 -3.5t59.5 2.5t56 2q24 0 43.5 5.5t40.5 5.5
q6 0 9.5 -3.5t4.5 -8.5t1 -10v-9q0 -12 -2 -20t-18 -8h-283q-33 0 -57.5 10.5t-39.5 29.5t-23 44.5t-8 55.5zM71 557q0 16 14.5 25t37.5 13.5t51.5 5t55.5 -1t51 -3t37 -1.5q18 0 32.5 -1t25 -6.5t15.5 -16.5t5 -31q-49 0 -85 -0.5t-69.5 -1t-69 -1t-81.5 -0.5q-20 0 -20 20
z" />
    <glyph glyph-name="emacron" unicode="&#x113;" horiz-adv-x="487" 
d="M19 176q0 34 19 66t48.5 56t65 38t67.5 14q26 0 51.5 -6.5t45.5 -20.5t32.5 -34.5t12.5 -48.5q0 -13 -1.5 -20.5t-6.5 -13t-12.5 -10t-18.5 -11.5q-6 -1 -18 -4.5t-27.5 -7.5t-32.5 -8t-32.5 -8t-27.5 -7t-18 -4q-3 -1 -13 -2t-21.5 -2.5t-21.5 -3t-12 -2.5
q-3 -1 -6.5 -4.5t-3.5 -4.5q0 -20 11 -33.5t28 -22.5t38.5 -13.5t42.5 -7t39 -2.5h29q50 0 98 5.5t98 5.5v-8q0 -6 -1.5 -12.5t-4.5 -12t-8 -6.5q-38 -8 -67.5 -12.5t-55.5 -6t-54 -2t-62 -0.5h-17q-11 0 -24 0.5t-25 0.5h-17q-31 8 -53.5 25.5t-36.5 41.5t-20.5 52t-6.5 57
zM243 294q-13 0 -29.5 -2.5t-34 -8t-34.5 -14t-30 -20t-21.5 -25.5t-8.5 -31h41q22 0 45 2t45 6.5t38.5 14t27 24.5t10.5 37v5l-10 10q-2 0 -7.5 0.5t-11.5 1t-11.5 0.5h-8.5zM77 443q0 16 14.5 25t37.5 13.5t51.5 5t55.5 -1t51 -3t37 -1.5q18 0 32.5 -1t25 -6.5t15.5 -16.5
t5 -31q-49 0 -85 -0.5t-69.5 -1t-69 -1t-81.5 -0.5q-20 0 -20 20z" />
    <glyph glyph-name="Ebreve" unicode="&#x114;" 
d="M8 140q0 55 7 115.5t14 115.5q2 19 20 32.5t45 22.5t59.5 14t64 7t59.5 2.5t45 0.5h17t24 0.5t27 -0.5t24.5 -4.5t17.5 -10.5t7 -18q0 -7 -3.5 -12.5t-16.5 -5.5q-84 10 -168 -2.5t-163 -36.5v-10v-28v-10t-2 -7.5t-3.5 -12t-3.5 -12.5t-2 -7q0 -2 4 -5.5t7 -4.5h10
q5 0 23 1.5t42 4t51 4.5t51 4t42.5 3t23.5 2h4q4 0 8.5 0.5t7.5 0.5h7q18 0 25.5 -3.5t7.5 -22.5q0 -16 -14 -22.5t-36.5 -9t-51.5 -2t-59 1t-59.5 -1.5t-52 -9t-36 -22t-13.5 -41q0 -35 13 -56t35 -32.5t50 -15.5t57.5 -3.5t59.5 2.5t56 2q24 0 43.5 5.5t40.5 5.5
q6 0 9.5 -3.5t4.5 -8.5t1 -10v-9q0 -12 -2 -20t-18 -8h-283q-33 0 -57.5 10.5t-39.5 29.5t-23 44.5t-8 55.5zM122 574q0 4 4.5 12t14.5 8q16 -25 33 -40.5t35 -17.5t39 11t46 45q12 0 18.5 -4t15.5 -12q-14 -29 -33 -48.5t-41 -28.5t-43 -8.5t-39.5 10t-32 28t-17.5 45.5z
" />
    <glyph glyph-name="ebreve" unicode="&#x115;" horiz-adv-x="487" 
d="M19 176q0 34 19 66t48.5 56t65 38t67.5 14q26 0 51.5 -6.5t45.5 -20.5t32.5 -34.5t12.5 -48.5q0 -13 -1.5 -20.5t-6.5 -13t-12.5 -10t-18.5 -11.5q-6 -1 -18 -4.5t-27.5 -7.5t-32.5 -8t-32.5 -8t-27.5 -7t-18 -4q-3 -1 -13 -2t-21.5 -2.5t-21.5 -3t-12 -2.5
q-3 -1 -6.5 -4.5t-3.5 -4.5q0 -20 11 -33.5t28 -22.5t38.5 -13.5t42.5 -7t39 -2.5h29q50 0 98 5.5t98 5.5v-8q0 -6 -1.5 -12.5t-4.5 -12t-8 -6.5q-38 -8 -67.5 -12.5t-55.5 -6t-54 -2t-62 -0.5h-17q-11 0 -24 0.5t-25 0.5h-17q-31 8 -53.5 25.5t-36.5 41.5t-20.5 52t-6.5 57
zM243 294q-13 0 -29.5 -2.5t-34 -8t-34.5 -14t-30 -20t-21.5 -25.5t-8.5 -31h41q22 0 45 2t45 6.5t38.5 14t27 24.5t10.5 37v5l-10 10q-2 0 -7.5 0.5t-11.5 1t-11.5 0.5h-8.5zM99 469q0 4 4.5 12t14.5 8q16 -25 33 -40.5t35 -17.5t39 11t46 45q12 0 18.5 -4t15.5 -12
q-14 -29 -33 -48.5t-41 -28.5t-43 -8.5t-39.5 10t-32 28t-17.5 45.5z" />
    <glyph glyph-name="Edotaccent" unicode="&#x116;" 
d="M8 140q0 55 7 115.5t14 115.5q2 19 20 32.5t45 22.5t59.5 14t64 7t59.5 2.5t45 0.5h17t24 0.5t27 -0.5t24.5 -4.5t17.5 -10.5t7 -18q0 -7 -3.5 -12.5t-16.5 -5.5q-84 10 -168 -2.5t-163 -36.5v-10v-28v-10t-2 -7.5t-3.5 -12t-3.5 -12.5t-2 -7q0 -2 4 -5.5t7 -4.5h10
q5 0 23 1.5t42 4t51 4.5t51 4t42.5 3t23.5 2h4q4 0 8.5 0.5t7.5 0.5h7q18 0 25.5 -3.5t7.5 -22.5q0 -16 -14 -22.5t-36.5 -9t-51.5 -2t-59 1t-59.5 -1.5t-52 -9t-36 -22t-13.5 -41q0 -35 13 -56t35 -32.5t50 -15.5t57.5 -3.5t59.5 2.5t56 2q24 0 43.5 5.5t40.5 5.5
q6 0 9.5 -3.5t4.5 -8.5t1 -10v-9q0 -12 -2 -20t-18 -8h-283q-33 0 -57.5 10.5t-39.5 29.5t-23 44.5t-8 55.5zM176 575q0 10 8 16.5t19 10t21.5 4.5t16.5 1q8 0 15.5 -6t13.5 -14.5t9.5 -19t3.5 -17.5q0 -11 -1.5 -22.5t-14.5 -16.5q-2 0 -10 -0.5t-11 -0.5q-13 0 -25 3.5
t-22.5 11t-16.5 20t-6 30.5z" />
    <glyph glyph-name="edotaccent" unicode="&#x117;" horiz-adv-x="487" 
d="M19 176q0 34 19 66t48.5 56t65 38t67.5 14q26 0 51.5 -6.5t45.5 -20.5t32.5 -34.5t12.5 -48.5q0 -13 -1.5 -20.5t-6.5 -13t-12.5 -10t-18.5 -11.5q-6 -1 -18 -4.5t-27.5 -7.5t-32.5 -8t-32.5 -8t-27.5 -7t-18 -4q-3 -1 -13 -2t-21.5 -2.5t-21.5 -3t-12 -2.5
q-3 -1 -6.5 -4.5t-3.5 -4.5q0 -20 11 -33.5t28 -22.5t38.5 -13.5t42.5 -7t39 -2.5h29q50 0 98 5.5t98 5.5v-8q0 -6 -1.5 -12.5t-4.5 -12t-8 -6.5q-38 -8 -67.5 -12.5t-55.5 -6t-54 -2t-62 -0.5h-17q-11 0 -24 0.5t-25 0.5h-17q-31 8 -53.5 25.5t-36.5 41.5t-20.5 52t-6.5 57
zM243 294q-13 0 -29.5 -2.5t-34 -8t-34.5 -14t-30 -20t-21.5 -25.5t-8.5 -31h41q22 0 45 2t45 6.5t38.5 14t27 24.5t10.5 37v5l-10 10q-2 0 -7.5 0.5t-11.5 1t-11.5 0.5h-8.5zM188 493q0 10 8 16.5t19 10t21.5 4.5t16.5 1q8 0 15.5 -6t13.5 -14.5t9.5 -19t3.5 -17.5
q0 -11 -1.5 -22.5t-14.5 -16.5q-2 0 -10 -0.5t-11 -0.5q-13 0 -25 3.5t-22.5 11t-16.5 20t-6 30.5z" />
    <glyph glyph-name="Eogonek" unicode="&#x118;" 
d="M177 -49q31 34 51 49h-92q-33 0 -57.5 10.5t-39.5 29.5t-23 44.5t-8 55.5q0 55 7 115.5t14 115.5q2 19 20 32.5t45 22.5t59.5 14t64 7t59.5 2.5t45 0.5h17t24 0.5t27 -0.5t24.5 -4.5t17.5 -10.5t7 -18q0 -7 -3.5 -12.5t-16.5 -5.5q-84 10 -168 -2.5t-163 -36.5v-10v-28
v-10t-2 -7.5t-3.5 -12t-3.5 -12.5t-2 -7q0 -2 4 -5.5t7 -4.5h10q5 0 23 1.5t42 4t51 4.5t51 4t42.5 3t23.5 2h4q4 0 8.5 0.5t7.5 0.5h7q18 0 25.5 -3.5t7.5 -22.5q0 -16 -14 -22.5t-36.5 -9t-51.5 -2t-59 1t-59.5 -1.5t-52 -9t-36 -22t-13.5 -41q0 -35 13 -56t35 -32.5
t50 -15.5t57.5 -3.5t59.5 2.5t56 2q24 0 43.5 5.5t40.5 5.5q6 0 9.5 -3.5t4.5 -8.5t1 -10v-9q0 -12 -2 -20t-18 -8h-154q-2 -4 -4 -11q-6 -14 -18.5 -29.5t-27.5 -28.5q41 -31 60 -52t22 -33.5t-6 -16.5t-24 -0.5t-32.5 13.5t-32.5 26t-22.5 37t-2.5 46z" />
    <glyph glyph-name="eogonek" unicode="&#x119;" horiz-adv-x="487" 
d="M156 -35q19 21 34 35h-54q-31 8 -53.5 25.5t-36.5 41.5t-20.5 52t-6.5 57q0 34 19 66t48.5 56t65 38t67.5 14q26 0 51.5 -6.5t45.5 -20.5t32.5 -34.5t12.5 -48.5q0 -13 -1.5 -20.5t-6.5 -13t-12.5 -10t-18.5 -11.5q-6 -1 -18 -4.5t-27.5 -7.5t-32.5 -8t-32.5 -8t-27.5 -7
t-18 -4q-3 -1 -13 -2t-21.5 -2.5t-21.5 -3t-12 -2.5q-3 -1 -6.5 -4.5t-3.5 -4.5q0 -20 11 -33.5t28 -22.5t38.5 -13.5t42.5 -7t39 -2.5h29q50 0 98 5.5t98 5.5v-8q0 -6 -1.5 -12.5t-4.5 -12t-8 -6.5q-38 -8 -67.5 -12.5t-55.5 -6t-54 -1.5q-20 -1 -43 -1q-6 -11 -16 -25
q-12 -17 -28 -29q41 -31 60 -52t22 -33.5t-6 -16.5t-24 -1t-33 13.5t-32 26.5t-22 37t-3 46zM243 294q-13 0 -29.5 -2.5t-34 -8t-34.5 -14t-30 -20t-21.5 -25.5t-8.5 -31h41q22 0 45 2t45 6.5t38.5 14t27 24.5t10.5 37v5l-10 10q-2 0 -7.5 0.5t-11.5 1t-11.5 0.5h-8.5z" />
    <glyph glyph-name="Ecaron" unicode="&#x11a;" 
d="M8 140q0 55 7 115.5t14 115.5q2 19 20 32.5t45 22.5t59.5 14t64 7t59.5 2.5t45 0.5h17t24 0.5t27 -0.5t24.5 -4.5t17.5 -10.5t7 -18q0 -7 -3.5 -12.5t-16.5 -5.5q-84 10 -168 -2.5t-163 -36.5v-10v-28v-10t-2 -7.5t-3.5 -12t-3.5 -12.5t-2 -7q0 -2 4 -5.5t7 -4.5h10
q5 0 23 1.5t42 4t51 4.5t51 4t42.5 3t23.5 2h4q4 0 8.5 0.5t7.5 0.5h7q18 0 25.5 -3.5t7.5 -22.5q0 -16 -14 -22.5t-36.5 -9t-51.5 -2t-59 1t-59.5 -1.5t-52 -9t-36 -22t-13.5 -41q0 -35 13 -56t35 -32.5t50 -15.5t57.5 -3.5t59.5 2.5t56 2q24 0 43.5 5.5t40.5 5.5
q6 0 9.5 -3.5t4.5 -8.5t1 -10v-9q0 -12 -2 -20t-18 -8h-283q-33 0 -57.5 10.5t-39.5 29.5t-23 44.5t-8 55.5zM93 617q0 4 4.5 12.5t12.5 8.5q20 0 30.5 -8t17.5 -20.5t11.5 -26.5t10.5 -26.5t15.5 -20.5t25.5 -8q6 0 13 7.5t14 19.5t15 25.5t18 25.5t20.5 20t23.5 8
q12 0 18.5 -4t15.5 -13q-29 -27 -54 -57t-34 -62q-2 -6 -7.5 -8t-11.5 -2.5t-12.5 -0.5h-11.5q-28 0 -52.5 15t-43 36.5t-29 43t-10.5 35.5z" />
    <glyph glyph-name="ecaron" unicode="&#x11b;" horiz-adv-x="487" 
d="M19 176q0 34 19 66t48.5 56t65 38t67.5 14q26 0 51.5 -6.5t45.5 -20.5t32.5 -34.5t12.5 -48.5q0 -13 -1.5 -20.5t-6.5 -13t-12.5 -10t-18.5 -11.5q-6 -1 -18 -4.5t-27.5 -7.5t-32.5 -8t-32.5 -8t-27.5 -7t-18 -4q-3 -1 -13 -2t-21.5 -2.5t-21.5 -3t-12 -2.5
q-3 -1 -6.5 -4.5t-3.5 -4.5q0 -20 11 -33.5t28 -22.5t38.5 -13.5t42.5 -7t39 -2.5h29q50 0 98 5.5t98 5.5v-8q0 -6 -1.5 -12.5t-4.5 -12t-8 -6.5q-38 -8 -67.5 -12.5t-55.5 -6t-54 -2t-62 -0.5h-17q-11 0 -24 0.5t-25 0.5h-17q-31 8 -53.5 25.5t-36.5 41.5t-20.5 52t-6.5 57
zM243 294q-13 0 -29.5 -2.5t-34 -8t-34.5 -14t-30 -20t-21.5 -25.5t-8.5 -31h41q22 0 45 2t45 6.5t38.5 14t27 24.5t10.5 37v5l-10 10q-2 0 -7.5 0.5t-11.5 1t-11.5 0.5h-8.5zM87 549q0 4 4.5 12.5t12.5 8.5q20 0 30.5 -8t17.5 -20.5t11.5 -26.5t10.5 -26.5t15.5 -20.5
t25.5 -8q6 0 13 7.5t14 19.5t15 25.5t18 25.5t20.5 20t23.5 8q12 0 18.5 -4t15.5 -13q-29 -27 -54 -57t-34 -62q-2 -6 -7.5 -8t-11.5 -2.5t-12.5 -0.5h-11.5q-28 0 -52.5 15t-43 36.5t-29 43t-10.5 35.5z" />
    <glyph glyph-name="Gcircumflex" unicode="&#x11c;" horiz-adv-x="536" 
d="M439 29q-35 -13 -59.5 -21t-45 -12t-41.5 -5t-50 -1q-43 0 -85 12t-75.5 36.5t-54 62.5t-20.5 89q0 41 19.5 74t51 57t71.5 41.5t82 27.5t82 15t71 5h9q5 0 12.5 -0.5t13.5 -0.5h9q1 0 4 -2.5t6 -6t5.5 -6.5t3.5 -5q0 -1 1 -1v-2l1 -1q0 -1 -0.5 -1.5t-0.5 -1.5
q-1 -1 -1 -2q-1 -2 -3.5 -5t-5.5 -6.5t-6 -6t-4 -2.5q-25 -1 -61 -4t-75 -10.5t-77.5 -19t-69 -29.5t-50 -43.5t-19.5 -61.5q0 -31 11.5 -57.5t31 -47t46.5 -33t58 -15.5q21 -2 49.5 0.5t57.5 9t54.5 16.5t43.5 23q5 5 10.5 13.5t11.5 16.5t12.5 14.5t14.5 6.5q13 0 21 -9
t17 -23v-4q0 -35 -1 -62.5t-2.5 -52t-3 -47.5t-2.5 -48.5t-1 -56.5t1 -70q-3 -6 -10 -9.5t-15 -6t-15 -3t-9 -0.5q-4 0 -11.5 3t-7.5 6v273zM142 463q0 17 6 42t15.5 52t23.5 54t30.5 48.5t35.5 34.5t39 13q6 0 13 0.5t14 -1.5t12 -5.5t8 -13.5q5 -29 14.5 -58.5t23 -58
t28.5 -55.5t31 -52q-10 -15 -17 -23t-21 -8q-13 0 -25 15t-22 36.5t-19.5 47t-17.5 48t-15.5 37t-13.5 14.5q-18 0 -28.5 -15t-17 -38t-12 -50t-12.5 -50t-19.5 -38t-32.5 -15q-5 0 -8.5 5t-6.5 11.5t-4.5 13t-1.5 9.5z" />
    <glyph glyph-name="gcircumflex" unicode="&#x11d;" horiz-adv-x="429" 
d="M17 -242q12 0 22.5 -11.5t20.5 -26.5t19 -30.5t19 -21.5q21 -17 47.5 -28t54.5 -17.5t56.5 -10t55.5 -3.5q2 0 7.5 0.5t11.5 0.5t11.5 0.5t7.5 0.5q15 7 23.5 18.5t12 25t4.5 28.5t1 30q0 11 -1.5 37.5t-4.5 62t-7.5 74.5t-12 74t-18.5 61t-25 36q-10 -11 -20 -21.5
t-22.5 -18.5t-25.5 -13t-29 -5q-32 0 -68 7t-67 24t-51 43.5t-20 66.5q0 37 20 62.5t49.5 41t64.5 22.5t66 7q10 0 24.5 -0.5t29.5 -2.5t28 -6t21 -12q1 -2 2.5 -10.5t3 -18.5t2.5 -19t1 -10q4 -18 11.5 -34.5t16.5 -34t17 -34.5t13 -34q27 -86 44 -171t17 -175
q0 -4 -0.5 -14.5t-0.5 -22t-0.5 -22t-0.5 -14.5q-1 -26 -16 -43.5t-36.5 -27t-46 -14t-43.5 -4.5q-32 0 -66.5 5.5t-66.5 16.5t-60.5 27.5t-49.5 39.5t-33.5 52t-12.5 67zM77 135q0 -20 12 -35t30 -24.5t38 -14t35 -4.5q57 0 79 28.5t22 83.5q0 16 -6 25.5t-16 13.5t-23 5.5
t-26 1.5q-18 0 -43 -3.5t-47.5 -12.5t-38.5 -24.5t-16 -39.5zM67 362q0 17 6 42t15.5 52t23.5 54t30.5 48.5t35.5 34.5t39 13q6 0 13 0.5t14 -1.5t12 -5.5t8 -13.5q5 -29 14.5 -58.5t23 -58t28.5 -55.5t31 -52q-10 -15 -17 -23t-21 -8q-13 0 -25 15t-22 36.5t-19.5 47
t-17.5 48t-15.5 37t-13.5 14.5q-18 0 -28.5 -15t-17 -38t-12 -50t-12.5 -50t-19.5 -38t-32.5 -15q-5 0 -8.5 5t-6.5 11.5t-4.5 13t-1.5 9.5z" />
    <glyph glyph-name="Gbreve" unicode="&#x11e;" horiz-adv-x="536" 
d="M439 29q-35 -13 -59.5 -21t-45 -12t-41.5 -5t-50 -1q-43 0 -85 12t-75.5 36.5t-54 62.5t-20.5 89q0 41 19.5 74t51 57t71.5 41.5t82 27.5t82 15t71 5h9q5 0 12.5 -0.5t13.5 -0.5h9q1 0 4 -2.5t6 -6t5.5 -6.5t3.5 -5q0 -1 1 -1v-2l1 -1q0 -1 -0.5 -1.5t-0.5 -1.5
q-1 -1 -1 -2q-1 -2 -3.5 -5t-5.5 -6.5t-6 -6t-4 -2.5q-25 -1 -61 -4t-75 -10.5t-77.5 -19t-69 -29.5t-50 -43.5t-19.5 -61.5q0 -31 11.5 -57.5t31 -47t46.5 -33t58 -15.5q21 -2 49.5 0.5t57.5 9t54.5 16.5t43.5 23q5 5 10.5 13.5t11.5 16.5t12.5 14.5t14.5 6.5q13 0 21 -9
t17 -23v-4q0 -35 -1 -62.5t-2.5 -52t-3 -47.5t-2.5 -48.5t-1 -56.5t1 -70q-3 -6 -10 -9.5t-15 -6t-15 -3t-9 -0.5q-4 0 -11.5 3t-7.5 6v273zM159 541q0 4 4.5 12t14.5 8q16 -25 33 -40.5t35 -17.5t39 11t46 45q12 0 18.5 -4t15.5 -12q-14 -29 -33 -48.5t-41 -28.5t-43 -8.5
t-39.5 10t-32 28t-17.5 45.5z" />
    <glyph glyph-name="gbreve" unicode="&#x11f;" horiz-adv-x="429" 
d="M17 -242q12 0 22.5 -11.5t20.5 -26.5t19 -30.5t19 -21.5q21 -17 47.5 -28t54.5 -17.5t56.5 -10t55.5 -3.5q2 0 7.5 0.5t11.5 0.5t11.5 0.5t7.5 0.5q15 7 23.5 18.5t12 25t4.5 28.5t1 30q0 11 -1.5 37.5t-4.5 62t-7.5 74.5t-12 74t-18.5 61t-25 36q-10 -11 -20 -21.5
t-22.5 -18.5t-25.5 -13t-29 -5q-32 0 -68 7t-67 24t-51 43.5t-20 66.5q0 37 20 62.5t49.5 41t64.5 22.5t66 7q10 0 24.5 -0.5t29.5 -2.5t28 -6t21 -12q1 -2 2.5 -10.5t3 -18.5t2.5 -19t1 -10q4 -18 11.5 -34.5t16.5 -34t17 -34.5t13 -34q27 -86 44 -171t17 -175
q0 -4 -0.5 -14.5t-0.5 -22t-0.5 -22t-0.5 -14.5q-1 -26 -16 -43.5t-36.5 -27t-46 -14t-43.5 -4.5q-32 0 -66.5 5.5t-66.5 16.5t-60.5 27.5t-49.5 39.5t-33.5 52t-12.5 67zM77 135q0 -20 12 -35t30 -24.5t38 -14t35 -4.5q57 0 79 28.5t22 83.5q0 16 -6 25.5t-16 13.5t-23 5.5
t-26 1.5q-18 0 -43 -3.5t-47.5 -12.5t-38.5 -24.5t-16 -39.5zM81 401q0 4 4.5 12t14.5 8q16 -25 33 -40.5t35 -17.5t39 11t46 45q12 0 18.5 -4t15.5 -12q-14 -29 -33 -48.5t-41 -28.5t-43 -8.5t-39.5 10t-32 28t-17.5 45.5z" />
    <glyph glyph-name="Gdotaccent" unicode="&#x120;" horiz-adv-x="536" 
d="M439 29q-35 -13 -59.5 -21t-45 -12t-41.5 -5t-50 -1q-43 0 -85 12t-75.5 36.5t-54 62.5t-20.5 89q0 41 19.5 74t51 57t71.5 41.5t82 27.5t82 15t71 5h9q5 0 12.5 -0.5t13.5 -0.5h9q1 0 4 -2.5t6 -6t5.5 -6.5t3.5 -5q0 -1 1 -1v-2l1 -1q0 -1 -0.5 -1.5t-0.5 -1.5
q-1 -1 -1 -2q-1 -2 -3.5 -5t-5.5 -6.5t-6 -6t-4 -2.5q-25 -1 -61 -4t-75 -10.5t-77.5 -19t-69 -29.5t-50 -43.5t-19.5 -61.5q0 -31 11.5 -57.5t31 -47t46.5 -33t58 -15.5q21 -2 49.5 0.5t57.5 9t54.5 16.5t43.5 23q5 5 10.5 13.5t11.5 16.5t12.5 14.5t14.5 6.5q13 0 21 -9
t17 -23v-4q0 -35 -1 -62.5t-2.5 -52t-3 -47.5t-2.5 -48.5t-1 -56.5t1 -70q-3 -6 -10 -9.5t-15 -6t-15 -3t-9 -0.5q-4 0 -11.5 3t-7.5 6v273zM213 508q0 10 8 16.5t19 10t21.5 4.5t16.5 1q8 0 15.5 -6t13.5 -14.5t9.5 -19t3.5 -17.5q0 -11 -1.5 -22.5t-14.5 -16.5
q-2 0 -10 -0.5t-11 -0.5q-13 0 -25 3.5t-22.5 11t-16.5 20t-6 30.5z" />
    <glyph glyph-name="gdotaccent" unicode="&#x121;" horiz-adv-x="429" 
d="M17 -242q12 0 22.5 -11.5t20.5 -26.5t19 -30.5t19 -21.5q21 -17 47.5 -28t54.5 -17.5t56.5 -10t55.5 -3.5q2 0 7.5 0.5t11.5 0.5t11.5 0.5t7.5 0.5q15 7 23.5 18.5t12 25t4.5 28.5t1 30q0 11 -1.5 37.5t-4.5 62t-7.5 74.5t-12 74t-18.5 61t-25 36q-10 -11 -20 -21.5
t-22.5 -18.5t-25.5 -13t-29 -5q-32 0 -68 7t-67 24t-51 43.5t-20 66.5q0 37 20 62.5t49.5 41t64.5 22.5t66 7q10 0 24.5 -0.5t29.5 -2.5t28 -6t21 -12q1 -2 2.5 -10.5t3 -18.5t2.5 -19t1 -10q4 -18 11.5 -34.5t16.5 -34t17 -34.5t13 -34q27 -86 44 -171t17 -175
q0 -4 -0.5 -14.5t-0.5 -22t-0.5 -22t-0.5 -14.5q-1 -26 -16 -43.5t-36.5 -27t-46 -14t-43.5 -4.5q-32 0 -66.5 5.5t-66.5 16.5t-60.5 27.5t-49.5 39.5t-33.5 52t-12.5 67zM77 135q0 -20 12 -35t30 -24.5t38 -14t35 -4.5q57 0 79 28.5t22 83.5q0 16 -6 25.5t-16 13.5t-23 5.5
t-26 1.5q-18 0 -43 -3.5t-47.5 -12.5t-38.5 -24.5t-16 -39.5zM145 409q0 10 8 16.5t19 10t21.5 4.5t16.5 1q8 0 15.5 -6t13.5 -14.5t9.5 -19t3.5 -17.5q0 -11 -1.5 -22.5t-14.5 -16.5q-2 0 -10 -0.5t-11 -0.5q-13 0 -25 3.5t-22.5 11t-16.5 20t-6 30.5z" />
    <glyph glyph-name="Gcommaaccent" unicode="&#x122;" horiz-adv-x="536" 
d="M439 29q-35 -13 -59.5 -21t-45 -12t-41.5 -5t-50 -1q-43 0 -85 12t-75.5 36.5t-54 62.5t-20.5 89q0 41 19.5 74t51 57t71.5 41.5t82 27.5t82 15t71 5h9q5 0 12.5 -0.5t13.5 -0.5h9q1 0 4 -2.5t6 -6t5.5 -6.5t3.5 -5q0 -1 1 -1v-2l1 -1q0 -1 -0.5 -1.5t-0.5 -1.5
q-1 -1 -1 -2q-1 -2 -3.5 -5t-5.5 -6.5t-6 -6t-4 -2.5q-25 -1 -61 -4t-75 -10.5t-77.5 -19t-69 -29.5t-50 -43.5t-19.5 -61.5q0 -31 11.5 -57.5t31 -47t46.5 -33t58 -15.5q21 -2 49.5 0.5t57.5 9t54.5 16.5t43.5 23q5 5 10.5 13.5t11.5 16.5t12.5 14.5t14.5 6.5q13 0 21 -9
t17 -23v-4q0 -35 -1 -62.5t-2.5 -52t-3 -47.5t-2.5 -48.5t-1 -56.5t1 -70q-3 -6 -10 -9.5t-15 -6t-15 -3t-9 -0.5q-4 0 -11.5 3t-7.5 6v273zM242 -262q13 15 20.5 25.5t12.5 21t6.5 23t1.5 30.5h-1.5h-2.5q-1 0 -6.5 -1t-12 -2.5t-12 -2.5t-6.5 -1h-5q-7 0 -14.5 4.5
t-13.5 11.5t-9.5 15t-3.5 14q0 15 7 25.5t18 17t24.5 9.5t25.5 3q16 0 28.5 -8t21.5 -21t13.5 -28.5t4.5 -31.5q0 -15 -4.5 -36.5t-14 -41.5t-24 -34.5t-33.5 -14.5q-10 0 -14 5t-7 18z" />
    <glyph glyph-name="Hcircumflex" unicode="&#x124;" horiz-adv-x="478" 
d="M69 185q0 -3 1.5 -14.5t3 -24.5t2.5 -24.5t1 -14.5v-12q0 -7 -3 -10t-8.5 -5.5t-11 -2.5h-10.5q-19 0 -24.5 10.5t-10.5 28.5v17q0 13 -0.5 27t-0.5 27v18q0 33 0.5 60t1.5 53.5t3.5 54.5t6.5 66q-1 7 0.5 11.5t5 6t8.5 2t9 0.5q6 0 14 -1t12 -10q6 -42 8.5 -82.5
t-0.5 -83.5l11 -9h280q0 21 1 34t1.5 21.5t0.5 15.5t-1 16.5t-3 22.5t-7 36q3 9 11 9.5t15 0.5q10 0 18.5 -15t15.5 -40.5t13 -59.5t10 -70.5t7.5 -73.5t5.5 -70t3 -59.5t1 -40.5h-41q-2 0 -5.5 11t-8 26.5t-9 32t-7.5 28.5q-1 3 -2 17.5t-2.5 30.5t-2.5 30.5t-2 18.5
t-5 11.5l-4 7.5h-294l-3.5 -7.5t-4.5 -11.5v-10zM90 612q0 17 6 42t15.5 52t23.5 54t30.5 48.5t35.5 34.5t39 13q6 0 13 0.5t14 -1.5t12 -5.5t8 -13.5q5 -29 14.5 -58.5t23 -58t28.5 -55.5t31 -52q-10 -15 -17 -23t-21 -8q-13 0 -25 15t-22 36.5t-19.5 47t-17.5 48t-15.5 37
t-13.5 14.5q-18 0 -28.5 -15t-17 -38t-12 -50t-12.5 -50t-19.5 -38t-32.5 -15q-5 0 -8.5 5t-6.5 11.5t-4.5 13t-1.5 9.5z" />
    <glyph glyph-name="hcircumflex" unicode="&#x125;" horiz-adv-x="516" 
d="M314 215q-30 0 -51.5 -11t-38.5 -27t-29 -35.5t-24 -36t-25 -27.5t-30 -11q-12 0 -18.5 10t-9.5 21q-13 43 -26.5 92.5t-25.5 100.5t-20 102.5t-8 98.5v6q0 5 0.5 10.5t0.5 9.5v8q2 9 10 9.5t15 0.5h7.5h7.5q2 -15 7 -46t12.5 -69t16 -78.5t18 -73.5t19.5 -54t19 -21
q15 0 35 12t42.5 27t48 28t53.5 13q6 0 16 -0.5t20.5 -1.5t20 -3t12.5 -6l89 -88q8 -8 14 -29t10 -45t5 -45.5t1 -33.5q0 -14 -9 -18.5t-21 -4.5q-16 0 -23 16t-12.5 40.5t-12.5 52t-20 52t-35.5 40t-60.5 15.5zM142 497q0 17 6 42t15.5 52t23.5 54t30.5 48.5t35.5 34.5
t39 13q6 0 13 0.5t14 -1.5t12 -5.5t8 -13.5q5 -29 14.5 -58.5t23 -58t28.5 -55.5t31 -52q-10 -15 -17 -23t-21 -8q-13 0 -25 15t-22 36.5t-19.5 47t-17.5 48t-15.5 37t-13.5 14.5q-18 0 -28.5 -15t-17 -38t-12 -50t-12.5 -50t-19.5 -38t-32.5 -15q-5 0 -8.5 5t-6.5 11.5
t-4.5 13t-1.5 9.5z" />
    <glyph glyph-name="Itilde" unicode="&#x128;" horiz-adv-x="127" 
d="M8 337v28t3 30.5t10.5 24t24.5 9.5q8 0 13.5 -14t8.5 -36.5t5 -49.5t2.5 -52t1 -45t0.5 -27q2 -26 7.5 -52.5t11 -53.5t10 -53t4.5 -50q-35 0 -56 15t-31.5 40t-13.5 57.5t-2 66t2.5 67t-0.5 60.5v5q0 5 -0.5 10t-0.5 10v10zM-28 690q-17 0 -28 -6.5t-19.5 -16.5
t-15 -21.5t-13 -21.5t-15 -16.5t-21.5 -6.5t-16.5 6.5t-3.5 18.5q0 25 14 47t34.5 39t45.5 27.5t47 10.5q18 0 32 -7t25.5 -17t22.5 -21.5t23.5 -21.5t28 -16.5t34.5 -6.5q18 0 31.5 8t25 17.5t23 17.5t27.5 8q17 0 23 -7.5t11 -23.5q-6 -8 -19.5 -22.5t-30 -29t-34 -25
t-31.5 -10.5q-26 0 -48 7.5t-41 18t-35 23t-30 23t-25.5 18t-21.5 7.5z" />
    <glyph glyph-name="itilde" unicode="&#x129;" horiz-adv-x="117" 
d="M49 9q-7 20 -12.5 43.5t-9 48.5t-5.5 49t-2 45q0 3 1 11.5t2.5 17.5t3.5 17.5t3 11.5q1 1 9 2t10 1q13 0 21 -14t14 -36t8.5 -48.5t4.5 -51t2 -43.5v-26q0 -3 0.5 -9.5t-0.5 -13t-4.5 -10.5t-11.5 -4h-4q-2 0 -6 1.5t-9 3t-9 2.5t-6 2zM-34 526q-16 0 -27.5 -6.5
t-19.5 -16.5t-14.5 -21.5t-13.5 -21.5t-15.5 -16.5t-21.5 -6.5t-16.5 6.5t-3.5 18.5q0 25 13.5 47t34.5 39t45.5 27.5t47.5 10.5q18 0 32 -7t25.5 -17t22.5 -21.5t23.5 -21.5t28 -16.5t34.5 -6.5q18 0 31 8t24.5 17.5t24 17.5t27.5 8q16 0 23 -7.5t12 -23.5
q-7 -8 -20.5 -22.5t-30 -29t-33.5 -25t-32 -10.5q-26 0 -47.5 7.5t-41 18t-36 23t-30 23t-25 18t-21.5 7.5z" />
    <glyph glyph-name="imacron" unicode="&#x12b;" horiz-adv-x="117" 
d="M-100 442q0 17 14.5 26.5t37 13t51 4.5t56 -0.5t51 -3t37.5 -1.5q18 0 32.5 -1t24.5 -6.5t15 -16.5t5 -31q-47 0 -83 -0.5t-70 -1t-69.5 -1t-82.5 -0.5q-19 0 -19 19zM49 9q-7 20 -12.5 43.5t-9 48.5t-5.5 49t-2 45q0 3 1 11.5t2.5 17.5t3.5 17.5t3 11.5q1 1 9 2t10 1
q13 0 21 -14t14 -36t8.5 -48.5t4.5 -51t2 -43.5v-26q0 -3 0.5 -9.5t-0.5 -13t-4.5 -10.5t-11.5 -4h-4q-2 0 -6 1.5t-9 3t-9 2.5t-6 2z" />
    <glyph glyph-name="Ibreve" unicode="&#x12c;" horiz-adv-x="127" 
d="M8 337v28t3 30.5t10.5 24t24.5 9.5q8 0 13.5 -14t8.5 -36.5t5 -49.5t2.5 -52t1 -45t0.5 -27q2 -26 7.5 -52.5t11 -53.5t10 -53t4.5 -50q-35 0 -56 15t-31.5 40t-13.5 57.5t-2 66t2.5 67t-0.5 60.5v5q0 5 -0.5 10t-0.5 10v10zM-41 593q0 4 4.5 12t14.5 8q16 -25 33 -40.5
t35 -17.5t39 11t46 45q12 0 18.5 -4t15.5 -12q-14 -29 -33 -48.5t-41 -28.5t-43 -8.5t-39.5 10t-32 28t-17.5 45.5z" />
    <glyph glyph-name="Iogonek" unicode="&#x12e;" horiz-adv-x="127" 
d="M11 -44q31 34 50 49l1 1q-4 2 -8 5q-21 15 -31.5 40t-13.5 57.5t-2 66t2.5 67t-0.5 60.5v5q0 5 -0.5 10t-0.5 10v10v28t3 30.5t10.5 24t24.5 9.5q8 0 13.5 -14t8.5 -36.5t5 -49.5t2.5 -52t1 -45t0.5 -27q2 -26 7.5 -52.5t11 -53.5t10 -53t4.5 -50q-7 0 -14 1l-1 -3
q-7 -14 -18.5 -29.5t-28.5 -28.5q41 -31 60 -52t22 -33.5t-5.5 -16.5t-23.5 -0.5t-33 13.5t-32.5 26t-22 37t-2.5 46z" />
    <glyph glyph-name="iogonek" unicode="&#x12f;" horiz-adv-x="117" 
d="M8 -35q26 28 44 43l-3 1q-7 20 -12.5 43.5t-9 48.5t-5.5 49t-2 45q0 3 1 11.5t2.5 17.5t3.5 17.5t3 11.5q1 1 9 2t10 1q13 0 21 -14t14 -36t8.5 -48.5t4.5 -51t2 -43.5v-26q0 -3 0.5 -9.5t-0.5 -13t-5 -10.5l-1 -1q-7 -13 -18 -29q-13 -17 -28 -29q41 -31 60 -52
t22 -33.5t-6 -16.5t-24 -1t-33 13.5t-32.5 26.5t-22.5 37t-3 46zM38 450q0 25 32 37q7 3 12.5 -2t9 -13t5 -16.5t1.5 -12.5q0 -6 -3 -9.5t-7.5 -4.5t-9.5 -1h-8q-14 0 -23 3t-9 19z" />
    <glyph glyph-name="Idotaccent" unicode="&#x130;" horiz-adv-x="127" 
d="M8 337v28t3 30.5t10.5 24t24.5 9.5q8 0 13.5 -14t8.5 -36.5t5 -49.5t2.5 -52t1 -45t0.5 -27q2 -26 7.5 -52.5t11 -53.5t10 -53t4.5 -50q-35 0 -56 15t-31.5 40t-13.5 57.5t-2 66t2.5 67t-0.5 60.5v5q0 5 -0.5 10t-0.5 10v10zM-15 586q0 10 8 16.5t19 10t21.5 4.5t16.5 1
q8 0 15.5 -6t13.5 -14.5t9.5 -19t3.5 -17.5q0 -11 -1.5 -22.5t-14.5 -16.5q-2 0 -10 -0.5t-11 -0.5q-13 0 -25 3.5t-22.5 11t-16.5 20t-6 30.5z" />
    <glyph glyph-name="Jcircumflex" unicode="&#x134;" horiz-adv-x="565" 
d="M78 136q0 6 2 17t6 21t10.5 18t16.5 8q0 -32 6.5 -59.5t21.5 -48.5t40 -33t62 -12q14 0 27.5 1.5t26.5 6t24 12.5t21 21q0 3 0.5 11.5t0.5 17.5t0.5 17.5t0.5 11.5q0 30 -2 53.5t-7.5 46.5t-15.5 47.5t-27 56.5v39h-276v9q0 6 1.5 12t4 12t7.5 7q6 0 21 3t32 6t32.5 6
t21.5 4h20q14 -1 44 -1.5t67.5 -1t79 -2t78.5 -2.5t67 -1.5t44 -0.5q8 -4 9.5 -9t1.5 -11q0 -10 -9.5 -20t-21.5 -10h-145q-16 0 -18.5 -6t-2.5 -18q0 -28 8.5 -56t19 -56t20 -57t11.5 -60q2 -38 -13 -64t-40.5 -42t-58 -23.5t-63.5 -7.5q-29 0 -56.5 9.5t-50 27.5t-36 43.5
t-13.5 56.5zM135 612q0 17 6 42t15.5 52t23.5 54t30.5 48.5t35.5 34.5t39 13q6 0 13 0.5t14 -1.5t12 -5.5t8 -13.5q5 -29 14.5 -58.5t23 -58t28.5 -55.5t31 -52q-10 -15 -17 -23t-21 -8q-13 0 -25 15t-22 36.5t-19.5 47t-17.5 48t-15.5 37t-13.5 14.5q-18 0 -28.5 -15
t-17 -38t-12 -50t-12.5 -50t-19.5 -38t-32.5 -15q-5 0 -8.5 5t-6.5 11.5t-4.5 13t-1.5 9.5z" />
    <glyph glyph-name="jcircumflex" unicode="&#x135;" horiz-adv-x="156" 
d="M-254 -229q0 21 1 36.5t9 36.5q1 0 2.5 0.5t2.5 0.5l1 -0.5t2 -0.5h2l5 -5l5 -5q-9 -98 38 -146.5t143 -48.5q44 0 71.5 18.5t43 48.5t21 67.5t5.5 75.5q0 47 -8.5 93t-19.5 91.5t-22.5 90t-18.5 90.5q0 6 2.5 11t6.5 9.5t10 7t11 2.5q13 0 23.5 -14.5t19 -38t14.5 -52.5
t11.5 -57t9.5 -52.5t9 -38.5v-24v-35.5v-35.5v-23q0 -35 -1 -69.5t-7.5 -66t-18.5 -58.5t-33 -47t-51.5 -31t-73.5 -11q-46 0 -85 10.5t-68 32t-45.5 56t-16.5 82.5zM-69 448q0 17 5.5 42t15.5 52t23.5 54t30 48.5t35 34.5t39.5 13q6 0 13 0.5t14 -1.5t12.5 -5.5t7.5 -13.5
q5 -29 14.5 -58.5t23 -58t28.5 -55.5t31 -52q-9 -15 -16.5 -23t-20.5 -8q-14 0 -26 15t-22.5 36.5t-19.5 47t-17 48t-15 37t-14 14.5q-19 0 -29 -15t-16.5 -38t-11.5 -50t-12.5 -50t-19.5 -38t-32 -15q-6 0 -9 5t-6 11.5t-4.5 13t-1.5 9.5z" />
    <glyph glyph-name="Kcommaaccent" unicode="&#x136;" horiz-adv-x="536" 
d="M9 371q0 7 0.5 18.5t3 22.5t8.5 19t18 8q13 0 19.5 -6t8.5 -15t1.5 -19.5t0.5 -18.5q0 -8 1 -27.5t2.5 -41t3 -41t1.5 -27.5h11l155 79q10 12 23 22.5t25.5 21t25.5 21t24 22.5h30v-38q0 -6 -13 -18.5t-29.5 -26.5t-32.5 -27t-23 -17q-6 -3 -21.5 -11.5t-32.5 -18
t-32 -17.5t-21 -11l273 -147q4 0 18.5 -1t30 -5t27.5 -11.5t12 -20.5q0 -6 -1.5 -11t-9.5 -8q-3 0 -9 -0.5t-12.5 -0.5h-13h-8.5q-35 0 -66.5 10.5t-62 27t-59 35.5t-58.5 35.5t-62 28t-67 11.5q-2 0 -6 -0.5l-4 -0.5q-2 -9 -1 -24.5t1 -34t-1.5 -38t-6 -35t-13.5 -26
t-24 -10.5q-14 0 -18 5t-5 26q0 4 -0.5 14.5t-0.5 24.5v30q0 15 0.5 29t0.5 24v15q0 5 -1 20.5t-2.5 36.5t-2.5 45t-2 45t-2 36.5t-1 21.5zM242 -262q13 15 20.5 25.5t12.5 21t6.5 23t1.5 30.5h-1.5h-2.5q-1 0 -6.5 -1t-12 -2.5t-12 -2.5t-6.5 -1h-5q-7 0 -14.5 4.5
t-13.5 11.5t-9.5 15t-3.5 14q0 15 7 25.5t18 17t24.5 9.5t25.5 3q16 0 28.5 -8t21.5 -21t13.5 -28.5t4.5 -31.5q0 -15 -4.5 -36.5t-14 -41.5t-24 -34.5t-33.5 -14.5q-10 0 -14 5t-7 18z" />
    <glyph glyph-name="kcommaaccent" unicode="&#x137;" horiz-adv-x="575" 
d="M136 167q-5 0 -12.5 -1.5t-7.5 -9.5v-136q0 -1 -7 -5t-11 -6h-10q-9 5 -16 7q-5 4 -9 7t-4 6v117q-2 0 -8.5 4t-13 9t-12 10.5t-5.5 10.5q0 12 10 25t19 19v14v23v22v14v52.5t-2 45t-6 46t-12 55.5q0 4 3 9.5t7 11t9.5 9t10.5 0.5q11 -5 20 -24t15 -46t10 -58.5t6.5 -60
t4 -51.5t1.5 -33q16 13 34 21.5t36.5 16.5t35.5 17t31 23q6 6 13 17.5l14 23t16 19.5t21 8q6 0 9.5 -2.5t4.5 -7t1 -9.5v-9q0 -26 -14 -47t-34.5 -38.5t-44.5 -31t-44 -20.5q40 -47 76 -79t75.5 -54.5t87.5 -37t112 -24.5q12 0 16.5 -5t4.5 -14q0 -1 -1 -5.5t-1 -5.5
q-18 -6 -32 -8t-32 -2q-23 0 -49 2t-52.5 6.5t-51 12t-46.5 19.5t-40 33t-36.5 42.5t-40 37t-49.5 15.5zM261 -262q13 15 20.5 25.5t12.5 21t6.5 23t1.5 30.5h-1.5h-2.5q-1 0 -6.5 -1t-12 -2.5t-12 -2.5t-6.5 -1h-5q-7 0 -14.5 4.5t-13.5 11.5t-9.5 15t-3.5 14q0 15 7 25.5
t18 17t24.5 9.5t25.5 3q16 0 28.5 -8t21.5 -21t13.5 -28.5t4.5 -31.5q0 -15 -4.5 -36.5t-14 -41.5t-24 -34.5t-33.5 -14.5q-10 0 -14 5t-7 18z" />
    <glyph glyph-name="Lacute" unicode="&#x139;" horiz-adv-x="565" 
d="M20 49v23q0 18 -0.5 37t-0.5 37v55q0 21 0.5 40.5t0.5 33.5v46q0 16 1.5 31t5.5 29.5t12 27.5q5 7 8 8.5t12 1.5q4 0 11.5 -1.5t7.5 -8.5v-311q0 -17 11 -25t26.5 -11t31.5 -3h27q44 0 89 3t89 6.5t88.5 6t89.5 2.5h11q6 0 8.5 -2t4 -8t1.5 -18q0 -3 -4.5 -6.5t-9.5 -5.5
q-7 -4 -15 -8q-13 -1 -41.5 -3.5t-64 -5.5t-74.5 -6t-75 -6t-64 -5t-41 -3h-50q-21 0 -39.5 4t-33.5 14.5t-23 30.5zM120 505q0 13 8.5 21t19.5 13q38 12 63 17t46.5 9.5t46 13.5t60.5 29l7 7l7 7h2l0.5 0.5t1.5 0.5q9 0 12.5 -8.5t3.5 -15.5q0 -13 -11.5 -22.5t-22.5 -14.5
q-17 -8 -24.5 -11.5t-13.5 -6.5q-7 -2 -20.5 -7t-32 -11t-39.5 -12t-42 -9.5t-39.5 -4t-32.5 4.5z" />
    <glyph glyph-name="lacute" unicode="&#x13a;" horiz-adv-x="263" 
d="M8 167q0 53 4.5 100t9 95t7 97t0.5 106q1 4 3 9t5.5 9.5t7.5 8t9 3.5q12 0 20 -12.5t11.5 -32t4.5 -42.5t0.5 -44.5t-1.5 -37.5t-1 -22q0 -59 -5.5 -116.5t-5.5 -117.5v-16v-25v-25v-16q1 -10 7 -16.5t13.5 -11t15.5 -7.5t14 -4q4 0 13.5 -0.5t20.5 -0.5h20.5h13.5
q17 0 27.5 0.5t17 1.5t12.5 2.5t13 2t17 1.5t27 1q0 -33 -13 -46t-33.5 -15.5t-45 0.5t-47.5 3h-14q-10 0 -22 0.5t-23 0.5h-13q-31 6 -49 22.5t-26.5 40t-11.5 50.5t-3 54zM13 685q0 13 8.5 21t19.5 13q38 12 63 17t46.5 9.5t46 13.5t60.5 29l7 7l7 7h2l0.5 0.5t1.5 0.5
q9 0 12.5 -8.5t3.5 -15.5q0 -13 -11.5 -22.5t-22.5 -14.5q-17 -8 -24.5 -11.5t-13.5 -6.5q-7 -2 -20.5 -7t-32 -11t-39.5 -12t-42 -9.5t-39.5 -4t-32.5 4.5z" />
    <glyph glyph-name="Lcommaaccent" unicode="&#x13b;" horiz-adv-x="565" 
d="M20 49v23q0 18 -0.5 37t-0.5 37v55q0 21 0.5 40.5t0.5 33.5v46q0 16 1.5 31t5.5 29.5t12 27.5q5 7 8 8.5t12 1.5q4 0 11.5 -1.5t7.5 -8.5v-311q0 -17 11 -25t26.5 -11t31.5 -3h27q44 0 89 3t89 6.5t88.5 6t89.5 2.5h11q6 0 8.5 -2t4 -8t1.5 -18q0 -3 -4.5 -6.5t-9.5 -5.5
q-7 -4 -15 -8q-13 -1 -41.5 -3.5t-64 -5.5t-74.5 -6t-75 -6t-64 -5t-41 -3h-50q-21 0 -39.5 4t-33.5 14.5t-23 30.5zM256 -262q13 15 20.5 25.5t12.5 21t6.5 23t1.5 30.5h-1.5h-2.5q-1 0 -6.5 -1t-12 -2.5t-12 -2.5t-6.5 -1h-5q-7 0 -14.5 4.5t-13.5 11.5t-9.5 15t-3.5 14
q0 15 7 25.5t18 17t24.5 9.5t25.5 3q16 0 28.5 -8t21.5 -21t13.5 -28.5t4.5 -31.5q0 -15 -4.5 -36.5t-14 -41.5t-24 -34.5t-33.5 -14.5q-10 0 -14 5t-7 18z" />
    <glyph glyph-name="lcommaaccent" unicode="&#x13c;" horiz-adv-x="263" 
d="M8 167q0 53 4.5 100t9 95t7 97t0.5 106q1 4 3 9t5.5 9.5t7.5 8t9 3.5q12 0 20 -12.5t11.5 -32t4.5 -42.5t0.5 -44.5t-1.5 -37.5t-1 -22q0 -59 -5.5 -116.5t-5.5 -117.5v-16v-25v-25v-16q1 -10 7 -16.5t13.5 -11t15.5 -7.5t14 -4q4 0 13.5 -0.5t20.5 -0.5h20.5h13.5
q17 0 27.5 0.5t17 1.5t12.5 2.5t13 2t17 1.5t27 1q0 -33 -13 -46t-33.5 -15.5t-45 0.5t-47.5 3h-14q-10 0 -22 0.5t-23 0.5h-13q-31 6 -49 22.5t-26.5 40t-11.5 50.5t-3 54zM106 -262q13 15 20.5 25.5t12.5 21t6.5 23t1.5 30.5h-1.5h-2.5q-1 0 -6.5 -1t-12 -2.5t-12 -2.5
t-6.5 -1h-5q-7 0 -14.5 4.5t-13.5 11.5t-9.5 15t-3.5 14q0 15 7 25.5t18 17t24.5 9.5t25.5 3q16 0 28.5 -8t21.5 -21t13.5 -28.5t4.5 -31.5q0 -15 -4.5 -36.5t-14 -41.5t-24 -34.5t-33.5 -14.5q-10 0 -14 5t-7 18z" />
    <glyph glyph-name="Ldot" unicode="&#x13f;" horiz-adv-x="565" 
d="M20 49v23q0 18 -0.5 37t-0.5 37v55q0 21 0.5 40.5t0.5 33.5v46q0 16 1.5 31t5.5 29.5t12 27.5q5 7 8 8.5t12 1.5q4 0 11.5 -1.5t7.5 -8.5v-311q0 -17 11 -25t26.5 -11t31.5 -3h27q44 0 89 3t89 6.5t88.5 6t89.5 2.5h11q6 0 8.5 -2t4 -8t1.5 -18q0 -3 -4.5 -6.5t-9.5 -5.5
q-7 -4 -15 -8q-13 -1 -41.5 -3.5t-64 -5.5t-74.5 -6t-75 -6t-64 -5t-41 -3h-50q-21 0 -39.5 4t-33.5 14.5t-23 30.5zM319 284q0 11 7.5 17t18 10t21 5.5t16.5 1.5q9 0 16.5 -6.5t13.5 -15.5t10 -19t4 -16q0 -12 -2 -23.5t-14 -16.5q-3 0 -11 -0.5t-11 -0.5q-13 0 -25.5 3.5
t-22 11.5t-15.5 20t-6 29z" />
    <glyph glyph-name="ldot" unicode="&#x140;" horiz-adv-x="325" 
d="M8 167q0 53 4.5 100t9 95t7 97t0.5 106q1 4 3 9t5.5 9.5t7.5 8t9 3.5q12 0 20 -12.5t11.5 -32t4.5 -42.5t0.5 -44.5t-1.5 -37.5t-1 -22q0 -59 -5.5 -116.5t-5.5 -117.5v-16v-25v-25v-16q1 -10 7 -16.5t13.5 -11t15.5 -7.5t14 -4q4 0 13.5 -0.5t20.5 -0.5h20.5h13.5
q17 0 27.5 0.5t17 1.5t12.5 2.5t13 2t17 1.5t27 1q0 -33 -13 -46t-33.5 -15.5t-45 0.5t-47.5 3h-14q-10 0 -22 0.5t-23 0.5h-13q-31 6 -49 22.5t-26.5 40t-11.5 50.5t-3 54zM184 294q0 11 7.5 17t18 10t21 5.5t16.5 1.5q9 0 16.5 -6.5t13.5 -15.5t10 -19t4 -16
q0 -12 -2 -23.5t-14 -16.5q-3 0 -11 -0.5t-11 -0.5q-13 0 -25.5 3.5t-22 11.5t-15.5 20t-6 29z" />
    <glyph glyph-name="Lslash" unicode="&#x141;" horiz-adv-x="565" 
d="M-136 214q-11 11 -8 19t16.5 13.5t34.5 8.5t45.5 4t49.5 0h17q1 10 1 16v46q0 16 1.5 31t5.5 29.5t12 27.5q5 7 8 8.5t12 1.5q4 0 11.5 -1.5t7.5 -8.5v-153q4 0 7 -1q16 -2 20 -4q0 -5 1.5 -11.5t1.5 -12.5t-2.5 -10.5t-10.5 -4.5h-17v-114q0 -17 11 -25t26.5 -11
t31.5 -3h27q44 0 89 3t89 6.5t88.5 6t89.5 2.5h11q6 0 8.5 -2t4 -8t1.5 -18q0 -3 -4.5 -6.5t-9.5 -5.5q-7 -4 -15 -8q-13 -1 -41.5 -3.5t-64 -5.5t-74.5 -6t-75 -6t-64 -5t-41 -3h-50q-21 0 -39.5 4t-33.5 14.5t-23 30.5v23q0 18 -0.5 37t-0.5 37v66z" />
    <glyph glyph-name="lslash" unicode="&#x142;" horiz-adv-x="263" 
d="M-63 234q-12 11 -8.5 19t16.5 13t35 8q16 2 34 4q4 42 7 84q5 48 7.5 97t0.5 106q1 4 3 9t5.5 9.5t7.5 8t9 3.5q12 0 20 -12.5t11.5 -32t4.5 -42.5t0.5 -44.5t-1.5 -37.5t-1 -22q0 -59 -6 -117v-8q21 0 39 -1q22 -1 37.5 -3t19.5 -4q0 -5 1.5 -12t1.5 -12.5t-2.5 -9.5
t-10.5 -4h-90q-1 -31 -1 -63v-16v-25v-25v-16q1 -10 7 -16.5t13.5 -11t15.5 -7.5t14 -4q4 0 13.5 -0.5t20.5 -0.5h20.5h13.5q17 0 27.5 0.5t17 1.5t12.5 2.5t13 2t17 1.5t27 1q0 -33 -13 -46t-33.5 -15.5t-45 0.5t-47.5 3h-14q-10 0 -22 0.5t-23 0.5h-13q-31 6 -49 22.5
t-26.5 40t-11.5 50.5t-3 54q0 34 2 66z" />
    <glyph glyph-name="Nacute" unicode="&#x143;" horiz-adv-x="623" 
d="M9 195q5 9 10 26t8.5 38t8.5 42.5t10.5 39.5t13 29t17.5 11q2 0 6 -0.5t5 -0.5q96 -82 204.5 -147.5t223.5 -116.5h5h5q6 0 11 1t9 10q-13 29 -23.5 66t-18.5 75t-13 73.5t-5 62.5q0 4 1.5 11t3.5 14.5t6 13t10 5.5q4 0 12 -1.5t16.5 -5.5t14.5 -9.5t6 -12.5
q0 -11 -5 -21.5t-5 -21.5v-5q0 -3 1.5 -12t3 -18.5t2.5 -18t2 -10.5v-10q7 -24 16 -53t16.5 -59.5t12.5 -62t5 -60.5q0 -10 -1 -18.5t-4.5 -15.5t-10.5 -10.5t-18 -3.5q-12 0 -24 4t-23 11.5t-20 16t-17 16.5l-380 206h-4v1q-6 0 -10.5 -9.5t-8 -20.5t-5.5 -20t-2 -10
q0 -4 1 -14t2 -24.5t2 -30t2 -29.5t2.5 -24.5t1.5 -14.5v-68q-2 -5 -6.5 -7t-10 -3t-11 -0.5t-6.5 0.5q-4 0 -13 0.5t-12 0.5zM155 505q0 13 8.5 21t19.5 13q38 12 63 17t46.5 9.5t46 13.5t60.5 29l7 7l7 7h2l0.5 0.5t1.5 0.5q9 0 12.5 -8.5t3.5 -15.5q0 -13 -11.5 -22.5
t-22.5 -14.5q-17 -8 -24.5 -11.5t-13.5 -6.5q-7 -2 -20.5 -7t-32 -11t-39.5 -12t-42 -9.5t-39.5 -4t-32.5 4.5z" />
    <glyph glyph-name="nacute" unicode="&#x144;" horiz-adv-x="448" 
d="M261 215q-35 0 -61.5 -12.5t-47.5 -32.5t-35 -42.5t-24.5 -42.5t-16 -33t-7.5 -13q-27 0 -38 14t-14 34.5t-0.5 43t2.5 39.5v17q0 12 0.5 25t0.5 24v17q3 8 8 9t11 1q9 0 15 -10.5t11 -25.5t8 -29.5t5 -22.5q12 2 22 10t20.5 19t22.5 23t28 22.5t37.5 17.5t49.5 7
q56 0 92 -24.5t55.5 -64t26.5 -89t7 -100.5q-30 0 -46.5 9.5t-23.5 25t-8 35t-1 40t-2.5 40.5t-12 35t-29 24.5t-55.5 9.5zM89 392q0 13 8.5 21t19.5 13q38 12 63 17t46.5 9.5t46 13.5t60.5 29l7 7l7 7h2l0.5 0.5t1.5 0.5q9 0 12.5 -8.5t3.5 -15.5q0 -13 -11.5 -22.5
t-22.5 -14.5q-17 -8 -24.5 -11.5t-13.5 -6.5q-7 -2 -20.5 -7t-32 -11t-39.5 -12t-42 -9.5t-39.5 -4t-32.5 4.5z" />
    <glyph glyph-name="Ncommaaccent" unicode="&#x145;" horiz-adv-x="623" 
d="M9 195q5 9 10 26t8.5 38t8.5 42.5t10.5 39.5t13 29t17.5 11q2 0 6 -0.5t5 -0.5q96 -82 204.5 -147.5t223.5 -116.5h5h5q6 0 11 1t9 10q-13 29 -23.5 66t-18.5 75t-13 73.5t-5 62.5q0 4 1.5 11t3.5 14.5t6 13t10 5.5q4 0 12 -1.5t16.5 -5.5t14.5 -9.5t6 -12.5
q0 -11 -5 -21.5t-5 -21.5v-5q0 -3 1.5 -12t3 -18.5t2.5 -18t2 -10.5v-10q7 -24 16 -53t16.5 -59.5t12.5 -62t5 -60.5q0 -10 -1 -18.5t-4.5 -15.5t-10.5 -10.5t-18 -3.5q-12 0 -24 4t-23 11.5t-20 16t-17 16.5l-380 206h-4v1q-6 0 -10.5 -9.5t-8 -20.5t-5.5 -20t-2 -10
q0 -4 1 -14t2 -24.5t2 -30t2 -29.5t2.5 -24.5t1.5 -14.5v-68q-2 -5 -6.5 -7t-10 -3t-11 -0.5t-6.5 0.5q-4 0 -13 0.5t-12 0.5zM286 -262q13 15 20.5 25.5t12.5 21t6.5 23t1.5 30.5h-1.5h-2.5q-1 0 -6.5 -1t-12 -2.5t-12 -2.5t-6.5 -1h-5q-7 0 -14.5 4.5t-13.5 11.5t-9.5 15
t-3.5 14q0 15 7 25.5t18 17t24.5 9.5t25.5 3q16 0 28.5 -8t21.5 -21t13.5 -28.5t4.5 -31.5q0 -15 -4.5 -36.5t-14 -41.5t-24 -34.5t-33.5 -14.5q-10 0 -14 5t-7 18z" />
    <glyph glyph-name="ncommaaccent" unicode="&#x146;" horiz-adv-x="448" 
d="M261 215q-35 0 -61.5 -12.5t-47.5 -32.5t-35 -42.5t-24.5 -42.5t-16 -33t-7.5 -13q-27 0 -38 14t-14 34.5t-0.5 43t2.5 39.5v17q0 12 0.5 25t0.5 24v17q3 8 8 9t11 1q9 0 15 -10.5t11 -25.5t8 -29.5t5 -22.5q12 2 22 10t20.5 19t22.5 23t28 22.5t37.5 17.5t49.5 7
q56 0 92 -24.5t55.5 -64t26.5 -89t7 -100.5q-30 0 -46.5 9.5t-23.5 25t-8 35t-1 40t-2.5 40.5t-12 35t-29 24.5t-55.5 9.5zM199 -262q13 15 20.5 25.5t12.5 21t6.5 23t1.5 30.5h-1.5h-2.5q-1 0 -6.5 -1t-12 -2.5t-12 -2.5t-6.5 -1h-5q-7 0 -14.5 4.5t-13.5 11.5t-9.5 15
t-3.5 14q0 15 7 25.5t18 17t24.5 9.5t25.5 3q16 0 28.5 -8t21.5 -21t13.5 -28.5t4.5 -31.5q0 -15 -4.5 -36.5t-14 -41.5t-24 -34.5t-33.5 -14.5q-10 0 -14 5t-7 18z" />
    <glyph glyph-name="Ncaron" unicode="&#x147;" horiz-adv-x="623" 
d="M9 195q5 9 10 26t8.5 38t8.5 42.5t10.5 39.5t13 29t17.5 11q2 0 6 -0.5t5 -0.5q96 -82 204.5 -147.5t223.5 -116.5h5h5q6 0 11 1t9 10q-13 29 -23.5 66t-18.5 75t-13 73.5t-5 62.5q0 4 1.5 11t3.5 14.5t6 13t10 5.5q4 0 12 -1.5t16.5 -5.5t14.5 -9.5t6 -12.5
q0 -11 -5 -21.5t-5 -21.5v-5q0 -3 1.5 -12t3 -18.5t2.5 -18t2 -10.5v-10q7 -24 16 -53t16.5 -59.5t12.5 -62t5 -60.5q0 -10 -1 -18.5t-4.5 -15.5t-10.5 -10.5t-18 -3.5q-12 0 -24 4t-23 11.5t-20 16t-17 16.5l-380 206h-4v1q-6 0 -10.5 -9.5t-8 -20.5t-5.5 -20t-2 -10
q0 -4 1 -14t2 -24.5t2 -30t2 -29.5t2.5 -24.5t1.5 -14.5v-68q-2 -5 -6.5 -7t-10 -3t-11 -0.5t-6.5 0.5q-4 0 -13 0.5t-12 0.5zM168 653q0 4 4.5 12.5t12.5 8.5q20 0 30.5 -8t17.5 -20.5t11.5 -26.5t10.5 -26.5t15.5 -20.5t25.5 -8q6 0 13 7.5t14 19.5t15 25.5t18 25.5
t20.5 20t23.5 8q12 0 18.5 -4t15.5 -13q-29 -27 -54 -57t-34 -62q-2 -6 -7.5 -8t-11.5 -2.5t-12.5 -0.5h-11.5q-28 0 -52.5 15t-43 36.5t-29 43t-10.5 35.5z" />
    <glyph glyph-name="ncaron" unicode="&#x148;" horiz-adv-x="448" 
d="M261 215q-35 0 -61.5 -12.5t-47.5 -32.5t-35 -42.5t-24.5 -42.5t-16 -33t-7.5 -13q-27 0 -38 14t-14 34.5t-0.5 43t2.5 39.5v17q0 12 0.5 25t0.5 24v17q3 8 8 9t11 1q9 0 15 -10.5t11 -25.5t8 -29.5t5 -22.5q12 2 22 10t20.5 19t22.5 23t28 22.5t37.5 17.5t49.5 7
q56 0 92 -24.5t55.5 -64t26.5 -89t7 -100.5q-30 0 -46.5 9.5t-23.5 25t-8 35t-1 40t-2.5 40.5t-12 35t-29 24.5t-55.5 9.5zM80 471q0 4 4.5 12.5t12.5 8.5q20 0 30.5 -8t17.5 -20.5t11.5 -26.5t10.5 -26.5t15.5 -20.5t25.5 -8q6 0 13 7.5t14 19.5t15 25.5t18 25.5t20.5 20
t23.5 8q12 0 18.5 -4t15.5 -13q-29 -27 -54 -57t-34 -62q-2 -6 -7.5 -8t-11.5 -2.5t-12.5 -0.5h-11.5q-28 0 -52.5 15t-43 36.5t-29 43t-10.5 35.5z" />
    <glyph glyph-name="Omacron" unicode="&#x14c;" horiz-adv-x="496" 
d="M9 205q0 28 11.5 54.5t31 49.5t45 41.5t53.5 31.5t56 20.5t53 7.5q54 0 94.5 -18.5t68.5 -50.5t42.5 -76t14.5 -96q0 -86 -49.5 -128t-140.5 -42q-26 0 -57 6.5t-62 18.5t-60 29.5t-51 40t-36 50.5t-14 61zM77 203q0 -34 22.5 -61t55 -46t68 -29t62.5 -10q32 0 59 5.5
t47 19t32 36.5t16 57q3 40 -10.5 72.5t-38.5 55.5t-58 35t-69 12q-28 0 -61 -11t-60.5 -30.5t-46 -46.5t-18.5 -59zM83 477q0 16 14.5 25t37.5 13.5t51.5 5t55.5 -1t51 -3t37 -1.5q18 0 32.5 -1t25 -6.5t15.5 -16.5t5 -31q-49 0 -85 -0.5t-69.5 -1t-69 -1t-81.5 -0.5
q-20 0 -20 20z" />
    <glyph glyph-name="omacron" unicode="&#x14d;" horiz-adv-x="419" 
d="M19 118q0 34 12 70t34.5 66t53.5 49t71 19q56 0 94 -11t62 -33.5t34.5 -58t10.5 -83.5q0 -3 -0.5 -11.5t-0.5 -17.5t-0.5 -17.5t-0.5 -12.5q-7 -25 -26.5 -40.5t-45 -23.5t-53 -11t-49.5 -3q-31 0 -65 4t-63.5 16.5t-48.5 36t-19 62.5zM69 131q0 -26 15.5 -42.5
t37.5 -25.5t47.5 -12t43.5 -3h31.5t26.5 3t27 9t33 17q10 16 11 31.5t1 32.5q0 34 -13 60t-35 42t-52.5 21.5t-67.5 -1.5q-15 -3 -34 -18t-35 -35t-26.5 -41.5t-10.5 -37.5zM47 423q0 16 14.5 25t37.5 13.5t51.5 5t55.5 -1t51 -3t37 -1.5q18 0 32.5 -1t25 -6.5t15.5 -16.5
t5 -31q-49 0 -85 -0.5t-69.5 -1t-69 -1t-81.5 -0.5q-20 0 -20 20z" />
    <glyph glyph-name="Obreve" unicode="&#x14e;" horiz-adv-x="496" 
d="M9 205q0 28 11.5 54.5t31 49.5t45 41.5t53.5 31.5t56 20.5t53 7.5q54 0 94.5 -18.5t68.5 -50.5t42.5 -76t14.5 -96q0 -86 -49.5 -128t-140.5 -42q-26 0 -57 6.5t-62 18.5t-60 29.5t-51 40t-36 50.5t-14 61zM77 203q0 -34 22.5 -61t55 -46t68 -29t62.5 -10q32 0 59 5.5
t47 19t32 36.5t16 57q3 40 -10.5 72.5t-38.5 55.5t-58 35t-69 12q-28 0 -61 -11t-60.5 -30.5t-46 -46.5t-18.5 -59zM145 583q0 4 4.5 12t14.5 8q16 -25 33 -40.5t35 -17.5t39 11t46 45q12 0 18.5 -4t15.5 -12q-14 -29 -33 -48.5t-41 -28.5t-43 -8.5t-39.5 10t-32 28
t-17.5 45.5z" />
    <glyph glyph-name="obreve" unicode="&#x14f;" horiz-adv-x="419" 
d="M19 118q0 34 12 70t34.5 66t53.5 49t71 19q56 0 94 -11t62 -33.5t34.5 -58t10.5 -83.5q0 -3 -0.5 -11.5t-0.5 -17.5t-0.5 -17.5t-0.5 -12.5q-7 -25 -26.5 -40.5t-45 -23.5t-53 -11t-49.5 -3q-31 0 -65 4t-63.5 16.5t-48.5 36t-19 62.5zM69 131q0 -26 15.5 -42.5
t37.5 -25.5t47.5 -12t43.5 -3h31.5t26.5 3t27 9t33 17q10 16 11 31.5t1 32.5q0 34 -13 60t-35 42t-52.5 21.5t-67.5 -1.5q-15 -3 -34 -18t-35 -35t-26.5 -41.5t-10.5 -37.5zM105 562q0 4 4.5 12t14.5 8q16 -25 33 -40.5t35 -17.5t39 11t46 45q12 0 18.5 -4t15.5 -12
q-14 -29 -33 -48.5t-41 -28.5t-43 -8.5t-39.5 10t-32 28t-17.5 45.5z" />
    <glyph glyph-name="Ohungarumlaut" unicode="&#x150;" horiz-adv-x="496" 
d="M9 205q0 28 11.5 54.5t31 49.5t45 41.5t53.5 31.5t56 20.5t53 7.5q54 0 94.5 -18.5t68.5 -50.5t42.5 -76t14.5 -96q0 -86 -49.5 -128t-140.5 -42q-26 0 -57 6.5t-62 18.5t-60 29.5t-51 40t-36 50.5t-14 61zM77 203q0 -34 22.5 -61t55 -46t68 -29t62.5 -10q32 0 59 5.5
t47 19t32 36.5t16 57q3 40 -10.5 72.5t-38.5 55.5t-58 35t-69 12q-28 0 -61 -11t-60.5 -30.5t-46 -46.5t-18.5 -59zM189 495q-9 9 -10.5 20.5t3.5 22.5q10 22 15.5 31t8.5 13l4.5 6t2.5 8t2.5 19.5t4.5 41.5l1 1l2 2q6 8 14.5 5t13.5 -8q10 -9 9.5 -23.5t-4.5 -25.5
q-2 -10 -2 -13v0q-3 -10 -5 -22q-5 -12 -11.5 -26t-18 -28t-30.5 -24zM272 493q-8 8 -10 19.5t4 22.5q9 21 15 30t9 12t3.5 4.5t2 7t3 19t5.5 40.5q0 1 1 1v3q6 5 14.5 2.5t14.5 -6.5q10 -9 9.5 -23t-4.5 -26q-3 -10 -3 -12t-0.5 -5.5t-4 -15.5t-10.5 -25.5t-18.5 -25.5
t-30.5 -22z" />
    </font>
</defs>
</svg>
