<?xml version="1.0" standalone="no"?>
<!DOCTYPE svg PUBLIC "-//W3C//DTD SVG 1.1//EN" "http://www.w3.org/Graphics/SVG/1.1/DTD/svg11.dtd" >
<svg xmlns="http://www.w3.org/2000/svg" xmlns:xlink="http://www.w3.org/1999/xlink" version="1.1">
<metadata>
Created by FontForge 20161013 at Mon May 30 13:00:45 2011
 By ,,,
Copyright (c) 2010, 2011, Denis Masharov &#60;denis.masharov@gmail.com&#62;. This Font Software is licensed under the SIL Open Font License, Version 1.1. This license is available with a FAQ at: http://scripts.sil.org/OFL
</metadata>
<defs>
<font id="TenorSans" horiz-adv-x="602" >
  <font-face 
    font-family="Tenor Sans"
    font-weight="400"
    font-stretch="normal"
    units-per-em="1000"
    panose-1="2 0 0 0 0 0 0 0 0 0"
    ascent="800"
    descent="-200"
    x-height="500"
    cap-height="700"
    bbox="-84 -250 1168 920"
    underline-thickness="50"
    underline-position="-150"
    unicode-range="U+0020-25CA"
  />
<missing-glyph horiz-adv-x="100" 
 />
    <glyph glyph-name=".notdef" horiz-adv-x="100" 
 />
    <glyph glyph-name=".null" horiz-adv-x="0" 
 />
    <glyph glyph-name="nonmarkingreturn" horiz-adv-x="100" 
 />
    <glyph glyph-name="space" unicode=" " horiz-adv-x="350" 
 />
    <glyph glyph-name="space" unicode="&#xa0;" horiz-adv-x="350" 
 />
    <glyph glyph-name="exclam" unicode="!" horiz-adv-x="348" 
d="M120 42q0 22 16 38t38 16t38 -16t16 -38t-16 -38t-38 -16t-38 16t-16 38zM195 134h-47l-31 566h110z" />
    <glyph glyph-name="quotedbl" unicode="&#x22;" horiz-adv-x="345" 
d="M102 516h-41l-31 231h101zM284 516h-38l-31 231h100z" />
    <glyph glyph-name="numbersign" unicode="#" horiz-adv-x="866" 
d="M322 461l43 204h63l-44 -204h159l44 205h60l-43 -205h202l-13 -61h-202l-33 -160h202l-14 -61h-201l-45 -201h-60l43 201h-159l-43 -201h-62l43 201h-202l13 61h204l31 160h-204l15 61h203zM338 240h159l34 160h-161z" />
    <glyph glyph-name="dollar" unicode="$" horiz-adv-x="625" 
d="M268 797v-86q-42 -3 -79 -16.5t-64.5 -37t-43.5 -56t-16 -74.5q0 -44 17.5 -75t46 -53.5t65 -38t74.5 -29.5v-298q-53 4 -84.5 21t-48.5 39t-23 45t-7 39h-68q1 -39 19 -72t48.5 -57t72 -39t91.5 -19v-115h73v115q100 8 158 60.5t58 136.5q0 48 -18.5 81.5t-49 58.5
t-69.5 42t-79 32v263q49 -8 82 -34.5t40 -75.5h68q-11 65 -64 104.5t-126 50.5v88h-73zM473 157q0 -56 -35.5 -86t-96.5 -37v270q27 -11 51 -24.5t42 -30.5t28.5 -39.5t10.5 -52.5zM138 552q0 42 33 74.5t97 39.5v-238q-27 11 -51 23t-41.5 26.5t-27.5 32.5t-10 42z" />
    <glyph glyph-name="percent" unicode="%" horiz-adv-x="742" 
d="M60 554q0 25 8 53t26 51t45.5 38.5t66.5 15.5t67 -15.5t46 -38.5t26 -51t8 -53q0 -32 -10.5 -61.5t-30 -51.5t-46.5 -35t-60 -13t-60 13t-46 35t-29.5 51.5t-10.5 61.5zM125 554q0 -36 8 -60.5t20 -39.5t26.5 -21.5t26.5 -6.5q13 0 27 6.5t26 21.5t20 39.5t8 60.5
q0 21 -4 43t-13 40t-24.5 29.5t-39.5 11.5q-23 0 -38.5 -11.5t-25 -29.5t-13.5 -40t-4 -43zM388 146q0 26 8 54.5t26 52t46 38.5t67 15t67 -15t46 -38.5t26 -52t8 -54.5q0 -31 -10.5 -59.5t-30 -50t-46.5 -34.5t-60 -13t-60 13t-46.5 34.5t-30 50t-10.5 59.5zM454 146
q0 -36 8 -60t20.5 -39t26.5 -21t26 -6t26.5 6t26.5 21t20 39t8 60q0 22 -3.5 45t-13 41t-25 29.5t-39.5 11.5q-23 0 -38.5 -11.5t-25 -29.5t-13.5 -41t-4 -45zM595 712l-387 -724h-59l385 724h61z" />
    <glyph glyph-name="ampersand" unicode="&#x26;" horiz-adv-x="706" 
d="M508 60q-61 -45 -109.5 -58t-89.5 -13q-61 0 -107.5 16.5t-78 44t-47.5 62.5t-16 71q0 38 14.5 70t40 59.5t59.5 50t74 41.5q-32 45 -54.5 82.5t-22.5 79.5q0 25 8.5 51.5t27 47.5t47 34.5t68.5 13.5q31 0 58 -10t47 -29t32 -45.5t12 -59.5q0 -42 -28.5 -82.5
t-98.5 -73.5l199 -262q30 40 46 91.5t19 131.5h78q-5 -54 -20.5 -97t-34 -76t-36 -54.5t-26.5 -31.5l91 -115h-106zM327 669q-22 0 -37.5 -7.5t-25.5 -19.5t-14.5 -27t-4.5 -30q0 -35 22 -68.5t54 -73.5q13 7 28.5 19.5t28.5 29t21.5 37.5t8.5 46q0 13 -4 29.5t-13 30.5
t-24.5 24t-39.5 10zM273 369q-73 -38 -100.5 -75t-27.5 -82q0 -41 17 -72.5t44.5 -53.5t61 -33.5t66.5 -11.5q8 0 24.5 1.5t37.5 6.5t43.5 15t43.5 28z" />
    <glyph glyph-name="quotesingle" unicode="'" horiz-adv-x="160" 
d="M102 516h-42l-30 231h100z" />
    <glyph glyph-name="parenleft" unicode="(" horiz-adv-x="300" 
d="M280 681q-32 -29 -50 -67.5t-28 -91t-12.5 -120.5t-2.5 -156t2.5 -156.5t12.5 -121.5t28 -92.5t50 -67.5v-27q-43 18 -73.5 52t-50.5 77t-31.5 91.5t-17 94t-7 85t-1.5 65.5q0 27 1.5 66.5t7 84.5t17 93t31.5 90.5t50.5 76.5t73.5 53v-29z" />
    <glyph glyph-name="parenright" unicode=")" horiz-adv-x="300" 
d="M20 -190q31 28 49.5 67t28.5 91.5t12.5 121t2.5 155.5q0 88 -3 156.5t-12.5 121.5t-28 92t-49.5 68v27q43 -18 73.5 -52t50.5 -77t31.5 -91.5t17 -94t7 -85t1.5 -65.5t-1.5 -65.5t-7 -85t-17 -93.5t-31.5 -90.5t-50.5 -77t-73.5 -52.5v29z" />
    <glyph glyph-name="asterisk" unicode="*" horiz-adv-x="333" 
d="M82 439l31 99l-83 62h105l31 100l33 -100h104l-85 -62l33 -99l-85 63z" />
    <glyph glyph-name="plus" unicode="+" horiz-adv-x="888" 
d="M475 712v-318h313v-44h-313v-324h-61v324h-314v44h314v318h61z" />
    <glyph glyph-name="comma" unicode="," horiz-adv-x="254" 
d="M93 -136h-33v258h94z" />
    <glyph glyph-name="hyphen" unicode="-" horiz-adv-x="367" 
d="M307 305v-75h-247v75h247z" />
    <glyph glyph-name="period" unicode="." horiz-adv-x="268" 
d="M80 43q0 22 16 38t38 16t38 -16t16 -38t-16 -38t-38 -16t-38 16t-16 38z" />
    <glyph glyph-name="slash" unicode="/" horiz-adv-x="516" 
d="M486 712l-387 -724h-69l385 724h71z" />
    <glyph glyph-name="zero" unicode="0" horiz-adv-x="597" 
d="M60 348q0 29 4.5 67.5t15 79t28 79.5t43.5 69.5t62 49.5t84 19t84.5 -19t63 -49.5t44.5 -69.5t28.5 -79.5t15 -79t4.5 -67.5q0 -63 -14 -126.5t-43.5 -115.5t-75 -84.5t-107.5 -32.5t-106.5 32.5t-73.5 84.5t-43 115.5t-14 126.5zM160 348q0 -51 4 -107t18.5 -102
t41.5 -76t73 -30q47 0 75 30t42.5 76t18.5 102t4 107q0 52 -4 109t-18.5 103.5t-42.5 77t-75 30.5q-46 0 -73 -30.5t-41.5 -77t-18.5 -103.5t-4 -109z" />
    <glyph glyph-name="one" unicode="1" horiz-adv-x="319" 
d="M219 0h-85v606l-77 -80l-27 28l141 146h48v-700z" />
    <glyph glyph-name="two" unicode="2" horiz-adv-x="544" 
d="M514 0h-460l189 211q25 30 53.5 65t52.5 74t40 81t16 86q0 69 -36.5 110t-93.5 41q-34 0 -56.5 -13t-37 -34.5t-21.5 -50t-10 -59.5h-100q0 42 17 79t47.5 64t71.5 42.5t89 15.5q54 0 97 -15.5t72 -42.5t44.5 -62.5t15.5 -74.5q0 -49 -9.5 -84t-30 -67.5t-53 -68.5
t-78.5 -86l-130 -139h311v-72z" />
    <glyph glyph-name="three" unicode="3" horiz-adv-x="574" 
d="M241 394q21 0 48.5 4.5t52 19t41 41.5t16.5 71q0 27 -7.5 51.5t-23 44t-39.5 31t-57 11.5q-21 0 -40 -5t-34 -18.5t-25 -37.5t-14 -61h-89q1 27 11.5 56.5t34.5 54t63 40t98 15.5q54 0 93.5 -15.5t65 -41t37.5 -59.5t12 -71q0 -52 -28 -84.5t-85 -56.5l-11 -4v-7l11 -2
q33 -5 59 -21.5t44.5 -40t28.5 -52t10 -56.5q0 -40 -15.5 -78t-46.5 -67.5t-77.5 -47.5t-108.5 -18q-44 -1 -83 12t-68.5 36.5t-47 54.5t-17.5 65h100q1 -24 10.5 -47t26 -40t39.5 -27.5t52 -10.5q60 0 97.5 40t37.5 124q0 18 -4 44t-20.5 50.5t-51.5 41.5t-96 17v44z" />
    <glyph glyph-name="four" unicode="4" horiz-adv-x="547" 
d="M412 221h95v-53h-95v-168h-81v168h-301l345 532h37v-479zM108 221h223v345z" />
    <glyph glyph-name="five" unicode="5" horiz-adv-x="564" 
d="M177 449q28 11 50.5 16.5t50.5 5.5q48 0 89 -15.5t71.5 -45t48 -70.5t17.5 -92q0 -62 -20.5 -110t-56 -81t-83 -50.5t-101.5 -17.5q-46 0 -84.5 13.5t-66.5 36.5t-44.5 55t-17.5 68h73q1 -27 11 -50.5t27.5 -41t42.5 -27.5t57 -10q29 0 58 11.5t52.5 37t38 65t14.5 95.5
q0 79 -42 128t-126 49q-20 0 -55 -4t-78 -26l89 311h303l-20 -55h-240z" />
    <glyph glyph-name="six" unicode="6" horiz-adv-x="585" 
d="M490 594q-4 31 -20 53.5t-40 36.5t-54 21t-63 7q-69 0 -117 -30.5t-78.5 -81t-44 -115.5t-13.5 -133q0 -64 9 -128.5t34.5 -116.5t72 -85t120.5 -33q51 0 93 19t72 52t47 77t17 94q0 60 -19 103t-49 71t-67.5 41.5t-74.5 13.5q-62 0 -99.5 -25t-54.5 -59l-12 -23h-4
q0 70 6.5 128t24.5 99.5t50 64.5t82 23q38 0 65 -19.5t33 -54.5h84zM155 224q0 52 13 88.5t33.5 59t45.5 33t50 10.5q22 0 46 -9t44 -31t32.5 -59t12.5 -92q0 -60 -14 -97.5t-35 -58.5t-44.5 -28t-42.5 -7q-24 0 -49.5 10.5t-45.5 34t-33 59.5t-13 87z" />
    <glyph glyph-name="seven" unicode="7" horiz-adv-x="531" 
d="M501 700h-471v-55h366l-113 -278h-111v-43h94l-131 -324h83l131 324h102v43h-85z" />
    <glyph glyph-name="eight" unicode="8" horiz-adv-x="585" 
d="M218 377q-35 4 -60.5 20t-43 38.5t-26 48.5t-8.5 52q0 28 11 59t36 57t65 43t99 17q58 0 98.5 -17t65.5 -43t36.5 -57t11.5 -59q0 -26 -8.5 -52t-26 -48.5t-43 -38.5t-59.5 -20v-5q37 -2 66.5 -18.5t50 -42t31.5 -56.5t11 -62q0 -37 -14.5 -73.5t-43.5 -65.5t-73 -47
t-103 -18t-102.5 18t-72 47t-42.5 65.5t-14 73.5q0 31 11 62t31 56.5t49.5 42t66.5 18.5v5zM291 389q25 0 48.5 8.5t42 26t29.5 43t11 60.5q0 42 -13.5 69.5t-33.5 43t-42.5 22t-41.5 6.5t-41 -6.5t-41.5 -22t-32.5 -43t-13 -69.5q0 -35 11 -60.5t29 -43t41 -26t47 -8.5z
M291 354q-30 0 -55 -11.5t-42.5 -32t-27 -48t-9.5 -59.5q0 -78 36.5 -124t97.5 -46q63 0 100 46t37 124q0 32 -9.5 59.5t-27.5 48t-43.5 32t-56.5 11.5z" />
    <glyph glyph-name="nine" unicode="9" horiz-adv-x="585" 
d="M179 107q6 -35 33 -54.5t65 -19.5q50 0 82 23t50 64.5t24.5 99.5t6.5 128h-4l-9 -23q-9 -23 -26.5 -38.5t-39.5 -25.5t-46.5 -14t-48.5 -4q-34 0 -70.5 13t-66.5 41t-49.5 70.5t-19.5 102.5q0 49 17 93t47 77t72 52.5t93 19.5q74 0 120.5 -33t72 -85t34.5 -117t9 -128
q0 -68 -13.5 -133t-44 -115.5t-78.5 -81t-117 -30.5q-33 0 -63 7t-54 21t-40 36.5t-20 53.5h84zM430 477q0 51 -13 87t-33 59.5t-45.5 34t-49.5 10.5q-19 0 -42.5 -7t-44.5 -28t-35 -58.5t-14 -97.5q0 -56 12.5 -92.5t32.5 -58.5t43.5 -31t46.5 -9q25 0 50 10.5t45.5 33
t33.5 59t13 88.5z" />
    <glyph glyph-name="colon" unicode=":" horiz-adv-x="228" 
d="M60 42q0 -22 16 -38t38 -16t38 16t16 38t-16 38t-38 16t-38 -16t-16 -38zM60 457q0 -22 16 -38t38 -16t38 16t16 38t-16 38t-38 16t-38 -16t-16 -38z" />
    <glyph glyph-name="semicolon" unicode=";" horiz-adv-x="228" 
d="M157 122h-94v-258h33zM60 457q0 -22 16 -38t38 -16t38 16t16 38t-16 38t-38 16t-38 -16t-16 -38z" />
    <glyph glyph-name="less" unicode="&#x3c;" horiz-adv-x="782" 
d="M60 329l646 -273l16 44l-525 229l525 232l-16 44z" />
    <glyph glyph-name="equal" unicode="=" horiz-adv-x="888" 
d="M100 223h688v62h-688v-62zM100 475v-61h688v61h-688z" />
    <glyph glyph-name="greater" unicode="&#x3e;" horiz-adv-x="781" 
d="M721 329l-645 276l-16 -44l525 -232l-525 -229l16 -44z" />
    <glyph glyph-name="question" unicode="?" horiz-adv-x="519" 
d="M324 257q-16 -20 -35 -36t-42 -16q-12 0 -24.5 11.5t-12.5 31.5q0 27 15.5 52t38.5 49.5t50.5 49t50.5 51.5t38.5 57.5t15.5 65.5q0 25 -7.5 50t-26 44.5t-50.5 32t-81 12.5q-38 0 -66.5 -9.5t-48 -26.5t-29 -40t-10.5 -49h70v6q0 18 7.5 33.5t20.5 26.5t29 17t33 6
q16 0 32.5 -6t30 -16.5t21.5 -25t8 -32.5q0 -31 -14.5 -56.5t-36 -48.5t-46.5 -45.5t-47.5 -46.5t-38 -51t-17.5 -61v-10q0 -23 7 -43.5t21 -36t35 -24.5t50 -9q25 0 54.5 16t52.5 44zM197 42q0 -22 16 -38t38 -16t38 16t16 38t-16 38t-38 16t-38 -16t-16 -38z" />
    <glyph glyph-name="at" unicode="@" horiz-adv-x="1029" 
d="M789 536h-86l-21 -62q-16 24 -33.5 37.5t-34 20t-31 8.5t-24.5 2q-59 0 -110 -23t-89 -63t-59.5 -92.5t-21.5 -111.5q0 -53 15.5 -90.5t41 -61.5t58 -35t66.5 -11q35 0 66.5 13.5t68.5 42.5q14 -22 30.5 -35t33.5 -20t32.5 -9t27.5 -2q53 0 98.5 23.5t79.5 65t53 97
t19 118.5q0 42 -6 84t-21 82q-18 46 -53 92t-85 83t-115 59.5t-143 22.5q-49 0 -97.5 -6.5t-93.5 -23.5q-69 -27 -123.5 -73t-93 -104.5t-58.5 -127t-20 -138.5q0 -87 32 -172.5t91.5 -154t145 -110.5t193.5 -42q28 0 61.5 3t71.5 14t80 31.5t89 55.5l-23 29
q-11 -10 -34 -26.5t-58.5 -32t-82.5 -26.5t-107 -11q-98 0 -176.5 38.5t-133 101t-84 141.5t-29.5 160q0 78 23.5 144.5t62 118t87 88.5t99.5 57q38 15 78.5 22t81.5 7q92 0 167 -29.5t127.5 -81.5t81 -122.5t28.5 -152.5q0 -60 -20 -109t-50 -84.5t-65.5 -54.5t-67.5 -19
q-6 0 -14.5 2.5t-16.5 9.5t-13.5 20t-5.5 34q0 11 4.5 31.5t15.5 56.5zM587 157q-8 -11 -19.5 -22.5t-26.5 -21t-33 -15.5t-39 -6q-46 0 -68 34t-22 88q0 62 16 116t41 93.5t56.5 62t63.5 22.5q38 0 66 -27.5t36 -72.5z" />
    <glyph glyph-name="A" unicode="A" horiz-adv-x="732" 
d="M509 206l96 -206h97l-326 700h-50l-296 -700h46l88 206h345zM488 251h-305l144 337h4z" />
    <glyph glyph-name="B" unicode="B" horiz-adv-x="661" 
d="M120 0h251q67 0 113 17.5t74 45.5t40.5 63.5t12.5 71.5q0 57 -24.5 91t-58.5 52t-70 24t-58 7v4q35 0 66 13.5t54.5 35t37.5 50t14 60.5q0 28 -12 57t-36.5 53t-63 39.5t-90.5 15.5h-250v-700zM211 44v306h110q49 0 85 -13t59.5 -35t35 -51t11.5 -61q0 -35 -12.5 -62
t-33.5 -46t-49.5 -28.5t-60.5 -9.5h-145zM211 394v262h122q39 0 66.5 -11t45 -29t25.5 -41t8 -46q0 -29 -11.5 -54t-32 -43t-47 -28t-56.5 -10h-120z" />
    <glyph glyph-name="C" unicode="C" horiz-adv-x="759" 
d="M709 129q-102 -96 -242 -96q-78 0 -138 27t-100 72t-60.5 104t-20.5 123q0 68 21.5 124.5t60.5 97.5t92.5 64t116.5 23q43 0 78.5 -10t63 -26t45 -36.5t24.5 -41.5h74q-15 34 -38.5 63t-58.5 50t-82 33t-107 12q-87 0 -158.5 -25t-122.5 -71.5t-79 -112t-28 -146.5
q0 -70 22.5 -136.5t69.5 -118t120 -83t174 -31.5q64 0 114.5 12t88 29.5t62.5 37.5t38 35z" />
    <glyph glyph-name="D" unicode="D" horiz-adv-x="765" 
d="M130 0v700h230q83 0 152 -26.5t118.5 -73t77 -110.5t27.5 -138q0 -77 -28.5 -141.5t-78 -111.5t-115.5 -73t-141 -26h-242zM221 44h110q82 0 139.5 27.5t94.5 71.5t54 98.5t17 108.5q0 60 -20 115.5t-58.5 98t-95.5 67.5t-131 25h-110v-612z" />
    <glyph glyph-name="E" unicode="E" 
d="M120 700v-700h452v55h-361v293h310v46h-310v251h361v55h-452z" />
    <glyph glyph-name="F" unicode="F" 
d="M120 700v-700h91v348h310v46h-310v251h361v55h-452z" />
    <glyph glyph-name="G" unicode="G" horiz-adv-x="817" 
d="M757 312h-198v-41h112v-181q-45 -29 -92 -43t-107 -14q-79 0 -138 24t-98 66.5t-58.5 101t-19.5 128.5q0 69 18.5 127t55.5 100t90.5 65t124.5 23q47 0 88 -10t73 -26t52.5 -36.5t26.5 -41.5h72q-9 22 -30.5 49.5t-58.5 51.5t-91.5 40.5t-128.5 16.5q-85 0 -156.5 -24
t-123.5 -69t-81 -110.5t-29 -148.5q0 -71 22.5 -137.5t69 -119t118.5 -84t172 -31.5q75 0 133 16.5t96 36.5v-41h86v312z" />
    <glyph glyph-name="H" unicode="H" horiz-adv-x="841" 
d="M211 348h419v-348h91v700h-91v-306h-419v306h-91v-700h91v348z" />
    <glyph glyph-name="I" unicode="I" horiz-adv-x="411" 
d="M160 700v-700h91v700h-91z" />
    <glyph glyph-name="J" unicode="J" horiz-adv-x="522" 
d="M311 700v-505q0 -24 -1.5 -52.5t-11.5 -53t-30.5 -41t-58.5 -16.5q-33 0 -54.5 12t-34 30t-18 38.5t-5.5 36.5h-87q2 -77 50 -119t144 -42q69 0 109 20.5t59.5 52t24.5 68.5t5 69v502h-91z" />
    <glyph glyph-name="K" unicode="K" horiz-adv-x="724" 
d="M120 0h91v246l113 121l266 -367h104l-312 429l254 271h-50l-375 -394v394h-91v-700z" />
    <glyph glyph-name="L" unicode="L" 
d="M120 0v700h91v-645h361v-55h-452z" />
    <glyph glyph-name="M" unicode="M" horiz-adv-x="1026" 
d="M188 700h-68v-700h44v571h4l309 -583h18l316 579h4v-567h91v700h-69l-324 -601h-4z" />
    <glyph glyph-name="N" unicode="N" horiz-adv-x="850" 
d="M684 700v-535h-4l-555 547h-5v-712h46v535h4l555 -547h5v712h-46z" />
    <glyph glyph-name="O" unicode="O" horiz-adv-x="865" 
d="M50 350q0 -56 21.5 -119.5t67.5 -117.5t117 -89.5t170 -35.5q67 0 121.5 16.5t98 44.5t75.5 64.5t52.5 77t31 81.5t10.5 78q0 56 -23 119.5t-71 117.5t-121.5 89.5t-173.5 35.5q-99 0 -170 -35t-117 -88.5t-67.5 -117.5t-21.5 -121zM148 350q0 70 21.5 128.5t59 100.5
t88.5 65.5t111 23.5q59 0 111.5 -23.5t92 -65.5t62.5 -100.5t23 -128.5t-23 -128.5t-62.5 -100.5t-92 -65.5t-111.5 -23.5q-60 0 -111 23.5t-88.5 65.5t-59 100.5t-21.5 128.5z" />
    <glyph glyph-name="P" unicode="P" horiz-adv-x="613" 
d="M211 292q26 -7 56 -11.5t66 -4.5q61 0 108 17t78.5 46.5t47.5 68t16 82.5q0 42 -14 80.5t-42.5 67t-71.5 45.5t-101 17h-234v-700h91v292zM211 656h105q42 0 74 -15t53 -39.5t31.5 -55t10.5 -60.5q0 -29 -9.5 -58.5t-30.5 -53.5t-53 -39t-77 -15q-31 0 -57 2.5t-47 10.5
v323z" />
    <glyph glyph-name="Q" unicode="Q" horiz-adv-x="894" 
d="M675 -88l76 27l-95 99q49 29 84 67.5t57 80.5t32 84.5t10 80.5q0 57 -22.5 120.5t-70 117t-121 88.5t-176.5 35q-102 0 -174.5 -35t-119 -88t-68.5 -117t-22 -121q0 -74 28 -140t79 -115.5t121.5 -78.5t155.5 -29q34 0 67 4.5t65 15.5zM537 163l-63 -41l71 -73
q-26 -10 -52 -13.5t-53 -3.5q-55 0 -105 21.5t-88 63t-60.5 100.5t-22.5 134q0 71 22.5 129.5t61 100t90.5 64.5t111 23q61 0 114 -23t92 -64.5t61.5 -100t22.5 -129.5q0 -19 -2.5 -49.5t-14.5 -67t-37.5 -75.5t-71.5 -75z" />
    <glyph glyph-name="R" unicode="R" horiz-adv-x="718" 
d="M120 700v-700h91v309h44q28 0 46.5 -5t33.5 -17t28 -31t31 -47l79 -117q15 -23 29.5 -42t31.5 -32.5t38.5 -21.5t51.5 -8q22 0 36 2t28 10v37q-5 -1 -10 -1.5t-10 -0.5q-21 0 -37 6t-30 17.5t-27 28t-27 37.5q-42 61 -65 97.5t-36.5 56.5t-22 29t-20.5 15l-10 5v4
q48 3 82.5 21t56.5 45t32 58.5t10 61.5q0 27 -10.5 59t-36 59.5t-69.5 46t-111 18.5h-227zM211 656h101q38 0 68.5 -11t52.5 -30.5t33.5 -46.5t11.5 -59q0 -27 -10.5 -54.5t-31.5 -50t-51.5 -36.5t-70.5 -14h-103v302z" />
    <glyph glyph-name="S" unicode="S" horiz-adv-x="625" 
d="M37 177q2 -43 22.5 -78t56 -59.5t83.5 -38t105 -13.5q58 0 104.5 14t79.5 40t51 63t18 82q0 62 -31 101.5t-77.5 66t-101 44.5t-101 38t-77.5 46t-31 69q0 24 10.5 45t31 36.5t50.5 25t69 9.5q65 0 110.5 -27.5t53.5 -86.5h68q-6 37 -27 66.5t-53 50t-72.5 31t-84.5 10.5
q-46 0 -87.5 -12t-73 -35t-50 -58t-18.5 -80q0 -59 30 -95t75.5 -60t98.5 -41t98.5 -38.5t75.5 -52.5t30 -83q0 -65 -47.5 -95t-126.5 -30q-63 0 -101 16.5t-58 39.5t-27 47.5t-8 41.5h-68z" />
    <glyph glyph-name="T" unicode="T" horiz-adv-x="667" 
d="M379 0v645h268v55h-627v-55h268v-645h91z" />
    <glyph glyph-name="U" unicode="U" horiz-adv-x="720" 
d="M80 700v-430q0 -41 8 -90.5t38 -92t89 -71t161 -28.5q64 0 113.5 20t83 55t50.5 81.5t17 99.5v456h-44v-423q0 -22 -1 -44.5t-6 -45t-15.5 -44.5t-30.5 -44q-36 -39 -81 -53t-94 -14q-42 0 -74.5 13t-61.5 39q-23 20 -35 40t-18 39.5t-7 39.5t-1 40v457h-91z" />
    <glyph glyph-name="V" unicode="V" horiz-adv-x="697" 
d="M30 700l293 -700h60l284 700h-52l-233 -576h-4l-240 576h-108z" />
    <glyph glyph-name="W" unicode="W" horiz-adv-x="1056" 
d="M30 700l248 -700h60l191 547h5l185 -547h59l248 700h-46l-207 -584h-4l-195 584h-43l-199 -581h-4l-206 581h-92z" />
    <glyph glyph-name="X" unicode="X" horiz-adv-x="719" 
d="M142 700h-112l273 -351l-268 -349h54l239 313h4l244 -313h113l-303 387l239 313h-53l-211 -275h-5z" />
    <glyph glyph-name="Y" unicode="Y" horiz-adv-x="639" 
d="M30 700l242 -435v-265h91v274l246 426h-54l-214 -369h-4l-204 369h-103z" />
    <glyph glyph-name="Z" unicode="Z" horiz-adv-x="666" 
d="M55 700v-55h423l-448 -645h606v55h-461l444 645h-564z" />
    <glyph glyph-name="bracketleft" unicode="[" horiz-adv-x="305" 
d="M100 -220h175v49h-87v823h87v48h-175v-920z" />
    <glyph glyph-name="backslash" unicode="\" horiz-adv-x="516" 
d="M101 712l385 -724h-69l-387 724h71z" />
    <glyph glyph-name="bracketright" unicode="]" horiz-adv-x="305" 
d="M205 -220h-175v49h87v823h-87v48h175v-920z" />
    <glyph glyph-name="asciicircum" unicode="^" horiz-adv-x="436" 
d="M218 817l158 -63v36l-136 88h-42l-138 -88v-36z" />
    <glyph glyph-name="underscore" unicode="_" horiz-adv-x="759" 
d="M30 -220h699v72h-699v-72z" />
    <glyph glyph-name="grave" unicode="`" horiz-adv-x="223" 
d="M127 712h-111l155 -127h39z" />
    <glyph glyph-name="a" unicode="a" horiz-adv-x="540" 
d="M264 511q73 0 113 -20.5t58.5 -53.5t21.5 -76t3 -88v-273h-81v49q-29 -28 -74 -44.5t-90 -16.5q-43 0 -76 15t-55 39t-33 54t-11 61q0 32 12 64t36 57.5t59 41.5t80 16t85.5 -17.5t66.5 -49.5v43q0 82 -24.5 122t-89.5 40q-28 0 -49 -7t-37.5 -19.5t-30.5 -31t-28 -41.5
l-52 52q14 15 29.5 30t38 27t53.5 19.5t75 7.5zM379 198q-5 12 -14.5 28t-24.5 31t-36 25.5t-50 10.5t-53 -11.5t-40.5 -30t-25.5 -43.5t-9 -52q0 -32 11.5 -55.5t29.5 -40t40 -24.5t42 -8q19 0 38.5 7t37 19.5t31.5 29.5t23 37v77z" />
    <glyph glyph-name="b" unicode="b" horiz-adv-x="604" 
d="M80 700h85v-282h4q10 26 26.5 43.5t37.5 28.5t44.5 16t47.5 5q50 0 92 -18.5t72.5 -52.5t47.5 -82t17 -107q0 -60 -17 -108.5t-47.5 -83t-72.5 -53t-92 -18.5q-119 0 -156 93h-4v-81h-85v700zM165 200q0 -33 10.5 -62.5t29.5 -51t44.5 -34t54.5 -12.5q31 0 59.5 11.5
t49.5 36.5t33.5 65t12.5 96q0 57 -12.5 97t-34 65.5t-49.5 37t-59 11.5q-28 0 -53 -11.5t-44 -34t-30.5 -54.5t-11.5 -73v-87z" />
    <glyph glyph-name="c" unicode="c" horiz-adv-x="544" 
d="M331 40q-36 0 -69.5 11t-59.5 35.5t-41.5 65t-15.5 99.5q0 61 17 103.5t42.5 68t56.5 37t59 11.5q46 0 80 -24t45 -59h69q-10 36 -32 59.5t-50.5 38t-61 20t-62.5 5.5q-63 0 -111 -20.5t-81 -55.5t-49.5 -82t-16.5 -100q0 -56 18 -104.5t51.5 -84t80.5 -56t106 -20.5
q66 0 115.5 22t83.5 48l-29 38q-35 -29 -69.5 -42.5t-75.5 -13.5z" />
    <glyph glyph-name="d" unicode="d" horiz-adv-x="604" 
d="M524 700h-85v-282h-4q-10 26 -26.5 43.5t-37.5 28.5t-44.5 16t-47.5 5q-50 0 -92 -18.5t-72.5 -52.5t-47.5 -82t-17 -107q0 -60 17 -108.5t47.5 -83t72.5 -53t92 -18.5q118 0 156 93h4v-81h85v700zM439 200q0 -33 -11 -62.5t-29.5 -51t-44 -34t-54.5 -12.5
q-32 0 -60 11.5t-49 36.5t-33.5 65t-12.5 96q0 57 12.5 97t34 65.5t49.5 37t59 11.5q28 0 53 -11.5t44 -34t30.5 -54.5t11.5 -73v-87z" />
    <glyph glyph-name="e" unicode="e" horiz-adv-x="574" 
d="M524 228v21q0 67 -19 116t-51.5 81t-75.5 48t-91 16q-51 0 -94 -17.5t-75 -51t-50 -81t-18 -107.5q0 -50 15.5 -97.5t47 -85t80 -60t114.5 -22.5q64 0 118 22.5t94 64.5l-32 32q-21 -18 -39.5 -33t-37.5 -25t-39.5 -15.5t-45.5 -5.5q-28 0 -59.5 8.5t-58.5 30.5t-45 61
t-18 100h380zM144 268q0 40 8.5 77.5t26 66.5t44.5 46.5t64 17.5q71 0 110.5 -55.5t39.5 -152.5h-293z" />
    <glyph glyph-name="f" unicode="f" horiz-adv-x="363" 
d="M30 500v-40h87v-460h85v460h121v40h-121v84q0 12 1 28.5t6 31t15.5 24.5t29.5 10q24 0 39.5 -20t25.5 -41l44 47q-24 24 -49.5 36t-57.5 12q-26 0 -51 -9t-44.5 -27.5t-31.5 -47.5t-12 -68v-60h-87z" />
    <glyph glyph-name="g" unicode="g" 
d="M437 -42q0 -46 -11 -78t-30.5 -52t-46 -29t-56.5 -9q-53 0 -85.5 27t-59.5 72l-55 -50q7 -9 22 -23.5t38 -29t55 -25t73 -10.5q76 0 123 21.5t73 57.5t35.5 82.5t9.5 96.5v491h-85v-78h-4q-12 42 -51.5 65.5t-103.5 23.5q-51 0 -93 -18.5t-72 -52.5t-46.5 -82t-16.5 -107
q0 -60 16.5 -108.5t46.5 -83t71.5 -53t92.5 -18.5q56 0 97.5 22t58.5 70h4v-122zM437 213q0 -42 -11.5 -74t-30.5 -54t-44 -33.5t-52 -11.5q-24 0 -51.5 8.5t-51 31.5t-39 65t-15.5 108q0 70 19 111.5t44.5 63.5t52 28.5t41.5 6.5q33 0 59 -14.5t43.5 -39t26.5 -56.5t9 -66
v-74z" />
    <glyph glyph-name="h" unicode="h" horiz-adv-x="569" 
d="M80 700v-700h85v289q0 20 3 49t16.5 56t40.5 46.5t75 19.5q34 0 54.5 -12.5t31.5 -33.5t14.5 -49t3.5 -58v-307h85v330q0 56 -16 91.5t-40 55.5t-52.5 27t-54.5 7q-35 0 -73.5 -13.5t-72.5 -51.5l-11 -14h-4v268h-85z" />
    <glyph glyph-name="i" unicode="i" horiz-adv-x="308" 
d="M112 500v-500h85v500h-85zM100 658q0 -22 16 -38t38 -16t38 16t16 38t-16 38t-38 16t-38 -16t-16 -38z" />
    <glyph glyph-name="j" unicode="j" horiz-adv-x="291" 
d="M113 500v-592q0 -23 -2 -44.5t-8.5 -38.5t-19 -27t-32.5 -10q-25 0 -37.5 12t-23.5 38l-50 -39q22 -29 51.5 -39t61.5 -10q22 0 47.5 8t47.5 30.5t36.5 62t14.5 102.5v547h-86zM103 658q0 -22 15.5 -38t38.5 -16q22 0 38 16t16 38t-16 38t-38 16q-23 0 -38.5 -16
t-15.5 -38z" />
    <glyph glyph-name="k" unicode="k" horiz-adv-x="536" 
d="M165 700h-85v-700h85v188l58 59l201 -247h112l-251 308l191 192h-65l-246 -248v448z" />
    <glyph glyph-name="l" unicode="l" horiz-adv-x="285" 
d="M185 700h-85v-700h85v700z" />
    <glyph glyph-name="m" unicode="m" horiz-adv-x="859" 
d="M165 0v285q0 18 3 47.5t15.5 58t38.5 49t73 20.5q34 0 52.5 -15t27.5 -37t10.5 -46t1.5 -42v-320h85v285q0 22 4 52.5t17 57.5t37.5 46t66.5 19q31 0 50 -9t29.5 -27t14 -44t3.5 -60v-320h85v349q0 23 -5 51.5t-21.5 53t-48 41t-83.5 16.5q-15 0 -35 -3t-42 -13
t-42.5 -29t-35.5 -50h-7q-6 16 -17 32.5t-28 30.5t-40.5 23t-56.5 9q-15 0 -36 -3.5t-42 -13.5t-39.5 -28t-30.5 -47h-4v81h-85v-500h85z" />
    <glyph glyph-name="n" unicode="n" horiz-adv-x="581" 
d="M498 0v324q0 18 -3 49.5t-19.5 62t-52.5 53t-102 22.5q-29 1 -65 -11.5t-71 -47.5l-16 -16h-4v64h-85v-500h85v309q0 39 11 67t30 47t43.5 28t50.5 9q42 0 65 -16.5t33.5 -38.5t12.5 -44t2 -32v-329h85z" />
    <glyph glyph-name="o" unicode="o" horiz-adv-x="618" 
d="M568 249q0 -52 -18 -99.5t-51.5 -83.5t-81 -57t-106.5 -21q-60 0 -108.5 21.5t-82 57.5t-52 83.5t-18.5 98.5q0 52 18.5 99.5t52 83.5t82 57.5t108.5 21.5q59 0 106.5 -21.5t81 -57.5t51.5 -83.5t18 -99.5zM473 249q0 70 -15 113.5t-39 67.5t-53 32.5t-56 8.5t-56 -8.5
t-53.5 -32.5t-40 -67.5t-15.5 -113.5q0 -69 15.5 -112.5t40 -67.5t53.5 -32.5t56 -8.5t56 8.5t53 32.5t39 67.5t15 112.5z" />
    <glyph glyph-name="p" unicode="p" horiz-adv-x="604" 
d="M80 -250h85v332h4q10 -26 26.5 -44t37.5 -29t44.5 -16t47.5 -5q50 0 92 18.5t72.5 52.5t47.5 82.5t17 107.5q0 60 -17 108t-47.5 82.5t-72.5 53t-92 18.5q-119 0 -156 -92h-4v81h-85v-750zM165 300q0 33 10.5 62.5t29.5 51t44.5 34t54.5 12.5q31 0 59.5 -11.5t49.5 -36.5
t33.5 -65t12.5 -96q0 -57 -12.5 -97t-34 -65.5t-49.5 -37t-59 -11.5q-28 0 -53 11.5t-44 34t-30.5 54.5t-11.5 73v87z" />
    <glyph glyph-name="q" unicode="q" horiz-adv-x="604" 
d="M524 -250h-85v332h-4q-10 -26 -26.5 -44t-37.5 -29t-44.5 -16t-47.5 -5q-50 0 -92 18.5t-72.5 52.5t-47.5 82.5t-17 107.5q0 60 17 108t47.5 82.5t72.5 53t92 18.5q119 0 156 -92h4v81h85v-750zM439 300q0 33 -11 62.5t-29.5 51t-44 34t-54.5 12.5q-32 0 -60 -11.5
t-49 -36.5t-33.5 -65t-12.5 -96q0 -57 12.5 -97t34 -65.5t49.5 -37t59 -11.5q28 0 53 11.5t44 34t30.5 54.5t11.5 73v87z" />
    <glyph glyph-name="r" unicode="r" horiz-adv-x="382" 
d="M80 500v-500h85v302q0 41 9.5 69.5t24.5 46.5t33 26t35 8q23 0 42.5 -15t28.5 -28l34 62q-9 12 -21.5 20t-25 12.5t-23 6t-15.5 1.5q-42 0 -70 -23t-46 -68h-6v80h-85z" />
    <glyph glyph-name="s" unicode="s" horiz-adv-x="480" 
d="M399 386q0 27 -14 50t-38.5 39.5t-57 26t-69.5 9.5q-35 0 -65.5 -9t-53 -27t-35.5 -44.5t-13 -61.5q0 -48 22 -76t55 -45t71.5 -27.5t71.5 -23t55 -31.5t22 -52q0 -14 -4.5 -29t-16.5 -27.5t-33 -21t-53 -8.5q-40 0 -67.5 12.5t-45 30t-25 35.5t-7.5 30h-65
q0 -28 13 -54.5t39.5 -47.5t65 -33.5t89.5 -12.5q92 0 138.5 40.5t46.5 106.5q0 48 -22.5 77t-56.5 46.5t-73.5 28.5t-73.5 23t-56.5 29t-22.5 48q0 13 5 27.5t17 27t32 21t50 8.5t52 -8.5t37 -21t22 -27.5t7 -28h57z" />
    <glyph glyph-name="t" unicode="t" horiz-adv-x="375" 
d="M30 460v40h87v154h85v-154h121v-40h-121v-332q0 -12 1 -27.5t6 -29t15.5 -22.5t29.5 -9q24 0 40 18t26 39l47 -48q-49 -49 -111 -49q-26 0 -51 9t-44.5 27.5t-31.5 47.5t-12 68v308h-87z" />
    <glyph glyph-name="u" unicode="u" horiz-adv-x="581" 
d="M80 500v-325q0 -18 3.5 -49.5t20.5 -62t53.5 -53t102.5 -22.5q29 -1 63.5 11.5t69.5 47.5l16 16h4v-63h85v500h-85v-310q0 -39 -11 -67t-29 -46.5t-42 -27.5t-50 -9q-42 0 -65.5 16.5t-35 38.5t-13.5 43.5t-2 31.5v330h-85z" />
    <glyph glyph-name="v" unicode="v" horiz-adv-x="510" 
d="M20 500l208 -500h60l202 500h-47l-162 -401h-6l-167 401h-88z" />
    <glyph glyph-name="w" unicode="w" horiz-adv-x="746" 
d="M20 500l173 -500h54l116 335h4l130 -335h47l182 500h-52l-136 -374h-4l-142 374h-20l-131 -377h-4l-130 377h-87z" />
    <glyph glyph-name="x" unicode="x" horiz-adv-x="531" 
d="M246 207l153 -207h102l-204 274l168 226h-58l-139 -187l-137 187h-101l187 -254l-186 -246h59z" />
    <glyph glyph-name="y" unicode="y" horiz-adv-x="504" 
d="M274 117l-173 383h-91l224 -494l-53 -130q-9 -23 -23.5 -37t-33.5 -14q-18 0 -34.5 10.5t-25.5 30.5l-44 -83q19 -17 42 -25t43 -8q28 0 49 14t37 36.5t28 50t23 54.5l242 595h-49l-157 -383h-4z" />
    <glyph glyph-name="z" unicode="z" horiz-adv-x="490" 
d="M36 500v-40h301l-317 -460h437v40h-314l317 460h-424z" />
    <glyph glyph-name="braceleft" unicode="{" horiz-adv-x="356" 
d="M60 291q15 -2 32 -8.5t31.5 -23t24.5 -44.5t10 -73q0 -35 -2 -63.5t-2 -57.5q0 -23 5 -54t22.5 -59.5t51.5 -49t93 -22.5v59q-27 6 -42 19t-23 28t-10 30.5t-2 27.5q0 31 3 61.5t3 59.5q0 77 -30.5 123.5t-97.5 77.5v8q67 31 97.5 78t30.5 124q0 32 -3 62t-3 62
q0 11 2 26.5t10 30.5t23 28t42 20v58q-30 -1 -60.5 -9.5t-55 -29.5t-40.5 -56.5t-16 -90.5q0 -30 2 -59.5t2 -59.5q0 -41 -8 -69t-21.5 -45.5t-31.5 -26.5t-37 -10v-72z" />
    <glyph glyph-name="bar" unicode="|" horiz-adv-x="273" 
d="M100 885v-1134h73v1134h-73z" />
    <glyph glyph-name="braceright" unicode="}" horiz-adv-x="358" 
d="M298 363q-14 1 -31 7.5t-32 23t-25 45.5t-10 75q0 30 2 59.5t2 59.5q0 55 -16 90.5t-41.5 56.5t-56.5 29.5t-60 9.5v-58q25 -6 40.5 -17.5t24 -26t11.5 -30.5t3 -31q0 -32 -3 -62t-3 -62q0 -77 29.5 -124t96.5 -78v-8q-67 -31 -96.5 -77.5t-29.5 -123.5q0 -29 3 -59.5
t3 -61.5q0 -15 -3 -31.5t-11.5 -31t-24 -25.5t-40.5 -17v-59q61 3 96 25t52 51.5t21.5 59.5t4.5 49q0 29 -2 57.5t-2 63.5q0 39 8 66.5t21.5 45.5t31.5 26.5t37 10.5v72z" />
    <glyph glyph-name="asciitilde" unicode="~" 
d="M87 284q11 16 29 25.5t48 9.5q35 0 60 -2t45 -5.5t38 -7.5t39 -8l57 -10q5 -1 10 -1h11q13 0 28.5 3t31 11.5t31 24.5t27.5 43l-23 15q-17 -18 -37 -25.5t-48 -7.5q-15 0 -48.5 5t-71.5 11.5t-73.5 11.5t-54.5 5q-13 0 -29 -2.5t-32.5 -11t-33.5 -24t-31 -41.5z" />
    <glyph glyph-name="exclamdown" unicode="&#xa1;" horiz-adv-x="348" 
d="M120 646q0 -22 16 -38t38 -16t38 16t16 38t-16 38t-38 16t-38 -16t-16 -38zM195 554h-47l-31 -566h110z" />
    <glyph glyph-name="cent" unicode="&#xa2;" horiz-adv-x="595" 
d="M311 643v-133q-55 -3 -98 -25t-72.5 -57t-45 -81.5t-15.5 -98.5q0 -50 16 -95t46 -79.5t73 -57t96 -26.5v-154h53v153q54 5 97.5 25.5t73.5 43.5l-29 38q-35 -29 -68.5 -43.5t-73.5 -15.5v429q47 -5 74 -26.5t37 -51.5h69q-9 31 -27 53t-42 36.5t-52.5 22t-58.5 9.5v134
h-53zM175 249q0 59 12.5 98.5t32 64t43.5 36.5t48 16v-422q-28 7 -53 22t-43.5 40.5t-29 61t-10.5 83.5z" />
    <glyph glyph-name="sterling" unicode="&#xa3;" horiz-adv-x="768" 
d="M574 394h-216q-5 33 -8.5 58t-5.5 43.5t-3 32t-1 25.5q0 21 4.5 42t14 37.5t25 26.5t38.5 10q24 0 34.5 -7t10.5 -14q0 -6 -4 -9.5t-9.5 -9t-9.5 -15t-4 -25.5q0 -22 16 -38t43 -16q29 0 43.5 22.5t14.5 57.5q0 45 -31.5 71t-79.5 26q-38 0 -74.5 -12t-65.5 -36
t-47 -59.5t-18 -82.5q0 -29 3 -64.5t8 -63.5h-156v-44h164q11 -35 14 -72.5t3 -74.5q0 -17 -2 -31.5t-9 -32.5q-17 5 -37 8t-36 3q-27 0 -50 -6t-40 -18t-27 -29.5t-10 -39.5q0 -23 11 -36.5t25 -20.5t28 -9t20 -2h25q39 3 71 26t56 50l30 -16q53 -29 92.5 -44.5t77.5 -15.5
q42 0 72 16t51.5 43t36.5 63t27 77l-47 12q-8 -26 -19 -50t-27.5 -42t-38.5 -28.5t-52 -10.5q-41 0 -83.5 16.5t-91.5 32.5q16 32 27 69t11 81q0 5 -1 25t-4 57h211v44zM247 90q-22 -38 -45 -49.5t-37 -11.5q-20 0 -31 9.5t-11 20.5q0 6 2.5 13.5t9 14t19 11t32.5 4.5
q11 0 26 -2t35 -10z" />
    <glyph glyph-name="currency" unicode="&#xa4;" horiz-adv-x="733" 
d="M629 658l-72 -74q-42 33 -89 50t-103 17q-55 0 -100.5 -17t-87.5 -51l-75 75l-42 -45l73 -72q-35 -43 -51 -89t-16 -101q0 -57 16 -103.5t51 -88.5l-73 -72l42 -44l76 72q47 -38 94.5 -52.5t92.5 -14.5q17 0 39 2.5t47 9.5t52 20.5t54 34.5l72 -71l44 43l-72 72
q33 42 49.5 88t16.5 103q0 56 -16.5 102t-49.5 89l72 72zM196 181q-27 27 -48 68.5t-21 101.5t22.5 105t57.5 75t77 45t81 15t81.5 -15t78 -45.5t58 -75.5t22.5 -105q0 -59 -22.5 -104t-58 -75.5t-78 -46t-81.5 -15.5q-49 0 -92.5 20t-76.5 52z" />
    <glyph glyph-name="yen" unicode="&#xa5;" horiz-adv-x="619" 
d="M20 700l231 -416h-127v-56h138v-41h-138v-57h138v-130h91v130h138v57h-138v41h138v56h-132l240 416h-54l-214 -369h-4l-204 369h-103z" />
    <glyph glyph-name="brokenbar" unicode="&#xa6;" horiz-adv-x="248" 
d="M80 157v-406h85v406h-85zM80 885v-406h85v406h-85z" />
    <glyph glyph-name="section" unicode="&#xa7;" horiz-adv-x="562" 
d="M426 595v5q0 24 -10.5 44.5t-29 35.5t-43.5 23.5t-54 8.5q-43 0 -71 -12t-44.5 -29t-23.5 -37t-7 -36q0 -38 24.5 -70t51.5 -58q-29 -18 -54.5 -37.5t-44 -42t-29.5 -48.5t-11 -57q0 -30 13.5 -56.5t35 -51.5t49 -49.5t56.5 -50.5l12 -11q16 -15 31.5 -29.5t28.5 -29
t21 -29.5t8 -31q0 -8 -2.5 -18t-11 -18.5t-23 -14.5t-38.5 -6q-11 0 -24 2t-25 9.5t-20 21.5t-9 38h-62q0 -29 13.5 -50.5t34.5 -36t46.5 -22t51.5 -7.5q31 0 56 9t43 24t28 35t10 42q0 42 -20 77t-44 58q26 13 51.5 29.5t46 37.5t33 47t12.5 57q0 37 -19.5 71t-45.5 63
t-53.5 52t-45.5 38l-12 10q-42 34 -67.5 62.5t-25.5 55.5q0 26 18.5 40.5t51.5 14.5q35 0 55.5 -19.5t20.5 -49.5v-4h67zM353 349q20 -20 38.5 -43t18.5 -49q0 -35 -20.5 -74.5t-74.5 -71.5l-113 100q-11 10 -20.5 24t-16.5 29t-11 28.5t-4 22.5q0 39 26 73t66 63z" />
    <glyph glyph-name="dieresis" unicode="&#xa8;" horiz-adv-x="246" 
d="M0 658q0 -22 16 -38t38 -16t38 16t16 38t-16 38t-38 16t-38 -16t-16 -38zM138 658q0 -22 16 -38t38 -16t38 16t16 38t-16 38t-38 16t-38 -16t-16 -38z" />
    <glyph glyph-name="copyright" unicode="&#xa9;" horiz-adv-x="862" 
d="M135 350q0 61 23.5 115t64 94t94 63.5t114.5 23.5t114.5 -23.5t94 -63.5t64 -94t23.5 -115t-23.5 -114.5t-64 -94t-94 -64t-114.5 -23.5t-114.5 23.5t-94 64t-64 94t-23.5 114.5zM70 350q0 -74 28.5 -139.5t77.5 -114.5t114.5 -77.5t140.5 -28.5t140.5 28.5t114.5 77.5
t77.5 114.5t28.5 139.5q0 75 -28.5 140.5t-77.5 114.5t-114.5 77.5t-140.5 28.5t-140.5 -28.5t-114.5 -77.5t-77.5 -114.5t-28.5 -140.5zM453 187q-26 0 -49.5 8.5t-42.5 27t-30 48t-11 71.5q0 52 12 84t30.5 49.5t40 23.5t40.5 6q41 0 62 -17.5t29 -41.5h56
q-8 27 -23.5 44.5t-37 28t-46.5 14.5t-51 4q-44 0 -78.5 -15.5t-58 -41.5t-36 -62t-12.5 -76q0 -39 13.5 -74t38 -61t59.5 -41.5t78 -15.5q48 0 85 16.5t62 35.5l-25 31q-26 -22 -50 -34t-55 -12z" />
    <glyph glyph-name="ordfeminine" unicode="&#xaa;" horiz-adv-x="481" 
d="M311 449q-16 -26 -39.5 -41t-49.5 -15q-44 0 -62.5 23.5t-18.5 52.5q0 14 3.5 29.5t12.5 28t25 20.5t41 8q30 0 51 -15.5t37 -42.5v-48zM381 550q0 30 -2.5 59t-17 51.5t-46 36.5t-88.5 14q-26 0 -61 -6t-70 -27l30 -47q26 21 52.5 34t49.5 13q35 0 59 -18.5t24 -55.5
v-60q-22 21 -47 34.5t-60 13.5q-34 0 -59.5 -10.5t-42 -28t-24.5 -39.5t-8 -45q0 -19 7 -39t22.5 -36t40 -26.5t59.5 -10.5q32 0 59 11.5t53 31.5v-35h70v185z" />
    <glyph glyph-name="guillemotleft" unicode="&#xab;" horiz-adv-x="540" 
d="M151 259l117 198h-68l-120 -198l120 -198h68zM342 259l118 198h-68l-122 -198l122 -198h68z" />
    <glyph glyph-name="logicalnot" unicode="&#xac;" horiz-adv-x="928" 
d="M120 230h625v-105h63v168h-688v-63z" />
    <glyph glyph-name="uni00AD" unicode="&#xad;" horiz-adv-x="367" 
d="M60 300v-64h247v64h-247z" />
    <glyph glyph-name="registered" unicode="&#xae;" horiz-adv-x="862" 
d="M363 501h45q34 0 56.5 -22.5t22.5 -51.5q0 -21 -7.5 -35t-19.5 -22.5t-25.5 -12.5t-25.5 -4h-46v148zM299 151h64v164h43q4 0 15 -14.5t23.5 -33.5t23.5 -37t16 -25q9 -12 16.5 -23t17.5 -19.5t22.5 -13t31.5 -4.5q16 0 24.5 2t17.5 8v32q-9 -3 -18 -3q-23 0 -34 12
t-16 20l-78 110q23 6 39.5 18t27 27t15 30.5t4.5 29.5q0 9 -4 26.5t-17.5 35t-39 30t-67.5 12.5h-127v-384zM135 349q0 61 23.5 114.5t64 94t94 64t114.5 23.5t114.5 -23.5t94 -64t64 -94t23.5 -114.5t-23.5 -114.5t-64 -94t-94 -64t-114.5 -23.5t-114.5 23.5t-94 64t-64 94
t-23.5 114.5zM70 349q0 -74 28.5 -140t77.5 -115t114.5 -77.5t140.5 -28.5t140.5 28.5t114.5 77.5t77.5 115t28.5 140q0 75 -28.5 140.5t-77.5 114.5t-114.5 77.5t-140.5 28.5t-140.5 -28.5t-114.5 -77.5t-77.5 -114.5t-28.5 -140.5z" />
    <glyph glyph-name="macron" unicode="&#xaf;" horiz-adv-x="363" 
d="M25 583h313v40h-313v-40z" />
    <glyph glyph-name="degree" unicode="&#xb0;" horiz-adv-x="375" 
d="M70 579q0 -24 9 -45.5t25 -37t37.5 -25t46.5 -9.5q24 0 45.5 9.5t37.5 25t25 37t9 45.5q0 25 -9 46.5t-25 37.5t-37.5 25t-45.5 9q-25 0 -46.5 -9t-37.5 -25t-25 -37.5t-9 -46.5zM114 579q0 31 22 52.5t52 21.5q19 0 32.5 -7.5t22.5 -18.5t13.5 -24t4.5 -24
q0 -29 -22 -50.5t-51 -21.5q-11 0 -24 4t-24 13t-18.5 22.5t-7.5 32.5z" />
    <glyph glyph-name="plusminus" unicode="&#xb1;" horiz-adv-x="828" 
d="M386 609v-178h-266v-55h266v-158h56v158h266v55h-266v178h-56zM120 116h588v56h-588v-56z" />
    <glyph glyph-name="acute" unicode="&#xb4;" horiz-adv-x="194" 
d="M83 712h111l-155 -127h-39z" />
    <glyph glyph-name="mu" unicode="&#xb5;" horiz-adv-x="658" 
d="M165 500h-85v-723h65v298h5q6 -24 20.5 -40.5t33 -27t38 -15t36.5 -4.5q18 0 38.5 6.5t39.5 20t34.5 34t24.5 48.5q6 -48 38 -78.5t82 -30.5q30 0 53.5 11t39.5 35l-24 23q-11 -15 -28 -26t-31 -11q-23 0 -35.5 14.5t-18 37t-6.5 48.5t-1 50v330h-85v-318
q0 -63 -29.5 -102t-86.5 -39q-44 0 -68 17t-35 39t-13 43.5t-2 29.5v330z" />
    <glyph glyph-name="paragraph" unicode="&#xb6;" horiz-adv-x="541" 
d="M260 -250v950h-85q-40 0 -67.5 -11.5t-45 -30t-25 -42.5t-7.5 -48t7.5 -47.5t25 -42.5t45 -30.5t67.5 -11.5h16v-686h69zM391 700v-950h70v950h-70z" />
    <glyph glyph-name="periodcentered" unicode="&#xb7;" horiz-adv-x="228" 
d="M60 370q0 -22 16 -38t38 -16t38 16t16 38t-16 38t-38 16t-38 -16t-16 -38z" />
    <glyph glyph-name="cedilla" unicode="&#xb8;" horiz-adv-x="181" 
d="M0 -190q15 -2 32.5 -4t34.5 -2q21 0 41.5 4.5t36.5 15t26 26t10 38.5q0 32 -27 50.5t-60 18.5h-12t-12 -1l12 44h-33l-25 -82q7 2 18.5 3t18.5 1q38 0 51 -12t13 -24q0 -17 -9 -27t-23 -15t-30.5 -7t-30.5 -2h-13t-11 2z" />
    <glyph glyph-name="ordmasculine" unicode="&#xba;" horiz-adv-x="479" 
d="M125 535q0 45 10.5 73t27 44t37 21.5t39.5 5.5t39.5 -5.5t37.5 -21.5t27.5 -44t10.5 -73t-10.5 -73.5t-27.5 -44.5t-37.5 -21.5t-39.5 -5.5t-39.5 5.5t-37 21.5t-27 44.5t-10.5 73.5zM50 535q0 -41 15 -73.5t41 -55.5t60.5 -35.5t72.5 -12.5q39 0 73.5 12.5t60.5 35.5
t41 55.5t15 73.5q0 40 -15 73t-41 55.5t-60.5 35t-73.5 12.5q-38 0 -72.5 -12.5t-60.5 -35t-41 -55.5t-15 -73z" />
    <glyph glyph-name="guillemotright" unicode="&#xbb;" horiz-adv-x="540" 
d="M198 259l-118 -198h69l119 198l-119 198h-69zM390 259l-120 -198h69l121 198l-121 198h-69z" />
    <glyph glyph-name="questiondown" unicode="&#xbf;" horiz-adv-x="519" 
d="M195 443q16 20 35 36t42 16q12 0 24.5 -11.5t12.5 -31.5q0 -27 -15.5 -52t-38.5 -49.5t-50.5 -49t-50.5 -51.5t-38.5 -57.5t-15.5 -65.5q0 -25 7.5 -50t26 -44.5t50.5 -32t81 -12.5q38 0 66.5 9.5t48 26.5t29 40t10.5 49h-70v-6q0 -18 -7.5 -33.5t-20.5 -26.5t-29 -17
t-33 -6t-33 6t-29.5 16.5t-21.5 25t-8 32.5q0 30 14.5 55.5t36 49t46.5 45.5t47.5 46.5t38 51.5t17.5 61v10q0 23 -7 43.5t-21 36t-35 24.5t-50 9q-25 0 -54.5 -16t-52.5 -44zM322 658q0 22 -16 38t-38 16t-38 -16t-16 -38t16 -38t38 -16t38 16t16 38z" />
    <glyph glyph-name="Agrave" unicode="&#xc0;" horiz-adv-x="732" 
d="M509 206l96 -206h97l-326 700h-50l-296 -700h46l88 206h345zM488 251h-305l144 337h4zM380 912h-111l155 -127h39z" />
    <glyph glyph-name="Aacute" unicode="&#xc1;" horiz-adv-x="732" 
d="M509 206l96 -206h97l-326 700h-50l-296 -700h46l88 206h345zM488 251h-305l144 337h4zM352 912h111l-155 -127h-39z" />
    <glyph glyph-name="Acircumflex" unicode="&#xc2;" horiz-adv-x="732" 
d="M509 206l96 -206h97l-326 700h-50l-296 -700h46l88 206h345zM488 251h-305l144 337h4zM365 828l11 -6.5t27.5 -16.5t36 -22t36 -22.5l27.5 -17.5l11 -7l25 31l-11 11t-27.5 27t-36 35t-36 35t-27.5 26.5l-11 10.5h-50l-11 -11t-27.5 -27t-36 -35t-36 -35t-27.5 -27
t-11 -10l24 -30l11.5 6.5t28 17t36 22t36 22t27.5 17z" />
    <glyph glyph-name="Atilde" unicode="&#xc3;" horiz-adv-x="732" 
d="M509 206l96 -206h97l-326 700h-50l-296 -700h46l88 206h345zM488 251h-305l144 337h4zM207 789q11 19 28.5 31.5t34.5 12.5q13 0 25.5 -4t23.5 -9q36 -14 66 -25t56 -11q35 0 64.5 23.5t46.5 76.5l-30 14q-11 -26 -28 -35.5t-34 -9.5q-12 0 -23.5 3t-20.5 5
q-43 14 -73.5 26.5t-53.5 12.5q-38 0 -66.5 -27.5t-42.5 -68.5z" />
    <glyph glyph-name="Adieresis" unicode="&#xc4;" horiz-adv-x="732" 
d="M509 206l96 -206h97l-326 700h-50l-296 -700h46l88 206h345zM488 251h-305l144 337h4zM243 858q0 -22 16 -38t38 -16t38 16t16 38t-16 38t-38 16t-38 -16t-16 -38zM381 858q0 -22 16 -38t38 -16t38 16t16 38t-16 38t-38 16t-38 -16t-16 -38z" />
    <glyph glyph-name="Aring" unicode="&#xc5;" horiz-adv-x="732" 
d="M509 206l96 -206h97l-326 700h-50l-296 -700h46l88 206h345zM488 251h-305l144 337h4zM307 829q0 25 17 41.5t42 16.5q24 0 41.5 -16.5t17.5 -41.5t-17.5 -42t-41.5 -17q-25 0 -42 17t-17 42zM274 829q0 -19 7 -35.5t19.5 -29t29.5 -20t36 -7.5t36 7.5t29.5 20t19.5 29
t7 35.5q0 15 -5.5 31.5t-17 29.5t-29 21.5t-40.5 8.5t-40 -8.5t-28.5 -21.5t-17.5 -29.5t-6 -31.5z" />
    <glyph glyph-name="AE" unicode="&#xc6;" horiz-adv-x="1002" 
d="M512 254h-265l265 396v-396zM512 209v-209h460v55h-369v295h300v44h-300v250h352v56h-465l-470 -700h58l139 209h295z" />
    <glyph glyph-name="Ccedilla" unicode="&#xc7;" horiz-adv-x="759" 
d="M384 -190q15 -2 32.5 -4t34.5 -2q21 0 41.5 4.5t36.5 15t26 26t10 38.5q0 32 -27 50.5t-60 18.5h-12t-12 -1l9 33q58 3 103.5 15.5t80 29t57.5 35t35 33.5l-30 27q-102 -96 -242 -96q-78 0 -138 27t-100 72t-60.5 104t-20.5 123q0 68 21.5 124.5t60.5 97.5t92.5 64
t116.5 23q43 0 78.5 -10t63 -26t45 -36.5t24.5 -41.5h74q-15 34 -38.5 63t-58.5 50t-82 33t-107 12q-87 0 -158.5 -25t-122.5 -71.5t-79 -112t-28 -146.5q0 -69 22 -135t68 -117.5t118 -83.5t171 -33l-21 -70q7 2 18.5 3t18.5 1q38 0 51 -12t13 -24q0 -17 -9 -27t-23 -15
t-30.5 -7t-30.5 -2h-13t-11 2z" />
    <glyph glyph-name="Egrave" unicode="&#xc8;" 
d="M120 700v-700h452v55h-361v293h310v46h-310v251h361v55h-452zM315 912h-111l155 -127h39z" />
    <glyph glyph-name="Eacute" unicode="&#xc9;" 
d="M120 700v-700h452v55h-361v293h310v46h-310v251h361v55h-452zM287 912h111l-155 -127h-39z" />
    <glyph glyph-name="Ecircumflex" unicode="&#xca;" 
d="M120 700v-700h452v55h-361v293h310v46h-310v251h361v55h-452zM300 828l11 -6.5t27.5 -16.5t36 -22t36 -22.5l27.5 -17.5l11 -7l25 31l-11 11t-27.5 27t-36 35t-36 35t-27.5 26.5l-11 10.5h-50l-11 -11t-27.5 -27t-36 -35t-36 -35t-27.5 -27t-11 -10l24 -30l11.5 6.5
t28 17t36 22t36 22t27.5 17z" />
    <glyph glyph-name="Edieresis" unicode="&#xcb;" 
d="M120 700v-700h452v55h-361v293h310v46h-310v251h361v55h-452zM178 858q0 -22 16 -38t38 -16t38 16t16 38t-16 38t-38 16t-38 -16t-16 -38zM316 858q0 -22 16 -38t38 -16t38 16t16 38t-16 38t-38 16t-38 -16t-16 -38z" />
    <glyph glyph-name="Igrave" unicode="&#xcc;" horiz-adv-x="411" 
d="M160 700v-700h91v700h-91zM219 912h-111l155 -127h39z" />
    <glyph glyph-name="Iacute" unicode="&#xcd;" horiz-adv-x="411" 
d="M160 700v-700h91v700h-91zM191 912h111l-155 -127h-39z" />
    <glyph glyph-name="Icircumflex" unicode="&#xce;" horiz-adv-x="411" 
d="M160 700v-700h91v700h-91zM205 828l11 -6.5t27.5 -16.5t36 -22t36 -22.5l27.5 -17.5l11 -7l25 31l-11 11t-27.5 27t-36 35t-36 35t-27.5 26.5l-11 10.5h-50l-11 -11t-27.5 -27t-36 -35t-36 -35t-27.5 -27t-11 -10l24 -30l11.5 6.5t28 17t36 22t36 22t27.5 17z" />
    <glyph glyph-name="Idieresis" unicode="&#xcf;" horiz-adv-x="411" 
d="M160 700v-700h91v700h-91zM82 858q0 -22 16 -38t38 -16t38 16t16 38t-16 38t-38 16t-38 -16t-16 -38zM220 858q0 -22 16 -38t38 -16t38 16t16 38t-16 38t-38 16t-38 -16t-16 -38z" />
    <glyph glyph-name="Eth" unicode="&#xd0;" horiz-adv-x="786" 
d="M10 371h110v329h230q83 0 152.5 -27t119 -74t77 -112t27.5 -140q0 -76 -29 -139.5t-78.5 -109.5t-115.5 -72t-141 -26h-242v331h-110v40zM211 44h110q82 0 139.5 28t94.5 72.5t54 99.5t17 109q0 61 -20 116t-58.5 96.5t-95.5 66t-131 24.5h-110v-285h112v-40h-112v-287z
" />
    <glyph glyph-name="Ntilde" unicode="&#xd1;" horiz-adv-x="850" 
d="M684 700v-535h-4l-555 547h-5v-712h46v535h4l555 -547h5v712h-46zM266 789q11 19 28.5 31.5t34.5 12.5q13 0 25.5 -4t23.5 -9q36 -14 66 -25t56 -11q35 0 64.5 23.5t46.5 76.5l-30 14q-11 -26 -28 -35.5t-34 -9.5q-12 0 -23.5 3t-20.5 5q-43 14 -73.5 26.5t-53.5 12.5
q-38 0 -66.5 -27.5t-42.5 -68.5z" />
    <glyph glyph-name="Ograve" unicode="&#xd2;" horiz-adv-x="865" 
d="M50 350q0 -56 21.5 -119.5t67.5 -117.5t117 -89.5t170 -35.5q67 0 121.5 16.5t98 44.5t75.5 64.5t52.5 77t31 81.5t10.5 78q0 56 -23 119.5t-71 117.5t-121.5 89.5t-173.5 35.5q-99 0 -170 -35t-117 -88.5t-67.5 -117.5t-21.5 -121zM148 350q0 70 21.5 128.5t59 100.5
t88.5 65.5t111 23.5q59 0 111.5 -23.5t92 -65.5t62.5 -100.5t23 -128.5t-23 -128.5t-62.5 -100.5t-92 -65.5t-111.5 -23.5q-60 0 -111 23.5t-88.5 65.5t-59 100.5t-21.5 128.5zM446 912h-111l155 -127h39z" />
    <glyph glyph-name="Oacute" unicode="&#xd3;" horiz-adv-x="865" 
d="M50 350q0 -56 21.5 -119.5t67.5 -117.5t117 -89.5t170 -35.5q67 0 121.5 16.5t98 44.5t75.5 64.5t52.5 77t31 81.5t10.5 78q0 56 -23 119.5t-71 117.5t-121.5 89.5t-173.5 35.5q-99 0 -170 -35t-117 -88.5t-67.5 -117.5t-21.5 -121zM148 350q0 70 21.5 128.5t59 100.5
t88.5 65.5t111 23.5q59 0 111.5 -23.5t92 -65.5t62.5 -100.5t23 -128.5t-23 -128.5t-62.5 -100.5t-92 -65.5t-111.5 -23.5q-60 0 -111 23.5t-88.5 65.5t-59 100.5t-21.5 128.5zM418 912h111l-155 -127h-39z" />
    <glyph glyph-name="Ocircumflex" unicode="&#xd4;" horiz-adv-x="865" 
d="M50 350q0 -56 21.5 -119.5t67.5 -117.5t117 -89.5t170 -35.5q67 0 121.5 16.5t98 44.5t75.5 64.5t52.5 77t31 81.5t10.5 78q0 56 -23 119.5t-71 117.5t-121.5 89.5t-173.5 35.5q-99 0 -170 -35t-117 -88.5t-67.5 -117.5t-21.5 -121zM148 350q0 70 21.5 128.5t59 100.5
t88.5 65.5t111 23.5q59 0 111.5 -23.5t92 -65.5t62.5 -100.5t23 -128.5t-23 -128.5t-62.5 -100.5t-92 -65.5t-111.5 -23.5q-60 0 -111 23.5t-88.5 65.5t-59 100.5t-21.5 128.5zM432 828l11 -6.5t27.5 -16.5t36 -22t36 -22.5l27.5 -17.5l11 -7l25 31l-11 11t-27.5 27t-36 35
t-36 35t-27.5 26.5l-11 10.5h-50l-11 -11t-27.5 -27t-36 -35t-36 -35t-27.5 -27t-11 -10l24 -30l11.5 6.5t28 17t36 22t36 22t27.5 17z" />
    <glyph glyph-name="Otilde" unicode="&#xd5;" horiz-adv-x="865" 
d="M50 350q0 -56 21.5 -119.5t67.5 -117.5t117 -89.5t170 -35.5q67 0 121.5 16.5t98 44.5t75.5 64.5t52.5 77t31 81.5t10.5 78q0 56 -23 119.5t-71 117.5t-121.5 89.5t-173.5 35.5q-99 0 -170 -35t-117 -88.5t-67.5 -117.5t-21.5 -121zM148 350q0 70 21.5 128.5t59 100.5
t88.5 65.5t111 23.5q59 0 111.5 -23.5t92 -65.5t62.5 -100.5t23 -128.5t-23 -128.5t-62.5 -100.5t-92 -65.5t-111.5 -23.5q-60 0 -111 23.5t-88.5 65.5t-59 100.5t-21.5 128.5zM273 789q11 19 28.5 31.5t34.5 12.5q13 0 25.5 -4t23.5 -9q36 -14 66 -25t56 -11
q35 0 64.5 23.5t46.5 76.5l-30 14q-11 -26 -28 -35.5t-34 -9.5q-12 0 -23.5 3t-20.5 5q-43 14 -73.5 26.5t-53.5 12.5q-38 0 -66.5 -27.5t-42.5 -68.5z" />
    <glyph glyph-name="Odieresis" unicode="&#xd6;" horiz-adv-x="865" 
d="M50 350q0 -56 21.5 -119.5t67.5 -117.5t117 -89.5t170 -35.5q67 0 121.5 16.5t98 44.5t75.5 64.5t52.5 77t31 81.5t10.5 78q0 56 -23 119.5t-71 117.5t-121.5 89.5t-173.5 35.5q-99 0 -170 -35t-117 -88.5t-67.5 -117.5t-21.5 -121zM148 350q0 70 21.5 128.5t59 100.5
t88.5 65.5t111 23.5q59 0 111.5 -23.5t92 -65.5t62.5 -100.5t23 -128.5t-23 -128.5t-62.5 -100.5t-92 -65.5t-111.5 -23.5q-60 0 -111 23.5t-88.5 65.5t-59 100.5t-21.5 128.5zM309 858q0 -22 16 -38t38 -16t38 16t16 38t-16 38t-38 16t-38 -16t-16 -38zM447 858
q0 -22 16 -38t38 -16t38 16t16 38t-16 38t-38 16t-38 -16t-16 -38z" />
    <glyph glyph-name="multiply" unicode="&#xd7;" horiz-adv-x="616" 
d="M495 579l-187 -187l-189 189l-39 -39l188 -189l-188 -189l39 -38l189 188l188 -188l40 38l-190 189l189 188z" />
    <glyph glyph-name="Oslash" unicode="&#xd8;" horiz-adv-x="876" 
d="M595 712l-18 -34q-64 22 -141 22q-99 0 -170 -34t-117 -86.5t-67.5 -115.5t-21.5 -120q0 -39 10.5 -82t32 -84t54.5 -77.5t79 -62.5l-26 -50h69l13 24q32 -11 67 -17.5t77 -6.5q67 0 121 16t96 43.5t73 63t51 75t29.5 80.5t9.5 78q0 39 -10.5 82.5t-33 85t-57 78
t-81.5 62.5l32 60h-71zM718 344q0 -70 -21.5 -127.5t-59.5 -99t-89 -64t-110 -22.5q-67 0 -121 27l288 541q52 -41 82.5 -106t30.5 -149zM158 344q0 70 21.5 127.5t59 98.5t88.5 63.5t111 22.5q59 0 114 -25l-287 -539q-50 42 -78.5 106t-28.5 146z" />
    <glyph glyph-name="Ugrave" unicode="&#xd9;" horiz-adv-x="720" 
d="M80 700v-430q0 -41 8 -90.5t38 -92t89 -71t161 -28.5q64 0 113.5 20t83 55t50.5 81.5t17 99.5v456h-44v-423q0 -22 -1 -44.5t-6 -45t-15.5 -44.5t-30.5 -44q-36 -39 -81 -53t-94 -14q-42 0 -74.5 13t-61.5 39q-23 20 -35 40t-18 39.5t-7 39.5t-1 40v457h-91zM374 912
h-111l155 -127h39z" />
    <glyph glyph-name="Uacute" unicode="&#xda;" horiz-adv-x="720" 
d="M80 700v-430q0 -41 8 -90.5t38 -92t89 -71t161 -28.5q64 0 113.5 20t83 55t50.5 81.5t17 99.5v456h-44v-423q0 -22 -1 -44.5t-6 -45t-15.5 -44.5t-30.5 -44q-36 -39 -81 -53t-94 -14q-42 0 -74.5 13t-61.5 39q-23 20 -35 40t-18 39.5t-7 39.5t-1 40v457h-91zM346 912h111
l-155 -127h-39z" />
    <glyph glyph-name="Ucircumflex" unicode="&#xdb;" horiz-adv-x="720" 
d="M80 700v-430q0 -41 8 -90.5t38 -92t89 -71t161 -28.5q64 0 113.5 20t83 55t50.5 81.5t17 99.5v456h-44v-423q0 -22 -1 -44.5t-6 -45t-15.5 -44.5t-30.5 -44q-36 -39 -81 -53t-94 -14q-42 0 -74.5 13t-61.5 39q-23 20 -35 40t-18 39.5t-7 39.5t-1 40v457h-91zM359 828
l11 -6.5t27.5 -16.5t36 -22t36 -22.5l27.5 -17.5l11 -7l25 31l-11 11t-27.5 27t-36 35t-36 35t-27.5 26.5l-11 10.5h-50l-11 -11t-27.5 -27t-36 -35t-36 -35t-27.5 -27t-11 -10l24 -30l11.5 6.5t28 17t36 22t36 22t27.5 17z" />
    <glyph glyph-name="Udieresis" unicode="&#xdc;" horiz-adv-x="720" 
d="M80 700v-430q0 -41 8 -90.5t38 -92t89 -71t161 -28.5q64 0 113.5 20t83 55t50.5 81.5t17 99.5v456h-44v-423q0 -22 -1 -44.5t-6 -45t-15.5 -44.5t-30.5 -44q-36 -39 -81 -53t-94 -14q-42 0 -74.5 13t-61.5 39q-23 20 -35 40t-18 39.5t-7 39.5t-1 40v457h-91zM237 858
q0 -22 16 -38t38 -16t38 16t16 38t-16 38t-38 16t-38 -16t-16 -38zM375 858q0 -22 16 -38t38 -16t38 16t16 38t-16 38t-38 16t-38 -16t-16 -38z" />
    <glyph glyph-name="Yacute" unicode="&#xdd;" horiz-adv-x="639" 
d="M30 700l242 -435v-265h91v274l246 426h-54l-214 -369h-4l-204 369h-103zM305 912h111l-155 -127h-39z" />
    <glyph glyph-name="Thorn" unicode="&#xde;" horiz-adv-x="670" 
d="M211 584q6 0 11.5 0.5t10.5 0.5q65 0 113.5 -21t80.5 -54t48 -74t16 -80t-17 -78.5t-51 -71.5t-85 -52t-120 -20h-7v450zM211 0v90h12q102 0 172 27t113.5 68t62.5 88.5t19 88.5q0 51 -23.5 99t-67.5 85t-107 59.5t-143 22.5h-38v72h-91v-700h91z" />
    <glyph glyph-name="germandbls" unicode="&#xdf;" horiz-adv-x="587" 
d="M110 0h85v528q0 13 2 36.5t12 46.5t31.5 40t60.5 17q32 0 52 -12.5t30.5 -30.5t14 -38.5t3.5 -36.5q0 -20 -6 -41t-18.5 -38t-31 -27.5t-43.5 -10.5h-29v-39h29q49 0 76.5 -20t41 -49.5t16.5 -63.5t3 -62q0 -27 -2 -57.5t-9 -56.5t-20 -43.5t-35 -17.5q-5 0 -14.5 2
t-19.5 9.5t-18 20.5t-11 36h-61q1 -16 8.5 -34t22.5 -33.5t38.5 -26t56.5 -10.5q31 0 59 14t48 40.5t32 65t12 87.5q0 23 -4.5 57t-22 67.5t-51.5 60t-94 34.5v4q57 7 88.5 47.5t31.5 93.5q0 69 -46.5 111t-128.5 42q-14 0 -45.5 -4t-63.5 -22t-56 -55t-24 -103v-528z" />
    <glyph glyph-name="agrave" unicode="&#xe0;" horiz-adv-x="540" 
d="M264 511q73 0 113 -20.5t58.5 -53.5t21.5 -76t3 -88v-273h-81v49q-29 -28 -74 -44.5t-90 -16.5q-43 0 -76 15t-55 39t-33 54t-11 61q0 32 12 64t36 57.5t59 41.5t80 16t85.5 -17.5t66.5 -49.5v43q0 82 -24.5 122t-89.5 40q-28 0 -49 -7t-37.5 -19.5t-30.5 -31t-28 -41.5
l-52 52q14 15 29.5 30t38 27t53.5 19.5t75 7.5zM379 198q-5 12 -14.5 28t-24.5 31t-36 25.5t-50 10.5t-53 -11.5t-40.5 -30t-25.5 -43.5t-9 -52q0 -32 11.5 -55.5t29.5 -40t40 -24.5t42 -8q19 0 38.5 7t37 19.5t31.5 29.5t23 37v77zM284 712h-111l155 -127h39z" />
    <glyph glyph-name="aacute" unicode="&#xe1;" horiz-adv-x="540" 
d="M264 511q73 0 113 -20.5t58.5 -53.5t21.5 -76t3 -88v-273h-81v49q-29 -28 -74 -44.5t-90 -16.5q-43 0 -76 15t-55 39t-33 54t-11 61q0 32 12 64t36 57.5t59 41.5t80 16t85.5 -17.5t66.5 -49.5v43q0 82 -24.5 122t-89.5 40q-28 0 -49 -7t-37.5 -19.5t-30.5 -31t-28 -41.5
l-52 52q14 15 29.5 30t38 27t53.5 19.5t75 7.5zM379 198q-5 12 -14.5 28t-24.5 31t-36 25.5t-50 10.5t-53 -11.5t-40.5 -30t-25.5 -43.5t-9 -52q0 -32 11.5 -55.5t29.5 -40t40 -24.5t42 -8q19 0 38.5 7t37 19.5t31.5 29.5t23 37v77zM256 712h111l-155 -127h-39z" />
    <glyph glyph-name="acircumflex" unicode="&#xe2;" horiz-adv-x="540" 
d="M264 511q73 0 113 -20.5t58.5 -53.5t21.5 -76t3 -88v-273h-81v49q-29 -28 -74 -44.5t-90 -16.5q-43 0 -76 15t-55 39t-33 54t-11 61q0 32 12 64t36 57.5t59 41.5t80 16t85.5 -17.5t66.5 -49.5v43q0 82 -24.5 122t-89.5 40q-28 0 -49 -7t-37.5 -19.5t-30.5 -31t-28 -41.5
l-52 52q14 15 29.5 30t38 27t53.5 19.5t75 7.5zM379 198q-5 12 -14.5 28t-24.5 31t-36 25.5t-50 10.5t-53 -11.5t-40.5 -30t-25.5 -43.5t-9 -52q0 -32 11.5 -55.5t29.5 -40t40 -24.5t42 -8q19 0 38.5 7t37 19.5t31.5 29.5t23 37v77zM269 628l11 -6.5t27.5 -16.5t36 -22
t36 -22.5l27.5 -17.5l11 -7l25 31l-11 11t-27.5 27t-36 35t-36 35t-27.5 26.5l-11 10.5h-50l-11 -11t-27.5 -27t-36 -35t-36 -35t-27.5 -27t-11 -10l24 -30l11.5 6.5t28 17t36 22t36 22t27.5 17z" />
    <glyph glyph-name="atilde" unicode="&#xe3;" horiz-adv-x="540" 
d="M264 511q73 0 113 -20.5t58.5 -53.5t21.5 -76t3 -88v-273h-81v49q-29 -28 -74 -44.5t-90 -16.5q-43 0 -76 15t-55 39t-33 54t-11 61q0 32 12 64t36 57.5t59 41.5t80 16t85.5 -17.5t66.5 -49.5v43q0 82 -24.5 122t-89.5 40q-28 0 -49 -7t-37.5 -19.5t-30.5 -31t-28 -41.5
l-52 52q14 15 29.5 30t38 27t53.5 19.5t75 7.5zM379 198q-5 12 -14.5 28t-24.5 31t-36 25.5t-50 10.5t-53 -11.5t-40.5 -30t-25.5 -43.5t-9 -52q0 -32 11.5 -55.5t29.5 -40t40 -24.5t42 -8q19 0 38.5 7t37 19.5t31.5 29.5t23 37v77zM111 589q11 19 28.5 31.5t34.5 12.5
q13 0 25.5 -4t23.5 -9q36 -14 66 -25t56 -11q35 0 64.5 23.5t46.5 76.5l-30 14q-11 -26 -28 -35.5t-34 -9.5q-12 0 -23.5 3t-20.5 5q-43 14 -73.5 26.5t-53.5 12.5q-38 0 -66.5 -27.5t-42.5 -68.5z" />
    <glyph glyph-name="adieresis" unicode="&#xe4;" horiz-adv-x="540" 
d="M264 511q73 0 113 -20.5t58.5 -53.5t21.5 -76t3 -88v-273h-81v49q-29 -28 -74 -44.5t-90 -16.5q-43 0 -76 15t-55 39t-33 54t-11 61q0 32 12 64t36 57.5t59 41.5t80 16t85.5 -17.5t66.5 -49.5v43q0 82 -24.5 122t-89.5 40q-28 0 -49 -7t-37.5 -19.5t-30.5 -31t-28 -41.5
l-52 52q14 15 29.5 30t38 27t53.5 19.5t75 7.5zM379 198q-5 12 -14.5 28t-24.5 31t-36 25.5t-50 10.5t-53 -11.5t-40.5 -30t-25.5 -43.5t-9 -52q0 -32 11.5 -55.5t29.5 -40t40 -24.5t42 -8q19 0 38.5 7t37 19.5t31.5 29.5t23 37v77zM147 658q0 -22 16 -38t38 -16t38 16
t16 38t-16 38t-38 16t-38 -16t-16 -38zM285 658q0 -22 16 -38t38 -16t38 16t16 38t-16 38t-38 16t-38 -16t-16 -38z" />
    <glyph glyph-name="aring" unicode="&#xe5;" horiz-adv-x="540" 
d="M264 511q73 0 113 -20.5t58.5 -53.5t21.5 -76t3 -88v-273h-81v49q-29 -28 -74 -44.5t-90 -16.5q-43 0 -76 15t-55 39t-33 54t-11 61q0 32 12 64t36 57.5t59 41.5t80 16t85.5 -17.5t66.5 -49.5v43q0 82 -24.5 122t-89.5 40q-28 0 -49 -7t-37.5 -19.5t-30.5 -31t-28 -41.5
l-52 52q14 15 29.5 30t38 27t53.5 19.5t75 7.5zM379 198q-5 12 -14.5 28t-24.5 31t-36 25.5t-50 10.5t-53 -11.5t-40.5 -30t-25.5 -43.5t-9 -52q0 -32 11.5 -55.5t29.5 -40t40 -24.5t42 -8q19 0 38.5 7t37 19.5t31.5 29.5t23 37v77zM211 629q0 25 17 41.5t42 16.5
q24 0 41.5 -16.5t17.5 -41.5t-17.5 -42t-41.5 -17q-25 0 -42 17t-17 42zM178 629q0 -19 7 -35.5t19.5 -29t29.5 -20t36 -7.5t36 7.5t29.5 20t19.5 29t7 35.5q0 15 -5.5 31.5t-17 29.5t-29 21.5t-40.5 8.5t-40 -8.5t-28.5 -21.5t-17.5 -29.5t-6 -31.5z" />
    <glyph glyph-name="ae" unicode="&#xe6;" horiz-adv-x="888" 
d="M453 274q0 50 12.5 88t32.5 63.5t46 38.5t52 13q60 0 97.5 -51.5t37.5 -142.5v-9h-278zM374 116q-9 -21 -23 -36.5t-31 -26t-35 -15.5t-34 -5q-26 0 -48.5 10t-39 27.5t-26 41.5t-9.5 53q0 30 10 53.5t27 39t39.5 24t46.5 8.5q30 0 52 -10t37 -23.5t23 -28t11 -24.5v-88z
M453 239h369v17q0 77 -22.5 127t-56.5 78.5t-72.5 39.5t-71.5 11q-23 0 -48 -5t-48.5 -14.5t-43 -22.5t-31.5 -29q-38 44 -78 57.5t-92 13.5t-89 -11t-74 -39l30 -42q29 26 63 41.5t72 15.5q15 0 34 -4.5t36 -13t29.5 -22t14.5 -31.5v-132q-18 21 -38 33t-40 18.5t-38 8.5
t-31 2q-45 0 -80 -15.5t-58.5 -41t-35.5 -58.5t-12 -67q0 -30 11 -59.5t33 -53t55.5 -38.5t78.5 -15q52 0 103 23t90 75q15 -18 35 -35.5t45.5 -31.5t57.5 -22.5t71 -8.5q53 0 107 22.5t100 70.5l-29 30q-43 -45 -81 -63.5t-90 -18.5q-36 0 -68 14.5t-56 41t-37.5 64.5
t-13.5 86v4z" />
    <glyph glyph-name="ccedilla" unicode="&#xe7;" horiz-adv-x="544" 
d="M246 -190q15 -2 32.5 -4t34.5 -2q21 0 41.5 4.5t36.5 15t26 26t10 38.5q0 32 -27 50.5t-60 18.5h-12t-12 -1l9 33q58 4 103 24.5t77 44.5l-29 38q-35 -29 -69.5 -42.5t-75.5 -13.5q-36 0 -69.5 11t-59.5 35.5t-41.5 65t-15.5 99.5q0 61 17 103.5t42.5 68t56.5 37t59 11.5
q46 0 80 -24t45 -59h69q-10 36 -32 59.5t-50.5 38t-61 20t-62.5 5.5q-63 0 -111 -20.5t-81 -55.5t-49.5 -82t-16.5 -100q0 -54 17 -101.5t48.5 -82.5t76 -56t99.5 -24l-21 -71q7 2 18.5 3t18.5 1q38 0 51 -12t13 -24q0 -17 -9 -27t-23 -15t-30.5 -7t-30.5 -2h-13t-11 2z" />
    <glyph glyph-name="egrave" unicode="&#xe8;" horiz-adv-x="574" 
d="M524 228v21q0 67 -19 116t-51.5 81t-75.5 48t-91 16q-51 0 -94 -17.5t-75 -51t-50 -81t-18 -107.5q0 -50 15.5 -97.5t47 -85t80 -60t114.5 -22.5q64 0 118 22.5t94 64.5l-32 32q-21 -18 -39.5 -33t-37.5 -25t-39.5 -15.5t-45.5 -5.5q-28 0 -59.5 8.5t-58.5 30.5t-45 61
t-18 100h380zM144 268q0 40 8.5 77.5t26 66.5t44.5 46.5t64 17.5q71 0 110.5 -55.5t39.5 -152.5h-293zM301 712h-111l155 -127h39z" />
    <glyph glyph-name="eacute" unicode="&#xe9;" horiz-adv-x="574" 
d="M524 228v21q0 67 -19 116t-51.5 81t-75.5 48t-91 16q-51 0 -94 -17.5t-75 -51t-50 -81t-18 -107.5q0 -50 15.5 -97.5t47 -85t80 -60t114.5 -22.5q64 0 118 22.5t94 64.5l-32 32q-21 -18 -39.5 -33t-37.5 -25t-39.5 -15.5t-45.5 -5.5q-28 0 -59.5 8.5t-58.5 30.5t-45 61
t-18 100h380zM144 268q0 40 8.5 77.5t26 66.5t44.5 46.5t64 17.5q71 0 110.5 -55.5t39.5 -152.5h-293zM273 712h111l-155 -127h-39z" />
    <glyph glyph-name="ecircumflex" unicode="&#xea;" horiz-adv-x="574" 
d="M524 228v21q0 67 -19 116t-51.5 81t-75.5 48t-91 16q-51 0 -94 -17.5t-75 -51t-50 -81t-18 -107.5q0 -50 15.5 -97.5t47 -85t80 -60t114.5 -22.5q64 0 118 22.5t94 64.5l-32 32q-21 -18 -39.5 -33t-37.5 -25t-39.5 -15.5t-45.5 -5.5q-28 0 -59.5 8.5t-58.5 30.5t-45 61
t-18 100h380zM144 268q0 40 8.5 77.5t26 66.5t44.5 46.5t64 17.5q71 0 110.5 -55.5t39.5 -152.5h-293zM286 628l11 -6.5t27.5 -16.5t36 -22t36 -22.5l27.5 -17.5l11 -7l25 31l-11 11t-27.5 27t-36 35t-36 35t-27.5 26.5l-11 10.5h-50l-11 -11t-27.5 -27t-36 -35t-36 -35
t-27.5 -27t-11 -10l24 -30l11.5 6.5t28 17t36 22t36 22t27.5 17z" />
    <glyph glyph-name="edieresis" unicode="&#xeb;" horiz-adv-x="574" 
d="M524 228v21q0 67 -19 116t-51.5 81t-75.5 48t-91 16q-51 0 -94 -17.5t-75 -51t-50 -81t-18 -107.5q0 -50 15.5 -97.5t47 -85t80 -60t114.5 -22.5q64 0 118 22.5t94 64.5l-32 32q-21 -18 -39.5 -33t-37.5 -25t-39.5 -15.5t-45.5 -5.5q-28 0 -59.5 8.5t-58.5 30.5t-45 61
t-18 100h380zM144 268q0 40 8.5 77.5t26 66.5t44.5 46.5t64 17.5q71 0 110.5 -55.5t39.5 -152.5h-293zM164 658q0 -22 16 -38t38 -16t38 16t16 38t-16 38t-38 16t-38 -16t-16 -38zM302 658q0 -22 16 -38t38 -16t38 16t16 38t-16 38t-38 16t-38 -16t-16 -38z" />
    <glyph glyph-name="igrave" unicode="&#xec;" horiz-adv-x="308" 
d="M112 500v-500h85v500h-85zM168 712h-111l155 -127h39z" />
    <glyph glyph-name="iacute" unicode="&#xed;" horiz-adv-x="308" 
d="M112 500v-500h85v500h-85zM140 712h111l-155 -127h-39z" />
    <glyph glyph-name="icircumflex" unicode="&#xee;" horiz-adv-x="308" 
d="M112 500v-500h85v500h-85zM154 628l11 -6.5t27.5 -16.5t36 -22t36 -22.5l27.5 -17.5l11 -7l25 31l-11 11t-27.5 27t-36 35t-36 35t-27.5 26.5l-11 10.5h-50l-11 -11t-27.5 -27t-36 -35t-36 -35t-27.5 -27t-11 -10l24 -30l11.5 6.5t28 17t36 22t36 22t27.5 17z" />
    <glyph glyph-name="idieresis" unicode="&#xef;" horiz-adv-x="308" 
d="M112 500v-500h85v500h-85zM31 658q0 -22 16 -38t38 -16t38 16t16 38t-16 38t-38 16t-38 -16t-16 -38zM169 658q0 -22 16 -38t38 -16t38 16t16 38t-16 38t-38 16t-38 -16t-16 -38z" />
    <glyph glyph-name="eth" unicode="&#xf0;" horiz-adv-x="597" 
d="M284 534l92 63q37 -26 62 -61t33 -84h-4q-34 28 -74 43.5t-93 15.5q-60 0 -108 -21.5t-81 -58.5t-50.5 -85t-17.5 -100q0 -64 22.5 -112t58.5 -80.5t82 -49t94 -16.5q42 0 88 13.5t84 48.5t63 95t25 153q0 48 -5 95.5t-19.5 91t-40.5 81t-68 66.5l75 51l-20 27l-85 -59
q-60 32 -127 43.5t-124 17.5l-7 -36q52 -8 105.5 -22t99.5 -38l-80 -55zM301 23q-18 0 -45.5 6.5t-53.5 29.5t-45 68t-19 123q0 77 19 122t45 68t53.5 29.5t45.5 6.5q28 0 57.5 -9.5t53 -35t38.5 -69.5t15 -112q0 -69 -16.5 -113t-41 -69.5t-53 -35t-53.5 -9.5z" />
    <glyph glyph-name="ntilde" unicode="&#xf1;" horiz-adv-x="581" 
d="M498 0v324q0 18 -3 49.5t-19.5 62t-52.5 53t-102 22.5q-29 1 -65 -11.5t-71 -47.5l-16 -16h-4v64h-85v-500h85v309q0 39 11 67t30 47t43.5 28t50.5 9q42 0 65 -16.5t33.5 -38.5t12.5 -44t2 -32v-329h85zM131 589q11 19 28.5 31.5t34.5 12.5q13 0 25.5 -4t23.5 -9
q36 -14 66 -25t56 -11q35 0 64.5 23.5t46.5 76.5l-30 14q-11 -26 -28 -35.5t-34 -9.5q-12 0 -23.5 3t-20.5 5q-43 14 -73.5 26.5t-53.5 12.5q-38 0 -66.5 -27.5t-42.5 -68.5z" />
    <glyph glyph-name="ograve" unicode="&#xf2;" horiz-adv-x="618" 
d="M568 249q0 -52 -18 -99.5t-51.5 -83.5t-81 -57t-106.5 -21q-60 0 -108.5 21.5t-82 57.5t-52 83.5t-18.5 98.5q0 52 18.5 99.5t52 83.5t82 57.5t108.5 21.5q59 0 106.5 -21.5t81 -57.5t51.5 -83.5t18 -99.5zM473 249q0 70 -15 113.5t-39 67.5t-53 32.5t-56 8.5t-56 -8.5
t-53.5 -32.5t-40 -67.5t-15.5 -113.5q0 -69 15.5 -112.5t40 -67.5t53.5 -32.5t56 -8.5t56 8.5t53 32.5t39 67.5t15 112.5zM323 712h-111l155 -127h39z" />
    <glyph glyph-name="oacute" unicode="&#xf3;" horiz-adv-x="618" 
d="M568 249q0 -52 -18 -99.5t-51.5 -83.5t-81 -57t-106.5 -21q-60 0 -108.5 21.5t-82 57.5t-52 83.5t-18.5 98.5q0 52 18.5 99.5t52 83.5t82 57.5t108.5 21.5q59 0 106.5 -21.5t81 -57.5t51.5 -83.5t18 -99.5zM473 249q0 70 -15 113.5t-39 67.5t-53 32.5t-56 8.5t-56 -8.5
t-53.5 -32.5t-40 -67.5t-15.5 -113.5q0 -69 15.5 -112.5t40 -67.5t53.5 -32.5t56 -8.5t56 8.5t53 32.5t39 67.5t15 112.5zM295 712h111l-155 -127h-39z" />
    <glyph glyph-name="ocircumflex" unicode="&#xf4;" horiz-adv-x="618" 
d="M568 249q0 -52 -18 -99.5t-51.5 -83.5t-81 -57t-106.5 -21q-60 0 -108.5 21.5t-82 57.5t-52 83.5t-18.5 98.5q0 52 18.5 99.5t52 83.5t82 57.5t108.5 21.5q59 0 106.5 -21.5t81 -57.5t51.5 -83.5t18 -99.5zM473 249q0 70 -15 113.5t-39 67.5t-53 32.5t-56 8.5t-56 -8.5
t-53.5 -32.5t-40 -67.5t-15.5 -113.5q0 -69 15.5 -112.5t40 -67.5t53.5 -32.5t56 -8.5t56 8.5t53 32.5t39 67.5t15 112.5zM308 628l11 -6.5t27.5 -16.5t36 -22t36 -22.5l27.5 -17.5l11 -7l25 31l-11 11t-27.5 27t-36 35t-36 35t-27.5 26.5l-11 10.5h-50l-11 -11t-27.5 -27
t-36 -35t-36 -35t-27.5 -27t-11 -10l24 -30l11.5 6.5t28 17t36 22t36 22t27.5 17z" />
    <glyph glyph-name="otilde" unicode="&#xf5;" horiz-adv-x="618" 
d="M568 249q0 -52 -18 -99.5t-51.5 -83.5t-81 -57t-106.5 -21q-60 0 -108.5 21.5t-82 57.5t-52 83.5t-18.5 98.5q0 52 18.5 99.5t52 83.5t82 57.5t108.5 21.5q59 0 106.5 -21.5t81 -57.5t51.5 -83.5t18 -99.5zM473 249q0 70 -15 113.5t-39 67.5t-53 32.5t-56 8.5t-56 -8.5
t-53.5 -32.5t-40 -67.5t-15.5 -113.5q0 -69 15.5 -112.5t40 -67.5t53.5 -32.5t56 -8.5t56 8.5t53 32.5t39 67.5t15 112.5zM150 589q11 19 28.5 31.5t34.5 12.5q13 0 25.5 -4t23.5 -9q36 -14 66 -25t56 -11q35 0 64.5 23.5t46.5 76.5l-30 14q-11 -26 -28 -35.5t-34 -9.5
q-12 0 -23.5 3t-20.5 5q-43 14 -73.5 26.5t-53.5 12.5q-38 0 -66.5 -27.5t-42.5 -68.5z" />
    <glyph glyph-name="odieresis" unicode="&#xf6;" horiz-adv-x="618" 
d="M568 249q0 -52 -18 -99.5t-51.5 -83.5t-81 -57t-106.5 -21q-60 0 -108.5 21.5t-82 57.5t-52 83.5t-18.5 98.5q0 52 18.5 99.5t52 83.5t82 57.5t108.5 21.5q59 0 106.5 -21.5t81 -57.5t51.5 -83.5t18 -99.5zM473 249q0 70 -15 113.5t-39 67.5t-53 32.5t-56 8.5t-56 -8.5
t-53.5 -32.5t-40 -67.5t-15.5 -113.5q0 -69 15.5 -112.5t40 -67.5t53.5 -32.5t56 -8.5t56 8.5t53 32.5t39 67.5t15 112.5zM186 658q0 -22 16 -38t38 -16t38 16t16 38t-16 38t-38 16t-38 -16t-16 -38zM324 658q0 -22 16 -38t38 -16t38 16t16 38t-16 38t-38 16t-38 -16
t-16 -38z" />
    <glyph glyph-name="divide" unicode="&#xf7;" horiz-adv-x="928" 
d="M120 238h688v61h-688v-61zM411 79q0 -22 16 -38t38 -16t38 16t16 38t-16 38t-38 16t-38 -16t-16 -38zM411 457q0 -22 16 -38t38 -16t38 16t16 38t-16 38t-38 16t-38 -16t-16 -38z" />
    <glyph glyph-name="oslash" unicode="&#xf8;" horiz-adv-x="638" 
d="M425 512l-10 -19q-23 8 -47 13t-51 5q-59 0 -106.5 -21.5t-81 -57.5t-51.5 -83.5t-18 -99.5q0 -64 26.5 -119.5t74.5 -91.5l-28 -50h65l12 21q23 -10 50 -15.5t57 -5.5q60 0 108.5 21.5t82 57.5t52 83.5t18.5 98.5q0 66 -29 123.5t-83 93.5l26 46h-67zM483 249
q0 -69 -15.5 -113t-40 -69t-53.5 -34.5t-56 -9.5q-22 0 -44.5 5t-42.5 19l208 371q20 -26 32 -67t12 -102zM155 249q0 70 15 114t39 69t53 34.5t56 9.5q18 0 37.5 -4t38.5 -15l-204 -366q-16 26 -25.5 64.5t-9.5 93.5z" />
    <glyph glyph-name="ugrave" unicode="&#xf9;" horiz-adv-x="581" 
d="M80 500v-325q0 -18 3.5 -49.5t20.5 -62t53.5 -53t102.5 -22.5q29 -1 63.5 11.5t69.5 47.5l16 16h4v-63h85v500h-85v-310q0 -39 -11 -67t-29 -46.5t-42 -27.5t-50 -9q-42 0 -65.5 16.5t-35 38.5t-13.5 43.5t-2 31.5v330h-85zM304 712h-111l155 -127h39z" />
    <glyph glyph-name="uacute" unicode="&#xfa;" horiz-adv-x="581" 
d="M80 500v-325q0 -18 3.5 -49.5t20.5 -62t53.5 -53t102.5 -22.5q29 -1 63.5 11.5t69.5 47.5l16 16h4v-63h85v500h-85v-310q0 -39 -11 -67t-29 -46.5t-42 -27.5t-50 -9q-42 0 -65.5 16.5t-35 38.5t-13.5 43.5t-2 31.5v330h-85zM276 712h111l-155 -127h-39z" />
    <glyph glyph-name="ucircumflex" unicode="&#xfb;" horiz-adv-x="581" 
d="M80 500v-325q0 -18 3.5 -49.5t20.5 -62t53.5 -53t102.5 -22.5q29 -1 63.5 11.5t69.5 47.5l16 16h4v-63h85v500h-85v-310q0 -39 -11 -67t-29 -46.5t-42 -27.5t-50 -9q-42 0 -65.5 16.5t-35 38.5t-13.5 43.5t-2 31.5v330h-85zM290 628l11 -6.5t27.5 -16.5t36 -22t36 -22.5
l27.5 -17.5l11 -7l25 31l-11 11t-27.5 27t-36 35t-36 35t-27.5 26.5l-11 10.5h-50l-11 -11t-27.5 -27t-36 -35t-36 -35t-27.5 -27t-11 -10l24 -30l11.5 6.5t28 17t36 22t36 22t27.5 17z" />
    <glyph glyph-name="udieresis" unicode="&#xfc;" horiz-adv-x="581" 
d="M80 500v-325q0 -18 3.5 -49.5t20.5 -62t53.5 -53t102.5 -22.5q29 -1 63.5 11.5t69.5 47.5l16 16h4v-63h85v500h-85v-310q0 -39 -11 -67t-29 -46.5t-42 -27.5t-50 -9q-42 0 -65.5 16.5t-35 38.5t-13.5 43.5t-2 31.5v330h-85zM167 658q0 -22 16 -38t38 -16t38 16t16 38
t-16 38t-38 16t-38 -16t-16 -38zM305 658q0 -22 16 -38t38 -16t38 16t16 38t-16 38t-38 16t-38 -16t-16 -38z" />
    <glyph glyph-name="yacute" unicode="&#xfd;" horiz-adv-x="504" 
d="M274 117l-173 383h-91l224 -494l-53 -130q-9 -23 -23.5 -37t-33.5 -14q-18 0 -34.5 10.5t-25.5 30.5l-44 -83q19 -17 42 -25t43 -8q28 0 49 14t37 36.5t28 50t23 54.5l242 595h-49l-157 -383h-4zM238 712h111l-155 -127h-39z" />
    <glyph glyph-name="thorn" unicode="&#xfe;" horiz-adv-x="604" 
d="M80 -250h85v332h4q10 -26 26.5 -44t37.5 -29t44.5 -16t47.5 -5q50 0 92 18.5t72.5 52.5t47.5 82.5t17 107.5q0 60 -17 108t-47.5 82.5t-72.5 53t-92 18.5q-119 0 -156 -92h-4v281h-85v-950zM165 300q0 33 10.5 62.5t29.5 51t44.5 34t54.5 12.5q31 0 59.5 -11.5
t49.5 -36.5t33.5 -65t12.5 -96q0 -57 -12.5 -97t-34 -65.5t-49.5 -37t-59 -11.5q-28 0 -53 11.5t-44 34t-30.5 54.5t-11.5 73v87z" />
    <glyph glyph-name="ydieresis" unicode="&#xff;" horiz-adv-x="504" 
d="M274 117l-173 383h-91l224 -494l-53 -130q-9 -23 -23.5 -37t-33.5 -14q-18 0 -34.5 10.5t-25.5 30.5l-44 -83q19 -17 42 -25t43 -8q28 0 49 14t37 36.5t28 50t23 54.5l242 595h-49l-157 -383h-4zM129 658q0 -22 16 -38t38 -16t38 16t16 38t-16 38t-38 16t-38 -16t-16 -38
zM267 658q0 -22 16 -38t38 -16t38 16t16 38t-16 38t-38 16t-38 -16t-16 -38z" />
    <glyph glyph-name="Amacron" unicode="&#x100;" horiz-adv-x="732" 
d="M509 206l96 -206h97l-326 700h-50l-296 -700h46l88 206h345zM488 251h-305l144 337h4zM209 783h313v40h-313v-40z" />
    <glyph glyph-name="amacron" unicode="&#x101;" horiz-adv-x="540" 
d="M264 511q73 0 113 -20.5t58.5 -53.5t21.5 -76t3 -88v-273h-81v49q-29 -28 -74 -44.5t-90 -16.5q-43 0 -76 15t-55 39t-33 54t-11 61q0 32 12 64t36 57.5t59 41.5t80 16t85.5 -17.5t66.5 -49.5v43q0 82 -24.5 122t-89.5 40q-28 0 -49 -7t-37.5 -19.5t-30.5 -31t-28 -41.5
l-52 52q14 15 29.5 30t38 27t53.5 19.5t75 7.5zM379 198q-5 12 -14.5 28t-24.5 31t-36 25.5t-50 10.5t-53 -11.5t-40.5 -30t-25.5 -43.5t-9 -52q0 -32 11.5 -55.5t29.5 -40t40 -24.5t42 -8q19 0 38.5 7t37 19.5t31.5 29.5t23 37v77zM113 583h313v40h-313v-40z" />
    <glyph glyph-name="Abreve" unicode="&#x102;" horiz-adv-x="732" 
d="M509 206l96 -206h97l-326 700h-50l-296 -700h46l88 206h345zM488 251h-305l144 337h4zM219 912q0 -28 11 -53t31 -43.5t46.5 -29t58.5 -10.5q31 0 58 10.5t47 29t31 43.5t11 53h-42q-2 -45 -32.5 -72.5t-72.5 -27.5q-41 0 -71.5 27.5t-33.5 72.5h-42z" />
    <glyph glyph-name="abreve" unicode="&#x103;" horiz-adv-x="540" 
d="M264 511q73 0 113 -20.5t58.5 -53.5t21.5 -76t3 -88v-273h-81v49q-29 -28 -74 -44.5t-90 -16.5q-43 0 -76 15t-55 39t-33 54t-11 61q0 32 12 64t36 57.5t59 41.5t80 16t85.5 -17.5t66.5 -49.5v43q0 82 -24.5 122t-89.5 40q-28 0 -49 -7t-37.5 -19.5t-30.5 -31t-28 -41.5
l-52 52q14 15 29.5 30t38 27t53.5 19.5t75 7.5zM379 198q-5 12 -14.5 28t-24.5 31t-36 25.5t-50 10.5t-53 -11.5t-40.5 -30t-25.5 -43.5t-9 -52q0 -32 11.5 -55.5t29.5 -40t40 -24.5t42 -8q19 0 38.5 7t37 19.5t31.5 29.5t23 37v77zM123 712q0 -28 11 -53t31 -43.5t46.5 -29
t58.5 -10.5q31 0 58 10.5t47 29t31 43.5t11 53h-42q-2 -45 -32.5 -72.5t-72.5 -27.5q-41 0 -71.5 27.5t-33.5 72.5h-42z" />
    <glyph glyph-name="Aogonek" unicode="&#x104;" horiz-adv-x="732" 
d="M654 0l-46 -33q-27 -20 -49.5 -44t-22.5 -53q0 -34 23.5 -47t50.5 -13q23 0 45.5 8t38.5 20l-11 27q-10 -5 -25 -11t-29 -6q-21 0 -26.5 13t-5.5 19q0 17 9 33t24 31.5t34 29.5t38 26l-326 700h-50l-296 -700h46l88 206h345l96 -206h49zM488 251h-305l144 337h4z" />
    <glyph glyph-name="aogonek" unicode="&#x105;" horiz-adv-x="540" 
d="M264 511q73 0 113 -20.5t58.5 -53.5t21.5 -76t3 -88v-273h-81v49q-29 -28 -74 -44.5t-90 -16.5q-43 0 -76 15t-55 39t-33 54t-11 61q0 32 12 64t36 57.5t59 41.5t80 16t85.5 -17.5t66.5 -49.5v43q0 82 -24.5 122t-89.5 40q-28 0 -49 -7t-37.5 -19.5t-30.5 -31t-28 -41.5
l-52 52q14 15 29.5 30t38 27t53.5 19.5t75 7.5zM379 198q-5 12 -14.5 28t-24.5 31t-36 25.5t-50 10.5t-53 -11.5t-40.5 -30t-25.5 -43.5t-9 -52q0 -32 11.5 -55.5t29.5 -40t40 -24.5t42 -8q19 0 38.5 7t37 19.5t31.5 29.5t23 37v77zM412 0l-46 -33q-27 -20 -49.5 -44
t-22.5 -53q0 -34 23.5 -47t50.5 -13q23 0 45.5 8t38.5 20l-11 27q-10 -5 -25 -11t-29 -6q-21 0 -26.5 13t-5.5 19q0 17 9 33t24 31.5t34 29.5t38 26h-48z" />
    <glyph glyph-name="Cacute" unicode="&#x106;" horiz-adv-x="759" 
d="M709 129q-102 -96 -242 -96q-78 0 -138 27t-100 72t-60.5 104t-20.5 123q0 68 21.5 124.5t60.5 97.5t92.5 64t116.5 23q43 0 78.5 -10t63 -26t45 -36.5t24.5 -41.5h74q-15 34 -38.5 63t-58.5 50t-82 33t-107 12q-87 0 -158.5 -25t-122.5 -71.5t-79 -112t-28 -146.5
q0 -70 22.5 -136.5t69.5 -118t120 -83t174 -31.5q64 0 114.5 12t88 29.5t62.5 37.5t38 35zM365 912h111l-155 -127h-39z" />
    <glyph glyph-name="cacute" unicode="&#x107;" horiz-adv-x="544" 
d="M331 40q-36 0 -69.5 11t-59.5 35.5t-41.5 65t-15.5 99.5q0 61 17 103.5t42.5 68t56.5 37t59 11.5q46 0 80 -24t45 -59h69q-10 36 -32 59.5t-50.5 38t-61 20t-62.5 5.5q-63 0 -111 -20.5t-81 -55.5t-49.5 -82t-16.5 -100q0 -56 18 -104.5t51.5 -84t80.5 -56t106 -20.5
q66 0 115.5 22t83.5 48l-29 38q-35 -29 -69.5 -42.5t-75.5 -13.5zM258 712h111l-155 -127h-39z" />
    <glyph glyph-name="Ccircumflex" unicode="&#x108;" horiz-adv-x="759" 
d="M709 129q-102 -96 -242 -96q-78 0 -138 27t-100 72t-60.5 104t-20.5 123q0 68 21.5 124.5t60.5 97.5t92.5 64t116.5 23q43 0 78.5 -10t63 -26t45 -36.5t24.5 -41.5h74q-15 34 -38.5 63t-58.5 50t-82 33t-107 12q-87 0 -158.5 -25t-122.5 -71.5t-79 -112t-28 -146.5
q0 -70 22.5 -136.5t69.5 -118t120 -83t174 -31.5q64 0 114.5 12t88 29.5t62.5 37.5t38 35zM379 828l11 -6.5t27.5 -16.5t36 -22t36 -22.5l27.5 -17.5l11 -7l25 31l-11 11t-27.5 27t-36 35t-36 35t-27.5 26.5l-11 10.5h-50l-11 -11t-27.5 -27t-36 -35t-36 -35t-27.5 -27
t-11 -10l24 -30l11.5 6.5t28 17t36 22t36 22t27.5 17z" />
    <glyph glyph-name="ccircumflex" unicode="&#x109;" horiz-adv-x="544" 
d="M331 40q-36 0 -69.5 11t-59.5 35.5t-41.5 65t-15.5 99.5q0 61 17 103.5t42.5 68t56.5 37t59 11.5q46 0 80 -24t45 -59h69q-10 36 -32 59.5t-50.5 38t-61 20t-62.5 5.5q-63 0 -111 -20.5t-81 -55.5t-49.5 -82t-16.5 -100q0 -56 18 -104.5t51.5 -84t80.5 -56t106 -20.5
q66 0 115.5 22t83.5 48l-29 38q-35 -29 -69.5 -42.5t-75.5 -13.5zM271 628l11 -6.5t27.5 -16.5t36 -22t36 -22.5l27.5 -17.5l11 -7l25 31l-11 11t-27.5 27t-36 35t-36 35t-27.5 26.5l-11 10.5h-50l-11 -11t-27.5 -27t-36 -35t-36 -35t-27.5 -27t-11 -10l24 -30l11.5 6.5
t28 17t36 22t36 22t27.5 17z" />
    <glyph glyph-name="Cdotaccent" unicode="&#x10a;" horiz-adv-x="759" 
d="M709 129q-102 -96 -242 -96q-78 0 -138 27t-100 72t-60.5 104t-20.5 123q0 68 21.5 124.5t60.5 97.5t92.5 64t116.5 23q43 0 78.5 -10t63 -26t45 -36.5t24.5 -41.5h74q-15 34 -38.5 63t-58.5 50t-82 33t-107 12q-87 0 -158.5 -25t-122.5 -71.5t-79 -112t-28 -146.5
q0 -70 22.5 -136.5t69.5 -118t120 -83t174 -31.5q64 0 114.5 12t88 29.5t62.5 37.5t38 35zM325 858q0 -22 16 -38t38 -16t38 16t16 38t-16 38t-38 16t-38 -16t-16 -38z" />
    <glyph glyph-name="cdotaccent" unicode="&#x10b;" horiz-adv-x="544" 
d="M331 40q-36 0 -69.5 11t-59.5 35.5t-41.5 65t-15.5 99.5q0 61 17 103.5t42.5 68t56.5 37t59 11.5q46 0 80 -24t45 -59h69q-10 36 -32 59.5t-50.5 38t-61 20t-62.5 5.5q-63 0 -111 -20.5t-81 -55.5t-49.5 -82t-16.5 -100q0 -56 18 -104.5t51.5 -84t80.5 -56t106 -20.5
q66 0 115.5 22t83.5 48l-29 38q-35 -29 -69.5 -42.5t-75.5 -13.5zM218 658q0 -22 16 -38t38 -16t38 16t16 38t-16 38t-38 16t-38 -16t-16 -38z" />
    <glyph glyph-name="Ccaron" unicode="&#x10c;" horiz-adv-x="759" 
d="M709 129q-102 -96 -242 -96q-78 0 -138 27t-100 72t-60.5 104t-20.5 123q0 68 21.5 124.5t60.5 97.5t92.5 64t116.5 23q43 0 78.5 -10t63 -26t45 -36.5t24.5 -41.5h74q-15 34 -38.5 63t-58.5 50t-82 33t-107 12q-87 0 -158.5 -25t-122.5 -71.5t-79 -112t-28 -146.5
q0 -70 22.5 -136.5t69.5 -118t120 -83t174 -31.5q64 0 114.5 12t88 29.5t62.5 37.5t38 35zM379 821q0 -1 11 6t27.5 17t36 22t36 22.5l27.5 17.5l11 7l25 -31l-11 -11t-27.5 -27t-36 -35t-36 -35t-27.5 -26.5l-11 -10.5h-50l-11 11t-27.5 27t-36 35t-36 35t-27.5 26.5
l-11 10.5l24 30l11.5 -6.5t28 -17t36 -22t36 -22t27.5 -17z" />
    <glyph glyph-name="ccaron" unicode="&#x10d;" horiz-adv-x="544" 
d="M331 40q-36 0 -69.5 11t-59.5 35.5t-41.5 65t-15.5 99.5q0 61 17 103.5t42.5 68t56.5 37t59 11.5q46 0 80 -24t45 -59h69q-10 36 -32 59.5t-50.5 38t-61 20t-62.5 5.5q-63 0 -111 -20.5t-81 -55.5t-49.5 -82t-16.5 -100q0 -56 18 -104.5t51.5 -84t80.5 -56t106 -20.5
q66 0 115.5 22t83.5 48l-29 38q-35 -29 -69.5 -42.5t-75.5 -13.5zM271 621q0 -1 11 6t27.5 17t36 22t36 22.5l27.5 17.5l11 7l25 -31l-11 -11t-27.5 -27t-36 -35t-36 -35t-27.5 -26.5l-11 -10.5h-50l-11 11t-27.5 27t-36 35t-36 35t-27.5 26.5l-11 10.5l24 30l11.5 -6.5
t28 -17t36 -22t36 -22t27.5 -17z" />
    <glyph glyph-name="Dcaron" unicode="&#x10e;" horiz-adv-x="765" 
d="M130 0v700h230q83 0 152 -26.5t118.5 -73t77 -110.5t27.5 -138q0 -77 -28.5 -141.5t-78 -111.5t-115.5 -73t-141 -26h-242zM221 44h110q82 0 139.5 27.5t94.5 71.5t54 98.5t17 108.5q0 60 -20 115.5t-58.5 98t-95.5 67.5t-131 25h-110v-612zM382 821q0 -1 11 6t27.5 17
t36 22t36 22.5l27.5 17.5l11 7l25 -31l-11 -11t-27.5 -27t-36 -35t-36 -35t-27.5 -26.5l-11 -10.5h-50l-11 11t-27.5 27t-36 35t-36 35t-27.5 26.5l-11 10.5l24 30l11.5 -6.5t28 -17t36 -22t36 -22t27.5 -17z" />
    <glyph glyph-name="dcaron" unicode="&#x10f;" horiz-adv-x="744" 
d="M524 700h-85v-282h-4q-10 26 -26.5 43.5t-37.5 28.5t-44.5 16t-47.5 5q-50 0 -92 -18.5t-72.5 -52.5t-47.5 -82t-17 -107q0 -60 17 -108.5t47.5 -83t72.5 -53t92 -18.5q118 0 156 93h4v-81h85v700zM439 200q0 -33 -11 -62.5t-29.5 -51t-44 -34t-54.5 -12.5
q-32 0 -60 11.5t-49 36.5t-33.5 65t-12.5 96q0 57 12.5 97t34 65.5t49.5 37t59 11.5q28 0 53 -11.5t44 -34t30.5 -54.5t11.5 -73v-87zM664 699h-95v-258h36z" />
    <glyph glyph-name="Dcroat" unicode="&#x110;" horiz-adv-x="786" 
d="M10 371h110v329h230q83 0 152.5 -27t119 -74t77 -112t27.5 -140q0 -76 -29 -139.5t-78.5 -109.5t-115.5 -72t-141 -26h-242v331h-110v40zM211 44h110q82 0 139.5 28t94.5 72.5t54 99.5t17 109q0 61 -20 116t-58.5 96.5t-95.5 66t-131 24.5h-110v-285h112v-40h-112v-287z
" />
    <glyph glyph-name="dcroat" unicode="&#x111;" horiz-adv-x="604" 
d="M524 700h-85v-85h-149v-41h149v-156h-4q-10 26 -26.5 43.5t-37.5 28.5t-44.5 16t-47.5 5q-50 0 -92 -18.5t-72.5 -52.5t-47.5 -82t-17 -107q0 -60 17 -108.5t47.5 -83t72.5 -53t92 -18.5q118 0 156 93h4v-81h85v574h79v41h-79v85zM439 200q0 -33 -11 -62.5t-29.5 -51
t-44 -34t-54.5 -12.5q-32 0 -60 11.5t-49 36.5t-33.5 65t-12.5 96q0 57 12.5 97t34 65.5t49.5 37t59 11.5q28 0 53 -11.5t44 -34t30.5 -54.5t11.5 -73v-87z" />
    <glyph glyph-name="Emacron" unicode="&#x112;" 
d="M120 700v-700h452v55h-361v293h310v46h-310v251h361v55h-452zM144 783h313v40h-313v-40z" />
    <glyph glyph-name="emacron" unicode="&#x113;" horiz-adv-x="574" 
d="M524 228v21q0 67 -19 116t-51.5 81t-75.5 48t-91 16q-51 0 -94 -17.5t-75 -51t-50 -81t-18 -107.5q0 -50 15.5 -97.5t47 -85t80 -60t114.5 -22.5q64 0 118 22.5t94 64.5l-32 32q-21 -18 -39.5 -33t-37.5 -25t-39.5 -15.5t-45.5 -5.5q-28 0 -59.5 8.5t-58.5 30.5t-45 61
t-18 100h380zM144 268q0 40 8.5 77.5t26 66.5t44.5 46.5t64 17.5q71 0 110.5 -55.5t39.5 -152.5h-293zM130 583h313v40h-313v-40z" />
    <glyph glyph-name="Ebreve" unicode="&#x114;" 
d="M120 700v-700h452v55h-361v293h310v46h-310v251h361v55h-452zM154 912q0 -28 11 -53t31 -43.5t46.5 -29t58.5 -10.5q31 0 58 10.5t47 29t31 43.5t11 53h-42q-2 -45 -32.5 -72.5t-72.5 -27.5q-41 0 -71.5 27.5t-33.5 72.5h-42z" />
    <glyph glyph-name="ebreve" unicode="&#x115;" horiz-adv-x="574" 
d="M524 228v21q0 67 -19 116t-51.5 81t-75.5 48t-91 16q-51 0 -94 -17.5t-75 -51t-50 -81t-18 -107.5q0 -50 15.5 -97.5t47 -85t80 -60t114.5 -22.5q64 0 118 22.5t94 64.5l-32 32q-21 -18 -39.5 -33t-37.5 -25t-39.5 -15.5t-45.5 -5.5q-28 0 -59.5 8.5t-58.5 30.5t-45 61
t-18 100h380zM144 268q0 40 8.5 77.5t26 66.5t44.5 46.5t64 17.5q71 0 110.5 -55.5t39.5 -152.5h-293zM140 712q0 -28 11 -53t31 -43.5t46.5 -29t58.5 -10.5q31 0 58 10.5t47 29t31 43.5t11 53h-42q-2 -45 -32.5 -72.5t-72.5 -27.5q-41 0 -71.5 27.5t-33.5 72.5h-42z" />
    <glyph glyph-name="Edotaccent" unicode="&#x116;" 
d="M120 700v-700h452v55h-361v293h310v46h-310v251h361v55h-452zM247 858q0 -22 16 -38t38 -16t38 16t16 38t-16 38t-38 16t-38 -16t-16 -38z" />
    <glyph glyph-name="edotaccent" unicode="&#x117;" horiz-adv-x="574" 
d="M524 228v21q0 67 -19 116t-51.5 81t-75.5 48t-91 16q-51 0 -94 -17.5t-75 -51t-50 -81t-18 -107.5q0 -50 15.5 -97.5t47 -85t80 -60t114.5 -22.5q64 0 118 22.5t94 64.5l-32 32q-21 -18 -39.5 -33t-37.5 -25t-39.5 -15.5t-45.5 -5.5q-28 0 -59.5 8.5t-58.5 30.5t-45 61
t-18 100h380zM144 268q0 40 8.5 77.5t26 66.5t44.5 46.5t64 17.5q71 0 110.5 -55.5t39.5 -152.5h-293zM233 658q0 -22 16 -38t38 -16t38 16t16 38t-16 38t-38 16t-38 -16t-16 -38z" />
    <glyph glyph-name="Eogonek" unicode="&#x118;" 
d="M524 0l-46 -33q-27 -20 -49.5 -44t-22.5 -53q0 -34 23.5 -47t50.5 -13q23 0 45.5 8t38.5 20l-11 27q-10 -5 -25 -11t-29 -6q-21 0 -26.5 13t-5.5 19q0 17 9 33t24 31.5t34 29.5t38 26v55h-361v293h310v46h-310v251h361v55h-452v-700h404z" />
    <glyph glyph-name="eogonek" unicode="&#x119;" horiz-adv-x="574" 
d="M524 228v21q0 67 -19 116t-51.5 81t-75.5 48t-91 16q-51 0 -94 -17.5t-75 -51t-50 -81t-18 -107.5q0 -50 15 -97t46 -84t78 -60t111 -24l-29 -21q-27 -20 -49.5 -44t-22.5 -53q0 -34 23.5 -47t50.5 -13q23 0 45.5 8t38.5 20l-11 27q-10 -5 -25 -11t-29 -6q-21 0 -26.5 13
t-5.5 19q0 15 7.5 30t20 29t29 27t33.5 25q102 14 169 84l-32 32q-21 -18 -39.5 -33t-37.5 -25t-39.5 -15.5t-45.5 -5.5q-28 0 -59.5 8.5t-58.5 30.5t-45 61t-18 100h380zM144 268q0 40 8.5 77.5t26 66.5t44.5 46.5t64 17.5q71 0 110.5 -55.5t39.5 -152.5h-293z" />
    <glyph glyph-name="Ecaron" unicode="&#x11a;" 
d="M120 700v-700h452v55h-361v293h310v46h-310v251h361v55h-452zM300 821q0 -1 11 6t27.5 17t36 22t36 22.5l27.5 17.5l11 7l25 -31l-11 -11t-27.5 -27t-36 -35t-36 -35t-27.5 -26.5l-11 -10.5h-50l-11 11t-27.5 27t-36 35t-36 35t-27.5 26.5l-11 10.5l24 30l11.5 -6.5
t28 -17t36 -22t36 -22t27.5 -17z" />
    <glyph glyph-name="ecaron" unicode="&#x11b;" horiz-adv-x="574" 
d="M524 228v21q0 67 -19 116t-51.5 81t-75.5 48t-91 16q-51 0 -94 -17.5t-75 -51t-50 -81t-18 -107.5q0 -50 15.5 -97.5t47 -85t80 -60t114.5 -22.5q64 0 118 22.5t94 64.5l-32 32q-21 -18 -39.5 -33t-37.5 -25t-39.5 -15.5t-45.5 -5.5q-28 0 -59.5 8.5t-58.5 30.5t-45 61
t-18 100h380zM144 268q0 40 8.5 77.5t26 66.5t44.5 46.5t64 17.5q71 0 110.5 -55.5t39.5 -152.5h-293zM286 621q0 -1 11 6t27.5 17t36 22t36 22.5l27.5 17.5l11 7l25 -31l-11 -11t-27.5 -27t-36 -35t-36 -35t-27.5 -26.5l-11 -10.5h-50l-11 11t-27.5 27t-36 35t-36 35
t-27.5 26.5l-11 10.5l24 30l11.5 -6.5t28 -17t36 -22t36 -22t27.5 -17z" />
    <glyph glyph-name="Gcircumflex" unicode="&#x11c;" horiz-adv-x="817" 
d="M757 312h-198v-41h112v-181q-45 -29 -92 -43t-107 -14q-79 0 -138 24t-98 66.5t-58.5 101t-19.5 128.5q0 69 18.5 127t55.5 100t90.5 65t124.5 23q47 0 88 -10t73 -26t52.5 -36.5t26.5 -41.5h72q-9 22 -30.5 49.5t-58.5 51.5t-91.5 40.5t-128.5 16.5q-85 0 -156.5 -24
t-123.5 -69t-81 -110.5t-29 -148.5q0 -71 22.5 -137.5t69 -119t118.5 -84t172 -31.5q75 0 133 16.5t96 36.5v-41h86v312zM408 828l11 -6.5t27.5 -16.5t36 -22t36 -22.5l27.5 -17.5l11 -7l25 31l-11 11t-27.5 27t-36 35t-36 35t-27.5 26.5l-11 10.5h-50l-11 -11t-27.5 -27
t-36 -35t-36 -35t-27.5 -27t-11 -10l24 -30l11.5 6.5t28 17t36 22t36 22t27.5 17z" />
    <glyph glyph-name="gcircumflex" unicode="&#x11d;" 
d="M437 -42q0 -46 -11 -78t-30.5 -52t-46 -29t-56.5 -9q-53 0 -85.5 27t-59.5 72l-55 -50q7 -9 22 -23.5t38 -29t55 -25t73 -10.5q76 0 123 21.5t73 57.5t35.5 82.5t9.5 96.5v491h-85v-78h-4q-12 42 -51.5 65.5t-103.5 23.5q-51 0 -93 -18.5t-72 -52.5t-46.5 -82t-16.5 -107
q0 -60 16.5 -108.5t46.5 -83t71.5 -53t92.5 -18.5q56 0 97.5 22t58.5 70h4v-122zM437 213q0 -42 -11.5 -74t-30.5 -54t-44 -33.5t-52 -11.5q-24 0 -51.5 8.5t-51 31.5t-39 65t-15.5 108q0 70 19 111.5t44.5 63.5t52 28.5t41.5 6.5q33 0 59 -14.5t43.5 -39t26.5 -56.5t9 -66
v-74zM300 628l11 -6.5t27.5 -16.5t36 -22t36 -22.5l27.5 -17.5l11 -7l25 31l-11 11t-27.5 27t-36 35t-36 35t-27.5 26.5l-11 10.5h-50l-11 -11t-27.5 -27t-36 -35t-36 -35t-27.5 -27t-11 -10l24 -30l11.5 6.5t28 17t36 22t36 22t27.5 17z" />
    <glyph glyph-name="Gbreve" unicode="&#x11e;" horiz-adv-x="817" 
d="M757 312h-198v-41h112v-181q-45 -29 -92 -43t-107 -14q-79 0 -138 24t-98 66.5t-58.5 101t-19.5 128.5q0 69 18.5 127t55.5 100t90.5 65t124.5 23q47 0 88 -10t73 -26t52.5 -36.5t26.5 -41.5h72q-9 22 -30.5 49.5t-58.5 51.5t-91.5 40.5t-128.5 16.5q-85 0 -156.5 -24
t-123.5 -69t-81 -110.5t-29 -148.5q0 -71 22.5 -137.5t69 -119t118.5 -84t172 -31.5q75 0 133 16.5t96 36.5v-41h86v312zM261 912q0 -28 11 -53t31 -43.5t46.5 -29t58.5 -10.5q31 0 58 10.5t47 29t31 43.5t11 53h-42q-2 -45 -32.5 -72.5t-72.5 -27.5q-41 0 -71.5 27.5
t-33.5 72.5h-42z" />
    <glyph glyph-name="gbreve" unicode="&#x11f;" 
d="M437 -42q0 -46 -11 -78t-30.5 -52t-46 -29t-56.5 -9q-53 0 -85.5 27t-59.5 72l-55 -50q7 -9 22 -23.5t38 -29t55 -25t73 -10.5q76 0 123 21.5t73 57.5t35.5 82.5t9.5 96.5v491h-85v-78h-4q-12 42 -51.5 65.5t-103.5 23.5q-51 0 -93 -18.5t-72 -52.5t-46.5 -82t-16.5 -107
q0 -60 16.5 -108.5t46.5 -83t71.5 -53t92.5 -18.5q56 0 97.5 22t58.5 70h4v-122zM437 213q0 -42 -11.5 -74t-30.5 -54t-44 -33.5t-52 -11.5q-24 0 -51.5 8.5t-51 31.5t-39 65t-15.5 108q0 70 19 111.5t44.5 63.5t52 28.5t41.5 6.5q33 0 59 -14.5t43.5 -39t26.5 -56.5t9 -66
v-74zM154 712q0 -28 11 -53t31 -43.5t46.5 -29t58.5 -10.5q31 0 58 10.5t47 29t31 43.5t11 53h-42q-2 -45 -32.5 -72.5t-72.5 -27.5q-41 0 -71.5 27.5t-33.5 72.5h-42z" />
    <glyph glyph-name="Gdotaccent" unicode="&#x120;" horiz-adv-x="817" 
d="M757 312h-198v-41h112v-181q-45 -29 -92 -43t-107 -14q-79 0 -138 24t-98 66.5t-58.5 101t-19.5 128.5q0 69 18.5 127t55.5 100t90.5 65t124.5 23q47 0 88 -10t73 -26t52.5 -36.5t26.5 -41.5h72q-9 22 -30.5 49.5t-58.5 51.5t-91.5 40.5t-128.5 16.5q-85 0 -156.5 -24
t-123.5 -69t-81 -110.5t-29 -148.5q0 -71 22.5 -137.5t69 -119t118.5 -84t172 -31.5q75 0 133 16.5t96 36.5v-41h86v312zM354 858q0 -22 16 -38t38 -16t38 16t16 38t-16 38t-38 16t-38 -16t-16 -38z" />
    <glyph glyph-name="gdotaccent" unicode="&#x121;" 
d="M437 -42q0 -46 -11 -78t-30.5 -52t-46 -29t-56.5 -9q-53 0 -85.5 27t-59.5 72l-55 -50q7 -9 22 -23.5t38 -29t55 -25t73 -10.5q76 0 123 21.5t73 57.5t35.5 82.5t9.5 96.5v491h-85v-78h-4q-12 42 -51.5 65.5t-103.5 23.5q-51 0 -93 -18.5t-72 -52.5t-46.5 -82t-16.5 -107
q0 -60 16.5 -108.5t46.5 -83t71.5 -53t92.5 -18.5q56 0 97.5 22t58.5 70h4v-122zM437 213q0 -42 -11.5 -74t-30.5 -54t-44 -33.5t-52 -11.5q-24 0 -51.5 8.5t-51 31.5t-39 65t-15.5 108q0 70 19 111.5t44.5 63.5t52 28.5t41.5 6.5q33 0 59 -14.5t43.5 -39t26.5 -56.5t9 -66
v-74zM247 658q0 -22 16 -38t38 -16t38 16t16 38t-16 38t-38 16t-38 -16t-16 -38z" />
    <glyph glyph-name="uni0122" unicode="&#x122;" horiz-adv-x="817" 
d="M756 312h-197v-41h112v-181q-45 -29 -92.5 -43t-102.5 -14q-78 0 -137.5 27t-99 71.5t-59.5 102.5t-20 120q0 69 21 127t60 99.5t94.5 65t124.5 23.5q34 0 66.5 -10t59.5 -26t46 -37t25 -42h94q-10 24 -30 51.5t-56 51t-90 39.5t-132 16q-81 0 -150.5 -25t-121.5 -71
t-81.5 -110.5t-29.5 -143.5q0 -71 22.5 -138t69 -119.5t117 -84.5t167.5 -32q82 0 138.5 16t96.5 37v-41h86zM490 -49h-94v-171h34z" />
    <glyph glyph-name="uni0123" unicode="&#x123;" 
d="M437 -42q0 -46 -11 -78t-30.5 -52t-46 -29t-56.5 -9q-53 0 -85.5 27t-59.5 72l-55 -50q7 -9 22 -23.5t38 -29t55 -25t73 -10.5q76 0 123 21.5t73 57.5t35.5 82.5t9.5 96.5v491h-85v-78h-4q-12 42 -51.5 65.5t-103.5 23.5q-51 0 -93 -18.5t-72 -52.5t-46.5 -82t-16.5 -107
q0 -60 16.5 -108.5t46.5 -83t71.5 -53t92.5 -18.5q56 0 97.5 22t58.5 70h4v-122zM437 213q0 -42 -11.5 -74t-30.5 -54t-44 -33.5t-52 -11.5q-24 0 -51 8.5t-50 31.5t-38 65t-15 108q0 70 18.5 111t43.5 62.5t51 27.5t41 6q33 0 59 -14t43.5 -38t26.5 -55.5t9 -65.5v-74z
M232 544h94v168h-34z" />
    <glyph glyph-name="Hcircumflex" unicode="&#x124;" horiz-adv-x="841" 
d="M211 348h419v-348h91v700h-91v-306h-419v306h-91v-700h91v348zM420 828l11 -6.5t27.5 -16.5t36 -22t36 -22.5l27.5 -17.5l11 -7l25 31l-11 11t-27.5 27t-36 35t-36 35t-27.5 26.5l-11 10.5h-50l-11 -11t-27.5 -27t-36 -35t-36 -35t-27.5 -27t-11 -10l24 -30l11.5 6.5
t28 17t36 22t36 22t27.5 17z" />
    <glyph glyph-name="hcircumflex" unicode="&#x125;" horiz-adv-x="569" 
d="M80 700v-700h85v289q0 20 3 49t16.5 56t40.5 46.5t75 19.5q34 0 54.5 -12.5t31.5 -33.5t14.5 -49t3.5 -58v-307h85v330q0 56 -16 91.5t-40 55.5t-52.5 27t-54.5 7q-35 0 -73.5 -13.5t-72.5 -51.5l-11 -14h-4v268h-85zM257 822l11 -6.5t27.5 -16.5t36 -22t36 -22.5
l27.5 -17.5l11 -7l25 31l-11 11t-27.5 27t-36 35t-36 35t-27.5 26.5l-11 10.5h-50l-11 -11t-27.5 -27t-36 -35t-36 -35t-27.5 -27t-11 -10l24 -30l11.5 6.5t28 17t36 22t36 22t27.5 17z" />
    <glyph glyph-name="Hbar" unicode="&#x126;" horiz-adv-x="841" 
d="M36 500h84v-500h91v350h419v-350h91v500h86v40h-86v160h-91v-160h-419v160h-91v-160h-84v-40zM211 394v106h419v-106h-419z" />
    <glyph glyph-name="hbar" unicode="&#x127;" horiz-adv-x="569" 
d="M9 583h71v-583h85v289q0 20 3 49t16.5 56t40.5 46.5t75 19.5q34 0 54.5 -12.5t31.5 -33.5t14.5 -49t3.5 -58v-307h85v330q0 56 -16 91.5t-40 55.5t-52.5 27t-54.5 7q-35 0 -73.5 -13.5t-72.5 -51.5l-11 -14h-4v151h157v40h-157v77h-85v-77h-71v-40z" />
    <glyph glyph-name="Itilde" unicode="&#x128;" horiz-adv-x="411" 
d="M160 700v-700h91v700h-91zM46 789q11 19 28.5 31.5t34.5 12.5q13 0 25.5 -4t23.5 -9q36 -14 66 -25t56 -11q35 0 64.5 23.5t46.5 76.5l-30 14q-11 -26 -28 -35.5t-34 -9.5q-12 0 -23.5 3t-20.5 5q-43 14 -73.5 26.5t-53.5 12.5q-38 0 -66.5 -27.5t-42.5 -68.5z" />
    <glyph glyph-name="itilde" unicode="&#x129;" horiz-adv-x="308" 
d="M112 500v-500h85v500h-85zM-5 589q11 19 28.5 31.5t34.5 12.5q21 0 44 -7.5t45.5 -17t43.5 -17t38 -7.5q76 0 111 100l-30 14q-11 -26 -28 -35.5t-34 -9.5q-21 0 -44.5 7.5t-46 16t-42.5 16t-33 7.5q-42 0 -71 -27.5t-43 -68.5z" />
    <glyph glyph-name="Imacron" unicode="&#x12a;" horiz-adv-x="411" 
d="M160 700v-700h91v700h-91zM49 783h313v40h-313v-40z" />
    <glyph glyph-name="imacron" unicode="&#x12b;" horiz-adv-x="308" 
d="M112 500v-500h85v500h-85zM-2 583h313v40h-313v-40z" />
    <glyph glyph-name="Ibreve" unicode="&#x12c;" horiz-adv-x="411" 
d="M160 700v-700h91v700h-91zM58 912q0 -28 11 -53t31 -43.5t46.5 -29t58.5 -10.5q31 0 58 10.5t47 29t31 43.5t11 53h-42q-2 -45 -32.5 -72.5t-72.5 -27.5q-41 0 -71.5 27.5t-33.5 72.5h-42z" />
    <glyph glyph-name="Iogonek" unicode="&#x12e;" horiz-adv-x="411" 
d="M203 0l-46 -33q-27 -20 -49.5 -44t-22.5 -53q0 -34 23.5 -47t50.5 -13q23 0 45.5 8t38.5 20l-11 27q-10 -5 -25 -11t-29 -6q-21 0 -26.5 13t-5.5 19q0 17 9 33t24 31.5t34 29.5t38 26v700h-91v-700h43z" />
    <glyph glyph-name="iogonek" unicode="&#x12f;" horiz-adv-x="308" 
d="M112 500v-500h33l-43 -31q-27 -20 -49.5 -44t-22.5 -53q0 -34 23.5 -47t50.5 -13q23 0 45.5 8t38.5 20l-11 27q-10 -5 -25 -11t-29 -6q-21 0 -26.5 13t-5.5 19q0 16 9 32t23.5 31t32.5 29t37 26h4v500h-85zM100 658q0 -22 16 -38t38 -16t38 16t16 38t-16 38t-38 16
t-38 -16t-16 -38z" />
    <glyph glyph-name="Idotaccent" unicode="&#x130;" horiz-adv-x="411" 
d="M160 700v-700h91v700h-91zM151 858q0 -22 16 -38t38 -16t38 16t16 38t-16 38t-38 16t-38 -16t-16 -38z" />
    <glyph glyph-name="dotlessi" unicode="&#x131;" horiz-adv-x="308" 
d="M112 500v-500h85v500h-85zM100 658q0 -22 16 -38t38 -16t38 16t16 38t-16 38t-38 16t-38 -16t-16 -38z" />
    <glyph glyph-name="Jcircumflex" unicode="&#x134;" horiz-adv-x="522" 
d="M311 700v-505q0 -24 -1.5 -52.5t-11.5 -53t-30.5 -41t-58.5 -16.5q-33 0 -54.5 12t-34 30t-18 38.5t-5.5 36.5h-87q2 -77 50 -119t144 -42q69 0 109 20.5t59.5 52t24.5 68.5t5 69v502h-91zM347 828l11 -6.5t27.5 -16.5t36 -22t36 -22.5l27.5 -17.5l11 -7l25 31l-11 11
t-27.5 27t-36 35t-36 35t-27.5 26.5l-11 10.5h-50l-11 -11t-27.5 -27t-36 -35t-36 -35t-27.5 -27t-11 -10l24 -30l11.5 6.5t28 17t36 22t36 22t27.5 17z" />
    <glyph glyph-name="jcircumflex" unicode="&#x135;" horiz-adv-x="291" 
d="M113 500v-592q0 -23 -2 -44.5t-8.5 -38.5t-19 -27t-32.5 -10q-25 0 -37.5 12t-23.5 38l-50 -39q22 -29 51.5 -39t61.5 -10q22 0 47.5 8t47.5 30.5t36.5 62t14.5 102.5v547h-86zM157 604q13 0 21 4q17 -11 36.5 -23t37.5 -23q20 -13 42 -26l25 31q-21 19 -40 38
q-17 17 -36 35.5t-36 35.5q-10 25 -35 33q-1 1 -1 2l-1 1h-9h-4h-37l-11 -11t-27.5 -27t-36 -35t-36 -35t-27.5 -27t-11 -10l24 -30l14.5 8.5t35 21t42.5 26t37 22.5q14 -11 33 -11z" />
    <glyph glyph-name="uni0136" unicode="&#x136;" horiz-adv-x="724" 
d="M120 0h91v246l113 121l266 -367h104l-312 429l254 271h-50l-375 -394v394h-91v-700zM448 -49h-94v-171h34z" />
    <glyph glyph-name="uni0137" unicode="&#x137;" horiz-adv-x="536" 
d="M165 700h-85v-700h85v188l58 59l201 -247h112l-251 308l191 192h-65l-246 -248v448zM337 -49h-94v-171h34z" />
    <glyph glyph-name="kgreenlandic" unicode="&#x138;" horiz-adv-x="536" 
d="M165 500h-85v-500h85v188l58 59l201 -247h112l-251 308l191 192h-65l-246 -248v248z" />
    <glyph glyph-name="Lacute" unicode="&#x139;" 
d="M120 0v700h91v-645h361v-55h-452zM207 912h111l-155 -127h-39z" />
    <glyph glyph-name="lacute" unicode="&#x13a;" horiz-adv-x="285" 
d="M185 700h-85v-700h85v700zM174 905h111l-155 -127h-39z" />
    <glyph glyph-name="uni013B" unicode="&#x13b;" 
d="M120 0v700h91v-645h361v-55h-452zM402 -49h-94v-171h34z" />
    <glyph glyph-name="uni013C" unicode="&#x13c;" horiz-adv-x="285" 
d="M185 700h-85v-700h85v700zM191 -49h-94v-171h34z" />
    <glyph glyph-name="Lcaron" unicode="&#x13d;" 
d="M120 0v700h91v-645h361v-55h-452zM384 701h-95v-258h36z" />
    <glyph glyph-name="lcaron" unicode="&#x13e;" horiz-adv-x="417" 
d="M185 700h-85v-700h85v700zM340 700h-95v-258h36z" />
    <glyph glyph-name="Ldot" unicode="&#x13f;" 
d="M120 0v700h91v-645h361v-55h-452zM247 570q0 -22 16 -38t38 -16t38 16t16 38t-16 38t-38 16t-38 -16t-16 -38z" />
    <glyph glyph-name="ldot" unicode="&#x140;" horiz-adv-x="513" 
d="M185 700h-85v-700h85v700zM213 370q0 -22 16 -38t38 -16t38 16t16 38t-16 38t-38 16t-38 -16t-16 -38z" />
    <glyph glyph-name="Lslash" unicode="&#x141;" 
d="M120 0v273l-74 -50l-20 29l94 64v384h91v-322l75 52l21 -30l-96 -65v-280h361v-55h-452z" />
    <glyph glyph-name="lslash" unicode="&#x142;" horiz-adv-x="321" 
d="M201 700h-84v-382l-97 -66l20 -29l77 52v-275h85v333l99 67l-21 30l-79 -54v324z" />
    <glyph glyph-name="Nacute" unicode="&#x143;" horiz-adv-x="850" 
d="M684 700v-535h-4l-555 547h-5v-712h46v535h4l555 -547h5v712h-46zM411 912h111l-155 -127h-39z" />
    <glyph glyph-name="nacute" unicode="&#x144;" horiz-adv-x="581" 
d="M498 0v324q0 18 -3 49.5t-19.5 62t-52.5 53t-102 22.5q-29 1 -65 -11.5t-71 -47.5l-16 -16h-4v64h-85v-500h85v309q0 39 11 67t30 47t43.5 28t50.5 9q42 0 65 -16.5t33.5 -38.5t12.5 -44t2 -32v-329h85zM276 712h111l-155 -127h-39z" />
    <glyph glyph-name="uni0145" unicode="&#x145;" horiz-adv-x="850" 
d="M684 700v-535h-4l-555 547h-5v-712h46v535h4l555 -547h5v712h-46zM490 -49h-94v-171h34z" />
    <glyph glyph-name="uni0146" unicode="&#x146;" horiz-adv-x="581" 
d="M498 0v324q0 18 -3 49.5t-19.5 62t-52.5 53t-102 22.5h-4q-29 0 -63.5 -12.5t-68.5 -46.5l-16 -16h-4v64h-85v-500h85v309q0 39 11 67t30 47t43.5 28t50.5 9q42 0 65 -16.5t33.5 -38.5t12.5 -44t2 -32v-329h85zM345 -49h-94v-171h34z" />
    <glyph glyph-name="Ncaron" unicode="&#x147;" horiz-adv-x="850" 
d="M684 700v-535h-4l-555 547h-5v-712h46v535h4l555 -547h5v712h-46zM424 821q0 -1 11 6t27.5 17t36 22t36 22.5l27.5 17.5l11 7l25 -31l-11 -11t-27.5 -27t-36 -35t-36 -35t-27.5 -26.5l-11 -10.5h-50l-11 11t-27.5 27t-36 35t-36 35t-27.5 26.5l-11 10.5l24 30l11.5 -6.5
t28 -17t36 -22t36 -22t27.5 -17z" />
    <glyph glyph-name="ncaron" unicode="&#x148;" horiz-adv-x="581" 
d="M498 0v324q0 18 -3 49.5t-19.5 62t-52.5 53t-102 22.5q-29 1 -65 -11.5t-71 -47.5l-16 -16h-4v64h-85v-500h85v309q0 39 11 67t30 47t43.5 28t50.5 9q42 0 65 -16.5t33.5 -38.5t12.5 -44t2 -32v-329h85zM290 621q0 -1 11 6t27.5 17t36 22t36 22.5l27.5 17.5l11 7l25 -31
l-11 -11t-27.5 -27t-36 -35t-36 -35t-27.5 -26.5l-11 -10.5h-50l-11 11t-27.5 27t-36 35t-36 35t-27.5 26.5l-11 10.5l24 30l11.5 -6.5t28 -17t36 -22t36 -22t27.5 -17z" />
    <glyph glyph-name="napostrophe" unicode="&#x149;" horiz-adv-x="581" 
d="M231 712h94v-168h-34zM498 0v324q0 18 -3 49.5t-19.5 62t-52.5 53t-102 22.5q-29 1 -65 -11.5t-71 -47.5l-16 -16h-4v64h-85v-500h85v309q0 39 11 67t30 47t43.5 28t50.5 9q42 0 65 -16.5t33.5 -38.5t12.5 -44t2 -32v-329h85z" />
    <glyph glyph-name="Omacron" unicode="&#x14c;" horiz-adv-x="865" 
d="M50 350q0 -56 21.5 -119.5t67.5 -117.5t117 -89.5t170 -35.5q67 0 121.5 16.5t98 44.5t75.5 64.5t52.5 77t31 81.5t10.5 78q0 56 -23 119.5t-71 117.5t-121.5 89.5t-173.5 35.5q-99 0 -170 -35t-117 -88.5t-67.5 -117.5t-21.5 -121zM148 350q0 70 21.5 128.5t59 100.5
t88.5 65.5t111 23.5q59 0 111.5 -23.5t92 -65.5t62.5 -100.5t23 -128.5t-23 -128.5t-62.5 -100.5t-92 -65.5t-111.5 -23.5q-60 0 -111 23.5t-88.5 65.5t-59 100.5t-21.5 128.5zM276 783h313v40h-313v-40z" />
    <glyph glyph-name="omacron" unicode="&#x14d;" horiz-adv-x="618" 
d="M568 249q0 -52 -18 -99.5t-51.5 -83.5t-81 -57t-106.5 -21q-60 0 -108.5 21.5t-82 57.5t-52 83.5t-18.5 98.5q0 52 18.5 99.5t52 83.5t82 57.5t108.5 21.5q59 0 106.5 -21.5t81 -57.5t51.5 -83.5t18 -99.5zM473 249q0 70 -15 113.5t-39 67.5t-53 32.5t-56 8.5t-56 -8.5
t-53.5 -32.5t-40 -67.5t-15.5 -113.5q0 -69 15.5 -112.5t40 -67.5t53.5 -32.5t56 -8.5t56 8.5t53 32.5t39 67.5t15 112.5zM152 583h313v40h-313v-40z" />
    <glyph glyph-name="Obreve" unicode="&#x14e;" horiz-adv-x="865" 
d="M50 350q0 -56 21.5 -119.5t67.5 -117.5t117 -89.5t170 -35.5q67 0 121.5 16.5t98 44.5t75.5 64.5t52.5 77t31 81.5t10.5 78q0 56 -23 119.5t-71 117.5t-121.5 89.5t-173.5 35.5q-99 0 -170 -35t-117 -88.5t-67.5 -117.5t-21.5 -121zM148 350q0 70 21.5 128.5t59 100.5
t88.5 65.5t111 23.5q59 0 111.5 -23.5t92 -65.5t62.5 -100.5t23 -128.5t-23 -128.5t-62.5 -100.5t-92 -65.5t-111.5 -23.5q-60 0 -111 23.5t-88.5 65.5t-59 100.5t-21.5 128.5zM285 912q0 -28 11 -53t31 -43.5t46.5 -29t58.5 -10.5q31 0 58 10.5t47 29t31 43.5t11 53h-42
q-2 -45 -32.5 -72.5t-72.5 -27.5q-41 0 -71.5 27.5t-33.5 72.5h-42z" />
    <glyph glyph-name="obreve" unicode="&#x14f;" horiz-adv-x="618" 
d="M568 249q0 -52 -18 -99.5t-51.5 -83.5t-81 -57t-106.5 -21q-60 0 -108.5 21.5t-82 57.5t-52 83.5t-18.5 98.5q0 52 18.5 99.5t52 83.5t82 57.5t108.5 21.5q59 0 106.5 -21.5t81 -57.5t51.5 -83.5t18 -99.5zM473 249q0 70 -15 113.5t-39 67.5t-53 32.5t-56 8.5t-56 -8.5
t-53.5 -32.5t-40 -67.5t-15.5 -113.5q0 -69 15.5 -112.5t40 -67.5t53.5 -32.5t56 -8.5t56 8.5t53 32.5t39 67.5t15 112.5zM162 712q0 -28 11 -53t31 -43.5t46.5 -29t58.5 -10.5q31 0 58 10.5t47 29t31 43.5t11 53h-42q-2 -45 -32.5 -72.5t-72.5 -27.5q-41 0 -71.5 27.5
t-33.5 72.5h-42z" />
    <glyph glyph-name="Ohungarumlaut" unicode="&#x150;" horiz-adv-x="865" 
d="M50 350q0 -56 21.5 -119.5t67.5 -117.5t117 -89.5t170 -35.5q67 0 121.5 16.5t98 44.5t75.5 64.5t52.5 77t31 81.5t10.5 78q0 56 -23 119.5t-71 117.5t-121.5 89.5t-173.5 35.5q-99 0 -170 -35t-117 -88.5t-67.5 -117.5t-21.5 -121zM148 350q0 70 21.5 128.5t59 100.5
t88.5 65.5t111 23.5q59 0 111.5 -23.5t92 -65.5t62.5 -100.5t23 -128.5t-23 -128.5t-62.5 -100.5t-92 -65.5t-111.5 -23.5q-60 0 -111 23.5t-88.5 65.5t-59 100.5t-21.5 128.5zM337 912h111l-123 -127h-39zM467 912h111l-123 -127h-39z" />
    <glyph glyph-name="ohungarumlaut" unicode="&#x151;" horiz-adv-x="618" 
d="M568 249q0 -52 -18 -99.5t-51.5 -83.5t-81 -57t-106.5 -21q-60 0 -108.5 21.5t-82 57.5t-52 83.5t-18.5 98.5q0 52 18.5 99.5t52 83.5t82 57.5t108.5 21.5q59 0 106.5 -21.5t81 -57.5t51.5 -83.5t18 -99.5zM473 249q0 70 -15 113.5t-39 67.5t-53 32.5t-56 8.5t-56 -8.5
t-53.5 -32.5t-40 -67.5t-15.5 -113.5q0 -69 15.5 -112.5t40 -67.5t53.5 -32.5t56 -8.5t56 8.5t53 32.5t39 67.5t15 112.5zM214 712h111l-123 -127h-39zM344 712h111l-123 -127h-39z" />
    <glyph glyph-name="OE" unicode="&#x152;" horiz-adv-x="1078" 
d="M588 71q-21 -13 -55.5 -26t-88.5 -13q-55 0 -101 18.5t-81.5 49.5t-60 72t-34.5 86q-5 23 -6.5 45.5t-1.5 46.5q0 25 1.5 47t6.5 45q9 45 33 85.5t60 71.5t82.5 49.5t101.5 18.5q54 0 88.5 -14t55.5 -26v-556zM678 644h352v56h-482q-28 6 -53 8.5t-53 2.5
q-50 0 -103.5 -12.5t-102.5 -41t-89.5 -74.5t-65.5 -114q-11 -29 -16.5 -58.5t-5.5 -60.5q0 -57 22.5 -120.5t69 -117t119 -89t172.5 -35.5q25 0 50.5 3.5t51.5 8.5h504v55h-370v295h300v44h-300v250z" />
    <glyph glyph-name="oe" unicode="&#x153;" horiz-adv-x="974" 
d="M555 275v12q0 39 10.5 74t29.5 61t45 41t57 15q30 0 56 -14t44.5 -40.5t29.5 -64t11 -84.5h-283zM459 251q0 -70 -15.5 -114t-39.5 -69.5t-53 -35t-56 -9.5q-28 0 -56.5 9.5t-51.5 35t-37.5 69.5t-14.5 114t14.5 114t37.5 69t51.5 34.5t56.5 9.5q27 0 56 -9.5t53 -34.5
t39.5 -69t15.5 -114zM555 240h374v19q0 66 -19 114t-51 79t-73 46t-86 15q-25 0 -52.5 -5.5t-53.5 -18t-49.5 -31.5t-40.5 -46q-16 17 -36 35t-45.5 32.5t-57.5 24t-71 9.5q-60 0 -107 -21.5t-80 -57.5t-50 -83.5t-17 -99.5q0 -53 17 -100.5t50 -83.5t80 -57.5t107 -21.5
q69 0 123 28t89 78q35 -53 92 -79.5t123 -26.5q59 0 116.5 24t96.5 69l-28 30q-39 -40 -76.5 -61t-88.5 -21q-49 0 -84.5 18t-58 46.5t-33 63.5t-10.5 70v13z" />
    <glyph glyph-name="Racute" unicode="&#x154;" horiz-adv-x="718" 
d="M120 700v-700h91v309h44q28 0 46.5 -5t33.5 -17t28 -31t31 -47l79 -117q15 -23 29.5 -42t31.5 -32.5t38.5 -21.5t51.5 -8q22 0 36 2t28 10v37q-5 -1 -10 -1.5t-10 -0.5q-21 0 -37 6t-30 17.5t-27 28t-27 37.5q-42 61 -65 97.5t-36.5 56.5t-22 29t-20.5 15l-10 5v4
q48 3 82.5 21t56.5 45t32 58.5t10 61.5q0 27 -10.5 59t-36 59.5t-69.5 46t-111 18.5h-227zM211 656h101q38 0 68.5 -11t52.5 -30.5t33.5 -46.5t11.5 -59q0 -27 -10.5 -54.5t-31.5 -50t-51.5 -36.5t-70.5 -14h-103v302zM345 912h111l-155 -127h-39z" />
    <glyph glyph-name="racute" unicode="&#x155;" horiz-adv-x="382" 
d="M80 500v-500h85v302q0 41 9.5 69.5t24.5 46.5t33 26t35 8q23 0 42.5 -15t28.5 -28l34 62q-9 12 -21.5 20t-25 12.5t-23 6t-15.5 1.5q-42 0 -70 -23t-46 -68h-6v80h-85zM177 712h111l-155 -127h-39z" />
    <glyph glyph-name="uni0156" unicode="&#x156;" horiz-adv-x="708" 
d="M120 700v-700h91v309h44q29 0 53.5 -13t47 -36.5t45 -57t49.5 -75.5l12 -19q16 -26 31.5 -48t33.5 -38t41 -25t56 -9q22 0 36 2t28 10v37q-5 -1 -10 -1.5t-10 -0.5q-21 0 -37 6t-30 17.5t-27 28t-27 37.5q-42 61 -66.5 98t-39 58t-22.5 29.5t-16 12.5l-10 5v4
q48 3 82.5 21t56.5 45t32 58.5t10 61.5q0 27 -10.5 59t-36 59.5t-69.5 46t-111 18.5h-227zM211 656h101q38 0 68.5 -11t52.5 -30.5t33.5 -46.5t11.5 -59q0 -27 -10.5 -54.5t-31.5 -50t-51.5 -36.5t-70.5 -14h-103v302zM421 -49h-94v-171h34z" />
    <glyph glyph-name="uni0157" unicode="&#x157;" horiz-adv-x="382" 
d="M80 500v-500h85v302q0 41 9.5 69.5t24.5 46.5t33 26t35 8q23 0 42.5 -15t28.5 -28l34 62q-9 12 -21.5 20t-25 12.5t-23 6t-15.5 1.5q-42 0 -70 -23t-46 -68h-6v80h-85zM174 -49h-94v-171h34z" />
    <glyph glyph-name="Rcaron" unicode="&#x158;" horiz-adv-x="718" 
d="M120 700v-700h91v309h44q28 0 46.5 -5t33.5 -17t28 -31t31 -47l79 -117q15 -23 29.5 -42t31.5 -32.5t38.5 -21.5t51.5 -8q22 0 36 2t28 10v37q-5 -1 -10 -1.5t-10 -0.5q-21 0 -37 6t-30 17.5t-27 28t-27 37.5q-42 61 -65 97.5t-36.5 56.5t-22 29t-20.5 15l-10 5v4
q48 3 82.5 21t56.5 45t32 58.5t10 61.5q0 27 -10.5 59t-36 59.5t-69.5 46t-111 18.5h-227zM211 656h101q38 0 68.5 -11t52.5 -30.5t33.5 -46.5t11.5 -59q0 -27 -10.5 -54.5t-31.5 -50t-51.5 -36.5t-70.5 -14h-103v302zM358 821q0 -1 11 6t27.5 17t36 22t36 22.5l27.5 17.5
l11 7l25 -31l-11 -11t-27.5 -27t-36 -35t-36 -35t-27.5 -26.5l-11 -10.5h-50l-11 11t-27.5 27t-36 35t-36 35t-27.5 26.5l-11 10.5l24 30l11.5 -6.5t28 -17t36 -22t36 -22t27.5 -17z" />
    <glyph glyph-name="rcaron" unicode="&#x159;" horiz-adv-x="382" 
d="M80 500v-500h85v302q0 41 9.5 69.5t24.5 46.5t33 26t35 8q23 0 42.5 -15t28.5 -28l34 62q-9 12 -21.5 20t-25 12.5t-23 6t-15.5 1.5q-42 0 -70 -23t-46 -68h-6v80h-85zM190 621q0 -1 11 6t27.5 17t36 22t36 22.5l27.5 17.5l11 7l25 -31l-11 -11t-27.5 -27t-36 -35
t-36 -35t-27.5 -26.5l-11 -10.5h-50l-11 11t-27.5 27t-36 35t-36 35t-27.5 26.5l-11 10.5l24 30l11.5 -6.5t28 -17t36 -22t36 -22t27.5 -17z" />
    <glyph glyph-name="Sacute" unicode="&#x15a;" horiz-adv-x="625" 
d="M37 177q2 -43 22.5 -78t56 -59.5t83.5 -38t105 -13.5q58 0 104.5 14t79.5 40t51 63t18 82q0 62 -31 101.5t-77.5 66t-101 44.5t-101 38t-77.5 46t-31 69q0 24 10.5 45t31 36.5t50.5 25t69 9.5q65 0 110.5 -27.5t53.5 -86.5h68q-6 37 -27 66.5t-53 50t-72.5 31t-84.5 10.5
q-46 0 -87.5 -12t-73 -35t-50 -58t-18.5 -80q0 -59 30 -95t75.5 -60t98.5 -41t98.5 -38.5t75.5 -52.5t30 -83q0 -65 -47.5 -95t-126.5 -30q-63 0 -101 16.5t-58 39.5t-27 47.5t-8 41.5h-68zM298 912h111l-155 -127h-39z" />
    <glyph glyph-name="sacute" unicode="&#x15b;" horiz-adv-x="480" 
d="M399 386q0 27 -14 50t-38.5 39.5t-57 26t-69.5 9.5q-35 0 -65.5 -9t-53 -27t-35.5 -44.5t-13 -61.5q0 -48 22 -76t55 -45t71.5 -27.5t71.5 -23t55 -31.5t22 -52q0 -14 -4.5 -29t-16.5 -27.5t-33 -21t-53 -8.5q-40 0 -67.5 12.5t-45 30t-25 35.5t-7.5 30h-65
q0 -28 13 -54.5t39.5 -47.5t65 -33.5t89.5 -12.5q92 0 138.5 40.5t46.5 106.5q0 48 -22.5 77t-56.5 46.5t-73.5 28.5t-73.5 23t-56.5 29t-22.5 48q0 13 5 27.5t17 27t32 21t50 8.5t52 -8.5t37 -21t22 -27.5t7 -28h57zM226 712h111l-155 -127h-39z" />
    <glyph glyph-name="Scircumflex" unicode="&#x15c;" horiz-adv-x="625" 
d="M37 177q2 -43 22.5 -78t56 -59.5t83.5 -38t105 -13.5q58 0 104.5 14t79.5 40t51 63t18 82q0 62 -31 101.5t-77.5 66t-101 44.5t-101 38t-77.5 46t-31 69q0 24 10.5 45t31 36.5t50.5 25t69 9.5q65 0 110.5 -27.5t53.5 -86.5h68q-6 37 -27 66.5t-53 50t-72.5 31t-84.5 10.5
q-46 0 -87.5 -12t-73 -35t-50 -58t-18.5 -80q0 -59 30 -95t75.5 -60t98.5 -41t98.5 -38.5t75.5 -52.5t30 -83q0 -65 -47.5 -95t-126.5 -30q-63 0 -101 16.5t-58 39.5t-27 47.5t-8 41.5h-68zM312 828l11 -6.5t27.5 -16.5t36 -22t36 -22.5l27.5 -17.5l11 -7l25 31l-11 11
t-27.5 27t-36 35t-36 35t-27.5 26.5l-11 10.5h-50l-11 -11t-27.5 -27t-36 -35t-36 -35t-27.5 -27t-11 -10l24 -30l11.5 6.5t28 17t36 22t36 22t27.5 17z" />
    <glyph glyph-name="scircumflex" unicode="&#x15d;" horiz-adv-x="480" 
d="M399 386q0 27 -14 50t-38.5 39.5t-57 26t-69.5 9.5q-35 0 -65.5 -9t-53 -27t-35.5 -44.5t-13 -61.5q0 -48 22 -76t55 -45t71.5 -27.5t71.5 -23t55 -31.5t22 -52q0 -14 -4.5 -29t-16.5 -27.5t-33 -21t-53 -8.5q-40 0 -67.5 12.5t-45 30t-25 35.5t-7.5 30h-65
q0 -28 13 -54.5t39.5 -47.5t65 -33.5t89.5 -12.5q92 0 138.5 40.5t46.5 106.5q0 48 -22.5 77t-56.5 46.5t-73.5 28.5t-73.5 23t-56.5 29t-22.5 48q0 13 5 27.5t17 27t32 21t50 8.5t52 -8.5t37 -21t22 -27.5t7 -28h57zM239 628l11 -6.5t27.5 -16.5t36 -22t36 -22.5
l27.5 -17.5l11 -7l25 31l-11 11t-27.5 27t-36 35t-36 35t-27.5 26.5l-11 10.5h-50l-11 -11t-27.5 -27t-36 -35t-36 -35t-27.5 -27t-11 -10l24 -30l11.5 6.5t28 17t36 22t36 22t27.5 17z" />
    <glyph glyph-name="Scedilla" unicode="&#x15e;" horiz-adv-x="625" 
d="M60 177q1 -42 21.5 -77t55 -60t81 -38.5t100.5 -13.5q120 0 188.5 53t68.5 149q0 65 -31 106.5t-77.5 68.5t-101 44.5t-101 36.5t-77.5 43.5t-31 65.5q0 22 10.5 42.5t31 36t51 25t69.5 9.5q64 0 102.5 -27.5t46.5 -86.5h79q-6 39 -27.5 68.5t-53 49.5t-70.5 30t-79 10
q-49 0 -91.5 -12t-74 -35.5t-49.5 -58.5t-18 -81q0 -66 30 -106t75.5 -64.5t98.5 -40.5t98.5 -34t75.5 -44.5t30 -72.5q0 -36 -12.5 -60.5t-35 -40.5t-54.5 -23t-70 -7q-49 0 -82 16.5t-53.5 39.5t-29.5 47.5t-10 41.5h-84zM371 -49h-94v-171h34z" />
    <glyph glyph-name="scedilla" unicode="&#x15f;" horiz-adv-x="480" 
d="M405 386q0 27 -12.5 50t-35.5 39.5t-55 26t-71 9.5q-34 0 -63.5 -8.5t-51 -26.5t-34 -46.5t-12.5 -68.5q0 -36 21 -61t53 -44t68.5 -34t68.5 -30.5t53 -34t21 -44.5q0 -13 -5 -28t-17.5 -27.5t-35 -21t-57.5 -8.5t-58 12t-37 29t-20 35.5t-6 31.5h-69q0 -28 11.5 -54.5
t35 -47.5t59 -33.5t83.5 -12.5q51 0 87.5 10.5t59.5 30t33.5 45.5t10.5 58q0 42 -21.5 70.5t-54.5 48.5t-70.5 35t-70.5 29t-54.5 30.5t-21.5 40.5q0 13 4.5 28t15.5 28t30.5 21t48.5 8q32 0 53.5 -8.5t34 -21t18 -27.5t5.5 -28h58zM292 -49h-94v-171h34z" />
    <glyph glyph-name="Scaron" unicode="&#x160;" horiz-adv-x="625" 
d="M37 177q2 -43 22.5 -78t56 -59.5t83.5 -38t105 -13.5q58 0 104.5 14t79.5 40t51 63t18 82q0 62 -31 101.5t-77.5 66t-101 44.5t-101 38t-77.5 46t-31 69q0 24 10.5 45t31 36.5t50.5 25t69 9.5q65 0 110.5 -27.5t53.5 -86.5h68q-6 37 -27 66.5t-53 50t-72.5 31t-84.5 10.5
q-46 0 -87.5 -12t-73 -35t-50 -58t-18.5 -80q0 -59 30 -95t75.5 -60t98.5 -41t98.5 -38.5t75.5 -52.5t30 -83q0 -65 -47.5 -95t-126.5 -30q-63 0 -101 16.5t-58 39.5t-27 47.5t-8 41.5h-68zM312 821q0 -1 11 6t27.5 17t36 22t36 22.5l27.5 17.5l11 7l25 -31l-11 -11
t-27.5 -27t-36 -35t-36 -35t-27.5 -26.5l-11 -10.5h-50l-11 11t-27.5 27t-36 35t-36 35t-27.5 26.5l-11 10.5l24 30l11.5 -6.5t28 -17t36 -22t36 -22t27.5 -17z" />
    <glyph glyph-name="scaron" unicode="&#x161;" horiz-adv-x="480" 
d="M399 386q0 27 -14 50t-38.5 39.5t-57 26t-69.5 9.5q-35 0 -65.5 -9t-53 -27t-35.5 -44.5t-13 -61.5q0 -48 22 -76t55 -45t71.5 -27.5t71.5 -23t55 -31.5t22 -52q0 -14 -4.5 -29t-16.5 -27.5t-33 -21t-53 -8.5q-40 0 -67.5 12.5t-45 30t-25 35.5t-7.5 30h-65
q0 -28 13 -54.5t39.5 -47.5t65 -33.5t89.5 -12.5q92 0 138.5 40.5t46.5 106.5q0 48 -22.5 77t-56.5 46.5t-73.5 28.5t-73.5 23t-56.5 29t-22.5 48q0 13 5 27.5t17 27t32 21t50 8.5t52 -8.5t37 -21t22 -27.5t7 -28h57zM239 621q0 -1 11 6t27.5 17t36 22t36 22.5l27.5 17.5
l11 7l25 -31l-11 -11t-27.5 -27t-36 -35t-36 -35t-27.5 -26.5l-11 -10.5h-50l-11 11t-27.5 27t-36 35t-36 35t-27.5 26.5l-11 10.5l24 30l11.5 -6.5t28 -17t36 -22t36 -22t27.5 -17z" />
    <glyph glyph-name="uni0162" unicode="&#x162;" horiz-adv-x="667" 
d="M379 0v645h268v55h-627v-55h268v-645h91zM382 -49h-94v-171h34z" />
    <glyph glyph-name="uni0163" unicode="&#x163;" horiz-adv-x="375" 
d="M30 460v40h87v154h85v-154h121v-40h-121v-332q0 -12 1 -27.5t6 -29t15.5 -22.5t29.5 -9q24 0 40 18t26 39l47 -48q-49 -49 -111 -49q-26 0 -51 9t-44.5 27.5t-31.5 47.5t-12 68v308h-87zM292 -49h-94v-171h34z" />
    <glyph glyph-name="Tcaron" unicode="&#x164;" horiz-adv-x="667" 
d="M379 0v645h268v55h-627v-55h268v-645h91zM333 821q0 -1 11 6t27.5 17t36 22t36 22.5l27.5 17.5l11 7l25 -31l-11 -11t-27.5 -27t-36 -35t-36 -35t-27.5 -26.5l-11 -10.5h-50l-11 11t-27.5 27t-36 35t-36 35t-27.5 26.5l-11 10.5l24 30l11.5 -6.5t28 -17t36 -22t36 -22
t27.5 -17z" />
    <glyph glyph-name="tcaron" unicode="&#x165;" horiz-adv-x="570" 
d="M30 460v40h87v154h85v-154h121v-40h-121v-332q0 -12 1 -27.5t6 -29t15.5 -22.5t29.5 -9q24 0 40 18t26 39l47 -48q-49 -49 -111 -49q-26 0 -51 9t-44.5 27.5t-31.5 47.5t-12 68v308h-87zM520 718h-95v-258h36z" />
    <glyph glyph-name="Tbar" unicode="&#x166;" horiz-adv-x="667" 
d="M177 471h111v-471h91v471h111v40h-111v134h268v55h-627v-55h268v-134h-111v-40z" />
    <glyph glyph-name="tbar" unicode="&#x167;" horiz-adv-x="375" 
d="M31 392h86v68h-87v40h87v154h85v-154h121v-40h-121v-68h122v-42h-122v-222q0 -12 1 -27.5t6 -29t15.5 -22.5t29.5 -9q24 0 40 18t26 39l47 -48q-49 -49 -111 -49q-26 0 -51 9t-44.5 27.5t-31.5 47.5t-12 68v198h-86v42z" />
    <glyph glyph-name="Utilde" unicode="&#x168;" horiz-adv-x="720" 
d="M80 700v-430q0 -41 8 -90.5t38 -92t89 -71t161 -28.5q64 0 113.5 20t83 55t50.5 81.5t17 99.5v456h-44v-423q0 -22 -1 -44.5t-6 -45t-15.5 -44.5t-30.5 -44q-36 -39 -81 -53t-94 -14q-42 0 -74.5 13t-61.5 39q-23 20 -35 40t-18 39.5t-7 39.5t-1 40v457h-91zM201 789
q11 19 28.5 31.5t34.5 12.5q13 0 25.5 -4t23.5 -9q36 -14 66 -25t56 -11q35 0 64.5 23.5t46.5 76.5l-30 14q-11 -26 -28 -35.5t-34 -9.5q-12 0 -23.5 3t-20.5 5q-43 14 -73.5 26.5t-53.5 12.5q-38 0 -66.5 -27.5t-42.5 -68.5z" />
    <glyph glyph-name="utilde" unicode="&#x169;" horiz-adv-x="581" 
d="M80 500v-325q0 -18 3.5 -49.5t20.5 -62t53.5 -53t102.5 -22.5q29 -1 63.5 11.5t69.5 47.5l16 16h4v-63h85v500h-85v-310q0 -39 -11 -67t-29 -46.5t-42 -27.5t-50 -9q-42 0 -65.5 16.5t-35 38.5t-13.5 43.5t-2 31.5v330h-85zM131 589q11 19 28.5 31.5t34.5 12.5
q13 0 25.5 -4t23.5 -9q36 -14 66 -25t56 -11q35 0 64.5 23.5t46.5 76.5l-30 14q-11 -26 -28 -35.5t-34 -9.5q-12 0 -23.5 3t-20.5 5q-43 14 -73.5 26.5t-53.5 12.5q-38 0 -66.5 -27.5t-42.5 -68.5z" />
    <glyph glyph-name="Umacron" unicode="&#x16a;" horiz-adv-x="720" 
d="M80 700v-430q0 -41 8 -90.5t38 -92t89 -71t161 -28.5q64 0 113.5 20t83 55t50.5 81.5t17 99.5v456h-44v-423q0 -22 -1 -44.5t-6 -45t-15.5 -44.5t-30.5 -44q-36 -39 -81 -53t-94 -14q-42 0 -74.5 13t-61.5 39q-23 20 -35 40t-18 39.5t-7 39.5t-1 40v457h-91zM203 783h313
v40h-313v-40z" />
    <glyph glyph-name="umacron" unicode="&#x16b;" horiz-adv-x="581" 
d="M80 500v-325q0 -18 3.5 -49.5t20.5 -62t53.5 -53t102.5 -22.5q29 -1 63.5 11.5t69.5 47.5l16 16h4v-63h85v500h-85v-310q0 -39 -11 -67t-29 -46.5t-42 -27.5t-50 -9q-42 0 -65.5 16.5t-35 38.5t-13.5 43.5t-2 31.5v330h-85zM134 583h313v40h-313v-40z" />
    <glyph glyph-name="Ubreve" unicode="&#x16c;" horiz-adv-x="720" 
d="M80 700v-430q0 -41 8 -90.5t38 -92t89 -71t161 -28.5q64 0 113.5 20t83 55t50.5 81.5t17 99.5v456h-44v-423q0 -22 -1 -44.5t-6 -45t-15.5 -44.5t-30.5 -44q-36 -39 -81 -53t-94 -14q-42 0 -74.5 13t-61.5 39q-23 20 -35 40t-18 39.5t-7 39.5t-1 40v457h-91zM213 912
q0 -28 11 -53t31 -43.5t46.5 -29t58.5 -10.5q31 0 58 10.5t47 29t31 43.5t11 53h-42q-2 -45 -32.5 -72.5t-72.5 -27.5q-41 0 -71.5 27.5t-33.5 72.5h-42z" />
    <glyph glyph-name="ubreve" unicode="&#x16d;" horiz-adv-x="581" 
d="M80 500v-325q0 -18 3.5 -49.5t20.5 -62t53.5 -53t102.5 -22.5q29 -1 63.5 11.5t69.5 47.5l16 16h4v-63h85v500h-85v-310q0 -39 -11 -67t-29 -46.5t-42 -27.5t-50 -9q-42 0 -65.5 16.5t-35 38.5t-13.5 43.5t-2 31.5v330h-85zM143 712q0 -28 11 -53t31 -43.5t46.5 -29
t58.5 -10.5q31 0 58 10.5t47 29t31 43.5t11 53h-42q-2 -45 -32.5 -72.5t-72.5 -27.5q-41 0 -71.5 27.5t-33.5 72.5h-42z" />
    <glyph glyph-name="Uring" unicode="&#x16e;" horiz-adv-x="720" 
d="M80 700v-430q0 -41 8 -90.5t38 -92t89 -71t161 -28.5q64 0 113.5 20t83 55t50.5 81.5t17 99.5v456h-44v-423q0 -22 -1 -44.5t-6 -45t-15.5 -44.5t-30.5 -44q-36 -39 -81 -53t-94 -14q-42 0 -74.5 13t-61.5 39q-23 20 -35 40t-18 39.5t-7 39.5t-1 40v457h-91zM301 829
q0 25 17 41.5t42 16.5q24 0 41.5 -16.5t17.5 -41.5t-17.5 -42t-41.5 -17q-25 0 -42 17t-17 42zM268 829q0 -19 7 -35.5t19.5 -29t29.5 -20t36 -7.5t36 7.5t29.5 20t19.5 29t7 35.5q0 15 -5.5 31.5t-17 29.5t-29 21.5t-40.5 8.5t-40 -8.5t-28.5 -21.5t-17.5 -29.5t-6 -31.5z
" />
    <glyph glyph-name="uring" unicode="&#x16f;" horiz-adv-x="581" 
d="M80 500v-325q0 -18 3.5 -49.5t20.5 -62t53.5 -53t102.5 -22.5q29 -1 63.5 11.5t69.5 47.5l16 16h4v-63h85v500h-85v-310q0 -39 -11 -67t-29 -46.5t-42 -27.5t-50 -9q-42 0 -65.5 16.5t-35 38.5t-13.5 43.5t-2 31.5v330h-85zM231 629q0 25 17 41.5t42 16.5
q24 0 41.5 -16.5t17.5 -41.5t-17.5 -42t-41.5 -17q-25 0 -42 17t-17 42zM198 629q0 -19 7 -35.5t19.5 -29t29.5 -20t36 -7.5t36 7.5t29.5 20t19.5 29t7 35.5q0 15 -5.5 31.5t-17 29.5t-29 21.5t-40.5 8.5t-40 -8.5t-28.5 -21.5t-17.5 -29.5t-6 -31.5z" />
    <glyph glyph-name="Uhungarumlaut" unicode="&#x170;" horiz-adv-x="720" 
d="M80 700v-430q0 -41 8 -90.5t38 -92t89 -71t161 -28.5q64 0 113.5 20t83 55t50.5 81.5t17 99.5v456h-44v-423q0 -22 -1 -44.5t-6 -45t-15.5 -44.5t-30.5 -44q-36 -39 -81 -53t-94 -14q-42 0 -74.5 13t-61.5 39q-23 20 -35 40t-18 39.5t-7 39.5t-1 40v457h-91zM265 912h111
l-123 -127h-39zM395 912h111l-123 -127h-39z" />
    <glyph glyph-name="uhungarumlaut" unicode="&#x171;" horiz-adv-x="581" 
d="M80 500v-325q0 -18 3.5 -49.5t20.5 -62t53.5 -53t102.5 -22.5q29 -1 63.5 11.5t69.5 47.5l16 16h4v-63h85v500h-85v-310q0 -39 -11 -67t-29 -46.5t-42 -27.5t-50 -9q-42 0 -65.5 16.5t-35 38.5t-13.5 43.5t-2 31.5v330h-85zM195 712h111l-123 -127h-39zM325 712h111
l-123 -127h-39z" />
    <glyph glyph-name="Uogonek" unicode="&#x172;" horiz-adv-x="720" 
d="M80 700v-430q0 -40 7.5 -87t34.5 -89t80.5 -71.5t145.5 -33.5l-30 -22q-27 -20 -49.5 -44t-22.5 -53q0 -34 23.5 -47t50.5 -13q23 0 45.5 8t38.5 20l-11 27q-10 -5 -25 -11t-29 -6q-21 0 -26.5 13t-5.5 19q0 30 26.5 58t60.5 51q60 3 105.5 24t77 55.5t47.5 79.5t16 96
v456h-44v-423q0 -22 -1 -44.5t-6 -45t-15.5 -44.5t-30.5 -44q-36 -39 -81 -53t-94 -14q-42 0 -74.5 13t-61.5 39q-23 20 -35 40t-18 39.5t-7 39.5t-1 40v457h-91z" />
    <glyph glyph-name="uogonek" unicode="&#x173;" horiz-adv-x="581" 
d="M450 0l-46 -33q-27 -20 -49.5 -44t-22.5 -53q0 -34 23.5 -47t50.5 -13q23 0 45.5 8t38.5 20l-11 27q-10 -5 -25 -11t-29 -6q-21 0 -26.5 13t-5.5 19q0 17 9 33t24 31.5t34 29.5t38 26v500h-85v-310q0 -39 -11 -67t-29 -46.5t-42 -27.5t-50 -9q-42 0 -65.5 16.5t-35 38.5
t-13.5 43.5t-2 31.5v330h-85v-325q0 -18 3.5 -49.5t20.5 -62t53.5 -53t102.5 -22.5q29 -1 63.5 11.5t69.5 47.5l16 16h4v-63h37z" />
    <glyph glyph-name="Wcircumflex" unicode="&#x174;" horiz-adv-x="1056" 
d="M30 700l248 -700h60l191 547h5l185 -547h59l248 700h-46l-207 -584h-4l-195 584h-43l-199 -581h-4l-206 581h-92zM527 828l11 -6.5t27.5 -16.5t36 -22t36 -22.5l27.5 -17.5l11 -7l25 31l-11 11t-27.5 27t-36 35t-36 35t-27.5 26.5l-11 10.5h-50l-11 -11t-27.5 -27
t-36 -35t-36 -35t-27.5 -27t-11 -10l24 -30l11.5 6.5t28 17t36 22t36 22t27.5 17z" />
    <glyph glyph-name="wcircumflex" unicode="&#x175;" horiz-adv-x="746" 
d="M20 500l173 -500h54l116 335h4l130 -335h47l182 500h-52l-136 -374h-4l-142 374h-20l-131 -377h-4l-130 377h-87zM372 628l11 -6.5t27.5 -16.5t36 -22t36 -22.5l27.5 -17.5l11 -7l25 31l-11 11t-27.5 27t-36 35t-36 35t-27.5 26.5l-11 10.5h-50l-11 -11t-27.5 -27
t-36 -35t-36 -35t-27.5 -27t-11 -10l24 -30l11.5 6.5t28 17t36 22t36 22t27.5 17z" />
    <glyph glyph-name="Ycircumflex" unicode="&#x176;" horiz-adv-x="639" 
d="M30 700l242 -435v-265h91v274l246 426h-54l-214 -369h-4l-204 369h-103zM319 828l11 -6.5t27.5 -16.5t36 -22t36 -22.5l27.5 -17.5l11 -7l25 31l-11 11t-27.5 27t-36 35t-36 35t-27.5 26.5l-11 10.5h-50l-11 -11t-27.5 -27t-36 -35t-36 -35t-27.5 -27t-11 -10l24 -30
l11.5 6.5t28 17t36 22t36 22t27.5 17z" />
    <glyph glyph-name="ycircumflex" unicode="&#x177;" horiz-adv-x="504" 
d="M274 117l-173 383h-91l224 -494l-53 -130q-9 -23 -23.5 -37t-33.5 -14q-18 0 -34.5 10.5t-25.5 30.5l-44 -83q19 -17 42 -25t43 -8q28 0 49 14t37 36.5t28 50t23 54.5l242 595h-49l-157 -383h-4zM251 628l11 -6.5t27.5 -16.5t36 -22t36 -22.5l27.5 -17.5l11 -7l25 31
l-11 11t-27.5 27t-36 35t-36 35t-27.5 26.5l-11 10.5h-50l-11 -11t-27.5 -27t-36 -35t-36 -35t-27.5 -27t-11 -10l24 -30l11.5 6.5t28 17t36 22t36 22t27.5 17z" />
    <glyph glyph-name="Ydieresis" unicode="&#x178;" horiz-adv-x="639" 
d="M30 700l242 -435v-265h91v274l246 426h-54l-214 -369h-4l-204 369h-103zM196 858q0 -22 16 -38t38 -16t38 16t16 38t-16 38t-38 16t-38 -16t-16 -38zM334 858q0 -22 16 -38t38 -16t38 16t16 38t-16 38t-38 16t-38 -16t-16 -38z" />
    <glyph glyph-name="Zacute" unicode="&#x179;" horiz-adv-x="666" 
d="M55 700v-55h423l-448 -645h606v55h-461l444 645h-564zM319 912h111l-155 -127h-39z" />
    <glyph glyph-name="zacute" unicode="&#x17a;" horiz-adv-x="490" 
d="M36 500v-40h301l-317 -460h437v40h-314l317 460h-424zM231 712h111l-155 -127h-39z" />
    <glyph glyph-name="Zdotaccent" unicode="&#x17b;" horiz-adv-x="666" 
d="M55 700v-55h423l-448 -645h606v55h-461l444 645h-564zM279 858q0 -22 16 -38t38 -16t38 16t16 38t-16 38t-38 16t-38 -16t-16 -38z" />
    <glyph glyph-name="zdotaccent" unicode="&#x17c;" horiz-adv-x="490" 
d="M36 500v-40h301l-317 -460h437v40h-314l317 460h-424zM191 658q0 -22 16 -38t38 -16t38 16t16 38t-16 38t-38 16t-38 -16t-16 -38z" />
    <glyph glyph-name="Zcaron" unicode="&#x17d;" horiz-adv-x="666" 
d="M55 700v-55h423l-448 -645h606v55h-461l444 645h-564zM332 821q0 -1 11 6t27.5 17t36 22t36 22.5l27.5 17.5l11 7l25 -31l-11 -11t-27.5 -27t-36 -35t-36 -35t-27.5 -26.5l-11 -10.5h-50l-11 11t-27.5 27t-36 35t-36 35t-27.5 26.5l-11 10.5l24 30l11.5 -6.5t28 -17
t36 -22t36 -22t27.5 -17z" />
    <glyph glyph-name="zcaron" unicode="&#x17e;" horiz-adv-x="490" 
d="M36 500v-40h301l-317 -460h437v40h-314l317 460h-424zM244 621q0 -1 11 6t27.5 17t36 22t36 22.5l27.5 17.5l11 7l25 -31l-11 -11t-27.5 -27t-36 -35t-36 -35t-27.5 -26.5l-11 -10.5h-50l-11 11t-27.5 27t-36 35t-36 35t-27.5 26.5l-11 10.5l24 30l11.5 -6.5t28 -17
t36 -22t36 -22t27.5 -17z" />
    <glyph glyph-name="florin" unicode="&#x192;" horiz-adv-x="480" 
d="M96 -95q-5 -21 -11.5 -42.5t-16 -38t-22.5 -27t-31 -10.5q-20 0 -29 14t-14 36l-56 -38q17 -29 40.5 -38t53.5 -9q48 0 82 25.5t55 59.5t31 66t10 46l106 498h103l7 35h-102l21 102q2 11 6.5 27t12 30.5t19 24.5t27.5 10q10 0 17.5 -6t12.5 -15t8 -20t5 -21l54 49
q-17 23 -37 35t-50 12q-24 0 -49 -9t-47 -27t-39 -46t-26 -66l-18 -80h-74l-7 -35h74z" />
    <glyph glyph-name="uni01F4" unicode="&#x1f4;" horiz-adv-x="817" 
d="M757 312h-198v-41h112v-181q-45 -29 -92 -43t-107 -14q-79 0 -138 24t-98 66.5t-58.5 101t-19.5 128.5q0 69 18.5 127t55.5 100t90.5 65t124.5 23q47 0 88 -10t73 -26t52.5 -36.5t26.5 -41.5h72q-9 22 -30.5 49.5t-58.5 51.5t-91.5 40.5t-128.5 16.5q-85 0 -156.5 -24
t-123.5 -69t-81 -110.5t-29 -148.5q0 -71 22.5 -137.5t69 -119t118.5 -84t172 -31.5q75 0 133 16.5t96 36.5v-41h86v312zM394 912h111l-155 -127h-39z" />
    <glyph glyph-name="uni01F5" unicode="&#x1f5;" 
d="M437 -42q0 -46 -11 -78t-30.5 -52t-46 -29t-56.5 -9q-53 0 -85.5 27t-59.5 72l-55 -50q7 -9 22 -23.5t38 -29t55 -25t73 -10.5q76 0 123 21.5t73 57.5t35.5 82.5t9.5 96.5v491h-85v-78h-4q-12 42 -51.5 65.5t-103.5 23.5q-51 0 -93 -18.5t-72 -52.5t-46.5 -82t-16.5 -107
q0 -60 16.5 -108.5t46.5 -83t71.5 -53t92.5 -18.5q56 0 97.5 22t58.5 70h4v-122zM437 213q0 -42 -11.5 -74t-30.5 -54t-44 -33.5t-52 -11.5q-24 0 -51.5 8.5t-51 31.5t-39 65t-15.5 108q0 70 19 111.5t44.5 63.5t52 28.5t41.5 6.5q33 0 59 -14.5t43.5 -39t26.5 -56.5t9 -66
v-74zM287 712h111l-155 -127h-39z" />
    <glyph glyph-name="uni0218" unicode="&#x218;" horiz-adv-x="625" 
d="M60 177q1 -42 21.5 -77t55 -60t81 -38.5t100.5 -13.5q120 0 188.5 53t68.5 149q0 65 -31 106.5t-77.5 68.5t-101 44.5t-101 36.5t-77.5 43.5t-31 65.5q0 22 10.5 42.5t31 36t51 25t69.5 9.5q64 0 102.5 -27.5t46.5 -86.5h79q-6 39 -27.5 68.5t-53 49.5t-70.5 30t-79 10
q-49 0 -91.5 -12t-74 -35.5t-49.5 -58.5t-18 -81q0 -66 30 -106t75.5 -64.5t98.5 -40.5t98.5 -34t75.5 -44.5t30 -72.5q0 -36 -12.5 -60.5t-35 -40.5t-54.5 -23t-70 -7q-49 0 -82 16.5t-53.5 39.5t-29.5 47.5t-10 41.5h-84zM371 -49h-94v-171h34z" />
    <glyph glyph-name="uni0219" unicode="&#x219;" horiz-adv-x="480" 
d="M405 386q0 27 -12.5 50t-35.5 39.5t-55 26t-71 9.5q-34 0 -63.5 -8.5t-51 -26.5t-34 -46.5t-12.5 -68.5q0 -36 21 -61t53 -44t68.5 -34t68.5 -30.5t53 -34t21 -44.5q0 -13 -5 -28t-17.5 -27.5t-35 -21t-57.5 -8.5t-58 12t-37 29t-20 35.5t-6 31.5h-69q0 -28 11.5 -54.5
t35 -47.5t59 -33.5t83.5 -12.5q51 0 87.5 10.5t59.5 30t33.5 45.5t10.5 58q0 42 -21.5 70.5t-54.5 48.5t-70.5 35t-70.5 29t-54.5 30.5t-21.5 40.5q0 13 4.5 28t15.5 28t30.5 21t48.5 8q32 0 53.5 -8.5t34 -21t18 -27.5t5.5 -28h58zM292 -49h-94v-171h34z" />
    <glyph glyph-name="uni021A" unicode="&#x21a;" horiz-adv-x="667" 
d="M379 0v645h268v55h-627v-55h268v-645h91zM382 -49h-94v-171h34z" />
    <glyph glyph-name="uni021B" unicode="&#x21b;" horiz-adv-x="375" 
d="M30 460v40h87v154h85v-154h121v-40h-121v-332q0 -12 1 -27.5t6 -29t15.5 -22.5t29.5 -9q24 0 40 18t26 39l47 -48q-49 -49 -111 -49q-26 0 -51 9t-44.5 27.5t-31.5 47.5t-12 68v308h-87zM292 -49h-94v-171h34z" />
    <glyph glyph-name="uni02BC" unicode="&#x2bc;" horiz-adv-x="163" 
d="M23 712h94v-168h-34z" />
    <glyph glyph-name="circumflex" unicode="&#x2c6;" horiz-adv-x="349" 
d="M174 628l11 -6.5t27.5 -16.5t36 -22t36 -22.5l27.5 -17.5l11 -7l25 31l-11 11t-27.5 27t-36 35t-36 35t-27.5 26.5l-11 10.5h-50l-11 -11t-27.5 -27t-36 -35t-36 -35t-27.5 -27t-11 -10l24 -30l11.5 6.5t28 17t36 22t36 22t27.5 17z" />
    <glyph glyph-name="caron" unicode="&#x2c7;" horiz-adv-x="349" 
d="M174 621q0 -1 11 6t27.5 17t36 22t36 22.5l27.5 17.5l11 7l25 -31l-11 -11t-27.5 -27t-36 -35t-36 -35t-27.5 -26.5l-11 -10.5h-50l-11 11t-27.5 27t-36 35t-36 35t-27.5 26.5l-11 10.5l24 30l11.5 -6.5t28 -17t36 -22t36 -22t27.5 -17z" />
    <glyph glyph-name="breve" unicode="&#x2d8;" horiz-adv-x="294" 
d="M0 712q0 -28 11 -53t31 -43.5t46.5 -29t58.5 -10.5q31 0 58 10.5t47 29t31 43.5t11 53h-42q-2 -45 -32.5 -72.5t-72.5 -27.5q-41 0 -71.5 27.5t-33.5 72.5h-42z" />
    <glyph glyph-name="dotaccent" unicode="&#x2d9;" horiz-adv-x="108" 
d="M0 658q0 -22 16 -38t38 -16t38 16t16 38t-16 38t-38 16t-38 -16t-16 -38z" />
    <glyph glyph-name="ring" unicode="&#x2da;" horiz-adv-x="184" 
d="M33 629q0 25 17 41.5t42 16.5q24 0 41.5 -16.5t17.5 -41.5t-17.5 -42t-41.5 -17q-25 0 -42 17t-17 42zM0 629q0 -19 7 -35.5t19.5 -29t29.5 -20t36 -7.5t36 7.5t29.5 20t19.5 29t7 35.5q0 15 -5.5 31.5t-17 29.5t-29 21.5t-40.5 8.5t-40 -8.5t-28.5 -21.5t-17.5 -29.5
t-6 -31.5z" />
    <glyph glyph-name="ogonek" unicode="&#x2db;" horiz-adv-x="166" 
d="M118 0l-46 -33q-27 -20 -49.5 -44t-22.5 -53q0 -34 23.5 -47t50.5 -13q23 0 45.5 8t38.5 20l-11 27q-10 -5 -25 -11t-29 -6q-21 0 -26.5 13t-5.5 19q0 17 9 33t24 31.5t34 29.5t38 26h-48z" />
    <glyph glyph-name="tilde" unicode="&#x2dc;" horiz-adv-x="372" 
d="M27 589q11 19 28.5 31.5t34.5 12.5q13 0 25.5 -4t23.5 -9q36 -14 66 -25t56 -11q35 0 64.5 23.5t46.5 76.5l-30 14q-11 -26 -28 -35.5t-34 -9.5q-12 0 -23.5 3t-20.5 5q-43 14 -73.5 26.5t-53.5 12.5q-38 0 -66.5 -27.5t-42.5 -68.5z" />
    <glyph glyph-name="hungarumlaut" unicode="&#x2dd;" horiz-adv-x="292" 
d="M51 712h111l-123 -127h-39zM181 712h111l-123 -127h-39z" />
    <glyph glyph-name="uni0394" unicode="&#x394;" horiz-adv-x="762" 
d="M732 0l-304 700h-104l-294 -700h702zM357 641l244 -574h-484z" />
    <glyph glyph-name="uni03A9" unicode="&#x3a9;" horiz-adv-x="894" 
d="M795 74h-232v37q32 7 75 23t82 48t66.5 84.5t27.5 132.5q0 75 -27.5 133t-76 98t-116 60.5t-147.5 20.5q-81 0 -148 -20.5t-116 -60.5t-76 -98t-27 -133q0 -80 27.5 -132.5t66.5 -84.5t82 -48t75 -23v-37h-234v-74h284v146q-60 13 -99.5 41.5t-62 64.5t-31.5 75t-9 72
q0 60 18.5 109.5t53.5 84.5t84.5 54.5t111.5 19.5t111.5 -19.5t84.5 -54.5t53.5 -84.5t18.5 -109.5q0 -33 -9 -72t-31.5 -75t-62 -64.5t-99.5 -41.5v-146h282v74z" />
    <glyph glyph-name="uni03BC" unicode="&#x3bc;" horiz-adv-x="658" 
d="M165 500h-85v-723h65v298h5q6 -24 20.5 -40.5t33 -27t38 -15t36.5 -4.5q18 0 38.5 6.5t39.5 20t34.5 34t24.5 48.5q6 -48 38 -78.5t82 -30.5q30 0 53.5 11t39.5 35l-24 23q-11 -15 -28 -26t-31 -11q-23 0 -35.5 14.5t-18 37t-6.5 48.5t-1 50v330h-85v-318
q0 -63 -29.5 -102t-86.5 -39q-44 0 -68 17t-35 39t-13 43.5t-2 29.5v330z" />
    <glyph glyph-name="pi" unicode="&#x3c0;" horiz-adv-x="559" 
d="M107 0h82v447h206v-368q0 -12 1.5 -26.5t10.5 -27t27.5 -21t53.5 -8.5q25 0 40 4v51l-15 -1q-13 -1 -20 5.5t-10.5 15.5t-4 19t-0.5 16v341h61v36h-428q-22 0 -40.5 -3.5t-40.5 -15.5v-37q13 8 31.5 14t32.5 6h13v-447z" />
    <glyph glyph-name="uni0401" unicode="&#x401;" 
d="M120 700v-700h452v55h-361v295h310v44h-310v251h361v55h-452zM218 858q0 -22 16 -38t38 -16t38 16t16 38t-16 38t-38 16t-38 -16t-16 -38zM356 858q0 -22 16 -38t38 -16t38 16t16 38t-16 38t-38 16t-38 -16t-16 -38z" />
    <glyph glyph-name="uni0402" unicode="&#x402;" horiz-adv-x="825" 
d="M20 700v-55h262v-645h91v359q16 3 36 6t40.5 5.5t40.5 4t36 1.5q21 0 50.5 -4t56 -15t45.5 -32.5t19 -55.5v-102q0 -38 -9 -63.5t-24 -42t-33.5 -23.5t-37.5 -7q-23 0 -40.5 7t-30.5 17.5t-21.5 22.5t-12.5 23l-63 -50q37 -37 76 -50t87 -13q68 0 107 22.5t59 55
t25.5 68.5t5.5 64v76q0 20 -8 45.5t-31 47.5t-66 37t-112 15q-20 0 -45.5 -1.5t-52.5 -3.5t-52.5 -5t-44.5 -6v242h267v55h-620z" />
    <glyph glyph-name="uni0403" unicode="&#x403;" horiz-adv-x="577" 
d="M120 700v-700h91v645h336v55h-427zM321 912h111l-155 -127h-39z" />
    <glyph glyph-name="uni0404" unicode="&#x404;" horiz-adv-x="771" 
d="M395 712q98 0 181.5 -33t134.5 -105l-51 -49q-20 30 -45.5 56t-57.5 45.5t-70.5 30.5t-82.5 11q-69 0 -120 -24t-85.5 -63t-51.5 -87t-17 -96v-4h333v-45h-333v-5q0 -60 19 -116.5t54.5 -100t87 -69.5t117.5 -26q44 0 81.5 11t69 30.5t56.5 45.5t45 56l51 -49
q-25 -36 -60 -62t-75.5 -43t-85 -25t-89.5 -8q-66 0 -119 17t-94 45t-71 66t-49.5 79t-28.5 84t-9 82q0 85 28.5 150.5t78 110t116 67.5t142.5 23z" />
    <glyph glyph-name="uni0405" unicode="&#x405;" horiz-adv-x="625" 
d="M37 177q2 -43 22.5 -78t56 -59.5t83.5 -38t105 -13.5q58 0 104.5 14t79.5 40t51 63t18 82q0 62 -31 101.5t-77.5 66t-101 44.5t-101 38t-77.5 46t-31 69q0 24 10.5 45t31 36.5t50.5 25t69 9.5q65 0 110.5 -27.5t53.5 -86.5h68q-6 37 -27 66.5t-53 50t-72.5 31t-84.5 10.5
q-46 0 -87.5 -12t-73 -35t-50 -58t-18.5 -80q0 -59 30 -95t75.5 -60t98.5 -41t98.5 -38.5t75.5 -52.5t30 -83q0 -65 -47.5 -95t-126.5 -30q-63 0 -101 16.5t-58 39.5t-27 47.5t-8 41.5h-68z" />
    <glyph glyph-name="uni0406" unicode="&#x406;" horiz-adv-x="411" 
d="M160 700v-700h91v700h-91z" />
    <glyph glyph-name="uni0407" unicode="&#x407;" horiz-adv-x="411" 
d="M160 700v-700h91v700h-91zM82 858q0 -22 16 -38t38 -16t38 16t16 38t-16 38t-38 16t-38 -16t-16 -38zM220 858q0 -22 16 -38t38 -16t38 16t16 38t-16 38t-38 16t-38 -16t-16 -38z" />
    <glyph glyph-name="uni0408" unicode="&#x408;" horiz-adv-x="532" 
d="M321 700v-505q0 -24 -1.5 -52t-11.5 -53t-30.5 -41.5t-57.5 -16.5q-34 0 -56 12.5t-34.5 30.5t-17.5 38.5t-5 35.5h-87q2 -74 48.5 -117.5t146.5 -43.5q69 0 108.5 21t59 52.5t24.5 68t5 68.5v502h-91z" />
    <glyph glyph-name="uni0409" unicode="&#x409;" horiz-adv-x="1035" 
d="M489 700l-274 -527q-9 -18 -20.5 -34.5t-24 -30t-27 -21.5t-30.5 -8q-11 0 -26.5 4.5t-27.5 10.5l-39 -97q20 -7 35.5 -8t21.5 -1q14 0 30.5 3.5t34.5 16t38 37t42 66.5l272 520h8v-631h223q67 0 114.5 17.5t77.5 46t44 65t14 75.5q0 36 -13.5 70t-43 61t-75.5 43
t-112 16h-138v306h-104zM593 44v306h112q33 0 64 -10t55 -29t38 -46t14 -60q0 -28 -9 -56.5t-28.5 -52t-49 -38t-69.5 -14.5h-127z" />
    <glyph glyph-name="uni040A" unicode="&#x40a;" horiz-adv-x="1118" 
d="M211 350h374v-350h222q72 0 120 19t77 49t41.5 66.5t12.5 72.5q0 34 -13.5 68t-43 60t-76 42.5t-112.5 16.5h-137v306h-91v-306h-374v306h-91v-700h91v350zM676 44v306h112q37 0 68.5 -11.5t54 -32t35 -49t12.5 -61.5q0 -31 -11.5 -58.5t-32 -48.5t-49 -33t-63.5 -12
h-126z" />
    <glyph glyph-name="uni040B" unicode="&#x40b;" horiz-adv-x="850" 
d="M373 359q38 8 76 12.5t69 4.5q66 0 103 -11t54 -28.5t20.5 -40t3.5 -44.5v-252h91v279q0 25 -6.5 50t-29.5 45t-69.5 33t-125.5 13q-47 0 -94 -5.5t-92 -11.5v242h274v55h-627v-55h262v-645h91v359z" />
    <glyph glyph-name="uni040C" unicode="&#x40c;" horiz-adv-x="724" 
d="M359 912h111l-155 -127h-39zM120 0h91v246l113 121l266 -367h104l-312 429l254 271h-50l-375 -394v394h-91v-700z" />
    <glyph glyph-name="uni040E" unicode="&#x40e;" horiz-adv-x="660" 
d="M137 700h-107l313 -507l-36 -76q-10 -20 -24.5 -35t-46.5 -15q-24 0 -44 15t-33 32l-42 -93q14 -12 41.5 -22.5t61.5 -10.5q15 0 31.5 3t32 13t30.5 27.5t29 46.5l287 622h-52l-187 -406h-4zM351 750q18 0 47.5 1.5t57 10.5t47.5 29t20 57v12h-96q1 -5 1.5 -9.5t0.5 -9.5
q0 -21 -9 -33t-21.5 -18t-25.5 -7t-22 -1t-22.5 1t-26 7t-21.5 18t-9 33q0 5 0.5 9.5t1.5 9.5h-95v-12q0 -37 20 -57t47.5 -29t56.5 -10.5t48 -1.5z" />
    <glyph glyph-name="uni040F" unicode="&#x40f;" horiz-adv-x="841" 
d="M376 -105h91v105h254v700h-91v-645h-419v645h-91v-700h256v-105z" />
    <glyph glyph-name="uni0410" unicode="&#x410;" horiz-adv-x="732" 
d="M509 206l96 -206h97l-326 700h-50l-296 -700h46l88 206h345zM488 251h-305l144 337h4z" />
    <glyph glyph-name="uni0411" unicode="&#x411;" horiz-adv-x="671" 
d="M211 645h336v55h-427v-700h230q79 0 129.5 18t79.5 46.5t40.5 63.5t11.5 70t-11.5 70t-41 63t-80 45.5t-128.5 17.5h-139v251zM211 42v308h132q39 0 70.5 -12t53 -33t33.5 -50.5t12 -63.5q0 -36 -14 -64t-36.5 -46.5t-52 -28.5t-60.5 -10h-138z" />
    <glyph glyph-name="uni0412" unicode="&#x412;" horiz-adv-x="641" 
d="M120 0h251q67 0 113 17.5t74 45.5t40.5 63.5t12.5 71.5q0 57 -24.5 91t-58.5 52t-70 24t-58 7v4q35 0 66 13.5t54.5 35t37.5 50t14 60.5q0 28 -12 57t-36.5 53t-63 39.5t-90.5 15.5h-250v-700zM211 44v306h110q49 0 85 -13t59.5 -35t35 -51t11.5 -61q0 -35 -12.5 -62
t-33.5 -46t-49.5 -28.5t-60.5 -9.5h-145zM211 394v262h122q39 0 66.5 -11t45 -29t25.5 -41t8 -46q0 -29 -11.5 -54t-32 -43t-47 -28t-56.5 -10h-120z" />
    <glyph glyph-name="uni0413" unicode="&#x413;" horiz-adv-x="577" 
d="M120 700v-700h91v645h336v55h-427z" />
    <glyph glyph-name="uni0414" unicode="&#x414;" horiz-adv-x="841" 
d="M436 700h-61l-251 -653h-94v-152h86v105h610v-105h85v152h-98zM617 47h-446l210 544h4z" />
    <glyph glyph-name="uni0415" unicode="&#x415;" 
d="M120 700v-700h452v55h-361v291h310v48h-310v251h361v55h-452z" />
    <glyph glyph-name="uni0416" unicode="&#x416;" horiz-adv-x="1198" 
d="M1140 39q-39 0 -65 16t-55 62l-205 314l259 269h-65l-367 -380v380h-86v-380l-367 380h-65l259 -269l-205 -314q-15 -23 -28.5 -38t-27.5 -24t-29.5 -12.5t-34.5 -3.5l-28 2v-40q40 -13 84 -13q15 0 29 1.5t27.5 7t27 16t27.5 27.5l215 332l116 -119v-253h86v253l116 119
l215 -332q13 -17 27 -27.5t27.5 -16t27.5 -7t29 -1.5q44 0 84 13v40z" />
    <glyph glyph-name="uni0417" unicode="&#x417;" horiz-adv-x="664" 
d="M316 668q76 0 115.5 -37.5t39.5 -94.5q0 -15 -4.5 -39t-21.5 -47t-50.5 -39.5t-91.5 -16.5h-70v-44h70q45 0 82 -10t63.5 -29.5t41 -47.5t14.5 -63q0 -24 -8.5 -53.5t-29.5 -55t-57 -42.5t-91 -17q-54 0 -86 16.5t-49 39.5t-22.5 47.5t-6.5 41.5h-94q3 -94 63.5 -141.5
t187.5 -47.5q83 0 139.5 19t90.5 49t48.5 67t14.5 73q0 40 -15.5 72.5t-40.5 56t-57 36t-65 12.5h-7v4q31 0 57.5 13.5t45.5 36t29.5 51.5t10.5 59q0 32 -13 63.5t-42.5 56t-75.5 40t-112 15.5q-51 0 -93 -10t-72.5 -31t-48.5 -53t-19 -75h76q1 18 8.5 40t25 40.5t46.5 31.5
t74 13z" />
    <glyph glyph-name="uni0418" unicode="&#x418;" horiz-adv-x="837" 
d="M211 82v618h-91v-700h91l415 625v-625h91v700h-91z" />
    <glyph glyph-name="uni0419" unicode="&#x419;" horiz-adv-x="837" 
d="M413 750q18 0 47.5 1.5t57 10.5t47.5 29t20 57v12h-96q1 -5 1.5 -9.5t0.5 -9.5q0 -21 -9 -33t-21.5 -18t-25.5 -7t-22 -1t-22.5 1t-26 7t-21.5 18t-9 33q0 5 0.5 9.5t1.5 9.5h-95v-12q0 -37 20 -57t47.5 -29t56.5 -10.5t48 -1.5zM211 81v618h-91v-700h91l415 625v-625h91
v700h-91z" />
    <glyph glyph-name="uni041A" unicode="&#x41a;" horiz-adv-x="724" 
d="M120 0h91v246l113 121l266 -367h104l-312 429l254 271h-50l-375 -394v394h-91v-700z" />
    <glyph glyph-name="uni041B" unicode="&#x41b;" horiz-adv-x="790" 
d="M456 700h-55l-216 -552q-17 -45 -32.5 -72t-48.5 -27q-13 0 -25 7t-22 12l-27 -68q17 -6 36.5 -9t39.5 -3q32 0 57.5 27t45.5 78l195 495h4l253 -588h99z" />
    <glyph glyph-name="uni041C" unicode="&#x41c;" horiz-adv-x="1026" 
d="M188 700h-68v-700h44v571h4l309 -583h18l316 579h4v-567h91v700h-69l-324 -601h-4z" />
    <glyph glyph-name="uni041D" unicode="&#x41d;" horiz-adv-x="841" 
d="M211 348h419v-348h91v700h-91v-306h-419v306h-91v-700h91v348z" />
    <glyph glyph-name="uni041E" unicode="&#x41e;" horiz-adv-x="865" 
d="M50 350q0 -56 21.5 -119.5t67.5 -117.5t117 -89.5t170 -35.5q67 0 121.5 16.5t98 44.5t75.5 64.5t52.5 77t31 81.5t10.5 78q0 56 -23 119.5t-71 117.5t-121.5 89.5t-173.5 35.5q-99 0 -170 -35t-117 -88.5t-67.5 -117.5t-21.5 -121zM148 350q0 70 21.5 128.5t59 100.5
t88.5 65.5t111 23.5q59 0 111.5 -23.5t92 -65.5t62.5 -100.5t23 -128.5t-23 -128.5t-62.5 -100.5t-92 -65.5t-111.5 -23.5q-60 0 -111 23.5t-88.5 65.5t-59 100.5t-21.5 128.5z" />
    <glyph glyph-name="uni041F" unicode="&#x41f;" horiz-adv-x="841" 
d="M721 700h-601v-700h91v645h419v-645h91v700z" />
    <glyph glyph-name="uni0420" unicode="&#x420;" horiz-adv-x="643" 
d="M211 292q26 -7 56 -11.5t66 -4.5q61 0 108 17t78.5 46.5t47.5 68t16 82.5q0 42 -14 80.5t-42.5 67t-71.5 45.5t-101 17h-234v-700h91v292zM211 656h105q42 0 74 -15t53 -39.5t31.5 -55t10.5 -60.5q0 -29 -9.5 -58.5t-30.5 -53.5t-53 -39t-77 -15q-31 0 -57 2.5t-47 10.5
v323z" />
    <glyph glyph-name="uni0421" unicode="&#x421;" horiz-adv-x="781" 
d="M721 129q-102 -96 -242 -96q-78 0 -138 27t-100 72t-60.5 104t-20.5 123q0 68 21.5 124.5t60.5 97.5t92.5 64t116.5 23q43 0 78.5 -10t63 -26t45 -36.5t24.5 -41.5h74q-15 34 -38.5 63t-58.5 50t-82 33t-107 12q-87 0 -158.5 -25t-122.5 -71.5t-79 -112t-28 -146.5
q0 -70 22.5 -136.5t69.5 -118t120 -83t174 -31.5q64 0 114.5 12t88 29.5t62.5 37.5t38 35z" />
    <glyph glyph-name="uni0422" unicode="&#x422;" horiz-adv-x="667" 
d="M379 0v645h268v55h-627v-55h268v-645h91z" />
    <glyph glyph-name="uni0423" unicode="&#x423;" horiz-adv-x="660" 
d="M137 700h-107l313 -507l-36 -76q-10 -20 -24.5 -35t-46.5 -15q-24 0 -44 15t-33 32l-42 -93q14 -12 41.5 -22.5t61.5 -10.5q15 0 31.5 3t32 13t30.5 27.5t29 46.5l287 622h-52l-187 -406h-4z" />
    <glyph glyph-name="uni0424" unicode="&#x424;" horiz-adv-x="872" 
d="M390 700v-78h-34q-72 0 -127.5 -23t-93 -61t-56.5 -86t-19 -99q0 -39 15.5 -85.5t52 -86.5t97.5 -67t152 -27h13v-87h91v87h14q91 0 151.5 27t97.5 67t52.5 86.5t15.5 85.5q0 51 -19.5 99t-57 86t-92.5 61t-127 23h-35v78h-91zM390 127h-6q-51 0 -93 17.5t-72 48
t-46.5 71.5t-16.5 89q0 40 12.5 81t39 73t68.5 52.5t101 20.5h13v-453zM481 127v453h14q59 0 101 -20.5t68.5 -52.5t39 -73t12.5 -81q0 -48 -16.5 -89t-46.5 -71.5t-72 -48t-93 -17.5h-7z" />
    <glyph glyph-name="uni0425" unicode="&#x425;" horiz-adv-x="699" 
d="M132 700h-112l273 -351l-268 -349h54l239 313h4l244 -313h113l-303 387l239 313h-53l-211 -275h-5z" />
    <glyph glyph-name="uni0426" unicode="&#x426;" horiz-adv-x="863" 
d="M718 55v645h-91v-645h-416v645h-91v-700h598v-105h85v160h-85z" />
    <glyph glyph-name="uni0427" unicode="&#x427;" horiz-adv-x="708" 
d="M497 341q-19 -4 -41.5 -7t-45 -5.5t-43 -3.5t-35.5 -1q-66 0 -103 11t-54 28.5t-20.5 39.5t-3.5 45v252h-91v-279q0 -25 6.5 -50t29.5 -45.5t69 -33t126 -12.5q47 0 104 5.5t102 11.5v-297h91v700h-91v-359z" />
    <glyph glyph-name="uni0428" unicode="&#x428;" horiz-adv-x="1137" 
d="M925 700v-645h-311v645h-91v-645h-312v645h-91v-700h897v700h-92z" />
    <glyph glyph-name="uni0429" unicode="&#x429;" horiz-adv-x="1162" 
d="M1017 -105h85v160h-85v645h-92v-645h-311v645h-91v-645h-312v645h-91v-700h897v-105z" />
    <glyph glyph-name="uni042A" unicode="&#x42a;" horiz-adv-x="802" 
d="M254 0h238q72 0 120 19t77 49t41 66.5t12 72.5q0 34 -13.5 68t-42.5 60t-75.5 42.5t-112.5 16.5h-153v306h-315v-131h85v75h139v-644zM345 44v306h128q37 0 68.5 -11.5t54 -32t35 -49t12.5 -61.5q0 -31 -11.5 -58.5t-32 -48.5t-49 -33t-63.5 -12h-142z" />
    <glyph glyph-name="uni042B" unicode="&#x42b;" horiz-adv-x="920" 
d="M120 0h238q72 0 120 19t77 49t41.5 66.5t12.5 72.5q0 34 -13.5 68t-43 60t-76 42.5t-112.5 16.5h-153v306h-91v-700zM211 44v306h128q37 0 68.5 -11.5t54 -32t35 -49t12.5 -61.5q0 -31 -11.5 -58.5t-32 -48.5t-49 -33t-63.5 -12h-142zM709 700v-700h91v700h-91z" />
    <glyph glyph-name="uni042C" unicode="&#x42c;" horiz-adv-x="669" 
d="M120 0h238q72 0 120 19t77 49t41.5 66.5t12.5 72.5q0 34 -13.5 68t-43 60t-76 42.5t-112.5 16.5h-153v306h-91v-700zM211 44v306h128q37 0 68.5 -11.5t54 -32t35 -49t12.5 -61.5q0 -31 -11.5 -58.5t-32 -48.5t-49 -33t-63.5 -12h-142z" />
    <glyph glyph-name="uni042D" unicode="&#x42d;" horiz-adv-x="771" 
d="M346 712q-98 0 -181.5 -33t-134.5 -105l51 -49q19 30 45 56t58 45.5t70.5 30.5t82.5 11q69 0 120 -24t85.5 -63t51.5 -87t17 -96v-4h-333v-45h333v-5q0 -60 -19 -116.5t-54.5 -100t-87 -69.5t-117.5 -26q-44 0 -81.5 11t-69 30.5t-57 45.5t-44.5 56l-51 -49
q25 -36 60 -62t75.5 -43t85 -25t89.5 -8q66 0 119 17t94 45t71 66t49.5 79t28.5 84t9 82q0 85 -28.5 150.5t-78 110t-116 67.5t-142.5 23z" />
    <glyph glyph-name="uni042E" unicode="&#x42e;" horiz-adv-x="1152" 
d="M211 394v306h-91v-700h91v350h123q2 -96 36.5 -164.5t88.5 -112.5t121.5 -64.5t134.5 -20.5q82 0 151.5 29t119.5 78.5t78 115.5t28 140q0 58 -22 121.5t-67.5 116.5t-117 88t-170.5 35q-80 0 -146 -25.5t-115.5 -69t-80 -101.5t-39.5 -122h-123zM715 668
q41 0 89.5 -16.5t90 -54t69.5 -98t28 -148.5q0 -87 -28 -148t-69.5 -99t-90 -55t-89.5 -17q-42 0 -91.5 17t-91.5 55t-70.5 99t-28.5 148t28.5 147.5t70.5 98t91.5 54.5t91.5 17z" />
    <glyph glyph-name="uni042F" unicode="&#x42f;" horiz-adv-x="718" 
d="M598 700v-700h-91v309h-44q-28 0 -46.5 -5t-33.5 -17t-28 -31t-31 -47l-79 -117q-15 -23 -29.5 -42t-31.5 -32.5t-38.5 -21.5t-51.5 -8q-22 0 -36 2t-28 10v37q5 -1 10 -1.5t10 -0.5q21 0 37 6t30 17.5t27 28t27 37.5q42 61 65 97.5t36.5 56.5t22 29t20.5 15l10 5v4
q-48 3 -82.5 21t-56.5 45t-32 58.5t-10 61.5q0 27 10.5 59t36 59.5t69.5 46t111 18.5h227zM507 656h-101q-38 0 -68.5 -11t-52.5 -30.5t-33.5 -46.5t-11.5 -59q0 -27 10.5 -54.5t31.5 -50t51.5 -36.5t70.5 -14h103v302z" />
    <glyph glyph-name="uni0430" unicode="&#x430;" horiz-adv-x="540" 
d="M264 511q73 0 113 -20.5t58.5 -53.5t21.5 -76t3 -88v-273h-81v49q-29 -28 -74 -44.5t-90 -16.5q-43 0 -76 15t-55 39t-33 54t-11 61q0 32 12 64t36 57.5t59 41.5t80 16t85.5 -17.5t66.5 -49.5v43q0 82 -24.5 122t-89.5 40q-28 0 -49 -7t-37.5 -19.5t-30.5 -31t-28 -41.5
l-52 52q14 15 29.5 30t38 27t53.5 19.5t75 7.5zM379 198q-5 12 -14.5 28t-24.5 31t-36 25.5t-50 10.5t-53 -11.5t-40.5 -30t-25.5 -43.5t-9 -52q0 -32 11.5 -55.5t29.5 -40t40 -24.5t42 -8q19 0 38.5 7t37 19.5t31.5 29.5t23 37v77z" />
    <glyph glyph-name="uni0431" unicode="&#x431;" horiz-adv-x="621" 
d="M405 700q-43 0 -85 -2t-81 -14t-73.5 -37t-61.5 -70q-20 -33 -31 -70t-16 -73.5t-6 -72t-1 -66.5v-27q0 -38 10 -86.5t39 -91.5t82.5 -72.5t139.5 -29.5q67 0 114.5 23.5t77.5 61.5t44 85t14 95t-14.5 94.5t-44.5 82.5t-77 58.5t-113 22.5q-46 0 -82 -11t-63 -29.5
t-46 -42.5t-30 -49h-4v5q0 63 22 117.5t58 82.5q41 31 87.5 36.5t102.5 5.5h123l54 74h-139zM145 247q0 58 12 100.5t34 70t51.5 40.5t64.5 13q15 0 43 -4t56 -25t49 -66.5t21 -128.5q0 -69 -16.5 -112t-40.5 -66.5t-51 -32t-47 -8.5q-26 0 -57 9t-57.5 33.5t-44 67
t-17.5 109.5z" />
    <glyph glyph-name="uni0432" unicode="&#x432;" horiz-adv-x="539" 
d="M80 500v-500h226q49 0 84 11.5t57 30t32 42t10 48.5q0 38 -15 63t-37.5 39.5t-48 20.5t-46.5 7v7q20 4 40 12.5t35.5 23t25 34t9.5 44.5q0 14 -5 34t-22 38.5t-49.5 31.5t-86.5 13h-209zM165 40v199h88q16 0 40.5 -2t47.5 -12t39.5 -31t16.5 -58q0 -36 -16 -55.5
t-37.5 -28.5t-43 -10.5t-31.5 -1.5h-104zM165 273v187h99q34 0 54.5 -10t31.5 -24t14.5 -29.5t3.5 -27.5q0 -23 -9.5 -40.5t-25.5 -30t-37 -19t-44 -6.5h-87z" />
    <glyph glyph-name="uni0433" unicode="&#x433;" horiz-adv-x="418" 
d="M408 460v40h-328v-500h85v460h243z" />
    <glyph glyph-name="uni0434" unicode="&#x434;" horiz-adv-x="600" 
d="M521 40l-192 460h-60l-187 -460h-72v-145h70v105h440v-105h70v145h-69zM276 401h6l149 -361h-302z" />
    <glyph glyph-name="uni0435" unicode="&#x435;" horiz-adv-x="574" 
d="M524 228v21q0 67 -19 116t-51.5 81t-75.5 48t-91 16q-51 0 -94 -17.5t-75 -51t-50 -81t-18 -107.5q0 -50 15.5 -97.5t47 -85t80 -60t114.5 -22.5q64 0 118 22.5t94 64.5l-32 32q-21 -18 -39.5 -33t-37.5 -25t-39.5 -15.5t-45.5 -5.5q-28 0 -59.5 8.5t-58.5 30.5t-45 61
t-18 100h380zM144 268q0 40 8.5 77.5t26 66.5t44.5 46.5t64 17.5q71 0 110.5 -55.5t39.5 -152.5h-293z" />
    <glyph glyph-name="uni0436" unicode="&#x436;" horiz-adv-x="845" 
d="M137 500h-61l197 -212l-126 -174q-9 -13 -21.5 -26t-26 -23.5t-26.5 -17.5t-25 -7h-28v-40q13 -4 30 -8t35 -4q40 0 70 25.5t53 57.5l118 163l54 -58v-176h85v176l54 58l118 -163q23 -32 53 -57.5t70 -25.5q18 0 35 4t30 8v40h-28q-12 0 -25.5 7t-27 17.5t-25.5 23.5
t-21 26l-126 174l197 212h-61l-243 -258v258h-85v-258z" />
    <glyph glyph-name="uni0437" unicode="&#x437;" horiz-adv-x="516" 
d="M235 471q60 0 88.5 -27t28.5 -69q0 -27 -10.5 -46.5t-28.5 -31.5t-41 -18t-47 -6h-34v-34h36q15 0 39.5 -2.5t48 -12.5t40.5 -30.5t17 -56.5q0 -53 -37.5 -83.5t-97.5 -30.5q-27 0 -52.5 7t-47 20.5t-37.5 34t-23 47.5l-47 -39q15 -27 32 -47t40.5 -32.5t55 -19
t75.5 -6.5q68 0 113 13.5t71.5 34.5t37.5 46t11 48q0 24 -10 46.5t-28.5 40.5t-46 29.5t-63.5 11.5v7q42 4 65 20t34 34.5t13.5 36t2.5 23.5q0 21 -9.5 44.5t-31 43t-57 32t-86.5 12.5q-55 0 -92 -14.5t-59 -36.5t-32 -48.5t-11 -49.5h60q4 33 15 54t27 33.5t36 17t42 4.5z
" />
    <glyph glyph-name="uni0438" unicode="&#x438;" horiz-adv-x="600" 
d="M165 59v441h-85v-500h100l255 438v-438h85v500h-100z" />
    <glyph glyph-name="uni0439" unicode="&#x439;" horiz-adv-x="600" 
d="M165 59v441h-85v-500h100l255 438v-438h85v500h-100zM301 590q18 0 47.5 1.5t57 10.5t47.5 29t20 57v12h-96q1 -5 1.5 -9.5t0.5 -9.5q0 -21 -9 -33t-21.5 -18t-25.5 -7t-22 -1t-22.5 1t-26 7t-21.5 18t-9 33q0 5 0.5 9.5t1.5 9.5h-95v-12q0 -37 20 -57t47.5 -29
t56.5 -10.5t48 -1.5z" />
    <glyph glyph-name="uni043A" unicode="&#x43a;" horiz-adv-x="552" 
d="M165 242v258h-85v-500h85v176l55 58l124 -163q12 -15 25 -30t28 -27t32.5 -19t37.5 -7q18 0 35 4t30 8v40h-28q-12 0 -25 7t-26.5 18.5t-26 25t-22.5 26.5l-131 171l203 212h-63z" />
    <glyph glyph-name="uni043B" unicode="&#x43b;" horiz-adv-x="590" 
d="M367 500h-60l-152 -377q-5 -11 -11 -25.5t-14 -27.5t-18.5 -21.5t-22.5 -8.5q-14 0 -29 8t-24 16l-16 -53q23 -22 65 -22q19 0 34 5.5t28 20t25.5 38t26.5 59.5l115 289h6l160 -401h90z" />
    <glyph glyph-name="uni043C" unicode="&#x43c;" horiz-adv-x="680" 
d="M159 500h-79v-500h34v395h4l198 -407h10l185 407h4v-395h85v500h-77l-174 -382h-5z" />
    <glyph glyph-name="uni043D" unicode="&#x43d;" horiz-adv-x="583" 
d="M165 239h253v-239h85v500h-85v-227h-253v227h-85v-500h85v239z" />
    <glyph glyph-name="uni043E" unicode="&#x43e;" horiz-adv-x="618" 
d="M568 249q0 -52 -18 -99.5t-51.5 -83.5t-81 -57t-106.5 -21q-60 0 -108.5 21.5t-82 57.5t-52 83.5t-18.5 98.5q0 52 18.5 99.5t52 83.5t82 57.5t108.5 21.5q59 0 106.5 -21.5t81 -57.5t51.5 -83.5t18 -99.5zM473 249q0 70 -15 113.5t-39 67.5t-53 32.5t-56 8.5t-56 -8.5
t-53.5 -32.5t-40 -67.5t-15.5 -113.5q0 -69 15.5 -112.5t40 -67.5t53.5 -32.5t56 -8.5t56 8.5t53 32.5t39 67.5t15 112.5z" />
    <glyph glyph-name="uni043F" unicode="&#x43f;" horiz-adv-x="563" 
d="M165 460h233v-460h85v500h-403v-500h85v460z" />
    <glyph glyph-name="uni0440" unicode="&#x440;" horiz-adv-x="604" 
d="M80 -250h85v332h4q10 -26 26.5 -44t37.5 -29t44.5 -16t47.5 -5q50 0 92 18.5t72.5 52.5t47.5 82.5t17 107.5q0 60 -17 108t-47.5 82.5t-72.5 53t-92 18.5q-119 0 -156 -92h-4v81h-85v-750zM165 300q0 33 10.5 62.5t29.5 51t44.5 34t54.5 12.5q31 0 59.5 -11.5t49.5 -36.5
t33.5 -65t12.5 -96q0 -57 -12.5 -97t-34 -65.5t-49.5 -37t-59 -11.5q-28 0 -53 11.5t-44 34t-30.5 54.5t-11.5 73v87z" />
    <glyph glyph-name="uni0441" unicode="&#x441;" horiz-adv-x="544" 
d="M331 40q-36 0 -69.5 11t-59.5 35.5t-41.5 65t-15.5 99.5q0 61 17 103.5t42.5 68t56.5 37t59 11.5q46 0 80 -24t45 -59h69q-10 36 -32 59.5t-50.5 38t-61 20t-62.5 5.5q-63 0 -111 -20.5t-81 -55.5t-49.5 -82t-16.5 -100q0 -56 18 -104.5t51.5 -84t80.5 -56t106 -20.5
q66 0 115.5 22t83.5 48l-29 38q-35 -29 -69.5 -42.5t-75.5 -13.5z" />
    <glyph glyph-name="uni0442" unicode="&#x442;" horiz-adv-x="525" 
d="M220 0h85v460h200v40h-485v-40h200v-460z" />
    <glyph glyph-name="uni0443" unicode="&#x443;" horiz-adv-x="514" 
d="M284 117l-173 383h-91l224 -494l-53 -130q-9 -23 -23.5 -37t-33.5 -14q-18 0 -34.5 10.5t-25.5 30.5l-44 -83q19 -17 42 -25t43 -8q28 0 49 14t37 36.5t28 50t23 54.5l242 595h-49l-157 -383h-4z" />
    <glyph glyph-name="uni0444" unicode="&#x444;" horiz-adv-x="863" 
d="M474 700h-85v-263h-4q-4 12 -13.5 25t-25.5 24t-39.5 18t-55.5 7q-62 0 -101.5 -26.5t-61.5 -66t-30 -85.5t-8 -84t8 -83.5t30 -85t61.5 -66t101.5 -26.5q32 0 55.5 7t39.5 18t25.5 24t13.5 25h4v-312h85v312h4q12 -33 46.5 -53.5t86.5 -20.5q63 0 102.5 26.5t61.5 66
t30 85t8 83.5t-8 84t-30 85.5t-61.5 66t-102.5 26.5q-52 0 -86.5 -20.5t-46.5 -53.5h-4v263zM474 249q0 28 2.5 66.5t14 73t36.5 58.5t70 24q22 0 44.5 -9.5t41 -34t30.5 -68t12 -110.5t-12 -110t-30.5 -68t-41 -34.5t-44.5 -9.5q-45 0 -70 24.5t-36.5 59t-14 72.5t-2.5 66z
M389 249q0 -28 -2.5 -66.5t-14 -73t-36.5 -58.5t-70 -24q-18 0 -40 7.5t-41.5 31.5t-33 67.5t-13.5 115.5t13.5 116t33 67.5t41.5 31t40 7.5q45 0 70 -24t36.5 -58.5t14 -73t2.5 -66.5z" />
    <glyph glyph-name="uni0445" unicode="&#x445;" horiz-adv-x="531" 
d="M246 207l153 -207h102l-204 274l168 226h-58l-139 -187l-137 187h-101l187 -254l-186 -246h59z" />
    <glyph glyph-name="uni0446" unicode="&#x446;" horiz-adv-x="587" 
d="M165 40v460h-85v-500h427v-105h70v145h-90v460h-85v-460h-237z" />
    <glyph glyph-name="uni0447" unicode="&#x447;" horiz-adv-x="504" 
d="M339 246q-8 -2 -21 -4.5t-27.5 -5t-29 -4.5t-25.5 -2q-38 0 -58 9.5t-30 23t-11.5 28t-1.5 24.5v185h-85v-185q0 -12 2 -33.5t14.5 -42.5t39.5 -36t77 -15q33 0 74 5.5t82 18.5v-212h85v500h-85v-254z" />
    <glyph glyph-name="uni0448" unicode="&#x448;" horiz-adv-x="848" 
d="M80 0h688v500h-86v-460h-216v460h-85v-460h-216v460h-85v-500z" />
    <glyph glyph-name="uni0449" unicode="&#x449;" horiz-adv-x="866" 
d="M80 0h709v-105h67v145h-88v460h-86v-460h-216v460h-85v-460h-216v460h-85v-500z" />
    <glyph glyph-name="uni044A" unicode="&#x44a;" horiz-adv-x="647" 
d="M187 0h254q73 0 114.5 38.5t41.5 96.5q0 51 -23 78.5t-55 41t-65.5 16t-54.5 2.5h-126v226h-263v-105h73v67h104v-461zM273 38v201h113q16 0 37 -3t39 -13t30.5 -29t12.5 -51q0 -17 -2.5 -32.5t-10.5 -28.5q-4 -6 -11 -13.5t-17.5 -14t-26 -11.5t-35.5 -5h-129z" />
    <glyph glyph-name="uni044B" unicode="&#x44b;" horiz-adv-x="758" 
d="M80 500v-500h263q27 0 53.5 9t46.5 26.5t32.5 42t12.5 55.5q0 51 -22.5 79t-54.5 41.5t-67 16.5t-59 3h-120v227h-85zM593 500v-500h85v500h-85zM165 38v201h115q9 0 28 -2t38.5 -12.5t34.5 -32t15 -60.5q0 -47 -29.5 -70.5t-68.5 -23.5h-133z" />
    <glyph glyph-name="uni044C" unicode="&#x44c;" horiz-adv-x="538" 
d="M80 500v-500h263q27 0 53.5 9t46.5 26.5t32.5 42t12.5 55.5q0 51 -22.5 79t-54.5 41.5t-67 16.5t-59 3h-120v227h-85zM165 40v199h115q9 0 28 -2t38.5 -12.5t34.5 -32t15 -60.5q0 -47 -29.5 -69.5t-68.5 -22.5h-133z" />
    <glyph glyph-name="uni044D" unicode="&#x44d;" horiz-adv-x="538" 
d="M235 471q25 0 52.5 -8t51 -29.5t38.5 -60.5t16 -100h-196v-36h196q0 -10 -1.5 -29t-6.5 -42.5t-15.5 -48t-28 -44t-44 -32.5t-64.5 -13q-34 0 -60 10t-45.5 25.5t-32.5 34t-21 34.5l-44 -44q45 -58 96 -78.5t111 -20.5q31 0 62 5t60 19q22 11 45 30t42 48.5t30.5 69
t11.5 91.5q0 60 -17 108t-49 81.5t-77.5 51.5t-102.5 18q-50 0 -87.5 -12.5t-63.5 -31.5t-39.5 -42t-14.5 -44h74q3 29 17 46.5t32.5 27.5t38.5 13t36 3z" />
    <glyph glyph-name="uni044E" unicode="&#x44e;" horiz-adv-x="814" 
d="M165 239v-240h-85v500h85v-226h83q1 55 22 99.5t55.5 75t81 47t99.5 16.5q60 0 107.5 -20.5t81 -56t51.5 -82t18 -97.5q0 -57 -17.5 -105.5t-50.5 -84.5t-81 -56.5t-109 -20.5q-60 0 -106.5 22.5t-79 58.5t-51 81t-21.5 89h-83zM343 255q0 -70 15.5 -114.5t39.5 -69.5
t53 -34t56 -9q48 0 79.5 20.5t50 53.5t26 73.5t7.5 80.5q0 69 -15 111.5t-39 65.5t-53 30.5t-56 7.5q-21 0 -49 -4t-53.5 -24.5t-43.5 -64.5t-18 -123z" />
    <glyph glyph-name="uni044F" unicode="&#x44f;" horiz-adv-x="537" 
d="M457 500h-200q-21 0 -53.5 -3.5t-63.5 -17t-53 -40.5t-22 -75q0 -26 10.5 -48.5t29.5 -39.5t45 -27t56 -10h23v-4q-16 -6 -27 -15t-20 -20.5t-17.5 -25.5t-18.5 -30q-33 -54 -57 -79t-55 -25h-24v-40q27 -12 60 -12q37 0 64.5 19.5t50.5 58.5l101 173h86v-239h85v500z
M372 460v-187h-82q-30 0 -54.5 4.5t-42 15t-27.5 28.5t-10 45q0 35 15 54t34 28t37.5 10.5t25.5 1.5h104z" />
    <glyph glyph-name="uni0451" unicode="&#x451;" horiz-adv-x="579" 
d="M517 228v21q0 67 -19 116t-51.5 81t-75.5 48t-91 16q-51 0 -94 -17.5t-75 -51t-50 -81t-18 -107.5q0 -50 15.5 -97.5t47 -85t80 -60t114.5 -22.5q64 0 118 22.5t94 64.5l-32 32q-21 -18 -39.5 -33t-37.5 -25t-39.5 -15.5t-45.5 -5.5q-28 0 -59.5 8.5t-58.5 30.5t-45 61
t-18 100h380zM137 268q0 40 8.5 77.5t26 66.5t44.5 46.5t64 17.5q71 0 110.5 -55.5t39.5 -152.5h-293zM152 660q0 -22 16 -38t38 -16t38 16t16 38t-16 38t-38 16t-38 -16t-16 -38zM290 660q0 -22 16 -38t38 -16t38 16t16 38t-16 38t-38 16t-38 -16t-16 -38z" />
    <glyph glyph-name="uni0452" unicode="&#x452;" horiz-adv-x="604" 
d="M113 700v-85h-83v-37h83v-578h85v288q0 20 3.5 49.5t17 56.5t40.5 46.5t75 19.5q55 0 79.5 -35t24.5 -110v-406q0 -23 -2 -45t-8.5 -39t-19 -28t-32.5 -11q-23 0 -37 12t-25 39l-49 -39q23 -29 51.5 -38.5t61.5 -9.5q22 0 47.5 8.5t47.5 31t36.5 62.5t14.5 103v360
q0 24 -4.5 58t-21.5 64.5t-50.5 52.5t-92.5 22q-35 0 -72 -15.5t-72 -53.5l-9 -10h-4v145h232v37h-232v85h-85z" />
    <glyph glyph-name="uni0453" unicode="&#x453;" horiz-adv-x="418" 
d="M408 460v40h-328v-500h85v460h243zM218 712h111l-155 -127h-39z" />
    <glyph glyph-name="uni0454" unicode="&#x454;" horiz-adv-x="538" 
d="M283 471q-25 0 -52.5 -8t-51 -29.5t-38.5 -60.5t-16 -100h196v-36h-196q0 -10 1.5 -29t6.5 -42.5t15.5 -48t28 -44t44 -32.5t64.5 -13q34 0 60 10t45.5 25.5t32.5 34t21 34.5l44 -44q-45 -58 -96 -78.5t-111 -20.5q-31 0 -62 5t-60 19q-23 11 -45.5 30t-41.5 48.5
t-30.5 69t-11.5 91.5q0 60 17 108t49 81.5t77.5 51.5t102.5 18q49 0 87 -12.5t64 -31.5t39.5 -42t14.5 -44h-74q-3 29 -17 46.5t-32.5 27.5t-38.5 13t-36 3z" />
    <glyph glyph-name="uni0455" unicode="&#x455;" horiz-adv-x="480" 
d="M399 386q0 27 -14 50t-38.5 39.5t-57 26t-69.5 9.5q-35 0 -65.5 -9t-53 -27t-35.5 -44.5t-13 -61.5q0 -48 22 -76t55 -45t71.5 -27.5t71.5 -23t55 -31.5t22 -52q0 -14 -4.5 -29t-16.5 -27.5t-33 -21t-53 -8.5q-40 0 -67.5 12.5t-45 30t-25 35.5t-7.5 30h-65
q0 -28 13 -54.5t39.5 -47.5t65 -33.5t89.5 -12.5q92 0 138.5 40.5t46.5 106.5q0 48 -22.5 77t-56.5 46.5t-73.5 28.5t-73.5 23t-56.5 29t-22.5 48q0 13 5 27.5t17 27t32 21t50 8.5t52 -8.5t37 -21t22 -27.5t7 -28h57z" />
    <glyph glyph-name="uni0456" unicode="&#x456;" horiz-adv-x="308" 
d="M112 500v-500h85v500h-85zM100 658q0 -22 16 -38t38 -16t38 16t16 38t-16 38t-38 16t-38 -16t-16 -38z" />
    <glyph glyph-name="uni0457" unicode="&#x457;" horiz-adv-x="308" 
d="M112 500v-500h85v500h-85zM31 658q0 -22 16 -38t38 -16t38 16t16 38t-16 38t-38 16t-38 -16t-16 -38zM169 658q0 -22 16 -38t38 -16t38 16t16 38t-16 38t-38 16t-38 -16t-16 -38z" />
    <glyph glyph-name="uni0458" unicode="&#x458;" horiz-adv-x="291" 
d="M113 500v-592q0 -23 -2 -44.5t-8.5 -38.5t-19 -27t-32.5 -10q-25 0 -37.5 12t-23.5 38l-50 -39q22 -29 51.5 -39t61.5 -10q22 0 47.5 8t47.5 30.5t36.5 62t14.5 102.5v547h-86zM103 658q0 -22 15.5 -38t38.5 -16q22 0 38 16t16 38t-16 38t-38 16q-23 0 -38.5 -16
t-15.5 -38z" />
    <glyph glyph-name="uni0459" unicode="&#x459;" horiz-adv-x="797" 
d="M453 39v200h92q16 0 36.5 -4.5t38.5 -15.5t30 -29.5t12 -47.5q0 -26 -6 -46t-29 -39q-21 -14 -37.5 -16t-38.5 -2h-98zM368 0h209q37 0 68.5 8t54 24.5t35 42.5t12.5 61q0 51 -21.5 79t-52.5 40.5t-65 15t-58 2.5h-97v227h-91l-201 -369q-20 -35 -43 -56t-46 -21
q-14 0 -28 6.5t-25 14.5l-9 -75q14 -3 26 -7.5t27 -4.5q20 0 37 6.5t32 21t30.5 37t32.5 55.5l169 322h4v-430z" />
    <glyph glyph-name="uni045A" unicode="&#x45a;" horiz-adv-x="831" 
d="M487 38v201h92q10 0 29.5 -2t39 -11.5t34 -29t14.5 -53.5q0 -45 -26.5 -75t-83.5 -30h-99zM402 239v-239h237q28 0 54 9.5t45.5 27t31 42.5t11.5 56q0 51 -21.5 79t-52.5 41t-64.5 15.5t-58.5 2.5h-97v227h-85v-227h-237v227h-85v-500h85v239h237z" />
    <glyph glyph-name="uni045B" unicode="&#x45b;" 
d="M30 578h83v-578h85v289q0 20 3 49t16.5 56t40.5 46.5t75 19.5q34 0 54.5 -12.5t31.5 -33.5t14.5 -49t3.5 -58v-307h85v330q0 56 -16 91.5t-40 55.5t-52.5 27t-54.5 7q-35 0 -73.5 -13.5t-72.5 -51.5l-11 -14h-4v146h232v38h-232v84h-85v-84h-83v-38z" />
    <glyph glyph-name="uni045C" unicode="&#x45c;" horiz-adv-x="552" 
d="M276 712h111l-155 -127h-39zM165 242v258h-85v-500h85v176l55 58l124 -163q12 -15 25 -30t28 -27t32.5 -19t37.5 -7q18 0 35 4t30 8v40h-28q-12 0 -25 7t-26.5 18.5t-26 25t-22.5 26.5l-131 171l203 212h-63z" />
    <glyph glyph-name="uni045E" unicode="&#x45e;" horiz-adv-x="514" 
d="M284 117l-173 383h-91l224 -494l-53 -130q-9 -23 -23.5 -37t-33.5 -14q-18 0 -34.5 10.5t-25.5 30.5l-44 -83q19 -17 42 -25t43 -8q28 0 49 14t37 36.5t28 50t23 54.5l242 595h-49l-157 -383h-4zM279 590q18 0 47.5 1.5t57 10.5t47.5 29t20 57v12h-96q1 -5 1.5 -9.5
t0.5 -9.5q0 -21 -9 -33t-21.5 -18t-25.5 -7t-22 -1t-22.5 1t-26 7t-21.5 18t-9 33q0 5 0.5 9.5t1.5 9.5h-95v-12q0 -37 20 -57t47.5 -29t56.5 -10.5t48 -1.5z" />
    <glyph glyph-name="uni045F" unicode="&#x45f;" horiz-adv-x="563" 
d="M240 -105h84v105h159v500h-85v-460h-233v460h-85v-500h160v-105z" />
    <glyph glyph-name="uni0490" unicode="&#x490;" horiz-adv-x="577" 
d="M462 805v-105h-342v-700h91v645h336v160h-85z" />
    <glyph glyph-name="uni0491" unicode="&#x491;" horiz-adv-x="418" 
d="M165 460h243v145h-70v-105h-258v-500h85v460z" />
    <glyph glyph-name="uni1E02" unicode="&#x1e02;" horiz-adv-x="661" 
d="M120 0h251q67 0 113 17.5t74 45.5t40.5 63.5t12.5 71.5q0 57 -24.5 91t-58.5 52t-70 24t-58 7v4q35 0 66 13.5t54.5 35t37.5 50t14 60.5q0 28 -12 57t-36.5 53t-63 39.5t-90.5 15.5h-250v-700zM211 44v306h110q49 0 85 -13t59.5 -35t35 -51t11.5 -61q0 -35 -12.5 -62
t-33.5 -46t-49.5 -28.5t-60.5 -9.5h-145zM211 394v262h122q39 0 66.5 -11t45 -29t25.5 -41t8 -46q0 -29 -11.5 -54t-32 -43t-47 -28t-56.5 -10h-120zM276 858q0 -22 16 -38t38 -16t38 16t16 38t-16 38t-38 16t-38 -16t-16 -38z" />
    <glyph glyph-name="uni1E03" unicode="&#x1e03;" horiz-adv-x="604" 
d="M80 700h85v-282h4q10 26 26.5 43.5t37.5 28.5t44.5 16t47.5 5q50 0 92 -18.5t72.5 -52.5t47.5 -82t17 -107q0 -60 -17 -108.5t-47.5 -83t-72.5 -53t-92 -18.5q-119 0 -156 93h-4v-81h-85v700zM165 200q0 -33 10.5 -62.5t29.5 -51t44.5 -34t54.5 -12.5q31 0 59.5 11.5
t49.5 36.5t33.5 65t12.5 96q0 57 -12.5 97t-34 65.5t-49.5 37t-59 11.5q-28 0 -53 -11.5t-44 -34t-30.5 -54.5t-11.5 -73v-87zM248 658q0 -22 16 -38t38 -16t38 16t16 38t-16 38t-38 16t-38 -16t-16 -38z" />
    <glyph glyph-name="uni1E0A" unicode="&#x1e0a;" horiz-adv-x="765" 
d="M130 0v700h230q83 0 152 -26.5t118.5 -73t77 -110.5t27.5 -138q0 -77 -28.5 -141.5t-78 -111.5t-115.5 -73t-141 -26h-242zM221 44h110q82 0 139.5 27.5t94.5 71.5t54 98.5t17 108.5q0 60 -20 115.5t-58.5 98t-95.5 67.5t-131 25h-110v-612zM328 858q0 -22 16 -38t38 -16
t38 16t16 38t-16 38t-38 16t-38 -16t-16 -38z" />
    <glyph glyph-name="uni1E0B" unicode="&#x1e0b;" horiz-adv-x="604" 
d="M524 700h-85v-282h-4q-10 26 -26.5 43.5t-37.5 28.5t-44.5 16t-47.5 5q-50 0 -92 -18.5t-72.5 -52.5t-47.5 -82t-17 -107q0 -60 17 -108.5t47.5 -83t72.5 -53t92 -18.5q118 0 156 93h4v-81h85v700zM439 200q0 -33 -11 -62.5t-29.5 -51t-44 -34t-54.5 -12.5
q-32 0 -60 11.5t-49 36.5t-33.5 65t-12.5 96q0 57 12.5 97t34 65.5t49.5 37t59 11.5q28 0 53 -11.5t44 -34t30.5 -54.5t11.5 -73v-87zM248 658q0 -22 16 -38t38 -16t38 16t16 38t-16 38t-38 16t-38 -16t-16 -38z" />
    <glyph glyph-name="uni1E1E" unicode="&#x1e1e;" 
d="M120 700v-700h91v348h310v46h-310v251h361v55h-452zM247 858q0 -22 16 -38t38 -16t38 16t16 38t-16 38t-38 16t-38 -16t-16 -38z" />
    <glyph glyph-name="uni1E1F" unicode="&#x1e1f;" horiz-adv-x="363" 
d="M30 500v-40h87v-460h85v460h121v40h-121v84q0 12 1 28.5t6 31t15.5 24.5t29.5 10q24 0 39.5 -20t25.5 -41l44 47q-24 24 -49.5 36t-57.5 12q-26 0 -51 -9t-44.5 -27.5t-31.5 -47.5t-12 -68v-60h-87zM127 846q0 -22 16 -38t38 -16t38 16t16 38t-16 38t-38 16t-38 -16
t-16 -38z" />
    <glyph glyph-name="uni1E40" unicode="&#x1e40;" horiz-adv-x="1026" 
d="M188 700h-68v-700h44v571h4l309 -583h18l316 579h4v-567h91v700h-69l-324 -601h-4zM459 858q0 -22 16 -38t38 -16t38 16t16 38t-16 38t-38 16t-38 -16t-16 -38z" />
    <glyph glyph-name="uni1E41" unicode="&#x1e41;" horiz-adv-x="859" 
d="M165 0v285q0 18 3 47.5t15.5 58t38.5 49t73 20.5q34 0 52.5 -15t27.5 -37t10.5 -46t1.5 -42v-320h85v285q0 22 4 52.5t17 57.5t37.5 46t66.5 19q31 0 50 -9t29.5 -27t14 -44t3.5 -60v-320h85v349q0 23 -5 51.5t-21.5 53t-48 41t-83.5 16.5q-15 0 -35 -3t-42 -13
t-42.5 -29t-35.5 -50h-7q-6 16 -17 32.5t-28 30.5t-40.5 23t-56.5 9q-15 0 -36 -3.5t-42 -13.5t-39.5 -28t-30.5 -47h-4v81h-85v-500h85zM375 658q0 -22 16 -38t38 -16t38 16t16 38t-16 38t-38 16t-38 -16t-16 -38z" />
    <glyph glyph-name="uni1E56" unicode="&#x1e56;" horiz-adv-x="613" 
d="M211 292q26 -7 56 -11.5t66 -4.5q61 0 108 17t78.5 46.5t47.5 68t16 82.5q0 42 -14 80.5t-42.5 67t-71.5 45.5t-101 17h-234v-700h91v292zM211 656h105q42 0 74 -15t53 -39.5t31.5 -55t10.5 -60.5q0 -29 -9.5 -58.5t-30.5 -53.5t-53 -39t-77 -15q-31 0 -57 2.5t-47 10.5
v323zM252 858q0 -22 16 -38t38 -16t38 16t16 38t-16 38t-38 16t-38 -16t-16 -38z" />
    <glyph glyph-name="uni1E57" unicode="&#x1e57;" horiz-adv-x="604" 
d="M80 -250h85v332h4q10 -26 26.5 -44t37.5 -29t44.5 -16t47.5 -5q50 0 92 18.5t72.5 52.5t47.5 82.5t17 107.5q0 60 -17 108t-47.5 82.5t-72.5 53t-92 18.5q-119 0 -156 -92h-4v81h-85v-750zM165 300q0 33 10.5 62.5t29.5 51t44.5 34t54.5 12.5q31 0 59.5 -11.5t49.5 -36.5
t33.5 -65t12.5 -96q0 -57 -12.5 -97t-34 -65.5t-49.5 -37t-59 -11.5q-28 0 -53 11.5t-44 34t-30.5 54.5t-11.5 73v87zM248 658q0 -22 16 -38t38 -16t38 16t16 38t-16 38t-38 16t-38 -16t-16 -38z" />
    <glyph glyph-name="uni1E60" unicode="&#x1e60;" horiz-adv-x="625" 
d="M37 177q2 -43 22.5 -78t56 -59.5t83.5 -38t105 -13.5q58 0 104.5 14t79.5 40t51 63t18 82q0 62 -31 101.5t-77.5 66t-101 44.5t-101 38t-77.5 46t-31 69q0 24 10.5 45t31 36.5t50.5 25t69 9.5q65 0 110.5 -27.5t53.5 -86.5h68q-6 37 -27 66.5t-53 50t-72.5 31t-84.5 10.5
q-46 0 -87.5 -12t-73 -35t-50 -58t-18.5 -80q0 -59 30 -95t75.5 -60t98.5 -41t98.5 -38.5t75.5 -52.5t30 -83q0 -65 -47.5 -95t-126.5 -30q-63 0 -101 16.5t-58 39.5t-27 47.5t-8 41.5h-68zM258 858q0 -22 16 -38t38 -16t38 16t16 38t-16 38t-38 16t-38 -16t-16 -38z" />
    <glyph glyph-name="uni1E61" unicode="&#x1e61;" horiz-adv-x="480" 
d="M399 386q0 27 -14 50t-38.5 39.5t-57 26t-69.5 9.5q-35 0 -65.5 -9t-53 -27t-35.5 -44.5t-13 -61.5q0 -48 22 -76t55 -45t71.5 -27.5t71.5 -23t55 -31.5t22 -52q0 -14 -4.5 -29t-16.5 -27.5t-33 -21t-53 -8.5q-40 0 -67.5 12.5t-45 30t-25 35.5t-7.5 30h-65
q0 -28 13 -54.5t39.5 -47.5t65 -33.5t89.5 -12.5q92 0 138.5 40.5t46.5 106.5q0 48 -22.5 77t-56.5 46.5t-73.5 28.5t-73.5 23t-56.5 29t-22.5 48q0 13 5 27.5t17 27t32 21t50 8.5t52 -8.5t37 -21t22 -27.5t7 -28h57zM186 658q0 -22 16 -38t38 -16t38 16t16 38t-16 38
t-38 16t-38 -16t-16 -38z" />
    <glyph glyph-name="uni1E6A" unicode="&#x1e6a;" horiz-adv-x="667" 
d="M379 0v645h268v55h-627v-55h268v-645h91zM279 858q0 -22 16 -38t38 -16t38 16t16 38t-16 38t-38 16t-38 -16t-16 -38z" />
    <glyph glyph-name="uni1E6B" unicode="&#x1e6b;" horiz-adv-x="375" 
d="M30 460v40h87v154h85v-154h121v-40h-121v-332q0 -12 1 -27.5t6 -29t15.5 -22.5t29.5 -9q24 0 40 18t26 39l47 -48q-49 -49 -111 -49q-26 0 -51 9t-44.5 27.5t-31.5 47.5t-12 68v308h-87zM109 837q0 -22 16 -38t38 -16t38 16t16 38t-16 38t-38 16t-38 -16t-16 -38z" />
    <glyph glyph-name="Wgrave" unicode="&#x1e80;" horiz-adv-x="1056" 
d="M30 700l248 -700h60l191 547h5l185 -547h59l248 700h-46l-207 -584h-4l-195 584h-43l-199 -581h-4l-206 581h-92zM542 912h-111l155 -127h39z" />
    <glyph glyph-name="wgrave" unicode="&#x1e81;" horiz-adv-x="746" 
d="M20 500l173 -500h54l116 335h4l130 -335h47l182 500h-52l-136 -374h-4l-142 374h-20l-131 -377h-4l-130 377h-87zM387 712h-111l155 -127h39z" />
    <glyph glyph-name="Wacute" unicode="&#x1e82;" horiz-adv-x="1056" 
d="M30 700l248 -700h60l191 547h5l185 -547h59l248 700h-46l-207 -584h-4l-195 584h-43l-199 -581h-4l-206 581h-92zM514 912h111l-155 -127h-39z" />
    <glyph glyph-name="wacute" unicode="&#x1e83;" horiz-adv-x="746" 
d="M20 500l173 -500h54l116 335h4l130 -335h47l182 500h-52l-136 -374h-4l-142 374h-20l-131 -377h-4l-130 377h-87zM359 712h111l-155 -127h-39z" />
    <glyph glyph-name="Wdieresis" unicode="&#x1e84;" horiz-adv-x="1056" 
d="M30 700l248 -700h60l191 547h5l185 -547h59l248 700h-46l-207 -584h-4l-195 584h-43l-199 -581h-4l-206 581h-92zM405 858q0 -22 16 -38t38 -16t38 16t16 38t-16 38t-38 16t-38 -16t-16 -38zM543 858q0 -22 16 -38t38 -16t38 16t16 38t-16 38t-38 16t-38 -16t-16 -38z
" />
    <glyph glyph-name="wdieresis" unicode="&#x1e85;" horiz-adv-x="746" 
d="M20 500l173 -500h54l116 335h4l130 -335h47l182 500h-52l-136 -374h-4l-142 374h-20l-131 -377h-4l-130 377h-87zM250 658q0 -22 16 -38t38 -16t38 16t16 38t-16 38t-38 16t-38 -16t-16 -38zM388 658q0 -22 16 -38t38 -16t38 16t16 38t-16 38t-38 16t-38 -16t-16 -38z
" />
    <glyph glyph-name="Ygrave" unicode="&#x1ef2;" horiz-adv-x="639" 
d="M30 700l242 -435v-265h91v274l246 426h-54l-214 -369h-4l-204 369h-103zM333 912h-111l155 -127h39z" />
    <glyph glyph-name="ygrave" unicode="&#x1ef3;" horiz-adv-x="504" 
d="M274 117l-173 383h-91l224 -494l-53 -130q-9 -23 -23.5 -37t-33.5 -14q-18 0 -34.5 10.5t-25.5 30.5l-44 -83q19 -17 42 -25t43 -8q28 0 49 14t37 36.5t28 50t23 54.5l242 595h-49l-157 -383h-4zM266 712h-111l155 -127h39z" />
    <glyph glyph-name="endash" unicode="&#x2013;" horiz-adv-x="928" 
d="M120 230h688v63h-688v-63z" />
    <glyph glyph-name="emdash" unicode="&#x2014;" horiz-adv-x="1108" 
d="M40 230h1028v63h-1028v-63z" />
    <glyph glyph-name="quoteleft" unicode="&#x2018;" horiz-adv-x="195" 
d="M50 460h95v258h-35z" />
    <glyph glyph-name="quoteright" unicode="&#x2019;" horiz-adv-x="195" 
d="M145 718h-95v-258h36z" />
    <glyph glyph-name="quotesinglbase" unicode="&#x201a;" horiz-adv-x="174" 
d="M134 123h-94v-258h34z" />
    <glyph glyph-name="quotedblleft" unicode="&#x201c;" horiz-adv-x="399" 
d="M254 442h95v258h-36zM50 442h95v258h-35z" />
    <glyph glyph-name="quotedblright" unicode="&#x201d;" horiz-adv-x="399" 
d="M145 700h-95v-258h36zM349 700h-95v-258h35z" />
    <glyph glyph-name="quotedblbase" unicode="&#x201e;" horiz-adv-x="379" 
d="M135 122h-95v-258h36zM339 122h-95v-258h35z" />
    <glyph glyph-name="dagger" unicode="&#x2020;" horiz-adv-x="549" 
d="M230 -220h88v601h191v88h-191v231h-88v-231h-190v-88h190v-601z" />
    <glyph glyph-name="daggerdbl" unicode="&#x2021;" horiz-adv-x="549" 
d="M230 -220h88v230h191v88h-191v284h191v88h-191v230h-88v-230h-190v-88h190v-284h-190v-88h190v-230z" />
    <glyph glyph-name="bullet" unicode="&#x2022;" horiz-adv-x="476" 
d="M120 327q0 -24 9 -45t25 -37t37.5 -25t46.5 -9q24 0 45.5 9t37.5 25t25.5 37t9.5 45q0 25 -9.5 47t-25.5 38t-37.5 25t-45.5 9q-25 0 -46.5 -9t-37.5 -25t-25 -38t-9 -47z" />
    <glyph glyph-name="ellipsis" unicode="&#x2026;" horiz-adv-x="571" 
d="M232 43q0 -22 16 -38t38 -16t38 16t16 38t-16 38t-38 16t-38 -16t-16 -38zM40 43q0 -22 16 -38t38 -16t38 16t16 38t-16 38t-38 16t-38 -16t-16 -38zM423 43q0 -22 16 -38t38 -16t38 16t16 38t-16 38t-38 16t-38 -16t-16 -38z" />
    <glyph glyph-name="perthousand" unicode="&#x2030;" horiz-adv-x="1101" 
d="M60 554q0 -32 10.5 -61.5t29.5 -51.5t46 -35t60 -13t60 13t46.5 35t30 51.5t10.5 61.5q0 25 -8 53t-26 51t-46 38.5t-67 15.5t-66.5 -15.5t-45.5 -38.5t-26 -51t-8 -53zM125 554q0 21 4 43t13.5 40t25 29.5t38.5 11.5q24 0 39.5 -11.5t24.5 -29.5t13 -40t4 -43
q0 -36 -8 -60.5t-20 -39.5t-26 -21.5t-27 -6.5q-12 0 -26.5 6.5t-26.5 21.5t-20 39.5t-8 60.5zM388 146q0 -31 10.5 -59.5t30 -50t46.5 -34.5t60 -13t60 13t46.5 34.5t30 50t10.5 59.5q0 26 -8 54.5t-26 52t-46 38.5t-67 15t-67 -15t-46 -38.5t-26 -52t-8 -54.5zM454 146
q0 22 4 45t13.5 41t25 29.5t38.5 11.5q24 0 39.5 -11.5t25 -29.5t13 -41t3.5 -45q0 -36 -8 -60t-20 -39t-26.5 -21t-26.5 -6t-26 6t-26.5 21t-20.5 39t-8 60zM534 712l-385 -724h59l387 724h-61zM747 146q0 -31 10.5 -59.5t30 -50t46.5 -34.5t60 -13t60 13t46.5 34.5t30 50
t10.5 59.5q0 26 -8 54.5t-26 52t-46 38.5t-67 15t-67 -15t-46 -38.5t-26 -52t-8 -54.5zM813 146q0 22 4 45t13.5 41t25 29.5t38.5 11.5q24 0 39.5 -11.5t25 -29.5t13 -41t3.5 -45q0 -36 -8 -60t-20 -39t-26.5 -21t-26.5 -6t-26 6t-26.5 21t-20.5 39t-8 60z" />
    <glyph glyph-name="guilsinglleft" unicode="&#x2039;" horiz-adv-x="348" 
d="M151 259l117 198h-68l-120 -198l120 -198h68z" />
    <glyph glyph-name="guilsinglright" unicode="&#x203a;" horiz-adv-x="348" 
d="M197 259l-117 198h68l120 -198l-120 -198h-68z" />
    <glyph glyph-name="fraction" unicode="&#x2044;" horiz-adv-x="516" 
d="M415 712l-385 -724h69l387 724h-71z" />
    <glyph glyph-name="Euro" unicode="&#x20ac;" horiz-adv-x="597" 
d="M325 711q-58 0 -103 -24.5t-76.5 -65t-50.5 -92t-25 -105.5h-45l-24 -44h66q-1 -6 -1 -12v-12v-16t1 -16h-42l-24 -44h70q4 -57 23 -109.5t52.5 -93t79.5 -65t104 -24.5q68 0 118.5 27t91.5 88l-33 25q-6 -9 -18 -25t-32.5 -32t-49 -28t-67.5 -12q-48 0 -81 21.5
t-53.5 57t-30 80t-9.5 90.5h200l23 44h-224v56h254l23 44h-277q2 42 10 85t26.5 78.5t51 57.5t83.5 22q20 0 45.5 -5t48.5 -20t39.5 -42t19.5 -70h55q-10 50 -36 90q-11 17 -27.5 33.5t-38.5 29t-51 20.5t-66 8z" />
    <glyph glyph-name="uni2116" unicode="&#x2116;" horiz-adv-x="1127" 
d="M852 357q0 45 8.5 74t21.5 46t29 23.5t32 6.5q13 0 28.5 -5.5t29 -22t23 -45.5t9.5 -77q0 -25 -4 -51t-14 -47.5t-27.5 -35t-44.5 -13.5q-28 0 -45.5 14t-27.5 36t-14 47.5t-4 49.5zM785 357q0 -50 16 -83.5t40 -54t51.5 -29.5t50.5 -9q22 0 49.5 9t51.5 29.5t40 54
t16 83.5q0 43 -13.5 77t-35.5 56.5t-50 34.5t-58 12q-21 0 -48.5 -9t-52 -30t-41 -55.5t-16.5 -85.5zM800 43h292v55h-292v-55zM684 700v-535h-4l-555 547h-5v-712h46v535h4l555 -547h5v712h-46z" />
    <glyph glyph-name="trademark" unicode="&#x2122;" horiz-adv-x="898" 
d="M249 344v316h124v40h-313v-40h125v-316h64zM481 700h-78v-356h40v292l150 -292h37l151 290v-290h67v356h-74l-147 -280z" />
    <glyph glyph-name="Omega" unicode="&#x2126;" horiz-adv-x="894" 
d="M795 74h-232v37q32 7 75 23t82 48t66.5 84.5t27.5 132.5q0 75 -27.5 133t-76 98t-116 60.5t-147.5 20.5q-81 0 -148 -20.5t-116 -60.5t-76 -98t-27 -133q0 -80 27.5 -132.5t66.5 -84.5t82 -48t75 -23v-37h-234v-74h284v146q-60 13 -99.5 41.5t-62 64.5t-31.5 75t-9 72
q0 60 18.5 109.5t53.5 84.5t84.5 54.5t111.5 19.5t111.5 -19.5t84.5 -54.5t53.5 -84.5t18.5 -109.5q0 -33 -9 -72t-31.5 -75t-62 -64.5t-99.5 -41.5v-146h282v74z" />
    <glyph glyph-name="partialdiff" unicode="&#x2202;" horiz-adv-x="597" 
d="M470 594q-31 35 -71 56.5t-83.5 33.5t-87.5 18t-82 10l-7 -36q53 -8 108.5 -22.5t102 -40t79.5 -65t42 -96.5h-4q-34 28 -74 43.5t-93 15.5q-60 0 -108 -21.5t-81 -58.5t-50.5 -85t-17.5 -100q0 -64 22.5 -112t58.5 -80.5t82 -49t94 -16.5q42 0 88 13.5t84 48.5t63 95
t25 153q0 87 -17.5 160.5t-72.5 135.5zM301 23q-18 0 -45.5 6.5t-53.5 29.5t-45 68t-19 123q0 77 19 122t45 68t53.5 29.5t45.5 6.5q28 0 57.5 -9.5t53 -35t38.5 -69.5t15 -112q0 -69 -16.5 -113t-41 -69.5t-53 -35t-53.5 -9.5z" />
    <glyph glyph-name="Delta" unicode="&#x2206;" horiz-adv-x="762" 
d="M732 0l-304 700h-104l-294 -700h702zM357 641l244 -574h-484z" />
    <glyph glyph-name="product" unicode="&#x220f;" horiz-adv-x="788" 
d="M668 700h-548v-920h91v864h366v-864h91v920z" />
    <glyph glyph-name="summation" unicode="&#x2211;" horiz-adv-x="625" 
d="M31 700l314 -455l-315 -465h565v56h-424l277 412l-276 396h423v56h-564z" />
    <glyph glyph-name="radical" unicode="&#x221a;" horiz-adv-x="636" 
d="M259 106l-103 356h-86v-48h40l123 -414h65l144 848h124v52h-175z" />
    <glyph glyph-name="infinity" unicode="&#x221e;" horiz-adv-x="831" 
d="M415 310l-59 56q-23 21 -45 30t-53 9q-38 0 -64.5 -13t-43 -33t-23.5 -43.5t-7 -45.5q0 -23 7 -47t23.5 -43.5t43 -32t64.5 -12.5q32 0 53 9t45 29l59 57l60 -57q23 -22 44.5 -30t53.5 -8q38 0 64 12.5t42.5 32t24 43.5t7.5 47q0 22 -7.5 45.5t-24 43.5t-42.5 33t-64 13
q-31 0 -54 -9t-44 -30zM464 270l56 51q10 9 21 15.5t33 6.5q35 0 52 -22t17 -51q0 -27 -17 -51t-52 -24q-11 0 -19 2.5t-14 6t-12 9t-13 11.5zM367 270l-52 -46q-14 -12 -25 -20.5t-33 -8.5q-35 0 -52 24t-17 51q0 29 17 51t52 22q20 0 30 -5.5t20 -13.5l3 -3z" />
    <glyph glyph-name="integral" unicode="&#x222b;" horiz-adv-x="593" 
d="M247 503v-573q0 -20 -2 -47t-12.5 -51t-31.5 -41t-58 -17q-23 0 -33.5 12t-18 27t-17 27t-30.5 12q-17 0 -25.5 -12t-8.5 -24q0 -28 36.5 -47t101.5 -19q86 0 137.5 52.5t51.5 157.5v573q0 20 2 47t12 51t31 40.5t58 16.5q22 0 32.5 -12t19 -26.5t18 -26.5t30.5 -12
q17 0 25 12t8 24q0 30 -39.5 48t-99.5 18q-50 0 -85.5 -17t-58 -45.5t-33 -66.5t-10.5 -81z" />
    <glyph glyph-name="approxequal" unicode="&#x2248;" horiz-adv-x="698" 
d="M91 383q10 17 19.5 33t21 28.5t24.5 20t30 7.5q16 0 44 -9t87 -40q61 -30 96.5 -44t59.5 -14q29 0 52 14.5t42 37t33.5 50t27.5 53.5l-20 9q-10 -14 -21.5 -31.5t-24.5 -32.5t-29 -25.5t-35 -10.5q-4 0 -11.5 1.5t-22 6.5t-38.5 15.5t-61 28.5q-48 23 -84 39.5t-66 16.5
q-15 0 -33 -6.5t-37 -23t-38 -44.5t-37 -71zM91 166q21 41 44 65.5t51 24.5q9 0 19 -2t25 -7t36 -15t51 -25q60 -31 96.5 -44t59.5 -13q29 0 52 14.5t41.5 36.5t33.5 49t28 53l-20 8q-11 -16 -22.5 -33t-24.5 -31.5t-28.5 -24t-34.5 -9.5q-5 0 -12 1.5t-21.5 7t-38.5 15.5
t-61 28q-48 22 -84.5 38.5t-65.5 16.5q-37 0 -76.5 -36t-68.5 -109z" />
    <glyph glyph-name="notequal" unicode="&#x2260;" horiz-adv-x="837" 
d="M120 439v-55h292l-73 -127h-219v-55h188l-59 -102l45 -26l73 128h350v55h-317l73 127h244v55h-213l67 115l-45 27l-81 -142h-325z" />
    <glyph glyph-name="lessequal" unicode="&#x2264;" horiz-adv-x="713" 
d="M101 365l486 -234l26 59l-374 175l374 178l-26 58zM100 227l487 -234l25 58l-488 235z" />
    <glyph glyph-name="greaterequal" unicode="&#x2265;" horiz-adv-x="713" 
d="M612 365l-488 236l-24 -58l373 -178l-373 -175l24 -59zM613 227l-26 59l-486 -235l26 -58z" />
    <glyph glyph-name="lozenge" unicode="&#x25ca;" horiz-adv-x="436" 
d="M386 349l-163 363l-173 -363l163 -361zM320 349l-107 -221l-97 221l105 223z" />
    <glyph glyph-name="NULL" horiz-adv-x="0" 
 />
    </font>
</defs>
</svg>
