<?xml version="1.0" standalone="no"?>
<!DOCTYPE svg PUBLIC "-//W3C//DTD SVG 1.1//EN" "http://www.w3.org/Graphics/SVG/1.1/DTD/svg11.dtd" >
<svg xmlns="http://www.w3.org/2000/svg" xmlns:xlink="http://www.w3.org/1999/xlink" version="1.1">
<metadata>
Created by FontForge 20161013 at Fri Apr 22 19:02:44 2011
 By ,,,
Copyright (c) 2010, Kimberly Geswein (kimberlygeswein.com)
</metadata>
<defs>
<font id="TheGirlNextDoor" horiz-adv-x="452" >
  <font-face 
    font-family="The Girl Next Door"
    font-weight="400"
    font-stretch="normal"
    units-per-em="1024"
    panose-1="2 0 0 0 0 0 0 0 0 0"
    ascent="819"
    descent="-205"
    x-height="457"
    cap-height="697"
    bbox="-197 -673 1183 1025"
    underline-thickness="51"
    underline-position="-152"
    unicode-range="U+0020-FB02"
  />
<missing-glyph horiz-adv-x="346" 
 />
    <glyph glyph-name=".notdef" horiz-adv-x="346" 
 />
    <glyph glyph-name=".null" horiz-adv-x="0" 
 />
    <glyph glyph-name="nonmarkingreturn" horiz-adv-x="346" 
 />
    <glyph glyph-name="space" unicode=" " horiz-adv-x="518" 
 />
    <glyph glyph-name="space" unicode="&#xa0;" horiz-adv-x="518" 
 />
    <glyph glyph-name="exclam" unicode="!" horiz-adv-x="140" 
d="M48 247v10q0 8 -0.5 16.5t-0.5 16.5v11q0 49 2.5 95t6 92t8.5 94t12 102l2.5 0.5t3.5 0.5q7 0 11.5 -3t9.5 -12v-18v-25.5v-27.5v-40v-28.5v-24.5v-14q-1 -9 -1.5 -29.5t-2 -46t-3.5 -54t-3 -54t-2.5 -46t-2.5 -29.5q-1 0 -6.5 -0.5l-5.5 -0.5q-10 0 -17.5 1.5
t-10.5 13.5zM76 13q1 7 6.5 11t12 5.5t13 1.5h12.5q0 -10 -5.5 -21t-19.5 -11q-8 0 -12 3t-7 11z" />
    <glyph glyph-name="quotedbl" unicode="&#x22;" horiz-adv-x="355" 
d="M253 354q-1 28 -8 56.5t-15 56.5t-13.5 56t-5.5 56q21 0 35.5 -12t24 -30t14.5 -40t7 -44.5t2.5 -42t0.5 -31.5q0 -14 -4 -22t-25 -17zM89 340q-2 28 -7 56l-10 56t-9.5 55.5t-4.5 55.5q18 0 30.5 -9.5t20.5 -24.5t12.5 -35t6.5 -39t2.5 -37t0.5 -31v-9q0 -7 -0.5 -15
t-0.5 -14v-9q-5 -9 -9 -12t-12 -3q-7 0 -11.5 3t-8.5 12z" />
    <glyph glyph-name="numbersign" unicode="#" horiz-adv-x="684" 
d="M260 220q0 -9 -2 -28t-4 -41t-4 -41.5t-3 -27.5q-7 -35 -42 -35v179h-177l-22 31l214 30v3v8v8q1 5 1 8q0 4 -0.5 10t-0.5 13v12.5v5.5q-1 6 -6.5 13.5t-8.5 7.5h-150q-2 22 5.5 29t20.5 6.5t30 -4.5t34 -6t32.5 2t26.5 21t15.5 49.5t0.5 87.5l21 23l35 -159h149
q8 0 10.5 10t3.5 25.5t1.5 33t4.5 31t13.5 21t27.5 1.5v-144h171v-40h-165q-2 0 -7 -8.5t-6 -12.5v-6t-1 -11l-1 -12v-10q0 -14 8.5 -24.5t22 -16.5t30.5 -8.5t34 -4t32 -2t26 -0.5v-36h-151l-2 -7q-2 -6 -4 -15.5t-4.5 -20.5t-3.5 -18v-6q0 -33 11 -68t31 -63
q-4 -11 -11.5 -12.5t-16.5 -1.5q-1 0 -7 0.5t-7 0.5q-20 31 -29 55t-13 46t-5.5 46.5t-7.5 57.5q-1 3 -5.5 8.5t-7.5 6.5l-123 13zM272 321q0 -1 -0.5 -8t0.5 -16t4 -16t11 -7h123l17 96h-140q-8 0 -11 -7.5t-4 -16.5t-0.5 -16.5t0.5 -8.5z" />
    <glyph glyph-name="dollar" unicode="$" horiz-adv-x="519" 
d="M202 86q0 18 -9 30t-24.5 20.5t-34.5 14.5t-37 14t-34 18t-26 24q-6 8 -13 21.5t-13.5 26.5t-11 23t-3.5 11l14 14q11 -22 30 -47t43 -45t51 -33t54 -13q15 0 24 8.5t13.5 21.5t6 29.5t1.5 33.5t-1.5 32.5t-1.5 26.5v8v8.5t-1 7.5v3l-150 27q-13 2 -19.5 10t-8.5 18
t-2 20.5v18.5q0 47 18.5 75t49 43t68.5 21.5t78 11.5v111h42v-111l20 15l27 137h14v-152q11 -2 23 -9t22.5 -16t17.5 -19.5t7 -22.5v-7.5t-1 -6.5l-69 41q-5 -19 -8 -34.5t-4.5 -29.5t-1.5 -29v-32q0 -24 9.5 -38.5t23 -25t29.5 -18t30 -18.5t23.5 -27t9.5 -42
q0 -27 -8.5 -44.5t-21.5 -29t-28.5 -19t-29.5 -15.5t-24 -20t-13 -30l-27 -219q-2 -12 -6 -19.5t-13 -7.5q-4 0 -7.5 0.5t-7 2t-6 4t-1.5 7.5l27 232q0 3 -2.5 5.5t-7 5t-9.5 3.5t-8 1q-2 -1 -7 -5t-9.5 -8.5t-8 -9t-3.5 -5.5l-27 -233q0 -7 -6 -10.5t-14 -5.5t-15 -2h-10
q0 33 3 64.5t6.5 63t6 63t2.5 62.5zM92 432q0 -22 11.5 -31.5t29 -13.5t38.5 -3.5t38 0.5h6l6 3l8 4t8 4.5t5 3.5q7 39 11.5 78.5t4.5 79.5q-30 0 -60 -6.5t-53.5 -21.5t-38 -39t-14.5 -58zM352 176q17 0 32.5 5.5t26.5 15.5t18 24.5t7 32.5q0 63 -63 63h-10h-11v-141z
M270 171q0 -8 6 -14t15 -6q5 0 12.5 3t7.5 12v164l-13 14l-14 -14l-2 -18q-1 -17 -3.5 -41t-5 -49.5t-3.5 -42.5v-8zM311 549q-1 -14 -4 -34t-5 -43l-4 -46t-2 -42h15l14 151z" />
    <glyph glyph-name="percent" unicode="%" horiz-adv-x="514" 
d="M157 74q0 17 5.5 50t15 76.5t23.5 93.5t30 100t34.5 95.5t37 80.5t37.5 55.5t36 20.5v-44q-40 -72 -72.5 -145t-56 -148t-36 -153t-12.5 -161q-14 0 -22 9t-12.5 21t-6 25.5t-1.5 23.5zM21 561q0 19 10.5 37t27 31.5t35.5 21.5t36 8q19 0 30.5 -5t17.5 -15t8.5 -23.5
t2.5 -29.5q0 -24 -8 -37.5t-21.5 -20t-31.5 -8.5t-38 -2q-10 0 -22 0.5t-22.5 4.5t-17.5 13t-7 25zM363 170q0 13 -1 29t1 30t10.5 23.5t26.5 9.5q13 0 30 -3t32.5 -9t26 -17.5t10.5 -27.5q0 -20 -10 -35t-25 -26t-33 -16.5t-34 -5.5q-14 0 -20.5 3t-10 8.5t-3.5 14.5v22z
M61 575q2 -2 5.5 -6t8 -8.5t8.5 -8t6 -5.5q1 -1 3 -1h3q8 0 17.5 3.5t16.5 9t11.5 13.5t4.5 16q0 28 -29 28q-21 0 -31 -9.5t-24 -31.5zM424 234q-9 0 -13.5 -7t-6 -17.5t-1.5 -21.5v-17v-11v-10q6 2 16 7.5t20 13t16 16t4 18.5q0 1 -3.5 5t-7.5 8t-9 8t-8 7q-1 0 -3.5 0.5
t-3.5 0.5z" />
    <glyph glyph-name="ampersand" unicode="&#x26;" horiz-adv-x="519" 
d="M12 238q0 19 10.5 33t24.5 26.5t25.5 25t11.5 26.5q0 11 -5 17t-12 9t-15 5t-14 7t-9.5 13.5t-0.5 24.5q4 34 26 53.5t52 29t62.5 11.5t57.5 2h15q11 0 23 -0.5t22.5 -1t14.5 -0.5q7 0 14 -4t13.5 -9.5t10 -12t3.5 -14.5q0 -3 -5.5 -8.5t-8.5 -5.5q-9 14 -22 20t-27.5 8
t-30 1.5t-28.5 -0.5q-21 0 -47.5 -1t-50 -7.5t-39.5 -22.5t-16 -46q0 -8 3.5 -16.5t9 -15t13.5 -11t17 -4.5h150l27 -15l-13 -13q-17 -1 -39 -2.5t-46.5 -4.5t-48.5 -9.5t-43.5 -19t-31 -30.5t-11.5 -44q0 -14 8 -22t20.5 -12.5t29 -6t31 -1.5t27 0.5t18.5 0.5q32 0 58 0.5
t51 1.5t52 4t61 8q15 2 27.5 9t24.5 15.5t24.5 14t24.5 5.5q0 -27 -19.5 -43.5t-51 -26t-69.5 -13t-74.5 -4t-68.5 0.5t-50 1h-19q-13 0 -29 0.5t-29 0.5h-19q-13 2 -25.5 9.5t-22.5 17t-16 21.5t-6 25zM175 606h11t13.5 -2t12 -5.5t8.5 -10.5q-6 -8 -10 -11t-12 -3
q-13 0 -18 10.5t-5 21.5zM205 40q1 0 3.5 0.5l2.5 0.5q10 0 16.5 -6t6.5 -15q0 -11 -8 -15t-21 -5v40z" />
    <glyph glyph-name="quotesingle" unicode="'" horiz-adv-x="174" 
d="M55 724q1 0 3 0.5t4 0.5q22 0 31.5 -12.5t14 -31t4 -38t-0.5 -34.5v-12q0 -8 -0.5 -15.5t-0.5 -13.5v-7q-1 -9 -3 -23t-4 -27t-4.5 -22.5t-3.5 -9.5h-40v245z" />
    <glyph glyph-name="parenleft" unicode="(" horiz-adv-x="247" 
d="M13 278q0 25 7.5 64t21 82.5t32.5 88t42 79.5t50 57.5t58 22.5q0 -12 -9 -24.5t-21.5 -24.5t-24.5 -24t-19 -24q-17 -37 -32.5 -71.5t-27 -70t-17.5 -72t-6 -77.5q0 -37 3.5 -64.5t11.5 -53t21.5 -52t33.5 -59.5q1 -2 5 -5.5t9 -8.5t9 -8.5t5 -4.5t1 -3.5v-3.5
q0 -7 -4 -11t-9 -6.5t-11.5 -3.5t-11.5 -1q-15 0 -29.5 19.5t-27.5 48.5t-24 64t-19 66t-12.5 54t-4.5 27z" />
    <glyph glyph-name="parenright" unicode=")" horiz-adv-x="220" 
d="M12 21q0 1 0.5 3.5t0.5 3.5q39 30 66 66t43.5 75.5t23 83.5t6.5 92q0 39 -5 78.5t-17.5 77t-34 70t-54.5 59.5h3h5q28 0 50.5 -17t38.5 -44.5t26.5 -61.5t16.5 -67.5t9 -63t3 -47.5q0 -22 -3 -52t-9.5 -64t-17.5 -68.5t-26.5 -63.5t-35.5 -50.5t-46 -30.5q-2 -1 -7.5 0.5
t-12 3.5t-12.5 5t-10 4l-0.5 3.5t-0.5 4.5z" />
    <glyph glyph-name="asterisk" unicode="*" horiz-adv-x="576" 
d="M319 153q0 -11 -9 -17t-19.5 -4.5t-19.5 9.5t-9 25v191l-167 -118q-8 -6 -18 -1.5t-15 14t-4 21.5t15 22l136 96h-111q1 5 3 9q2 5 4.5 9t6.5 8q20 12 39.5 14t37 1t32 -1t24.5 9l-84 118l10 4h9.5t10.5 -1q15 -7 26 -16.5t18.5 -19.5t14 -20.5t12.5 -18.5q1 9 1 28v39
v38t-1 25q1 11 9.5 14t19 1.5t19.5 -5t9 -5.5v-149q3 1 6 2.5l7 3.5q6 3 22 14t33 23t32.5 23.5t21.5 16.5q8 5 15 -0.5t12 -15t8 -18.5t2 -11l-92 -65h178l20 -25q-9 -7 -26 -10.5t-39.5 -5.5t-48 -1.5t-49 0.5h-45t-35.5 -3l135 -191l-9 -30q-15 4 -34.5 25t-39.5 48
t-38.5 55.5t-35.5 47.5v-202z" />
    <glyph glyph-name="plus" unicode="+" horiz-adv-x="342" 
d="M4 211q0 5 2 9q3 9 7 13q11 8 22.5 11t21.5 2.5t19 -1.5t16 1.5t11.5 12t6.5 28.5q1 6 1 22v66q0 16 -1 22q4 9 8 11.5t12 2.5q1 0 3.5 -0.5t3.5 -0.5q4 -1 12 -6.5t8 -6.5v-144h158l13 -20q-7 -8 -22.5 -10.5t-34.5 -3.5t-39.5 0t-36.5 0t-27 -4t-11 -10v-192
q0 -3 -3 -6t-7.5 -4.5t-9.5 -2.5t-8 -1q-19 0 -19 29v183h-106z" />
    <glyph glyph-name="comma" unicode="," horiz-adv-x="171" 
d="M1 -152q27 18 43.5 36t25.5 38t12 43.5t3 53.5q0 16 -3 31t-6 29.5t-5.5 29.5t-2.5 30q25 0 38.5 -14t20.5 -35t9.5 -44.5t2.5 -40.5q0 -18 -5.5 -39t-14.5 -41t-21.5 -37t-28.5 -27q-5 -3 -14 -8t-17.5 -9.5t-15 -7.5t-7.5 -3z" />
    <glyph glyph-name="hyphen" unicode="-" horiz-adv-x="355" 
d="M51 233h274q8 0 11 -6.5t3 -13.5q0 -8 -5.5 -14t-14.5 -6h-8q-19 0 -44 2t-52.5 3.5t-54.5 2.5t-48 2.5l-35 2.5h-12l-28 14z" />
    <glyph glyph-name="period" unicode="." horiz-adv-x="89" 
d="M13 13q0 10 4.5 17t11 11.5t14.5 6t15 1.5v-8q0 -8 -1.5 -17t-5 -16.5t-10.5 -7.5q-2 0 -6 2t-8.5 3.5t-8.5 4t-5 3.5z" />
    <glyph glyph-name="slash" unicode="/" horiz-adv-x="390" 
d="M6 21v3.5v3.5q12 14 36 46t53.5 72.5t62 85t62 85.5t53.5 73l36 48q2 4 7.5 13.5t12.5 20t12 21t8 14.5h27q-9 -39 -29.5 -81t-48 -85t-60 -86.5t-66 -85t-65.5 -81t-59 -75.5q-7 -8 -9.5 -11t-10.5 -3q-9 0 -15.5 6.5t-6.5 15.5z" />
    <glyph glyph-name="zero" unicode="0" horiz-adv-x="426" 
d="M25 184q0 18 1.5 43t4.5 53.5t9.5 57.5t17 55t25.5 47.5t37 32.5q14 8 36 17t47.5 10t52.5 -11t50 -47h-7l-7 -1q-13 0 -22.5 5.5t-20 11.5t-21 11t-24.5 5q-32 -8 -54 -24.5t-37 -38.5t-23.5 -48t-12.5 -52t-5 -50.5t-1 -43.5v-19v-27.5t0.5 -27.5t1.5 -18
q11 -25 23.5 -45t30 -33.5t40 -20.5t53.5 -7q45 0 74 17.5t46 46.5t24 65.5t7 75.5q0 26 -8 50t-17 47t-17 45t-8 45q0 3 0.5 9t0.5 7q23 -17 38 -40.5t24 -50t13 -55t4 -54.5q0 -50 -9.5 -93t-32 -75t-60.5 -50.5t-95 -18.5q-39 0 -72.5 16.5t-57 44t-36.5 62.5t-13 71z
" />
    <glyph glyph-name="one" unicode="1" horiz-adv-x="109" 
d="M55 28q-2 12 -4 43.5t-3 72t-2.5 85.5t-3 86t-2.5 72.5t-3 44.5v5q0 5 -0.5 11t-0.5 11v9q0 3 -0.5 10.5t0.5 14.5t4 13t11 8q1 -3 3.5 -8.5t4 -12t3.5 -12.5l3 -9q9 -51 13.5 -112.5t6.5 -125t2.5 -125.5t0.5 -114q-30 0 -33 33z" />
    <glyph glyph-name="two" unicode="2" horiz-adv-x="499" 
d="M198 66q-14 0 -27 -8t-26 -17.5t-28 -17.5t-35 -8h-10q-6 0 -14 0.5t-14.5 1t-9.5 0.5q-4 6 -7 11.5t-4.5 11t-2 12t-0.5 13.5q0 26 10 43t25.5 26.5t35 13.5t39 4.5t37.5 -2t31 -3.5q40 42 55 99t15 118q0 21 -1.5 46.5t-8 46.5t-20 35t-37.5 14q-30 0 -57 -9.5t-49 -28
t-38 -46t-23 -65.5v7q0 4 -0.5 9.5t-0.5 9.5v7q0 12 0.5 22t2 19t4.5 19t9 21q23 20 39.5 33t32 21t31 10.5t38.5 2.5q32 0 55 -15.5t37.5 -42t21 -59.5t6.5 -68v-12q0 -7 -0.5 -14.5t-0.5 -12v-5.5q-3 -11 -12.5 -36.5t-20.5 -54t-21 -54t-16 -34.5v-4l-1 -4q0 -24 15 -41
t36 -28.5t43.5 -16.5t38.5 -5t28 11.5t24.5 25t25 24.5t28.5 11q0 -25 -12.5 -44t-31 -32.5t-39.5 -20.5t-39 -7q-22 0 -41 10.5t-38 23t-37.5 23t-40.5 10.5zM95 116q-19 0 -29 -3.5t-15 -11.5t-6 -24t-1 -40h23q18 0 39 4.5t37 15t16 33.5q0 11 -8 16.5t-19 7.5t-21 2h-16
z" />
    <glyph glyph-name="three" unicode="3" horiz-adv-x="382" 
d="M55 95q16 0 30 -8t29.5 -18.5t35 -18.5t45.5 -8q29 0 52.5 10.5t40 29t26 44.5t9.5 58q0 29 -4.5 54.5t-15.5 44t-30 29t-48 10.5q-22 0 -37 -6t-29 -13t-28 -13t-32 -6q0 32 11 60.5t24.5 55.5t25 55.5t11.5 58.5q-3 0 -8.5 1.5t-12 2t-12 1t-8.5 0.5q-5 -2 -18.5 -5.5
t-28.5 -8.5t-28.5 -10t-18.5 -6l-14 14q6 3 19 8.5t28.5 11.5t33.5 12.5t34.5 12.5t29 10.5t18.5 6.5q2 1 6.5 2t10 2t10 1.5t6.5 0.5q0 -25 -5 -53.5t-12.5 -56.5t-15 -53t-13.5 -42q48 -2 84 -9t60 -25.5t36 -52t12 -89.5q0 -41 -13.5 -73t-36 -55.5t-53.5 -36.5t-66 -13
q-17 0 -41 2.5t-46.5 11t-37.5 25t-15 44.5z" />
    <glyph glyph-name="four" unicode="4" horiz-adv-x="397" 
d="M220 335h-183q-7 0 -11 8t-4 14q0 1 0.5 4t1.5 3q47 46 82 80.5t58.5 57t37.5 35t18 16.5l3 1h4q6 0 10 -6.5t6 -14.5t3 -15.5t1 -8.5q0 -7 2 -26t4 -39.5t3.5 -39t1.5 -25.5q2 -8 6.5 -11.5t11 -4.5t12 -0.5t10.5 0.5q25 0 43.5 10t34.5 34q0 -1 1 -6.5t1 -7.5
q5 -26 -1 -40t-19 -20t-30.5 -6.5t-33 0.5t-27.5 0.5t-14 -7.5v-290l-20 -30l-13 14v321zM128 379h78v101h-13l-65 -73v-28z" />
    <glyph glyph-name="five" unicode="5" horiz-adv-x="417" 
d="M20 95v7.5t1 6.5q35 -32 72 -51t85 -19q43 0 75.5 14.5t54 41t32.5 62.5t11 76q0 3 -0.5 13t-1 20.5t-0.5 20.5v14q-3 5 -12 16t-19.5 21.5t-21 20t-15.5 11.5h-5q-3 1 -9 1h-12h-8q-33 0 -58.5 -9.5t-46.5 -20.5t-39 -20.5t-33 -9.5q0 8 0.5 30t2 47t2 47t1.5 30
q0 8 1.5 20.5t5.5 23t12 18t22 7.5h205v-20h-178q-10 0 -15.5 -16.5t-8 -36.5t-3 -37.5t-0.5 -20.5q0 -8 2 -11.5t11 -9.5q17 6 30.5 9t26.5 5t26.5 2h29.5h28.5t24.5 -3t24.5 -8.5t28.5 -16.5q-1 -1 2.5 -8t8 -16.5t9.5 -21.5t10 -22t8.5 -18t3.5 -10v-8v-12.5v-15.5v-12
q0 -46 -14 -85.5t-40.5 -69.5t-65 -48.5t-87.5 -22.5q-10 -2 -27 1t-35.5 9.5t-36.5 15.5t-32.5 20.5t-23.5 23.5t-9 25z" />
    <glyph glyph-name="six" unicode="6" horiz-adv-x="403" 
d="M25 252q0 30 4 65t12.5 70.5t22.5 68.5t33 58t44 40.5t55 15.5q7 0 21 -1t28.5 -4t25.5 -10t11 -20v-18q-10 0 -18.5 3t-17 7t-18 7t-20.5 3q-29 0 -49.5 -13t-35 -35t-23.5 -50.5t-13.5 -59.5t-6.5 -62t-2 -58q0 -17 1.5 -38t5 -42.5t10.5 -42t17.5 -36t26 -25.5
t36.5 -10q1 0 6 0.5t7 0.5q9 28 21 57t29.5 53t40 39t50.5 15q17 0 26 -8.5t14 -21.5t7 -29.5t2 -32.5q0 -28 -5.5 -51.5t-17 -41.5t-29.5 -29.5t-44 -13.5q-51 -6 -97 9t-82 47.5t-57 81.5t-21 112zM322 198q-21 0 -37 -16t-26 -40t-15.5 -50t-5.5 -48q27 0 47.5 5.5
t35 17.5t22 33.5t7.5 55.5q0 19 -5.5 30.5t-22.5 11.5z" />
    <glyph glyph-name="seven" unicode="7" horiz-adv-x="370" 
d="M190 46q0 46 6 89.5t6 87.5q0 10 -2 14t-10 10q-6 0 -23 -3t-35.5 -5.5t-35 -5t-22.5 -3.5h-6.5h-6.5v34q0 1 6 2.5t14 4.5t16.5 5.5t14.5 4.5q5 1 18.5 3.5t27.5 5t26.5 4t17.5 2.5q16 50 19.5 97t3.5 99q-24 0 -47 -5.5t-46.5 -11.5t-47.5 -11.5t-48 -5.5v21
q0 2 17.5 8t42 13.5t51 15.5t43.5 11q4 1 15.5 3t23.5 3.5t23 2t15 0.5q0 -52 -5 -106t-8 -101q-1 -4 -0.5 -11t1.5 -14v-15h100q0 -16 -7 -24t-17.5 -10.5t-23 -2t-23.5 -0.5t-19.5 -5.5t-10.5 -16.5l-40 -213l-12 -17q-7 2 -9.5 7.5t-3.5 12.5t0 14t1 12z" />
    <glyph glyph-name="eight" unicode="8" horiz-adv-x="314" 
d="M52 90v13.5v20.5t-0.5 20.5t-0.5 12.5q0 21 2.5 40t5.5 37.5t5.5 37.5t2.5 38q0 20 -9 36t-19.5 31.5t-19.5 33.5t-9 41q0 33 7 54t20.5 32.5t34.5 16t48 4.5q12 0 37 -1t49 -7.5t43 -19t19 -34.5q0 -2 -1 -6q1 -3 1 -7q0 -5 -8.5 -16.5t-21.5 -25.5t-28.5 -29
t-28.5 -31.5t-21.5 -31t-8.5 -26.5q0 -2 1 -4v-3q16 -15 40.5 -37t47.5 -49t39 -57t16 -60q0 -21 -10 -42t-26.5 -36.5t-37 -25.5t-40.5 -10q-23 0 -41 7t-33.5 19.5t-28.5 28.5t-26 35zM79 155q0 -55 30 -83t81 -28q31 0 47.5 12.5t16.5 46.5q0 26 -12.5 55t-32 54.5
t-44 42t-48.5 16.5h-3.5h-3.5q-12 -14 -18.5 -27.5t-9.5 -27.5t-3 -29v-32zM231 508q-15 9 -31 14t-32 6.5t-38 1.5q-2 0 -9.5 -0.5l-15 -1t-14 -1t-9.5 -0.5q-17 -11 -24 -29.5t-7 -38.5q0 -14 3.5 -31t11.5 -32t18.5 -25.5t27.5 -10.5q1 0 5.5 0.5t5.5 1.5l122 137
q-7 5 -14 9z" />
    <glyph glyph-name="nine" unicode="9" horiz-adv-x="309" 
d="M206 49q0 68 6 132.5t6 130.5q-13 0 -25 -2l-49 -9q-12 -3 -24 -3q-18 0 -36 5.5t-33 16t-24 27.5t-9 40q0 27 10.5 54t28 48.5t41 35t49.5 13.5q13 0 37 -4.5t47 -15t39.5 -28t16.5 -41.5q0 -3 -1.5 -7.5t-3.5 -9.5t-4.5 -9t-3.5 -5q0 -13 -2 -41t-4.5 -63.5t-5.5 -74.5
t-5.5 -74.5t-5 -63.5t-4.5 -42q0 -3 -1.5 -11.5t-4 -18t-4 -17.5t-3.5 -12l-27 15l-1 5v8.5v11.5v9zM59 397q0 -21 4.5 -34.5t13 -21.5t20.5 -10.5t28 -2.5q26 0 48.5 10.5t39 30.5t26 46t9.5 57q0 12 -12 17t-27 6.5t-28 0.5t-14 -1q-23 5 -42.5 -1.5t-34 -21.5
t-22.5 -34.5t-9 -40.5z" />
    <glyph glyph-name="colon" unicode=":" horiz-adv-x="160" 
d="M49 21q0 9 6.5 14.5t15.5 5.5t15 -5.5t6 -14.5t-6 -15.5t-15 -6.5t-15.5 6.5t-6.5 15.5zM56 225q0 8 6 14.5t15 6.5t15 -6.5t6 -14.5q0 -10 -6 -16t-15 -6t-15 6t-6 16z" />
    <glyph glyph-name="semicolon" unicode=";" horiz-adv-x="155" 
d="M85 68q10 0 16 -2t8.5 -6.5t3 -10.5t0.5 -13q0 -22 -9.5 -46t-26 -45.5t-37 -35t-44.5 -13.5q0 17 9 37.5t22 42t25.5 42.5t18.5 37q1 3 6.5 8t7.5 5zM58 274l6 1q5 1 7 1q14 0 23 -8t9 -21h-45v27z" />
    <glyph glyph-name="less" unicode="&#x3c;" horiz-adv-x="438" 
d="M6 150q6 7 13 12.5t14.5 11t15.5 10t12 8.5q9 8 27.5 26t41.5 41t48 47l49 49q22 23 40 41.5t27 28.5q4 3 16 19t25.5 35t25.5 35l15 20q8 10 14 13.5t20 3.5q0 -16 -4 -34t-10.5 -35.5t-15 -32.5t-17.5 -24l-260 -275q9 -6 33 -13.5t54.5 -17.5t63.5 -21t60 -23t45 -26
t18 -28q0 -9 -6 -15.5t-16 -6.5l-3 1h-3q-22 9 -53 18.5t-64.5 20.5t-67.5 23.5t-65 26.5t-55 29t-38 32z" />
    <glyph glyph-name="equal" unicode="=" horiz-adv-x="376" 
d="M321 79h-288q2 3 7.5 8.5t7.5 5.5q4 1 13.5 3t20.5 4.5t20.5 4t13.5 1.5q7 1 23.5 1.5t36.5 1t42.5 1t43 1t36 1t23.5 0.5v-33zM60 243h280q0 -5 -3.5 -10t-8.5 -9t-10.5 -5.5t-9.5 -1.5h-275l-13 13z" />
    <glyph glyph-name="greater" unicode="&#x3e;" horiz-adv-x="417" 
d="M49 13q17 21 45 43t60 44t64.5 45t58.5 46t43 47.5t17 48.5q0 11 -2 16.5t-13 10.5l-288 165q-7 5 -12 12t-5 16h44q1 0 16.5 -7.5t39 -19.5t54 -27t60 -29.5t57.5 -29t48 -24.5q8 -5 19.5 -11.5t23 -16t19 -20.5t7.5 -21q0 -19 -12.5 -41t-30 -43.5t-36.5 -39t-32 -27.5
q-4 -2 -16.5 -11.5t-30.5 -22.5t-38.5 -27.5t-40.5 -29t-37.5 -26.5t-27.5 -20q-2 -1 -6.5 -3.5t-9 -4t-7.5 -3.5l-4 -2q-2 0 -6 2t-8 3.5t-8.5 4t-4.5 3.5z" />
    <glyph glyph-name="question" unicode="?" horiz-adv-x="408" 
d="M66 355q-1 2 -2 7.5t-1 7.5q0 24 20.5 43t51.5 35.5t67 33.5t67 37t51.5 45t20.5 58q0 25 -10.5 40.5t-26.5 23.5t-36.5 10.5t-41.5 2.5q-28 0 -54.5 -13t-50.5 -29l-43.5 -29t-31.5 -13q-10 0 -16 6t-6 16q0 17 13 30.5t34 25.5t45.5 20.5t49.5 14t45.5 8.5t32.5 3
q65 0 101.5 -29t36.5 -94v-8v-12.5t-0.5 -12.5t-0.5 -8q-12 -16 -37 -36t-55 -40t-62.5 -40t-59.5 -36.5t-44 -28.5t-17 -18q0 -11 10 -20t18 -14l21 -14q16 -10 33.5 -21t33.5 -20.5t22 -12.5v-3.5v-4.5q0 -9 -5.5 -14.5t-14.5 -5.5q-23 0 -46 11.5t-44 28.5t-38.5 36
t-29.5 33zM288 28q0 -10 -6.5 -19.5t-16.5 -9.5q-11 0 -18 9.5t-7 19.5h48z" />
    <glyph glyph-name="at" unicode="@" horiz-adv-x="951" 
d="M20 376q0 57 11 112.5t33.5 105.5t55.5 92t76 72.5t96.5 47.5t117.5 17q31 0 68 -6.5t74 -20t72.5 -33.5t62.5 -45.5t43.5 -57.5t16.5 -69q0 -31 -9 -66t-27.5 -63.5t-46 -47.5t-64.5 -19q-10 0 -16 5t-11 10.5t-11 10t-15 4.5q-17 0 -34.5 -8.5t-36 -19t-38.5 -19.5
t-41 -9q-51 0 -78 28.5t-27 75.5q0 33 11 57.5t29 41t43.5 24t56.5 7.5t55 -13t41.5 -33t30 -43.5t21.5 -43t16 -32.5t12 -13q17 0 31.5 9.5t27 24t22 33.5t16 38t10.5 36.5t4 28.5q0 38 -17 66t-44.5 48.5t-62.5 34.5t-71.5 22.5t-71 11.5t-61.5 3q-58 0 -105 -16
t-82.5 -44.5t-59.5 -67.5t-40 -84.5t-23 -96t-7 -101.5q0 -88 24 -151t70.5 -103.5t112.5 -59t150 -18.5q29 0 73.5 3.5t93.5 11.5t99.5 22t92.5 35.5t70.5 51.5t35.5 70q3 16 -10.5 31.5t-32.5 28.5t-38 25t-28 24l14 13q4 5 15.5 1.5t25.5 -13t28.5 -23.5t27 -28t20 -28
t7.5 -23q0 -48 -27.5 -84t-72 -63t-99 -45t-109.5 -29t-103 -16t-78 -5q-100 0 -177 21t-130 66t-81 116.5t-28 173.5zM335 457q0 -11 5.5 -21.5t14 -20t19 -15t22.5 -5.5q24 0 49.5 6.5t44.5 20t30 34t7 51.5q-2 20 -9.5 33.5t-19 21t-27 10.5t-33.5 3q-27 0 -46 -9
t-32 -24.5t-19 -37t-6 -47.5z" />
    <glyph glyph-name="A" unicode="A" horiz-adv-x="657" 
d="M8 9q0 16 6.5 31.5t15.5 30t19.5 27.5t18.5 24q49 71 87 139.5t70 139t60 144t57 152.5q4 9 8.5 12.5t12.5 3.5q10 0 17 -9.5t10.5 -21.5t5 -23.5t1.5 -15.5q1 -7 2 -26.5t2 -46t2.5 -57.5t3 -57.5t2 -46t1.5 -27.5q0 -3 2 -11t4 -16.5t4.5 -16.5t4.5 -10q0 -1 4.5 -5
t9.5 -8.5t9 -8.5t4 -5q1 -2 1 -10t-0.5 -17t-0.5 -17.5v-9.5q5 -18 20 -41t35 -48t42 -49t40 -43t30 -31.5t12 -14.5q0 -10 -8.5 -15t-20.5 -5q-23 0 -47.5 18t-47.5 45.5t-44.5 59.5t-37.5 59.5t-27.5 46t-14.5 18.5h-163q-27 0 -45 -18t-32 -44.5t-25.5 -57t-26.5 -57
t-34 -44t-49 -17.5zM342 588q-1 -1 -3 -5l-4 -8t-4.5 -8.5t-2.5 -5.5q-8 -17 -17.5 -43t-20.5 -53l-21 -54q-10 -27 -18 -48t-13 -34.5t-5 -14.5v-13h138z" />
    <glyph glyph-name="B" unicode="B" horiz-adv-x="472" 
d="M41 534q1 39 17 59.5t40.5 28.5t55.5 8.5t64 0.5q29 0 50 -4.5t35 -16.5t20.5 -31t6.5 -49q0 -40 -19.5 -67t-50.5 -53q22 -18 45 -25t44.5 -11t40.5 -9t33 -17.5t22.5 -37.5t8.5 -68q0 -54 -22.5 -98.5t-59 -76.5t-85.5 -50t-103 -18q-4 0 -11 0.5t-8 0.5q-14 4 -35 9.5
t-41 12.5t-34 12t-14 6l-13 69zM255 357h-19q-14 0 -31.5 -1t-37 -4t-35 -7.5t-26.5 -12t-11 -18.5v-259q0 -2 3.5 -4t8.5 -4.5t9 -4t7 -2.5h6h10.5h12.5h11q46 0 88 10.5t75.5 33.5t53 59t19.5 87q0 38 -8.5 63t-26.5 39t-45.5 19.5t-63.5 5.5zM209 589q-11 0 -30.5 0.5
t-38 -2.5t-32 -12t-13.5 -28v-167q24 0 55 12.5t59.5 33t47.5 46.5t19 53q0 37 -15 50.5t-52 13.5z" />
    <glyph glyph-name="C" unicode="C" horiz-adv-x="541" 
d="M20 252q0 80 24 151.5t59 143.5q17 20 29 33t25.5 21t30 11.5t40.5 3.5q23 0 52.5 -6.5t56 -20.5t44.5 -35.5t18 -51.5q-20 0 -40.5 13.5t-42 29.5t-47 29.5t-58.5 13.5q-21 0 -40 -18.5t-34.5 -48t-27 -65.5t-19 -71t-11.5 -65t-4 -47q0 -55 17 -98.5t48 -73t75.5 -45.5
t99.5 -16q38 0 67.5 9t51.5 19.5t36.5 19t21.5 8.5q8 0 13 -3.5t7 -9t3 -12t1 -13.5q0 -18 -14 -29.5t-35.5 -18t-48.5 -9.5t-52.5 -3t-47.5 0.5t-34 0.5q-56 0 -104.5 18.5t-84 52t-55.5 79.5t-20 103z" />
    <glyph glyph-name="D" unicode="D" horiz-adv-x="561" 
d="M41 55v520q0 14 8.5 23t21 13.5t28.5 6t32 1t29.5 -1.5t22.5 -1q43 0 85.5 -8.5t82.5 -25.5t73.5 -41t58.5 -57t39.5 -73t14.5 -88q0 -47 -19.5 -89.5t-53 -78.5t-77 -65t-91 -49t-96 -31t-90.5 -11q-22 0 -43 8.5t-39 20.5zM95 501q0 -56 1.5 -115.5t3.5 -119.5
t4.5 -117t5.5 -109h3h4q35 0 76 9t81.5 26.5t78 41.5t65.5 54.5t45.5 66.5t17.5 76q0 65 -28.5 115t-74.5 82.5t-104.5 49.5t-118.5 17q-5 0 -11.5 -0.5t-14 -1t-12.5 -1t-7 -0.5l-15 -14v-8v-16.5v-19.5v-16z" />
    <glyph glyph-name="E" unicode="E" 
d="M27 314q0 30 0.5 53t2 45.5t4.5 47.5t7 59q41 15 74.5 24t66 14t66 6.5t72.5 1.5q7 0 19 -0.5t24 -1.5t22 -1t13 -1l27 -14l-15 -13q-7 1 -26.5 1h-41.5h-41t-27 -1q-14 -2 -34 -5.5t-41.5 -7.5t-42 -8.5t-37 -8.5t-27 -7t-10.5 -5v-178h265q0 -10 -15.5 -16t-41 -10.5
t-55 -8t-58 -6t-50.5 -5.5t-32 -8v-16.5t-0.5 -24.5t-0.5 -26v-16q0 -17 -0.5 -40.5t2.5 -45t14.5 -36.5t36.5 -15q34 0 67.5 2t67.5 4.5t67.5 5.5t67.5 3h21q-7 -10 -18 -20t-24.5 -17.5t-27 -12.5t-26.5 -5h-219q-31 0 -50.5 18.5t-30.5 47.5t-14.5 64.5t-4 71t1.5 65.5
t2 47z" />
    <glyph glyph-name="F" unicode="F" horiz-adv-x="479" 
d="M61 13q-9 63 -16 136t-12.5 148.5t-8.5 148t-3 136.5v6q1 1 2.5 5.5t3.5 8.5l4 8l3 6q48 -2 94.5 -0.5t92.5 5.5t92 7t93 3h11q5 0 11.5 -0.5t11 -0.5h5.5l14 -14l-14 -14q-1 -1 -16 -2.5t-38.5 -4t-53 -5.5t-60 -6t-58 -5.5t-48.5 -3.5q-25 -2 -41.5 -0.5t-25.5 -1
t-12.5 -13.5t-3.5 -37v-11q0 -6 0.5 -13.5t0.5 -13.5v-6q1 -14 3 -34l4 -40t4.5 -34.5t2.5 -15.5l14 -13h249q0 -17 -10 -23t-24.5 -7t-28.5 1t-22 1q-7 0 -19.5 -1t-28.5 -2t-34 -2.5t-34.5 -3t-29.5 -3t-18 -1.5q-3 -3 -8 -13.5t-6 -13.5v-14q0 -9 1.5 -27.5t3 -41t3 -48
t2.5 -48t2 -41t2 -26.5q-3 -5 -8.5 -9.5t-11 -8.5t-12 -7t-9.5 -3q-4 0 -9.5 5t-5.5 8z" />
    <glyph glyph-name="G" unicode="G" horiz-adv-x="746" 
d="M492 95q-5 -4 -21.5 -12.5t-34.5 -17t-35 -16t-25 -9.5h-7q-7 0 -17 -0.5t-20 -0.5h-16q-57 0 -110.5 18.5t-95.5 54t-66.5 85.5t-24.5 112q0 33 6 74t18 83t31 81.5t46 70.5t62 50t79 19q24 0 52.5 -9t53 -26t41 -40t16.5 -51h-21q-19 22 -32.5 38t-28 26t-32.5 14.5
t-44 4.5q-33 0 -60 -14.5t-48.5 -39t-37.5 -56t-25.5 -65t-15 -65.5t-5.5 -58q0 -54 14.5 -101.5t43.5 -84t72 -58t99 -21.5q47 0 79 8.5t55.5 27.5t41 51t35.5 79l-28 13q-42 -6 -77.5 -10t-75.5 -4q-5 0 -10.5 -0.5t-11.5 0.5t-11 4t-6 10q4 8 14.5 14.5t24 11t29 7
t29.5 4.5t25 3t15 1q11 0 33.5 1t51 1.5t60.5 1.5t61 1t52 0.5t34 0.5q0 -1 -0.5 -9t-2.5 -18.5t-5.5 -18.5t-9.5 -8h-137q-9 0 -12 -16.5t-2.5 -42t2 -55t0 -56t-8 -46.5t-20.5 -24q-10 -1 -21 -3l-14 -1v86z" />
    <glyph glyph-name="H" unicode="H" horiz-adv-x="519" 
d="M41 274q-6 9 -10 16.5t-4 18.5q0 7 2.5 11t11.5 8v324q17 0 28.5 -9t12.5 -27l28 -274h288l12 13q1 1 3 20.5t4 45t4.5 53.5t3.5 45v22.5v33v33.5v22l27 27q2 0 7.5 -5.5t5.5 -8.5q2 -4 4 -14t4.5 -20.5t4 -20t1.5 -13.5q1 -8 1 -26v-130q0 -21 -0.5 -38t-0.5 -26
q7 -9 10.5 -16.5t3.5 -17.5t-3.5 -17t-10.5 -17v-219q0 -5 -3 -8t-7.5 -4.5t-8.5 -1.5h-8q-3 0 -9 0.5t-11.5 2t-10 4t-4.5 7.5v206l-19 27l-288 -14l-28 -274q0 -1 -3 -3.5t-7.5 -4t-9 -3.5t-7.5 -2t-8.5 5t-5.5 8v261z" />
    <glyph glyph-name="I" unicode="I" horiz-adv-x="109" 
d="M49 697q3 -2 7.5 -7t8.5 -11t7.5 -12t3.5 -10v-644q0 -3 -5.5 -8t-9.5 -5q-3 0 -7.5 2t-9 3.5t-7.5 4t-3 3.5v657z" />
    <glyph glyph-name="J" unicode="J" horiz-adv-x="602" 
d="M21 122q0 3 1.5 7t3.5 8.5t4.5 8t3.5 4.5q9 -30 27.5 -51.5t42.5 -34.5t52 -18.5t56 -5.5t46.5 10t35.5 32q11 35 17 61.5t8.5 51.5t3 52t0.5 59v22q0 15 -0.5 30t-0.5 26v13q-2 16 -3.5 38.5t-5 47t-6.5 48t-5.5 42.5t-4.5 31t-3 12h-245v27q0 1 5.5 3.5t14.5 4.5
t18.5 4t15.5 2h10h21.5h25.5h20q15 0 52 1t82.5 0t94 -4t89 -11t66 -21.5t25.5 -33.5h-224q0 -78 6 -155t6 -154q0 -30 -1.5 -62.5t-6.5 -63.5t-16 -58.5t-29 -49t-45.5 -34t-66.5 -12.5q-26 0 -59 6.5t-62.5 21t-49.5 38t-20 57.5z" />
    <glyph glyph-name="K" unicode="K" horiz-adv-x="616" 
d="M41 561q-8 26 -12 54t-4 55h43q1 0 4.5 -12.5t8 -29.5t9 -36t5.5 -31q2 -9 4.5 -32t4.5 -49.5t4 -50t2 -32.5h27q1 0 13.5 7.5t30 18.5t36 22.5t30.5 19.5q46 32 90.5 66t87.5 71h27v-14q0 -1 -9.5 -10.5t-22.5 -23t-27 -26.5t-23 -21q-13 -11 -34.5 -26t-47.5 -31
t-53 -33t-49 -32.5t-36 -28t-14 -20.5v-5t1 -3l83 -95l205 -129q26 0 46 -2.5t39.5 -6t41 -7t51.5 -6.5v-3v-3q0 -8 -2.5 -13t-11.5 -8q-3 0 -10 -1t-14.5 -1.5t-14 -0.5h-9.5q-51 0 -101 15.5t-98.5 39.5t-93 54t-83.5 59q-14 8 -19 13.5t-7.5 10t-8 8.5t-20.5 8
q0 -4 0.5 -13.5t0.5 -21t-0.5 -21t-0.5 -12.5q-1 -13 -2.5 -29t-3 -34.5t-2.5 -36.5t-2.5 -32t-3.5 -24l-1 -8l-27 -28l-27 28v533z" />
    <glyph glyph-name="L" unicode="L" horiz-adv-x="651" 
d="M116 28q-13 0 -23.5 -3t-22 -6t-22.5 -5.5t-23 -2.5q0 33 3 63.5t13 62.5v506h27q1 0 3.5 -10t5 -27t5.5 -37.5t5.5 -41.5t4.5 -41.5t3 -33.5l3 -42t3.5 -63t3 -73.5t3 -73.5t2 -63t0.5 -42q4 -11 27 -19.5t57 -15t73 -10.5t74.5 -6.5t63.5 -3t38 -0.5q24 0 46 6.5
t44 14.5t44.5 15t46.5 7q9 0 14 -6t5 -16q0 -12 -17 -21.5t-43.5 -16.5t-58.5 -12t-63 -7.5t-55 -3.5t-36 -1q-33 0 -64.5 4.5t-63 10.5t-63 10t-63.5 4z" />
    <glyph glyph-name="M" unicode="M" horiz-adv-x="712" 
d="M89 588l28 28l27 -28l122 -301h3q2 -1 4 -1q14 0 21 15l109 218l78 79l33 -64q5 -47 10 -105.5t14.5 -120t26 -120.5t43.5 -106q9 -15 20.5 -23.5t22.5 -14t21.5 -12.5t18.5 -19q-3 -12 -13.5 -13t-19.5 -1q-32 0 -59.5 20t-48 49.5t-34 63t-17.5 60.5q-1 11 -5 35.5
t-8 55.5t-8.5 65.5t-8.5 65.5t-6.5 56t-3.5 37q-30 -25 -53.5 -63.5t-41.5 -81.5t-31.5 -85t-23.5 -72q-4 -12 -15 -13.5t-20 -1.5q-3 0 -10.5 0.5t-9.5 1.5q-37 60 -63 126.5t-47 133.5l-14 13q-2 -14 -6 -44t-9.5 -68t-11.5 -79.5t-11.5 -79t-10 -68t-5.5 -44.5
q-4 -18 -10.5 -41.5t-16.5 -40.5q-5 2 -9.5 7.5t-9 11.5t-7.5 12t-2 9z" />
    <glyph glyph-name="N" unicode="N" horiz-adv-x="561" 
d="M349 40q-35 52 -70 108.5t-67.5 116t-60.5 120.5t-48 122h-16v-27.5t1 -41t1 -41.5v-27q-1 -13 -1.5 -37t-1.5 -55t-2.5 -65.5t-3.5 -65.5t-3 -55.5t-1 -36.5q-3 -5 -8 -9.5t-11.5 -8.5t-12 -6.5t-10.5 -2.5q-6 0 -9 4.5t-4 10.5t-1 12v9q0 61 3 121l6 120t5 121t0 121
q13 25 26.5 33.5t34.5 8.5h11t11 -1q31 -68 61.5 -129t61.5 -119.5t64 -115.5t72 -115l7 -7t8 -7q0 13 0.5 38.5t2 58.5t3 68t2.5 68t2.5 58.5t1.5 38.5q2 18 5 45.5t9.5 58.5t16 61.5t23.5 55t32 40.5t42 16q0 -23 -7 -44t-17 -40t-22.5 -37.5t-22.5 -38.5t-17 -42t-7 -48
v-439l-4 -2q-4 -2 -9.5 -4l-11 -4t-10.5 -3h-2q-3 -1 -4 -1h-4q-1 0 -2 1q-3 2 -9 7.5t-12.5 12t-12.5 13t-8 7.5z" />
    <glyph glyph-name="O" unicode="O" 
d="M20 182q0 32 4 74t13.5 86t25 86.5t39 75t55.5 53t73 20.5q57 0 93.5 -23.5t57.5 -61t29.5 -84t8.5 -93.5q0 -60 -12 -117t-40.5 -101.5t-74 -71t-115.5 -26.5q-44 0 -73.5 14.5t-48.5 38.5t-27 58t-8 72zM75 197q0 -31 4 -60t16.5 -50t35.5 -34t62 -13q54 0 90 23t57 60
t29.5 83t8.5 92q0 12 -0.5 33t-3 45t-7.5 50t-14 46.5t-24 33.5t-35 13q-48 0 -83.5 -11t-60 -32.5t-39.5 -51t-23 -65t-10.5 -77t-2.5 -85.5z" />
    <glyph glyph-name="P" unicode="P" horiz-adv-x="457" 
d="M36 614q1 1 5.5 3t6.5 2q5 0 10 -2q0 2 -1 2q-2 5 -2 6q0 16 9.5 24.5t23.5 13.5t31 6t32.5 1t28.5 -1t18 -1q24 0 53.5 -1t57.5 -5t54.5 -12.5t46.5 -24t32 -39t12 -56.5q0 -36 -9 -65.5t-34 -58.5q-29 -19 -62.5 -39.5t-69.5 -35.5t-74 -25t-75 -10q-5 0 -13 0.5
t-16 2.5t-13.5 6.5t-5.5 12.5v3.5t1 3.5q32 -2 64.5 5t64 19.5t61 27t55.5 29.5q9 5 20.5 13t22.5 17t19 16.5t8 9.5v109q0 1 -3.5 5t-8 8.5l-9 9t-7.5 4.5q-26 13 -47.5 19.5t-42.5 9t-44 2.5h-52q-7 0 -18.5 -0.5t-23.5 -1t-21 -1t-11 -1.5l-37 -24q2 -5 3 -12q1 -8 1 -16
v-520q0 -1 -5 -7t-9 -7q-2 -1 -8 -3.5t-12.5 -4t-12 -3.5t-8.5 -3v520z" />
    <glyph glyph-name="Q" unicode="Q" horiz-adv-x="526" 
d="M20 191q0 25 5.5 65t16 86t27 92.5t39.5 84t53 61t67 23.5q56 0 101.5 -20.5t77.5 -55.5t49 -82.5t17 -102.5q0 -23 -4.5 -43t-10 -40.5t-10 -40.5t-4.5 -43q0 -18 8 -30t18.5 -22.5t19 -23t9.5 -31.5q-1 -1 -9.5 -1.5t-10.5 -0.5q-14 0 -22.5 7t-16 15.5t-15.5 16
t-22 7.5q-1 0 -6 -1t-6 -2q-27 -27 -54.5 -47.5t-57 -34.5t-62 -21.5t-70.5 -7.5q-37 0 -62 18.5t-39.5 47t-20 62t-5.5 65.5zM74 208q0 -29 2.5 -56.5t12 -49.5t29.5 -35.5t55 -13.5q31 0 57 6.5t48.5 18.5t43 30t41.5 42l-97 97v23q22 0 37.5 -5t28.5 -14.5t26.5 -21
t32.5 -24.5q17 10 25.5 26t12 34t4 37t0.5 35q0 41 -10 83.5t-31 77t-55.5 56.5t-83.5 22q-36 0 -63 -20.5t-47.5 -53t-33.5 -73.5t-20.5 -82t-11 -78t-3.5 -61z" />
    <glyph glyph-name="R" unicode="R" horiz-adv-x="623" 
d="M34 547q-9 13 -11.5 21t-2.5 20q0 21 12 38t31 29.5t42.5 20.5t47.5 13.5t46 7.5t39 2q66 0 96 -28t30 -95q0 -89 -43 -144.5t-123 -89.5v-3v-3q0 -32 23 -58.5t60 -47.5t82.5 -37.5t89.5 -27t82 -14t61 -1.5l12 -13q-5 -12 -17.5 -18.5t-27.5 -8.5t-30 -1.5t-25 0.5
q-52 0 -104 14t-100 39.5t-89.5 60.5t-70.5 78h-27v-296q-19 0 -27 7.5t-11 19t-3 25v25.5q-2 18 -5.5 54.5t-7.5 82t-8.5 96t-8.5 96.5t-7 82.5t-5 53.5zM103 397q9 -18 17 -23t22 -5q34 0 67 16.5t58 42.5t40 59.5t15 66.5q0 17 -2 35.5t-9.5 34t-21 25t-33.5 9.5
q-27 0 -56.5 -3t-54 -13.5t-41 -28.5t-16.5 -48q0 -23 1 -42.5t2.5 -39t4.5 -40.5t7 -46z" />
    <glyph glyph-name="S" unicode="S" horiz-adv-x="479" 
d="M34 137q0 8 7.5 11t13.5 3q5 0 15.5 -7.5t26 -18.5t34 -23.5t40 -23.5t43.5 -18.5t44 -7.5q33 0 60 8.5t46 25.5t30 43t11 60q0 57 -16.5 89.5t-43.5 50t-62 24t-71 11t-71 11.5t-62 24.5t-43 51t-16 92.5q0 28 3 56t14.5 50.5t32 36t53.5 13.5q19 0 42 -6.5t43 -19
t33.5 -30.5t13.5 -41q0 -2 -0.5 -7.5t-0.5 -6.5l-28 31.5t-25 22t-28.5 12.5t-38.5 4q-22 0 -36 -7.5t-22.5 -21t-12 -31t-3.5 -36.5q0 -54 16.5 -84.5t44 -47t62 -23.5t71 -12t71 -14t62 -30t43.5 -58t16 -100q0 -51 -14.5 -88t-42 -60t-67.5 -34.5t-92 -11.5
q-10 0 -29 5.5t-40.5 15.5t-44 23t-40.5 28t-30 32t-12 34z" />
    <glyph glyph-name="T" unicode="T" horiz-adv-x="663" 
d="M28 643l-15 14q7 8 19.5 17t22.5 10q9 2 32.5 3.5t49.5 4.5t49.5 4t33.5 1q16 0 48.5 1t74.5 1.5t88 1t88 1t75 1t49 0.5v-33q-10 0 -32 -1t-49 -2.5t-56.5 -3t-56.5 -2.5t-48 -2.5t-31 -1.5q-6 0 -19.5 -2.5t-29 -4t-29 -4.5t-18.5 -3q0 -5 -0.5 -20t-1 -31t-0.5 -31
v-20q0 -60 5 -117.5t10.5 -115t10.5 -115.5t5 -117v-13t-0.5 -15.5t-0.5 -13.5l-1 -6l-27 -28q-13 6 -18.5 18t-7 26t-1.5 27.5v23.5q-1 17 -3.5 44.5t-5 64.5t-6 79t-7 86t-6 86.5t-5.5 79t-5.5 64.5t-3.5 44h-177z" />
    <glyph glyph-name="U" unicode="U" horiz-adv-x="670" 
d="M363 192q-26 -20 -46 -46t-41 -49.5t-47.5 -40t-64.5 -16.5q-29 0 -50.5 18.5t-37.5 49t-26 67.5t-16 74t-9 69t-4 52q0 7 -0.5 23t-1 36.5t-1.5 43t-1 42.5t-0.5 36t-0.5 24h45q1 -11 3 -33.5t4.5 -50.5t5.5 -59.5t6.5 -60t5 -51t3.5 -33.5q3 -24 7 -57t14 -63.5
t28.5 -51.5t48.5 -21q16 0 27.5 2.5t22 9t20.5 17t24 27.5q3 6 12.5 22.5t21 36t21 38t13.5 27.5q4 24 4 59.5t-1 73t-0.5 72.5t6.5 58.5t20 31.5t39 -8v-30.5t-0.5 -46t0 -53.5t0.5 -54v-47v-29q1 -20 3 -46t7 -53.5t13.5 -54t23.5 -47.5t35.5 -34t49.5 -13q24 0 45 1.5
t42 13.5q1 -1 2.5 -6.5t1.5 -6.5q0 -17 -12 -26t-29 -12.5t-34.5 -4t-27.5 -0.5q-36 0 -66.5 14.5t-54 39t-37.5 57t-16 69.5z" />
    <glyph glyph-name="V" unicode="V" horiz-adv-x="514" 
d="M205 28q-23 48 -50 107.5t-53 122.5t-49.5 127t-39.5 122q4 10 12.5 12.5t18.5 2.5q3 0 7 -1t4 -2l178 -410l3 -1l2 -1q8 0 17 22.5t19.5 59.5t23 83.5t27 96t31.5 96t35 83.5t38 59.5t43 22.5q7 0 12 -2.5t8 -11.5q-3 -8 -11 -21.5t-17.5 -31t-19.5 -36.5t-19.5 -37
t-17 -31.5t-10.5 -20.5q-26 -50 -41 -103t-28.5 -107t-28.5 -108t-39 -107q-1 -1 -4.5 -4t-7.5 -5t-8.5 -3.5t-6.5 -0.5q-3 1 -7.5 4t-9 7.5t-7.5 9t-4 7.5z" />
    <glyph glyph-name="W" unicode="W" horiz-adv-x="684" 
d="M13 541q0 9 6 15t15 6q7 0 12.5 -5t9.5 -12t7.5 -13.5t4.5 -12.5l110 -354l14 12l82 342l37 38l168 -352l28 -28l13 28q2 13 6 39.5t9 60t11 71.5t11.5 71.5t10 60.5t7.5 39q1 8 6.5 28t12 41.5t12.5 41t10 26.5q0 2 4.5 4t9 4.5t8 3.5t5.5 1q7 0 10 -4t4.5 -9t1.5 -12
v-8q0 -14 -2.5 -25t-13.5 -23l-96 -521q-3 -14 -16.5 -21.5t-25.5 -7.5q-3 0 -7.5 0.5t-5.5 1.5l-177 342l-14 15q-3 -14 -9.5 -43t-14.5 -65.5t-16.5 -77t-16.5 -77t-15 -65.5t-9 -42q-2 -6 -4 -15t-6 -18t-10.5 -16t-15.5 -7q-6 0 -11.5 3t-7.5 11l-152 521v3.5v3.5z" />
    <glyph glyph-name="X" unicode="X" horiz-adv-x="507" 
d="M265 261h-2l-3 -1l-205 -232h-42v27q6 5 16.5 17t24.5 26.5t29 31t28 31t24 26.5t15 18q10 11 23.5 29t27 35.5t23 30.5t9.5 14v28l-96 205q-1 1 -1 6v7q0 10 1.5 17t12.5 11q16 -9 28 -27t21.5 -39.5t18 -44t17.5 -40.5t20 -29.5t26 -11.5q1 0 4 1h2q5 7 14.5 22.5
t22 34t26 39.5t25.5 40t21.5 33.5t13.5 21.5q13 18 25 26t33 8q0 -11 -0.5 -18t-2.5 -14t-5 -13.5t-8 -15.5q-6 -8 -16.5 -25.5t-24 -39t-28.5 -45.5t-28.5 -45.5t-24.5 -38.5t-15 -25v-14l164 -288q1 -1 1.5 -5.5t0.5 -6.5q0 -6 -1 -11.5t-4.5 -10.5t-9 -7.5t-14.5 1.5
q-21 8 -37.5 30.5t-31.5 52t-28 61t-27 57.5t-29 43t-34 17z" />
    <glyph glyph-name="Y" unicode="Y" horiz-adv-x="458" 
d="M12 636q0 7 0.5 12.5t2.5 11t6.5 8t12.5 2.5q7 0 12 -2.5t9 -10.5l82 -178h28q5 7 17.5 21t29 31.5t34 37t33.5 37t29.5 31t19.5 20.5q6 5 16.5 15.5t24 21t28 18t28.5 7.5v-35l-220 -232q-18 -19 -23 -33.5t-5 -34.5q0 -47 3 -95t6.5 -96t6 -96t2.5 -97h-30
q-5 0 -8 24.5t-6 64t-6.5 85.5t-6.5 88.5t-6.5 75.5t-9.5 44q-1 5 -7 19t-14 32.5t-18 38.5t-18.5 38.5t-15 32t-8.5 18.5q-3 7 -8 16.5t-9.5 19.5t-8 20t-3.5 19z" />
    <glyph glyph-name="Z" unicode="Z" horiz-adv-x="760" 
d="M24 87q0 19 11 32.5t28 23t38.5 16.5t43.5 13.5t41.5 14t33.5 18.5q10 9 26.5 24.5t31.5 30.5t26 27t11 14v20h-110l-13 34q1 2 5 4.5t8 4t8 4t7 2.5q6 1 24 1h74q18 0 24 -1l41 40v151q0 1 -10.5 4t-26 4.5t-32 3.5t-27.5 2q-25 0 -48 -6.5t-45.5 -15.5t-45.5 -15.5
t-47 -6.5q0 21 13.5 35.5t33.5 24t46 15t51 8t46 2.5h34q30 0 51.5 -4.5t35.5 -16.5t20.5 -31.5t6.5 -48.5q0 -38 -6 -73t-6 -72h220q0 -2 -0.5 -9.5t-2.5 -16t-5.5 -16t-8.5 -7.5h-233q-23 -27 -47.5 -55t-52.5 -53.5t-58 -49t-61 -41.5q42 -24 88.5 -37.5t94.5 -20.5
t96.5 -9t96.5 -2h21q14 0 30.5 0.5t31.5 1t20 0.5q11 2 19.5 7l17 10t17 9t18.5 4q0 -14 -2.5 -27t-9 -23t-18 -16t-29.5 -6h-26.5h-41t-42 -0.5t-26.5 -0.5h-60.5t-57 0.5t-57 4t-58.5 11.5q-6 1 -23.5 6t-39.5 11.5t-42.5 13t-30.5 9.5q-2 0 -6 2.5l-8 5t-8.5 4.5t-5.5 2
q-7 1 -23 2t-34 1.5t-33.5 1t-22.5 0.5z" />
    <glyph glyph-name="bracketleft" unicode="[" horiz-adv-x="431" 
d="M47 -40q1 40 1.5 96.5t0.5 122.5v137v137t-0.5 123t-0.5 94v14q0 8 0.5 16t0.5 13.5v6.5l14 13h328q0 -2 -5.5 -7t-8.5 -6q-28 -8 -63 -11.5t-70 -4.5t-68.5 0.5t-58.5 1.5l-14 -13v-8.5v-18v-21.5v-17q0 -33 -1 -83.5t-2 -110.5t-1.5 -123.5t-1 -124t0 -112.5t3.5 -87
q6 -1 22 -3.5t33.5 -4.5t32 -3.5t21.5 -1.5q4 0 17.5 1.5t29.5 4.5l31 6q14 1 18 1q6 1 22 1.5t33.5 1t32.5 1t21 0.5v-31l-11 -1q-11 -2 -26 -4.5t-31.5 -4.5t-27.5 -3h-13q-4 -1 -18 -3.5t-30.5 -4.5t-30 -4t-17.5 -2q-16 0 -40.5 1.5t-48.5 4t-42 4.5t-19 4z" />
    <glyph glyph-name="backslash" unicode="\" horiz-adv-x="314" 
d="M13 492q0 4 5.5 9.5t9.5 5.5l40 -42q7 -13 22 -41t34 -63t39.5 -73.5t39.5 -73.5t34 -63.5t23 -41.5q8 -15 16 -28t14.5 -26t10 -27t3.5 -33q-20 0 -37.5 15t-32.5 38t-28.5 52.5t-25.5 58.5t-22.5 55.5t-20.5 45.5q-3 5 -11.5 19.5t-20 34.5t-24 42t-23.5 42t-19 34
t-11 20q-2 2 -4 8t-4.5 13t-4.5 12t-2 7z" />
    <glyph glyph-name="bracketright" unicode="]" horiz-adv-x="492" 
d="M21 -42q0 1 5 5.5t8 6.5q2 1 8 3.5t12.5 4t12.5 3.5l9 3q9 2 31 5.5t49 7.5t56.5 8.5t56.5 8.5t48 7t32 4l14 27l-27 547q0 1 0.5 5t0.5 9.5v10.5v17v11t-0.5 10.5t-0.5 5.5q0 4 -5.5 12t-8.5 8h-260v20q49 6 96.5 10.5t96.5 4.5q17 0 30 -0.5t26.5 -2.5t28.5 -4.5
t36 -7.5q0 -2 0.5 -11t1 -19t1 -18.5t0.5 -13.5t-1 -15l-1 -20q0 -9 -0.5 -16.5t-0.5 -9.5q-3 -19 -3 -54t2.5 -79t5.5 -95t6.5 -101t7 -96t5.5 -82t3.5 -57.5t-0.5 -22.5l-12 -14q-92 0 -181 -14t-176 -40q-1 1 -3.5 5t-4.5 8t-3.5 8t-1.5 7z" />
    <glyph glyph-name="asciicircum" unicode="^" horiz-adv-x="595" 
d="M204 659q2 3 9 18t15.5 35.5t18.5 43t20 40.5t18.5 31t15.5 13q1 0 6 -1.5t7 -2.5q0 -4 1.5 -13.5t3.5 -20.5t4.5 -21t4.5 -13q2 -6 9 -22t16 -37t19 -44.5t20 -46t18.5 -41t13.5 -28.5q21 -33 25.5 -46t-3 -12t-23 14.5t-35.5 34.5t-39.5 46t-33.5 50t-21 47
q-4 16 -2 28q-6 -13 -15 -32q-12 -25 -26.5 -53t-30.5 -55t-28.5 -46t-20.5 -26.5t-8.5 5.5t9.5 49.5t32 105.5zM295 719q-2 -4 -3 -7z" />
    <glyph glyph-name="underscore" unicode="_" horiz-adv-x="614" 
d="M33 41h145q53 0 87 0.5t55 1.5t33.5 1.5t23.5 1t24 0.5t36 -0.5t59 -2t92 -3.5l7 -36l-575 8z" />
    <glyph glyph-name="grave" unicode="`" horiz-adv-x="381" 
d="M190 733q3 -9 19 -27.5t34.5 -40.5t35.5 -43.5t24 -36.5q8 -16 3 -19.5t-18.5 1t-32 17.5t-38 28.5t-36.5 33.5t-27 34t-10 28.5t13 17.5z" />
    <glyph glyph-name="a" unicode="a" horiz-adv-x="575" 
d="M19 111q0 38 9.5 81t26.5 84.5t41.5 78.5t53.5 65.5t63 45.5t71 17q8 0 23.5 -3.5t31.5 -9t28 -13.5t12 -16l-173 -22q-19 0 -36 -18.5t-31.5 -47t-26 -64t-20 -69.5t-13 -62t-4.5 -42v-10q0 -6 0.5 -13.5t0.5 -15.5v-9q0 -2 4 -6l17 -16q4 -5 6 -6h3h3q23 0 44.5 12
t40 29t34 36.5t26.5 32.5q6 7 9.5 30.5t7 54t7.5 65t10 63t14.5 46.5t21.5 18h4h2q0 -5 0.5 -25t1 -47.5t1 -58.5t0.5 -58.5t1 -47.5t2 -25q0 -5 5 -14.5t11 -18.5t13 -16t11 -7h170q0 -11 -9.5 -19t-23.5 -14t-31 -10.5t-33 -7t-30 -3.5t-21 -1q-40 0 -67 18t-50 50
q-13 -16 -30.5 -36t-39 -38.5t-46 -31.5t-48.5 -16q-31 -4 -49.5 4.5t-29.5 23.5t-15 36.5t-4 46.5z" />
    <glyph glyph-name="b" unicode="b" horiz-adv-x="472" 
d="M41 13q-1 18 -1.5 55.5t-2 85t-3 100t-2.5 99.5t-2.5 84t-1.5 55v15q0 6 2 21.5t4 33t4 32.5t3 22h3h5q9 0 13.5 -9t5.5 -19l27 -301l15 -13q45 53 102 75t126 22q26 0 47.5 -11t36.5 -29t23.5 -41.5t8.5 -48.5q0 -50 -18.5 -88t-49 -64.5t-70.5 -43.5t-83 -27.5
t-87.5 -14t-84.5 -3.5q-7 0 -10.5 2t-9.5 11zM95 68q2 -8 8.5 -11t14 -4t14.5 -0.5t11 0.5q46 0 91.5 9t82 30.5t59 57.5t22.5 90q0 24 -11.5 42.5t-31.5 31.5q-3 0 -11 0.5t-18 1t-19 1t-13 0.5q-58 0 -94.5 -20.5t-58.5 -54t-31.5 -78.5t-14.5 -96z" />
    <glyph glyph-name="c" unicode="c" horiz-adv-x="514" 
d="M19 156q0 28 6 63.5t18 72t29 71.5t39 62t49 43.5t60 16.5h25q18 0 35 -3.5t29.5 -12.5t12.5 -26h-140q-14 0 -27 -17t-24.5 -42.5t-22 -56.5t-17.5 -60t-11.5 -51.5t-4.5 -31.5q0 -30 7.5 -56.5t22.5 -46t38 -30.5t54 -11q36 0 68.5 9t60.5 22t52.5 28t45 28t36.5 21.5
t30 8.5q0 -31 -18 -55.5t-45 -42t-62 -29t-71 -18.5t-68.5 -10t-55.5 -3q-34 0 -62.5 11.5t-48 33t-30 50t-10.5 62.5z" />
    <glyph glyph-name="d" unicode="d" horiz-adv-x="623" 
d="M287 150q-11 -11 -25.5 -27t-29.5 -33.5t-32.5 -35t-35 -31.5t-35 -22t-35.5 -8q-22 0 -38.5 8t-28 23t-17.5 33.5t-6 37.5q-3 26 2.5 63t19 77.5t33.5 80t45 71.5t54 51t60 19q12 0 21.5 -0.5t19 -2t19 -4.5t23.5 -7q8 9 11 18.5t3.5 20t-0.5 21.5t-1 22q0 9 1.5 28
t2.5 43.5t2.5 51.5t3 51.5t3 43.5t1.5 28l3 1h5q7 0 11.5 -3t7.5 -12q3 -16 2.5 -56t-2.5 -94t-4.5 -118t-3 -127.5t3.5 -123t14 -104t27.5 -70.5t45.5 -24q9 1 29 8t42.5 15t44 14.5t35.5 6.5q1 0 6 -1t7 -1q-18 -18 -40 -33.5t-47 -26.5t-52 -17.5t-52 -6.5
q-29 0 -51.5 14t-38 36t-24.5 49t-10 53zM233 417q-43 -14 -76 -45t-57 -69t-38 -80t-18.5 -79.5t-0.5 -66t18 -38.5q29 0 58 14t55.5 37t49.5 54t40.5 64t27 67.5t9.5 64.5v9v15v14.5v8.5q-4 13 -11.5 19.5t-17 9t-20.5 2t-19 -0.5z" />
    <glyph glyph-name="e" unicode="e" horiz-adv-x="461" 
d="M39 301q0 46 10.5 85.5t33.5 67.5t59.5 44t86.5 16q29 0 50.5 -5t36 -17.5t21.5 -33t7 -50.5q0 -31 -12.5 -52.5t-33.5 -35.5t-47 -21t-53 -7q-5 0 -14 -2t-20.5 -4.5t-23.5 -5.5t-22.5 -3.5t-17 1t-6.5 8.5q0 1 4.5 6.5t9.5 11.5t9 12l5 5q27 4 58.5 6.5t58 10.5
t44.5 26t18 53q0 18 -5.5 28.5t-16 16.5t-24.5 8t-30 2q-35 0 -60.5 -11.5t-40.5 -32.5t-22.5 -50t-7.5 -64q0 -22 1 -51.5t5.5 -59.5t12.5 -59.5t21.5 -52.5t32 -37t44.5 -14q5 0 15 2t20.5 4.5t20 4.5t14.5 4q8 3 24 10t36.5 16t42.5 20t42 20t36.5 17.5t23.5 11.5
q1 -1 1 -6v-7q0 -18 -17.5 -35.5t-44.5 -33t-61 -28.5t-65 -22t-57 -14.5t-39 -5.5q-31 0 -56 14t-43 38t-31 55t-20.5 64t-10.5 67.5t-3 64.5z" />
    <glyph glyph-name="f" unicode="f" horiz-adv-x="499" 
d="M20 -208v6.5v7.5q2 -2 6 -4t8.5 -4t8.5 -3.5t5 -2.5t2 -1h5q32 0 54 18.5t36.5 47t22.5 64t12 71t4.5 66.5t0.5 51v34q0 24 -1.5 54.5t-5 62.5t-10 59t-17.5 45t-27 18q-12 0 -23.5 -3l-23 -6l-23 -6t-23.5 -3q0 20 14 30.5t33 17t37.5 14.5t27.5 23q-7 19 -10 36.5
t-4 35t-1 34.5v38q0 34 3.5 73.5t17 74t39.5 57t71 22.5q10 0 27.5 -1.5t34.5 -6t30 -12.5t13 -22q0 -2 -0.5 -7.5t-0.5 -6.5q-6 2 -20 5.5t-29 8t-29 8t-20 5.5l-2 1h-3q-21 0 -35 -11t-22 -27.5t-12.5 -37.5t-6 -41.5t-1.5 -39.5v-28q0 -17 -0.5 -35.5t0.5 -36.5t4 -37
t11 -35h13q35 0 69 2.5t68 5.5t68.5 6t68.5 3v-31l-260 -41q-9 -2 -11.5 -7.5t-2.5 -12.5q0 -33 4.5 -65.5t9.5 -65l10 -65t5 -65.5q0 -27 -1 -66t-5.5 -80.5t-14 -82.5t-27.5 -74.5t-47 -53.5t-70 -20q-9 0 -19 2.5t-18 8t-13 13.5t-5 18z" />
    <glyph glyph-name="g" unicode="g" 
d="M40 -302q0 14 2.5 22t12.5 20q28 -51 67 -74.5t98 -23.5q2 0 10 0.5t17 1t16.5 0.5h10.5q34 27 53 63.5t28.5 77.5t12.5 84t3 83q0 22 -0.5 40t-2.5 35t-5 36.5t-8 45.5l-2 1q-2 1 -4 1q-8 0 -26.5 -13t-43.5 -29.5t-55.5 -29.5t-61.5 -13q-13 0 -26.5 3.5t-24 10.5
t-18.5 17.5t-11 24.5v14.5t-0.5 22.5t-0.5 23v15q0 30 3 65t10 71.5t19 71t30.5 61t43.5 42t59 15.5q46 0 88 -15t72 -55q4 -52 7.5 -110t6 -116t4 -112.5t1.5 -98.5q0 -37 -2 -80t-9 -85.5t-21 -82.5t-38 -71t-58.5 -49t-84.5 -18q-19 0 -48.5 6.5t-57 20t-47 34
t-19.5 47.5zM138 95q2 -3 7 -8t11.5 -9t12 -7t9.5 -3q24 0 46.5 15t42 40t35.5 56.5t27 64.5t17 63.5t6 55.5q0 22 -7.5 39t-21.5 29.5t-33 17.5t-42 5t-40.5 -16.5t-29.5 -43t-20.5 -60t-13.5 -65t-6.5 -59.5t-1.5 -45v-14.5t0.5 -20t1 -20.5t0.5 -15z" />
    <glyph glyph-name="h" unicode="h" horiz-adv-x="601" 
d="M370 137q-2 8 -4.5 25t-6.5 38.5t-8.5 45.5t-9 45.5t-8 38.5t-5.5 25q-3 18 -7.5 32.5t-13 26t-21 18t-32.5 6.5q-15 0 -31.5 -11t-31.5 -25.5t-26 -28t-15 -18.5q-25 -27 -38 -69t-19.5 -88t-7.5 -90.5t-3 -79.5l-41 -15v630q0 5 1.5 18.5t4 29t5 29t3.5 19.5q1 3 6 7.5
t7 5.5l14 -13l28 -342h13q13 12 30 26t37 27t41.5 21t42.5 8q37 0 59 -18t35.5 -48.5t20 -68.5t13.5 -78t15.5 -78.5t25 -68t44 -48t70.5 -18.5q22 0 38 1t32 5t32.5 12.5t37.5 23.5l1 -2v-4q0 -16 -18.5 -32.5t-44 -29.5t-52 -21t-43.5 -8q-33 0 -58 12t-45 32t-36.5 45
t-30.5 50z" />
    <glyph glyph-name="i" unicode="i" horiz-adv-x="284" 
d="M21 220q1 8 1.5 26t2 41t3 48t2.5 48t2 41.5t2 27.5q5 8 9.5 10.5t11.5 2.5h3h3q10 -29 10.5 -71t0 -89.5t1 -94.5t12 -85t33.5 -61.5t66 -23.5q45 0 78 18t60 51q0 -1 1 -6.5t1 -7.5q0 -22 -18.5 -40t-43.5 -30.5t-52.5 -19t-44.5 -6.5q-45 0 -73 17t-44 46t-21.5 66
t-5.5 76v16zM55 576q-16 0 -22.5 9.5t-4 21.5t10.5 22t20 10q17 0 26 -10t9.5 -22t-9 -21.5t-30.5 -9.5z" />
    <glyph glyph-name="j" unicode="j" horiz-adv-x="176" 
d="M-197 -294q0 1 0.5 6t0.5 7q21 -14 35 -30t26 -31t22.5 -29t27 -25t38.5 -17t56 -6q32 0 54 10t35.5 27.5t21.5 41t11 49.5t3.5 53.5t0.5 52.5q0 9 -1 24l-1 30q0 16 -0.5 28t-0.5 14l-83 506v32q6 0 13 -3.5t13.5 -8.5t10.5 -10.5t5 -9.5l95 -506v-219
q0 -29 -14.5 -58.5t-37.5 -53t-52 -38.5t-57 -15q-37 0 -76 13t-71.5 36t-53.5 55.5t-21 74.5zM25 589q-4 0 -8.5 12t-6 26.5t3 26.5t17.5 12q23 0 30.5 -12t4.5 -26.5t-14 -26.5t-27 -12z" />
    <glyph glyph-name="k" unicode="k" horiz-adv-x="616" 
d="M120 303q-4 0 -10 -1l-7 -1l-27 -233q-2 -12 -7 -19.5t-12.5 -11.5t-17.5 -5t-21 -1q0 33 3.5 60t12.5 59v538q6 0 13.5 -3.5t13.5 -9t10.5 -10.5t4.5 -8l27 -294l288 171h31q0 -20 -16.5 -37.5t-42.5 -34t-57 -30.5t-58.5 -27.5t-49 -26t-27.5 -23.5q34 -22 59 -54.5
t46.5 -67.5t42.5 -70t48.5 -62t62.5 -44.5t86 -17.5q13 0 23 5t20 11t20 11t23 5q0 -22 -10.5 -36t-25.5 -22.5t-33.5 -11.5t-36.5 -3q-50 0 -86.5 13.5t-63.5 34.5t-46 48.5t-35 56t-30.5 56.5t-30.5 49t-36 34t-48 13z" />
    <glyph glyph-name="l" unicode="l" horiz-adv-x="152" 
d="M39 570q0 10 1 28t2.5 35.5t3 30.5t1.5 15l28 25l12 -14q0 -1 1.5 -18.5t2.5 -48t2 -71.5t3 -87t3.5 -94.5t2.5 -95t2 -88t2 -73.5v-8q0 -5 -0.5 -13t-1 -15t-0.5 -12q0 -3 -0.5 -10t-0.5 -14.5v-13.5v-9q-2 -2 -6 -4l-8 -4t-8.5 -3.5t-6.5 -1.5q-3 0 -7.5 5.5t-6.5 9.5
q-1 2 -2.5 10t-3.5 17t-3.5 16.5t-1.5 11.5q0 14 -1.5 42t-3.5 61t-3 69t-2.5 67t-2.5 55.5t-1 33.5v14q0 11 0.5 26.5t0.5 33.5t0.5 35t1 32t1.5 25z" />
    <glyph glyph-name="m" unicode="m" horiz-adv-x="761" 
d="M519 466q-46 -3 -75.5 -28t-47 -62.5t-26 -82.5t-11 -89t-1 -83.5t4.5 -65.5l-53 3q0 5 -1 25.5t-3 49t-3.5 60.5t-3 60.5t-3 48.5t-2.5 26q-2 15 -7 38.5t-15.5 45.5t-25 38t-33.5 16q-23 0 -41 -10.5t-31 -28t-22.5 -40t-15.5 -45.5t-9.5 -44.5t-4.5 -37.5
q-1 -8 -2 -24t-2.5 -36.5t-3 -42.5t-3 -42.5t-2 -36.5t-0.5 -23h-42q-3 54 -6 94.5t-4.5 75.5t-2.5 71t-1 80v15q0 11 0.5 23t0.5 22v16q3 11 10 22.5t18 17.5q2 0 6.5 -5.5t5.5 -7.5q2 -4 4 -14t4 -20.5t4.5 -20.5t2.5 -14q0 -1 2.5 -1h3.5q3 0 10 7.5t17.5 18l23.5 23.5
t27 23.5t29 18.5t31 8q21 0 39 -11t32 -27t25 -36t20 -37q34 57 86.5 84t118.5 27q43 -16 68 -48t38.5 -73t18 -87t7 -90t6.5 -80.5t16 -58.5t35.5 -26t65.5 18q-4 -9 -3.5 -17t1.5 -14t-0.5 -9t-9.5 -3q-45 -24 -74 -16t-46.5 36t-27.5 72.5t-16 94t-12 98.5t-16.5 86.5
t-27 59t-45.5 15.5z" />
    <glyph glyph-name="n" unicode="n" horiz-adv-x="609" 
d="M268 481q-21 0 -49 -13.5t-54 -34t-44 -45t-18 -46.5v-302q0 -4 -4.5 -6.5t-10 -4t-11.5 -2t-9 -0.5q-13 0 -19 4.5t-7.5 12.5t-1 18t0.5 20q-1 8 -2 35l-2 61q-1 35 -2.5 74.5t-2.5 75t-2.5 62t-1.5 35.5v38q0 6 2 11t8 9.5t17 8.5q3 0 7.5 -5.5t5.5 -7.5l3.5 -14
t4.5 -20.5t4 -20.5t2 -14q1 -1 3 -1h4q14 0 33.5 17.5t45 38.5t53.5 38.5t59 17.5q39 0 61.5 -20.5t33 -55t14 -77.5t6 -87.5t7.5 -88t19 -77.5t40.5 -54.5t72.5 -20.5q15 0 30.5 2t30.5 5t30.5 5.5t31.5 2.5h8h5q-36 -27 -73 -41.5t-84 -14.5q-50 0 -80.5 20.5t-48.5 55
t-25 77.5t-11 87.5t-6 88t-9 77.5t-22 55t-43 21z" />
    <glyph glyph-name="o" unicode="o" horiz-adv-x="431" 
d="M21 144q3 38 11 78.5t22 78t35 70.5t50 57.5t67 37t86 8.5q65 -56 93 -113.5t28.5 -110t-21 -98.5t-56 -79.5t-76.5 -53.5t-82 -20q-31 0 -59.5 9.5t-50 28t-34.5 45.5t-13 62zM365 247q0 30 -4.5 55t-14.5 46t-26.5 40.5t-40.5 38.5l-2 -8q-36 3 -73 -17t-67 -56
t-48 -85t-14 -104q0 -33 13 -58t42 -44q3 0 11 -0.5t16.5 -0.5t16.5 -0.5t10 -0.5q45 0 79 13.5t56.5 38.5t34 61t11.5 81z" />
    <glyph glyph-name="p" unicode="p" horiz-adv-x="465" 
d="M28 -493q0 14 -0.5 43.5t-0.5 66.5t-0.5 78t-0.5 78v110q0 38 -1 88t-2 105.5t-1 114.5t0.5 116.5t4 110t8.5 94.5q1 1 7 1.5t7 0.5q14 0 23.5 -6.5t17.5 -22.5q31 2 68.5 4t76 1t74 -8t63.5 -23.5t44.5 -45t16.5 -72.5q-5 -99 -36.5 -167.5t-80 -106.5t-108 -46.5
t-118.5 10.5l-1 -469q0 -3 -2.5 -14.5t-7.5 -23.5t-13 -22t-17 -10q-14 0 -21 15zM75 367q0 -31 1.5 -69.5t5 -78t7 -78t6.5 -73.5h8q4 0 10 -0.5t10 -0.5h7q46 0 90.5 21t79.5 57t56.5 83t21.5 100q0 45 -19 70t-49.5 36t-68.5 12t-75 1q-7 0 -17 -0.5t-19.5 -1t-17.5 -1
t-9 -0.5l-27 -27v-7q0 -6 -0.5 -13.5t-0.5 -16.5v-13z" />
    <glyph glyph-name="q" unicode="q" horiz-adv-x="429" 
d="M182 -440v18v23t0.5 19.5t0.5 10.5q1 8 3.5 27t6.5 44.5t8.5 54t8.5 54t7.5 47t6.5 32.5q1 6 5 23t10 39.5t12 47.5t12 48t10 39.5t6 22.5q0 2 -1 6t-1 5q-9 0 -20 -6t-24 -14.5t-26.5 -19t-27 -19.5t-25 -15t-20.5 -6q-41 0 -63.5 22t-22.5 63q-15 45 -12 95t17.5 97
t40.5 88.5t57.5 69t67.5 38t72 -4.5q23 0 41.5 -7.5t31 -22t19.5 -33.5t7 -40v-8t-0.5 -10.5t-1 -10t-0.5 -6.5q-34 -97 -62 -204.5t-48.5 -217.5t-31 -220.5t-10.5 -211.5q0 -16 0.5 -40t5.5 -48.5t16 -41.5t34 -17q30 0 58 12t52.5 33.5t45 48.5t35 56t22.5 59t8 57
q0 28 -12 45t-29.5 30t-36 25t-33.5 32q2 0 9.5 0.5t10.5 0.5q32 0 55 -15t37 -38.5t20.5 -51.5t6.5 -55t-9.5 -59t-26 -63.5t-39 -60t-49.5 -51t-57.5 -35.5t-61.5 -13q-29 0 -49 11.5t-33 31t-19.5 44.5t-10 51t-4 50.5t-0.5 44.5zM301 468q-44 3 -78 -18t-60.5 -56
t-44 -79.5t-26 -88.5t-7 -83.5t14.5 -63.5q26 0 55 18.5t56 48.5t52.5 68t44 77t29.5 74.5t11 61.5q0 20 -14.5 30.5t-32.5 10.5zM224 -581q-5 0 -5 -7.5t5 -7.5t5 7.5t-5 7.5z" />
    <glyph glyph-name="r" unicode="r" horiz-adv-x="436" 
d="M37 311v146q0 6 1 10.5t4 8t10 4.5q14 -9 19 -25.5t8 -33t8.5 -31t18.5 -19.5q17 29 34 54t38.5 44t47.5 29t62 10q21 0 43.5 -4t41 -14t30.5 -27.5t12 -43.5q-20 0 -35.5 7.5t-30.5 16.5t-32 16.5t-40 7.5q-30 0 -54 -15.5t-43 -41.5t-33 -60t-24.5 -72t-16.5 -76.5
t-10 -74t-5.5 -65.5t-1.5 -49h-40q-4 27 -6 62.5t-3 75t-2 80.5t-1 80z" />
    <glyph glyph-name="s" unicode="s" horiz-adv-x="514" 
d="M21 137q-1 3 -1 13.5v14.5q0 3 -0.5 9.5t0.5 12.5t4 11t10 7q-1 -20 9 -39t26 -37.5t36.5 -35t43 -28t44 -18.5t40.5 -7q35 0 71 12t64.5 33.5t46.5 52.5t18 70q0 24 -14.5 40.5t-38 29t-53 21t-61 16.5t-61.5 17t-53.5 21.5t-37.5 29.5t-14 43q0 23 10.5 40.5t28 31.5
t40 23.5t45.5 16t45.5 9t40.5 2.5q23 0 40.5 -0.5t32.5 -5.5t27 -16t21 -35q-4 -8 -8.5 -10.5t-12.5 -2.5q-11 0 -18.5 8.5t-15.5 19.5q-3 0 -12 0.5t-18.5 0.5h-18h-12.5q-12 0 -29.5 -1t-37 -4t-38 -9t-34 -15t-25 -22.5t-9.5 -31.5q0 -16 6.5 -25t22.5 -18q7 0 21 -4.5
t31.5 -9.5t37 -10.5t37 -11.5t31 -11t20.5 -7q24 -9 49 -18t45 -22.5t32 -33t12 -49.5q0 -45 -24 -82.5t-60.5 -65t-80 -43t-84.5 -15.5q-36 0 -67 10.5t-57.5 29.5t-49.5 43.5t-43 54.5z" />
    <glyph glyph-name="t" unicode="t" horiz-adv-x="390" 
d="M10 402q-6 27 -4.5 39t10.5 15.5t23.5 2t32 -0.5t38 8t40.5 27q2 11 4.5 37.5t6 60.5t7 71.5t6.5 71.5t5.5 60t4.5 37h8q3 0 7 1l8 2t7 0.5t6 -4.5q2 -34 -1 -77t-7.5 -90t-7.5 -94t1 -88l194 13l-7 -39l-171 -23q-23 -42 -31 -89.5t-5 -92t14.5 -83.5t28 -66t35.5 -38.5
t37 -1.5q19 -1 33.5 5.5t24.5 17.5t17 24.5t12.5 26.5t12 23t14.5 15q0 -2 0.5 -11.5t0.5 -12.5q0 -29 -10 -54.5t-26.5 -43.5t-40 -28t-50.5 -10q-44 2 -71 23.5t-43 56.5t-21.5 77.5t-5.5 86.5t2.5 85.5t5.5 74.5z" />
    <glyph glyph-name="u" unicode="u" horiz-adv-x="547" 
d="M287 124q-1 0 -3 -0.5t-3 -1.5q-18 -21 -35 -41.5t-35 -35t-40 -24t-50 -9.5q-16 0 -28.5 8t-21.5 20t-15 27t-7 28q-1 7 -1.5 32t-0.5 60v154v67.5t-2 41.5q0 2 -0.5 10.5t-0.5 11.5q0 12 3 23t19 11q7 0 11.5 -3.5t7.5 -12.5q2 -9 3.5 -37t3 -66t2.5 -80t2.5 -79.5
t3 -66t3.5 -39.5q2 -12 5.5 -22t8 -17.5t13 -11.5t20.5 -4h11t10 1q40 35 70 85.5t49 107.5t29.5 116t13.5 113l3 1h3q7 0 11.5 -3t8.5 -10q1 -24 0.5 -58.5t-0.5 -72.5t2 -79t7 -79.5t16.5 -71t30.5 -55t46.5 -32.5t65.5 -2q-8 -13 -18.5 -18.5t-23.5 -8.5t-26 -3h-26
q-26 0 -46 9.5t-35 23.5t-25 30t-17 30t-12.5 23.5t-10.5 9.5z" />
    <glyph glyph-name="v" unicode="v" horiz-adv-x="438" 
d="M220 13q-28 49 -53 99.5t-49 100.5t-50 100t-55 97v35q11 0 21.5 -4.5t19.5 -11.5t16.5 -15.5t11.5 -16.5l151 -302h14q4 14 13.5 43t21.5 65.5t25 76.5t26 76.5t22.5 65.5t14.5 43q6 18 13 26.5t27 8.5v-48l-136 -439q0 -1 -5.5 -3.5t-12 -4t-13 -3.5t-10.5 -2t-8.5 5
t-4.5 8z" />
    <glyph glyph-name="w" unicode="w" horiz-adv-x="643" 
d="M21 382q1 10 5.5 19.5t14.5 9.5q11 0 18.5 -14.5t12.5 -39t9 -55.5t7 -63.5t5.5 -63.5t6.5 -55.5t9.5 -39t13.5 -14.5q1 0 3.5 0.5t3.5 1.5q21 36 31.5 68.5t15.5 66t6 70.5t1 82q5 12 13.5 14.5t16.5 2.5q4 0 8 -0.5t4 -1.5l28 -233q2 -16 14 -28.5t28.5 -22t34.5 -14.5
t32 -5q46 0 84.5 11.5t65.5 34.5t42 56t15 78q0 37 -9.5 61.5t-24 40.5t-31 26.5t-31 21.5t-24 24.5t-9.5 35.5q46 0 78.5 -19t52.5 -49.5t29 -68.5t9 -79q0 -52 -20 -92t-55 -67.5t-80.5 -41.5t-97.5 -14q-51 0 -89 22.5t-70 60.5q-5 -12 -13 -31t-18.5 -36.5t-24.5 -30
t-33 -12.5q-17 0 -28.5 16.5t-18 38t-10 41.5t-3.5 27q-2 11 -4 31.5t-5 46t-6 54t-6 54t-4.5 45.5t-2.5 29z" />
    <glyph glyph-name="x" unicode="x" horiz-adv-x="643" 
d="M74 -61q4 8 14 27.5t22 43.5t25 50.5t25.5 51.5l22 44t13.5 28q1 3 3.5 9t4.5 12.5t3.5 12.5t2.5 8q-2 8 -7.5 23.5t-12.5 36.5l-41 122q-5 16 -8 23q-2 9 -7 19t-12 18t-15.5 13.5t-19.5 5.5q-20 0 -35.5 -7.5t-32.5 -20.5q-9 4 -12 8.5t-3 12.5q0 18 9 27.5t21.5 14.5
t27 6.5t25.5 1.5q30 0 50 -12t34.5 -31.5t24.5 -44.5t18 -51.5t16 -51.5t21 -45q23 26 42.5 59.5t36.5 68.5t31.5 69.5t25.5 62.5h31q0 -43 -13.5 -87.5t-32.5 -87t-41 -81.5t-39 -72v-27q0 -1 11 -12.5t26 -27t31 -31.5t27 -25q10 -9 21.5 -12.5t24 -4t25 0t23.5 0.5
q18 0 42 2t45 10t32 25q6 8 8 20q1 -5 1 -6q0 -33 -15 -51.5t-38 -27t-50.5 -10.5t-51.5 -2q-32 0 -59.5 6.5t-51.5 19t-46.5 30t-45.5 41.5l-13 -14l-110 -205q-8 -16 -22.5 -25t-31.5 -9v48zM607 171q1 -12 1 -22v6q0 5 -0.5 9.5t-0.5 6.5z" />
    <glyph glyph-name="y" unicode="y" horiz-adv-x="431" 
d="M-77 -294q0 2 3.5 15t8.5 27.5t11 26.5t13 12q0 -46 17 -87.5t46.5 -72.5t70 -48.5t86.5 -17.5q42 0 71 16.5t48 44.5t29.5 63t15.5 72.5t6 73t1 65.5q0 10 -0.5 29.5t-0.5 38.5v33.5v15.5q0 4 -1.5 19t-4 32.5t-4.5 33.5l-3 24q-1 4 -2.5 14t-4.5 21t-8 21t-13 14
q-12 -24 -33.5 -50.5t-49 -49t-57 -37.5t-59.5 -15q-23 0 -38.5 12.5t-25 31.5t-15 44t-7.5 49.5t-2.5 46t-0.5 35.5q0 24 4 53t9.5 60t11 61.5t10.5 56.5q8 16 21 16q1 0 3.5 -0.5t3.5 -0.5q0 -9 -0.5 -32.5t-1.5 -53.5t-2.5 -64.5t-2 -64.5t-1 -53t0.5 -32q0 -10 1 -28.5
t5 -36.5t12.5 -32t26.5 -14q15 0 34 3t29 12q14 12 34 31.5t38 39.5l31.5 35t13.5 18l21 298q0 4 3 7t7.5 4.5t9 2.5t8.5 1q13 0 19.5 -8.5t14.5 -20.5q-8 -71 -5 -151.5t9 -162t12 -162t6 -151.5v-29.5t-0.5 -45.5t-1.5 -45.5t-1 -29.5q-4 -42 -23 -83.5t-49 -75.5
t-69.5 -55t-84.5 -21q-20 0 -47.5 7.5t-55.5 21t-55 32t-48 40.5t-34.5 47.5t-13.5 52.5z" />
    <glyph glyph-name="z" unicode="z" horiz-adv-x="697" 
d="M24 78q0 23 6 35t15.5 17.5t23 5t28.5 -1.5t30 -1.5t30 4.5q24 7 50 24.5t49 40.5t40.5 48.5t25.5 50.5h-96q-9 0 -12 7.5t-3 12.5q0 7 3 12t12 9q5 2 18.5 6t29.5 9t29 8l19 5v7v13v12v8q0 15 -0.5 36.5t-5.5 41t-16.5 33.5t-32.5 14h-7t-6 -1l-28 -10.5t-41.5 -16
t-41 -17t-26.5 -11.5l-14 13q11 20 30 36t42 26.5t47.5 16t47.5 5.5q40 0 62.5 -20.5t34 -51.5t16 -67t8.5 -67h205l12 -15l-12 -13l-205 -28q-2 0 -7.5 -5t-7.5 -8q-1 -3 -4.5 -13t-8.5 -21.5t-9 -21.5t-5 -12q-3 -5 -15 -14.5t-27 -22t-32.5 -26t-31.5 -26.5t-23 -24
t-9 -17q0 -10 15.5 -18.5t39.5 -15t52 -12.5t55 -9.5t46.5 -5.5t26.5 -2q28 0 58.5 3t60.5 9.5t58.5 17t54.5 25.5l1 -2v-4q0 -14 -16 -27t-40.5 -22.5t-54.5 -17.5t-58 -13t-51 -8t-34 -3q-53 0 -102.5 12.5t-98.5 27.5t-98.5 27.5t-101.5 12.5z" />
    <glyph glyph-name="braceleft" unicode="{" horiz-adv-x="349" 
d="M75 122q0 31 15 61.5t33.5 59t34 52.5t15.5 41q0 1 -0.5 3.5t-1.5 2.5l-54 28q-1 0 -1.5 2t-0.5 4q0 10 13 22.5t29.5 25t32.5 23.5t21 18l-13 14l-137 28q-7 1 -14.5 10.5t-13 21.5t-9.5 23.5t-4 18.5q0 39 16 73t43.5 59.5t62 40t72.5 14.5h26q14 0 26.5 -2.5
t23.5 -8.5t19 -18q-44 6 -87.5 2.5t-79.5 -19.5t-59 -47.5t-23 -82.5q0 -29 14.5 -44t36.5 -23t47.5 -11t47.5 -7.5t36 -13.5t14 -28q0 -13 -9 -21.5t-20.5 -16.5t-20.5 -16t-9 -21q0 -9 7 -15.5t15.5 -12t15 -11.5t6.5 -15q0 -2 -9.5 -10.5t-24 -23.5t-30.5 -34.5t-30 -43
t-23.5 -50t-9.5 -53.5q0 -26 12.5 -42t32 -26t44.5 -13.5t50 -5t47.5 -0.5t37.5 1q0 -13 -10.5 -20.5t-25.5 -10.5t-30.5 -4t-24.5 -1q-32 0 -62.5 5.5t-55 20t-39.5 38t-15 59.5z" />
    <glyph glyph-name="bar" unicode="|" horiz-adv-x="116" 
d="M49 588q0 1 4.5 3.5t5.5 2.5q9 0 14.5 -4.5t9 -11t5 -15t1.5 -16.5v-519q0 -2 -5 -7.5t-8 -7.5l-9 -3t-12.5 -4t-12.5 -3.5t-8 -2.5v519z" />
    <glyph glyph-name="braceright" unicode="}" horiz-adv-x="301" 
d="M34 13q2 9 18 14t39 9.5t49 11.5t48.5 20.5t37 36t14.5 59.5q0 45 -16 74.5t-43 48t-61.5 28t-71.5 13.5q5 18 16 31.5t25 22.5l-83 43v13q35 15 71.5 34.5t66.5 45.5t49.5 58.5t19.5 75.5q0 29 -13.5 50t-35.5 34t-49 20t-54 11v18q39 0 73.5 -7t61 -23.5t42.5 -46
t16 -74.5q0 -27 -11.5 -50t-28 -41.5t-37 -34t-37 -29t-27.5 -25t-11 -24.5q0 -10 9 -12.5t19 -4.5t18.5 -6t8.5 -17q0 -6 -2 -9.5t-5 -7t-5.5 -8t-2.5 -10.5q0 -5 9.5 -11.5t23.5 -16t30 -23.5t30 -33.5t23.5 -44.5t9.5 -59q0 -37 -11.5 -67.5t-33 -53t-52 -35t-68.5 -12.5
q-9 0 -17.5 1t-16 2.5t-16 4t-19.5 6.5z" />
    <glyph glyph-name="asciitilde" unicode="~" horiz-adv-x="670" 
d="M119 670q0 38 13 57t34 24.5t47.5 -1.5t54 -19t53 -27t44.5 -28q44 13 80 18.5t58 5.5t28.5 -6t-5.5 -15t-46.5 -22.5t-94.5 -26.5q-22 1 -46 10t-48 20t-48 21.5t-46 14.5t-42 -1.5t-36 -24.5z" />
    <glyph glyph-name="exclamdown" unicode="&#xa1;" horiz-adv-x="140" 
d="M44.5703 269.594v-8.07324q0 -6.45801 -0.547852 -13.3203t-0.547852 -13.3203v-8.88086q0 -39.5586 2.73828 -76.6943q2.73828 -37.1367 6.57129 -74.2734q3.83301 -37.1357 9.30957 -75.8867t13.1426 -82.3457l2.73828 -0.404297q2.73828 -0.40332 3.83301 -0.40332
q7.66699 0 12.5947 2.42188q4.92871 2.42188 10.4043 9.6875v14.5322v20.5859v22.2012v32.293v23.0078v19.7793v11.3027q-1.09473 7.26562 -1.64258 23.8154q-0.546875 16.5498 -2.19043 37.1367q-1.64258 20.5859 -3.83301 43.5947q-2.19043 23.0078 -3.28516 43.5947
q-1.0957 20.5859 -2.73828 37.1367q-1.64258 16.5498 -2.73828 23.8154q-1.0957 0 -7.11914 0.40332l-6.02344 0.40332q-10.9521 0 -19.166 -1.21094q-8.21484 -1.21094 -11.5 -10.8984zM75.2363 458.505q1.0957 -5.65137 7.11914 -8.87988
q6.02344 -3.22949 13.1426 -4.44043t14.2373 -1.21094h13.6904q0 8.07324 -6.02344 16.9531q-6.02344 8.88086 -21.3574 8.88086q-8.76172 0 -13.1426 -2.42188t-7.66602 -8.88086z" />
    <glyph glyph-name="cent" unicode="&#xa2;" horiz-adv-x="514" 
d="M243 588q1 1 5 3.5t7 2.5q8 0 13.5 -4.5t9.5 -11t5 -15t1 -16.5l-1 -66q15 -4 26 -12q13 -9 13 -26h-40l-8 -393q27 9 51 20q29 14 53.5 29t45 28t36.5 21.5t30 8.5q0 -31 -18 -55.5t-45 -42t-62 -29t-71 -18.5q-11 -2 -20 -4l-2 -84q0 -1 -5 -6.5t-9 -6.5q-2 -2 -7.5 -4
t-12.5 -4t-12.5 -4t-7.5 -3l2 105q-29 -2 -50 -2q-34 0 -62.5 11.5t-48 33t-30 50t-10.5 62.5q0 28 6 63.5t18 72t29 71.5t39 62t49 43.5t60 16.5h9v34zM155 426q-13 -17 -24.5 -42.5t-22 -56.5t-17.5 -60t-11.5 -51.5t-4.5 -31.5q0 -30 7.5 -56.5t22.5 -46t38 -30.5t54 -11
h23l8 403h-46q-14 0 -27 -17z" />
    <glyph glyph-name="sterling" unicode="&#xa3;" horiz-adv-x="652" 
d="M4 319l54 -1q-2 9 -3 17q-7 46 -11.5 85.5t-4 72.5t9.5 57t27 39q22 15 52 15.5t61.5 -8.5t60.5 -24t46.5 -29.5t21.5 -24.5t-15 -10.5t-63.5 12t-122.5 44.5q-10 4 -15 -1.5t-6 -16.5t0.5 -27t4 -32t5 -30.5t3.5 -23.5q0 -14 4 -40.5t8 -59.5l1 -16l117 -2q9 0 12.5 -7
t3.5 -13q0 -8 -6 -14.5t-15 -6.5h-8q-28 2 -63 5q-19 2 -35 3q1 -8 2 -18q6 -36 10 -69t6.5 -59.5t2.5 -40.5q-3 -10 2.5 -10t19 7.5t36 18t51.5 19.5t64.5 15t77.5 3q23 0 50 -15t54.5 -33t54 -33t49.5 -15q10 0 16 -6.5t6 -14.5q0 -14 -14.5 -12.5t-36.5 9.5t-49.5 21.5
t-53.5 25.5t-48 21.5t-33 9.5q-32 0 -62 -12t-58 -27t-58 -27t-61 -12q-12 0 -23.5 -3t-22.5 -6t-22.5 -5.5t-22.5 -2.5q0 33 3.5 63.5t13.5 62.5q-5 53 -13 102q-3 26 -7 49q-12 1 -21 2l-22 2z" />
    <glyph glyph-name="currency" unicode="&#xa4;" horiz-adv-x="521" 
d="M105 193q-14 11 -19 29t-4.5 39t5.5 42.5t11 41t12.5 36.5t9.5 27q-18 22 -31 49.5t-18 48.5l33 27l70 -95q4 17 22 28.5t43 17t52.5 4.5t49.5 -8t36 -19.5t13 -30.5q8 3 14.5 9t14.5 14t16.5 15t13.5 11t8 2l41 -51l-62 -46q5 -17 7.5 -37t2 -40t-5 -38t-13.5 -30
q-2 -4 7.5 -14.5t21.5 -21.5t23.5 -21t12.5 -14l-56 -43l-49 62q-26 -28 -53.5 -39.5t-53.5 -13.5t-49 4t-40 12.5t-28 11t-12 1.5q-1 -4 -11 -15t-20 -23.5t-18 -21.5l-7 -7l-34 37zM384 312q0 20 -4 35.5t-12 28.5t-22 24t-35 22q-29 1 -60 -11.5t-56.5 -35.5t-40.5 -53.5
t-12 -65.5q0 -20 11 -36.5t35 -27.5q3 0 9 -0.5t14 -0.5t14 -0.5t9 -0.5q75 0 112.5 33t37.5 89z" />
    <glyph glyph-name="yen" unicode="&#xa5;" horiz-adv-x="458" 
d="M317 242h-134q1 -25 3 -49q4 -48 6.5 -96t2.5 -97h-30q-5 0 -8 24.5t-6 64t-7 85.5q-2 35 -5 68h-109q1 4 6 9t8 5q4 1 13.5 3.5t20.5 4t21 3.5t13 2q8 1 24 1h2q-2 22 -5 43h-99l-13 14l40 13h69q-3 31 -8 42q-1 5 -7 19t-14 32.5t-18 38.5t-18.5 38.5t-15 32t-8.5 18.5
q-3 7 -8 16.5t-9.5 19.5t-8 20t-3.5 19q0 7 0.5 12.5t2.5 11t6.5 8t12.5 2.5q7 0 12 -2.5t9 -10.5l82 -178h28q5 7 17.5 21t29 31.5t34 37t33.5 37t29.5 31t19.5 20.5q6 5 16.5 15.5t24 21t28 18t28.5 7.5v-35l-220 -232q-18 -19 -23 -33.5t-5 -34.5v-44h164
q0 -6 -3.5 -10.5t-8.5 -8.5t-10.5 -6t-9.5 -2h-130l1 -24q0 -9 1 -18q16 1 33 2q23 1 43 1h36h24v-32z" />
    <glyph glyph-name="brokenbar" unicode="&#xa6;" horiz-adv-x="128" 
d="M90 250q3 -37 2.5 -70t-1.5 -64t-2 -61t-1 -60q-30 0 -33 33q-2 11 -3.5 32t-2.5 49.5t-2.5 62.5t-2.5 72zM44 274q-2 27 -2.5 52t-1.5 45.5t-1.5 36.5t-1.5 24v5q0 5 -0.5 11t-0.5 11v9q0 3 -0.5 10.5t0.5 14.5t4 13t11 8q1 -3 3.5 -8.5t4 -12t3.5 -12.5l3 -9
q7 -42 11 -91t7 -101z" />
    <glyph glyph-name="section" unicode="&#xa7;" horiz-adv-x="490" 
d="M46 -38q-1 4 -1.5 13.5t-0.5 11.5q0 4 1.5 11.5t4.5 15.5t6.5 15t9.5 9q0 -27 14 -53.5t34.5 -48t45 -34.5t43.5 -13q27 0 53.5 8t47 25.5t33 44t12.5 61.5q0 16 -6 30q-65 -25 -109 -21.5t-71 28.5t-40.5 68t-19.5 98q0 31 16 52t38.5 34.5t47.5 20t46 8.5
q-18 6 -35.5 15.5t-32.5 21t-24.5 27t-9.5 33.5q0 32 21 55.5t50 39t59.5 23t49.5 7.5q17 0 29 -3t21.5 -11t16.5 -21.5t14 -34.5q-2 -8 -6 -10.5t-9 -2.5q-8 0 -13.5 8t-10.5 18q-3 0 -9.5 0.5t-13.5 1t-13.5 1t-9.5 0.5q-14 0 -35.5 -3t-41.5 -11.5t-35 -24t-15 -40.5
q0 -14 4 -23t17 -17q7 -2 26 -8.5t40 -14.5t39 -15.5t25 -11.5q19 -9 37 -17.5t32.5 -21t24 -31t9.5 -45.5q0 -47 -22 -85.5t-55 -65.5q7 -10 11 -23t4 -31q0 -41 -17.5 -76.5t-44.5 -61t-59.5 -40t-62.5 -14.5q-27 0 -50 10t-42.5 27t-36.5 40.5t-31 51.5zM396 215
q0 32 -14 48.5t-34 24t-43 9t-40 3.5q-13 0 -34 -3.5t-40.5 -12t-34 -24.5t-14.5 -41q0 -42 12.5 -68t32 -41t44 -19.5t47.5 -3.5t42.5 7.5t29.5 12.5q14 10 23 20.5t14 23t7 28t2 36.5z" />
    <glyph glyph-name="dieresis" unicode="&#xa8;" horiz-adv-x="576" 
d="M314 522q0 10 4 16.5t11 10.5t15 6t15 2v-8q0 -8 -1.5 -17t-5 -16.5t-10.5 -7.5q-2 0 -6 1.5t-8.5 4t-8 4.5t-5.5 4zM225 522q0 10 4 16.5t11 10.5t15 6t15 2v-8q0 -8 -2 -17t-5 -16.5t-10 -7.5q-2 0 -6 1.5t-8.5 4t-8 4.5t-5.5 4z" />
    <glyph glyph-name="copyright" unicode="&#xa9;" horiz-adv-x="514" 
d="M20 182q0 32 4 74t13.5 86t25 86.5t39 75t55.5 53t73 20.5q38 0 72 -13t63 -35.5t52.5 -52.5t39.5 -62t25.5 -66.5t9.5 -65.5q0 -61 -23.5 -112.5t-65 -89.5t-99 -59.5t-127.5 -21.5q-44 0 -73.5 14.5t-48.5 38.5t-27 58t-8 72zM61 193q0 -33 6.5 -60.5t21 -48t40 -32.5
t64.5 -12q54 0 101 18t82 48.5t55 71.5t20 87q0 11 -7 35.5t-18.5 54t-27.5 60.5t-35 57t-40 42t-41 16q-49 0 -84 -13t-60 -35.5t-39.5 -54t-23 -69t-11.5 -79.5t-3 -86zM157 229q0 21 8 50.5t22 56.5t34.5 45.5t46.5 18.5h14q10 0 19 -2t16.5 -6.5t7.5 -14.5l-66 -25
q-11 0 -20.5 -13.5t-16.5 -31t-11.5 -35t-4.5 -25.5q0 -15 2.5 -25.5t7.5 -16t15.5 -8t27.5 -2.5q30 0 54 5.5t43.5 12.5t34.5 12t26 5q0 -17 -9.5 -29.5t-25 -21.5t-35 -15.5t-38.5 -10t-37 -4.5t-31 -1q-39 0 -61.5 22.5t-22.5 58.5z" />
    <glyph glyph-name="ordfeminine" unicode="&#xaa;" horiz-adv-x="306" 
d="M13.3906 174.21q0 18.2158 4.69629 38.8291q4.69531 20.6133 13.0977 40.5068t20.5117 37.6309q12.1094 17.7363 26.4434 31.3984q14.333 13.6621 31.1387 21.8115q16.8047 8.14941 35.0928 8.14941q3.95312 0 11.6143 -1.67773q7.66113 -1.67871 15.5693 -4.31445
q7.9082 -2.63672 13.8398 -6.47168q5.93066 -3.83496 5.93066 -7.66992l-85.5068 -10.5459q-9.3916 0 -17.7939 -8.86914q-8.40234 -8.86816 -15.5693 -22.5303q-7.16602 -13.6621 -12.8506 -30.6797q-5.68359 -17.0176 -9.88477 -33.3164
q-4.20215 -16.2979 -6.42578 -29.7207q-2.22461 -13.4219 -2.22461 -20.1328v-4.79395q0 -2.87598 0.24707 -6.47168q0.248047 -3.5957 0.248047 -7.43066v-4.31348q0 -0.958984 1.97656 -2.87695l8.40234 -7.66992q1.97754 -2.39648 2.96582 -2.87598h1.48242h1.4834
q11.3672 0 21.9941 5.75293q10.627 5.75195 19.7705 13.9014t16.8047 17.4971t13.0986 15.5791q2.96484 3.35547 4.69531 14.6211q1.72949 11.2646 3.45996 25.8857q1.72949 14.6211 3.70703 31.1592q1.97656 16.5381 4.94238 30.2002t7.16699 22.291t10.626 8.62891
h1.97754h0.988281q0 -2.39746 0.24707 -11.9844q0.24707 -9.58789 0.494141 -22.7705q0.248047 -13.1826 0.495117 -28.043t0.24707 -28.043t0.494141 -22.7705q0.494141 -9.58691 0.988281 -11.9844q0 -2.39648 2.47168 -6.9502q2.4707 -4.55469 5.43652 -8.86816
q2.96582 -4.31445 6.42578 -7.66992q3.45898 -3.35645 5.43652 -3.35645h84.0244q0 -5.27246 -4.69531 -9.10742t-11.6152 -6.71191q-6.91992 -2.87598 -15.3223 -5.0332t-16.3105 -3.35547t-14.8281 -1.67773q-6.91895 -0.479492 -10.3789 -0.479492
q-19.7705 0 -33.1162 8.62891q-13.3447 8.62891 -24.7129 23.9688q-6.4248 -7.66992 -15.0752 -17.2578q-8.64941 -9.58691 -19.2764 -18.4551q-10.626 -8.86914 -22.7354 -15.1006t-23.9717 -7.66992q-15.3223 -1.91797 -24.4668 2.15723
q-9.14355 4.07422 -14.5801 11.2646q-5.4375 7.19141 -7.41406 17.4971q-1.97754 10.3066 -1.97754 22.291z" />
    <glyph glyph-name="guillemotleft" unicode="&#xab;" horiz-adv-x="603" 
d="M18 211q4 7 12 13t15.5 11.5t15 9.5t12.5 8q13 12 30.5 25.5t35.5 27t35 27t29 28.5q17 21 35.5 34t36 18.5t30.5 5.5t15 -6.5t-8.5 -19.5t-38.5 -32l-159 -150q10 -5 34 -13t54.5 -17.5t63 -21t60 -23.5t45.5 -26t18 -28q0 -9 -6.5 -15.5t-15.5 -6.5q-2 0 -4 0.5t-3 0.5
q-22 9 -52.5 19t-64 21t-68 23t-65.5 26t-55 29.5t-37 31.5zM203 238q5 7 12 13t15 11.5t15.5 9.5t11.5 8q14 12 31.5 25.5t35.5 27t35 27t30 28.5q15 21 34.5 34t36.5 18.5t30 5.5t15.5 -6.5t-8 -19.5t-40.5 -32l-157 -150q9 -5 33 -13t54.5 -17.5t63 -21t60 -23.5t45 -26
t17.5 -28q0 -9 -5.5 -15.5t-15.5 -6.5q-1 0 -3.5 0.5t-3.5 0.5q-22 9 -52 19t-64 21t-68.5 23t-65 26t-55 29.5t-37.5 31.5z" />
    <glyph glyph-name="logicalnot" unicode="&#xac;" horiz-adv-x="460" 
d="M399 239q-1 2 0 4.5t0 3.5t-5.5 2t-18 2t-37.5 1.5t-63 1t-95.5 0t-133.5 -0.5q-5 0 -8.5 1.5t-3.5 5.5t4.5 11.5t16.5 19.5q1 1 18 1h103h67.5h64t53.5 2h21q10 0 21.5 -2t21 -7t14.5 -14q-1 -20 -2 -44.5t-4 -49.5t-7.5 -48t-10.5 -38.5t-15 -22t-21 1.5z" />
    <glyph glyph-name="uni00AD" unicode="&#xad;" horiz-adv-x="355" 
d="M51 233h274q8 0 11 -6.5t3 -13.5q0 -8 -5.5 -14t-14.5 -6h-8q-19 0 -44 2t-52.5 3.5t-54.5 2.5t-48 2.5l-35 2.5h-12l-28 14z" />
    <glyph glyph-name="registered" unicode="&#xae;" horiz-adv-x="623" 
d="M157 382q-6 5 -7.5 9t-1.5 9q0 16 18 26t41 15.5t48.5 8t39.5 2.5q42 0 60.5 -13.5t18.5 -46.5q0 -42 -26.5 -68.5t-76.5 -42.5v-2v-2q0 -14 14.5 -27t37.5 -23.5t51.5 -18.5t57 -13.5t54 -9t41.5 -3.5q-40 -11 -79.5 -16.5t-78.5 1.5t-76.5 28.5t-72.5 65.5v-141
q-11 0 -18 4t-11 9.5t-5.5 12t-2.5 12.5q-1 8 -3 26t-4 40t-5.5 46t-5.5 46t-5 39.5t-3 26.5zM211 307q11 -9 29.5 -3.5t36.5 18.5t33 29.5t19 30.5q0 8 0.5 15.5t-2 13t-9 8.5t-18.5 3h-34.5t-31.5 -3t-23 -10.5t-9 -21.5q0 -11 0.5 -20.5t1.5 -18.5t3 -19t4 -22zM20 182
q0 32 4 74t13.5 86t25 86.5t39 75t55.5 53t73 20.5q80 0 143 -18.5t106 -57t66 -97t23 -139.5q0 -62 -20.5 -111.5t-66 -83.5t-120 -52.5t-184.5 -18.5q-44 0 -73.5 14.5t-48.5 38.5t-27 58t-8 72zM64 198q0 -32 6 -60.5t20 -50t39 -34.5t64 -13q36 0 76 5.5t79 16.5t75 27
t63 37t42.5 47t15.5 57q0 62 -22.5 115.5t-58.5 92t-80.5 60t-88.5 21.5q-73 0 -118.5 -25t-70 -68.5t-33 -102t-8.5 -125.5z" />
    <glyph glyph-name="macron" unicode="&#xaf;" horiz-adv-x="355" 
d="M40 500h274q8 0 11 -6.5t3 -12.5q0 -9 -5.5 -15t-13.5 -6h-8q-19 1 -45.5 1.5t-56 0t-58.5 -1t-52.5 -1.5t-39.5 -2h-13z" />
    <glyph glyph-name="degree" unicode="&#xb0;" horiz-adv-x="168" 
d="M20 370q2 22 12.5 30.5t25 6.5t30 -12.5t29 -24t21 -29t5.5 -28t-16 -21.5t-43 -9q-28 0 -46 25t-18 62zM87 311q21 0 27 8.5t2.5 19t-13.5 22t-22.5 17.5t-24.5 5t-17 -14q-2 -31 12.5 -44.5t35.5 -13.5z" />
    <glyph glyph-name="plusminus" unicode="&#xb1;" horiz-adv-x="371" 
d="M20 25h119v186h-106q0 5 2 9q3 9 7 13q11 8 22.5 11t21 2.5t19 -1.5t16.5 1.5t11.5 12t6.5 28.5v22v66v22q4 9 8 11.5t12 2.5q1 0 4 -0.5l3 -0.5q5 -1 12.5 -6.5t7.5 -6.5v-144h158l13 -20q-7 -8 -22.5 -10.5t-34 -3.5t-39 0t-37 0t-27.5 -4t-11 -10v-180h107
q9 0 12.5 -6.5t3.5 -13.5q0 -8 -6.5 -14t-14.5 -6h-8q-18 1 -44.5 1.5t-55 0.5t-56.5 -0.5t-50 -0.5h-36l-15 -1z" />
    <glyph glyph-name="twosuperior" unicode="&#xb2;" horiz-adv-x="322" 
d="M136.995 168.482q-9.40332 0 -18.1357 -4.17969t-17.4639 -9.14258q-8.73242 -4.96387 -18.8076 -9.14355t-23.5088 -4.17969h-6.71777q-4.0293 0 -9.40332 0.260742q-5.37305 0.261719 -9.73926 0.523438q-4.36621 0.260742 -6.38086 0.260742
q-2.6875 3.13477 -4.70215 6.00879q-2.01465 2.87305 -3.02246 5.74609q-1.00781 2.87402 -1.34375 6.26953q-0.335938 3.39648 -0.335938 7.05371q0 13.584 6.7168 22.4658t17.1289 13.8457q10.4111 4.96289 23.5088 7.05273t26.1963 2.35156
q13.0977 0.260742 25.1885 -1.04492q12.0898 -1.30664 20.8223 -1.8291q26.8672 21.9434 36.9434 51.7236q10.0752 29.7803 10.0752 61.6504q0 10.9717 -1.00781 24.2949q-1.00781 13.3223 -5.37305 24.2939q-4.36621 10.9717 -13.4346 18.2861
q-9.06738 7.31445 -25.1885 7.31445q-20.1504 0 -38.2861 -4.96289q-18.1357 -4.96387 -32.9131 -14.6289q-14.7773 -9.66602 -25.5244 -24.0332q-10.7471 -14.3682 -15.4482 -34.2217v3.65723q0 2.08984 -0.335938 4.96289q-0.335938 2.87402 -0.335938 4.96387v3.65723
q0 6.26953 0.335938 11.4941t1.34277 9.92676q1.00781 4.70215 3.02246 9.92676q2.01562 5.22461 6.0459 10.9717q15.4482 10.4492 26.5312 17.2412t21.4941 10.9717t20.8232 5.48535q10.4111 1.30664 25.8594 1.30664q21.4941 0 36.9434 -8.09766
q15.4492 -8.09863 25.1885 -21.9434q9.73926 -13.8457 14.1055 -31.0869t4.36621 -35.5273v-6.26953q0 -3.65723 -0.335938 -7.5752q-0.335938 -3.91895 -0.335938 -6.26953v-2.87402q-2.01465 -5.74707 -8.39648 -19.0693q-6.38086 -13.3232 -13.7695 -28.2129
q-7.38867 -14.8906 -14.1055 -28.2129q-6.7168 -13.3232 -10.7471 -18.0254v-2.08984l-0.671875 -2.08984q0 -12.5391 10.0762 -21.4209q10.0752 -8.88184 24.1807 -14.8896q14.1055 -6.00879 29.2188 -8.62109q15.1123 -2.6123 25.8594 -2.6123t18.8076 6.00879
q8.06055 6.00781 16.457 13.0605q8.39551 7.05371 16.792 12.8008t19.1436 5.74707q0 -13.0615 -8.39648 -22.9883t-20.8223 -16.9795q-12.4268 -7.05371 -26.5322 -10.7109t-26.1963 -3.65723q-14.7764 0 -27.5391 5.48535q-12.7617 5.48633 -25.5244 12.0176
q-12.7617 6.53027 -25.1885 12.0156q-12.4258 5.48633 -27.2031 5.48633zM67.8105 194.605q-12.7617 0 -19.4785 -1.82812q-6.7168 -1.8291 -10.0762 -6.00879q-3.3584 -4.17969 -4.0293 -12.5391q-0.671875 -8.35938 -0.671875 -20.8984h15.4482q12.0908 0 26.1963 2.35059
q14.1055 2.35156 24.8525 7.83789q10.7471 5.48535 10.7471 17.502q0 5.74707 -5.37305 8.62109q-5.37402 2.87305 -12.7627 3.91797t-14.1055 1.04492h-10.7471z" />
    <glyph glyph-name="threesuperior" unicode="&#xb3;" horiz-adv-x="241" 
d="M36.2227 192.735q9.08301 0 17.0312 -4.27246q7.94727 -4.27246 16.7461 -9.87988q8.7998 -5.60742 19.8691 -9.87988q11.0703 -4.27246 25.8301 -4.27246q16.4629 0 29.8037 5.60742t22.707 15.4873q9.36719 9.88086 14.7598 23.7656q5.39355 13.8857 5.39355 30.9756
q0 15.4873 -2.55469 29.1064q-2.55469 13.6182 -8.79883 23.498q-6.24512 9.87988 -17.0312 15.4883q-10.7861 5.60742 -27.249 5.60742q-12.4893 0 -21.0039 -3.20508q-8.51562 -3.2041 -16.4629 -6.94238q-7.94824 -3.73828 -15.8955 -6.94238
q-7.94727 -3.20508 -18.166 -3.20508q0 17.0898 6.24414 32.3105q6.24512 15.2207 13.9092 29.6406q7.66309 14.4199 14.1914 29.6406t6.52832 31.2422q-1.70312 0 -4.8252 0.800781t-6.81152 1.06836q-3.69043 0.266602 -6.8125 0.53418
q-3.12207 0.266602 -4.8252 0.266602q-2.83887 -1.06836 -10.5029 -2.9375q-7.66309 -1.86914 -16.1787 -4.53906t-16.1787 -5.34082q-7.66406 -2.66992 -10.5029 -3.2041l-7.94727 7.47656q3.40625 1.60254 10.7861 4.54004q7.37988 2.93652 16.1787 6.1416
q8.7998 3.2041 19.0176 6.67578q10.2188 3.4707 19.585 6.67578q9.36719 3.2041 16.4639 5.60742q7.0957 2.40332 10.502 3.4707q1.13477 0.53418 3.68945 1.06836t5.67676 1.06836q3.12305 0.53418 5.67773 0.800781q2.55469 0.267578 3.68945 0.267578
q0 -13.3516 -2.83789 -28.5723q-2.83887 -15.2207 -7.09668 -30.1748q-4.25781 -14.9531 -8.51562 -28.3047q-4.25684 -13.3516 -7.66309 -22.4307q27.249 -1.06836 47.6855 -4.80664t34.0615 -13.6182q13.624 -9.87988 20.4365 -27.7705q6.8125 -17.8916 6.8125 -47.7988
q0 -21.8965 -7.66406 -38.9863t-20.4365 -29.6396q-12.7734 -12.5508 -30.3711 -19.4932q-17.5986 -6.94336 -37.4678 -6.94336q-9.65039 0 -23.2754 1.33594q-13.624 1.33496 -26.3975 5.87402q-12.7725 4.54004 -21.2881 13.3516q-8.51562 8.8125 -8.51562 23.7656z" />
    <glyph glyph-name="acute" unicode="&#xb4;" horiz-adv-x="381" 
d="M290 727q16 -5 16 -16.5t-11.5 -26t-31 -30.5t-41 -30.5t-42.5 -25.5t-35.5 -15.5t-20.5 -1.5t3 18q5 9 16 21.5t24 25t27.5 26t26.5 25t21.5 21t12.5 15.5z" />
    <glyph glyph-name="mu" unicode="&#xb5;" horiz-adv-x="547" 
d="M287 124q-1 0 -3 -0.5t-3 -1.5q-24 -46 -47.5 -74t-47 -38t-46.5 -0.5t-45 39.5q-6 -67 -7 -109t-1 -67t-4 -36.5t-16 -13.5q-18 -6 -26 -0.5t-8.5 34t4 85t12.5 153.5q-1 7 -1.5 32t-0.5 60v154v67.5t-2 41.5q0 2 -0.5 10.5t-0.5 11.5q0 12 3 23t19 11q7 0 11.5 -3.5
t7.5 -12.5q2 -9 3.5 -37t3 -66t2.5 -80t2.5 -79.5t3 -66t3.5 -39.5q2 -12 5.5 -22t8 -17.5t13 -11.5t20.5 -4h11t10 1q40 35 70 85.5t49 107.5t29.5 116t13.5 113l2.5 0.5t3.5 0.5q7 0 11.5 -3t8.5 -10q1 -24 -2 -57.5t-7 -70.5t-8 -75.5t-3.5 -75t7 -67t21 -52t39 -30.5
t63.5 -1q-8 -12 -10 -21.5t-3.5 -16t-5.5 -10t-17 -3.5q-26 0 -46 9.5t-35 23.5t-25 30t-17 30t-12.5 23.5t-10.5 9.5z" />
    <glyph glyph-name="paragraph" unicode="&#xb6;" 
d="M318 32q-2 15 -3.5 42.5t-2.5 62t-1.5 74.5t-0.5 79.5t-0.5 76.5t-0.5 67q-5 -3 -7 -2.5t-5 1t-6.5 0.5t-8.5 -3q-6 -15 -10.5 -43t-7.5 -63.5t-5.5 -74.5t-4 -75t-3.5 -67t-4 -48q0 -3 -1.5 -11.5t-4 -18t-4 -17.5t-3.5 -12l-27 15l-1 5v8.5v11.5v9q0 68 6 132.5
t6 130.5q-13 0 -25 -2l-49 -9q-12 -3 -24 -3q-18 0 -36 5.5t-33 16t-24 27.5t-9 40q0 27 10.5 54t28 48.5t41 35t49.5 13.5q21 2 50.5 2.5t59 -3.5t55.5 -15t41 -32q10 -52 11 -115.5t-2 -129t-6.5 -129.5t-3.5 -117q-30 0 -34 33z" />
    <glyph glyph-name="periodcentered" unicode="&#xb7;" horiz-adv-x="186" 
d="M81 155q-2 20 5 29t17 10.5t21 -4t17 -15t4 -21t-16 -24.5q-9 -7 -18 -6.5t-16.5 5t-11.5 12t-2 14.5z" />
    <glyph glyph-name="cedilla" unicode="&#xb8;" horiz-adv-x="514" 
d="M127 -243q0 1 -0.5 5t-1.5 9v4q6 -5 19 -12q15 -9 36.5 -17.5t43.5 -13.5t41 -4.5t31.5 10t13 30t-14.5 56.5q-8 18 -23.5 24t-33.5 8.5t-37.5 3.5t-35 9t-25.5 25t-10 50q-6 51 -3 77t10.5 34.5t16.5 2t15.5 -20.5t8 -32t-6.5 -32q0 -15 6 -24t23 -17q28 -4 55.5 -7.5
t49 -14t34.5 -31t10 -58.5q15 -48 7.5 -79t-28 -47.5t-50.5 -19.5t-59.5 6t-54.5 28t-37 48z" />
    <glyph glyph-name="onesuperior" unicode="&#xb9;" horiz-adv-x="109" 
d="M49.4062 142.346q-1.65137 6.14746 -3.30273 22.2861q-1.65137 16.1377 -2.47656 36.8877q-0.825195 20.749 -2.06348 43.8037q-1.23926 23.0547 -2.47754 44.0605q-1.23828 21.0049 -2.06348 37.1436t-2.47656 22.7988v2.56152q0 2.56152 -0.413086 5.63574
q-0.412109 3.07422 -0.412109 5.63574v4.61035q0 1.53711 -0.413086 5.37988t0.413086 7.42871q0.825195 3.58594 3.30176 6.66016t9.08105 4.09863q0.826172 -1.53711 2.88965 -4.35449q2.06348 -2.81836 3.30176 -6.14844t2.88965 -6.40332
q1.65137 -3.07422 2.47656 -4.61133q7.43066 -26.1289 11.1455 -57.6367q3.71484 -31.5088 5.36621 -64.041q1.65137 -32.5332 2.06348 -64.2979q0.413086 -31.7646 0.413086 -58.4053q-24.7666 0 -27.2432 16.9072z" />
    <glyph glyph-name="ordmasculine" unicode="&#xba;" horiz-adv-x="271" 
d="M16.6367 197.182q1.66211 19.8398 6.0957 40.9844t12.1914 40.7236q7.75781 19.5781 19.3945 36.8076q11.6367 17.2285 27.707 30.0205q16.0703 12.791 37.127 19.3174q21.0576 6.52637 47.6562 4.4375q36.0186 -29.2373 51.5342 -59.2578
q15.5166 -30.0205 15.793 -57.4297q0.277344 -27.4102 -11.6367 -51.4268t-31.0312 -41.5068q-19.1182 -17.4902 -42.3916 -27.9316q-23.2744 -10.4424 -45.4395 -10.4424q-17.1787 0 -32.9717 4.95996t-27.707 14.6191q-11.9131 9.6582 -19.1172 23.7549t-7.2041 32.3701z
M207.261 250.957q0 15.6631 -2.49414 28.7158q-2.49316 13.0518 -8.03516 24.0166q-5.54102 10.9639 -14.6846 21.1445q-9.14258 10.1807 -22.4424 20.1006l-1.1084 -4.17676q-19.9492 1.56641 -40.4521 -8.87598q-20.5029 -10.4414 -37.127 -29.2373
q-16.624 -18.7949 -26.5986 -44.3779t-7.75781 -54.2979q0 -17.2285 7.20312 -30.2812q7.2041 -13.0527 23.2744 -22.9727q1.66211 0 6.0957 -0.260742q4.43262 -0.260742 9.14258 -0.260742q4.71094 0 9.14355 -0.261719q4.43359 -0.260742 5.54102 -0.260742
q24.9365 0 43.7773 7.04883q18.8408 7.04785 31.3086 20.1006q12.4688 13.0518 18.8408 31.8477q6.37305 18.7949 6.37305 42.2891z" />
    <glyph glyph-name="guillemotright" unicode="&#xbb;" horiz-adv-x="591" 
d="M44 56q17 20 45 42.5t60.5 45l65 45t58.5 45.5t42.5 47t16.5 48q0 11 -2 17t-13 11l-287 165q-8 4 -12.5 11t-4.5 16h44q1 0 15.5 -7t39 -19t54 -27t60 -30t58 -29.5t46.5 -24.5q8 -3 20.5 -10.5t23 -16.5t18.5 -19.5t8 -21.5q0 -20 -12.5 -42t-30 -43t-36.5 -38.5
t-31 -27.5q-5 -3 -17.5 -12.5t-30 -22t-38 -27.5t-41 -29.5t-37.5 -26.5t-28 -19q-3 -1 -7 -4t-8.5 -4.5t-8 -3.5l-3.5 -2q-3 0 -7 2t-8 3.5t-7.5 4.5t-4.5 4zM190 67q17 21 45 43t60.5 44t64.5 45t58.5 46t43 47.5t16.5 48.5q0 11 -2.5 16.5t-12.5 10.5l-288 165
q-7 5 -12 12t-5 16h44q1 0 16 -7.5t39.5 -19.5t54 -27t59.5 -29.5t58 -29t47 -24.5q8 -5 20 -11.5t23 -16t19 -20.5t8 -21q0 -19 -12.5 -41t-30 -43.5t-36.5 -39t-31 -27.5q-5 -2 -17.5 -11.5t-30 -22.5t-38.5 -27.5t-41 -29t-37 -26.5t-28 -20q-3 -1 -7 -3.5t-8.5 -4
t-8 -3.5l-3.5 -2q-3 0 -7 2t-8 3.5t-7.5 4t-4.5 3.5z" />
    <glyph glyph-name="onequarter" unicode="&#xbc;" horiz-adv-x="594" 
d="M56.9199 139.04q-2.06934 7.30371 -4.13965 26.4736q-2.06934 19.1699 -3.10449 43.8174t-2.58691 52.0342q-1.55273 27.3857 -3.10547 52.3379q-1.55176 24.9521 -2.58691 44.1221q-1.03516 19.1709 -3.10449 27.082v3.04297q0 3.04297 -0.517578 6.69434
t-0.517578 6.69434v5.47754q0 1.8252 -0.517578 6.38965t0.517578 8.82422q1.03516 4.26074 4.13965 7.91211t11.3838 4.86816q1.03516 -1.8252 3.62207 -5.17285q2.58789 -3.34668 4.13965 -7.30273q1.55273 -3.95605 3.62207 -7.60742q2.07031 -3.65137 3.10547 -5.47754
q9.31445 -31.0371 13.9707 -68.4648q4.65723 -37.4277 6.72754 -76.0732q2.06934 -38.6445 2.58691 -76.377q0.517578 -37.7314 0.517578 -69.3779q-31.0469 0 -34.1523 20.083zM19 17v3.5v3.5q12 14 36 46t53.5 72.5t62 85t62 85.5t53.5 73l36 48q2 4 7.5 13.5t12.5 20
t12 21t8 14.5h27q-9 -39 -29.5 -81t-48 -85t-60 -86.5t-66 -85t-65.5 -81t-59 -75.5q-7 -8 -9.5 -11t-10.5 -3q-9 0 -15.5 6.5t-6.5 15.5zM386.674 194.886h-142.802q-5.46191 0 -8.58301 4.75q-3.12207 4.74902 -3.12207 8.31152q0 0.59375 0.390625 2.37402
q0.389648 1.78125 1.1709 1.78125q36.6748 27.3096 63.9873 47.792q27.3115 20.4824 45.6494 33.8408q18.3379 13.3574 29.2627 20.7783q10.9248 7.42188 14.0459 9.7959l2.34082 0.59375h3.12109q4.68262 0 7.80371 -3.8584q3.12109 -3.85938 4.68164 -8.6084
q1.56055 -4.75 2.34082 -9.20215q0.780273 -4.45312 0.780273 -5.04688q0 -4.15527 1.56152 -15.4355q1.56055 -11.2803 3.12109 -23.4512q1.56055 -12.1699 2.73145 -23.1533q1.16992 -10.9834 1.16992 -15.1396q1.56055 -4.74902 5.07227 -6.82715t8.58398 -2.67188
t9.36328 -0.296875q4.29199 0.296875 8.19434 0.296875q19.5078 0 33.9443 5.9375q14.4355 5.93652 26.9219 20.1855q0 -0.59375 0.780273 -3.85938t0.780273 -4.45312q3.90137 -15.4355 -0.780273 -23.7471q-4.68262 -8.31152 -14.8271 -11.874
q-10.1436 -3.56152 -23.7998 -3.8584t-25.751 0.296875q-12.0957 0.59375 -21.459 0.296875q-9.36426 -0.296875 -10.9248 -4.45312v-172.17l-15.6064 -17.8105l-10.1445 8.31152v190.574zM314.883 221.008h60.8662v59.9629h-10.1445l-50.7217 -43.3389v-16.624z" />
    <glyph glyph-name="onehalf" unicode="&#xbd;" horiz-adv-x="634" 
d="M52.6055 139.04q-1.76758 7.30371 -3.53516 26.4736t-2.65137 43.8174t-2.20898 52.0342q-1.32617 27.3857 -2.65137 52.3379q-1.32617 24.9521 -2.20898 44.1221q-0.883789 19.1709 -2.65137 27.082v3.04297q0 3.04297 -0.442383 6.69434
q-0.441406 3.65137 -0.441406 6.69434v5.47754q0 1.8252 -0.442383 6.38965q-0.441406 4.56445 0.442383 8.82422q0.883789 4.26074 3.53516 7.91211q2.65039 3.65137 9.7207 4.86816q0.883789 -1.8252 3.09277 -5.17285q2.20898 -3.34668 3.53516 -7.30273
q1.3252 -3.95605 3.09277 -7.60742t2.65137 -5.47754q7.95312 -31.0371 11.9307 -68.4648q3.97656 -37.4277 5.74414 -76.0732q1.76758 -38.6445 2.20898 -76.377q0.441406 -37.7314 0.441406 -69.3779q-26.5117 0 -29.1621 20.083zM16 19v3.5v3.5q12 14 36 46t53.5 72.5
t62 85t62 85.5t53.5 73l36 48q2 4 7.5 13.5t12.5 20t12 21t8 14.5h27q-9 -39 -29.5 -81t-48 -85t-60 -86.5t-66 -85t-65.5 -81t-59 -75.5q-7 -8 -9.5 -11t-10.5 -3q-9 0 -15.5 6.5t-6.5 15.5zM328.445 42.9258q-9.22363 0 -17.7881 -5.20312t-17.1289 -11.3818
q-8.56543 -6.17871 -18.4473 -11.3818t-23.0586 -5.20312h-6.58789q-3.95312 0 -9.22363 0.325195t-9.55273 0.650391t-6.25879 0.325195q-2.63477 3.90234 -4.61133 7.47949t-2.96484 7.1543t-1.31738 7.80469q-0.330078 4.22754 -0.330078 8.78027
q0 16.9102 6.58887 27.9668q6.58789 11.0566 16.7998 17.2354q10.2109 6.17871 23.0586 8.78027q12.8467 2.60156 25.6934 2.92676t24.7051 -1.30078q11.8594 -1.62598 20.4238 -2.27637q26.3525 27.3164 36.2344 64.3887q9.88281 37.0723 9.88281 76.7461
q0 13.6582 -0.988281 30.2432t-5.27051 30.2432t-13.1768 22.7637q-8.89355 9.10547 -24.7051 9.10547q-19.7646 0 -37.5527 -6.17871t-32.2822 -18.2109q-14.4932 -12.0322 -25.0342 -29.918t-15.1533 -42.6006v4.55273q0 2.60156 -0.329102 6.17871t-0.329102 6.17871
v4.55273q0 7.80469 0.329102 14.3086t1.31738 12.3574t2.96484 12.3574t5.92969 13.6582q15.1523 13.0078 26.0225 21.4629q10.8711 8.45508 21.082 13.6582q10.2119 5.20312 20.4238 6.8291q10.2109 1.62598 25.3643 1.62598q21.082 0 36.2344 -10.0811
q15.1533 -10.0811 24.7061 -27.3164t13.835 -38.6982t4.28223 -44.2266v-7.80469q0 -4.55273 -0.330078 -9.43066q-0.329102 -4.87793 -0.329102 -7.80469v-3.57715q-1.97656 -7.1543 -8.23535 -23.7393t-13.5059 -35.1211q-7.24609 -18.5361 -13.835 -35.1211
q-6.58789 -16.585 -10.541 -22.4385v-2.60156l-0.658203 -2.60156q0 -15.6094 9.88184 -26.666q9.88281 -11.0566 23.7178 -18.5361t28.6582 -10.7314t25.3643 -3.25195t18.4463 7.47949q7.90625 7.47949 16.1416 16.2598q8.23438 8.78027 16.4697 15.9346t18.7764 7.1543
q0 -16.2598 -8.23535 -28.6172t-20.4229 -21.1377q-12.1885 -8.78027 -26.0234 -13.333t-25.6934 -4.55273q-14.4941 0 -27.0117 6.8291t-25.0352 14.959q-12.5166 8.12988 -24.7051 14.959q-12.1875 6.8291 -26.6816 6.8291zM260.587 75.4453q-12.5166 0 -19.1055 -2.27637
q-6.58789 -2.27637 -9.88184 -7.47949t-3.95312 -15.6094q-0.658203 -10.4062 -0.658203 -26.0156h15.1523q11.8584 0 25.6934 2.92676t24.376 9.75586t10.541 21.7881q0 7.1543 -5.27051 10.7314t-12.5176 4.87793q-7.24609 1.30078 -13.835 1.30078h-10.541z" />
    <glyph glyph-name="threequarters" unicode="&#xbe;" horiz-adv-x="705" 
d="M42.5107 192.896q11.2031 0 21.0059 -4.87598q9.80273 -4.875 20.6553 -11.2744q10.8535 -6.39844 24.5078 -11.2744q13.6533 -4.875 31.8584 -4.875q20.3057 0 36.7607 6.39844q16.4541 6.39941 28.0078 17.6738q11.5527 11.2744 18.2051 27.1201
q6.65137 15.8457 6.65137 35.3477q0 17.6729 -3.15137 33.2139q-3.15039 15.54 -10.8525 26.8154q-7.70215 11.2744 -21.0059 17.6729q-13.3037 6.39941 -33.6094 6.39941q-15.4043 0 -25.9072 -3.65625q-10.5029 -3.65723 -20.3057 -7.92285
q-9.80273 -4.2666 -19.6055 -7.92285t-22.4062 -3.65625q0 19.502 7.70215 36.8711q7.70215 17.3682 17.1543 33.8232q9.45312 16.4551 17.5059 33.8232q8.05176 17.3691 8.05176 35.6523q-2.10059 0 -5.95215 0.914062q-3.85059 0.914062 -8.40234 1.21875
q-4.55078 0.304688 -8.40234 0.609375q-3.85059 0.304688 -5.95117 0.304688q-3.50098 -1.21875 -12.9531 -3.35156q-9.45312 -2.13281 -19.9561 -5.17969q-10.5029 -3.04785 -19.9561 -6.09473q-9.45215 -3.04688 -12.9531 -3.65625l-9.80273 8.53125
q4.20117 1.8291 13.3037 5.18066t19.9561 7.00879q10.8525 3.65625 23.4561 7.61719q12.6035 3.96191 24.1572 7.61816q11.5527 3.65723 20.3047 6.39941q8.75293 2.74219 12.9541 3.96094q1.40039 0.609375 4.55176 1.21875q3.15039 0.610352 7.00195 1.21973
q3.85059 0.609375 7.00195 0.914062q3.15039 0.304688 4.55078 0.304688q0 -15.2363 -3.50098 -32.6055q-3.50098 -17.3682 -8.75293 -34.4326q-5.25098 -17.0645 -10.502 -32.2998q-5.25195 -15.2363 -9.45312 -25.5967q33.6094 -1.21875 58.8164 -5.48535
q25.207 -4.26562 42.0117 -15.54t25.207 -31.6914q8.40234 -20.416 8.40234 -54.5439q0 -24.9873 -9.45312 -44.4893q-9.45215 -19.502 -25.207 -33.8232q-15.7539 -14.3223 -37.46 -22.2441q-21.7061 -7.92285 -46.2129 -7.92285q-11.9033 0 -28.708 1.52344
t-32.5586 6.7041q-15.7549 5.17969 -26.2578 15.2354t-10.5029 27.1201zM129 52v3.5v3.5q12 14 36 46t53.5 72.5t62 85t62 85.5t53.5 73l36 48q2 4 7.5 13.5t12.5 20t12 21t8 14.5h27q-9 -39 -29.5 -81t-48 -85t-60 -86.5t-66 -85t-65.5 -81t-59 -75.5q-7 -8 -9.5 -11
t-10.5 -3q-9 0 -15.5 6.5t-6.5 15.5zM460.855 222.045h-143.784q-5.5 0 -8.64258 5.20703q-3.14355 5.20703 -3.14355 9.11133q0 0.651367 0.393555 2.60352q0.392578 1.95312 1.17871 1.95312q36.9277 29.9404 64.4277 52.3955q27.499 22.4561 45.9639 37.1006
q18.4639 14.6445 29.4639 22.7803t14.1426 10.7393l2.35645 0.651367h3.14355q4.71387 0 7.85645 -4.23047q3.14355 -4.23145 4.71484 -9.43848t2.35645 -10.0879q0.786133 -4.88184 0.786133 -5.5332q0 -4.55566 1.57129 -16.9219q1.57129 -12.3672 3.14258 -25.71
t2.75 -25.3848q1.17871 -12.041 1.17871 -16.5967q1.57129 -5.20703 5.10742 -7.48535q3.53516 -2.27832 8.64258 -2.92871q5.10742 -0.651367 9.42871 -0.326172q4.32129 0.326172 8.25 0.326172q19.6426 0 34.1777 6.50781q14.5352 6.50977 27.1074 22.1309
q0 -0.651367 0.785156 -4.23145q0.786133 -3.5791 0.786133 -4.88184q3.92773 -16.9219 -0.786133 -26.0352q-4.71387 -9.11133 -14.9287 -13.0176q-10.2139 -3.9043 -23.9639 -4.23047q-13.75 -0.325195 -25.9277 0.326172q-12.1787 0.650391 -21.6074 0.325195
t-11 -4.88184v-188.755l-15.7139 -19.5264l-10.2139 9.1123v208.933zM388.57 250.684h61.2852v65.7383h-10.2139l-51.0713 -47.5137v-18.2246z" />
    <glyph glyph-name="questiondown" unicode="&#xbf;" horiz-adv-x="408" 
d="M81.6924 300.227q-0.949219 -1.83008 -1.89941 -6.8623q-0.950195 -5.03125 -0.950195 -6.86133q0 -21.9561 19.4727 -39.3389q19.4736 -17.3818 48.9199 -32.4766q29.4463 -15.0957 63.6426 -30.6484q34.1963 -15.5518 63.6426 -33.8496
q29.4463 -18.2969 48.9189 -41.168q19.4727 -22.8721 19.4727 -53.0615q0 -22.8721 -9.97363 -37.0518q-9.97363 -14.1807 -25.1719 -21.499q-15.1982 -7.31934 -34.6709 -9.60645t-39.4209 -2.28711q-26.5967 0 -51.7686 11.8936q-25.1719 11.8926 -47.9697 26.5303
q-22.7969 14.6377 -41.3203 26.5312q-18.5225 11.8926 -29.9209 11.8926q-9.49902 0 -15.1982 -5.48926q-5.7002 -5.48828 -5.7002 -14.6377q0 -15.5518 12.3486 -27.9023t32.2969 -23.3291q19.9473 -10.9785 43.2197 -18.7549t47.0195 -12.8076
q23.7471 -5.03223 43.2197 -7.77637q19.4736 -2.74414 30.8721 -2.74414q61.7422 0 96.4141 26.5303q34.6709 26.5312 34.6709 85.9971v7.31836v11.4355t-0.475586 11.4355q-0.474609 5.48926 -0.474609 7.31934q-11.3984 14.6377 -35.1465 32.9346
q-23.7471 18.2969 -52.2432 36.5947q-28.4971 18.2969 -59.3682 36.5938q-30.8721 18.2969 -56.5186 33.3926q-25.6475 15.0947 -41.7949 26.0732q-16.1484 10.9785 -16.1484 16.4668q0 10.0635 9.49902 18.2979q9.49902 8.2334 17.0977 12.8076l19.9482 12.8086
q15.1982 9.14844 31.8213 19.2119t31.8213 18.7539q15.1982 8.69141 20.8975 11.4355v3.20215v4.11719q0 8.2334 -5.22461 13.2656q-5.22461 5.03125 -13.7734 5.03125q-21.8477 0 -43.6953 -10.5205q-21.8467 -10.5215 -41.7949 -26.0732
q-19.9473 -15.5527 -36.5703 -32.9355q-16.623 -17.3818 -28.0225 -30.1895zM292.568 599.384q0 9.14844 -6.17383 17.8398q-6.1748 8.69141 -15.6738 8.69141q-10.4482 0 -17.0977 -8.69141t-6.64941 -17.8398h45.5947z" />
    <glyph glyph-name="Agrave" unicode="&#xc0;" horiz-adv-x="639" 
d="M4 -1q0 16 6.5 31.5t15.5 30t19.5 27.5t18.5 24q49 71 87 139.5t70 139t60 144t57 152.5q4 9 8.5 12.5t12.5 3.5q10 0 17 -9.5t10.5 -21.5t5 -23.5t1.5 -15.5q1 -7 2 -26.5t2 -46t2.5 -57.5t3 -57.5t2 -46t1.5 -27.5q0 -3 2 -11t4 -16.5t4.5 -16.5t4.5 -10q0 -1 4.5 -5
t9.5 -8.5t9 -8.5t4 -5q1 -2 1 -10t-0.5 -17t-0.5 -17.5v-9.5q5 -18 20 -41t35 -48t42 -49t40 -43t30 -31.5t12 -14.5q0 -10 -8.5 -15t-20.5 -5q-23 0 -47.5 18t-47.5 45.5t-44.5 59.5t-37.5 59.5t-27.5 46t-14.5 18.5h-163q-27 0 -45 -18t-32 -44.5t-25.5 -57t-26.5 -57
t-34 -44t-49 -17.5zM338 578q-1 -1 -3 -5l-4 -8t-4.5 -8.5t-2.5 -5.5q-8 -17 -17.5 -43t-20.5 -53l-21 -54q-10 -27 -18 -48t-13 -34.5t-5 -14.5v-13h138zM331 905q3 -9 19 -27.5t34.5 -40.5t35.5 -43.5t24 -36.5q8 -16 3 -19.5t-18.5 1t-32 17.5t-38 28.5t-36.5 33.5
t-27 34t-10 28.5t13 17.5z" />
    <glyph glyph-name="Aacute" unicode="&#xc1;" horiz-adv-x="657" 
d="M8 9q0 16 6.5 31.5t15.5 30t19.5 27.5t18.5 24q49 71 87 139.5t70 139t60 144t57 152.5q4 9 8.5 12.5t12.5 3.5q10 0 17 -9.5t10.5 -21.5t5 -23.5t1.5 -15.5q1 -7 2 -26.5t2 -46t2.5 -57.5t3 -57.5t2 -46t1.5 -27.5q0 -3 2 -11t4 -16.5t4.5 -16.5t4.5 -10q0 -1 4.5 -5
t9.5 -8.5t9 -8.5t4 -5q1 -2 1 -10t-0.5 -17t-0.5 -17.5v-9.5q5 -18 20 -41t35 -48t42 -49t40 -43t30 -31.5t12 -14.5q0 -10 -8.5 -15t-20.5 -5q-23 0 -47.5 18t-47.5 45.5t-44.5 59.5t-37.5 59.5t-27.5 46t-14.5 18.5h-163q-27 0 -45 -18t-32 -44.5t-25.5 -57t-26.5 -57
t-34 -44t-49 -17.5zM342 588q-1 -1 -3 -5l-4 -8t-4.5 -8.5t-2.5 -5.5q-8 -17 -17.5 -43t-20.5 -53l-21 -54q-10 -27 -18 -48t-13 -34.5t-5 -14.5v-13h138zM410 854q16 -5 16 -16.5t-11.5 -26t-31 -30.5t-41 -30.5t-42.5 -25.5t-35.5 -15.5t-20.5 -1.5t3 18q5 9 16 21.5
t24 25t27.5 26t26.5 25t21.5 21t12.5 15.5z" />
    <glyph glyph-name="Acircumflex" unicode="&#xc2;" horiz-adv-x="657" 
d="M8 9q0 16 6.5 31.5t15.5 30t19.5 27.5t18.5 24q49 71 87 139.5t70 139t60 144t57 152.5q4 9 8.5 12.5t12.5 3.5q10 0 17 -9.5t10.5 -21.5t5 -23.5t1.5 -15.5q1 -7 2 -26.5t2 -46t2.5 -57.5t3 -57.5t2 -46t1.5 -27.5q0 -3 2 -11t4 -16.5t4.5 -16.5t4.5 -10q0 -1 4.5 -5
t9.5 -8.5t9 -8.5t4 -5q1 -2 1 -10t-0.5 -17t-0.5 -17.5v-9.5q5 -18 20 -41t35 -48t42 -49t40 -43t30 -31.5t12 -14.5q0 -10 -8.5 -15t-20.5 -5q-23 0 -47.5 18t-47.5 45.5t-44.5 59.5t-37.5 59.5t-27.5 46t-14.5 18.5h-163q-27 0 -45 -18t-32 -44.5t-25.5 -57t-26.5 -57
t-34 -44t-49 -17.5zM342 588q-1 -1 -3 -5l-4 -8t-4.5 -8.5t-2.5 -5.5q-8 -17 -17.5 -43t-20.5 -53l-21 -54q-10 -27 -18 -48t-13 -34.5t-5 -14.5v-13h138zM266 812q2 3 9 18t15.5 35.5t18.5 43t20 40.5t18.5 31t15.5 13q1 0 6 -1.5t7 -2.5q0 -4 1.5 -13.5t3.5 -20.5t4.5 -21
t4.5 -13q3 -9 11.5 -26.5t18.5 -37.5t21 -40l17 -35q22 -33 27 -50t0 -21t-18.5 3t-30.5 20t-34 31t-29.5 37t-18.5 38q-2 11 0 22q-1 -3 -2 -5q-7 -14 -17.5 -33t-23.5 -41t-25.5 -39.5t-21.5 -27t-13.5 -4.5t-1 28.5t16.5 71.5zM357 872q-3 -5 -3 -9q4 8 3 9z" />
    <glyph glyph-name="Atilde" unicode="&#xc3;" horiz-adv-x="657" 
d="M8 9q0 16 6.5 31.5t15.5 30t19.5 27.5t18.5 24q49 71 87 139.5t70 139t60 144t57 152.5q4 9 8.5 12.5t12.5 3.5q10 0 17 -9.5t10.5 -21.5t5 -23.5t1.5 -15.5q1 -7 2 -26.5t2 -46t2.5 -57.5t3 -57.5t2 -46t1.5 -27.5q0 -3 2 -11t4 -16.5t4.5 -16.5t4.5 -10q0 -1 4.5 -5
t9.5 -8.5t9 -8.5t4 -5q1 -2 1 -10t-0.5 -17t-0.5 -17.5v-9.5q5 -18 20 -41t35 -48t42 -49t40 -43t30 -31.5t12 -14.5q0 -10 -8.5 -15t-20.5 -5q-23 0 -47.5 18t-47.5 45.5t-44.5 59.5t-37.5 59.5t-27.5 46t-14.5 18.5h-163q-27 0 -45 -18t-32 -44.5t-25.5 -57t-26.5 -57
t-34 -44t-49 -17.5zM342 588q-1 -1 -3 -5l-4 -8t-4.5 -8.5t-2.5 -5.5q-8 -17 -17.5 -43t-20.5 -53l-21 -54q-10 -27 -18 -48t-13 -34.5t-5 -14.5v-13h138zM245 738q0 38 10 59.5t26.5 29.5t38 5.5t44 -11.5t45 -22t41.5 -26q35 27 63.5 39.5t49 15t28.5 -4.5t-1 -21.5
t-38 -33.5t-82 -41q-22 1 -43 8t-40.5 15t-38 14.5t-36 7.5t-34.5 -6.5t-33 -27.5z" />
    <glyph glyph-name="Adieresis" unicode="&#xc4;" horiz-adv-x="657" 
d="M8 9q0 16 6.5 31.5t15.5 30t19.5 27.5t18.5 24q49 71 87 139.5t70 139t60 144t57 152.5q4 9 8.5 12.5t12.5 3.5q10 0 17 -9.5t10.5 -21.5t5 -23.5t1.5 -15.5q1 -7 2 -26.5t2 -46t2.5 -57.5t3 -57.5t2 -46t1.5 -27.5q0 -3 2 -11t4 -16.5t4.5 -16.5t4.5 -10q0 -1 4.5 -5
t9.5 -8.5t9 -8.5t4 -5q1 -2 1 -10t-0.5 -17t-0.5 -17.5v-9.5q5 -18 20 -41t35 -48t42 -49t40 -43t30 -31.5t12 -14.5q0 -10 -8.5 -15t-20.5 -5q-23 0 -47.5 18t-47.5 45.5t-44.5 59.5t-37.5 59.5t-27.5 46t-14.5 18.5h-163q-27 0 -45 -18t-32 -44.5t-25.5 -57t-26.5 -57
t-34 -44t-49 -17.5zM342 588q-1 -1 -3 -5l-4 -8t-4.5 -8.5t-2.5 -5.5q-8 -17 -17.5 -43t-20.5 -53l-21 -54q-10 -27 -18 -48t-13 -34.5t-5 -14.5v-13h138zM376 746q0 10 4 16.5t11 10.5t15 6t15 2v-8q0 -8 -1.5 -17t-5 -16.5t-10.5 -7.5q-2 0 -6 1.5t-8.5 4t-8 4.5t-5.5 4z
M287 746q0 10 4 16.5t11 10.5t15 6t15 2v-8q0 -8 -2 -17t-5 -16.5t-10 -7.5q-2 0 -6 1.5t-8.5 4t-8 4.5t-5.5 4z" />
    <glyph glyph-name="Aring" unicode="&#xc5;" horiz-adv-x="657" 
d="M298 776q3 22 13 30t24.5 6.5t30.5 -11.5t29 -24t20.5 -29t5.5 -28.5t-16 -22.5q-7 -4 -18 -6q2 -4 3 -10q4 -11 5.5 -22.5t1.5 -15.5q1 -7 2 -26.5t2 -46t2.5 -57.5t3 -57.5t2 -46t1.5 -27.5q0 -3 2 -11t4 -16.5t4.5 -16.5t4.5 -10q0 -1 4.5 -5t9.5 -8.5t9 -8.5t4 -5
q1 -2 1 -10t-0.5 -17t-0.5 -17.5v-9.5q5 -18 20 -41t35 -48t42 -49t40 -43t30 -31.5t12 -14.5q0 -10 -8.5 -15t-20.5 -5q-23 0 -47.5 18t-47.5 45.5t-44.5 59.5t-37.5 59.5t-27.5 46t-14.5 18.5h-163q-27 0 -45 -18t-32 -44.5t-25.5 -57t-26.5 -57t-34 -44t-49 -17.5
q0 16 6.5 31.5t15.5 30t19.5 27.5t18.5 24q49 71 87 139.5t70 139t59 143.5q28 72 56 149q-13 6 -24 21q-18 25 -18 62zM342 588q-1 -1 -3 -5l-4 -8t-4.5 -8.5t-2.5 -5.5q-8 -17 -17.5 -43t-20.5 -53l-21 -54q-10 -27 -18 -48t-13 -34.5t-5 -14.5v-13h138zM365 718
q20 0 26.5 8t3 19t-13.5 22t-22.5 17.5t-24.5 5.5t-17 -14q-2 -31 12.5 -44.5t35.5 -13.5z" />
    <glyph glyph-name="AE" unicode="&#xc6;" horiz-adv-x="846" 
d="M8 9q0 16 6.5 31.5t15.5 30t19.5 27.5t18.5 24q49 71 87 139.5t70 139t60 144t57 152.5q4 9 8.5 12.5t12.5 3.5q10 0 19.5 -8.5t17 -20t11.5 -22t4 -13.5v-23q0 -16 -0.5 -38.5t-1.5 -48.5t-2 -51l8 53q40 14 74 23t66.5 13.5t66 6.5t71.5 2q7 0 19 -0.5l24 -1t22 -1
t13 -1.5l27 -13l-15 -15q-7 1 -26 2t-41.5 1t-41.5 -1t-26 -2q-15 -1 -34.5 -4.5t-41.5 -7.5t-42.5 -8t-37 -8t-26.5 -7t-10 -5v-178h264q0 -10 -15.5 -17t-40.5 -11.5t-55 -7t-58 -5.5t-50.5 -6t-31.5 -7q0 -6 -0.5 -17.5t-0.5 -24.5v-25v-16q0 -17 -1 -40.5t2 -45
t14.5 -37t37.5 -15.5q67 0 134.5 7.5t135.5 7.5h20q-7 -9 -17.5 -19t-24 -18t-27.5 -12.5t-27 -4.5h-219q-16 0 -30 5v-4q0 -10 -8 -14.5t-21 -4.5q-23 0 -36 17.5t-18 44.5t-5 59t1 59t2 45t-2 18h-163q-27 0 -45 -18t-32 -44.5t-25.5 -57t-26.5 -57t-34 -44t-49 -17.5z
M328 561q-8 -17 -17.5 -43t-20.5 -53l-21 -54q-10 -27 -18 -48t-13 -34.5t-5 -14.5v-13h138l-29 287z" />
    <glyph glyph-name="Ccedilla" unicode="&#xc7;" horiz-adv-x="541" 
d="M153 -243q0 1 -0.5 5t-0.5 9v4q5 -5 18 -12q15 -9 36.5 -17.5t43.5 -13.5t41.5 -4.5t31.5 10t13 30t-14 56.5q-9 18 -24.5 24t-33.5 8.5t-37.5 3.5t-35 9t-25 25t-9.5 50q-7 51 -4 77q1 4 2 7q-33 16 -60 40q-35 35 -55 81t-20 103q0 80 24 151.5t59 143.5q17 20 29 33
t25.5 21t30 11.5t40.5 3.5q23 0 52.5 -6.5t56 -20.5t44.5 -35.5t18 -51.5q-20 0 -40.5 13.5t-42 29.5t-47 29.5t-58.5 13.5q-21 0 -40 -18.5t-34.5 -48t-27 -65.5t-19 -71t-11.5 -65t-4 -47q0 -55 17 -98.5t48 -73t75.5 -45.5t99.5 -16q38 0 67.5 9t51.5 19.5t36.5 19
t21.5 8.5q8 0 13 -3.5t7 -9t3 -12t1 -13.5q0 -18 -14 -29.5t-35.5 -18t-48.5 -9.5t-52.5 -3t-47.5 0.5t-34 0.5q-43 0 -81 10q1 -2 1 -4q2 -18 -7 -32q0 -15 6 -24t23 -17q29 -4 56.5 -7.5t48.5 -14t34 -31t11 -58.5q15 -48 7 -79t-28.5 -47.5t-50.5 -19.5t-59.5 6t-54 28
t-37.5 48z" />
    <glyph glyph-name="Egrave" unicode="&#xc8;" 
d="M27 314q0 30 0.5 53t2 45.5t4.5 47.5t7 59q41 15 74.5 24t66 14t66 6.5t72.5 1.5q7 0 19 -0.5t24 -1.5t22 -1t13 -1l27 -14l-15 -13q-7 1 -26.5 1h-41.5h-41t-27 -1q-14 -2 -34 -5.5t-41.5 -7.5t-42 -8.5t-37 -8.5t-27 -7t-10.5 -5v-178h265q0 -10 -15.5 -16t-41 -10.5
t-55 -8t-58 -6t-50.5 -5.5t-32 -8v-16.5t-0.5 -24.5t-0.5 -26v-16q0 -17 -0.5 -40.5t2.5 -45t14.5 -36.5t36.5 -15q34 0 67.5 2t67.5 4.5t67.5 5.5t67.5 3h21q-7 -10 -18 -20t-24.5 -17.5t-27 -12.5t-26.5 -5h-219q-31 0 -50.5 18.5t-30.5 47.5t-14.5 64.5t-4 71t1.5 65.5
t2 47zM202 775q3 -9 19 -27.5t34.5 -40.5t35.5 -43.5t24 -36.5q8 -16 3 -19.5t-18.5 1t-32 17.5t-38 28.5t-36.5 33.5t-27 34t-10 28.5t13 17.5z" />
    <glyph glyph-name="Eacute" unicode="&#xc9;" 
d="M27 314q0 30 0.5 53t2 45.5t4.5 47.5t7 59q41 15 74.5 24t66 14t66 6.5t72.5 1.5q7 0 19 -0.5t24 -1.5t22 -1t13 -1l27 -14l-15 -13q-7 1 -26.5 1h-41.5h-41t-27 -1q-14 -2 -34 -5.5t-41.5 -7.5t-42 -8.5t-37 -8.5t-27 -7t-10.5 -5v-178h265q0 -10 -15.5 -16t-41 -10.5
t-55 -8t-58 -6t-50.5 -5.5t-32 -8v-16.5t-0.5 -24.5t-0.5 -26v-16q0 -17 -0.5 -40.5t2.5 -45t14.5 -36.5t36.5 -15q34 0 67.5 2t67.5 4.5t67.5 5.5t67.5 3h21q-7 -10 -18 -20t-24.5 -17.5t-27 -12.5t-26.5 -5h-219q-31 0 -50.5 18.5t-30.5 47.5t-14.5 64.5t-4 71t1.5 65.5
t2 47zM289 769q16 -5 16 -16.5t-11.5 -26t-31 -30.5t-41 -30.5t-42.5 -25.5t-35.5 -15.5t-20.5 -1.5t3 18q5 9 16 21.5t24 25t27.5 26t26.5 25t21.5 21t12.5 15.5z" />
    <glyph glyph-name="Ecircumflex" unicode="&#xca;" 
d="M27 314q0 30 0.5 53t2 45.5t4.5 47.5t7 59q41 15 74.5 24t66 14t66 6.5t72.5 1.5q7 0 19 -0.5t24 -1.5t22 -1t13 -1l27 -14l-15 -13q-7 1 -26.5 1h-41.5h-41t-27 -1q-14 -2 -34 -5.5t-41.5 -7.5t-42 -8.5t-37 -8.5t-27 -7t-10.5 -5v-178h265q0 -10 -15.5 -16t-41 -10.5
t-55 -8t-58 -6t-50.5 -5.5t-32 -8v-16.5t-0.5 -24.5t-0.5 -26v-16q0 -17 -0.5 -40.5t2.5 -45t14.5 -36.5t36.5 -15q34 0 67.5 2t67.5 4.5t67.5 5.5t67.5 3h21q-7 -10 -18 -20t-24.5 -17.5t-27 -12.5t-26.5 -5h-219q-31 0 -50.5 18.5t-30.5 47.5t-14.5 64.5t-4 71t1.5 65.5
t2 47zM128 763q2 3 9 18t15.5 35.5t18.5 43t20 40.5t18.5 31t15.5 13q1 0 6 -1.5t7 -2.5q0 -4 1.5 -13.5t3.5 -20.5t4.5 -21t4.5 -13q3 -9 11.5 -26.5t18.5 -37.5t21 -40l17 -35q22 -33 27 -50t0 -21t-18.5 3t-30.5 20t-34 31t-29.5 37t-18.5 38q-2 11 0 22q-1 -3 -2 -5
q-7 -14 -17.5 -33t-23.5 -41t-25.5 -39.5t-21.5 -27t-13.5 -4.5t-1 28.5t16.5 71.5zM219 823q-3 -5 -3 -9q4 8 3 9z" />
    <glyph glyph-name="Edieresis" unicode="&#xcb;" 
d="M27 314q0 30 0.5 53t2 45.5t4.5 47.5t7 59q41 15 74.5 24t66 14t66 6.5t72.5 1.5q7 0 19 -0.5t24 -1.5t22 -1t13 -1l27 -14l-15 -13q-7 1 -26.5 1h-41.5h-41t-27 -1q-14 -2 -34 -5.5t-41.5 -7.5t-42 -8.5t-37 -8.5t-27 -7t-10.5 -5v-178h265q0 -10 -15.5 -16t-41 -10.5
t-55 -8t-58 -6t-50.5 -5.5t-32 -8v-16.5t-0.5 -24.5t-0.5 -26v-16q0 -17 -0.5 -40.5t2.5 -45t14.5 -36.5t36.5 -15q34 0 67.5 2t67.5 4.5t67.5 5.5t67.5 3h21q-7 -10 -18 -20t-24.5 -17.5t-27 -12.5t-26.5 -5h-219q-31 0 -50.5 18.5t-30.5 47.5t-14.5 64.5t-4 71t1.5 65.5
t2 47zM239 624q0 10 4 16.5t11 10.5t15 6t15 2v-8q0 -8 -1.5 -17t-5 -16.5t-10.5 -7.5q-2 0 -6 1.5t-8.5 4t-8 4.5t-5.5 4zM150 624q0 10 4 16.5t11 10.5t15 6t15 2v-8q0 -8 -2 -17t-5 -16.5t-10 -7.5q-2 0 -6 1.5t-8.5 4t-8 4.5t-5.5 4z" />
    <glyph glyph-name="Igrave" unicode="&#xcc;" horiz-adv-x="109" 
d="M49 697q3 -2 7.5 -7t8.5 -11t7.5 -12t3.5 -10v-644q0 -3 -5.5 -8t-9.5 -5q-3 0 -7.5 2t-9 3.5t-7.5 4t-3 3.5v657zM24 872q3 -9 19 -27.5t34.5 -40.5t35.5 -43.5t24 -36.5q8 -16 3 -19.5t-18.5 1t-32 17.5t-38 28.5t-36.5 33.5t-27 34t-10 28.5t13 17.5z" />
    <glyph glyph-name="Iacute" unicode="&#xcd;" horiz-adv-x="109" 
d="M49 697q3 -2 7.5 -7t8.5 -11t7.5 -12t3.5 -10v-644q0 -3 -5.5 -8t-9.5 -5q-3 0 -7.5 2t-9 3.5t-7.5 4t-3 3.5v657zM122 864q16 -5 16 -16.5t-11.5 -26t-31 -30.5t-41 -30.5t-42.5 -25.5t-35.5 -15.5t-20.5 -1.5t3 18q5 9 16 21.5t24 25t27.5 26t26.5 25t21.5 21
t12.5 15.5z" />
    <glyph glyph-name="Icircumflex" unicode="&#xce;" horiz-adv-x="109" 
d="M49 697q3 -2 7.5 -7t8.5 -11t7.5 -12t3.5 -10v-644q0 -3 -5.5 -8t-9.5 -5q-3 0 -7.5 2t-9 3.5t-7.5 4t-3 3.5v657zM-29 844q2 3 9 18t15.5 35.5t18.5 43t20 40.5t18.5 31t15.5 13q1 0 6 -1.5t7 -2.5q0 -4 1.5 -13.5t3.5 -20.5t4.5 -21t4.5 -13q3 -9 11.5 -26.5
t18.5 -37.5t21 -40l17 -35q22 -33 27 -50t0 -21t-18.5 3t-30.5 20t-34 31t-29.5 37t-18.5 38q-2 11 0 22q-1 -3 -2 -5q-7 -14 -17.5 -33t-23.5 -41t-25.5 -39.5t-21.5 -27t-13.5 -4.5t-1 28.5t16.5 71.5zM62 904q-3 -5 -3 -9q4 8 3 9z" />
    <glyph glyph-name="Idieresis" unicode="&#xcf;" horiz-adv-x="109" 
d="M49 697q3 -2 7.5 -7t8.5 -11t7.5 -12t3.5 -10v-644q0 -3 -5.5 -8t-9.5 -5q-3 0 -7.5 2t-9 3.5t-7.5 4t-3 3.5v657zM85 764q0 10 4 16.5t11 10.5t15 6t15 2v-8q0 -8 -1.5 -17t-5 -16.5t-10.5 -7.5q-2 0 -6 1.5t-8.5 4t-8 4.5t-5.5 4zM-4 764q0 10 4 16.5t11 10.5t15 6
t15 2v-8q0 -8 -2 -17t-5 -16.5t-10 -7.5q-2 0 -6 1.5t-8.5 4t-8 4.5t-5.5 4z" />
    <glyph glyph-name="Eth" unicode="&#xd0;" horiz-adv-x="580" 
d="M14 316l46 1v258q0 14 8 23t21 13.5t29 6t32 1t29.5 -1.5t22.5 -1q64 0 127 -18.5t113.5 -56.5t81.5 -92.5t31 -125.5q0 -47 -19.5 -89.5t-53 -78.5t-76.5 -65t-91 -49t-96 -31t-91 -11q-22 0 -43 8.5t-38 20.5l13 27v233q-8 0 -13.5 0.5t-9.5 0.5h-9l-27 14zM114 501
q0 -44 0.5 -90t2.5 -92l136 4q8 0 11 -7t3 -13q0 -8 -5.5 -14t-14.5 -6h-9q-25 1 -57 2l-64 2q3 -66 5.5 -128.5t5.5 -118.5h3.5h4.5q35 0 76 9t81 26.5t78 41.5t66 54.5t45 66.5t17 76q0 65 -28 115t-74 82.5t-104.5 49.5t-118.5 17q-5 0 -11.5 -0.5t-14 -1t-13 -1
t-7.5 -0.5l-14 -14v-8v-16.5v-19.5v-16z" />
    <glyph glyph-name="Ntilde" unicode="&#xd1;" horiz-adv-x="561" 
d="M349 40q-35 52 -70 108.5t-67.5 116t-60.5 120.5t-48 122h-16v-27.5t1 -41t1 -41.5v-27q-1 -13 -1.5 -37t-1.5 -55t-2.5 -65.5t-3.5 -65.5t-3 -55.5t-1 -36.5q-3 -5 -8 -9.5t-11.5 -8.5t-12 -6.5t-10.5 -2.5q-6 0 -9 4.5t-4 10.5t-1 12v9q0 61 3 121l6 120t5 121t0 121
q13 25 26.5 33.5t34.5 8.5h11t11 -1q31 -68 61.5 -129t61.5 -119.5t64 -115.5t72 -115l7 -7t8 -7q0 13 0.5 38.5t2 58.5t3 68t2.5 68t2.5 58.5t1.5 38.5q2 18 5 45.5t9.5 58.5t16 61.5t23.5 55t32 40.5t42 16q0 -23 -7 -44t-17 -40t-22.5 -37.5t-22.5 -38.5t-17 -42t-7 -48
v-439l-4 -2q-4 -2 -9.5 -4l-11 -4t-10.5 -3h-2q-3 -1 -4 -1h-4q-1 0 -2 1q-3 2 -9 7.5t-12.5 12t-12.5 13t-8 7.5zM70 683q0 38 10 59.5t26.5 29.5t38 5.5t44 -11.5t45 -22t41.5 -26q35 27 63.5 39.5t49 15t28.5 -4.5t-1 -21.5t-38 -33.5t-82 -41q-22 1 -43 8t-40.5 15
t-38 14.5t-36 7.5t-34.5 -6.5t-33 -27.5z" />
    <glyph glyph-name="Ograve" unicode="&#xd2;" 
d="M20 182q0 32 4 74t13.5 86t25 86.5t39 75t55.5 53t73 20.5q57 0 93.5 -23.5t57.5 -61t29.5 -84t8.5 -93.5q0 -60 -12 -117t-40.5 -101.5t-74 -71t-115.5 -26.5q-44 0 -73.5 14.5t-48.5 38.5t-27 58t-8 72zM75 197q0 -31 4 -60t16.5 -50t35.5 -34t62 -13q54 0 90 23t57 60
t29.5 83t8.5 92q0 12 -0.5 33t-3 45t-7.5 50t-14 46.5t-24 33.5t-35 13q-48 0 -83.5 -11t-60 -32.5t-39.5 -51t-23 -65t-10.5 -77t-2.5 -85.5zM202 775q3 -9 19 -27.5t34.5 -40.5t35.5 -43.5t24 -36.5q8 -16 3 -19.5t-18.5 1t-32 17.5t-38 28.5t-36.5 33.5t-27 34t-10 28.5
t13 17.5z" />
    <glyph glyph-name="Oacute" unicode="&#xd3;" 
d="M20 182q0 32 4 74t13.5 86t25 86.5t39 75t55.5 53t73 20.5q57 0 93.5 -23.5t57.5 -61t29.5 -84t8.5 -93.5q0 -60 -12 -117t-40.5 -101.5t-74 -71t-115.5 -26.5q-44 0 -73.5 14.5t-48.5 38.5t-27 58t-8 72zM75 197q0 -31 4 -60t16.5 -50t35.5 -34t62 -13q54 0 90 23t57 60
t29.5 83t8.5 92q0 12 -0.5 33t-3 45t-7.5 50t-14 46.5t-24 33.5t-35 13q-48 0 -83.5 -11t-60 -32.5t-39.5 -51t-23 -65t-10.5 -77t-2.5 -85.5zM289 769q16 -5 16 -16.5t-11.5 -26t-31 -30.5t-41 -30.5t-42.5 -25.5t-35.5 -15.5t-20.5 -1.5t3 18q5 9 16 21.5t24 25t27.5 26
t26.5 25t21.5 21t12.5 15.5z" />
    <glyph glyph-name="Ocircumflex" unicode="&#xd4;" 
d="M20 182q0 32 4 74t13.5 86t25 86.5t39 75t55.5 53t73 20.5q57 0 93.5 -23.5t57.5 -61t29.5 -84t8.5 -93.5q0 -60 -12 -117t-40.5 -101.5t-74 -71t-115.5 -26.5q-44 0 -73.5 14.5t-48.5 38.5t-27 58t-8 72zM75 197q0 -31 4 -60t16.5 -50t35.5 -34t62 -13q54 0 90 23t57 60
t29.5 83t8.5 92q0 12 -0.5 33t-3 45t-7.5 50t-14 46.5t-24 33.5t-35 13q-48 0 -83.5 -11t-60 -32.5t-39.5 -51t-23 -65t-10.5 -77t-2.5 -85.5zM140 735q2 3 9 18t15.5 35.5t18.5 43t20 40.5t18.5 31t15.5 13q1 0 6 -1.5t7 -2.5q0 -4 1.5 -13.5t3.5 -20.5t4.5 -21t4.5 -13
q3 -9 11.5 -26.5t18.5 -37.5t21 -40l17 -35q22 -33 27 -50t0 -21t-18.5 3t-30.5 20t-34 31t-29.5 37t-18.5 38q-2 11 0 22q-1 -3 -2 -5q-7 -14 -17.5 -33t-23.5 -41t-25.5 -39.5t-21.5 -27t-13.5 -4.5t-1 28.5t16.5 71.5zM231 795q-3 -5 -3 -9q4 8 3 9z" />
    <glyph glyph-name="Otilde" unicode="&#xd5;" 
d="M20 182q0 32 4 74t13.5 86t25 86.5t39 75t55.5 53t73 20.5q57 0 93.5 -23.5t57.5 -61t29.5 -84t8.5 -93.5q0 -60 -12 -117t-40.5 -101.5t-74 -71t-115.5 -26.5q-44 0 -73.5 14.5t-48.5 38.5t-27 58t-8 72zM75 197q0 -31 4 -60t16.5 -50t35.5 -34t62 -13q54 0 90 23t57 60
t29.5 83t8.5 92q0 12 -0.5 33t-3 45t-7.5 50t-14 46.5t-24 33.5t-35 13q-48 0 -83.5 -11t-60 -32.5t-39.5 -51t-23 -65t-10.5 -77t-2.5 -85.5zM16 683q0 38 10 59.5t26.5 29.5t38 5.5t44 -11.5t45 -22t41.5 -26q35 27 63.5 39.5t49 15t28.5 -4.5t-1 -21.5t-38 -33.5t-82 -41
q-22 1 -43 8t-40.5 15t-38 14.5t-36 7.5t-34.5 -6.5t-33 -27.5z" />
    <glyph glyph-name="Odieresis" unicode="&#xd6;" 
d="M20 182q0 32 4 74t13.5 86t25 86.5t39 75t55.5 53t73 20.5q57 0 93.5 -23.5t57.5 -61t29.5 -84t8.5 -93.5q0 -60 -12 -117t-40.5 -101.5t-74 -71t-115.5 -26.5q-44 0 -73.5 14.5t-48.5 38.5t-27 58t-8 72zM75 197q0 -31 4 -60t16.5 -50t35.5 -34t62 -13q54 0 90 23t57 60
t29.5 83t8.5 92q0 12 -0.5 33t-3 45t-7.5 50t-14 46.5t-24 33.5t-35 13q-48 0 -83.5 -11t-60 -32.5t-39.5 -51t-23 -65t-10.5 -77t-2.5 -85.5zM249 644q0 10 4 16.5t11 10.5t15 6t15 2v-8q0 -8 -1.5 -17t-5 -16.5t-10.5 -7.5q-2 0 -6 1.5t-8.5 4t-8 4.5t-5.5 4zM160 644
q0 10 4 16.5t11 10.5t15 6t15 2v-8q0 -8 -2 -17t-5 -16.5t-10 -7.5q-2 0 -6 1.5t-8.5 4t-8 4.5t-5.5 4z" />
    <glyph glyph-name="multiply" unicode="&#xd7;" horiz-adv-x="576" 
d="M144 481q4 3 10 4q4 2 9 2t11 -3q19 -7 31 -19.5t20.5 -25t15.5 -24.5t16.5 -18.5t22.5 -6.5t34 11q7 5 22.5 15.5t33 22.5t32.5 23t21 17q9 5 16 -0.5t12 -15t7.5 -18.5t1.5 -11l-143 -101l141 -200l-9 -30q-13 3 -30 20t-34.5 40.5t-35 49.5t-33 47t-28 32t-19.5 7
l-141 -96q-9 -5 -19 -1t-15.5 13.5t-4 21.5t14.5 22l134 89z" />
    <glyph glyph-name="Oslash" unicode="&#xd8;" 
d="M40 21v3.5v3.5q7 8 18 21l-3 3q-19 24 -27 58t-8 72q0 32 4 74t13.5 86t25 86.5t39 75t55.5 53t73 20.5q57 0 93 -24q34 -21 55 -55q4 6 4 9h28q-5 -23 -14 -46q10 -25 14 -52q9 -47 9 -94q0 -60 -12 -117t-40.5 -101.5t-74 -71t-115.5 -26.5q-44 0 -74 14q-8 4 -16 9
q-2 -5 -5 -9q-6 -8 -9.5 -11t-11.5 -3q-9 0 -15 6.5t-6 15.5zM75 197q0 -31 4 -61q3 -23 11 -41l39 52q29 40 62 84.5t62.5 85.5t53 73t35.5 48q3 4 8 14q4 4 7 11q-2 5 -5 9q-8 21 -23 34t-35 13q-48 0 -83.5 -11t-60 -32.5t-39.5 -51t-23 -65t-10.5 -77t-2.5 -85.5z
M130 52q24 -12 63 -12q54 0 90 23t57 60t29.5 83t8.5 92q0 12 -0.5 33t-3.5 45q-1 15 -3 30q-18 -33 -39 -65q-28 -43 -60.5 -86.5t-65.5 -85t-66 -81.5l-22 -28q6 -3 12 -8z" />
    <glyph glyph-name="Ugrave" unicode="&#xd9;" horiz-adv-x="670" 
d="M363 192q-26 -20 -46 -46t-41 -49.5t-47.5 -40t-64.5 -16.5q-29 0 -50.5 18.5t-37.5 49t-26 67.5t-16 74t-9 69t-4 52q0 7 -0.5 23t-1 36.5t-1.5 43t-1 42.5t-0.5 36t-0.5 24h45q1 -11 3 -33.5t4.5 -50.5t5.5 -59.5t6.5 -60t5 -51t3.5 -33.5q3 -24 7 -57t14 -63.5
t28.5 -51.5t48.5 -21q16 0 27.5 2.5t22 9t20.5 17t24 27.5q3 6 12.5 22.5t21 36t21 38t13.5 27.5q4 24 4 59.5t-1 73t-0.5 72.5t6.5 58.5t20 31.5t39 -8v-30.5t-0.5 -46t0 -53.5t0.5 -54v-47v-29q1 -20 3 -46t7 -53.5t13.5 -54t23.5 -47.5t35.5 -34t49.5 -13q24 0 45 1.5
t42 13.5q1 -1 2.5 -6.5t1.5 -6.5q0 -17 -12 -26t-29 -12.5t-34.5 -4t-27.5 -0.5q-36 0 -66.5 14.5t-54 39t-37.5 57t-16 69.5zM162 785q3 -9 19 -27.5t34.5 -40.5t35.5 -43.5t24 -36.5q8 -16 3 -19.5t-18.5 1t-32 17.5t-38 28.5t-36.5 33.5t-27 34t-10 28.5t13 17.5z" />
    <glyph glyph-name="Uacute" unicode="&#xda;" horiz-adv-x="670" 
d="M363 192q-26 -20 -46 -46t-41 -49.5t-47.5 -40t-64.5 -16.5q-29 0 -50.5 18.5t-37.5 49t-26 67.5t-16 74t-9 69t-4 52q0 7 -0.5 23t-1 36.5t-1.5 43t-1 42.5t-0.5 36t-0.5 24h45q1 -11 3 -33.5t4.5 -50.5t5.5 -59.5t6.5 -60t5 -51t3.5 -33.5q3 -24 7 -57t14 -63.5
t28.5 -51.5t48.5 -21q16 0 27.5 2.5t22 9t20.5 17t24 27.5q3 6 12.5 22.5t21 36t21 38t13.5 27.5q4 24 4 59.5t-1 73t-0.5 72.5t6.5 58.5t20 31.5t39 -8v-30.5t-0.5 -46t0 -53.5t0.5 -54v-47v-29q1 -20 3 -46t7 -53.5t13.5 -54t23.5 -47.5t35.5 -34t49.5 -13q24 0 45 1.5
t42 13.5q1 -1 2.5 -6.5t1.5 -6.5q0 -17 -12 -26t-29 -12.5t-34.5 -4t-27.5 -0.5q-36 0 -66.5 14.5t-54 39t-37.5 57t-16 69.5zM397 769q16 -5 16 -16.5t-11.5 -26t-31 -30.5t-41 -30.5t-42.5 -25.5t-35.5 -15.5t-20.5 -1.5t3 18q5 9 16 21.5t24 25t27.5 26t26.5 25t21.5 21
t12.5 15.5z" />
    <glyph glyph-name="Ucircumflex" unicode="&#xdb;" horiz-adv-x="670" 
d="M363 192q-26 -20 -46 -46t-41 -49.5t-47.5 -40t-64.5 -16.5q-29 0 -50.5 18.5t-37.5 49t-26 67.5t-16 74t-9 69t-4 52q0 7 -0.5 23t-1 36.5t-1.5 43t-1 42.5t-0.5 36t-0.5 24h45q1 -11 3 -33.5t4.5 -50.5t5.5 -59.5t6.5 -60t5 -51t3.5 -33.5q3 -24 7 -57t14 -63.5
t28.5 -51.5t48.5 -21q16 0 27.5 2.5t22 9t20.5 17t24 27.5q3 6 12.5 22.5t21 36t21 38t13.5 27.5q4 24 4 59.5t-1 73t-0.5 72.5t6.5 58.5t20 31.5t39 -8v-30.5t-0.5 -46t0 -53.5t0.5 -54v-47v-29q1 -20 3 -46t7 -53.5t13.5 -54t23.5 -47.5t35.5 -34t49.5 -13q24 0 45 1.5
t42 13.5q1 -1 2.5 -6.5t1.5 -6.5q0 -17 -12 -26t-29 -12.5t-34.5 -4t-27.5 -0.5q-36 0 -66.5 14.5t-54 39t-37.5 57t-16 69.5zM90 807q2 3 9 18t15.5 35.5t18.5 43t20 40.5t18.5 31t15.5 13q1 0 6 -1.5t7 -2.5q0 -4 1.5 -13.5t3.5 -20.5t4.5 -21t4.5 -13q3 -9 11.5 -26.5
t18.5 -37.5t21 -40l17 -35q22 -33 27 -50t0 -21t-18.5 3t-30.5 20t-34 31t-29.5 37t-18.5 38q-2 11 0 22q-1 -3 -2 -5q-7 -14 -17.5 -33t-23.5 -41t-25.5 -39.5t-21.5 -27t-13.5 -4.5t-1 28.5t16.5 71.5zM181 867q-3 -5 -3 -9q4 8 3 9z" />
    <glyph glyph-name="Udieresis" unicode="&#xdc;" horiz-adv-x="670" 
d="M363 192q-26 -20 -46 -46t-41 -49.5t-47.5 -40t-64.5 -16.5q-29 0 -50.5 18.5t-37.5 49t-26 67.5t-16 74t-9 69t-4 52q0 7 -0.5 23t-1 36.5t-1.5 43t-1 42.5t-0.5 36t-0.5 24h45q1 -11 3 -33.5t4.5 -50.5t5.5 -59.5t6.5 -60t5 -51t3.5 -33.5q3 -24 7 -57t14 -63.5
t28.5 -51.5t48.5 -21q16 0 27.5 2.5t22 9t20.5 17t24 27.5q3 6 12.5 22.5t21 36t21 38t13.5 27.5q4 24 4 59.5t-1 73t-0.5 72.5t6.5 58.5t20 31.5t39 -8v-30.5t-0.5 -46t0 -53.5t0.5 -54v-47v-29q1 -20 3 -46t7 -53.5t13.5 -54t23.5 -47.5t35.5 -34t49.5 -13q24 0 45 1.5
t42 13.5q1 -1 2.5 -6.5t1.5 -6.5q0 -17 -12 -26t-29 -12.5t-34.5 -4t-27.5 -0.5q-36 0 -66.5 14.5t-54 39t-37.5 57t-16 69.5zM205 690q0 10 4 16.5t11 10.5t15 6t15 2v-8q0 -8 -1.5 -17t-5 -16.5t-10.5 -7.5q-2 0 -6 1.5t-8.5 4t-8 4.5t-5.5 4zM116 690q0 10 4 16.5
t11 10.5t15 6t15 2v-8q0 -8 -2 -17t-5 -16.5t-10 -7.5q-2 0 -6 1.5t-8.5 4t-8 4.5t-5.5 4z" />
    <glyph glyph-name="Yacute" unicode="&#xdd;" horiz-adv-x="458" 
d="M12 636q0 7 0.5 12.5t2.5 11t6.5 8t12.5 2.5q7 0 12 -2.5t9 -10.5l82 -178h28q5 7 17.5 21t29 31.5t34 37t33.5 37t29.5 31t19.5 20.5q6 5 16.5 15.5t24 21t28 18t28.5 7.5v-35l-220 -232q-18 -19 -23 -33.5t-5 -34.5q0 -47 3 -95t6.5 -96t6 -96t2.5 -97h-30
q-5 0 -8 24.5t-6 64t-6.5 85.5t-6.5 88.5t-6.5 75.5t-9.5 44q-1 5 -7 19t-14 32.5t-18 38.5t-18.5 38.5t-15 32t-8.5 18.5q-3 7 -8 16.5t-9.5 19.5t-8 20t-3.5 19zM300 909q16 -5 16 -16.5t-11.5 -26t-31 -30.5t-41 -30.5t-42.5 -25.5t-35.5 -15.5t-20.5 -1.5t3 18
q5 9 16 21.5t24 25t27.5 26t26.5 25t21.5 21t12.5 15.5z" />
    <glyph glyph-name="Thorn" unicode="&#xde;" horiz-adv-x="472" 
d="M39 211q0 18 -1.5 55.5t-3 85t-2.5 99.5t-2.5 99.5t-2.5 84.5t-2 55v15q6 3 14 12.5t14.5 13t13.5 -2t12.5 -32t9.5 -76t5 -135.5l14 -13q44 53 101.5 74.5t126.5 21.5q27 0 48 -11t36.5 -28.5t23.5 -41t8 -48.5q0 -50 -16.5 -87t-43.5 -62.5t-63.5 -41.5t-76.5 -24.5
t-82 -11.5t-82 -3q7 -79 6 -133t-7 -81.5t-14.5 -28t-16 26.5t-12.5 81t-5 137zM94 265q1 -7 7.5 -10t14 -4.5t15 -0.5t10.5 1q46 0 91.5 9t82 30.5t59 57.5t22.5 90q0 24 -11.5 42t-30.5 32q-4 0 -12.5 0.5t-18 1t-18.5 0.5h-13q-58 0 -95 -20t-58.5 -54t-31 -78.5
t-13.5 -96.5z" />
    <glyph glyph-name="germandbls" unicode="&#xdf;" horiz-adv-x="314" 
d="M37 423q-6 22 -10.5 42t-4.5 42q0 27 27 27q30 0 62 -4.5t58 -17t43.5 -34t17.5 -56.5v-14q0 -8 -0.5 -17t-0.5 -15.5v-7.5t-3 -7t-5.5 -13t-4.5 -13t-2 -7q6 -14 14 -21.5t17.5 -14t19 -12.5t17 -14.5t12 -22t4.5 -32.5q0 -12 -1.5 -20.5t-4.5 -17t-8.5 -17.5t-14.5 -20
q-5 -3 -17 -9.5t-26.5 -15t-31.5 -17t-31.5 -16.5t-26 -14.5t-16.5 -9.5q-3 -2 -8.5 -7.5t-5.5 -6.5l-28 -136q-2 -7 -6.5 -10.5t-11 -5.5t-13 -2.5t-10.5 -0.5v538zM106 106q15 0 41 7t50 19t42 28t18 37q0 5 -0.5 17.5t-4 25t-9 22t-14.5 10.5l-123 14v-180zM64 478
q2 -7 5.5 -27t8 -41.5t8.5 -41t6 -27.5q1 -2 2 -6t4 -8.5t4.5 -8t3.5 -4.5q15 8 30.5 17.5t27 21.5t19 27t7.5 33q0 23 -8 37.5t-22.5 24t-34 13.5t-40.5 4q-9 0 -13 -2.5t-8 -11.5z" />
    <glyph glyph-name="agrave" unicode="&#xe0;" horiz-adv-x="575" 
d="M19 111q0 38 9.5 81t26.5 84.5t41.5 78.5t53.5 65.5t63 45.5t71 17q8 0 23.5 -3.5t31.5 -9t28 -13.5t12 -16l-173 -22q-19 0 -36 -18.5t-31.5 -47t-26 -64t-20 -69.5t-13 -62t-4.5 -42v-10q0 -6 0.5 -13.5t0.5 -15.5v-9q0 -2 4 -6l17 -16q4 -5 6 -6h3h3q23 0 44.5 12
t40 29t34 36.5t26.5 32.5q6 7 9.5 30.5t7 54t7.5 65t10 63t14.5 46.5t21.5 18h4h2q0 -5 0.5 -25t1 -47.5t1 -58.5t0.5 -58.5t1 -47.5t2 -25q0 -5 5 -14.5t11 -18.5t13 -16t11 -7h170q0 -11 -9.5 -19t-23.5 -14t-31 -10.5t-33 -7t-30 -3.5t-21 -1q-40 0 -67 18t-50 50
q-13 -16 -30.5 -36t-39 -38.5t-46 -31.5t-48.5 -16q-31 -4 -49.5 4.5t-29.5 23.5t-15 36.5t-4 46.5zM264 733q3 -9 19 -27.5t34.5 -40.5t35.5 -43.5t24 -36.5q8 -16 3 -19.5t-18.5 1t-32 17.5t-38 28.5t-36.5 33.5t-27 34t-10 28.5t13 17.5z" />
    <glyph glyph-name="aacute" unicode="&#xe1;" horiz-adv-x="575" 
d="M19 111q0 38 9.5 81t26.5 84.5t41.5 78.5t53.5 65.5t63 45.5t71 17q8 0 23.5 -3.5t31.5 -9t28 -13.5t12 -16l-173 -22q-19 0 -36 -18.5t-31.5 -47t-26 -64t-20 -69.5t-13 -62t-4.5 -42v-10q0 -6 0.5 -13.5t0.5 -15.5v-9q0 -2 4 -6l17 -16q4 -5 6 -6h3h3q23 0 44.5 12
t40 29t34 36.5t26.5 32.5q6 7 9.5 30.5t7 54t7.5 65t10 63t14.5 46.5t21.5 18h4h2q0 -5 0.5 -25t1 -47.5t1 -58.5t0.5 -58.5t1 -47.5t2 -25q0 -5 5 -14.5t11 -18.5t13 -16t11 -7h170q0 -11 -9.5 -19t-23.5 -14t-31 -10.5t-33 -7t-30 -3.5t-21 -1q-40 0 -67 18t-50 50
q-13 -16 -30.5 -36t-39 -38.5t-46 -31.5t-48.5 -16q-31 -4 -49.5 4.5t-29.5 23.5t-15 36.5t-4 46.5zM349 727q16 -5 16 -16.5t-11.5 -26t-31 -30.5t-41 -30.5t-42.5 -25.5t-35.5 -15.5t-20.5 -1.5t3 18q5 9 16 21.5t24 25t27.5 26t26.5 25t21.5 21t12.5 15.5z" />
    <glyph glyph-name="acircumflex" unicode="&#xe2;" horiz-adv-x="575" 
d="M19 111q0 38 9.5 81t26.5 84.5t41.5 78.5t53.5 65.5t63 45.5t71 17q8 0 23.5 -3.5t31.5 -9t28 -13.5t12 -16l-173 -22q-19 0 -36 -18.5t-31.5 -47t-26 -64t-20 -69.5t-13 -62t-4.5 -42v-10q0 -6 0.5 -13.5t0.5 -15.5v-9q0 -2 4 -6l17 -16q4 -5 6 -6h3h3q23 0 44.5 12
t40 29t34 36.5t26.5 32.5q6 7 9.5 30.5t7 54t7.5 65t10 63t14.5 46.5t21.5 18h4h2q0 -5 0.5 -25t1 -47.5t1 -58.5t0.5 -58.5t1 -47.5t2 -25q0 -5 5 -14.5t11 -18.5t13 -16t11 -7h170q0 -11 -9.5 -19t-23.5 -14t-31 -10.5t-33 -7t-30 -3.5t-21 -1q-40 0 -67 18t-50 50
q-13 -16 -30.5 -36t-39 -38.5t-46 -31.5t-48.5 -16q-31 -4 -49.5 4.5t-29.5 23.5t-15 36.5t-4 46.5zM183 659q2 3 9 18t15.5 35.5t18.5 43t20 40.5t18.5 31t15.5 13q1 0 6 -1.5t7 -2.5q0 -4 1.5 -13.5t3.5 -20.5t4.5 -21t4.5 -13q3 -9 11.5 -26.5t18.5 -37.5t21 -40l17 -35
q22 -33 27 -50t0 -21t-18.5 3t-30.5 20t-34 31t-29.5 37t-18.5 38q-2 11 0 22q-1 -3 -2 -5q-7 -14 -17.5 -33t-23.5 -41t-25.5 -39.5t-21.5 -27t-13.5 -4.5t-1 28.5t16.5 71.5zM274 719q-3 -5 -3 -9q4 8 3 9z" />
    <glyph glyph-name="atilde" unicode="&#xe3;" horiz-adv-x="514" 
d="M20 112q0 35 5.5 73t16.5 76t29 72.5t43 61t58 42t75 15.5q10 0 30.5 -2.5t40.5 -8t36 -16.5t16 -28v-315q0 -12 8 -20.5t20 -13.5t27 -7.5t28.5 -3.5t23.5 -1h14q0 -11 -10.5 -16t-24 -6.5t-26 -1.5h-16.5q-32 0 -51 11t-30 30t-16 44t-8 53q-21 -22 -43.5 -48.5
t-48 -49t-56 -37.5t-66.5 -15q-24 0 -39 10t-23 26t-10.5 36.5t-2.5 39.5zM75 129q0 -7 0.5 -21.5t3 -29.5t8.5 -26.5t16 -11.5q4 0 12 2t17 4.5t16 4.5t9 4q49 35 80.5 74t49.5 82.5t24.5 93.5t6.5 109q-62 0 -107 -23t-76 -62t-45.5 -91t-14.5 -109zM33 527q0 25 12 53
t31 53t44.5 43.5t50.5 20.5q16 3 29.5 -2.5t25 -15t22.5 -20.5t23 -21.5t25 -17t30 -6.5q18 0 32.5 5.5t29.5 11l30 11t32 5.5q0 -16 -12.5 -31.5t-30 -28t-37.5 -20t-33 -7.5q-26 0 -46 6t-38.5 17t-35 26.5t-33.5 33.5l-5.5 0.5t-7.5 0.5q-25 0 -44 -16.5t-32.5 -40
t-21.5 -49.5t-12 -46h-3h-3q-8 0 -12 3.5t-6.5 8.5t-3 11.5t-0.5 11.5z" />
    <glyph glyph-name="adieresis" unicode="&#xe4;" horiz-adv-x="575" 
d="M19 111q0 38 9.5 81t26.5 84.5t41.5 78.5t53.5 65.5t63 45.5t71 17q8 0 23.5 -3.5t31.5 -9t28 -13.5t12 -16l-173 -22q-19 0 -36 -18.5t-31.5 -47t-26 -64t-20 -69.5t-13 -62t-4.5 -42v-10q0 -6 0.5 -13.5t0.5 -15.5v-9q0 -2 4 -6l17 -16q4 -5 6 -6h3h3q23 0 44.5 12
t40 29t34 36.5t26.5 32.5q6 7 9.5 30.5t7 54t7.5 65t10 63t14.5 46.5t21.5 18h4h2q0 -5 0.5 -25t1 -47.5t1 -58.5t0.5 -58.5t1 -47.5t2 -25q0 -5 5 -14.5t11 -18.5t13 -16t11 -7h170q0 -11 -9.5 -19t-23.5 -14t-31 -10.5t-33 -7t-30 -3.5t-21 -1q-40 0 -67 18t-50 50
q-13 -16 -30.5 -36t-39 -38.5t-46 -31.5t-48.5 -16q-31 -4 -49.5 4.5t-29.5 23.5t-15 36.5t-4 46.5zM310 522q0 10 4 16.5t11 10.5t15 6t15 2v-8q0 -8 -1.5 -17t-5 -16.5t-10.5 -7.5q-2 0 -6 1.5t-8.5 4t-8 4.5t-5.5 4zM221 522q0 10 4 16.5t11 10.5t15 6t15 2v-8
q0 -8 -2 -17t-5 -16.5t-10 -7.5q-2 0 -6 1.5t-8.5 4t-8 4.5t-5.5 4z" />
    <glyph glyph-name="aring" unicode="&#xe5;" horiz-adv-x="575" 
d="M19 111q0 38 9.5 81t26.5 84.5t41.5 78.5t53.5 65.5t63 45.5t71 17q8 0 23.5 -3.5t31.5 -9t28 -13.5t12 -16l-173 -22q-19 0 -36 -18.5t-31.5 -47t-26 -64t-20 -69.5t-13 -62t-4.5 -42v-10q0 -6 0.5 -13.5t0.5 -15.5v-9q0 -2 4 -6l17 -16q4 -5 6 -6h3h3q23 0 44.5 12
t40 29t34 36.5t26.5 32.5q6 7 9.5 30.5t7 54t7.5 65t10 63t14.5 46.5t21.5 18h4h2q0 -5 0.5 -25t1 -47.5t1 -58.5t0.5 -58.5t1 -47.5t2 -25q0 -5 5 -14.5t11 -18.5t13 -16t11 -7h170q0 -11 -9.5 -19t-23.5 -14t-31 -10.5t-33 -7t-30 -3.5t-21 -1q-40 0 -67 18t-50 50
q-13 -16 -30.5 -36t-39 -38.5t-46 -31.5t-48.5 -16q-31 -4 -49.5 4.5t-29.5 23.5t-15 36.5t-4 46.5zM181 571q2 22 13 30t25 6.5t30 -11.5t29 -24t20.5 -29.5t5.5 -28.5t-15.5 -22t-43.5 -9q-28 0 -46 25.5t-18 62.5zM248 513q21 0 27 8t3 19t-13.5 21.5t-22.5 17.5t-24 5.5
t-19 -14.5q-1 -30 13 -43.5t36 -13.5z" />
    <glyph glyph-name="ae" unicode="&#xe6;" horiz-adv-x="766" 
d="M19 111q0 38 9.5 81t26.5 84.5t41.5 78.5t53.5 65.5t63 45.5t71 17q8 0 23.5 -3.5t31.5 -9t28 -13.5t12 -16l-173 -22q-19 0 -36 -18.5t-31.5 -47t-26 -64t-20 -69.5t-13 -62t-4.5 -42v-10q0 -6 0.5 -13.5t0.5 -15.5v-9q0 -2 4 -6l17 -16q4 -5 6 -6h3h3q23 0 44.5 12
t40 29t34 36.5t26.5 32.5q6 7 9.5 30.5t7 54t7.5 65t10 63t14.5 46.5t21.5 18h3.5h2.5q0 -5 0.5 -25t1 -47.5t1 -58.5t0.5 -58.5t1 -47.5t2 -25q0 -5 3 -11.5t7.5 -14t10 -14.5t10.5 -11q-12 41 -17.5 84t-5.5 81q0 47 10.5 86t33.5 67.5t59.5 44t87.5 15.5q28 0 50 -5
t36 -17.5t21 -32.5t7 -51q0 -30 -12 -51.5t-33.5 -36t-47.5 -21t-54 -6.5q-5 0 -22 -4.5t-35 -8t-31.5 -3.5t-13.5 9q0 1 4.5 6.5t9 12t8.5 11.5l5 6q27 3 58.5 6t58.5 11.5t44.5 26.5t17.5 52q0 18 -5.5 29t-16.5 16.5t-24.5 8t-29.5 2.5q-36 0 -60.5 -12.5t-40.5 -33.5
t-23 -49.5t-7 -64.5q0 -22 1 -51.5t5.5 -59.5t12.5 -59t21 -52t32 -36.5t46 -13.5q4 0 13.5 1t20.5 3.5t20.5 4.5t13.5 4q8 3 24 10t36.5 16.5t43 20t42.5 20t36 17.5t23 12q1 -1 1.5 -6.5t0.5 -7.5q0 -18 -17.5 -35.5t-44.5 -33t-61 -28.5t-65 -22t-57 -14t-39 -5
q-40 0 -68 21.5t-48 55.5q-37 1 -63 18.5t-48 49.5q-13 -16 -30.5 -36t-39 -38.5t-46 -31.5t-48.5 -16q-31 -4 -49.5 4.5t-29.5 23.5t-15 36.5t-4 46.5z" />
    <glyph glyph-name="ccedilla" unicode="&#xe7;" horiz-adv-x="514" 
d="M139 -243v5v9v4q5 -5 18 -12q15 -9 36 -17.5t43 -13.5t42 -4.5t31.5 10t12.5 30t-13 56.5q-9 18 -25 24t-34 8.5t-37.5 3.5t-34.5 9t-24.5 25t-9.5 50q-5 35 -5 58q-17 2 -32 9q-28 11 -47.5 32.5t-30 50t-10.5 62.5q0 28 6 63.5t18 72t29 71.5t39 62t49 43.5t60 16.5h25
q18 0 35 -3.5t29.5 -12.5t12.5 -26h-140q-14 0 -27 -17t-24.5 -42.5t-22 -56.5t-17.5 -60t-11.5 -51.5t-4.5 -31.5q0 -30 7.5 -56.5t22.5 -46t38 -31.5q1 -1 4 -1q1 4 3 6q7 9 16 3t15 -18h16q36 0 68.5 9t60.5 22t52.5 28t45 28t36.5 21.5t30 8.5q0 -31 -18 -55.5t-45 -42
t-62 -29t-71 -18.5t-69 -10q-19 -1 -34 -2q-1 -15 -7 -27q0 -15 5.5 -24t22.5 -17q29 -4 56.5 -7.5t48.5 -14t34 -31t12 -58.5q14 -48 6.5 -79t-28.5 -47.5t-50.5 -19.5t-59 6t-54.5 28t-38 48z" />
    <glyph glyph-name="egrave" unicode="&#xe8;" horiz-adv-x="461" 
d="M39 301q0 46 10.5 85.5t33.5 67.5t59.5 44t86.5 16q29 0 50.5 -5t36 -17.5t21.5 -33t7 -50.5q0 -31 -12.5 -52.5t-33.5 -35.5t-47 -21t-53 -7q-5 0 -14 -2t-20.5 -4.5t-23.5 -5.5t-22.5 -3.5t-17 1t-6.5 8.5q0 1 4.5 6.5t9.5 11.5t9 12l5 5q27 4 58.5 6.5t58 10.5
t44.5 26t18 53q0 18 -5.5 28.5t-16 16.5t-24.5 8t-30 2q-35 0 -60.5 -11.5t-40.5 -32.5t-22.5 -50t-7.5 -64q0 -22 1 -51.5t5.5 -59.5t12.5 -59.5t21.5 -52.5t32 -37t44.5 -14q5 0 15 2t20.5 4.5t20 4.5t14.5 4q8 3 24 10t36.5 16t42.5 20t42 20t36.5 17.5t23.5 11.5
q1 -1 1 -6v-7q0 -18 -17.5 -35.5t-44.5 -33t-61 -28.5t-65 -22t-57 -14.5t-39 -5.5q-31 0 -56 14t-43 38t-31 55t-20.5 64t-10.5 67.5t-3 64.5zM207 733q3 -9 19 -27.5t34.5 -40.5t35.5 -43.5t24 -36.5q8 -16 3 -19.5t-18.5 1t-32 17.5t-38 28.5t-36.5 33.5t-27 34t-10 28.5
t13 17.5z" />
    <glyph glyph-name="eacute" unicode="&#xe9;" horiz-adv-x="461" 
d="M39 301q0 46 10.5 85.5t33.5 67.5t59.5 44t86.5 16q29 0 50.5 -5t36 -17.5t21.5 -33t7 -50.5q0 -31 -12.5 -52.5t-33.5 -35.5t-47 -21t-53 -7q-5 0 -14 -2t-20.5 -4.5t-23.5 -5.5t-22.5 -3.5t-17 1t-6.5 8.5q0 1 4.5 6.5t9.5 11.5t9 12l5 5q27 4 58.5 6.5t58 10.5
t44.5 26t18 53q0 18 -5.5 28.5t-16 16.5t-24.5 8t-30 2q-35 0 -60.5 -11.5t-40.5 -32.5t-22.5 -50t-7.5 -64q0 -22 1 -51.5t5.5 -59.5t12.5 -59.5t21.5 -52.5t32 -37t44.5 -14q5 0 15 2t20.5 4.5t20 4.5t14.5 4q8 3 24 10t36.5 16t42.5 20t42 20t36.5 17.5t23.5 11.5
q1 -1 1 -6v-7q0 -18 -17.5 -35.5t-44.5 -33t-61 -28.5t-65 -22t-57 -14.5t-39 -5.5q-31 0 -56 14t-43 38t-31 55t-20.5 64t-10.5 67.5t-3 64.5zM293 727q16 -5 16 -16.5t-11.5 -26t-31 -30.5t-41 -30.5t-42.5 -25.5t-35.5 -15.5t-20.5 -1.5t3 18q5 9 16 21.5t24 25t27.5 26
t26.5 25t21.5 21t12.5 15.5z" />
    <glyph glyph-name="ecircumflex" unicode="&#xea;" horiz-adv-x="461" 
d="M39 301q0 46 10.5 85.5t33.5 67.5t59.5 44t86.5 16q29 0 50.5 -5t36 -17.5t21.5 -33t7 -50.5q0 -31 -12.5 -52.5t-33.5 -35.5t-47 -21t-53 -7q-5 0 -14 -2t-20.5 -4.5t-23.5 -5.5t-22.5 -3.5t-17 1t-6.5 8.5q0 1 4.5 6.5t9.5 11.5t9 12l5 5q27 4 58.5 6.5t58 10.5
t44.5 26t18 53q0 18 -5.5 28.5t-16 16.5t-24.5 8t-30 2q-35 0 -60.5 -11.5t-40.5 -32.5t-22.5 -50t-7.5 -64q0 -22 1 -51.5t5.5 -59.5t12.5 -59.5t21.5 -52.5t32 -37t44.5 -14q5 0 15 2t20.5 4.5t20 4.5t14.5 4q8 3 24 10t36.5 16t42.5 20t42 20t36.5 17.5t23.5 11.5
q1 -1 1 -6v-7q0 -18 -17.5 -35.5t-44.5 -33t-61 -28.5t-65 -22t-57 -14.5t-39 -5.5q-31 0 -56 14t-43 38t-31 55t-20.5 64t-10.5 67.5t-3 64.5zM126 659q2 3 9 18t15.5 35.5t18.5 43t20 40.5t18.5 31t15.5 13q1 0 6 -1.5t7 -2.5q0 -4 1.5 -13.5t3.5 -20.5t4.5 -21t4.5 -13
q3 -9 11.5 -26.5t18.5 -37.5t21 -40l17 -35q22 -33 27 -50t0 -21t-18.5 3t-30.5 20t-34 31t-29.5 37t-18.5 38q-2 11 0 22q-1 -3 -2 -5q-7 -14 -17.5 -33t-23.5 -41t-25.5 -39.5t-21.5 -27t-13.5 -4.5t-1 28.5t16.5 71.5zM217 719q-3 -5 -3 -9q4 8 3 9z" />
    <glyph glyph-name="edieresis" unicode="&#xeb;" horiz-adv-x="461" 
d="M39 301q0 46 10.5 85.5t33.5 67.5t59.5 44t86.5 16q29 0 50.5 -5t36 -17.5t21.5 -33t7 -50.5q0 -31 -12.5 -52.5t-33.5 -35.5t-47 -21t-53 -7q-5 0 -14 -2t-20.5 -4.5t-23.5 -5.5t-22.5 -3.5t-17 1t-6.5 8.5q0 1 4.5 6.5t9.5 11.5t9 12l5 5q27 4 58.5 6.5t58 10.5
t44.5 26t18 53q0 18 -5.5 28.5t-16 16.5t-24.5 8t-30 2q-35 0 -60.5 -11.5t-40.5 -32.5t-22.5 -50t-7.5 -64q0 -22 1 -51.5t5.5 -59.5t12.5 -59.5t21.5 -52.5t32 -37t44.5 -14q5 0 15 2t20.5 4.5t20 4.5t14.5 4q8 3 24 10t36.5 16t42.5 20t42 20t36.5 17.5t23.5 11.5
q1 -1 1 -6v-7q0 -18 -17.5 -35.5t-44.5 -33t-61 -28.5t-65 -22t-57 -14.5t-39 -5.5q-31 0 -56 14t-43 38t-31 55t-20.5 64t-10.5 67.5t-3 64.5zM258 571q0 10 4 16.5t11 10.5t15 6t15 2v-8q0 -8 -1.5 -17t-5 -16.5t-10.5 -7.5q-2 0 -6 1.5t-8.5 4t-8 4.5t-5.5 4zM169 571
q0 10 4 16.5t11 10.5t15 6t15 2v-8q0 -8 -2 -17t-5 -16.5t-10 -7.5q-2 0 -6 1.5t-8.5 4t-8 4.5t-5.5 4z" />
    <glyph glyph-name="igrave" unicode="&#xec;" horiz-adv-x="284" 
d="M21 220q1 8 1.5 26t2 41t3 48t2.5 48t2 41.5t2 27.5q5 8 9.5 10.5t11.5 2.5h3h3q10 -29 10.5 -71t0 -89.5t1 -94.5t12 -85t33.5 -61.5t66 -23.5q45 0 78 18t60 51q0 -1 1 -6.5t1 -7.5q0 -22 -18.5 -40t-43.5 -30.5t-52.5 -19t-44.5 -6.5q-45 0 -73 17t-44 46t-21.5 66
t-5.5 76v16zM37 752q3 -9 18.5 -27.5t34.5 -40t36 -43t24 -36.5q8 -16 3 -20t-18.5 1t-32 17.5t-38 28.5t-36.5 34t-27 33.5t-10.5 28.5t13.5 18z" />
    <glyph glyph-name="iacute" unicode="&#xed;" horiz-adv-x="284" 
d="M21 220q1 8 1.5 26t2 41t3 48t2.5 48t2 41.5t2 27.5q5 8 9.5 10.5t11.5 2.5h3h3q10 -29 10.5 -71t0 -89.5t1 -94.5t12 -85t33.5 -61.5t66 -23.5q45 0 78 18t60 51q0 -1 1 -6.5t1 -7.5q0 -22 -18.5 -40t-43.5 -30.5t-52.5 -19t-44.5 -6.5q-45 0 -73 17t-44 46t-21.5 66
t-5.5 76v16zM205 727q16 -5 15.5 -16.5t-11.5 -26t-30.5 -30.5t-41 -30.5t-42.5 -25.5t-36 -15.5t-20.5 -1.5t2.5 18q6 9 16.5 21.5t24 25t27.5 26t26.5 25t21.5 21t12 15.5z" />
    <glyph glyph-name="icircumflex" unicode="&#xee;" horiz-adv-x="284" 
d="M21 220q1 8 1.5 26t2 41t3 48t2.5 48t2 41.5t2 27.5q5 8 9.5 10.5t11.5 2.5h3h3q10 -29 10.5 -71t0 -89.5t1 -94.5t12 -85t33.5 -61.5t66 -23.5q45 0 78 18t60 51q0 -1 1 -6.5t1 -7.5q0 -22 -18.5 -40t-43.5 -30.5t-52.5 -19t-44.5 -6.5q-45 0 -73 17t-44 46t-21.5 66
t-5.5 76v16zM37 659q2 3 8.5 18t15 35.5t19 43t20.5 40.5t18.5 31t14.5 13q2 0 7 -1.5t7 -2.5q0 -4 1 -13.5t3.5 -20.5t4.5 -21t4 -13q4 -9 12.5 -26.5t18.5 -37.5l20 -40l18 -35q21 -33 26.5 -50t0.5 -21t-19 3t-30.5 20t-33.5 31t-30 37t-18 38q-3 11 -1 22q-1 -3 -2 -5
q-7 -14 -17.5 -33t-23.5 -41t-25 -39.5t-21.5 -27t-13.5 -4.5t-1 28.5t17 71.5zM128 719q-3 -5 -3 -9q4 8 3 9z" />
    <glyph glyph-name="idieresis" unicode="&#xef;" horiz-adv-x="303" 
d="M39 220q1 8 1.5 26t2 41t3.5 48t3 48t2 41.5t2 27.5q5 8 9.5 10.5t11.5 2.5h3h3q9 -29 10 -71t0.5 -89.5t1 -94.5t12 -85t33.5 -61.5t66 -23.5q45 0 78 18t60 51q0 -1 1 -6.5t1 -7.5q0 -22 -18.5 -40t-44 -30.5t-52.5 -19t-45 -6.5q-44 0 -72.5 17t-44.5 46t-21.5 66
t-5.5 76v16zM108 592q-1 10 3.5 17t11.5 11t14.5 5.5t14.5 1.5v-8q0 -8 -1.5 -17t-5 -16t-9.5 -7q-3 0 -7 1t-8 3.5t-8 4.5t-5 4zM19 592q-1 10 3.5 17t11 11t14.5 5.5t15 1.5v-8q0 -8 -1.5 -17t-5 -16t-9.5 -7q-3 0 -7 1t-8 3.5t-8 4.5t-5 4z" />
    <glyph glyph-name="eth" unicode="&#xf0;" horiz-adv-x="341" 
d="M117 384l28 15q9 -4 16 -8.5t14 -9.5t14 -9.5t17 -7.5l65 58l32 -30q1 -2 -9.5 -10.5t-24 -18t-23.5 -18.5t-8 -16q34 -40 51.5 -77.5t25 -70t7.5 -59.5t-3 -46q0 -16 -8 -28t-21.5 -21.5t-29.5 -16t-32.5 -11t-30.5 -6.5t-23 -2q-28 0 -52.5 13t-43 33.5t-29 46
t-10.5 52.5q0 21 9.5 37.5t24.5 26.5t34 15t38 5q26 0 50.5 -7t51.5 -7q1 11 -3.5 28.5t-11.5 34t-16 29t-17 12.5l-43 -45l-36 23q3 6 11 14.5t14.5 17t10.5 16.5t0 10q-17 10 -28 19t-11 19zM82 126q1 -20 10 -39t23.5 -33t34.5 -20t44 -1q2 0 15.5 -1t29.5 0t28 6t12 17
q0 28 -10 53t-27 44t-40.5 30t-50.5 11q-34 0 -51.5 -13.5t-17.5 -53.5z" />
    <glyph glyph-name="ntilde" unicode="&#xf1;" horiz-adv-x="609" 
d="M268 481q-21 0 -49 -13.5t-54 -34t-44 -45t-18 -46.5v-302q0 -4 -4.5 -6.5t-10 -4t-11.5 -2t-9 -0.5q-13 0 -19 4.5t-7.5 12.5t-1 18t0.5 20q-1 8 -2 35l-2 61q-1 35 -2.5 74.5t-2.5 75t-2.5 62t-1.5 35.5v38q0 6 2 11t8 9.5t17 8.5q3 0 7.5 -5.5t5.5 -7.5l3.5 -14
t4.5 -20.5t4 -20.5t2 -14q1 -1 3 -1h4q14 0 33.5 17.5t45 38.5t53.5 38.5t59 17.5q39 0 61.5 -20.5t33 -55t14 -77.5t6 -87.5t7.5 -88t19 -77.5t40.5 -54.5t72.5 -20.5q15 0 30.5 2t30.5 5t30.5 5.5t31.5 2.5h8h5q-36 -27 -73 -41.5t-84 -14.5q-50 0 -80.5 20.5t-48.5 55
t-25 77.5t-11 87.5t-6 88t-9 77.5t-22 55t-43 21zM94 641q0 38 10 59.5t26.5 29.5t38 5.5t44 -11.5t45 -22t41.5 -26q35 27 63.5 39.5t49 15t28.5 -4.5t-1 -21.5t-38 -33.5t-82 -41q-22 1 -43 8t-40.5 15t-38 14.5t-36 7.5t-34.5 -6.5t-33 -27.5z" />
    <glyph glyph-name="ograve" unicode="&#xf2;" horiz-adv-x="431" 
d="M21 144q3 38 11 78.5t22 78t35 70.5t50 57.5t67 37t86 8.5q65 -56 93 -113.5t28.5 -110t-21 -98.5t-56 -79.5t-76.5 -53.5t-82 -20q-31 0 -59.5 9.5t-50 28t-34.5 45.5t-13 62zM365 247q0 30 -4.5 55t-14.5 46t-26.5 40.5t-40.5 38.5l-2 -8q-36 3 -73 -17t-67 -56
t-48 -85t-14 -104q0 -33 13 -58t42 -44q3 0 11 -0.5t16.5 -0.5t16.5 -0.5t10 -0.5q45 0 79 13.5t56.5 38.5t34 61t11.5 81zM192 733q3 -9 19 -27.5t34.5 -40.5t35.5 -43.5t24 -36.5q8 -16 3 -19.5t-18.5 1t-32 17.5t-38 28.5t-36.5 33.5t-27 34t-10 28.5t13 17.5z" />
    <glyph glyph-name="oacute" unicode="&#xf3;" horiz-adv-x="431" 
d="M21 144q3 38 11 78.5t22 78t35 70.5t50 57.5t67 37t86 8.5q65 -56 93 -113.5t28.5 -110t-21 -98.5t-56 -79.5t-76.5 -53.5t-82 -20q-31 0 -59.5 9.5t-50 28t-34.5 45.5t-13 62zM365 247q0 30 -4.5 55t-14.5 46t-26.5 40.5t-40.5 38.5l-2 -8q-36 3 -73 -17t-67 -56
t-48 -85t-14 -104q0 -33 13 -58t42 -44q3 0 11 -0.5t16.5 -0.5t16.5 -0.5t10 -0.5q45 0 79 13.5t56.5 38.5t34 61t11.5 81zM280 727q16 -5 16 -16.5t-11.5 -26t-31 -30.5t-41 -30.5t-42.5 -25.5t-35.5 -15.5t-20.5 -1.5t3 18q5 9 16 21.5t24 25t27.5 26t26.5 25t21.5 21
t12.5 15.5z" />
    <glyph glyph-name="ocircumflex" unicode="&#xf4;" horiz-adv-x="431" 
d="M21 144q3 38 11 78.5t22 78t35 70.5t50 57.5t67 37t86 8.5q65 -56 93 -113.5t28.5 -110t-21 -98.5t-56 -79.5t-76.5 -53.5t-82 -20q-31 0 -59.5 9.5t-50 28t-34.5 45.5t-13 62zM365 247q0 30 -4.5 55t-14.5 46t-26.5 40.5t-40.5 38.5l-2 -8q-36 3 -73 -17t-67 -56
t-48 -85t-14 -104q0 -33 13 -58t42 -44q3 0 11 -0.5t16.5 -0.5t16.5 -0.5t10 -0.5q45 0 79 13.5t56.5 38.5t34 61t11.5 81zM111 659q2 3 9 18t15.5 35.5t18.5 43t20 40.5t18.5 31t15.5 13q1 0 6 -1.5t7 -2.5q0 -4 1.5 -13.5t3.5 -20.5t4.5 -21t4.5 -13q3 -9 11.5 -26.5
t18.5 -37.5t21 -40l17 -35q22 -33 27 -50t0 -21t-18.5 3t-30.5 20t-34 31t-29.5 37t-18.5 38q-2 11 0 22q-1 -3 -2 -5q-7 -14 -17.5 -33t-23.5 -41t-25.5 -39.5t-21.5 -27t-13.5 -4.5t-1 28.5t16.5 71.5zM202 719q-3 -5 -3 -9q4 8 3 9z" />
    <glyph glyph-name="otilde" unicode="&#xf5;" horiz-adv-x="486" 
d="M75 185q0 21 3 47t9.5 52.5t17.5 52.5t27 45t38 31.5t50 12.5q39 0 67 -17.5t45 -44.5t25 -60t8 -65q0 -44 -12 -85t-35 -73t-58 -50.5t-82 -18.5h-10t-14 0.5t-14 0.5h-10q-18 11 -29 32.5t-17 46.5t-7.5 50t-1.5 43zM142 184q0 -13 -1.5 -34.5t2.5 -43t14.5 -37
t35.5 -15.5q30 0 54.5 19.5t41.5 48t25.5 60.5t8.5 58q0 20 -8.5 45t-23.5 47.5t-35 37t-45 14.5q-17 0 -28.5 -12.5t-19 -32t-11.5 -42.5t-6.5 -45.5t-3 -40.5t-0.5 -27zM171 630h-2.5h-3.5q-11 0 -18 -3.5t-17 -10.5q-5 -4 -18.5 -14t-29 -20.5t-29 -20t-19.5 -14.5h-15
q0 29 15 52t38.5 39t51.5 25t52 9q22 0 37.5 -9.5t28.5 -23.5t24.5 -30t25 -30t30.5 -23.5t42 -9.5q16 0 30.5 7.5t28 15.5t27.5 15t31 7q0 -24 -15.5 -38.5t-37.5 -22t-46 -10t-41 -2.5q-10 0 -20 -0.5t-19.5 0.5t-18 4.5t-17.5 11.5q-5 4 -19 18l-57 57q-14 15 -19 21z
" />
    <glyph glyph-name="odieresis" unicode="&#xf6;" horiz-adv-x="431" 
d="M21 144q3 38 11 78.5t22 78t35 70.5t50 57.5t67 37t86 8.5q65 -56 93 -113.5t28.5 -110t-21 -98.5t-56 -79.5t-76.5 -53.5t-82 -20q-31 0 -59.5 9.5t-50 28t-34.5 45.5t-13 62zM365 247q0 30 -4.5 55t-14.5 46t-26.5 40.5t-40.5 38.5l-2 -8q-36 3 -73 -17t-67 -56
t-48 -85t-14 -104q0 -33 13 -58t42 -44q3 0 11 -0.5t16.5 -0.5t16.5 -0.5t10 -0.5q45 0 79 13.5t56.5 38.5t34 61t11.5 81zM238 522q0 10 4 16.5t11 10.5t15 6t15 2v-8q0 -8 -1.5 -17t-5 -16.5t-10.5 -7.5q-2 0 -6 1.5t-8.5 4t-8 4.5t-5.5 4zM149 522q0 10 4 16.5t11 10.5
t15 6t15 2v-8q0 -8 -2 -17t-5 -16.5t-10 -7.5q-2 0 -6 1.5t-8.5 4t-8 4.5t-5.5 4z" />
    <glyph glyph-name="divide" unicode="&#xf7;" horiz-adv-x="355" 
d="M51 233h274q8 0 11 -6.5t3 -13.5q0 -8 -5.5 -14t-14.5 -6h-8q-19 0 -44 2t-52.5 3.5t-54.5 2.5t-48 2.5l-35 2.5h-12l-28 14zM141 314q0 8 6.5 14.5t15.5 6.5t15 -6.5t6 -14.5q0 -10 -6 -16t-15 -6t-15.5 6t-6.5 16zM136 110q0 9 6 14.5t15 5.5t14.5 -5.5t5.5 -14.5
t-5.5 -15.5t-14.5 -6.5t-15 6.5t-6 15.5z" />
    <glyph glyph-name="oslash" unicode="&#xf8;" horiz-adv-x="431" 
d="M31 21v3.5v3.5q8 9 19 26q-9 13 -17 28q-12 27 -12 62q3 38 11 78.5t22 78t35 70.5t50 57.5t67 37t86 8.5q22 -19 39 -38l2 2q3 4 8 13.5t12 20t12.5 21t7.5 14.5h27q-9 -39 -29 -81q-6 -12 -12 -23q15 -21 25 -42q29 -58 29.5 -110.5t-21 -98.5t-56 -79.5t-76.5 -53.5
t-82 -20q-31 0 -60 10q-20 6 -36 17l-10 -13q-6 -8 -9 -11t-11 -3q-9 0 -15 6.5t-6 15.5zM365 247q0 30 -4.5 55t-14.5 45q-4 9 -9 17q-7 -11 -15 -23q-27 -43 -59.5 -86.5t-66 -85t-66.5 -81.5l-17 -21q8 -7 17 -12q3 0 11 -0.5t16.5 -0.5t16.5 -0.5t10 -0.5q45 0 79 13.5
t56.5 38.5t34 61t11.5 81zM279 427l-2 -8q-36 3 -73 -17t-67 -56t-48 -85t-14 -104q0 -31 11 -55q16 20 34 45q29 40 61.5 84.5t62.5 85.5t54 73q4 7 8 13q-12 12 -27 24z" />
    <glyph glyph-name="ugrave" unicode="&#xf9;" horiz-adv-x="547" 
d="M287 124q-1 0 -3 -0.5t-3 -1.5q-18 -21 -35 -41.5t-35 -35t-40 -24t-50 -9.5q-16 0 -28.5 8t-21.5 20t-15 27t-7 28q-1 7 -1.5 32t-0.5 60v154v67.5t-2 41.5q0 2 -0.5 10.5t-0.5 11.5q0 12 3 23t19 11q7 0 11.5 -3.5t7.5 -12.5q2 -9 3.5 -37t3 -66t2.5 -80t2.5 -79.5
t3 -66t3.5 -39.5q2 -12 5.5 -22t8 -17.5t13 -11.5t20.5 -4h11t10 1q40 35 70 85.5t49 107.5t29.5 116t13.5 113l3 1h3q7 0 11.5 -3t8.5 -10q1 -24 0.5 -58.5t-0.5 -72.5t2 -79t7 -79.5t16.5 -71t30.5 -55t46.5 -32.5t65.5 -2q-8 -13 -18.5 -18.5t-23.5 -8.5t-26 -3h-26
q-26 0 -46 9.5t-35 23.5t-25 30t-17 30t-12.5 23.5t-10.5 9.5zM250 733q3 -9 19 -27.5t34.5 -40.5t35.5 -43.5t24 -36.5q8 -16 3 -19.5t-18.5 1t-32 17.5t-38 28.5t-36.5 33.5t-27 34t-10 28.5t13 17.5z" />
    <glyph glyph-name="uacute" unicode="&#xfa;" horiz-adv-x="547" 
d="M287 124q-1 0 -3 -0.5t-3 -1.5q-18 -21 -35 -41.5t-35 -35t-40 -24t-50 -9.5q-16 0 -28.5 8t-21.5 20t-15 27t-7 28q-1 7 -1.5 32t-0.5 60v154v67.5t-2 41.5q0 2 -0.5 10.5t-0.5 11.5q0 12 3 23t19 11q7 0 11.5 -3.5t7.5 -12.5q2 -9 3.5 -37t3 -66t2.5 -80t2.5 -79.5
t3 -66t3.5 -39.5q2 -12 5.5 -22t8 -17.5t13 -11.5t20.5 -4h11t10 1q40 35 70 85.5t49 107.5t29.5 116t13.5 113l3 1h3q7 0 11.5 -3t8.5 -10q1 -24 0.5 -58.5t-0.5 -72.5t2 -79t7 -79.5t16.5 -71t30.5 -55t46.5 -32.5t65.5 -2q-8 -13 -18.5 -18.5t-23.5 -8.5t-26 -3h-26
q-26 0 -46 9.5t-35 23.5t-25 30t-17 30t-12.5 23.5t-10.5 9.5zM336 727q16 -5 16 -16.5t-11.5 -26t-31 -30.5t-41 -30.5t-42.5 -25.5t-35.5 -15.5t-20.5 -1.5t3 18q5 9 16 21.5t24 25t27.5 26t26.5 25t21.5 21t12.5 15.5z" />
    <glyph glyph-name="ucircumflex" unicode="&#xfb;" horiz-adv-x="547" 
d="M287 124q-1 0 -3 -0.5t-3 -1.5q-18 -21 -35 -41.5t-35 -35t-40 -24t-50 -9.5q-16 0 -28.5 8t-21.5 20t-15 27t-7 28q-1 7 -1.5 32t-0.5 60v154v67.5t-2 41.5q0 2 -0.5 10.5t-0.5 11.5q0 12 3 23t19 11q7 0 11.5 -3.5t7.5 -12.5q2 -9 3.5 -37t3 -66t2.5 -80t2.5 -79.5
t3 -66t3.5 -39.5q2 -12 5.5 -22t8 -17.5t13 -11.5t20.5 -4h11t10 1q40 35 70 85.5t49 107.5t29.5 116t13.5 113l3 1h3q7 0 11.5 -3t8.5 -10q1 -24 0.5 -58.5t-0.5 -72.5t2 -79t7 -79.5t16.5 -71t30.5 -55t46.5 -32.5t65.5 -2q-8 -13 -18.5 -18.5t-23.5 -8.5t-26 -3h-26
q-26 0 -46 9.5t-35 23.5t-25 30t-17 30t-12.5 23.5t-10.5 9.5zM170 659q2 3 9 18t15.5 35.5t18.5 43t20 40.5t18.5 31t15.5 13q1 0 6 -1.5t7 -2.5q0 -4 1.5 -13.5t3.5 -20.5t4.5 -21t4.5 -13q3 -9 11.5 -26.5t18.5 -37.5t21 -40l17 -35q22 -33 27 -50t0 -21t-18.5 3
t-30.5 20t-34 31t-29.5 37t-18.5 38q-2 11 0 22q-1 -3 -2 -5q-7 -14 -17.5 -33t-23.5 -41t-25.5 -39.5t-21.5 -27t-13.5 -4.5t-1 28.5t16.5 71.5zM261 719q-3 -5 -3 -9q4 8 3 9z" />
    <glyph glyph-name="udieresis" unicode="&#xfc;" horiz-adv-x="547" 
d="M287 124q-1 0 -3 -0.5t-3 -1.5q-18 -21 -35 -41.5t-35 -35t-40 -24t-50 -9.5q-16 0 -28.5 8t-21.5 20t-15 27t-7 28q-1 7 -1.5 32t-0.5 60v154v67.5t-2 41.5q0 2 -0.5 10.5t-0.5 11.5q0 12 3 23t19 11q7 0 11.5 -3.5t7.5 -12.5q2 -9 3.5 -37t3 -66t2.5 -80t2.5 -79.5
t3 -66t3.5 -39.5q2 -12 5.5 -22t8 -17.5t13 -11.5t20.5 -4h11t10 1q40 35 70 85.5t49 107.5t29.5 116t13.5 113l3 1h3q7 0 11.5 -3t8.5 -10q1 -24 0.5 -58.5t-0.5 -72.5t2 -79t7 -79.5t16.5 -71t30.5 -55t46.5 -32.5t65.5 -2q-8 -13 -18.5 -18.5t-23.5 -8.5t-26 -3h-26
q-26 0 -46 9.5t-35 23.5t-25 30t-17 30t-12.5 23.5t-10.5 9.5zM208 579q0 10 4 16.5t11 10.5t15 6t15 2v-8q0 -8 -1.5 -17t-5 -16.5t-10.5 -7.5q-2 0 -6 1.5t-8.5 4t-8 4.5t-5.5 4zM119 579q0 10 4 16.5t11 10.5t15 6t15 2v-8q0 -8 -2 -17t-5 -16.5t-10 -7.5q-2 0 -6 1.5
t-8.5 4t-8 4.5t-5.5 4z" />
    <glyph glyph-name="yacute" unicode="&#xfd;" horiz-adv-x="431" 
d="M-77 -294q0 2 3.5 15t8.5 27.5t11 26.5t13 12q0 -46 17 -87.5t46.5 -72.5t70 -48.5t86.5 -17.5q42 0 71 16.5t48 44.5t29.5 63t15.5 72.5t6 73t1 65.5q0 10 -0.5 29.5t-0.5 38.5v33.5v15.5q0 4 -1.5 19t-4 32.5t-4.5 33.5l-3 24q-1 4 -2.5 14t-4.5 21t-8 21t-13 14
q-12 -24 -33.5 -50.5t-49 -49t-57 -37.5t-59.5 -15q-23 0 -38.5 12.5t-25 31.5t-15 44t-7.5 49.5t-2.5 46t-0.5 35.5q0 24 4 53t9.5 60t11 61.5t10.5 56.5q8 16 21 16q1 0 3.5 -0.5t3.5 -0.5q0 -9 -0.5 -32.5t-1.5 -53.5t-2.5 -64.5t-2 -64.5t-1 -53t0.5 -32q0 -10 1 -28.5
t5 -36.5t12.5 -32t26.5 -14q15 0 34 3t29 12q14 12 34 31.5t38 39.5l31.5 35t13.5 18l21 298q0 4 3 7t7.5 4.5t9 2.5t8.5 1q13 0 19.5 -8.5t14.5 -20.5q-8 -71 -5 -151.5t9 -162t12 -162t6 -151.5v-29.5t-0.5 -45.5t-1.5 -45.5t-1 -29.5q-4 -42 -23 -83.5t-49 -75.5
t-69.5 -55t-84.5 -21q-20 0 -47.5 7.5t-55.5 21t-55 32t-48 40.5t-34.5 47.5t-13.5 52.5zM280 727q16 -5 16 -16.5t-11.5 -26t-31 -30.5t-41 -30.5t-42.5 -25.5t-35.5 -15.5t-20.5 -1.5t3 18q5 9 16 21.5t24 25t27.5 26t26.5 25t21.5 21t12.5 15.5z" />
    <glyph glyph-name="thorn" unicode="&#xfe;" horiz-adv-x="465" 
d="M28 -493q0 14 -0.5 43.5t-0.5 66.5t-0.5 78t-0.5 78v110q0 29 -0.5 70.5t-2 91t-2.5 105t-1.5 112.5t-0.5 114t1 108t3 94.5t7 75.5q1 0 6.5 0.5t7.5 0.5q5 0 9.5 -11t8.5 -28.5t8 -37.5t7.5 -39t6.5 -34t6 -20q31 2 68.5 4t76 1t74 -8t63.5 -23.5t44.5 -45t16.5 -72.5
q-5 -99 -36.5 -167.5t-80 -106.5t-108 -46.5t-118.5 10.5l-1 -469q0 -3 -2.5 -14.5t-7.5 -23.5t-13 -22t-17 -10q-14 0 -21 15zM75 367q0 -31 1.5 -69.5t5 -78t7 -78t6.5 -73.5h8q4 0 10 -0.5t10 -0.5h7q46 0 90.5 21t79.5 57t56.5 83t21.5 100q0 45 -19 70t-49.5 36
t-68.5 12t-75 1q-7 0 -17 -0.5t-19.5 -1t-17.5 -1t-9 -0.5l-27 -27v-7q0 -6 -0.5 -13.5t-0.5 -16.5v-13z" />
    <glyph glyph-name="ydieresis" unicode="&#xff;" horiz-adv-x="431" 
d="M-77 -294q0 2 3.5 15t8.5 27.5t11 26.5t13 12q0 -46 17 -87.5t46.5 -72.5t70 -48.5t86.5 -17.5q42 0 71 16.5t48 44.5t29.5 63t15.5 72.5t6 73t1 65.5q0 10 -0.5 29.5t-0.5 38.5v33.5v15.5q0 4 -1.5 19t-4 32.5t-4.5 33.5l-3 24q-1 4 -2.5 14t-4.5 21t-8 21t-13 14
q-12 -24 -33.5 -50.5t-49 -49t-57 -37.5t-59.5 -15q-23 0 -38.5 12.5t-25 31.5t-15 44t-7.5 49.5t-2.5 46t-0.5 35.5q0 24 4 53t9.5 60t11 61.5t10.5 56.5q8 16 21 16q1 0 3.5 -0.5t3.5 -0.5q0 -9 -0.5 -32.5t-1.5 -53.5t-2.5 -64.5t-2 -64.5t-1 -53t0.5 -32q0 -10 1 -28.5
t5 -36.5t12.5 -32t26.5 -14q15 0 34 3t29 12q14 12 34 31.5t38 39.5l31.5 35t13.5 18l21 298q0 4 3 7t7.5 4.5t9 2.5t8.5 1q13 0 19.5 -8.5t14.5 -20.5q-8 -71 -5 -151.5t9 -162t12 -162t6 -151.5v-29.5t-0.5 -45.5t-1.5 -45.5t-1 -29.5q-4 -42 -23 -83.5t-49 -75.5
t-69.5 -55t-84.5 -21q-20 0 -47.5 7.5t-55.5 21t-55 32t-48 40.5t-34.5 47.5t-13.5 52.5zM237 560q0 10 4 16.5t11 10.5t15 6t15 2v-8q0 -8 -1.5 -17t-5 -16.5t-10.5 -7.5q-2 0 -6 1.5t-8.5 4t-8 4.5t-5.5 4zM148 560q0 10 4 16.5t11 10.5t15 6t15 2v-8q0 -8 -2 -17
t-5 -16.5t-10 -7.5q-2 0 -6 1.5t-8.5 4t-8 4.5t-5.5 4z" />
    <glyph glyph-name="Amacron" unicode="&#x100;" horiz-adv-x="657" 
d="M8 9q0 16 6.5 31.5t15.5 30t19.5 27.5t18.5 24q49 71 87 139.5t70 139t60 144t57 152.5q4 9 8.5 12.5t12.5 3.5q10 0 17 -9.5t10.5 -21.5t5 -23.5t1.5 -15.5q1 -7 2 -26.5t2 -46t2.5 -57.5t3 -57.5t2 -46t1.5 -27.5q0 -3 2 -11t4 -16.5t4.5 -16.5t4.5 -10q0 -1 4.5 -5
t9.5 -8.5t9 -8.5t4 -5q1 -2 1 -10t-0.5 -17t-0.5 -17.5v-9.5q5 -18 20 -41t35 -48t42 -49t40 -43t30 -31.5t12 -14.5q0 -10 -8.5 -15t-20.5 -5q-23 0 -47.5 18t-47.5 45.5t-44.5 59.5t-37.5 59.5t-27.5 46t-14.5 18.5h-163q-27 0 -45 -18t-32 -44.5t-25.5 -57t-26.5 -57
t-34 -44t-49 -17.5zM342 588q-1 -1 -3 -5l-4 -8t-4.5 -8.5t-2.5 -5.5q-8 -17 -17.5 -43t-20.5 -53l-21 -54q-10 -27 -18 -48t-13 -34.5t-5 -14.5v-13h138zM229 814h274q8 0 11 -6.5t3 -12.5q0 -9 -5.5 -15t-13.5 -6h-8q-19 1 -45.5 1.5t-56 0t-58.5 -1t-52.5 -1.5t-39.5 -2
h-13z" />
    <glyph glyph-name="amacron" unicode="&#x101;" horiz-adv-x="575" 
d="M19 111q0 38 9.5 81t26.5 84.5t41.5 78.5t53.5 65.5t63 45.5t71 17q8 0 23.5 -3.5t31.5 -9t28 -13.5t12 -16l-173 -22q-19 0 -36 -18.5t-31.5 -47t-26 -64t-20 -69.5t-13 -62t-4.5 -42v-10q0 -6 0.5 -13.5t0.5 -15.5v-9q0 -2 4 -6l17 -16q4 -5 6 -6h3h3q23 0 44.5 12
t40 29t34 36.5t26.5 32.5q6 7 9.5 30.5t7 54t7.5 65t10 63t14.5 46.5t21.5 18h4h2q0 -5 0.5 -25t1 -47.5t1 -58.5t0.5 -58.5t1 -47.5t2 -25q0 -5 5 -14.5t11 -18.5t13 -16t11 -7h170q0 -11 -9.5 -19t-23.5 -14t-31 -10.5t-33 -7t-30 -3.5t-21 -1q-40 0 -67 18t-50 50
q-13 -16 -30.5 -36t-39 -38.5t-46 -31.5t-48.5 -16q-31 -4 -49.5 4.5t-29.5 23.5t-15 36.5t-4 46.5zM136 576h274q8 0 11 -6.5t3 -12.5q0 -9 -5.5 -15t-13.5 -6h-8q-19 1 -45.5 1.5t-56 0t-58.5 -1t-52.5 -1.5t-39.5 -2h-13z" />
    <glyph glyph-name="Abreve" unicode="&#x102;" horiz-adv-x="657" 
d="M8 9q0 16 6.5 31.5t15.5 30t19.5 27.5t18.5 24q49 71 87 139.5t70 139t60 144t57 152.5q4 9 8.5 12.5t12.5 3.5q10 0 17 -9.5t10.5 -21.5t5 -23.5t1.5 -15.5q1 -7 2 -26.5t2 -46t2.5 -57.5t3 -57.5t2 -46t1.5 -27.5q0 -3 2 -11t4 -16.5t4.5 -16.5t4.5 -10q0 -1 4.5 -5
t9.5 -8.5t9 -8.5t4 -5q1 -2 1 -10t-0.5 -17t-0.5 -17.5v-9.5q5 -18 20 -41t35 -48t42 -49t40 -43t30 -31.5t12 -14.5q0 -10 -8.5 -15t-20.5 -5q-23 0 -47.5 18t-47.5 45.5t-44.5 59.5t-37.5 59.5t-27.5 46t-14.5 18.5h-163q-27 0 -45 -18t-32 -44.5t-25.5 -57t-26.5 -57
t-34 -44t-49 -17.5zM342 588q-1 -1 -3 -5l-4 -8t-4.5 -8.5t-2.5 -5.5q-8 -17 -17.5 -43t-20.5 -53l-21 -54q-10 -27 -18 -48t-13 -34.5t-5 -14.5v-13h138zM225 818q-13 37 -18.5 58t-4 29t7.5 6.5t14.5 -9.5t18 -19t18.5 -22q8 -27 20 -40t26 -14.5t29 5t29.5 19t27 28.5
t21.5 32q6 15 18 20.5t20.5 0.5t8.5 -22t-20 -46q-17 -34 -46 -59.5t-60.5 -34t-61.5 6t-48 61.5z" />
    <glyph glyph-name="abreve" unicode="&#x103;" horiz-adv-x="575" 
d="M19 111q0 38 9.5 81t26.5 84.5t41.5 78.5t53.5 65.5t63 45.5t71 17q8 0 23.5 -3.5t31.5 -9t28 -13.5t12 -16l-173 -22q-19 0 -36 -18.5t-31.5 -47t-26 -64t-20 -69.5t-13 -62t-4.5 -42v-10q0 -6 0.5 -13.5t0.5 -15.5v-9q0 -2 4 -6l17 -16q4 -5 6 -6h3h3q23 0 44.5 12
t40 29t34 36.5t26.5 32.5q6 7 9.5 30.5t7 54t7.5 65t10 63t14.5 46.5t21.5 18h4h2q0 -5 0.5 -25t1 -47.5t1 -58.5t0.5 -58.5t1 -47.5t2 -25q0 -5 5 -14.5t11 -18.5t13 -16t11 -7h170q0 -11 -9.5 -19t-23.5 -14t-31 -10.5t-33 -7t-30 -3.5t-21 -1q-40 0 -67 18t-50 50
q-13 -16 -30.5 -36t-39 -38.5t-46 -31.5t-48.5 -16q-31 -4 -49.5 4.5t-29.5 23.5t-15 36.5t-4 46.5zM179 600q-13 37 -18.5 58t-4 29t7.5 6.5t14.5 -9.5t18 -19t18.5 -22q8 -27 20 -40t26 -14.5t29 5t29.5 19t27 28.5t21.5 32q6 15 18 20.5t20.5 0.5t8.5 -22t-20 -46
q-17 -34 -46 -59.5t-60.5 -34t-61.5 6t-48 61.5z" />
    <glyph glyph-name="Aogonek" unicode="&#x104;" horiz-adv-x="657" 
d="M733 -134q-14 -1 -31 -5t-35.5 -7t-36.5 -3t-32 9t-23 27t-9 52q1 35 7 54q3 7 5 11q-12 5 -24 14q-24 18 -47 45.5t-44.5 59.5t-37.5 59.5t-27.5 46t-14.5 18.5h-163q-27 0 -45 -18t-32 -44.5t-25.5 -57t-26.5 -57t-34 -44t-49 -17.5q0 16 6.5 31.5t15.5 30t19.5 27.5
t18.5 24q49 71 87 139.5t70 139t60 144t57 152.5q4 9 8.5 12.5t12.5 3.5q10 0 17 -9.5t10.5 -21.5t5 -23.5t1.5 -15.5q1 -7 2 -26.5t2 -46t2.5 -57.5t3 -57.5t2 -46t1.5 -27.5q0 -3 2 -11t4 -16.5t4.5 -16.5t4.5 -10q0 -1 4.5 -5t9.5 -8.5t9 -8.5t4 -5q1 -2 1 -10t-0.5 -17
t-0.5 -17.5v-9.5q5 -18 20 -41t35 -48t42 -49t40 -43t30 -31.5t12 -14.5q0 -10 -9 -16q-2 0 -5 -2q1 -5 0 -11q-1 -12 -11 -23v-17q0 -9 2 -17t6.5 -14.5t12.5 -9.5q19 -5 38.5 -3t36.5 6t30.5 7.5t19 0.5t1.5 -15.5t-20 -39.5zM342 588q-1 -1 -3 -5l-4 -8t-4.5 -8.5
t-2.5 -5.5q-8 -17 -17.5 -43t-20.5 -53l-21 -54q-10 -27 -18 -48t-13 -34.5t-5 -14.5v-13h138z" />
    <glyph glyph-name="aogonek" unicode="&#x105;" horiz-adv-x="575" 
d="M501 -76q-12 -1 -29.5 -5.5t-36 -7t-36 -2.5t-32 8.5t-23 27t-8.5 51.5q0 35 6 54q3 8 4 13q-8 4 -15 8q-27 19 -50 51q-13 -16 -30.5 -36t-39 -38.5t-46 -31.5t-48.5 -16q-31 -4 -49.5 4.5t-29.5 23.5t-15 36.5t-4 46.5q0 38 9.5 81t26.5 84.5t41.5 78.5t53.5 65.5
t63 45.5t71 17q8 0 23.5 -3.5t31.5 -9t28 -13.5t12 -16l-173 -22q-19 0 -36 -18.5t-31.5 -47t-26 -64t-20 -69.5t-13 -62t-4.5 -42v-10q0 -6 0.5 -13.5t0.5 -15.5v-9q0 -2 4 -6l17 -16q4 -5 6 -6h3h3q23 0 44.5 12t40 29t34 36.5t26.5 32.5q6 7 9.5 30.5t7 54t7.5 65t10 63
t14.5 46.5t21.5 18h3.5h2.5q0 -5 0.5 -25t1 -47.5t1 -58.5t0.5 -58.5t1 -47.5t2 -25q0 -5 5 -14.5t11 -18.5t13 -16t11 -7h170q0 -11 -9.5 -19t-23.5 -14t-31 -10.5t-33 -7t-30 -3.5t-21 -1h-11v-5q-2 -12 -12 -24v-16q0 -8 2 -16t6.5 -15t13.5 -10q18 -5 37.5 -3t37 6
t30.5 7.5t18.5 1t1.5 -15.5t-21 -40z" />
    <glyph glyph-name="Cacute" unicode="&#x106;" horiz-adv-x="541" 
d="M20 252q0 80 24 151.5t59 143.5q17 20 29 33t25.5 21t30 11.5t40.5 3.5q23 0 52.5 -6.5t56 -20.5t44.5 -35.5t18 -51.5q-20 0 -40.5 13.5t-42 29.5t-47 29.5t-58.5 13.5q-21 0 -40 -18.5t-34.5 -48t-27 -65.5t-19 -71t-11.5 -65t-4 -47q0 -55 17 -98.5t48 -73t75.5 -45.5
t99.5 -16q38 0 67.5 9t51.5 19.5t36.5 19t21.5 8.5q8 0 13 -3.5t7 -9t3 -12t1 -13.5q0 -18 -14 -29.5t-35.5 -18t-48.5 -9.5t-52.5 -3t-47.5 0.5t-34 0.5q-56 0 -104.5 18.5t-84 52t-55.5 79.5t-20 103zM332 770q16 -5 16 -16.5t-11.5 -26t-31 -30.5t-41 -30.5t-42.5 -25.5
t-35.5 -15.5t-20.5 -1.5t3 18q5 9 16 21.5t24 25t27.5 26t26.5 25t21.5 21t12.5 15.5z" />
    <glyph glyph-name="cacute" unicode="&#x107;" horiz-adv-x="514" 
d="M19 156q0 28 6 63.5t18 72t29 71.5t39 62t49 43.5t60 16.5h25q18 0 35 -3.5t29.5 -12.5t12.5 -26h-140q-14 0 -27 -17t-24.5 -42.5t-22 -56.5t-17.5 -60t-11.5 -51.5t-4.5 -31.5q0 -30 7.5 -56.5t22.5 -46t38 -30.5t54 -11q36 0 68.5 9t60.5 22t52.5 28t45 28t36.5 21.5
t30 8.5q0 -31 -18 -55.5t-45 -42t-62 -29t-71 -18.5t-68.5 -10t-55.5 -3q-34 0 -62.5 11.5t-48 33t-30 50t-10.5 62.5zM319 727q16 -5 16 -16.5t-11.5 -26t-31 -30.5t-41 -30.5t-42.5 -25.5t-35.5 -15.5t-20.5 -1.5t3 18q5 9 16 21.5t24 25t27.5 26t26.5 25t21.5 21
t12.5 15.5z" />
    <glyph glyph-name="Ccircumflex" unicode="&#x108;" horiz-adv-x="541" 
d="M20 252q0 80 24 151.5t59 143.5q17 20 29 33t25.5 21t30 11.5t40.5 3.5q23 0 52.5 -6.5t56 -20.5t44.5 -35.5t18 -51.5q-20 0 -40.5 13.5t-42 29.5t-47 29.5t-58.5 13.5q-21 0 -40 -18.5t-34.5 -48t-27 -65.5t-19 -71t-11.5 -65t-4 -47q0 -55 17 -98.5t48 -73t75.5 -45.5
t99.5 -16q38 0 67.5 9t51.5 19.5t36.5 19t21.5 8.5q8 0 13 -3.5t7 -9t3 -12t1 -13.5q0 -18 -14 -29.5t-35.5 -18t-48.5 -9.5t-52.5 -3t-47.5 0.5t-34 0.5q-56 0 -104.5 18.5t-84 52t-55.5 79.5t-20 103zM159 731q2 3 9 18t15.5 35.5t18.5 43t20 40.5t18.5 31t15.5 13
q1 0 6 -1.5t7 -2.5q0 -4 1.5 -13.5t3.5 -20.5t4.5 -21t4.5 -13q3 -9 11.5 -26.5t18.5 -37.5t21 -40l17 -35q22 -33 27 -50t0 -21t-18.5 3t-30.5 20t-34 31t-29.5 37t-18.5 38q-2 11 0 22q-1 -3 -2 -5q-7 -14 -17.5 -33t-23.5 -41t-25.5 -39.5t-21.5 -27t-13.5 -4.5t-1 28.5
t16.5 71.5zM250 791q-3 -5 -3 -9q4 8 3 9z" />
    <glyph glyph-name="ccircumflex" unicode="&#x109;" horiz-adv-x="514" 
d="M19 156q0 28 6 63.5t18 72t29 71.5t39 62t49 43.5t60 16.5h25q18 0 35 -3.5t29.5 -12.5t12.5 -26h-140q-14 0 -27 -17t-24.5 -42.5t-22 -56.5t-17.5 -60t-11.5 -51.5t-4.5 -31.5q0 -30 7.5 -56.5t22.5 -46t38 -30.5t54 -11q36 0 68.5 9t60.5 22t52.5 28t45 28t36.5 21.5
t30 8.5q0 -31 -18 -55.5t-45 -42t-62 -29t-71 -18.5t-68.5 -10t-55.5 -3q-34 0 -62.5 11.5t-48 33t-30 50t-10.5 62.5zM140 659q2 3 9 18t15.5 35.5t18.5 43t20 40.5t18.5 31t15.5 13q1 0 6 -1.5t7 -2.5q0 -4 1.5 -13.5t3.5 -20.5t4.5 -21t4.5 -13q3 -9 11.5 -26.5
t18.5 -37.5t21 -40l17 -35q22 -33 27 -50t0 -21t-18.5 3t-30.5 20t-34 31t-29.5 37t-18.5 38q-2 11 0 22q-1 -3 -2 -5q-7 -14 -17.5 -33t-23.5 -41t-25.5 -39.5t-21.5 -27t-13.5 -4.5t-1 28.5t16.5 71.5zM231 719q-3 -5 -3 -9q4 8 3 9z" />
    <glyph glyph-name="Cdotaccent" unicode="&#x10a;" horiz-adv-x="541" 
d="M20 252q0 80 24 151.5t59 143.5q17 20 29 33t25.5 21t30 11.5t40.5 3.5q23 0 52.5 -6.5t56 -20.5t44.5 -35.5t18 -51.5q-20 0 -40.5 13.5t-42 29.5t-47 29.5t-58.5 13.5q-21 0 -40 -18.5t-34.5 -48t-27 -65.5t-19 -71t-11.5 -65t-4 -47q0 -55 17 -98.5t48 -73t75.5 -45.5
t99.5 -16q38 0 67.5 9t51.5 19.5t36.5 19t21.5 8.5q8 0 13 -3.5t7 -9t3 -12t1 -13.5q0 -18 -14 -29.5t-35.5 -18t-48.5 -9.5t-52.5 -3t-47.5 0.5t-34 0.5q-56 0 -104.5 18.5t-84 52t-55.5 79.5t-20 103zM205 700q-2 24 6.5 35.5t20.5 13t24.5 -5.5t20.5 -17.5t5.5 -25.5
t-19.5 -29q-11 -8 -21.5 -8t-19 5t-13.5 13.5t-4 18.5z" />
    <glyph glyph-name="cdotaccent" unicode="&#x10b;" horiz-adv-x="514" 
d="M19 156q0 28 6 63.5t18 72t29 71.5t39 62t49 43.5t60 16.5h25q18 0 35 -3.5t29.5 -12.5t12.5 -26h-140q-14 0 -27 -17t-24.5 -42.5t-22 -56.5t-17.5 -60t-11.5 -51.5t-4.5 -31.5q0 -30 7.5 -56.5t22.5 -46t38 -30.5t54 -11q36 0 68.5 9t60.5 22t52.5 28t45 28t36.5 21.5
t30 8.5q0 -31 -18 -55.5t-45 -42t-62 -29t-71 -18.5t-68.5 -10t-55.5 -3q-34 0 -62.5 11.5t-48 33t-30 50t-10.5 62.5zM188 570q-2 24 6.5 35.5t20.5 13t24.5 -5.5t20.5 -17.5t5.5 -25.5t-19.5 -29q-11 -8 -21.5 -8t-19 5t-13.5 13.5t-4 18.5z" />
    <glyph glyph-name="Ccaron" unicode="&#x10c;" horiz-adv-x="541" 
d="M20 252q0 80 24 151.5t59 143.5q17 20 29 33t25.5 21t30 11.5t40.5 3.5q23 0 52.5 -6.5t56 -20.5t44.5 -35.5t18 -51.5q-20 0 -40.5 13.5t-42 29.5t-47 29.5t-58.5 13.5q-21 0 -40 -18.5t-34.5 -48t-27 -65.5t-19 -71t-11.5 -65t-4 -47q0 -55 17 -98.5t48 -73t75.5 -45.5
t99.5 -16q38 0 67.5 9t51.5 19.5t36.5 19t21.5 8.5q8 0 13 -3.5t7 -9t3 -12t1 -13.5q0 -18 -14 -29.5t-35.5 -18t-48.5 -9.5t-52.5 -3t-47.5 0.5t-34 0.5q-56 0 -104.5 18.5t-84 52t-55.5 79.5t-20 103zM144 747q-25 33 -35.5 51.5t-10 25t9.5 3t23 -13t31.5 -23t34.5 -27.5
t30 -27q11 -10 17 -17q-4 7 1 16q7 11 23.5 23.5t38.5 25t43.5 22.5t40 16.5t26.5 7.5t3 -6t-29 -23q-8 -7 -24.5 -23t-33.5 -33.5t-31 -31.5t-19 -20q-2 -2 -4 -6l-5 -10q-3 -5 -4.5 -10.5t-1.5 -7.5q-2 -1 -7.5 -1h-8.5q-9 0 -26 12.5t-33 29t-30 30.5t-19 17z" />
    <glyph glyph-name="ccaron" unicode="&#x10d;" horiz-adv-x="514" 
d="M19 156q0 28 6 63.5t18 72t29 71.5t39 62t49 43.5t60 16.5h25q18 0 35 -3.5t29.5 -12.5t12.5 -26h-140q-14 0 -27 -17t-24.5 -42.5t-22 -56.5t-17.5 -60t-11.5 -51.5t-4.5 -31.5q0 -30 7.5 -56.5t22.5 -46t38 -30.5t54 -11q36 0 68.5 9t60.5 22t52.5 28t45 28t36.5 21.5
t30 8.5q0 -31 -18 -55.5t-45 -42t-62 -29t-71 -18.5t-68.5 -10t-55.5 -3q-34 0 -62.5 11.5t-48 33t-30 50t-10.5 62.5zM139 646q-25 33 -35.5 51.5t-10 25t9.5 3t23 -13t31.5 -23t34.5 -27.5t30 -27q11 -10 17 -17q-4 7 1 16q7 11 23.5 23.5t38.5 25t43.5 22.5t40 16.5
t26.5 7.5t3 -6t-29 -23q-8 -7 -24.5 -23t-33.5 -33.5t-31 -31.5t-19 -20q-2 -2 -4 -6l-5 -10q-3 -5 -4.5 -10.5t-1.5 -7.5q-2 -1 -7.5 -1h-8.5q-9 0 -26 12.5t-33 29t-30 30.5t-19 17z" />
    <glyph glyph-name="Dcaron" unicode="&#x10e;" horiz-adv-x="561" 
d="M41 55v520q0 14 8.5 23t21 13.5t28.5 6t32 1t29.5 -1.5t22.5 -1q43 0 85.5 -8.5t82.5 -25.5t73.5 -41t58.5 -57t39.5 -73t14.5 -88q0 -47 -19.5 -89.5t-53 -78.5t-77 -65t-91 -49t-96 -31t-90.5 -11q-22 0 -43 8.5t-39 20.5zM95 501q0 -56 1.5 -115.5t3.5 -119.5
t4.5 -117t5.5 -109h3h4q35 0 76 9t81.5 26.5t78 41.5t65.5 54.5t45.5 66.5t17.5 76q0 65 -28.5 115t-74.5 82.5t-104.5 49.5t-118.5 17q-5 0 -11.5 -0.5t-14 -1t-12.5 -1t-7 -0.5l-15 -14v-8v-16.5v-19.5v-16zM143 758q-25 33 -35.5 51.5t-10 25t9.5 3t23 -13t31.5 -23
t34.5 -27.5t30 -27q11 -10 17 -17q-4 7 1 16q7 11 23.5 23.5t38.5 25t43.5 22.5t40 16.5t26.5 7.5t3 -6t-29 -23q-8 -7 -24.5 -23t-33.5 -33.5t-31 -31.5t-19 -20q-2 -2 -4 -6l-5 -10q-3 -5 -4.5 -10.5t-1.5 -7.5q-2 -1 -7.5 -1h-8.5q-9 0 -26 12.5t-33 29t-30 30.5t-19 17z
" />
    <glyph glyph-name="Emacron" unicode="&#x112;" 
d="M27 314q0 30 0.5 53t2 45.5t4.5 47.5t7 59q41 15 74.5 24t66 14t66 6.5t72.5 1.5q7 0 19 -0.5t24 -1.5t22 -1t13 -1l27 -14l-15 -13q-7 1 -26.5 1h-41.5h-41t-27 -1q-14 -2 -34 -5.5t-41.5 -7.5t-42 -8.5t-37 -8.5t-27 -7t-10.5 -5v-178h265q0 -10 -15.5 -16t-41 -10.5
t-55 -8t-58 -6t-50.5 -5.5t-32 -8v-16.5t-0.5 -24.5t-0.5 -26v-16q0 -17 -0.5 -40.5t2.5 -45t14.5 -36.5t36.5 -15q34 0 67.5 2t67.5 4.5t67.5 5.5t67.5 3h21q-7 -10 -18 -20t-24.5 -17.5t-27 -12.5t-26.5 -5h-219q-31 0 -50.5 18.5t-30.5 47.5t-14.5 64.5t-4 71t1.5 65.5
t2 47zM78 648h274q8 0 11 -6.5t3 -12.5q0 -9 -5.5 -15t-13.5 -6h-8q-19 1 -45.5 1.5t-56 0t-58.5 -1t-52.5 -1.5t-39.5 -2h-13z" />
    <glyph glyph-name="emacron" unicode="&#x113;" horiz-adv-x="461" 
d="M39 301q0 46 10.5 85.5t33.5 67.5t59.5 44t86.5 16q29 0 50.5 -5t36 -17.5t21.5 -33t7 -50.5q0 -31 -12.5 -52.5t-33.5 -35.5t-47 -21t-53 -7q-5 0 -14 -2t-20.5 -4.5t-23.5 -5.5t-22.5 -3.5t-17 1t-6.5 8.5q0 1 4.5 6.5t9.5 11.5t9 12l5 5q27 4 58.5 6.5t58 10.5
t44.5 26t18 53q0 18 -5.5 28.5t-16 16.5t-24.5 8t-30 2q-35 0 -60.5 -11.5t-40.5 -32.5t-22.5 -50t-7.5 -64q0 -22 1 -51.5t5.5 -59.5t12.5 -59.5t21.5 -52.5t32 -37t44.5 -14q5 0 15 2t20.5 4.5t20 4.5t14.5 4q8 3 24 10t36.5 16t42.5 20t42 20t36.5 17.5t23.5 11.5
q1 -1 1 -6v-7q0 -18 -17.5 -35.5t-44.5 -33t-61 -28.5t-65 -22t-57 -14.5t-39 -5.5q-31 0 -56 14t-43 38t-31 55t-20.5 64t-10.5 67.5t-3 64.5zM88 595h274q8 0 11 -6.5t3 -12.5q0 -9 -5.5 -15t-13.5 -6h-8q-19 1 -45.5 1.5t-56 0t-58.5 -1t-52.5 -1.5t-39.5 -2h-13z" />
    <glyph glyph-name="Ebreve" unicode="&#x114;" 
d="M27 314q0 30 0.5 53t2 45.5t4.5 47.5t7 59q41 15 74.5 24t66 14t66 6.5t72.5 1.5q7 0 19 -0.5t24 -1.5t22 -1t13 -1l27 -14l-15 -13q-7 1 -26.5 1h-41.5h-41t-27 -1q-14 -2 -34 -5.5t-41.5 -7.5t-42 -8.5t-37 -8.5t-27 -7t-10.5 -5v-178h265q0 -10 -15.5 -16t-41 -10.5
t-55 -8t-58 -6t-50.5 -5.5t-32 -8v-16.5t-0.5 -24.5t-0.5 -26v-16q0 -17 -0.5 -40.5t2.5 -45t14.5 -36.5t36.5 -15q34 0 67.5 2t67.5 4.5t67.5 5.5t67.5 3h21q-7 -10 -18 -20t-24.5 -17.5t-27 -12.5t-26.5 -5h-219q-31 0 -50.5 18.5t-30.5 47.5t-14.5 64.5t-4 71t1.5 65.5
t2 47zM109 669q-13 37 -18.5 58t-4 29t7.5 6.5t14.5 -9.5t18 -19t18.5 -22q8 -27 20 -40t26 -14.5t29 5t29.5 19t27 28.5t21.5 32q6 15 18 20.5t20.5 0.5t8.5 -22t-20 -46q-17 -34 -46 -59.5t-60.5 -34t-61.5 6t-48 61.5z" />
    <glyph glyph-name="ebreve" unicode="&#x115;" horiz-adv-x="461" 
d="M39 301q0 46 10.5 85.5t33.5 67.5t59.5 44t86.5 16q29 0 50.5 -5t36 -17.5t21.5 -33t7 -50.5q0 -31 -12.5 -52.5t-33.5 -35.5t-47 -21t-53 -7q-5 0 -14 -2t-20.5 -4.5t-23.5 -5.5t-22.5 -3.5t-17 1t-6.5 8.5q0 1 4.5 6.5t9.5 11.5t9 12l5 5q27 4 58.5 6.5t58 10.5
t44.5 26t18 53q0 18 -5.5 28.5t-16 16.5t-24.5 8t-30 2q-35 0 -60.5 -11.5t-40.5 -32.5t-22.5 -50t-7.5 -64q0 -22 1 -51.5t5.5 -59.5t12.5 -59.5t21.5 -52.5t32 -37t44.5 -14q5 0 15 2t20.5 4.5t20 4.5t14.5 4q8 3 24 10t36.5 16t42.5 20t42 20t36.5 17.5t23.5 11.5
q1 -1 1 -6v-7q0 -18 -17.5 -35.5t-44.5 -33t-61 -28.5t-65 -22t-57 -14.5t-39 -5.5q-31 0 -56 14t-43 38t-31 55t-20.5 64t-10.5 67.5t-3 64.5zM123 600q-13 37 -18.5 58t-4 29t7.5 6.5t14.5 -9.5t18 -19t18.5 -22q8 -27 20 -40t26 -14.5t29 5t29.5 19t27 28.5t21.5 32
q6 15 18 20.5t20.5 0.5t8.5 -22t-20 -46q-17 -34 -46 -59.5t-60.5 -34t-61.5 6t-48 61.5z" />
    <glyph glyph-name="Edotaccent" unicode="&#x116;" 
d="M27 314q0 30 0.5 53t2 45.5t4.5 47.5t7 59q41 15 74.5 24t66 14t66 6.5t72.5 1.5q7 0 19 -0.5t24 -1.5t22 -1t13 -1l27 -14l-15 -13q-7 1 -26.5 1h-41.5h-41t-27 -1q-14 -2 -34 -5.5t-41.5 -7.5t-42 -8.5t-37 -8.5t-27 -7t-10.5 -5v-178h265q0 -10 -15.5 -16t-41 -10.5
t-55 -8t-58 -6t-50.5 -5.5t-32 -8v-16.5t-0.5 -24.5t-0.5 -26v-16q0 -17 -0.5 -40.5t2.5 -45t14.5 -36.5t36.5 -15q34 0 67.5 2t67.5 4.5t67.5 5.5t67.5 3h21q-7 -10 -18 -20t-24.5 -17.5t-27 -12.5t-26.5 -5h-219q-31 0 -50.5 18.5t-30.5 47.5t-14.5 64.5t-4 71t1.5 65.5
t2 47zM154 616q-2 24 6.5 35.5t20.5 13t24.5 -5.5t20.5 -17.5t5.5 -25.5t-19.5 -29q-11 -8 -21.5 -8t-19 5t-13.5 13.5t-4 18.5z" />
    <glyph glyph-name="edotaccent" unicode="&#x117;" horiz-adv-x="461" 
d="M39 301q0 46 10.5 85.5t33.5 67.5t59.5 44t86.5 16q29 0 50.5 -5t36 -17.5t21.5 -33t7 -50.5q0 -31 -12.5 -52.5t-33.5 -35.5t-47 -21t-53 -7q-5 0 -14 -2t-20.5 -4.5t-23.5 -5.5t-22.5 -3.5t-17 1t-6.5 8.5q0 1 4.5 6.5t9.5 11.5t9 12l5 5q27 4 58.5 6.5t58 10.5
t44.5 26t18 53q0 18 -5.5 28.5t-16 16.5t-24.5 8t-30 2q-35 0 -60.5 -11.5t-40.5 -32.5t-22.5 -50t-7.5 -64q0 -22 1 -51.5t5.5 -59.5t12.5 -59.5t21.5 -52.5t32 -37t44.5 -14q5 0 15 2t20.5 4.5t20 4.5t14.5 4q8 3 24 10t36.5 16t42.5 20t42 20t36.5 17.5t23.5 11.5
q1 -1 1 -6v-7q0 -18 -17.5 -35.5t-44.5 -33t-61 -28.5t-65 -22t-57 -14.5t-39 -5.5q-31 0 -56 14t-43 38t-31 55t-20.5 64t-10.5 67.5t-3 64.5zM179 602q-2 24 6.5 35.5t20.5 13t24.5 -5.5t20.5 -17.5t5.5 -25.5t-19.5 -29q-11 -8 -21.5 -8t-19 5t-13.5 13.5t-4 18.5z" />
    <glyph glyph-name="Eogonek" unicode="&#x118;" 
d="M409 -123q-14 -1 -31 -5t-35.5 -7.5t-36.5 -3t-32 9t-23 27t-9 52.5q1 31 5 50h-124q-31 0 -50.5 18.5t-30.5 47.5t-14.5 64.5t-4 71t1.5 65.5t2 47q0 30 0.5 53t2 45.5t4.5 47.5t7 59q41 15 74.5 24t66 14t66 6.5t72.5 1.5q7 0 19 -0.5t24 -1.5t22 -1t13 -1l27 -14
l-15 -13q-7 1 -26.5 1h-41.5h-41t-27 -1q-14 -2 -34 -5.5t-41.5 -7.5t-42 -8.5t-37 -8.5t-27 -7t-10.5 -5v-178h265q0 -10 -15.5 -16t-41 -10.5t-55 -8t-58 -6t-50.5 -5.5t-32 -8v-16.5t-0.5 -24.5t-0.5 -26v-16q0 -17 -0.5 -40.5t2.5 -45t14.5 -36.5t36.5 -15q34 0 67.5 2
t67.5 4.5t67.5 5.5t67.5 3h21q-7 -10 -18 -20t-24.5 -17.5t-27 -12.5t-26.5 -5h-50q-1 -11 -10 -22v-16q0 -9 2 -17t6.5 -15t12.5 -9q19 -6 38.5 -3.5t36.5 6.5t30.5 7.5t19 0.5t1.5 -15.5t-20 -39.5z" />
    <glyph glyph-name="eogonek" unicode="&#x119;" horiz-adv-x="461" 
d="M419 -129q-12 -1 -29 -5t-35.5 -7t-36.5 -2.5t-32.5 9t-23 27t-8.5 51.5q1 35 6 54q3 6 4 10q-12 -3 -23 -4q-25 -6 -38 -6q-31 0 -56 14t-43 38t-31 55t-20.5 64t-10.5 67.5t-3 64.5q0 46 10.5 85.5t33.5 67.5t59.5 44t86.5 16q29 0 50.5 -5t36 -17.5t21.5 -33t7 -50.5
q0 -31 -12.5 -52.5t-33.5 -35.5t-47 -21t-53 -7q-5 0 -14 -2t-20.5 -4.5t-23.5 -5.5t-22.5 -3.5t-17 1t-6.5 8.5q0 1 4.5 6.5t9.5 11.5t9 12l5 5q27 4 58.5 6.5t58 10.5t44.5 26t18 53q0 18 -5.5 28.5t-16 16.5t-24.5 8t-30 2q-35 0 -60.5 -11.5t-40.5 -32.5t-22.5 -50
t-7.5 -64q0 -22 1 -51.5t5.5 -59.5t12.5 -59.5t21.5 -52.5t32 -37t44.5 -14q5 0 15 2t20.5 4.5t20 4.5t14.5 4q8 3 24 10t36.5 16t42.5 20t42 20t36.5 17.5t23.5 11.5q1 -1 1 -6v-7q0 -18 -17.5 -35.5t-44.5 -33t-61 -28.5q-32 -12 -63 -22l1 -1q4 -8 2.5 -20t-11.5 -24v-16
q0 -9 2.5 -17t6.5 -15t13 -10q18 -5 38 -3t37 6.5t30 8t18.5 0t1.5 -16t-21 -39.5z" />
    <glyph glyph-name="Ecaron" unicode="&#x11a;" 
d="M27 314q0 30 0.5 53t2 45.5t4.5 47.5t7 59q41 15 74.5 24t66 14t66 6.5t72.5 1.5q7 0 19 -0.5t24 -1.5t22 -1t13 -1l27 -14l-15 -13q-7 1 -26.5 1h-41.5h-41t-27 -1q-14 -2 -34 -5.5t-41.5 -7.5t-42 -8.5t-37 -8.5t-27 -7t-10.5 -5v-178h265q0 -10 -15.5 -16t-41 -10.5
t-55 -8t-58 -6t-50.5 -5.5t-32 -8v-16.5t-0.5 -24.5t-0.5 -26v-16q0 -17 -0.5 -40.5t2.5 -45t14.5 -36.5t36.5 -15q34 0 67.5 2t67.5 4.5t67.5 5.5t67.5 3h21q-7 -10 -18 -20t-24.5 -17.5t-27 -12.5t-26.5 -5h-219q-31 0 -50.5 18.5t-30.5 47.5t-14.5 64.5t-4 71t1.5 65.5
t2 47zM108 689q-25 33 -35.5 51.5t-10 25t9.5 3t23 -13t31.5 -23t34.5 -27.5t30 -27q11 -10 17 -17q-4 7 1 16q7 11 23.5 23.5t38.5 25t43.5 22.5t40 16.5t26.5 7.5t3 -6t-29 -23q-8 -7 -24.5 -23t-33.5 -33.5t-31 -31.5t-19 -20q-2 -2 -4 -6l-5 -10q-3 -5 -4.5 -10.5
t-1.5 -7.5q-2 -1 -7.5 -1h-8.5q-9 0 -26 12.5t-33 29t-30 30.5t-19 17z" />
    <glyph glyph-name="ecaron" unicode="&#x11b;" horiz-adv-x="461" 
d="M39 301q0 46 10.5 85.5t33.5 67.5t59.5 44t86.5 16q29 0 50.5 -5t36 -17.5t21.5 -33t7 -50.5q0 -31 -12.5 -52.5t-33.5 -35.5t-47 -21t-53 -7q-5 0 -14 -2t-20.5 -4.5t-23.5 -5.5t-22.5 -3.5t-17 1t-6.5 8.5q0 1 4.5 6.5t9.5 11.5t9 12l5 5q27 4 58.5 6.5t58 10.5
t44.5 26t18 53q0 18 -5.5 28.5t-16 16.5t-24.5 8t-30 2q-35 0 -60.5 -11.5t-40.5 -32.5t-22.5 -50t-7.5 -64q0 -22 1 -51.5t5.5 -59.5t12.5 -59.5t21.5 -52.5t32 -37t44.5 -14q5 0 15 2t20.5 4.5t20 4.5t14.5 4q8 3 24 10t36.5 16t42.5 20t42 20t36.5 17.5t23.5 11.5
q1 -1 1 -6v-7q0 -18 -17.5 -35.5t-44.5 -33t-61 -28.5t-65 -22t-57 -14.5t-39 -5.5q-31 0 -56 14t-43 38t-31 55t-20.5 64t-10.5 67.5t-3 64.5zM113 646q-25 33 -35.5 51.5t-10 25t9.5 3t23 -13t31.5 -23t34.5 -27.5t30 -27q11 -10 17 -17q-4 7 1 16q7 11 23.5 23.5t38.5 25
t43.5 22.5t40 16.5t26.5 7.5t3 -6t-29 -23q-8 -7 -24.5 -23t-33.5 -33.5t-31 -31.5t-19 -20q-2 -2 -4 -6l-5 -10q-3 -5 -4.5 -10.5t-1.5 -7.5q-2 -1 -7.5 -1h-8.5q-9 0 -26 12.5t-33 29t-30 30.5t-19 17z" />
    <glyph glyph-name="Gcircumflex" unicode="&#x11c;" horiz-adv-x="746" 
d="M492 95q-5 -4 -21.5 -12.5t-34.5 -17t-35 -16t-25 -9.5h-7q-7 0 -17 -0.5t-20 -0.5h-16q-57 0 -110.5 18.5t-95.5 54t-66.5 85.5t-24.5 112q0 33 6 74t18 83t31 81.5t46 70.5t62 50t79 19q24 0 52.5 -9t53 -26t41 -40t16.5 -51h-21q-19 22 -32.5 38t-28 26t-32.5 14.5
t-44 4.5q-33 0 -60 -14.5t-48.5 -39t-37.5 -56t-25.5 -65t-15 -65.5t-5.5 -58q0 -54 14.5 -101.5t43.5 -84t72 -58t99 -21.5q47 0 79 8.5t55.5 27.5t41 51t35.5 79l-28 13q-42 -6 -77.5 -10t-75.5 -4q-5 0 -10.5 -0.5t-11.5 0.5t-11 4t-6 10q4 8 14.5 14.5t24 11t29 7
t29.5 4.5t25 3t15 1q11 0 33.5 1t51 1.5t60.5 1.5t61 1t52 0.5t34 0.5q0 -1 -0.5 -9t-2.5 -18.5t-5.5 -18.5t-9.5 -8h-137q-9 0 -12 -16.5t-2.5 -42t2 -55t0 -56t-8 -46.5t-20.5 -24q-10 -1 -21 -3l-14 -1v86zM204 825q2 3 9 18t15.5 35.5t18.5 43t20 40.5t18.5 31t15.5 13
q1 0 6 -1.5t7 -2.5q0 -4 1.5 -13.5t3.5 -20.5t4.5 -21t4.5 -13q3 -9 11.5 -26.5t18.5 -37.5t21 -40l17 -35q22 -33 27 -50t0 -21t-18.5 3t-30.5 20t-34 31t-29.5 37t-18.5 38q-2 11 0 22q-1 -3 -2 -5q-7 -14 -17.5 -33t-23.5 -41t-25.5 -39.5t-21.5 -27t-13.5 -4.5t-1 28.5
t16.5 71.5zM295 885q-3 -5 -3 -9q4 8 3 9z" />
    <glyph glyph-name="gcircumflex" unicode="&#x11d;" 
d="M40 -302q0 14 2.5 22t12.5 20q28 -51 67 -74.5t98 -23.5q2 0 10 0.5t17 1t16.5 0.5h10.5q34 27 53 63.5t28.5 77.5t12.5 84t3 83q0 22 -0.5 40t-2.5 35t-5 36.5t-8 45.5l-2 1q-2 1 -4 1q-8 0 -26.5 -13t-43.5 -29.5t-55.5 -29.5t-61.5 -13q-13 0 -26.5 3.5t-24 10.5
t-18.5 17.5t-11 24.5v14.5t-0.5 22.5t-0.5 23v15q0 30 3 65t10 71.5t19 71t30.5 61t43.5 42t59 15.5q46 0 88 -15t72 -55q4 -52 7.5 -110t6 -116t4 -112.5t1.5 -98.5q0 -37 -2 -80t-9 -85.5t-21 -82.5t-38 -71t-58.5 -49t-84.5 -18q-19 0 -48.5 6.5t-57 20t-47 34
t-19.5 47.5zM138 95q2 -3 7 -8t11.5 -9t12 -7t9.5 -3q24 0 46.5 15t42 40t35.5 56.5t27 64.5t17 63.5t6 55.5q0 22 -7.5 39t-21.5 29.5t-33 17.5t-42 5t-40.5 -16.5t-29.5 -43t-20.5 -60t-13.5 -65t-6.5 -59.5t-1.5 -45v-14.5t0.5 -20t1 -20.5t0.5 -15zM110 659q2 3 9 18
t15.5 35.5t18.5 43t20 40.5t18.5 31t15.5 13q1 0 6 -1.5t7 -2.5q0 -4 1.5 -13.5t3.5 -20.5t4.5 -21t4.5 -13q3 -9 11.5 -26.5t18.5 -37.5t21 -40l17 -35q22 -33 27 -50t0 -21t-18.5 3t-30.5 20t-34 31t-29.5 37t-18.5 38q-2 11 0 22q-1 -3 -2 -5q-7 -14 -17.5 -33t-23.5 -41
t-25.5 -39.5t-21.5 -27t-13.5 -4.5t-1 28.5t16.5 71.5zM201 719q-3 -5 -3 -9q4 8 3 9z" />
    <glyph glyph-name="Gbreve" unicode="&#x11e;" horiz-adv-x="746" 
d="M492 95q-5 -4 -21.5 -12.5t-34.5 -17t-35 -16t-25 -9.5h-7q-7 0 -17 -0.5t-20 -0.5h-16q-57 0 -110.5 18.5t-95.5 54t-66.5 85.5t-24.5 112q0 33 6 74t18 83t31 81.5t46 70.5t62 50t79 19q24 0 52.5 -9t53 -26t41 -40t16.5 -51h-21q-19 22 -32.5 38t-28 26t-32.5 14.5
t-44 4.5q-33 0 -60 -14.5t-48.5 -39t-37.5 -56t-25.5 -65t-15 -65.5t-5.5 -58q0 -54 14.5 -101.5t43.5 -84t72 -58t99 -21.5q47 0 79 8.5t55.5 27.5t41 51t35.5 79l-28 13q-42 -6 -77.5 -10t-75.5 -4q-5 0 -10.5 -0.5t-11.5 0.5t-11 4t-6 10q4 8 14.5 14.5t24 11t29 7
t29.5 4.5t25 3t15 1q11 0 33.5 1t51 1.5t60.5 1.5t61 1t52 0.5t34 0.5q0 -1 -0.5 -9t-2.5 -18.5t-5.5 -18.5t-9.5 -8h-137q-9 0 -12 -16.5t-2.5 -42t2 -55t0 -56t-8 -46.5t-20.5 -24q-10 -1 -21 -3l-14 -1v86zM277 788q-13 37 -18.5 58t-4 29t7.5 6.5t14.5 -9.5t18 -19
t18.5 -22q8 -27 20 -40t26 -14.5t29 5t29.5 19t27 28.5t21.5 32q6 15 18 20.5t20.5 0.5t8.5 -22t-20 -46q-17 -34 -46 -59.5t-60.5 -34t-61.5 6t-48 61.5z" />
    <glyph glyph-name="gbreve" unicode="&#x11f;" 
d="M40 -302q0 14 2.5 22t12.5 20q28 -51 67 -74.5t98 -23.5q2 0 10 0.5t17 1t16.5 0.5h10.5q34 27 53 63.5t28.5 77.5t12.5 84t3 83q0 22 -0.5 40t-2.5 35t-5 36.5t-8 45.5l-2 1q-2 1 -4 1q-8 0 -26.5 -13t-43.5 -29.5t-55.5 -29.5t-61.5 -13q-13 0 -26.5 3.5t-24 10.5
t-18.5 17.5t-11 24.5v14.5t-0.5 22.5t-0.5 23v15q0 30 3 65t10 71.5t19 71t30.5 61t43.5 42t59 15.5q46 0 88 -15t72 -55q4 -52 7.5 -110t6 -116t4 -112.5t1.5 -98.5q0 -37 -2 -80t-9 -85.5t-21 -82.5t-38 -71t-58.5 -49t-84.5 -18q-19 0 -48.5 6.5t-57 20t-47 34
t-19.5 47.5zM138 95q2 -3 7 -8t11.5 -9t12 -7t9.5 -3q24 0 46.5 15t42 40t35.5 56.5t27 64.5t17 63.5t6 55.5q0 22 -7.5 39t-21.5 29.5t-33 17.5t-42 5t-40.5 -16.5t-29.5 -43t-20.5 -60t-13.5 -65t-6.5 -59.5t-1.5 -45v-14.5t0.5 -20t1 -20.5t0.5 -15zM118 600
q-13 37 -18.5 58t-4 29t7.5 6.5t14.5 -9.5t18 -19t18.5 -22q8 -27 20 -40t26 -14.5t29 5t29.5 19t27 28.5t21.5 32q6 15 18 20.5t20.5 0.5t8.5 -22t-20 -46q-17 -34 -46 -59.5t-60.5 -34t-61.5 6t-48 61.5z" />
    <glyph glyph-name="Gdotaccent" unicode="&#x120;" horiz-adv-x="746" 
d="M492 95q-5 -4 -21.5 -12.5t-34.5 -17t-35 -16t-25 -9.5h-7q-7 0 -17 -0.5t-20 -0.5h-16q-57 0 -110.5 18.5t-95.5 54t-66.5 85.5t-24.5 112q0 33 6 74t18 83t31 81.5t46 70.5t62 50t79 19q24 0 52.5 -9t53 -26t41 -40t16.5 -51h-21q-19 22 -32.5 38t-28 26t-32.5 14.5
t-44 4.5q-33 0 -60 -14.5t-48.5 -39t-37.5 -56t-25.5 -65t-15 -65.5t-5.5 -58q0 -54 14.5 -101.5t43.5 -84t72 -58t99 -21.5q47 0 79 8.5t55.5 27.5t41 51t35.5 79l-28 13q-42 -6 -77.5 -10t-75.5 -4q-5 0 -10.5 -0.5t-11.5 0.5t-11 4t-6 10q4 8 14.5 14.5t24 11t29 7
t29.5 4.5t25 3t15 1q11 0 33.5 1t51 1.5t60.5 1.5t61 1t52 0.5t34 0.5q0 -1 -0.5 -9t-2.5 -18.5t-5.5 -18.5t-9.5 -8h-137q-9 0 -12 -16.5t-2.5 -42t2 -55t0 -56t-8 -46.5t-20.5 -24q-10 -1 -21 -3l-14 -1v86zM241 788q-2 24 6.5 35.5t20.5 13t24.5 -5.5t20.5 -17.5
t5.5 -25.5t-19.5 -29q-11 -8 -21.5 -8t-19 5t-13.5 13.5t-4 18.5z" />
    <glyph glyph-name="gdotaccent" unicode="&#x121;" 
d="M40 -302q0 14 2.5 22t12.5 20q28 -51 67 -74.5t98 -23.5q2 0 10 0.5t17 1t16.5 0.5h10.5q34 27 53 63.5t28.5 77.5t12.5 84t3 83q0 22 -0.5 40t-2.5 35t-5 36.5t-8 45.5l-2 1q-2 1 -4 1q-8 0 -26.5 -13t-43.5 -29.5t-55.5 -29.5t-61.5 -13q-13 0 -26.5 3.5t-24 10.5
t-18.5 17.5t-11 24.5v14.5t-0.5 22.5t-0.5 23v15q0 30 3 65t10 71.5t19 71t30.5 61t43.5 42t59 15.5q46 0 88 -15t72 -55q4 -52 7.5 -110t6 -116t4 -112.5t1.5 -98.5q0 -37 -2 -80t-9 -85.5t-21 -82.5t-38 -71t-58.5 -49t-84.5 -18q-19 0 -48.5 6.5t-57 20t-47 34
t-19.5 47.5zM138 95q2 -3 7 -8t11.5 -9t12 -7t9.5 -3q24 0 46.5 15t42 40t35.5 56.5t27 64.5t17 63.5t6 55.5q0 22 -7.5 39t-21.5 29.5t-33 17.5t-42 5t-40.5 -16.5t-29.5 -43t-20.5 -60t-13.5 -65t-6.5 -59.5t-1.5 -45v-14.5t0.5 -20t1 -20.5t0.5 -15zM242 596
q-2 24 6.5 35.5t20.5 13t24.5 -5.5t20.5 -17.5t5.5 -25.5t-19.5 -29q-11 -8 -21.5 -8t-19 5t-13.5 13.5t-4 18.5z" />
    <glyph glyph-name="Gcommaaccent" unicode="&#x122;" horiz-adv-x="746" 
d="M492 95q-5 -4 -21.5 -12.5t-34.5 -17t-35 -16t-25 -9.5h-7q-7 0 -17 -0.5t-20 -0.5h-16q-57 0 -110.5 18.5t-95.5 54t-66.5 85.5t-24.5 112q0 33 6 74t18 83t31 81.5t46 70.5t62 50t79 19q24 0 52.5 -9t53 -26t41 -40t16.5 -51h-21q-19 22 -32.5 38t-28 26t-32.5 14.5
t-44 4.5q-33 0 -60 -14.5t-48.5 -39t-37.5 -56t-25.5 -65t-15 -65.5t-5.5 -58q0 -54 14.5 -101.5t43.5 -84t72 -58t99 -21.5q47 0 79 8.5t55.5 27.5t41 51t35.5 79l-28 13q-42 -6 -77.5 -10t-75.5 -4q-5 0 -10.5 -0.5t-11.5 0.5t-11 4t-6 10q4 8 14.5 14.5t24 11t29 7
t29.5 4.5t25 3t15 1q11 0 33.5 1t51 1.5t60.5 1.5t61 1t52 0.5t34 0.5q0 -1 -0.5 -9t-2.5 -18.5t-5.5 -18.5t-9.5 -8h-137q-9 0 -12 -16.5t-2.5 -42t2 -55t0 -56t-8 -46.5t-20.5 -24q-10 -1 -21 -3l-14 -1v86zM294 -198q27 13 42 23t22 20.5t8 22t-1.5 25t-5.5 30t-3 36.5
q23 -3 36 -19.5t16 -39t-3 -46.5t-19 -42t-33 -25.5t-45 1.5z" />
    <glyph glyph-name="gcommaaccent" unicode="&#x123;" 
d="M40 -302q0 14 2.5 22t12.5 20q28 -51 67 -74.5t98 -23.5q2 0 10 0.5t17 1t16.5 0.5h10.5q34 27 53 63.5t28.5 77.5t12.5 84t3 83q0 22 -0.5 40t-2.5 35t-5 36.5t-8 45.5l-2 1q-2 1 -4 1q-8 0 -26.5 -13t-43.5 -29.5t-55.5 -29.5t-61.5 -13q-13 0 -26.5 3.5t-24 10.5
t-18.5 17.5t-11 24.5v14.5t-0.5 22.5t-0.5 23v15q0 30 3 65t10 71.5t19 71t30.5 61t43.5 42t59 15.5q46 0 88 -15t72 -55q4 -52 7.5 -110t6 -116t4 -112.5t1.5 -98.5q0 -37 -2 -80t-9 -85.5t-21 -82.5t-38 -71t-58.5 -49t-84.5 -18q-19 0 -48.5 6.5t-57 20t-47 34
t-19.5 47.5zM138 95q2 -3 7 -8t11.5 -9t12 -7t9.5 -3q24 0 46.5 15t42 40t35.5 56.5t27 64.5t17 63.5t6 55.5q0 22 -7.5 39t-21.5 29.5t-33 17.5t-42 5t-40.5 -16.5t-29.5 -43t-20.5 -60t-13.5 -65t-6.5 -59.5t-1.5 -45v-14.5t0.5 -20t1 -20.5t0.5 -15zM199 541v7
q0 4 -0.5 9.5t-0.5 10.5v7q0 23 1.5 43t5.5 39t9 40.5t13 48.5q9 18 27 18v-209q0 -28 -21 -28q-9 0 -17.5 4t-16.5 10z" />
    <glyph glyph-name="Hcircumflex" unicode="&#x124;" horiz-adv-x="519" 
d="M41 274q-6 9 -10 16.5t-4 18.5q0 7 2.5 11t11.5 8v324q17 0 28.5 -9t12.5 -27l28 -274h288l12 13q1 1 3 20.5t4 45t4.5 53.5t3.5 45v22.5v33v33.5v22l27 27q2 0 7.5 -5.5t5.5 -8.5q2 -4 4 -14t4.5 -20.5t4 -20t1.5 -13.5q1 -8 1 -26v-130q0 -21 -0.5 -38t-0.5 -26
q7 -9 10.5 -16.5t3.5 -17.5t-3.5 -17t-10.5 -17v-219q0 -5 -3 -8t-7.5 -4.5t-8.5 -1.5h-8q-3 0 -9 0.5t-11.5 2t-10 4t-4.5 7.5v206l-19 27l-288 -14l-28 -274q0 -1 -3 -3.5t-7.5 -4t-9 -3.5t-7.5 -2t-8.5 5t-5.5 8v261zM149 822q2 3 9 18t15.5 35.5t18.5 43t20 40.5
t18.5 31t15.5 13q1 0 6 -1.5t7 -2.5q0 -4 1.5 -13.5t3.5 -20.5t4.5 -21t4.5 -13q3 -9 11.5 -26.5t18.5 -37.5t21 -40l17 -35q22 -33 27 -50t0 -21t-18.5 3t-30.5 20t-34 31t-29.5 37t-18.5 38q-2 11 0 22q-1 -3 -2 -5q-7 -14 -17.5 -33t-23.5 -41t-25.5 -39.5t-21.5 -27
t-13.5 -4.5t-1 28.5t16.5 71.5zM240 882q-3 -5 -3 -9q4 8 3 9z" />
    <glyph glyph-name="hcircumflex" unicode="&#x125;" horiz-adv-x="601" 
d="M370 137q-2 8 -4.5 25t-6.5 38.5t-8.5 45.5t-9 45.5t-8 38.5t-5.5 25q-3 18 -7.5 32.5t-13 26t-21 18t-32.5 6.5q-15 0 -31.5 -11t-31.5 -25.5t-26 -28t-15 -18.5q-25 -27 -38 -69t-19.5 -88t-7.5 -90.5t-3 -79.5l-41 -15v630q0 5 1.5 18.5t4 29t5 29t3.5 19.5q1 3 6 7.5
t7 5.5l14 -13l28 -342h13q13 12 30 26t37 27t41.5 21t42.5 8q37 0 59 -18t35.5 -48.5t20 -68.5t13.5 -78t15.5 -78.5t25 -68t44 -48t70.5 -18.5q22 0 38 1t32 5t32.5 12.5t37.5 23.5l1 -2v-4q0 -16 -18.5 -32.5t-44 -29.5t-52 -21t-43.5 -8q-33 0 -58 12t-45 32t-36.5 45
t-30.5 50zM184 659q2 3 9 18t15.5 35.5t18.5 43t20 40.5t18.5 31t15.5 13q1 0 6 -1.5t7 -2.5q0 -4 1.5 -13.5t3.5 -20.5t4.5 -21t4.5 -13q3 -9 11.5 -26.5t18.5 -37.5t21 -40l17 -35q22 -33 27 -50t0 -21t-18.5 3t-30.5 20t-34 31t-29.5 37t-18.5 38q-2 11 0 22q-1 -3 -2 -5
q-7 -14 -17.5 -33t-23.5 -41t-25.5 -39.5t-21.5 -27t-13.5 -4.5t-1 28.5t16.5 71.5zM275 719q-3 -5 -3 -9q4 8 3 9z" />
    <glyph glyph-name="Itilde" unicode="&#x128;" horiz-adv-x="109" 
d="M49 697q3 -2 7.5 -7t8.5 -11t7.5 -12t3.5 -10v-644q0 -3 -5.5 -8t-9.5 -5q-3 0 -7.5 2t-9 3.5t-7.5 4t-3 3.5v657zM-127 757q0 38 10 59.5t26.5 29.5t38 5.5t44 -11.5t45 -22t41.5 -26q35 27 63.5 39.5t49 15t28.5 -4.5t-1 -21.5t-38 -33.5t-82 -41q-22 1 -43 8t-40.5 15
t-38 14.5t-36 7.5t-34.5 -6.5t-33 -27.5z" />
    <glyph glyph-name="itilde" unicode="&#x129;" horiz-adv-x="284" 
d="M21 220q1 8 1.5 26t2 41t3 48t2.5 48t2 41.5t2 27.5q5 8 9.5 10.5t11.5 2.5h3h3q10 -29 10.5 -71t0 -89.5t1 -94.5t12 -85t33.5 -61.5t66 -23.5q45 0 78 18t60 51q0 -1 1 -6.5t1 -7.5q0 -22 -18.5 -40t-43.5 -30.5t-52.5 -19t-44.5 -6.5q-45 0 -73 17t-44 46t-21.5 66
t-5.5 76v16zM-77 641q0 38 10 59.5t27 29.5t38 5.5t43.5 -11.5t45 -22t42.5 -26q33 27 62 39.5t49.5 15t28.5 -4.5t-1 -21.5t-37.5 -33.5t-82.5 -41q-22 1 -42.5 8t-40.5 15t-38.5 14.5t-36 7.5t-34.5 -6.5t-33 -27.5z" />
    <glyph glyph-name="imacron" unicode="&#x12b;" horiz-adv-x="284" 
d="M21 220q1 8 1.5 26t2 41t3 48t2.5 48t2 41.5t2 27.5q5 8 9.5 10.5t11.5 2.5h3h3q10 -29 10.5 -71t0 -89.5t1 -94.5t12 -85t33.5 -61.5t66 -23.5q45 0 78 18t60 51q0 -1 1 -6.5t1 -7.5q0 -22 -18.5 -40t-43.5 -30.5t-52.5 -19t-44.5 -6.5q-45 0 -73 17t-44 46t-21.5 66
t-5.5 76v16zM-2 565h273q9 0 12 -7t3 -14q0 -8 -6 -13.5t-15 -5.5h-8q-18 0 -44.5 0.5t-55.5 0t-59 -1t-53 -1.5t-38 -1l-14 -1z" />
    <glyph glyph-name="Ibreve" unicode="&#x12c;" horiz-adv-x="109" 
d="M49 697q3 -2 7.5 -7t8.5 -11t7.5 -12t3.5 -10v-644q0 -3 -5.5 -8t-9.5 -5q-3 0 -7.5 2t-9 3.5t-7.5 4t-3 3.5v657zM-31 811q-13 37 -18.5 58t-4 29t7.5 6.5t14.5 -9.5t18 -19t18.5 -22q8 -27 20 -40t26 -14.5t29 5t29.5 19t27 28.5t21.5 32q6 15 18 20.5t20.5 0.5
t8.5 -22t-20 -46q-17 -34 -46 -59.5t-60.5 -34t-61.5 6t-48 61.5z" />
    <glyph glyph-name="ibreve" unicode="&#x12d;" horiz-adv-x="284" 
d="M21 220q1 8 1.5 26t2 41t3 48t2.5 48t2 41.5t2 27.5q5 8 9.5 10.5t11.5 2.5h3h3q10 -29 10.5 -71t0 -89.5t1 -94.5t12 -85t33.5 -61.5t66 -23.5q45 0 78 18t60 51q0 -1 1 -6.5t1 -7.5q0 -22 -18.5 -40t-43.5 -30.5t-52.5 -19t-44.5 -6.5q-45 0 -73 17t-44 46t-21.5 66
t-5.5 76v16zM36 600q-14 37 -19 58t-4.5 29t6.5 6.5t14.5 -9.5t18.5 -19t18 -22q8 -27 20.5 -40t26 -14.5t29 5t30 19t27 28.5t22.5 32q4 15 17 20.5t21 0.5t8 -22t-20 -46q-17 -34 -46 -59.5t-61 -34t-61.5 6t-46.5 61.5z" />
    <glyph glyph-name="Iogonek" unicode="&#x12e;" horiz-adv-x="109" 
d="M181 -131q-13 0 -30.5 -4.5t-36 -7.5t-36.5 -2.5t-32 8.5t-23 27t-9 51q1 36 8 55q6 17 12 25v649l15 27q3 -2 7.5 -7t8.5 -11t7.5 -12t3.5 -10v-644q0 -3 -6 -9l-4 -2v-7q-1 -13 -11 -24v-16q0 -9 1.5 -17t6 -15t13.5 -9q18 -6 37.5 -4t37 6t30.5 8t18.5 1t2 -16
t-20.5 -40z" />
    <glyph glyph-name="iogonek" unicode="&#x12f;" horiz-adv-x="284" 
d="M216 -120q-13 -1 -30.5 -5t-36 -7t-36.5 -2.5t-32 8.5t-23 27t-9 51q1 35 8 54q6 19 13 27q-12 13 -22 29q-16 29 -21.5 66t-5.5 76v16q1 8 1.5 26t2 41t3 48t2.5 48t2 41.5t2 27.5q5 8 9.5 10.5t11.5 2.5h3h3q10 -29 10.5 -71t0 -89.5t1 -94.5t12 -85t33.5 -61.5
t66 -23.5q45 0 78 18t60 51q0 -1 1 -6.5t1 -7.5q0 -22 -18.5 -40t-43.5 -30.5t-52.5 -19t-44.5 -6.5q-37 0 -64 13v-7q-1 -12 -11 -23v-16q0 -9 2 -17t6.5 -15t13.5 -10q18 -5 37 -3t36.5 6t30.5 8t18.5 0.5t2 -16t-20.5 -39.5zM55 576q-16 0 -22.5 9.5t-4 21.5t10.5 22
t20 10q17 0 26 -10t9.5 -22t-9 -21.5t-30.5 -9.5z" />
    <glyph glyph-name="Idotaccent" unicode="&#x130;" horiz-adv-x="109" 
d="M49 697q3 -2 7.5 -7t8.5 -11t7.5 -12t3.5 -10v-644q0 -3 -5.5 -8t-9.5 -5q-3 0 -7.5 2t-9 3.5t-7.5 4t-3 3.5v657zM6 779q-2 24 6.5 35.5t20.5 13t24.5 -5.5t20.5 -17.5t5.5 -25.5t-19.5 -29q-11 -8 -21.5 -8t-19 5t-13.5 13.5t-4 18.5z" />
    <glyph glyph-name="Jcircumflex" unicode="&#x134;" horiz-adv-x="602" 
d="M21 122q0 3 1.5 7t3.5 8.5t4.5 8t3.5 4.5q9 -30 27.5 -51.5t42.5 -34.5t52 -18.5t56 -5.5t46.5 10t35.5 32q11 35 17 61.5t8.5 51.5t3 52t0.5 59v22q0 15 -0.5 30t-0.5 26v13q-2 16 -3.5 38.5t-5 47t-6.5 48t-5.5 42.5t-4.5 31t-3 12h-245v27q0 1 5.5 3.5t14.5 4.5
t18.5 4t15.5 2h10h21.5h25.5h20q15 0 52 1t82.5 0t94 -4t89 -11t66 -21.5t25.5 -33.5h-224q0 -78 6 -155t6 -154q0 -30 -1.5 -62.5t-6.5 -63.5t-16 -58.5t-29 -49t-45.5 -34t-66.5 -12.5q-26 0 -59 6.5t-62.5 21t-49.5 38t-20 57.5zM191 792q2 3 9 18t15.5 35.5t18.5 43
t20 40.5t18.5 31t15.5 13q1 0 6 -1.5t7 -2.5q0 -4 1.5 -13.5t3.5 -20.5t4.5 -21t4.5 -13q3 -9 11.5 -26.5t18.5 -37.5t21 -40l17 -35q22 -33 27 -50t0 -21t-18.5 3t-30.5 20t-34 31t-29.5 37t-18.5 38q-2 11 0 22q-1 -3 -2 -5q-7 -14 -17.5 -33t-23.5 -41t-25.5 -39.5
t-21.5 -27t-13.5 -4.5t-1 28.5t16.5 71.5zM282 852q-3 -5 -3 -9q4 8 3 9z" />
    <glyph glyph-name="jcircumflex" unicode="&#x135;" horiz-adv-x="176" 
d="M-197 -294q0 1 0.5 6t0.5 7q21 -14 35 -30t26 -31t22.5 -29t27 -25t38.5 -17t56 -6q32 0 54 10t35.5 27.5t21.5 41t11 49.5t3.5 53.5t0.5 52.5q0 9 -1 24l-1 30q0 16 -0.5 28t-0.5 14l-83 506v32q6 0 13 -3.5t13.5 -8.5t10.5 -10.5t5 -9.5l95 -506v-219
q0 -29 -14.5 -58.5t-37.5 -53t-52 -38.5t-57 -15q-37 0 -76 13t-71.5 36t-53.5 55.5t-21 74.5zM-30 659q2 3 9 18t15.5 35.5t18.5 43t20 40.5t18.5 31t14.5 13q2 0 7 -1.5t6 -2.5q0 -4 2 -13.5t4 -20.5t4.5 -21t3.5 -13q4 -9 12.5 -26.5t18.5 -37.5l20 -40l18 -35
q22 -33 27 -50t0 -21t-18.5 3t-30.5 20t-34 31t-29.5 37t-18.5 38q-3 11 0 22q-1 -3 -3 -5q-6 -14 -16.5 -33t-23.5 -41t-25.5 -39.5t-21.5 -27t-13.5 -4.5t-1 28.5t16.5 71.5zM61 719q-3 -5 -3 -9q4 8 3 9z" />
    <glyph glyph-name="Kcommaaccent" unicode="&#x136;" horiz-adv-x="616" 
d="M41 561q-8 26 -12 54t-4 55h43q1 0 4.5 -12.5t8 -29.5t9 -36t5.5 -31q2 -9 4.5 -32t4.5 -49.5t4 -50t2 -32.5h27q1 0 13.5 7.5t30 18.5t36 22.5t30.5 19.5q46 32 90.5 66t87.5 71h27v-14q0 -1 -9.5 -10.5t-22.5 -23t-27 -26.5t-23 -21q-13 -11 -34.5 -26t-47.5 -31
t-53 -33t-49 -32.5t-36 -28t-14 -20.5v-5t1 -3l83 -95l205 -129q26 0 46 -2.5t39.5 -6t41 -7t51.5 -6.5v-3v-3q0 -8 -2.5 -13t-11.5 -8q-3 0 -10 -1t-14.5 -1.5t-14 -0.5h-9.5q-51 0 -101 15.5t-98.5 39.5t-93 54t-83.5 59q-14 8 -19 13.5t-7.5 10t-8 8.5t-20.5 8
q0 -4 0.5 -13.5t0.5 -21t-0.5 -21t-0.5 -12.5q-1 -13 -2.5 -29t-3 -34.5t-2.5 -36.5t-2.5 -32t-3.5 -24l-1 -8l-27 -28l-27 28v533zM229 -198q27 13 42 23t22 20.5t8 22t-1.5 25t-5.5 30t-3 36.5q23 -3 36 -19.5t16 -39t-3 -46.5t-19 -42t-33 -25.5t-45 1.5z" />
    <glyph glyph-name="kcommaaccent" unicode="&#x137;" horiz-adv-x="616" 
d="M120 303q-4 0 -10 -1l-7 -1l-27 -233q-2 -12 -7 -19.5t-12.5 -11.5t-17.5 -5t-21 -1q0 33 3.5 60t12.5 59v538q6 0 13.5 -3.5t13.5 -9t10.5 -10.5t4.5 -8l27 -294l288 171h31q0 -20 -16.5 -37.5t-42.5 -34t-57 -30.5t-58.5 -27.5t-49 -26t-27.5 -23.5q34 -22 59 -54.5
t46.5 -67.5t42.5 -70t48.5 -62t62.5 -44.5t86 -17.5q13 0 23 5t20 11t20 11t23 5q0 -22 -10.5 -36t-25.5 -22.5t-33.5 -11.5t-36.5 -3q-50 0 -86.5 13.5t-63.5 34.5t-46 48.5t-35 56t-30.5 56.5t-30.5 49t-36 34t-48 13zM229 -198q27 13 42 23t22 20.5t8 22t-1.5 25t-5.5 30
t-3 36.5q23 -3 36 -19.5t16 -39t-3 -46.5t-19 -42t-33 -25.5t-45 1.5z" />
    <glyph glyph-name="Lacute" unicode="&#x139;" horiz-adv-x="651" 
d="M116 28q-13 0 -23.5 -3t-22 -6t-22.5 -5.5t-23 -2.5q0 33 3 63.5t13 62.5v506h27q1 0 3.5 -10t5 -27t5.5 -37.5t5.5 -41.5t4.5 -41.5t3 -33.5l3 -42t3.5 -63t3 -73.5t3 -73.5t2 -63t0.5 -42q4 -11 27 -19.5t57 -15t73 -10.5t74.5 -6.5t63.5 -3t38 -0.5q24 0 46 6.5
t44 14.5t44.5 15t46.5 7q9 0 14 -6t5 -16q0 -12 -17 -21.5t-43.5 -16.5t-58.5 -12t-63 -7.5t-55 -3.5t-36 -1q-33 0 -64.5 4.5t-63 10.5t-63 10t-63.5 4zM387 770q16 -5 16 -16.5t-11.5 -26t-31 -30.5t-41 -30.5t-42.5 -25.5t-35.5 -15.5t-20.5 -1.5t3 18q5 9 16 21.5t24 25
t27.5 26t26.5 25t21.5 21t12.5 15.5z" />
    <glyph glyph-name="lacute" unicode="&#x13a;" horiz-adv-x="152" 
d="M39 570q0 10 1 28t2.5 35.5t3 30.5t1.5 15l28 25l12 -14q0 -1 1.5 -18.5t2.5 -48t2 -71.5t3 -87t3.5 -94.5t2.5 -95t2 -88t2 -73.5v-8q0 -5 -0.5 -13t-1 -15t-0.5 -12q0 -3 -0.5 -10t-0.5 -14.5v-13.5v-9q-2 -2 -6 -4l-8 -4t-8.5 -3.5t-6.5 -1.5q-3 0 -7.5 5.5t-6.5 9.5
q-1 2 -2.5 10t-3.5 17t-3.5 16.5t-1.5 11.5q0 14 -1.5 42t-3.5 61t-3 69t-2.5 67t-2.5 55.5t-1 33.5v14q0 11 0.5 26.5t0.5 33.5t0.5 35t1 32t1.5 25zM160 878q16 -5 16 -16.5t-11.5 -26t-31 -30.5t-41 -30.5t-42.5 -25.5t-35.5 -15.5t-20.5 -1.5t3 18q5 9 16 21.5t24 25
t27.5 26t26.5 25t21.5 21t12.5 15.5z" />
    <glyph glyph-name="Lcommaaccent" unicode="&#x13b;" horiz-adv-x="651" 
d="M116 28q-13 0 -23.5 -3t-22 -6t-22.5 -5.5t-23 -2.5q0 33 3 63.5t13 62.5v506h27q1 0 3.5 -10t5 -27t5.5 -37.5t5.5 -41.5t4.5 -41.5t3 -33.5l3 -42t3.5 -63t3 -73.5t3 -73.5t2 -63t0.5 -42q4 -11 27 -19.5t57 -15t73 -10.5t74.5 -6.5t63.5 -3t38 -0.5q24 0 46 6.5
t44 14.5t44.5 15t46.5 7q9 0 14 -6t5 -16q0 -12 -17 -21.5t-43.5 -16.5t-58.5 -12t-63 -7.5t-55 -3.5t-36 -1q-33 0 -64.5 4.5t-63 10.5t-63 10t-63.5 4zM247 -198q27 13 42 23t22 20.5t8 22t-1.5 25t-5.5 30t-3 36.5q23 -3 36 -19.5t16 -39t-3 -46.5t-19 -42t-33 -25.5
t-45 1.5z" />
    <glyph glyph-name="lcommaaccent" unicode="&#x13c;" horiz-adv-x="152" 
d="M39 570q0 10 1 28t2.5 35.5t3 30.5t1.5 15l28 25l12 -14q0 -1 1.5 -18.5t2.5 -48t2 -71.5t3 -87t3.5 -94.5t2.5 -95t2 -88t2 -73.5v-8q0 -5 -0.5 -13t-1 -15t-0.5 -12q0 -3 -0.5 -10t-0.5 -14.5v-13.5v-9q-2 -2 -6 -4l-8 -4t-8.5 -3.5t-6.5 -1.5q-3 0 -7.5 5.5t-6.5 9.5
q-1 2 -2.5 10t-3.5 17t-3.5 16.5t-1.5 11.5q0 14 -1.5 42t-3.5 61t-3 69t-2.5 67t-2.5 55.5t-1 33.5v14q0 11 0.5 26.5t0.5 33.5t0.5 35t1 32t1.5 25zM-1 -198q27 13 42 23t22 20.5t8 22t-1.5 25t-5.5 30t-3 36.5q23 -3 36 -19.5t16 -39t-3 -46.5t-19 -42t-33 -25.5t-45 1.5
z" />
    <glyph glyph-name="Ldot" unicode="&#x13f;" horiz-adv-x="651" 
d="M116 28q-13 0 -23.5 -3t-22 -6t-22.5 -5.5t-23 -2.5q0 33 3 63.5t13 62.5v506h27q1 0 3.5 -10t5 -27t5.5 -37.5t5.5 -41.5t4.5 -41.5t3 -33.5l3 -42t3.5 -63t3 -73.5t3 -73.5t2 -63t0.5 -42q4 -11 27 -19.5t57 -15t73 -10.5t74.5 -6.5t63.5 -3t38 -0.5q24 0 46 6.5
t44 14.5t44.5 15t46.5 7q9 0 14 -6t5 -16q0 -12 -17 -21.5t-43.5 -16.5t-58.5 -12t-63 -7.5t-55 -3.5t-36 -1q-33 0 -64.5 4.5t-63 10.5t-63 10t-63.5 4zM309 285q-2 20 5 29t17 10.5t21 -4t17 -15t4 -21t-16 -24.5q-9 -7 -18 -6.5t-16.5 5t-11.5 12t-2 14.5z" />
    <glyph glyph-name="ldot" unicode="&#x140;" horiz-adv-x="241" 
d="M39 570q0 10 1 28t2.5 35.5t3 30.5t1.5 15l28 25l12 -14q0 -1 1.5 -18.5t2.5 -48t2 -71.5t3 -87t3.5 -94.5t2.5 -95t2 -88t2 -73.5v-8q0 -5 -0.5 -13t-1 -15t-0.5 -12q0 -3 -0.5 -10t-0.5 -14.5v-13.5v-9q-2 -2 -6 -4l-8 -4t-8.5 -3.5t-6.5 -1.5q-3 0 -7.5 5.5t-6.5 9.5
q-1 2 -2.5 10t-3.5 17t-3.5 16.5t-1.5 11.5q0 14 -1.5 42t-3.5 61t-3 69t-2.5 67t-2.5 55.5t-1 33.5v14q0 11 0.5 26.5t0.5 33.5t0.5 35t1 32t1.5 25zM155 303q-2 20 5 29t17 10.5t21 -4t17 -15t4 -21t-16 -24.5q-9 -7 -18 -6.5t-16.5 5t-11.5 12t-2 14.5z" />
    <glyph glyph-name="Lslash" unicode="&#x141;" horiz-adv-x="651" 
d="M4 314h37v329h27q1 0 3.5 -10t5 -27t5.5 -37.5t5.5 -41.5t4.5 -41.5t3 -33.5l3 -42t3 -63q1 -17 1 -33h174q9 0 12.5 -7t3.5 -14q0 -8 -6.5 -13.5t-14.5 -5.5h-8q-18 0 -43.5 1.5t-53 3t-54.5 3.5h-9v-8q3 -39 4.5 -74t2 -63t0.5 -42q4 -11 27 -19.5t57 -15t73 -10.5
t74.5 -6.5t63.5 -3t38 -0.5q24 0 46 6.5t44 14.5t44.5 15t46.5 7q9 0 14 -6t5 -16q0 -12 -17 -21.5t-43.5 -16.5t-58.5 -12t-63 -7.5t-55 -3.5t-36 -1q-33 0 -64.5 4.5t-63 10.5t-63 10t-63.5 4q-13 0 -23.5 -3t-22 -6t-22.5 -5.5t-23 -2.5q0 33 3 63.5t13 62.5v147
q-6 1 -11 2l-13 1l-28 14z" />
    <glyph glyph-name="lslash" unicode="&#x142;" horiz-adv-x="152" 
d="M-27 393h62v25q0 11 0.5 26.5t0.5 33.5t0.5 35t1 32t1.5 25q0 10 1 28t2.5 35.5t3 30.5t1.5 15l28 25l12 -14q0 -1 1.5 -18.5t2.5 -48t2 -71.5t2 -87q2 -35 3 -72h53q6 0 7.5 -6t1.5 -11q0 -8 -4 -13.5t-9 -5.5h-5q-12 1 -29 3h-14q2 -43 3 -84q1 -47 2 -88.5t2 -73.5v-8
q0 -5 -0.5 -13t-1 -15t-0.5 -12q0 -3 -0.5 -10t-0.5 -14.5v-13.5v-9q-2 -2 -6 -4l-8 -4t-8.5 -3.5t-6.5 -1.5q-3 0 -7.5 5.5t-6.5 9.5q-1 2 -2.5 10t-3.5 17t-3.5 16.5t-1.5 11.5q0 14 -1.5 42t-3.5 61t-3 69t-2 67q-2 28 -3 50q-14 0 -24 2q-14 1 -22 2l-8 1l-19 12z" />
    <glyph glyph-name="Nacute" unicode="&#x143;" horiz-adv-x="561" 
d="M349 40q-35 52 -70 108.5t-67.5 116t-60.5 120.5t-48 122h-16v-27.5t1 -41t1 -41.5v-27q-1 -13 -1.5 -37t-1.5 -55t-2.5 -65.5t-3.5 -65.5t-3 -55.5t-1 -36.5q-3 -5 -8 -9.5t-11.5 -8.5t-12 -6.5t-10.5 -2.5q-6 0 -9 4.5t-4 10.5t-1 12v9q0 61 3 121l6 120t5 121t0 121
q13 25 26.5 33.5t34.5 8.5h11t11 -1q31 -68 61.5 -129t61.5 -119.5t64 -115.5t72 -115l7 -7t8 -7q0 13 0.5 38.5t2 58.5t3 68t2.5 68t2.5 58.5t1.5 38.5q2 18 5 45.5t9.5 58.5t16 61.5t23.5 55t32 40.5t42 16q0 -23 -7 -44t-17 -40t-22.5 -37.5t-22.5 -38.5t-17 -42t-7 -48
v-439l-4 -2q-4 -2 -9.5 -4l-11 -4t-10.5 -3h-2q-3 -1 -4 -1h-4q-1 0 -2 1q-3 2 -9 7.5t-12.5 12t-12.5 13t-8 7.5zM342 770q16 -5 16 -16.5t-11.5 -26t-31 -30.5t-41 -30.5t-42.5 -25.5t-35.5 -15.5t-20.5 -1.5t3 18q5 9 16 21.5t24 25t27.5 26t26.5 25t21.5 21t12.5 15.5z
" />
    <glyph glyph-name="nacute" unicode="&#x144;" horiz-adv-x="609" 
d="M268 481q-21 0 -49 -13.5t-54 -34t-44 -45t-18 -46.5v-302q0 -4 -4.5 -6.5t-10 -4t-11.5 -2t-9 -0.5q-13 0 -19 4.5t-7.5 12.5t-1 18t0.5 20q-1 8 -2 35l-2 61q-1 35 -2.5 74.5t-2.5 75t-2.5 62t-1.5 35.5v38q0 6 2 11t8 9.5t17 8.5q3 0 7.5 -5.5t5.5 -7.5l3.5 -14
t4.5 -20.5t4 -20.5t2 -14q1 -1 3 -1h4q14 0 33.5 17.5t45 38.5t53.5 38.5t59 17.5q39 0 61.5 -20.5t33 -55t14 -77.5t6 -87.5t7.5 -88t19 -77.5t40.5 -54.5t72.5 -20.5q15 0 30.5 2t30.5 5t30.5 5.5t31.5 2.5h8h5q-36 -27 -73 -41.5t-84 -14.5q-50 0 -80.5 20.5t-48.5 55
t-25 77.5t-11 87.5t-6 88t-9 77.5t-22 55t-43 21zM366 727q16 -5 16 -16.5t-11.5 -26t-31 -30.5t-41 -30.5t-42.5 -25.5t-35.5 -15.5t-20.5 -1.5t3 18q5 9 16 21.5t24 25t27.5 26t26.5 25t21.5 21t12.5 15.5z" />
    <glyph glyph-name="Ncommaaccent" unicode="&#x145;" horiz-adv-x="561" 
d="M349 40q-35 52 -70 108.5t-67.5 116t-60.5 120.5t-48 122h-16v-27.5t1 -41t1 -41.5v-27q-1 -13 -1.5 -37t-1.5 -55t-2.5 -65.5t-3.5 -65.5t-3 -55.5t-1 -36.5q-3 -5 -8 -9.5t-11.5 -8.5t-12 -6.5t-10.5 -2.5q-6 0 -9 4.5t-4 10.5t-1 12v9q0 61 3 121l6 120t5 121t0 121
q13 25 26.5 33.5t34.5 8.5h11t11 -1q31 -68 61.5 -129t61.5 -119.5t64 -115.5t72 -115l7 -7t8 -7q0 13 0.5 38.5t2 58.5t3 68t2.5 68t2.5 58.5t1.5 38.5q2 18 5 45.5t9.5 58.5t16 61.5t23.5 55t32 40.5t42 16q0 -23 -7 -44t-17 -40t-22.5 -37.5t-22.5 -38.5t-17 -42t-7 -48
v-439l-4 -2q-4 -2 -9.5 -4l-11 -4t-10.5 -3h-2q-3 -1 -4 -1h-4q-1 0 -2 1q-3 2 -9 7.5t-12.5 12t-12.5 13t-8 7.5zM202 -198q27 13 42 23t22 20.5t8 22t-1.5 25t-5.5 30t-3 36.5q23 -3 36 -19.5t16 -39t-3 -46.5t-19 -42t-33 -25.5t-45 1.5z" />
    <glyph glyph-name="ncommaaccent" unicode="&#x146;" horiz-adv-x="609" 
d="M268 481q-21 0 -49 -13.5t-54 -34t-44 -45t-18 -46.5v-302q0 -4 -4.5 -6.5t-10 -4t-11.5 -2t-9 -0.5q-13 0 -19 4.5t-7.5 12.5t-1 18t0.5 20q-1 8 -2 35l-2 61q-1 35 -2.5 74.5t-2.5 75t-2.5 62t-1.5 35.5v38q0 6 2 11t8 9.5t17 8.5q3 0 7.5 -5.5t5.5 -7.5l3.5 -14
t4.5 -20.5t4 -20.5t2 -14q1 -1 3 -1h4q14 0 33.5 17.5t45 38.5t53.5 38.5t59 17.5q39 0 61.5 -20.5t33 -55t14 -77.5t6 -87.5t7.5 -88t19 -77.5t40.5 -54.5t72.5 -20.5q15 0 30.5 2t30.5 5t30.5 5.5t31.5 2.5h8h5q-36 -27 -73 -41.5t-84 -14.5q-50 0 -80.5 20.5t-48.5 55
t-25 77.5t-11 87.5t-6 88t-9 77.5t-22 55t-43 21zM226 -198q27 13 42 23t22 20.5t8 22t-1.5 25t-5.5 30t-3 36.5q23 -3 36 -19.5t16 -39t-3 -46.5t-19 -42t-33 -25.5t-45 1.5z" />
    <glyph glyph-name="Ncaron" unicode="&#x147;" horiz-adv-x="561" 
d="M349 40q-35 52 -70 108.5t-67.5 116t-60.5 120.5t-48 122h-16v-27.5t1 -41t1 -41.5v-27q-1 -13 -1.5 -37t-1.5 -55t-2.5 -65.5t-3.5 -65.5t-3 -55.5t-1 -36.5q-3 -5 -8 -9.5t-11.5 -8.5t-12 -6.5t-10.5 -2.5q-6 0 -9 4.5t-4 10.5t-1 12v9q0 61 3 121l6 120t5 121t0 121
q13 25 26.5 33.5t34.5 8.5h11t11 -1q31 -68 61.5 -129t61.5 -119.5t64 -115.5t72 -115l7 -7t8 -7q0 13 0.5 38.5t2 58.5t3 68t2.5 68t2.5 58.5t1.5 38.5q2 18 5 45.5t9.5 58.5t16 61.5t23.5 55t32 40.5t42 16q0 -23 -7 -44t-17 -40t-22.5 -37.5t-22.5 -38.5t-17 -42t-7 -48
v-439l-4 -2q-4 -2 -9.5 -4l-11 -4t-10.5 -3h-2q-3 -1 -4 -1h-4q-1 0 -2 1q-3 2 -9 7.5t-12.5 12t-12.5 13t-8 7.5zM162 689q-25 33 -35.5 51.5t-10 25t9.5 3t23 -13t31.5 -23t34.5 -27.5t30 -27q11 -10 17 -17q-4 7 1 16q7 11 23.5 23.5t38.5 25t43.5 22.5t40 16.5t26.5 7.5
t3 -6t-29 -23q-8 -7 -24.5 -23t-33.5 -33.5t-31 -31.5t-19 -20q-2 -2 -4 -6l-5 -10q-3 -5 -4.5 -10.5t-1.5 -7.5q-2 -1 -7.5 -1h-8.5q-9 0 -26 12.5t-33 29t-30 30.5t-19 17z" />
    <glyph glyph-name="ncaron" unicode="&#x148;" horiz-adv-x="609" 
d="M268 481q-21 0 -49 -13.5t-54 -34t-44 -45t-18 -46.5v-302q0 -4 -4.5 -6.5t-10 -4t-11.5 -2t-9 -0.5q-13 0 -19 4.5t-7.5 12.5t-1 18t0.5 20q-1 8 -2 35l-2 61q-1 35 -2.5 74.5t-2.5 75t-2.5 62t-1.5 35.5v38q0 6 2 11t8 9.5t17 8.5q3 0 7.5 -5.5t5.5 -7.5l3.5 -14
t4.5 -20.5t4 -20.5t2 -14q1 -1 3 -1h4q14 0 33.5 17.5t45 38.5t53.5 38.5t59 17.5q39 0 61.5 -20.5t33 -55t14 -77.5t6 -87.5t7.5 -88t19 -77.5t40.5 -54.5t72.5 -20.5q15 0 30.5 2t30.5 5t30.5 5.5t31.5 2.5h8h5q-36 -27 -73 -41.5t-84 -14.5q-50 0 -80.5 20.5t-48.5 55
t-25 77.5t-11 87.5t-6 88t-9 77.5t-22 55t-43 21zM185 646q-25 33 -35.5 51.5t-10 25t9.5 3t23 -13t31.5 -23t34.5 -27.5t30 -27q11 -10 17 -17q-4 7 1 16q7 11 23.5 23.5t38.5 25t43.5 22.5t40 16.5t26.5 7.5t3 -6t-29 -23q-8 -7 -24.5 -23t-33.5 -33.5t-31 -31.5t-19 -20
q-2 -2 -4 -6l-5 -10q-3 -5 -4.5 -10.5t-1.5 -7.5q-2 -1 -7.5 -1h-8.5q-9 0 -26 12.5t-33 29t-30 30.5t-19 17z" />
    <glyph glyph-name="napostrophe" unicode="&#x149;" horiz-adv-x="609" 
d="M268 481q-21 0 -49 -13.5t-54 -34t-44 -45t-18 -46.5v-302q0 -4 -4.5 -6.5t-10 -4t-11.5 -2t-9 -0.5q-13 0 -19 4.5t-7.5 12.5t-1 18t0.5 20q-1 8 -2 35l-2 61q-1 35 -2.5 74.5t-2.5 75t-2.5 62t-1.5 35.5v38q0 6 2 11t8 9.5t17 8.5q3 0 7.5 -5.5t5.5 -7.5l3.5 -14
t4.5 -20.5t4 -20.5t2 -14q1 -1 3 -1h4q14 0 33.5 17.5t45 38.5t53.5 38.5t59 17.5q39 0 61.5 -20.5t33 -55t14 -77.5t6 -87.5t7.5 -88t19 -77.5t40.5 -54.5t72.5 -20.5q15 0 30.5 2t30.5 5t30.5 5.5t31.5 2.5h8h5q-36 -27 -73 -41.5t-84 -14.5q-50 0 -80.5 20.5t-48.5 55
t-25 77.5t-11 87.5t-6 88t-9 77.5t-22 55t-43 21zM86 583q27 13 42 23t22 20.5t8 22t-1.5 25t-5.5 30t-3 36.5q23 -3 36 -19.5t16 -39t-3 -46.5t-19 -42t-33 -25.5t-45 1.5z" />
    <glyph glyph-name="Omacron" unicode="&#x14c;" 
d="M20 182q0 32 4 74t13.5 86t25 86.5t39 75t55.5 53t73 20.5q57 0 93.5 -23.5t57.5 -61t29.5 -84t8.5 -93.5q0 -60 -12 -117t-40.5 -101.5t-74 -71t-115.5 -26.5q-44 0 -73.5 14.5t-48.5 38.5t-27 58t-8 72zM75 197q0 -31 4 -60t16.5 -50t35.5 -34t62 -13q54 0 90 23t57 60
t29.5 83t8.5 92q0 12 -0.5 33t-3 45t-7.5 50t-14 46.5t-24 33.5t-35 13q-48 0 -83.5 -11t-60 -32.5t-39.5 -51t-23 -65t-10.5 -77t-2.5 -85.5zM112 683h274q8 0 11 -6.5t3 -12.5q0 -9 -5.5 -15t-13.5 -6h-8q-19 1 -45.5 1.5t-56 0t-58.5 -1t-52.5 -1.5t-39.5 -2h-13z" />
    <glyph glyph-name="omacron" unicode="&#x14d;" horiz-adv-x="431" 
d="M21 144q3 38 11 78.5t22 78t35 70.5t50 57.5t67 37t86 8.5q65 -56 93 -113.5t28.5 -110t-21 -98.5t-56 -79.5t-76.5 -53.5t-82 -20q-31 0 -59.5 9.5t-50 28t-34.5 45.5t-13 62zM365 247q0 30 -4.5 55t-14.5 46t-26.5 40.5t-40.5 38.5l-2 -8q-36 3 -73 -17t-67 -56
t-48 -85t-14 -104q0 -33 13 -58t42 -44q3 0 11 -0.5t16.5 -0.5t16.5 -0.5t10 -0.5q45 0 79 13.5t56.5 38.5t34 61t11.5 81zM94 576h274q8 0 11 -6.5t3 -12.5q0 -9 -5.5 -15t-13.5 -6h-8q-19 1 -45.5 1.5t-56 0t-58.5 -1t-52.5 -1.5t-39.5 -2h-13z" />
    <glyph glyph-name="Obreve" unicode="&#x14e;" 
d="M20 182q0 32 4 74t13.5 86t25 86.5t39 75t55.5 53t73 20.5q57 0 93.5 -23.5t57.5 -61t29.5 -84t8.5 -93.5q0 -60 -12 -117t-40.5 -101.5t-74 -71t-115.5 -26.5q-44 0 -73.5 14.5t-48.5 38.5t-27 58t-8 72zM75 197q0 -31 4 -60t16.5 -50t35.5 -34t62 -13q54 0 90 23t57 60
t29.5 83t8.5 92q0 12 -0.5 33t-3 45t-7.5 50t-14 46.5t-24 33.5t-35 13q-48 0 -83.5 -11t-60 -32.5t-39.5 -51t-23 -65t-10.5 -77t-2.5 -85.5zM124 710q-13 37 -18.5 58t-4 29t7.5 6.5t14.5 -9.5t18 -19t18.5 -22q8 -27 20 -40t26 -14.5t29 5t29.5 19t27 28.5t21.5 32
q6 15 18 20.5t20.5 0.5t8.5 -22t-20 -46q-17 -34 -46 -59.5t-60.5 -34t-61.5 6t-48 61.5z" />
    <glyph glyph-name="obreve" unicode="&#x14f;" horiz-adv-x="431" 
d="M21 144q3 38 11 78.5t22 78t35 70.5t50 57.5t67 37t86 8.5q65 -56 93 -113.5t28.5 -110t-21 -98.5t-56 -79.5t-76.5 -53.5t-82 -20q-31 0 -59.5 9.5t-50 28t-34.5 45.5t-13 62zM365 247q0 30 -4.5 55t-14.5 46t-26.5 40.5t-40.5 38.5l-2 -8q-36 3 -73 -17t-67 -56
t-48 -85t-14 -104q0 -33 13 -58t42 -44q3 0 11 -0.5t16.5 -0.5t16.5 -0.5t10 -0.5q45 0 79 13.5t56.5 38.5t34 61t11.5 81zM107 600q-13 37 -18.5 58t-4 29t7.5 6.5t14.5 -9.5t18 -19t18.5 -22q8 -27 20 -40t26 -14.5t29 5t29.5 19t27 28.5t21.5 32q6 15 18 20.5t20.5 0.5
t8.5 -22t-20 -46q-17 -34 -46 -59.5t-60.5 -34t-61.5 6t-48 61.5z" />
    <glyph glyph-name="Ohungarumlaut" unicode="&#x150;" 
d="M20 182q0 32 4 74t13.5 86t25 86.5t39 75t55.5 53t73 20.5q57 0 93.5 -23.5t57.5 -61t29.5 -84t8.5 -93.5q0 -60 -12 -117t-40.5 -101.5t-74 -71t-115.5 -26.5q-44 0 -73.5 14.5t-48.5 38.5t-27 58t-8 72zM75 197q0 -31 4 -60t16.5 -50t35.5 -34t62 -13q54 0 90 23t57 60
t29.5 83t8.5 92q0 12 -0.5 33t-3 45t-7.5 50t-14 46.5t-24 33.5t-35 13q-48 0 -83.5 -11t-60 -32.5t-39.5 -51t-23 -65t-10.5 -77t-2.5 -85.5zM245 755q11 -9 3 -24.5t-24 -32.5t-37 -32t-36 -22t-20 -3t9 24q8 13 18.5 27t20.5 26.5t18 23.5t12 19zM356 731
q16 0 10.5 -11.5t-21.5 -28t-37.5 -33t-39 -26.5t-24.5 -9.5t7 17.5q8 14 18.5 28t20 26.5t18 23t12.5 19.5z" />
    <glyph glyph-name="ohungarumlaut" unicode="&#x151;" horiz-adv-x="431" 
d="M21 144q3 38 11 78.5t22 78t35 70.5t50 57.5t67 37t86 8.5q65 -56 93 -113.5t28.5 -110t-21 -98.5t-56 -79.5t-76.5 -53.5t-82 -20q-31 0 -59.5 9.5t-50 28t-34.5 45.5t-13 62zM365 247q0 30 -4.5 55t-14.5 46t-26.5 40.5t-40.5 38.5l-2 -8q-36 3 -73 -17t-67 -56
t-48 -85t-14 -104q0 -33 13 -58t42 -44q3 0 11 -0.5t16.5 -0.5t16.5 -0.5t10 -0.5q45 0 79 13.5t56.5 38.5t34 61t11.5 81zM241 672q11 -9 3 -24.5t-24 -32.5t-37 -32t-36 -22t-20 -3t9 24q8 13 18.5 27t20.5 26.5t18 23.5t12 19zM352 648q16 0 10.5 -11.5t-21.5 -28
t-37.5 -33t-39 -26.5t-24.5 -9.5t7 17.5q8 14 18.5 28t20 26.5t18 23t12.5 19.5z" />
    <glyph glyph-name="OE" unicode="&#x152;" horiz-adv-x="750" 
d="M20 182q0 32 4 74t13.5 86t25 86.5t39 75t55.5 53t73 20.5q39 0 61.5 -11.5t33.5 -30.5q0 1 0.5 2t0.5 2q40 14 74 23t66.5 13.5t65.5 6.5t74 2q5 0 17 -0.5t24.5 -1.5t22 -1t12.5 -1l27 -13l-14 -14q-7 0 -26.5 0.5t-41 0.5t-41.5 -0.5t-28 -0.5q-14 -2 -34 -5.5
t-41 -7.5t-42 -8.5t-37.5 -8.5t-26.5 -6.5t-10 -4.5v-178h266q0 -10 -16.5 -17t-41 -11.5t-55 -7t-58 -5t-50 -6t-31.5 -8.5q0 -5 -0.5 -16.5t-1 -24.5t-0.5 -25v-16q0 -17 -1 -40.5t2.5 -45t15 -37t36.5 -15.5q33 0 67 2.5t67.5 5t67.5 5t68 2.5h21q-8 -9 -19 -19
t-24 -17.5t-27 -12.5t-26 -5h-218q-34 0 -53.5 19.5t-30.5 51.5q-7 -21 -18.5 -38t-29 -29t-42 -18.5t-58.5 -6.5q-44 0 -73.5 14.5t-48.5 38.5t-27 58t-8 72zM311 334q0 21 0.5 39t1.5 35t2.5 34t3.5 37q-6 15 -16.5 24t-27.5 9q-48 0 -82 -11t-56.5 -31.5t-34.5 -49
t-18.5 -63.5t-7.5 -75.5t-1 -84.5q0 -31 4 -60t16.5 -50t35.5 -34t62 -13q30 0 51.5 7.5t36 21t22 32.5t11.5 40q-4 27 -4.5 55.5t0 54t1 47t0.5 36.5z" />
    <glyph glyph-name="oe" unicode="&#x153;" horiz-adv-x="730" 
d="M21 144q5 43 16.5 91.5t30.5 93t44 79.5t56.5 51t69 8.5t81.5 -49.5q22 42 62.5 66t102.5 24q30 0 51.5 -5t35.5 -18t21 -33.5t7 -51.5q0 -29 -12.5 -50.5t-33 -35.5t-47 -21t-53.5 -7q-6 0 -20.5 -4t-31 -7.5t-31 -5t-18.5 4.5l-3 -10q3 -36 8.5 -76.5t18.5 -74.5
t35 -57t56 -23q4 0 13.5 2t20.5 4t21 5t13 4q9 2 25 10t36 17t42.5 19t43 19.5t36 17.5t23.5 13q1 -2 1 -7.5v-6.5q0 -18 -17.5 -36t-45 -32.5t-60.5 -28t-64.5 -22.5t-57.5 -14.5t-38 -5.5q-26 0 -46.5 9t-37 24.5t-29.5 37.5t-22 47q-5 -30 -18.5 -50t-32.5 -33.5
t-43.5 -20t-51.5 -6.5q-31 0 -59.5 9.5t-50 28t-34.5 45.5t-13 62zM293 293q0 53 14 94q-4 11 -11 19.5t-19 12.5q-36 3 -73 -17t-67 -56t-48 -85t-14 -104q0 -33 13 -58t42 -44q3 0 11 -0.5t16.5 -0.5t16.5 -0.5t10 -0.5q38 0 61 9t35 26.5t16.5 42.5t6.5 57
q-5 28 -7.5 54.5t-2.5 50.5zM354 285l6 8q4 6 8 10.5t6 7.5l3 3q28 5 59.5 7t58 10.5t44 26.5t17.5 52q0 17 -6 28t-15.5 17.5t-23.5 8t-30 1.5q-60 0 -90 -31t-39 -82q3 -9 11 -22z" />
    <glyph glyph-name="Racute" unicode="&#x154;" horiz-adv-x="623" 
d="M34 547q-9 13 -11.5 21t-2.5 20q0 21 12 38t31 29.5t42.5 20.5t47.5 13.5t46 7.5t39 2q66 0 96 -28t30 -95q0 -89 -43 -144.5t-123 -89.5v-3v-3q0 -32 23 -58.5t60 -47.5t82.5 -37.5t89.5 -27t82 -14t61 -1.5l12 -13q-5 -12 -17.5 -18.5t-27.5 -8.5t-30 -1.5t-25 0.5
q-52 0 -104 14t-100 39.5t-89.5 60.5t-70.5 78h-27v-296q-19 0 -27 7.5t-11 19t-3 25v25.5q-2 18 -5.5 54.5t-7.5 82t-8.5 96t-8.5 96.5t-7 82.5t-5 53.5zM103 397q9 -18 17 -23t22 -5q34 0 67 16.5t58 42.5t40 59.5t15 66.5q0 17 -2 35.5t-9.5 34t-21 25t-33.5 9.5
q-27 0 -56.5 -3t-54 -13.5t-41 -28.5t-16.5 -48q0 -23 1 -42.5t2.5 -39t4.5 -40.5t7 -46zM295 895q16 -5 16 -16.5t-11.5 -26t-31 -30.5t-41 -30.5t-42.5 -25.5t-35.5 -15.5t-20.5 -1.5t3 18q5 9 16 21.5t24 25t27.5 26t26.5 25t21.5 21t12.5 15.5z" />
    <glyph glyph-name="racute" unicode="&#x155;" horiz-adv-x="436" 
d="M37 311v146q0 6 1 10.5t4 8t10 4.5q14 -9 19 -25.5t8 -33t8.5 -31t18.5 -19.5q17 29 34 54t38.5 44t47.5 29t62 10q21 0 43.5 -4t41 -14t30.5 -27.5t12 -43.5q-20 0 -35.5 7.5t-30.5 16.5t-32 16.5t-40 7.5q-30 0 -54 -15.5t-43 -41.5t-33 -60t-24.5 -72t-16.5 -76.5
t-10 -74t-5.5 -65.5t-1.5 -49h-40q-4 27 -6 62.5t-3 75t-2 80.5t-1 80zM281 727q16 -5 16 -16.5t-11.5 -26t-31 -30.5t-41 -30.5t-42.5 -25.5t-35.5 -15.5t-20.5 -1.5t3 18q5 9 16 21.5t24 25t27.5 26t26.5 25t21.5 21t12.5 15.5z" />
    <glyph glyph-name="Rcommaaccent" unicode="&#x156;" horiz-adv-x="623" 
d="M34 547q-9 13 -11.5 21t-2.5 20q0 21 12 38t31 29.5t42.5 20.5t47.5 13.5t46 7.5t39 2q66 0 96 -28t30 -95q0 -89 -43 -144.5t-123 -89.5v-3v-3q0 -32 23 -58.5t60 -47.5t82.5 -37.5t89.5 -27t82 -14t61 -1.5l12 -13q-5 -12 -17.5 -18.5t-27.5 -8.5t-30 -1.5t-25 0.5
q-52 0 -104 14t-100 39.5t-89.5 60.5t-70.5 78h-27v-296q-19 0 -27 7.5t-11 19t-3 25v25.5q-2 18 -5.5 54.5t-7.5 82t-8.5 96t-8.5 96.5t-7 82.5t-5 53.5zM103 397q9 -18 17 -23t22 -5q34 0 67 16.5t58 42.5t40 59.5t15 66.5q0 17 -2 35.5t-9.5 34t-21 25t-33.5 9.5
q-27 0 -56.5 -3t-54 -13.5t-41 -28.5t-16.5 -48q0 -23 1 -42.5t2.5 -39t4.5 -40.5t7 -46zM233 -198q27 13 42 23t22 20.5t8 22t-1.5 25t-5.5 30t-3 36.5q23 -3 36 -19.5t16 -39t-3 -46.5t-19 -42t-33 -25.5t-45 1.5z" />
    <glyph glyph-name="rcommaaccent" unicode="&#x157;" horiz-adv-x="436" 
d="M37 311v146q0 6 1 10.5t4 8t10 4.5q14 -9 19 -25.5t8 -33t8.5 -31t18.5 -19.5q17 29 34 54t38.5 44t47.5 29t62 10q21 0 43.5 -4t41 -14t30.5 -27.5t12 -43.5q-20 0 -35.5 7.5t-30.5 16.5t-32 16.5t-40 7.5q-30 0 -54 -15.5t-43 -41.5t-33 -60t-24.5 -72t-16.5 -76.5
t-10 -74t-5.5 -65.5t-1.5 -49h-40q-4 27 -6 62.5t-3 75t-2 80.5t-1 80zM140 -198q27 13 42 23t22 20.5t8 22t-1.5 25t-5.5 30t-3 36.5q23 -3 36 -19.5t16 -39t-3 -46.5t-19 -42t-33 -25.5t-45 1.5z" />
    <glyph glyph-name="Rcaron" unicode="&#x158;" horiz-adv-x="623" 
d="M34 547q-9 13 -11.5 21t-2.5 20q0 21 12 38t31 29.5t42.5 20.5t47.5 13.5t46 7.5t39 2q66 0 96 -28t30 -95q0 -89 -43 -144.5t-123 -89.5v-3v-3q0 -32 23 -58.5t60 -47.5t82.5 -37.5t89.5 -27t82 -14t61 -1.5l12 -13q-5 -12 -17.5 -18.5t-27.5 -8.5t-30 -1.5t-25 0.5
q-52 0 -104 14t-100 39.5t-89.5 60.5t-70.5 78h-27v-296q-19 0 -27 7.5t-11 19t-3 25v25.5q-2 18 -5.5 54.5t-7.5 82t-8.5 96t-8.5 96.5t-7 82.5t-5 53.5zM103 397q9 -18 17 -23t22 -5q34 0 67 16.5t58 42.5t40 59.5t15 66.5q0 17 -2 35.5t-9.5 34t-21 25t-33.5 9.5
q-27 0 -56.5 -3t-54 -13.5t-41 -28.5t-16.5 -48q0 -23 1 -42.5t2.5 -39t4.5 -40.5t7 -46zM161 814q-25 33 -35.5 51.5t-10 25t9.5 3t23 -13t31.5 -23t34.5 -27.5t30 -27q11 -10 17 -17q-4 7 1 16q7 11 23.5 23.5t38.5 25t43.5 22.5t40 16.5t26.5 7.5t3 -6t-29 -23
q-8 -7 -24.5 -23t-33.5 -33.5t-31 -31.5t-19 -20q-2 -2 -4 -6l-5 -10q-3 -5 -4.5 -10.5t-1.5 -7.5q-2 -1 -7.5 -1h-8.5q-9 0 -26 12.5t-33 29t-30 30.5t-19 17z" />
    <glyph glyph-name="rcaron" unicode="&#x159;" horiz-adv-x="436" 
d="M37 311v146q0 6 1 10.5t4 8t10 4.5q14 -9 19 -25.5t8 -33t8.5 -31t18.5 -19.5q17 29 34 54t38.5 44t47.5 29t62 10q21 0 43.5 -4t41 -14t30.5 -27.5t12 -43.5q-20 0 -35.5 7.5t-30.5 16.5t-32 16.5t-40 7.5q-30 0 -54 -15.5t-43 -41.5t-33 -60t-24.5 -72t-16.5 -76.5
t-10 -74t-5.5 -65.5t-1.5 -49h-40q-4 27 -6 62.5t-3 75t-2 80.5t-1 80zM99 646q-25 33 -35.5 51.5t-10 25t9.5 3t23 -13t31.5 -23t34.5 -27.5t30 -27q11 -10 17 -17q-4 7 1 16q7 11 23.5 23.5t38.5 25t43.5 22.5t40 16.5t26.5 7.5t3 -6t-29 -23q-8 -7 -24.5 -23t-33.5 -33.5
t-31 -31.5t-19 -20q-2 -2 -4 -6l-5 -10q-3 -5 -4.5 -10.5t-1.5 -7.5q-2 -1 -7.5 -1h-8.5q-9 0 -26 12.5t-33 29t-30 30.5t-19 17z" />
    <glyph glyph-name="Sacute" unicode="&#x15a;" horiz-adv-x="479" 
d="M34 137q0 8 7.5 11t13.5 3q5 0 15.5 -7.5t26 -18.5t34 -23.5t40 -23.5t43.5 -18.5t44 -7.5q33 0 60 8.5t46 25.5t30 43t11 60q0 57 -16.5 89.5t-43.5 50t-62 24t-71 11t-71 11.5t-62 24.5t-43 51t-16 92.5q0 28 3 56t14.5 50.5t32 36t53.5 13.5q19 0 42 -6.5t43 -19
t33.5 -30.5t13.5 -41q0 -2 -0.5 -7.5t-0.5 -6.5l-28 31.5t-25 22t-28.5 12.5t-38.5 4q-22 0 -36 -7.5t-22.5 -21t-12 -31t-3.5 -36.5q0 -54 16.5 -84.5t44 -47t62 -23.5t71 -12t71 -14t62 -30t43.5 -58t16 -100q0 -51 -14.5 -88t-42 -60t-67.5 -34.5t-92 -11.5
q-10 0 -29 5.5t-40.5 15.5t-44 23t-40.5 28t-30 32t-12 34zM277 884q16 -5 16 -16.5t-11.5 -26t-31 -30.5t-41 -30.5t-42.5 -25.5t-35.5 -15.5t-20.5 -1.5t3 18q5 9 16 21.5t24 25t27.5 26t26.5 25t21.5 21t12.5 15.5z" />
    <glyph glyph-name="sacute" unicode="&#x15b;" horiz-adv-x="514" 
d="M21 137q-1 3 -1 13.5v14.5q0 3 -0.5 9.5t0.5 12.5t4 11t10 7q-1 -20 9 -39t26 -37.5t36.5 -35t43 -28t44 -18.5t40.5 -7q35 0 71 12t64.5 33.5t46.5 52.5t18 70q0 24 -14.5 40.5t-38 29t-53 21t-61 16.5t-61.5 17t-53.5 21.5t-37.5 29.5t-14 43q0 23 10.5 40.5t28 31.5
t40 23.5t45.5 16t45.5 9t40.5 2.5q23 0 40.5 -0.5t32.5 -5.5t27 -16t21 -35q-4 -8 -8.5 -10.5t-12.5 -2.5q-11 0 -18.5 8.5t-15.5 19.5q-3 0 -12 0.5t-18.5 0.5h-18h-12.5q-12 0 -29.5 -1t-37 -4t-38 -9t-34 -15t-25 -22.5t-9.5 -31.5q0 -16 6.5 -25t22.5 -18q7 0 21 -4.5
t31.5 -9.5t37 -10.5t37 -11.5t31 -11t20.5 -7q24 -9 49 -18t45 -22.5t32 -33t12 -49.5q0 -45 -24 -82.5t-60.5 -65t-80 -43t-84.5 -15.5q-36 0 -67 10.5t-57.5 29.5t-49.5 43.5t-43 54.5zM319 727q16 -5 16 -16.5t-11.5 -26t-31 -30.5t-41 -30.5t-42.5 -25.5t-35.5 -15.5
t-20.5 -1.5t3 18q5 9 16 21.5t24 25t27.5 26t26.5 25t21.5 21t12.5 15.5z" />
    <glyph glyph-name="Scircumflex" unicode="&#x15c;" horiz-adv-x="479" 
d="M34 137q0 8 7.5 11t13.5 3q5 0 15.5 -7.5t26 -18.5t34 -23.5t40 -23.5t43.5 -18.5t44 -7.5q33 0 60 8.5t46 25.5t30 43t11 60q0 57 -16.5 89.5t-43.5 50t-62 24t-71 11t-71 11.5t-62 24.5t-43 51t-16 92.5q0 28 3 56t14.5 50.5t32 36t53.5 13.5q19 0 42 -6.5t43 -19
t33.5 -30.5t13.5 -41q0 -2 -0.5 -7.5t-0.5 -6.5l-28 31.5t-25 22t-28.5 12.5t-38.5 4q-22 0 -36 -7.5t-22.5 -21t-12 -31t-3.5 -36.5q0 -54 16.5 -84.5t44 -47t62 -23.5t71 -12t71 -14t62 -30t43.5 -58t16 -100q0 -51 -14.5 -88t-42 -60t-67.5 -34.5t-92 -11.5
q-10 0 -29 5.5t-40.5 15.5t-44 23t-40.5 28t-30 32t-12 34zM141 827q2 3 9 18t15.5 35.5t18.5 43t20 40.5t18.5 31t15.5 13q1 0 6 -1.5t7 -2.5q0 -4 1.5 -13.5t3.5 -20.5t4.5 -21t4.5 -13q3 -9 11.5 -26.5t18.5 -37.5t21 -40l17 -35q22 -33 27 -50t0 -21t-18.5 3t-30.5 20
t-34 31t-29.5 37t-18.5 38q-2 11 0 22q-1 -3 -2 -5q-7 -14 -17.5 -33t-23.5 -41t-25.5 -39.5t-21.5 -27t-13.5 -4.5t-1 28.5t16.5 71.5zM232 887q-3 -5 -3 -9q4 8 3 9z" />
    <glyph glyph-name="scircumflex" unicode="&#x15d;" horiz-adv-x="514" 
d="M21 137q-1 3 -1 13.5v14.5q0 3 -0.5 9.5t0.5 12.5t4 11t10 7q-1 -20 9 -39t26 -37.5t36.5 -35t43 -28t44 -18.5t40.5 -7q35 0 71 12t64.5 33.5t46.5 52.5t18 70q0 24 -14.5 40.5t-38 29t-53 21t-61 16.5t-61.5 17t-53.5 21.5t-37.5 29.5t-14 43q0 23 10.5 40.5t28 31.5
t40 23.5t45.5 16t45.5 9t40.5 2.5q23 0 40.5 -0.5t32.5 -5.5t27 -16t21 -35q-4 -8 -8.5 -10.5t-12.5 -2.5q-11 0 -18.5 8.5t-15.5 19.5q-3 0 -12 0.5t-18.5 0.5h-18h-12.5q-12 0 -29.5 -1t-37 -4t-38 -9t-34 -15t-25 -22.5t-9.5 -31.5q0 -16 6.5 -25t22.5 -18q7 0 21 -4.5
t31.5 -9.5t37 -10.5t37 -11.5t31 -11t20.5 -7q24 -9 49 -18t45 -22.5t32 -33t12 -49.5q0 -45 -24 -82.5t-60.5 -65t-80 -43t-84.5 -15.5q-36 0 -67 10.5t-57.5 29.5t-49.5 43.5t-43 54.5zM201 691q2 3 9 18t15.5 35.5t18.5 43t20 40.5t18.5 31t15.5 13q1 0 6 -1.5t7 -2.5
q0 -4 1.5 -13.5t3.5 -20.5t4.5 -21t4.5 -13q3 -9 11.5 -26.5t18.5 -37.5t21 -40l17 -35q22 -33 27 -50t0 -21t-18.5 3t-30.5 20t-34 31t-29.5 37t-18.5 38q-2 11 0 22q-1 -3 -2 -5q-7 -14 -17.5 -33t-23.5 -41t-25.5 -39.5t-21.5 -27t-13.5 -4.5t-1 28.5t16.5 71.5zM292 751
q-3 -5 -3 -9q4 8 3 9z" />
    <glyph glyph-name="Scedilla" unicode="&#x15e;" horiz-adv-x="479" 
d="M181 -263q0 2 -0.5 6t-1.5 9v3q6 -5 19 -12q15 -9 36.5 -17.5t43.5 -13.5t41 -4.5t31.5 10.5t13 30.5t-14.5 55.5q-8 18 -23.5 24t-33.5 8.5t-37.5 4t-35 9.5t-25.5 24.5t-10 49.5q-6 52 -3 77q1 5 1 9q-10 4 -22 10q-21 10 -43.5 23t-40.5 28t-30 32t-12 34q0 8 7.5 11
t13.5 3q5 0 15.5 -7.5t26 -18.5t34 -23.5t40 -23.5t43.5 -18.5t44 -7.5q33 0 60 8.5t46 25.5t30 43t11 60q0 57 -16.5 89.5t-43.5 50t-62 24t-71 11t-71 11.5t-62 24.5t-43 51t-16 92.5q0 28 3 56t14.5 50.5t32 36t53.5 13.5q19 0 42 -6.5t43 -19t33.5 -30.5t13.5 -41
q0 -2 -0.5 -7.5t-0.5 -6.5l-28 31.5t-25 22t-28.5 12.5t-38.5 4q-22 0 -36 -7.5t-22.5 -21t-12 -31t-3.5 -36.5q0 -54 16.5 -84.5t44 -47t62 -23.5t71 -12t71 -14t62 -30t43.5 -58t16 -100q0 -51 -14.5 -88t-42 -60t-67.5 -34.5t-92 -11.5q1 -6 2 -13q1 -18 -7 -33
q0 -14 6 -23.5t23 -17.5q28 -4 55.5 -7.5t49 -14t34.5 -31t10 -58.5q15 -48 7.5 -79t-28 -47.5t-50.5 -19t-59.5 6.5t-54.5 28t-37 47z" />
    <glyph glyph-name="scedilla" unicode="&#x15f;" horiz-adv-x="514" 
d="M139 -243v5v9v4q5 -5 18 -12q15 -9 36 -17.5t43 -13.5t42 -4.5t31.5 10t12.5 30t-13 56.5q-9 18 -25 24t-34 8.5t-37.5 3.5t-34.5 9t-24.5 25t-9.5 50q-7 51 -5 77v1q-13 8 -25 17q-27 19 -50 43.5t-43 54.5q-1 3 -1 13.5v14.5q0 3 -0.5 9.5t0.5 12.5t4 11t10 7
q-1 -20 9 -39t26 -37.5t36.5 -35t42.5 -27.5q6 -3 10 -6q5 0 8 -2q2 -1 4 -3q12 -5 23 -8q21 -7 40 -7q35 0 71 12t64.5 33.5t46.5 52.5t18 70q0 24 -14.5 40.5t-38 29t-53 21t-61 16.5t-61.5 17t-53.5 21.5t-37.5 29.5t-14 43q0 23 10.5 40.5t28 31.5t40 23.5t45.5 16
t45.5 9t40.5 2.5q23 0 40.5 -0.5t32.5 -5.5t27 -16t21 -35q-4 -8 -8.5 -10.5t-12.5 -2.5q-11 0 -18.5 8.5t-15.5 19.5q-3 0 -12 0.5t-18.5 0.5h-18h-12.5q-12 0 -29.5 -1t-37 -4t-38 -9t-34 -15t-25 -22.5t-9.5 -31.5q0 -16 6.5 -25t22.5 -18q7 0 21 -4.5t31.5 -9.5
t37 -10.5t37 -11.5t31 -11t20.5 -7q24 -9 49 -18t45 -22.5t32 -33t12 -49.5q0 -45 -24 -82.5t-60.5 -65t-80 -43t-84.5 -15.5q-25 0 -47 5q1 -17 -7 -31q0 -15 5.5 -24t22.5 -17q29 -4 56.5 -7.5t48.5 -14t34 -31t12 -58.5q14 -48 6.5 -79t-28.5 -47.5t-50.5 -19.5t-59 6
t-54.5 28t-38 48z" />
    <glyph glyph-name="Scaron" unicode="&#x160;" horiz-adv-x="479" 
d="M34 137q0 8 7.5 11t13.5 3q5 0 15.5 -7.5t26 -18.5t34 -23.5t40 -23.5t43.5 -18.5t44 -7.5q33 0 60 8.5t46 25.5t30 43t11 60q0 57 -16.5 89.5t-43.5 50t-62 24t-71 11t-71 11.5t-62 24.5t-43 51t-16 92.5q0 28 3 56t14.5 50.5t32 36t53.5 13.5q19 0 42 -6.5t43 -19
t33.5 -30.5t13.5 -41q0 -2 -0.5 -7.5t-0.5 -6.5l-28 31.5t-25 22t-28.5 12.5t-38.5 4q-22 0 -36 -7.5t-22.5 -21t-12 -31t-3.5 -36.5q0 -54 16.5 -84.5t44 -47t62 -23.5t71 -12t71 -14t62 -30t43.5 -58t16 -100q0 -51 -14.5 -88t-42 -60t-67.5 -34.5t-92 -11.5
q-10 0 -29 5.5t-40.5 15.5t-44 23t-40.5 28t-30 32t-12 34zM98 796q-25 33 -35.5 51.5t-10 25t9.5 3t23 -13t31.5 -23t34.5 -27.5t30 -27q11 -10 17 -17q-4 7 1 16q7 11 23.5 23.5t38.5 25t43.5 22.5t40 16.5t26.5 7.5t3 -6t-29 -23q-8 -7 -24.5 -23t-33.5 -33.5t-31 -31.5
t-19 -20q-2 -2 -4 -6l-5 -10q-3 -5 -4.5 -10.5t-1.5 -7.5q-2 -1 -7.5 -1h-8.5q-9 0 -26 12.5t-33 29t-30 30.5t-19 17z" />
    <glyph glyph-name="scaron" unicode="&#x161;" horiz-adv-x="514" 
d="M21 137q-1 3 -1 13.5v14.5q0 3 -0.5 9.5t0.5 12.5t4 11t10 7q-1 -20 9 -39t26 -37.5t36.5 -35t43 -28t44 -18.5t40.5 -7q35 0 71 12t64.5 33.5t46.5 52.5t18 70q0 24 -14.5 40.5t-38 29t-53 21t-61 16.5t-61.5 17t-53.5 21.5t-37.5 29.5t-14 43q0 23 10.5 40.5t28 31.5
t40 23.5t45.5 16t45.5 9t40.5 2.5q23 0 40.5 -0.5t32.5 -5.5t27 -16t21 -35q-4 -8 -8.5 -10.5t-12.5 -2.5q-11 0 -18.5 8.5t-15.5 19.5q-3 0 -12 0.5t-18.5 0.5h-18h-12.5q-12 0 -29.5 -1t-37 -4t-38 -9t-34 -15t-25 -22.5t-9.5 -31.5q0 -16 6.5 -25t22.5 -18q7 0 21 -4.5
t31.5 -9.5t37 -10.5t37 -11.5t31 -11t20.5 -7q24 -9 49 -18t45 -22.5t32 -33t12 -49.5q0 -45 -24 -82.5t-60.5 -65t-80 -43t-84.5 -15.5q-36 0 -67 10.5t-57.5 29.5t-49.5 43.5t-43 54.5zM138 646q-25 33 -35.5 51.5t-10 25t9.5 3t23 -13t31.5 -23t34.5 -27.5t30 -27
q11 -10 17 -17q-4 7 1 16q7 11 23.5 23.5t38.5 25t43.5 22.5t40 16.5t26.5 7.5t3 -6t-29 -23q-8 -7 -24.5 -23t-33.5 -33.5t-31 -31.5t-19 -20q-2 -2 -4 -6l-5 -10q-3 -5 -4.5 -10.5t-1.5 -7.5q-2 -1 -7.5 -1h-8.5q-9 0 -26 12.5t-33 29t-30 30.5t-19 17z" />
    <glyph glyph-name="Tcommaaccent" unicode="&#x162;" horiz-adv-x="663" 
d="M28 643l-15 14q7 8 19.5 17t22.5 10q9 2 32.5 3.5t49.5 4.5t49.5 4t33.5 1q16 0 48.5 1t74.5 1.5t88 1t88 1t75 1t49 0.5v-33q-10 0 -32 -1t-49 -2.5t-56.5 -3t-56.5 -2.5t-48 -2.5t-31 -1.5q-6 0 -19.5 -2.5t-29 -4t-29 -4.5t-18.5 -3q0 -5 -0.5 -20t-1 -31t-0.5 -31
v-20q0 -60 5 -117.5t10.5 -115t10.5 -115.5t5 -117v-13t-0.5 -15.5t-0.5 -13.5l-1 -6l-27 -28q-13 6 -18.5 18t-7 26t-1.5 27.5v23.5q-1 17 -3.5 44.5t-5 64.5t-6 79t-7 86t-6 86.5t-5.5 79t-5.5 64.5t-3.5 44h-177zM253 -198q27 13 42 23t22 20.5t8 22t-1.5 25t-5.5 30
t-3 36.5q23 -3 36 -19.5t16 -39t-3 -46.5t-19 -42t-33 -25.5t-45 1.5z" />
    <glyph glyph-name="tcommaaccent" unicode="&#x163;" horiz-adv-x="390" 
d="M10 402q-6 27 -4.5 39t10.5 15.5t23.5 2t32 -0.5t38 8t40.5 27q2 11 4.5 37.5t6 60.5t7 71.5t6.5 71.5t5.5 60t4.5 37h8q3 0 7 1l8 2t7 0.5t6 -4.5q2 -34 -1 -77t-7.5 -90t-7.5 -94t1 -88l194 13l-7 -39l-171 -23q-23 -42 -31 -89.5t-5 -92t14.5 -83.5t28 -66t35.5 -38.5
t37 -1.5q19 -1 33.5 5.5t24.5 17.5t17 24.5t12.5 26.5t12 23t14.5 15q0 -2 0.5 -11.5t0.5 -12.5q0 -29 -10 -54.5t-26.5 -43.5t-40 -28t-50.5 -10q-44 2 -71 23.5t-43 56.5t-21.5 77.5t-5.5 86.5t2.5 85.5t5.5 74.5zM116 -198q27 13 42 23t22 20.5t8 22t-1.5 25t-5.5 30
t-3 36.5q23 -3 36 -19.5t16 -39t-3 -46.5t-19 -42t-33 -25.5t-45 1.5z" />
    <glyph glyph-name="Tcaron" unicode="&#x164;" horiz-adv-x="663" 
d="M28 643l-15 14q7 8 19.5 17t22.5 10q9 2 32.5 3.5t49.5 4.5t49.5 4t33.5 1q16 0 48.5 1t74.5 1.5t88 1t88 1t75 1t49 0.5v-33q-10 0 -32 -1t-49 -2.5t-56.5 -3t-56.5 -2.5t-48 -2.5t-31 -1.5q-6 0 -19.5 -2.5t-29 -4t-29 -4.5t-18.5 -3q0 -5 -0.5 -20t-1 -31t-0.5 -31
v-20q0 -60 5 -117.5t10.5 -115t10.5 -115.5t5 -117v-13t-0.5 -15.5t-0.5 -13.5l-1 -6l-27 -28q-13 6 -18.5 18t-7 26t-1.5 27.5v23.5q-1 17 -3.5 44.5t-5 64.5t-6 79t-7 86t-6 86.5t-5.5 79t-5.5 64.5t-3.5 44h-177zM180 831q-25 33 -35.5 51.5t-10 25t9.5 3t23 -13
t31.5 -23t34.5 -27.5t30 -27q11 -10 17 -17q-4 7 1 16q7 11 23.5 23.5t38.5 25t43.5 22.5t40 16.5t26.5 7.5t3 -6t-29 -23q-8 -7 -24.5 -23t-33.5 -33.5t-31 -31.5t-19 -20q-2 -2 -4 -6l-5 -10q-3 -5 -4.5 -10.5t-1.5 -7.5q-2 -1 -7.5 -1h-8.5q-9 0 -26 12.5t-33 29
t-30 30.5t-19 17z" />
    <glyph glyph-name="Utilde" unicode="&#x168;" horiz-adv-x="670" 
d="M363 192q-26 -20 -46 -46t-41 -49.5t-47.5 -40t-64.5 -16.5q-29 0 -50.5 18.5t-37.5 49t-26 67.5t-16 74t-9 69t-4 52q0 7 -0.5 23t-1 36.5t-1.5 43t-1 42.5t-0.5 36t-0.5 24h45q1 -11 3 -33.5t4.5 -50.5t5.5 -59.5t6.5 -60t5 -51t3.5 -33.5q3 -24 7 -57t14 -63.5
t28.5 -51.5t48.5 -21q16 0 27.5 2.5t22 9t20.5 17t24 27.5q3 6 12.5 22.5t21 36t21 38t13.5 27.5q4 24 4 59.5t-1 73t-0.5 72.5t6.5 58.5t20 31.5t39 -8v-30.5t-0.5 -46t0 -53.5t0.5 -54v-47v-29q1 -20 3 -46t7 -53.5t13.5 -54t23.5 -47.5t35.5 -34t49.5 -13q24 0 45 1.5
t42 13.5q1 -1 2.5 -6.5t1.5 -6.5q0 -17 -12 -26t-29 -12.5t-34.5 -4t-27.5 -0.5q-36 0 -66.5 14.5t-54 39t-37.5 57t-16 69.5zM58 621q0 38 10 59.5t26.5 29.5t38 5.5t44 -11.5t45 -22t41.5 -26q35 27 63.5 39.5t49 15t28.5 -4.5t-1 -21.5t-38 -33.5t-82 -41q-22 1 -43 8
t-40.5 15t-38 14.5t-36 7.5t-34.5 -6.5t-33 -27.5z" />
    <glyph glyph-name="utilde" unicode="&#x169;" horiz-adv-x="547" 
d="M287 124q-1 0 -3 -0.5t-3 -1.5q-18 -21 -35 -41.5t-35 -35t-40 -24t-50 -9.5q-16 0 -28.5 8t-21.5 20t-15 27t-7 28q-1 7 -1.5 32t-0.5 60v154v67.5t-2 41.5q0 2 -0.5 10.5t-0.5 11.5q0 12 3 23t19 11q7 0 11.5 -3.5t7.5 -12.5q2 -9 3.5 -37t3 -66t2.5 -80t2.5 -79.5
t3 -66t3.5 -39.5q2 -12 5.5 -22t8 -17.5t13 -11.5t20.5 -4h11t10 1q40 35 70 85.5t49 107.5t29.5 116t13.5 113l3 1h3q7 0 11.5 -3t8.5 -10q1 -24 0.5 -58.5t-0.5 -72.5t2 -79t7 -79.5t16.5 -71t30.5 -55t46.5 -32.5t65.5 -2q-8 -13 -18.5 -18.5t-23.5 -8.5t-26 -3h-26
q-26 0 -46 9.5t-35 23.5t-25 30t-17 30t-12.5 23.5t-10.5 9.5zM56 641q0 38 10 59.5t26.5 29.5t38 5.5t44 -11.5t45 -22t41.5 -26q35 27 63.5 39.5t49 15t28.5 -4.5t-1 -21.5t-38 -33.5t-82 -41q-22 1 -43 8t-40.5 15t-38 14.5t-36 7.5t-34.5 -6.5t-33 -27.5z" />
    </font>
</defs>
</svg>
