<svg xmlns="http://www.w3.org/2000/svg">
<defs>
<font id="Vollkorn-Regular" horiz-adv-x="540" >
  <font-face 
    font-family="Vollkorn Regular"
    font-weight="400"
    font-stretch="normal"
    units-per-em="1000"
    panose-1="2 0 5 3 7 0 0 2 0 3"
    ascent="750"
    descent="-250"
    x-height="460"
    cap-height="679"
    bbox="-14 -272.333 1160 936.286"
    underline-thickness="41"
    underline-position="-421"
    unicode-range="U+000D-FB04"
  />
<missing-glyph horiz-adv-x="454" 
d="M53 677h352v-677h-352v677zM70 640h108v15h-108v-15zM91 653h1q3 0 3 -6q0 -5 -3 -5h-1v11zM165 653h1q3 0 3 -6q0 -5 -3 -5h-1v11zM79 653h1q3 0 3 -4q0 -3 -2 -4l2 -3h-1l-2 3v-3h-1v11zM96 653h1q3 0 3 -4q0 -3 -2 -4l2 -3h-1l-2 3v-3h-1v11zM156 653h1l2 -8v8h1v-11
h-1l-2 7v-7h-1v11zM118 645h-2v-3h-1l2 11h1l2 -11h-1zM138 645h-2v-3h-1l2 11h1l2 -11h-1zM133 646h-2v-4h-1v11h1v-6h2v6h1v-11h-1v4zM111 653h1v-11h-1v4h-2v-4h-1v11h1v-6h2v6zM144 653h1v-6q0 -5 -2 -5t-2 4v7h1v-6q0 -4 1 -4t1 3v7zM86 653h4v-1h-3v-5h3v-1h-3v-3h3
v-1h-4v11zM170 653h4v-1h-3v-5h3v-1h-3v-3h3v-1h-4v11zM151 653h4v-1h-3v-5h3v-1h-3v-3h3v-1h-4v11zM74 653h4v-1h-3v-6h3v-1h-3v-3h-1v11zM146 651q0 3 4 2v-1q-3 1 -3 -1q0 -3 1.5 -3.5t1.5 -3.5t-4 -2v1q3 -2 3 1q0 2 -1.5 3t-1.5 4zM107 642q-4 -1 -4 6q0 6 4 5v-1
q-3 1 -3 -4q0 -7 3 -5v-1zM124 653h5v-1h-2v-10h-1v10h-2v1zM92 643q2 0 2 4q0 5 -2 5v-9zM166 643q2 0 2 4q0 5 -2 5v-9zM125 643v-1h-4v11h1v-10h3zM84 653h1v-11h-1v11zM101 653h1v-11h-1v11zM80 646q2 0 2 3t-2 3v-6zM97 646q2 0 2 3t-2 3v-6zM136 646h2l-1 4zM116 646
h2l-1 4zM162 643h1v-1h-1v1z" />
    <glyph glyph-name="f_f" unicode="ff" horiz-adv-x="684" 
d="M116 452v19q0 50 18.5 92t50.5 72t75 47t93 17q43 0 83 -15q33 -12 61 -34l7 7q30 29 67.5 43t76.5 14t58.5 -7.5t36.5 -17.5q-2 -32 -3 -61t-1 -56q-13 -4 -28 -6t-29 -2q0 41 -18 68t-60 27q-41 0 -58 -36.5t-17 -103.5v-67h102q0 -10 -2 -22.5t-8 -22.5q-53 0 -92 -12
v-248q0 -33 5 -53t16 -32t27.5 -16.5t40.5 -5.5q5 -14 5 -43q-23 2 -57 2.5t-69 0.5h-37q-19 0 -37 -0.5t-33 -1t-25 -1.5q0 29 5 43q40 2 54.5 19.5t14.5 67.5v272q-22 5 -46.5 7.5t-59.5 2.5q-51 0 -79 -4t-48 -9v-249q0 -33 5 -53t16 -32t27.5 -16.5t40.5 -5.5
q5 -14 5 -43q-23 2 -57 2.5t-69 0.5h-37q-19 0 -37 -0.5t-33 -1t-25 -1.5q0 29 5 43q40 2 54.5 19.5t14.5 67.5v271q-22 5 -43.5 7t-36.5 2q0 27 14 45h66zM439 452v36q0 48 13 86q-18 29 -41 47q-31 26 -73 26q-57 0 -94.5 -34t-37.5 -114v-47h233z" />
    <glyph glyph-name="fi" unicode="fi" horiz-adv-x="643" 
d="M437 321q0 20 -3 35t-14 24.5t-31.5 15t-55.5 6.5q-15 0 -34 -1t-37 -2.5t-33.5 -4t-22.5 -4.5v-263q0 -48 15.5 -66.5t53.5 -20.5q3 -9 4 -19t1 -24q-20 2 -52 2.5t-62 0.5h-33q-17 0 -34 -0.5t-32 -1t-25 -1.5q0 29 5 43q40 2 54.5 19.5t14.5 67.5v265q-12 5 -37 8.5
t-43 3.5q0 9 3 21.5t11 22.5h66v40q0 48 17 89.5t48.5 72t76.5 48t101 17.5q47 0 83 -8.5t68 -22.5q-2 -32 -2.5 -52t-0.5 -40q-14 -10 -38.5 -15t-47.5 0q0 41 -21.5 63.5t-66.5 22.5q-69 0 -98 -35.5t-29 -108.5v-71h167q32 1 68 5t64 14q12 -5 17 -14t5 -29v-297
q0 -50 13.5 -67.5t45.5 -19.5q3 -9 4 -20.5t1 -22.5q-20 2 -50.5 2.5t-63.5 0.5t-63.5 -0.5t-50.5 -2.5q0 13 1 23t4 20q40 2 54.5 19.5t14.5 67.5v194z" />
    <glyph glyph-name="fl" unicode="fl" horiz-adv-x="625" 
d="M434 572q-3 43 -31 65q-30 24 -83 24q-57 0 -85.5 -32.5t-28.5 -109.5v-71h102q0 -10 -2 -22.5t-8 -22.5q-53 0 -92 -12v-244q0 -32 3.5 -52.5t11.5 -32t21 -16.5t33 -6q5 -14 5 -43q-47 3 -116 3q-35 0 -68.5 -0.5t-53.5 -2.5q0 29 5 43q40 2 54.5 19.5t14.5 67.5v267
q-22 5 -43.5 7t-36.5 2q0 27 14 45h66v40q0 59 21 102t54.5 70.5t75.5 41t84 13.5q34 0 63 -8q22 -5 37 -12l11 3q22 6 40 19q9 -3 15.5 -12t6.5 -28v-550q0 -50 13.5 -68.5t45.5 -18.5q3 -11 4 -23.5t1 -19.5q-26 2 -55 2.5t-58 0.5t-59.5 -0.5t-55.5 -2.5q0 10 1 21.5
t4 21.5q40 0 54.5 18.5t14.5 68.5v445z" />
    <glyph glyph-name="f_f_i" unicode="ffi" horiz-adv-x="961" 
d="M116 448v23q0 50 18.5 92t50.5 72t75 47t93 17q43 0 83 -15q36 -12 65 -38l3 3q32 31 77 48.5t101 17.5q47 0 83 -8.5t68 -22.5q-2 -32 -2.5 -52t-0.5 -40q-14 -10 -38.5 -15t-47.5 0q0 41 -21.5 63.5t-66.5 22.5q-69 0 -98 -35.5t-29 -108.5v-71h167q32 1 68 5t64 14
q12 -5 17 -14t5 -29v-297q0 -50 13.5 -67.5t45.5 -19.5q3 -9 4 -20.5t1 -22.5q-20 2 -50.5 2.5t-63.5 0.5t-63.5 -0.5t-50.5 -2.5q0 13 1 23t4 20q40 2 54.5 19.5t14.5 67.5v194q0 20 -3 35t-14 24.5t-31.5 15t-55.5 6.5q-15 0 -34 -1t-37 -2.5t-33.5 -4t-22.5 -4.5v-263
q0 -48 15.5 -66.5t53.5 -20.5q3 -9 4 -19t1 -24q-20 2 -52 2.5t-62 0.5h-33q-17 0 -34 -0.5t-32 -1t-25 -1.5q0 29 5 43q40 2 54.5 19.5t14.5 67.5v268q-22 5 -46.5 7.5t-59.5 2.5q-51 0 -79 -4t-48 -9v-245q0 -33 5 -53t16 -32t27.5 -16.5t40.5 -5.5q5 -14 5 -43
q-23 2 -57 2.5t-69 0.5h-37q-19 0 -37 -0.5t-33 -1t-25 -1.5q0 29 5 43q40 2 54.5 19.5t14.5 67.5v267q-22 5 -43.5 7t-36.5 2q0 27 14 45h66zM439 488q0 44 14 83q-18 31 -42 50q-31 26 -73 26q-57 0 -94.5 -34t-37.5 -114v-51h233v40z" />
    <glyph glyph-name=".notdef" horiz-adv-x="454" 
d="M53 677h352v-677h-352v677zM70 640h108v15h-108v-15zM91 653h1q3 0 3 -6q0 -5 -3 -5h-1v11zM165 653h1q3 0 3 -6q0 -5 -3 -5h-1v11zM79 653h1q3 0 3 -4q0 -3 -2 -4l2 -3h-1l-2 3v-3h-1v11zM96 653h1q3 0 3 -4q0 -3 -2 -4l2 -3h-1l-2 3v-3h-1v11zM156 653h1l2 -8v8h1v-11
h-1l-2 7v-7h-1v11zM118 645h-2v-3h-1l2 11h1l2 -11h-1zM138 645h-2v-3h-1l2 11h1l2 -11h-1zM133 646h-2v-4h-1v11h1v-6h2v6h1v-11h-1v4zM111 653h1v-11h-1v4h-2v-4h-1v11h1v-6h2v6zM144 653h1v-6q0 -5 -2 -5t-2 4v7h1v-6q0 -4 1 -4t1 3v7zM86 653h4v-1h-3v-5h3v-1h-3v-3h3
v-1h-4v11zM170 653h4v-1h-3v-5h3v-1h-3v-3h3v-1h-4v11zM151 653h4v-1h-3v-5h3v-1h-3v-3h3v-1h-4v11zM74 653h4v-1h-3v-6h3v-1h-3v-3h-1v11zM146 651q0 3 4 2v-1q-3 1 -3 -1q0 -3 1.5 -3.5t1.5 -3.5t-4 -2v1q3 -2 3 1q0 2 -1.5 3t-1.5 4zM107 642q-4 -1 -4 6q0 6 4 5v-1
q-3 1 -3 -4q0 -7 3 -5v-1zM124 653h5v-1h-2v-10h-1v10h-2v1zM92 643q2 0 2 4q0 5 -2 5v-9zM166 643q2 0 2 4q0 5 -2 5v-9zM125 643v-1h-4v11h1v-10h3zM84 653h1v-11h-1v11zM101 653h1v-11h-1v11zM80 646q2 0 2 3t-2 3v-6zM97 646q2 0 2 3t-2 3v-6zM136 646h2l-1 4zM116 646
h2l-1 4zM162 643h1v-1h-1v1z" />
    <glyph glyph-name=".null" horiz-adv-x="500" 
 />
    <glyph glyph-name=".null" horiz-adv-x="500" 
 />
    <glyph glyph-name="nonmarkingreturn" unicode="&#xd;" horiz-adv-x="500" 
 />
    <glyph glyph-name="space" unicode=" " horiz-adv-x="200" 
 />
    <glyph glyph-name="exclam" unicode="!" horiz-adv-x="411" 
d="M246 714q21 -7 18 -31q-5 -47 -10 -103t-9.5 -116t-8.5 -121t-6 -118q-12 0 -24 1t-21 5q-4 70 -8.5 130t-9 114t-10 104.5t-12.5 101.5q10 2 24 6t28.5 8.5t27.5 9t21 9.5zM211 102q26 0 40.5 -17.5t14.5 -34.5q0 -30 -18 -44t-41 -14q-27 0 -42 15t-15 38t17 40t44 17z
" />
    <glyph glyph-name="quotedbl" unicode="&#x22;" horiz-adv-x="343" 
d="M116 714q23 -5 20 -33q-1 -3 -1 -6.5t-1 -7.5q-5 -40 -8 -85.5t-8 -102.5q-10 0 -22 2t-17 7q-2 52 -6.5 104t-12.5 101q14 2 30 7.5t26 13.5zM263 714q20 -5 20 -27v-6q-5 -43 -9 -91t-9 -112q-11 0 -23.5 2t-17.5 7q-2 52 -6 104.5t-12 101.5q14 2 30 8t27 13z" />
    <glyph glyph-name="numbersign" unicode="#" horiz-adv-x="603" 
d="M473 443l-38 -180h109q0 -15 -2 -25t-10 -24h-107l-47 -222q-19 3 -27.5 8.5t-16.5 13.5l42 200q-54 0 -96 -1h-64l-46 -221q-31 4 -43 26l41 195q-43 0 -70 -1h-44q0 25 12 51h113l38 179h-29q-42 0 -81 -1q0 11 2.5 24.5t9.5 26.5h108l48 222q14 -2 24.5 -6.5
t18.5 -15.5l-43 -200h161l47 222q30 -6 43 -20l-43 -202h103q0 -15 -2 -25.5t-10 -23.5h-101zM265 443l-38 -180h160l38 180h-160z" />
    <glyph glyph-name="dollar" unicode="$" horiz-adv-x="546" 
d="M248 -8q-19 1 -36 3q-26 3 -48.5 10.5t-45 19.5t-50.5 30q6 38 7.5 76t1.5 66q11 3 26 4.5t28 1.5q2 -38 10 -68t24.5 -51.5t43.5 -33.5q17 -7 39 -10v257q-6 3 -12 5q-40 19 -74.5 44.5t-57.5 63.5t-23 99q0 39 13.5 71.5t37.5 56t57 35.5q27 10 59 12v60q15 0 25 -2
t21 -9q0 -20 -1 -49q38 -3 67 -13q40 -13 61 -30q0 -29 1 -67t5 -65q-11 -5 -26.5 -7t-29.5 -2q-8 43 -18 70.5t-23.5 43t-30.5 21.5q-3 1 -7 2v-245l30 -15q40 -19 74.5 -44.5t57.5 -61.5t23 -91q0 -38 -15.5 -72.5t-42.5 -60.5t-64 -41q-29 -11 -62 -14q1 -47 1 -83
q-11 0 -25 3t-21 8v72zM292 274v-235q20 2 36 8q21 9 35 23t21.5 32.5t7.5 39.5q0 45 -23 73t-58 48q-9 6 -19 11zM190 469q23 -28 57 -50l1 -1v222q-34 -4 -55 -25q-26 -26 -26 -74q0 -44 23 -72z" />
    <glyph glyph-name="percent" unicode="%" horiz-adv-x="834" 
d="M174 -7q-14 8 -23.5 17.5t-12.5 19.5l553 656q14 -3 23.5 -10.5t18.5 -18.5zM626 311q37 0 64.5 -13.5t46 -35t28 -49t9.5 -54.5q0 -34 -10.5 -64.5t-31 -53.5t-50 -36.5t-67.5 -13.5q-39 0 -68.5 13t-49 35t-29.5 49.5t-10 56.5q0 33 10.5 63t31.5 53t52.5 36.5
t73.5 13.5zM612 269q-15 0 -28 -8.5t-23 -23.5t-15.5 -35t-5.5 -44q0 -54 22 -89.5t62 -35.5q12 0 24 7t22 21t16.5 35t6.5 49q0 54 -22.5 89t-58.5 35zM256 677q36 0 63.5 -13.5t46 -35t28 -48.5t9.5 -54q0 -34 -10.5 -64t-30.5 -53t-49 -36.5t-67 -13.5q-39 0 -68.5 13
t-49 35t-29 49t-9.5 56q0 32 10.5 62t31.5 53t52 36.5t72 13.5zM243 635q-32 0 -54 -31t-22 -79q0 -54 23 -89t64 -35q12 0 25 7t23.5 21t17.5 34.5t7 48.5q0 54 -23.5 88.5t-60.5 34.5z" />
    <glyph glyph-name="ampersand" unicode="&#x26;" horiz-adv-x="742" 
d="M572 102q12 -13 23.5 -21.5t24 -13.5t28.5 -8t39 -4q0 -10 -1 -22t-5 -23q-14 0 -34 -1.5t-41 -4t-40 -6t-31 -7.5q-33 44 -67 84q-6 6 -12 13q-40 -49 -82 -72q-47 -26 -106 -26q-60 0 -101 19.5t-66 51t-36 70.5t-11 77t11.5 71t31 61t46.5 51q19 16 39 30l-8 14
q-15 32 -23.5 64.5t-8.5 68.5q0 28 11 55t32 48t51.5 33.5t69.5 12.5q43 0 73.5 -8.5t62.5 -26.5q-4 -26 -5.5 -56.5t0.5 -60.5q-12 -5 -26.5 -6.5t-26.5 -1.5q-4 64 -23.5 90t-60.5 26q-35 0 -57 -22.5t-22 -63.5q0 -22 4 -42t14.5 -42t28.5 -49t47 -63q16 -20 36 -44
t49.5 -57.5t70.5 -79.5q7 -7 13 -14q25 39 39 70q16 35 24 68q10 39 -6.5 56.5t-68.5 28.5q-3 10 -5 21t-2 21q21 -2 49 -2.5t53 -0.5t54 0.5t46 2.5q0 -9 -1 -20.5t-3 -20.5q-31 -11 -45 -29t-24 -53q-13 -45 -33 -89q-17 -38 -45 -88q26 -27 56 -59zM281 67q45 0 81 16
q30 14 61 43q-11 14 -23 27q-33 39 -67 76.5t-68 77.5q-29 34 -52 65l-12 16q-23 -25 -41 -56q-22 -39 -22 -95q0 -42 11.5 -73.5t31 -53t45.5 -32.5t55 -11z" />
    <glyph glyph-name="quotesingle" unicode="'" horiz-adv-x="198" 
d="M117 714q19 -3 21 -24v-9q-6 -44 -9.5 -91t-8.5 -113q-11 0 -23 2.5t-17 7.5q-2 53 -7 104.5t-13 101.5q14 2 30 8t27 13z" />
    <glyph glyph-name="parenleft" unicode="(" horiz-adv-x="291" 
d="M215 741q13 2 20 -1.5t15 -10.5q-35 -53 -60 -107.5t-40.5 -114t-22.5 -125.5t-7 -142q0 -78 8 -145.5t24.5 -129t42 -118.5t61.5 -113q-7 -5 -17 -6t-19 1q-88 117 -136.5 241t-48.5 270q0 65 10 125.5t32 121t56 123t82 131.5z" />
    <glyph glyph-name="parenright" unicode=")" horiz-adv-x="291" 
d="M76 741q48 -69 82 -131.5t56 -123t32 -121t10 -125.5q0 -146 -48.5 -270t-136.5 -241q-8 -2 -18.5 -1t-17.5 6q36 56 61.5 113t42 118.5t24.5 129t8 145.5q0 76 -7 142t-22.5 125.5t-40.5 114t-60 107.5q7 6 15 9.5t20 2.5z" />
    <glyph glyph-name="asterisk" unicode="*" horiz-adv-x="443" 
d="M284 664q-13 -29 -26 -64.5t-25 -70.5q36 6 69 13.5t71 18.5q6 -13 8.5 -32t-0.5 -35q-32 2 -70 3.5t-75 2.5q17 -33 34.5 -61.5t38.5 -61.5q-12 -11 -26.5 -18t-34.5 -9q-7 30 -17.5 66t-21.5 71q-26 -26 -47.5 -51t-45.5 -55q-13 7 -26.5 20.5t-18.5 29.5
q26 16 57.5 37t61.5 43q-32 16 -63 28.5t-67 26.5q3 14 11 31t22 27q23 -20 53 -43t59 -45q5 36 7.5 69t4.5 72q14 2 33.5 -1t33.5 -12z" />
    <glyph glyph-name="plus" unicode="+" horiz-adv-x="578" 
d="M262 139q1 35 1 69v30h-23q-32 0 -65.5 -0.5t-66.5 -1t-62 -0.5q0 11 2.5 27.5t7.5 23.5h207v84q0 26 -0.5 55.5t-0.5 68.5q11 7 23 8.5t27 1.5v-218h219q0 -15 -1.5 -27t-8.5 -23q-39 0 -68 0.5t-54 0.5h-87v-222q-7 -5 -23.5 -7.5t-27.5 -2.5q0 30 0.5 64t0.5 69z" />
    <glyph glyph-name="comma" unicode="," horiz-adv-x="259" 
d="M165 97q34 -13 34 -72q0 -30 -8.5 -58.5t-23.5 -55.5t-34.5 -51t-40.5 -45q-20 0 -32 15q31 35 47.5 68t16.5 59q0 44 -47 50q0 10 1.5 28.5t6.5 31.5q23 5 43 12t37 18z" />
    <glyph glyph-name="hyphen" unicode="-" horiz-adv-x="419" 
d="M359 299q0 -16 -3 -33.5t-10 -31.5q-27 0 -65.5 -0.5t-78.5 -1t-77.5 -1t-64.5 -1.5q0 17 4.5 36.5t11.5 32.5h283z" />
    <glyph glyph-name="period" unicode="." horiz-adv-x="236" 
d="M121 102q26 0 40.5 -17.5t14.5 -34.5q0 -30 -18 -44t-41 -14q-27 0 -42 15t-15 38t17 40t44 17z" />
    <glyph glyph-name="slash" unicode="/" horiz-adv-x="365" 
d="M76 -9q-14 5 -26 12t-17 14l258 696q11 -3 23.5 -10.5t19.5 -15.5z" />
    <glyph glyph-name="zero" unicode="0" horiz-adv-x="601" 
d="M275 455q-35 0 -62 -14.5t-45 -40t-27.5 -59t-9.5 -72.5q0 -37 13.5 -76t39.5 -71.5t62.5 -53t83.5 -20.5q36 0 62 15t42.5 40.5t24.5 59t8 70.5q0 34 -12.5 73t-37 72t-60.5 55t-82 22zM304 506q49 0 95 -16.5t82 -48.5t58 -79t22 -107t-21 -109t-56 -83.5t-82 -53
t-98 -18.5q-52 0 -100 18.5t-84.5 53t-58 83.5t-21.5 109t23 107t60.5 79t84.5 48.5t96 16.5z" />
    <glyph glyph-name="one" unicode="1" horiz-adv-x="388" 
d="M239 127q0 -25 3.5 -41.5t11.5 -26t21 -14t33 -5.5q3 -11 4 -21.5t1 -21.5q-15 1 -32 2l-33 1h-54q-27 0 -59.5 -0.5t-59.5 -2.5q0 11 1 21.5t4 21.5q38 2 53.5 19.5t15.5 67.5v246q0 24 -3 40.5t-11 26.5t-21 14.5t-34 5.5q-5 20 -5 43q12 -1 27.5 -1.5t32 -1t31.5 -0.5
h28q32 0 63.5 0.5t55.5 2.5q0 -23 -5 -43q-40 -2 -54.5 -20t-14.5 -67v-246z" />
    <glyph glyph-name="two" unicode="2" horiz-adv-x="537" 
d="M278 506q25 0 52 -6.5t49.5 -22t36.5 -40.5t14 -61q0 -23 -5.5 -42t-18.5 -38.5t-34 -41.5t-52 -50q-26 -23 -59 -54q-28 -27 -63 -60h146q21 0 34 1.5t20.5 8t11 18.5t4.5 33q29 0 47 -7q0 -38 2.5 -66.5t8.5 -56.5q-5 -9 -12.5 -16t-19.5 -7q-48 1 -96.5 1.5
t-100.5 0.5h-41q-22 0 -45 -0.5t-44 -1t-35 -0.5q-8 9 -10.5 18t-2.5 23q43 40 86.5 79.5t84.5 75.5q28 25 46.5 46t30 40.5t16 39.5t4.5 43q0 18 -6.5 33.5t-18.5 27.5t-27.5 19t-33.5 7q-42 0 -64 -28t-32 -101q-13 0 -28.5 1.5t-25.5 5.5q1 13 2 30t1 34.5t-1 34.5t-4 31
q19 13 37.5 22t40.5 15t47.5 8.5t57.5 2.5z" />
    <glyph glyph-name="three" unicode="3" horiz-adv-x="513" 
d="M263 500q62 0 99 0.5t64 1.5q8 -7 10.5 -17.5t1.5 -22.5q-33 -40 -76 -94t-94 -120q37 2 72 -10t62.5 -37t44 -63t16.5 -88q0 -44 -18.5 -84t-53 -70.5t-84 -48.5t-111.5 -18q-50 0 -87 13t-59 32q0 8 3 16.5t11 16.5q13 -9 44.5 -18.5t82.5 -9.5q29 0 59.5 10t55 29.5
t40.5 49t16 68.5q0 58 -36 97t-109 39q-19 0 -32 -7q-8 8 -13 18t-5 17q60 76 100.5 129.5t66.5 90.5h-122q-22 0 -36.5 -2.5t-25 -10t-18 -21t-14.5 -36.5q-11 0 -22 3t-19 10q8 37 9.5 70.5t1.5 68.5q25 -1 68 -1.5t107 -0.5z" />
    <glyph glyph-name="four" unicode="4" horiz-adv-x="597" 
d="M431 0v-152q-9 0 -23 -2.5t-26.5 -5.5t-22.5 -6.5t-11 -4.5q-11 11 -11 33v138h-7q-77 0 -140 -2t-127 -4q-6 6 -12 16.5t-6 21.5q14 18 33 43.5t41 56t46 65t49 69.5q24 34 48 68.5t46.5 66t42.5 58.5t35 47q12 0 24.5 -2.5t20.5 -7.5v-417h87q20 0 29 -9
q-7 -14 -12.5 -35t-5.5 -35h-98zM337 79v278l-185 -278h185z" />
    <glyph glyph-name="five" unicode="5" horiz-adv-x="481" 
d="M134 502q26 -1 48.5 -1.5t42.5 -0.5h82q29 0 40.5 14t11.5 34q9 3 21.5 4t23.5 1q-4 -27 -5 -58.5t-1 -66.5q-5 -8 -15 -13t-30 -5h-45q-28 0 -57.5 -0.5t-55 -1t-35.5 -1.5l-24 -101q64 -14 116.5 -33t90 -47.5t58 -67t20.5 -91.5q0 -58 -23.5 -102.5t-59.5 -74.5
t-79.5 -45.5t-83.5 -15.5q-38 0 -68.5 9t-46.5 23q0 17 13 33q13 -5 40.5 -10t57.5 -5t57 11t48 32t33 51t12 67q0 43 -21.5 75t-55 54.5t-74.5 35.5t-80 17q-8 5 -12.5 14t-4.5 17z" />
    <glyph glyph-name="six" unicode="6" horiz-adv-x="501" 
d="M414 607q-71 -15 -125 -40t-90 -67t-55 -105q-7 -24 -12 -53q17 11 32 20q20 12 38 19t35.5 10.5t36.5 3.5q86 0 136.5 -47t50.5 -136q0 -50 -17 -90.5t-46 -69.5t-67 -45t-81 -16q-108 0 -161.5 63.5t-53.5 185.5q0 112 35.5 187t90 121t119.5 66.5t124 23.5
q5 -6 7.5 -12.5t2.5 -18.5zM179 328q-22 -6 -51 -25q-2 -28 -2 -59q0 -61 14 -101t34.5 -63.5t43.5 -33t41 -9.5q30 0 51.5 13t35 33t20 44.5t6.5 47.5q0 48 -14 79t-35.5 49.5t-46.5 25.5t-47 7q-25 0 -50 -8z" />
    <glyph glyph-name="seven" unicode="7" horiz-adv-x="485" 
d="M303 500q29 0 54 0.5t43.5 1t29.5 0.5q5 -3 9 -9t6 -13q-38 -66 -77 -134.5t-80 -147.5q-24 -47 -39.5 -87t-25 -77.5t-13 -75t-3.5 -79.5q-20 -13 -39.5 -27t-31.5 -28q-9 2 -14 7t-5 11q0 32 8 76t22 92q7 25 24.5 65t43 91.5t59 112.5t73.5 130h-159q-21 0 -36.5 -2
t-26.5 -9.5t-19 -21t-15 -36.5q-10 0 -21.5 3t-19.5 9q9 38 13 73t4 77q39 -2 78 -2h158z" />
    <glyph glyph-name="eight" unicode="8" horiz-adv-x="508" 
d="M138 299q23 18 52 36q-53 36 -82 69q-34 38 -34 88q0 28 11 54t32.5 46t54 32.5t74.5 12.5q85 0 133.5 -33.5t48.5 -99.5q0 -31 -11.5 -54.5t-29.5 -42t-41 -33.5q-17 -10 -33 -19q16 -11 31 -22q35 -26 59.5 -53t37 -57.5t12.5 -66.5q0 -38 -15.5 -68.5t-42.5 -52
t-64.5 -33t-81.5 -11.5t-79.5 12t-61 32.5t-39.5 48t-14 57.5q0 35 9.5 63t28 51.5t45.5 43.5zM324 233q-34 36 -97 78q-22 -16 -38 -32q-17 -17 -28 -36t-15.5 -41.5t-4.5 -52.5q0 -33 11 -56t29 -36.5t40 -19.5t45 -6q14 0 31 5.5t32 17.5t25 32t10 50q0 55 -40 97z
M264 386q6 -4 13 -8q30 20 44 43q17 27 17 70q0 52 -26 79t-61 27q-37 0 -59.5 -21t-23.5 -64q-1 -39 21 -66.5t75 -59.5z" />
    <glyph glyph-name="nine" unicode="9" horiz-adv-x="519" 
d="M373 113q5 15 9 31q-31 -25 -60 -37q-35 -14 -77 -14t-79.5 13.5t-65 38.5t-44 60t-16.5 78q0 54 17.5 95.5t47.5 70t70.5 43t87.5 14.5q115 0 168 -67t53 -197q0 -66 -19 -120.5t-50 -98.5t-71.5 -78t-84.5 -58t-88 -38t-81 -19q-7 9 -8.5 17t-1.5 19q79 30 137.5 66
t97.5 81t58 100zM351 167q22 8 39 24q2 22 2 44q0 60 -10.5 103t-29 70.5t-45 40.5t-58.5 13q-26 0 -47 -11.5t-36.5 -31t-24 -46t-8.5 -55.5q0 -53 15.5 -84.5t39.5 -49t52 -23t53 -5.5q30 0 58 11z" />
    <glyph glyph-name="colon" unicode=":" horiz-adv-x="240" 
d="M125 135q26 0 40.5 -17.5t14.5 -34.5q0 -30 -18 -44t-41 -14q-27 0 -42 15t-15 38t17 40t44 17zM121 433q26 0 40.5 -17.5t14.5 -34.5q0 -30 -18 -44t-41 -14q-27 0 -42 15t-15 38t17 40t44 17z" />
    <glyph glyph-name="semicolon" unicode=";" horiz-adv-x="259" 
d="M143 421q26 0 40.5 -17.5t14.5 -34.5q0 -30 -18 -44t-41 -14q-27 0 -42 15t-15 38t17 40t44 17zM165 97q34 -13 34 -72q0 -30 -8.5 -58.5t-23.5 -55.5t-34.5 -51t-40.5 -45q-20 0 -32 15q31 35 47.5 68t16.5 59q0 44 -47 50q0 10 1.5 28.5t6.5 31.5q23 5 43 12t37 18z
" />
    <glyph glyph-name="less" unicode="&#x3c;" horiz-adv-x="498" 
d="M434 19q3 -14 0.5 -30.5t-10.5 -25.5q-51 39 -96 72t-89 64.5t-90 64t-100 68.5q-2 13 -1 27.5t10 27.5l345 277q16 -4 26.5 -10t20.5 -17l-352 -279z" />
    <glyph glyph-name="equal" unicode="=" 
d="M495 196q0 -15 -2 -26t-9 -22q-30 0 -54 0.5t-47 0.5h-167q-27 0 -54 -0.5t-55.5 -1t-62.5 -0.5q0 11 3 26.5t8 22.5h440zM496 361q0 -15 -2 -26t-9 -22q-30 0 -53.5 0.5t-46.5 0.5h-167q-27 0 -54 -0.5t-55 -1t-62 -0.5q0 11 3 26.5t8 22.5h438z" />
    <glyph glyph-name="greater" unicode="&#x3e;" horiz-adv-x="492" 
d="M397 258l-352 279q10 11 20.5 17t26.5 10l345 -277q9 -13 10 -27.5t-1 -27.5q-54 -36 -100 -68.5t-90 -64t-89 -64.5t-96 -72q-8 9 -10.5 25.5t0.5 30.5z" />
    <glyph glyph-name="question" unicode="?" horiz-adv-x="537" 
d="M274 714q35 0 64.5 -8.5t51 -24.5t33.5 -40t12 -55q0 -49 -22.5 -85t-50 -70t-50 -72t-22.5 -90q0 -12 3 -33t8 -35q-9 -5 -17.5 -6.5t-18.5 -1.5q-17 11 -31.5 45t-14.5 77q0 33 9.5 58.5t23.5 46.5t30.5 39t30.5 36t23.5 37.5t9.5 44.5q0 43 -24.5 69.5t-56.5 26.5
q-38 0 -59 -30t-29 -99q-14 0 -30.5 2.5t-26.5 7.5q1 18 2 32.5t1 28t-0.5 27t-2.5 29.5q25 16 61 29.5t93 13.5zM276 106q27 0 42.5 -18t15.5 -37q0 -32 -19 -46t-43 -14q-29 0 -44.5 15.5t-15.5 39.5q0 25 17.5 42.5t46.5 17.5z" />
    <glyph glyph-name="at" unicode="@" horiz-adv-x="1000" 
d="M503 467q29 0 53 -3q17 -2 38 -6q10 0 21 2q15 2 29 7q7 -2 11 -7t6.5 -15.5t3.5 -28t1 -45.5v-191q0 -37 1 -59t4.5 -33.5t11 -15t19.5 -3.5q15 0 36 18t40 54t32.5 88.5t13.5 121.5q0 54 -18.5 102.5t-56 85.5t-93 58.5t-129.5 21.5q-85 0 -148.5 -29t-106 -80
t-63.5 -121t-21 -152q0 -78 21.5 -149.5t65.5 -126t110 -86.5t156 -32q83 0 156 27t126 87q25 -4 31 -25q-23 -32 -57.5 -57t-77 -42t-91.5 -26t-101 -9q-102 0 -177.5 32t-125 89.5t-74 136.5t-24.5 172q0 90 27.5 168.5t80 137t129 92.5t174.5 34q84 0 147 -24t105 -65
t63 -95.5t21 -116.5q0 -81 -21 -148.5t-53.5 -116t-72.5 -76t-77 -27.5q-39 0 -53.5 26t-14.5 72v74q-9 -33 -21 -60q-22 -51 -52.5 -81.5t-67.5 -30.5q-56 0 -90 47t-34 160q0 59 13.5 108.5t38.5 85t59 55.5t76 20zM585 368q1 13 1 24q-19 14 -41 21q-25 9 -48 9
q-48 0 -69.5 -45.5t-21.5 -148.5q0 -87 18 -121t42 -34q12 0 30 16.5t35.5 50t32.5 83.5q14 47 20 109q1 18 1 36z" />
    <glyph glyph-name="A" unicode="A" horiz-adv-x="704" 
d="M319 678q17 4 39 4l238 -546q12 -28 21.5 -46t18 -28.5t17 -15t20.5 -6.5q4 -13 5 -22t1 -21q-8 0 -22 0.5t-31 1.5l-33 1h-28q-12 0 -28.5 -0.5t-32.5 -1t-30.5 -1t-21.5 -0.5q0 12 1 23t6 20q21 2 32.5 6t15.5 12.5t1 22.5t-13 37l-44 102q-65 0 -137 -1
q-69 -1 -128 -3l-26 -69q-23 -59 -14 -81.5t50 -25.5q7 -17 7 -43q-17 2 -43.5 2.5t-51.5 0.5t-47 -1t-36 -2q0 10 1.5 21.5t5.5 20.5q13 3 23 9t19 18t17.5 31.5t20.5 49.5zM205 265h227l-76 178q-7 15 -12.5 28t-11 26.5t-11.5 27.5q-4 12 -10 26q-10 -33 -19 -57
q-9 -26 -18 -50z" />
    <glyph glyph-name="B" unicode="B" horiz-adv-x="632" 
d="M162 676q36 0 72 1t71 1q43 0 81.5 -6.5t68 -23t46.5 -44.5t17 -72q0 -65 -39 -110t-106 -55q39 -2 74.5 -11.5t62.5 -29t43 -51.5t16 -78q0 -41 -13.5 -77t-42.5 -62.5t-74.5 -42t-109.5 -15.5h-67q-39 0 -78 -0.5t-73.5 -1t-53.5 -1.5q0 29 5 43q20 1 33.5 5.5
t21.5 15.5t11.5 29.5t3.5 47.5v411q0 50 -14.5 67.5t-54.5 19.5q-3 8 -4 19.5t-1 23.5q20 -2 48.5 -2.5t55.5 -0.5zM226 331v-193q0 -31 4 -49.5t14.5 -28.5t28.5 -13.5t46 -3.5q74 0 108.5 37t34.5 103q0 46 -19.5 75t-50.5 45.5t-68.5 22t-74.5 5.5h-23zM241 634
q-7 -1 -15 -3v-255h31q48 0 79 10.5t49 28.5t24.5 40.5t6.5 46.5q0 39 -14 65t-36 41.5t-48 21.5t-51 6q-14 0 -26 -2z" />
    <glyph glyph-name="C" unicode="C" horiz-adv-x="653" 
d="M369 685q63 0 114.5 -13t107.5 -39q-8 -35 -9.5 -74t-1.5 -81q-13 -5 -25 -7t-28 -2q-2 53 -13 87t-30.5 53.5t-46.5 27t-60 7.5q-63 0 -108 -23t-73.5 -61.5t-42 -88t-13.5 -101.5q0 -67 17.5 -125t50 -101t80 -67.5t107.5 -24.5q48 0 98 16t92 43q6 -5 11.5 -14.5
t6.5 -16.5q-30 -23 -58.5 -39.5t-58.5 -27.5t-62.5 -16.5t-70.5 -5.5q-70 0 -128.5 25.5t-100.5 72t-65.5 111.5t-23.5 143q0 86 28.5 150t75 107t106.5 64t124 21z" />
    <glyph glyph-name="D" unicode="D" horiz-adv-x="731" 
d="M58 679q10 -1 25.5 -1.5t32.5 -1t35 -0.5h34q33 0 66 1t65 1q66 0 134 -12t122.5 -46.5t89 -98t34.5 -166.5q0 -81 -20.5 -139t-53 -97t-74 -63t-83.5 -36t-81.5 -16t-67.5 -4h-65q-37 0 -73.5 -0.5t-69 -1t-51.5 -1.5q0 29 5 43q20 1 33.5 5.5t21.5 15.5t11.5 29.5
t3.5 47.5v411q0 50 -14.5 67.5t-54.5 19.5q-3 8 -4 19.5t-1 23.5zM226 138q0 -28 3.5 -46t13.5 -28.5t27.5 -14.5t45.5 -4q60 0 110.5 14.5t87.5 48.5t58 90.5t21 141.5q0 81 -24.5 138t-65.5 93t-94 52.5t-109 16.5q-18 0 -39.5 -2.5t-34.5 -6.5v-493z" />
    <glyph glyph-name="E" unicode="E" horiz-adv-x="584" 
d="M486 679q1 -17 3.5 -37.5t5 -42t5.5 -42t7 -36.5q-8 -7 -19.5 -9.5t-25.5 -2.5q-2 23 -9.5 46t-26 41t-49.5 29t-79 11h-72v-274h42q31 0 52 3.5t34 12.5t19 25t6 40q13 4 23.5 5.5t24.5 1.5q-2 -26 -2 -55v-112q0 -32 2 -58q-14 0 -24.5 1t-21.5 4q-2 26 -8.5 43
t-19.5 27.5t-33.5 14.5t-51.5 4h-42v-181q0 -28 3.5 -46t13.5 -28.5t27.5 -14.5t45.5 -4h6q46 0 75 8t47.5 24t30 39.5t22.5 54.5q15 -5 25 -10t19 -14q-11 -35 -18.5 -74.5t-12.5 -74.5q-15 0 -36.5 0.5t-47.5 1t-54 0.5h-121q-37 0 -73.5 -0.5t-69 -1t-51.5 -1.5
q0 29 5 43q20 1 33.5 5.5t21.5 15.5t11.5 29.5t3.5 47.5v411q0 50 -14.5 67.5t-54.5 19.5q-3 8 -4 19.5t-1 23.5q15 -1 38 -1.5t47.5 -1t46.5 -0.5h36q103 0 169 1t91 2z" />
    <glyph glyph-name="F" unicode="F" horiz-adv-x="542" 
d="M482 679q1 -17 3.5 -37.5t5 -42t5.5 -42t7 -36.5q-8 -7 -19.5 -9.5t-25.5 -2.5q-2 23 -9.5 46t-26 41t-49.5 29t-79 11h-69v-294h49q31 0 52 3.5t34 12.5t19 25t6 40q13 4 23.5 5.5t24.5 1.5q-2 -26 -2 -55v-112q0 -32 2 -58q-14 0 -24.5 1t-21.5 4q-2 26 -8.5 43
t-19.5 27.5t-33.5 14.5t-51.5 4h-49v-152q0 -33 5 -53t16 -32t27.5 -16.5t40.5 -5.5q5 -14 5 -43q-23 2 -57 2.5t-69 0.5h-38q-19 0 -38 -0.5t-34.5 -1t-25.5 -1.5q0 29 5 43q40 2 54.5 19.5t14.5 67.5v422q0 50 -14.5 67.5t-54.5 19.5q-5 14 -5 43q16 -1 38 -1.5t44.5 -1
t44.5 -0.5h41q102 0 167 1t90 2z" />
    <glyph glyph-name="G" unicode="G" horiz-adv-x="731" 
d="M519 181q0 34 -3 53.5t-12 29.5t-26 13t-45 4q-3 8 -4.5 21t-1.5 25q19 -2 55 -2.5t67 -0.5t66 0.5t51 1.5q0 -9 -1 -22t-5 -23q-15 -1 -24 -4t-14.5 -13t-7 -29.5t-1.5 -53.5v-45q0 -21 2.5 -38t10.5 -32q-43 -32 -110 -53.5t-152 -21.5q-74 0 -134.5 25.5t-104 72
t-67 112t-23.5 146.5q0 84 29.5 147.5t78.5 105.5t111 63.5t128 21.5q72 0 133.5 -13t106.5 -34q-7 -35 -9 -72.5t-2 -82.5q-24 -9 -53 -9q-2 52 -15.5 85.5t-36 52t-52.5 25.5t-64 7q-64 0 -111 -23t-77.5 -61t-45.5 -87.5t-15 -103.5q0 -68 15 -128t45.5 -104.5t76 -70.5
t106.5 -26q30 0 53.5 3t47.5 13q17 7 25.5 22t8.5 53v50z" />
    <glyph glyph-name="H" unicode="H" horiz-adv-x="754" 
d="M530 325h-59q-45 0 -92.5 -0.5t-92.5 -2.5q-35 -1 -61 -3v-192q0 -50 14.5 -67.5t54.5 -19.5q5 -14 5 -43q-60 3 -121 3q-29 0 -62 -0.5t-59 -2.5q0 29 5 43q40 2 54.5 19.5t14.5 67.5v422q0 50 -14.5 67.5t-54.5 19.5q-5 14 -5 43q55 -3 121 -3q32 0 61.5 0.5t59.5 2.5
q0 -29 -5 -43q-40 -2 -54.5 -19.5t-14.5 -67.5v-181h305v181q0 50 -14.5 67.5t-54.5 19.5q-5 14 -5 43q55 -3 121 -3q32 0 61.5 0.5t59.5 2.5q0 -29 -5 -43q-40 -2 -54.5 -19.5t-14.5 -67.5v-422q0 -50 14.5 -67.5t54.5 -19.5q5 -14 5 -43q-60 3 -121 3q-29 0 -62 -0.5
t-59 -2.5q0 29 5 43q40 2 54.5 19.5t14.5 67.5v198z" />
    <glyph glyph-name="I" unicode="I" horiz-adv-x="355" 
d="M131 549q0 50 -14.5 67.5t-54.5 19.5q-5 14 -5 43q55 -3 121 -3q32 0 61.5 0.5t59.5 2.5q0 -29 -5 -43q-40 -2 -54.5 -19.5t-14.5 -67.5v-422q0 -50 14.5 -67.5t54.5 -19.5q5 -14 5 -43q-60 3 -121 3q-29 0 -62 -0.5t-59 -2.5q0 29 5 43q40 2 54.5 19.5t14.5 67.5v422z
" />
    <glyph glyph-name="J" unicode="J" horiz-adv-x="338" 
d="M229 125q0 -70 -6.5 -124t-26.5 -98t-58.5 -80.5t-102.5 -71.5q-14 8 -17 26q28 24 50 49t37 55.5t22.5 67.5t7.5 85v515q0 50 -14.5 67.5t-54.5 19.5q-5 14 -5 43q22 -2 55 -2.5t66 -0.5t68 0.5t53 2.5q0 -29 -5 -43q-38 -2 -53.5 -19.5t-15.5 -67.5v-424z" />
    <glyph glyph-name="K" unicode="K" horiz-adv-x="678" 
d="M131 549q0 50 -14.5 67.5t-54.5 19.5q-5 14 -5 43q55 -3 121 -3q32 0 61.5 0.5t59.5 2.5q0 -29 -5 -43q-40 -2 -54.5 -19.5t-14.5 -67.5v-194l179 188q26 27 37.5 44.5t11 28t-10 15t-25.5 5.5q-3 10 -4 21t-1 22q17 -2 45 -2.5t58 -0.5q62 0 103 3q0 -10 -1 -22t-5 -21
q-17 -1 -32.5 -5t-32 -13.5t-35.5 -26t-43 -41.5l-162 -174q34 -29 65 -71q38 -49 78 -101q24 -32 50 -61.5t52 -52t52 -36t52 -14.5q0 -8 -1 -19t-4 -21q-38 0 -80 -1t-79 -5q-18 29 -50.5 75t-72 96t-82.5 96q-33 37 -62 64v-198q0 -50 14.5 -67.5t54.5 -19.5q5 -14 5 -43
q-60 3 -121 3q-29 0 -62 -0.5t-59 -2.5q0 29 5 43q40 2 54.5 19.5t14.5 67.5v422z" />
    <glyph glyph-name="L" unicode="L" horiz-adv-x="561" 
d="M322 45q42 0 69.5 6.5t47 21.5t33 39t25.5 59q15 -5 25 -10t19 -14q-11 -35 -18.5 -74.5t-12.5 -74.5q-15 0 -36.5 0.5t-47.5 1t-54 0.5h-121q-37 0 -73.5 -0.5t-69 -1t-51.5 -1.5q0 29 5 43q20 1 33.5 5.5t21.5 15.5t11.5 29.5t3.5 47.5v411q0 50 -14.5 67.5t-54.5 19.5
q-3 8 -4 19.5t-1 23.5q15 -1 31 -2l33 -1h57q32 0 61.5 0.5t59.5 2.5q0 -29 -5 -43q-20 -1 -33 -5.5t-21 -14.5t-11.5 -27t-3.5 -43v-408q0 -28 3.5 -46t13.5 -28.5t27.5 -14.5t45.5 -4h6z" />
    <glyph glyph-name="M" unicode="M" horiz-adv-x="935" 
d="M162 676q37 0 76 3l250 -553l218 553q17 -2 37.5 -2.5t40.5 -0.5t38 0.5t38 2.5q0 -11 -1 -21.5t-4 -21.5q-18 0 -32 -4.5t-23 -16t-12.5 -31t-0.5 -49.5l36 -367q4 -37 9 -61t13.5 -38t20.5 -20.5t30 -7.5q3 -11 4 -22.5t1 -21.5q-12 1 -27 1.5t-31 1t-33 0.5h-29
q-27 0 -61.5 -0.5t-60.5 -2.5q0 9 1.5 21t4.5 22q24 2 38 8t20 18.5t6 34t-3 54.5l-36 343l-207 -500q-17 -7 -41 -7l-233 506l-32 -321q-4 -40 -2.5 -65.5t9 -40.5t22 -21.5t36.5 -8.5q3 -11 4 -23.5t1 -19.5q-24 2 -54.5 2.5t-52.5 0.5t-51 -0.5t-49 -2.5q0 7 1 19.5
t4 23.5q20 2 33.5 8t22.5 21t15 43t10 73l32 356q5 54 -10 74.5t-57 20.5q-3 10 -4 22t-1 21q15 -2 36 -2.5t40 -0.5z" />
    <glyph glyph-name="N" unicode="N" horiz-adv-x="758" 
d="M513 679q22 -2 47.5 -2.5t46.5 -0.5t48 0.5t47 2.5q0 -10 -1 -21t-4 -22q-17 0 -28 -7t-18 -23.5t-10 -43.5t-3 -68v-498q-8 -3 -19 -4t-22 -1l-415 542v-346q0 -42 3 -70.5t11 -45.5t21.5 -24t33.5 -7q3 -9 4 -19t1 -24q-23 2 -50 2.5t-49 0.5t-51.5 -0.5t-48.5 -2.5
q0 13 1 23.5t4 19.5q20 0 33.5 7t21.5 24t11 45.5t3 70.5v413l-4 5q-14 18 -27 23.5t-38 7.5q-3 11 -4 23t-1 20q15 -2 35 -2.5t39 -0.5q40 0 67 3l389 -516v331q0 41 -3 68t-11 43.5t-21.5 23.5t-33.5 7q-3 17 -4 25.5t-1 17.5z" />
    <glyph glyph-name="O" unicode="O" horiz-adv-x="731" 
d="M35 340q0 76 25.5 139.5t70 109.5t105 71t129.5 25q72 0 132.5 -25t104.5 -70.5t69 -109t25 -140.5q0 -74 -24.5 -137.5t-68.5 -110.5t-104.5 -74t-133.5 -27q-74 0 -135 26.5t-104.5 73.5t-67 110.5t-23.5 138.5zM138 367q0 -63 16 -122t47.5 -104.5t77.5 -73t106 -27.5
q49 0 87.5 21.5t65.5 58.5t41 87t14 107q0 67 -19 126t-52 103t-78.5 69t-99.5 25q-44 0 -82 -19.5t-65.5 -55t-43 -85t-15.5 -110.5z" />
    <glyph glyph-name="P" unicode="P" horiz-adv-x="583" 
d="M250 638q-10 -1 -25 -4v-487q0 -33 5 -53t16 -32t27.5 -16.5t40.5 -5.5q5 -14 5 -43q-23 2 -57 2.5t-69 0.5h-38q-19 0 -38 -0.5t-34.5 -1t-25.5 -1.5q0 29 5 43q40 2 54.5 19.5t14.5 67.5v422q0 50 -14.5 67.5t-54.5 19.5q-5 14 -5 43q39 -2 75.5 -2.5t60.5 -0.5
q26 0 62.5 1t79.5 1q55 0 95 -16t66 -43.5t38.5 -64.5t12.5 -79q0 -38 -14 -77.5t-42.5 -71.5t-71 -52.5t-99.5 -20.5q-21 0 -38.5 3t-31.5 8q-2 8 -1.5 17t2.5 16q25 -6 55 -6q28 0 54 7t46.5 25t33 49t12.5 79q0 42 -10 76.5t-31 59.5t-53 39t-77 14q-17 0 -31 -2z" />
    <glyph glyph-name="Q" unicode="Q" horiz-adv-x="751" 
d="M35 340q0 76 25.5 139.5t70 109.5t105 71t129.5 25q72 0 132.5 -25t104.5 -70.5t69 -109t25 -140.5q0 -74 -24.5 -137.5t-68.5 -110.5t-105 -74q-7 -4 -15 -7q34 -10 60 -25q36 -21 68 -41.5t68 -34t87 -8.5q0 -9 -1.5 -19.5t-4.5 -20.5q-29 -9 -57.5 -19t-66.5 -27
q-33 8 -55 23t-39.5 33.5t-33.5 37.5t-35 36t-45 29t-61 16h-2q-74 0 -135 26.5t-104.5 73.5t-67 110.5t-23.5 138.5zM138 367q0 -63 16 -122t47.5 -104.5t77.5 -73t106 -27.5q49 0 87.5 21.5t65.5 58.5t41 87t14 107q0 67 -19 126t-52 103t-78.5 69t-99.5 25
q-44 0 -82 -19.5t-65.5 -55t-43 -85t-15.5 -110.5z" />
    <glyph glyph-name="R" unicode="R" horiz-adv-x="685" 
d="M177 676q42 0 83.5 1t83.5 1q57 0 98 -13t67.5 -35.5t39.5 -53t13 -66.5q0 -70 -48 -118q-44 -44 -119 -64q13 -12 24 -24q14 -15 27 -33.5t27 -42.5t33 -59q35 -63 69 -95t84 -34q0 -12 -0.5 -22t-3.5 -21q-38 0 -79 -1t-78 -5q-16 25 -39 66t-47 89q-23 46 -56 90
q-26 36 -58 69q-41 -2 -73 0v-178q0 -50 14 -67.5t52 -19.5q3 -9 4 -20.5t1 -22.5q-32 2 -66 2.5t-53 0.5h-29q-16 0 -32.5 -0.5t-32 -1t-26.5 -1.5q0 11 1 22t4 21q40 2 54.5 19.5t14.5 67.5v422q0 50 -14.5 68.5t-54.5 18.5q-3 10 -4 20t-1 22q15 -1 50 -1.5t70 -0.5z
M258 640q-16 -2 -33 -6v-280q10 -2 19 -2q12 -1 25 -1q41 0 76.5 8.5t62 27t41.5 46.5t15 67q0 63 -37.5 102.5t-127.5 39.5q-23 0 -41 -2z" />
    <glyph glyph-name="S" unicode="S" horiz-adv-x="535" 
d="M264 685q56 0 96 -13.5t61 -30.5q0 -29 1 -67t5 -65q-11 -5 -26.5 -7t-29.5 -2q-8 43 -18 70.5t-23.5 43t-30 21.5t-35.5 6q-45 0 -71 -26t-26 -74q0 -44 23 -72t57.5 -50t74.5 -41.5t74.5 -45t57.5 -61.5t23 -91q0 -38 -15.5 -72.5t-42.5 -60.5t-64 -41t-81 -15
q-35 0 -61.5 3.5t-49 11t-45 19.5t-50.5 30q6 38 7.5 76t1.5 66q11 3 26 4.5t28 1.5q2 -38 10 -68t24.5 -51.5t44 -33t69.5 -11.5q28 0 49 8.5t35 22.5t21.5 32.5t7.5 39.5q0 45 -23 73t-57.5 48.5t-75 39t-75 44t-57.5 63.5t-23 99q0 39 13.5 71.5t37.5 56t57.5 36
t74.5 12.5z" />
    <glyph glyph-name="T" unicode="T" horiz-adv-x="585" 
d="M249 637h-51q-39 0 -61.5 -9t-35.5 -25t-19 -37t-11 -46q-11 0 -24 2t-22 7q8 35 12 75t4 75q42 -2 110.5 -2.5t144.5 -0.5h75q37 0 70.5 0.5t62 1t49.5 1.5q0 -68 6 -150q-11 -5 -23.5 -7t-24.5 -2q-2 54 -29.5 85.5t-90.5 31.5h-48v-510q0 -25 3 -41.5t11.5 -26t24 -14
t39.5 -5.5q5 -14 5 -43q-32 2 -65.5 2.5t-65.5 0.5t-67.5 -0.5t-63.5 -2.5q0 29 5 43q24 1 39.5 5.5t24.5 14t12.5 26t3.5 41.5v510z" />
    <glyph glyph-name="U" unicode="U" horiz-adv-x="705" 
d="M585 269q0 -43 -2.5 -76.5t-9 -60t-17.5 -47t-28 -37.5q-29 -29 -70 -43t-92 -14q-70 0 -117 15.5t-75.5 46t-40.5 75.5t-12 103v318q0 27 -2.5 43t-9 25t-18 13t-29.5 6q-3 11 -4 22t-1 21q20 -2 52.5 -2.5t63.5 -0.5t62 0.5t54 2.5q0 -10 -1 -21t-4 -22
q-22 -2 -35.5 -5.5t-21 -12.5t-10 -25.5t-2.5 -43.5v-304q0 -42 8 -79t27.5 -64t52 -42.5t82.5 -15.5q25 0 55 8.5t51 29.5q12 12 20 26t13 35t7.5 49.5t2.5 68.5v248q0 36 -2.5 59.5t-10 38t-21 21t-35.5 8.5q-3 15 -4 23.5t-1 19.5q17 -2 44 -2.5t50 -0.5t49 0.5t46 2.5
q0 -7 -1 -16.5t-4 -26.5q-17 -2 -28.5 -8.5t-18.5 -20.5t-9.5 -38t-2.5 -60v-240z" />
    <glyph glyph-name="V" unicode="V" horiz-adv-x="686" 
d="M225 527q43 -98 84 -197q38 -91 77 -189q35 89 67 175q36 96 70 198q19 55 11 86t-55 36q-3 11 -4 23t-1 20q22 -2 42 -2.5t43 -0.5t51.5 0.5t50.5 2.5q0 -11 -1 -21.5t-4 -21.5q-31 -8 -48.5 -38t-35.5 -80q-47 -130 -94.5 -259.5t-98.5 -260.5q-17 -4 -39 -4
q-29 73 -58.5 145t-58 139.5t-55 129t-50.5 113.5q-17 37 -27.5 59t-19.5 34t-18 16t-23 6q-3 12 -4 23.5t-1 19.5q20 -2 54.5 -2.5t66.5 -0.5q64 0 121 3q0 -20 -5 -43q-24 -2 -38.5 -6.5t-19 -16t0.5 -32t20 -54.5z" />
    <glyph glyph-name="W" unicode="W" horiz-adv-x="1003" 
d="M25 679q24 -2 57 -2.5t56 -0.5h27q15 0 31.5 0.5t32.5 1t30 1.5q0 -8 -1 -19.5t-4 -23.5q-26 -2 -41 -5.5t-20.5 -14t-1.5 -30.5t16 -53q16 -46 34 -98t36 -105.5t35 -106.5q10 -32 20 -62l171 518q8 3 18 4t26 1q25 -65 52.5 -135.5t54.5 -142.5t53 -143q19 -52 37 -101
l97 332q11 38 14 63.5t-2.5 42t-20.5 25t-39 11.5q-4 10 -5.5 22.5t-1.5 20.5q42 -3 97 -3q23 0 49 0.5t46 2.5q0 -10 -1.5 -21t-5.5 -22q-13 -3 -23 -10.5t-19.5 -23.5t-19.5 -42.5t-22 -68.5l-146 -494q-17 -6 -40 -6q-23 64 -49 133t-52.5 139t-53.5 139q-24 60 -46 117
l-170 -522q-8 -3 -20 -4.5t-23 -1.5q-43 134 -87.5 266t-90.5 264q-14 40 -23 62.5t-17 33.5t-17 14t-22 5q-3 10 -4 21t-1 22z" />
    <glyph glyph-name="X" unicode="X" horiz-adv-x="638" 
d="M267 529q42 -64 81 -126l74 115q20 32 29 53.5t6.5 35t-15 20t-35.5 9.5q-3 11 -4 23t-1 20q25 -2 52 -2.5t50 -0.5t51.5 0.5t47.5 2.5q0 -10 -0.5 -21t-3.5 -22q-12 -3 -23 -8.5t-24 -18t-29.5 -33.5t-38.5 -55l-107 -163q4 -8 9 -15q58 -92 114 -186q21 -35 36 -57
t27.5 -34.5t23 -18t22.5 -7.5q6 -18 6 -43q-22 2 -56.5 2.5t-65.5 0.5t-64.5 -0.5t-56.5 -1.5q0 9 1 20t3 22q19 2 31 6.5t15 15.5t-4 30.5t-26 51.5q-42 70 -85 140l-87 -129q-38 -56 -35.5 -81t52.5 -34q3 -11 4 -22t1 -21q-26 2 -54 2.5t-56 0.5t-56 -0.5t-48 -2.5
q0 8 1 21t5 24q24 6 53 28.5t66 73.5l128 183l-2 3q-58 92 -120 186q-27 40 -42.5 63t-26.5 34.5t-19.5 15.5t-20.5 6q-4 12 -5 22.5t-1 21.5q26 -2 59.5 -2.5t62.5 -0.5q28 0 63 0.5t58 1.5q0 -9 -1 -20t-3 -22q-21 -4 -33 -10.5t-14.5 -18.5t5.5 -31t26 -47z" />
    <glyph glyph-name="Y" unicode="Y" horiz-adv-x="630" 
d="M366 295v-132q0 -40 2.5 -63t10.5 -35t23 -17t41 -8q6 -18 6 -43l-66 2q-33 1 -61 1h-36q-19 0 -38 -0.5t-35.5 -1t-26.5 -0.5q0 11 1.5 22t4.5 20q27 2 42.5 6.5t24 15.5t11 32t2.5 56v144l-167 284q-10 16 -17.5 27t-15.5 18t-17.5 10t-23.5 4q-4 11 -5 20.5t-1 20.5
q21 -1 48 -1.5t56 -0.5h69q19 0 36 0.5t29 1.5q0 -11 -1 -19.5t-4 -19.5q-39 -4 -44.5 -20t17.5 -55q30 -52 64 -113q29 -52 54 -102q24 47 50 94q30 56 56 101q28 49 20.5 68t-47.5 25q-3 11 -5 20.5t-2 20.5q18 -2 46 -2h52q23 0 46 0.5t40 1.5q0 -20 -4 -39
q-14 -4 -25 -10.5t-23 -18.5t-25 -31t-29 -48z" />
    <glyph glyph-name="Z" unicode="Z" horiz-adv-x="631" 
d="M102 678q15 0 46 -0.5t66.5 -1t70.5 -0.5h155q44 0 98 2q5 -5 8 -14t3 -19q-93 -163 -186 -316q-87 -145 -178 -287h154q46 0 76.5 4.5t50 18t31 38.5t19.5 66q33 -3 52 -17q-8 -33 -12.5 -74t-5.5 -81q-37 1 -69.5 1.5t-63.5 1t-63 0.5h-133q-33 0 -62.5 -0.5t-53.5 -1
t-39 -1.5q-4 8 -6 15t-2 17q96 155 189 307q90 148 178 300h-142q-33 0 -56.5 -4.5t-40 -18.5t-27.5 -39t-19 -66q-13 0 -30 2t-27 8q9 32 14 75.5t5 84.5z" />
    <glyph glyph-name="bracketleft" unicode="[" horiz-adv-x="310" 
d="M70 742q26 -2 50 -2h91q21 0 50 2q7 -6 9 -16.5t2 -21.5q-40 -3 -65.5 -7.5t-40.5 -14t-20.5 -26.5t-5.5 -46v-767q0 -24 7.5 -37.5t22.5 -21t38 -10t53 -3.5q7 -8 9 -17t2 -23q-21 2 -49 2h-100q-27 0 -53 -2v1011z" />
    <glyph glyph-name="backslash" unicode="\" horiz-adv-x="364" 
d="M25 709q5 2 11.5 3t14.5 1q19 0 27 -4l263 -709q-8 -3 -26.5 -4t-25.5 1z" />
    <glyph glyph-name="bracketright" unicode="]" horiz-adv-x="309" 
d="M246 -269q-26 2 -54 2h-100q-27 0 -48 -2q0 14 2 23t9 17q30 1 53 3.5t38 10t22.5 21t7.5 37.5v767q0 29 -5.5 46t-20.5 26.5t-40.5 14t-65.5 7.5q0 11 2 21.5t9 16.5q29 -2 49 -2h91q25 0 51 2v-1011z" />
    <glyph glyph-name="asciicircum" unicode="^" horiz-adv-x="556" 
d="M277 644q-56 -66 -110 -133.5t-97 -127.5q-11 10 -17 20.5t-10 26.5l206 255q11 7 26.5 9t28.5 0q20 -31 46 -68.5t53 -76.5t54.5 -76.5t50.5 -68.5q-9 -8 -25.5 -10.5t-30.5 0.5z" />
    <glyph glyph-name="underscore" unicode="_" horiz-adv-x="566" 
d="M506 -92q0 -11 -3 -26.5t-8 -23.5q-38 0 -66.5 0.5t-54.5 0.5h-152q-23 0 -47.5 -0.5t-52.5 -1t-62 -0.5q0 33 11 51h435z" />
    <glyph glyph-name="grave" unicode="`" horiz-adv-x="266" 
d="M156 537q-9 -5 -19.5 -4.5t-20.5 2.5q-35 54 -65 94.5t-62 74.5q20 10 45.5 11t50.5 -3q13 -43 30 -86.5t41 -88.5z" />
    <glyph glyph-name="a" unicode="a" horiz-adv-x="483" 
d="M306 227q-26 -3 -54 -8.5t-51 -16.5t-38.5 -30.5t-15.5 -52.5q0 -37 18 -54t41 -17q16 0 33.5 8t32.5 25t24.5 43.5t9.5 64.5v38zM396 149q0 -48 10.5 -64t46.5 -16q0 -11 -1.5 -24.5t-5.5 -22.5q-26 -4 -55.5 -12.5t-50.5 -18.5q-10 4 -17.5 15t-7.5 34q0 15 1 25t1 17
q-4 -13 -11.5 -26t-25.5 -29q-17 -15 -41.5 -24.5t-58.5 -9.5q-65 0 -97.5 28t-32.5 78q0 49 28.5 79.5t69 49t84 27t74.5 13.5q0 31 -1 51t-3 33.5t-6.5 22.5t-10.5 17q-24 30 -64 30q-23 0 -39 -12t-26.5 -29.5t-15 -37.5t-5.5 -37q-11 0 -27.5 1.5t-24.5 5.5q2 25 1 55.5
t-6 53.5q40 20 84 32.5t91 12.5q34 0 58 -10.5t43 -28.5q13 -13 21 -28t12.5 -35.5t6.5 -46.5t2 -62v-107z" />
    <glyph glyph-name="b" unicode="b" horiz-adv-x="547" 
d="M258 -9q-69 0 -117 19.5t-78 48.5q10 13 16 40.5t6 86.5v389q0 18 -2 31t-10 22t-23 13.5t-40 4.5q0 11 2 20t7 17q11 0 30 3t39 7.5t38 11t27 12.5q9 -3 15.5 -12t6.5 -28v-261q0 -18 -3 -35q-1 -4 -2 -10q8 15 13 22q7 11 19.5 24t30.5 24t40 18.5t47 7.5
q88 0 137.5 -53t49.5 -169q0 -53 -18 -99t-50.5 -80.5t-78.5 -54.5t-102 -20zM175 72q14 -12 29 -21q24 -14 59 -14q21 0 46 8t47 30t37 59.5t15 97.5q0 48 -11.5 81t-28 53t-36.5 29t-36 9q-22 0 -43.5 -10t-39 -33t-28 -59.5t-10.5 -88.5v-141z" />
    <glyph glyph-name="c" unicode="c" horiz-adv-x="447" 
d="M412 78q-27 -43 -67 -65t-97 -22q-38 0 -75.5 15t-67 44.5t-47.5 73.5t-18 103q0 45 13.5 88t40 77t65 54.5t89.5 20.5q94 0 151 -45q-5 -29 -6 -57t-1 -57q-8 -5 -21.5 -6.5t-24.5 -1.5q-6 58 -34 89t-72 31q-50 0 -78.5 -46t-28.5 -132q0 -38 9.5 -73t27.5 -62
t44.5 -43t61.5 -16q67 0 111 58q8 -4 15 -11.5t10 -16.5z" />
    <glyph glyph-name="d" unicode="d" horiz-adv-x="562" 
d="M289 467q29 0 50 -5q15 -4 33 -9v122q0 18 -2 31t-10 22t-23 13.5t-40 4.5q0 11 2 20t7 17q11 0 30 3t39 7.5t38 11t27 12.5q9 -3 15.5 -12t6.5 -28v-550q1 -31 13 -45.5t54 -16.5q0 -11 -1 -21.5t-5 -21.5q-11 0 -27.5 -2.5t-33 -6.5t-31.5 -10t-24 -12q-9 3 -17 13
t-8 36q0 18 1 36q1 13 4 32q-4 -10 -9 -18q-9 -17 -14 -25q-7 -11 -19.5 -24t-30.5 -24t-40 -18.5t-47 -7.5q-88 0 -137.5 53t-49.5 169q0 52 18 98.5t50.5 81t78.5 54.5t102 20zM361 156q9 30 11 73v156q-14 12 -30 22q-23 14 -58 14q-21 0 -46 -8t-47 -30t-37 -59.5
t-15 -97.5q0 -48 11.5 -81t28 -53t36 -29t36.5 -9q22 0 43.5 10t39 33t27.5 59z" />
    <glyph glyph-name="e" unicode="e" horiz-adv-x="474" 
d="M203 223q-33 -1 -64 -3q1 -22 5 -43q7 -36 23.5 -65t44.5 -47t72 -18q33 0 65 14.5t57 43.5q8 -5 15 -14t9 -17q-35 -45 -79 -64t-99 -19q-53 0 -93 19t-66.5 51t-39.5 75.5t-13 92.5q0 48 14.5 91t41 76t65 52t86.5 19q49 0 83 -16.5t56 -44.5t33.5 -65.5t14.5 -80.5
q-4 -20 -15 -34h-51q-34 0 -76.5 -0.5t-88.5 -2.5zM146 332q-6 -25 -8 -61h192q0 66 -24 107t-68 41q-18 0 -36 -7.5t-32.5 -27t-23.5 -52.5z" />
    <glyph glyph-name="f" unicode="f" horiz-adv-x="342" 
d="M206 448h102q0 -10 -2 -22.5t-8 -22.5q-53 0 -92 -12v-244q0 -33 5 -53t16 -32t27.5 -16.5t40.5 -5.5q5 -14 5 -43q-23 2 -57 2.5t-69 0.5h-37q-19 0 -37 -0.5t-33 -1t-25 -1.5q0 29 5 43q40 2 54.5 19.5t14.5 67.5v267q-22 5 -43.5 7t-36.5 2q0 27 14 45h66v40
q0 56 18 98.5t47.5 71t67 42.5t76.5 14t58.5 -7.5t36.5 -17.5q-2 -32 -3 -61t-1 -56q-13 -4 -28 -6t-29 -2q0 41 -18 68t-60 27q-41 0 -58 -36.5t-17 -103.5v-71z" />
    <glyph glyph-name="g" unicode="g" horiz-adv-x="511" 
d="M237 467q35 0 63 -9h164q4 -13 5.5 -29.5t1.5 -32.5q-12 3 -28 6t-32.5 5.5t-32.5 4.5h-4l4 -4q22 -24 32 -52t10 -49q0 -35 -11.5 -65.5t-34.5 -53.5t-57 -36t-78 -13q-36 0 -69 10q-4 2 -8 3q-11 -11 -17 -21q-8 -15 -8 -26q0 -14 4.5 -22t20 -12.5t44 -6t76.5 -1.5
q50 0 84.5 -6t56 -19t31 -34.5t9.5 -51.5q0 -34 -18.5 -69.5t-51.5 -65t-78.5 -48t-99.5 -18.5q-93 0 -133.5 34.5t-40.5 100.5q0 38 20 66q18 25 53 42q-10 4 -18 8q-16 11 -22.5 27t-6.5 39q0 33 19 64q14 23 34 42l-8 6q-25 20 -40 50.5t-15 70.5q0 34 11.5 64.5t34 53
t56 35.5t78.5 13zM215 -17q-32 0 -55 2q-17 -15 -24 -31q-9 -20 -9 -47q0 -51 25 -77t87 -26q33 0 59 9t44.5 24t28 35t9.5 41q0 19 -6.5 32.5t-24.5 21.5t-50.5 12t-83.5 4zM227 422q-20 0 -34.5 -9t-24.5 -24t-14.5 -34.5t-4.5 -40.5q0 -63 27 -96t75 -33q33 0 54 27
t21 80q0 27 -6.5 50.5t-19.5 41t-31 28t-42 10.5z" />
    <glyph glyph-name="h" unicode="h" horiz-adv-x="595" 
d="M496 127q0 -52 14.5 -69.5t44.5 -17.5q3 -9 4 -19t1 -24q-22 2 -50 2.5t-59 0.5t-63.5 -1t-55.5 -2q0 29 5 43q36 0 52.5 18.5t16.5 68.5v152q0 35 -7 58.5t-19.5 37.5t-29.5 20t-37 6t-40 -9t-36 -29t-26.5 -51.5t-10.5 -77.5v-107q0 -50 15 -68.5t54 -18.5q3 -9 4 -19
t1 -24q-21 1 -54.5 2t-64.5 1t-64 -0.5t-55 -2.5q0 29 5 43q39 0 54 18.5t15 68.5v448q0 18 -2 31t-10 22t-23 13.5t-40 4.5q0 11 2 20t7 17q11 0 30 3t39 7.5t38 11t27 12.5q9 -3 15.5 -12t6.5 -28v-254q0 -12 -1 -27t-6 -32q3 5 6 11.5t9 14.5q8 12 22 24.5t32.5 23
t41 17.5t49.5 7q28 0 54 -8.5t46 -27.5t31.5 -50t11.5 -77v-172z" />
    <glyph glyph-name="i" unicode="i" horiz-adv-x="302" 
d="M89 638q0 27 18 44t41 17q27 0 43.5 -17t16.5 -44q0 -23 -17.5 -40.5t-42.5 -17.5q-26 0 -42.5 17t-16.5 41zM201 127q0 -50 13.5 -68.5t45.5 -18.5q3 -11 4 -23.5t1 -19.5q-26 2 -55 2.5t-58 0.5t-59.5 -0.5t-55.5 -2.5q0 10 1 21.5t4 21.5q40 0 54.5 18.5t14.5 68.5
v198q0 18 -2 31t-10 22t-23 13.5t-40 4.5q0 11 2 20t7 17q11 0 30 3t39 7.5t38 11t27 12.5q9 -3 15.5 -12t6.5 -28v-300z" />
    <glyph glyph-name="j" unicode="j" horiz-adv-x="283" 
d="M111 325q0 18 -2 31t-10 22t-23 13.5t-40 4.5q0 11 2 20t7 17q11 0 30 3t39 7.5t38 11t27 12.5q9 -3 15.5 -12t6.5 -28v-404q0 -51 -15.5 -94t-39.5 -77.5t-53.5 -60t-57.5 -40.5q-8 4 -14 11t-8 17q30 34 49 63t30 57t15 58.5t4 68.5v299zM89 638q0 27 18 44t41 17
q27 0 43.5 -17t16.5 -44q0 -23 -17.5 -40.5t-42.5 -17.5q-26 0 -42.5 17t-16.5 41z" />
    <glyph glyph-name="k" unicode="k" horiz-adv-x="545" 
d="M110 575q0 18 -2 31t-10 22t-23 13.5t-40 4.5q0 11 2 20t7 17q11 0 30 3t39 7.5t38 11t27 12.5q9 -3 15.5 -12t6.5 -28v-416l67 62q34 31 49 50t15 30q0 16 -29 16q-6 19 -6 41q32 -2 58 -2h88q25 0 52 2q0 -10 -1.5 -21.5t-5.5 -20.5q-29 -1 -57 -14t-65 -47l-87 -79
q8 -10 17 -20q18 -19 37 -42t41 -50t48 -60q17 -21 29 -33.5t23 -18.5t23 -8t29 -3q0 -29 -5 -43q-36 0 -65.5 -2t-62.5 -7q-13 21 -37.5 54t-54 70t-60.5 72q-21 25 -40 45v-105q0 -50 13.5 -68.5t45.5 -18.5q3 -11 4 -23.5t1 -19.5q-26 2 -55 2.5t-58 0.5t-59.5 -0.5
t-55.5 -2.5q0 10 1 21.5t4 21.5q40 0 54.5 18.5t14.5 68.5v448z" />
    <glyph glyph-name="l" unicode="l" horiz-adv-x="300" 
d="M110 575q0 18 -2 31t-10 22t-23 13.5t-40 4.5q0 11 2 20t7 17q11 0 30 3t39 7.5t38 11t27 12.5q9 -3 15.5 -12t6.5 -28v-550q0 -50 13.5 -68.5t45.5 -18.5q3 -11 4 -23.5t1 -19.5q-26 2 -55 2.5t-58 0.5t-59.5 -0.5t-55.5 -2.5q0 10 1 21.5t4 21.5q40 0 54.5 18.5
t14.5 68.5v448z" />
    <glyph glyph-name="m" unicode="m" horiz-adv-x="884" 
d="M45 433q13 1 31 4t36.5 8t35 10.5t26.5 11.5q9 -3 15.5 -12t6.5 -28q0 -17 -2 -38q0 -10 -2 -25q4 9 6 14q7 13 10 17q8 12 21.5 24.5t31.5 23t41 17.5t49 7q42 0 77 -19t51 -65q3 -10 4 -25q3 9 6 15q5 9 11 17q8 12 21.5 24.5t32 23t41 17.5t48.5 7q28 0 53.5 -8.5
t45 -27.5t31 -50t11.5 -77v-172q0 -26 3.5 -42.5t11 -26t19 -13.5t26.5 -5q3 -9 4 -19t1 -24q-23 2 -51 2.5t-58 0.5t-62 -0.5t-57 -2.5q0 29 5 43q40 2 54.5 19.5t14.5 67.5v152q0 35 -7 58.5t-19 37.5t-29 20t-37 6q-19 0 -39 -9t-36 -29t-26 -51.5t-10 -77.5v-107
q0 -26 4 -42.5t12 -26t21.5 -13.5t32.5 -5q3 -9 4 -19t1 -24q-26 2 -58 2.5t-61 0.5t-60.5 -0.5t-58.5 -2.5q0 29 5 43q40 2 54.5 19.5t14.5 67.5v157q0 35 -7 58.5t-19 37.5t-29 20t-37 6q-19 0 -39 -9t-36 -29t-26 -51.5t-10 -77.5v-112q0 -50 15 -67.5t55 -19.5
q3 -9 4 -19t1 -24q-26 2 -59.5 2.5t-59.5 0.5t-60.5 -0.5t-58.5 -2.5q0 29 5 43q40 2 54.5 19.5t14.5 67.5v198q0 18 -2.5 31t-10.5 21.5t-22.5 13t-39.5 5.5q0 11 2 20t7 17z" />
    <glyph glyph-name="n" unicode="n" horiz-adv-x="596" 
d="M497 127q0 -52 14.5 -69.5t44.5 -17.5q3 -9 4 -19t1 -24q-22 2 -50 2.5t-59 0.5t-63.5 -1t-55.5 -2q0 29 5 43q36 0 52.5 18.5t16.5 68.5v152q0 35 -7 58.5t-19.5 37.5t-29.5 20t-37 6t-40 -9t-36 -29t-26.5 -51.5t-10.5 -77.5v-107q0 -50 15 -68.5t54 -18.5q3 -9 4 -19
t1 -24q-21 1 -54.5 2t-64.5 1t-64 -0.5t-55 -2.5q0 29 5 43q39 0 54 18.5t15 68.5v198q0 18 -2.5 31t-10.5 21.5t-22.5 13t-39.5 5.5q0 11 2 20t7 17q15 1 33.5 4.5t37 8t35 10t28.5 11.5q9 -3 15.5 -12.5t6.5 -31.5q0 -12 -1 -27t-6 -32q3 5 6 11.5t9 14.5q8 12 22 24.5
t32.5 23t41 17.5t49.5 7q28 0 54 -8.5t46 -27.5t31.5 -50t11.5 -77v-172z" />
    <glyph glyph-name="o" unicode="o" horiz-adv-x="532" 
d="M141 250q0 -102 36 -156.5t97 -54.5q60 0 89 49.5t29 128.5q0 46 -11 83.5t-29.5 64t-43 40.5t-52.5 14q-58 0 -86.5 -47t-28.5 -122zM40 229q0 51 16.5 94.5t46.5 75.5t71.5 50t91.5 18q53 0 95 -17t71 -48.5t44.5 -75.5t15.5 -97q0 -51 -16.5 -95t-46 -75.5t-71 -49.5
t-92.5 -18t-93 17t-71.5 48t-45.5 75t-16 98z" />
    <glyph glyph-name="p" unicode="p" horiz-adv-x="572" 
d="M283 -9q-29 0 -50 5q-15 4 -33 8v-111q1 -29 6.5 -46.5t16.5 -28t27 -15t39 -5.5q5 -14 5 -43q-23 2 -57 2.5t-69 0.5h-37q-19 0 -37 -0.5t-33 -1t-25 -1.5q0 29 5 43q40 2 54.5 19.5t14.5 67.5v440q0 18 -2.5 31t-10.5 21.5t-22.5 13t-39.5 5.5q0 11 2 20t7 17
q15 1 33.5 4.5t37 8t35 10t28.5 11.5q9 -3 15.5 -12.5t6.5 -31.5q0 -23 -7 -44q-4 -13 -10 -31l10 20q10 17 15 25q7 11 19.5 24t30.5 24t40 18.5t47 7.5q88 0 137.5 -52t49.5 -161q0 -56 -18 -104t-50.5 -83.5t-78.5 -55.5t-102 -20zM210 301q-9 -31 -10 -73v-156
q14 -12 29 -21q24 -14 59 -14q21 0 46 8t47 30t37 59.5t15 97.5q0 79 -32 125.5t-80 46.5q-22 0 -43.5 -10t-39 -33t-28.5 -60z" />
    <glyph glyph-name="q" unicode="q" horiz-adv-x="546" 
d="M293 -202q24 1 39 5.5t24 14t12.5 26t3.5 41.5v135q0 25 4 50q3 19 8 46l-8 -20q-9 -21 -18 -33q-10 -13 -25 -24.5t-32.5 -20.5t-37 -14t-39.5 -5q-36 0 -69.5 13.5t-59 40.5t-40.5 67t-15 94q0 51 17.5 97t49.5 80.5t77 55t100 20.5q69 0 117.5 -18t80.5 -49
q-10 -15 -15 -39.5t-5 -69.5v-406q0 -50 14.5 -67.5t54.5 -19.5q3 -9 4 -19t1 -24q-9 1 -23.5 1.5t-31.5 1t-35 0.5h-34q-32 0 -65 -0.5t-59 -2.5q0 29 5 43zM361 151q9 29 11 70v165q-11 12 -35 23.5t-49 11.5q-66 0 -107.5 -50t-41.5 -144q0 -47 11 -79t28.5 -51.5
t39.5 -28t43 -8.5q17 0 36.5 8.5t36 29t27.5 53.5z" />
    <glyph glyph-name="r" unicode="r" horiz-adv-x="419" 
d="M209 298q-7 -22 -8 -45v-106q0 -33 5 -53t16 -32t27.5 -16.5t40.5 -5.5q5 -14 5 -43q-23 2 -57 2.5t-69 0.5h-37q-19 0 -37 -0.5t-33 -1t-25 -1.5q0 29 5 43q40 2 54.5 19.5t14.5 67.5v198q0 18 -2.5 31t-10.5 21.5t-22.5 13t-39.5 5.5q0 11 2 20t7 17q15 1 33.5 4.5
t37 8t35 10t28.5 11.5q9 -3 15.5 -12.5t6.5 -31.5q0 -35 -6 -62l-9 -41q6 15 9 27q6 18 14 30q22 35 52 58t69 23q20 0 36.5 -6t32.5 -18q-4 -25 -5.5 -58.5t-1.5 -59.5q-9 -3 -24.5 -6t-32.5 -3q-2 48 -15.5 63t-33.5 15q-13 0 -28 -11t-27.5 -30.5t-21.5 -45.5z" />
    <glyph glyph-name="s" unicode="s" horiz-adv-x="428" 
d="M355 432q-2 -24 -2 -51t4 -53q-20 -12 -50 -12q-2 21 -10.5 40.5t-23 35t-34.5 25t-44 9.5q-31 0 -49.5 -15t-18.5 -40q0 -13 3.5 -23t16 -20.5t36 -22t63.5 -27.5q40 -15 67.5 -30t44 -32t23.5 -37t7 -47q0 -32 -14 -58t-38.5 -44.5t-58 -28.5t-72.5 -10q-30 0 -53 2.5
t-42.5 7t-36 11.5t-33.5 16q1 12 2 28t1 33.5t-0.5 34t-1.5 28.5q8 6 22.5 8.5t29.5 2.5q8 -63 39 -94t83 -31q41 0 63.5 18t22.5 46q0 13 -4.5 23.5t-16.5 20t-33 20t-54 24.5q-41 16 -69 30.5t-45.5 31.5t-25.5 38.5t-8 51.5q0 32 16.5 55.5t41.5 39t54 23t54 7.5
q45 0 79 -9t65 -26z" />
    <glyph glyph-name="t" unicode="t" horiz-adv-x="351" 
d="M92 448v132q20 5 40 16t35 24q5 -2 8 -4.5t5 -8t2.5 -14.5t0.5 -25v-120h129q0 -22 -9 -44q-73 -3 -120 -13v-250q0 -51 15 -73.5t42 -22.5q21 0 36.5 6t29.5 18q13 -15 15 -33q-17 -19 -49 -32t-64 -13q-60 0 -88 30t-28 99v271q-15 5 -31 8t-41 5q0 13 2 22.5t7 21.5
h63z" />
    <glyph glyph-name="u" unicode="u" horiz-adv-x="563" 
d="M371 330q0 18 -2.5 31t-10.5 21.5t-22.5 13t-39.5 5.5q0 11 1 19.5t6 17.5q39 2 76 10t60 19q9 -3 15.5 -12.5t6.5 -31.5v-287q0 -18 2 -31t9 -21.5t20 -13t36 -5.5q0 -11 -1 -21.5t-5 -21.5q-11 0 -28 -2.5t-34.5 -6.5t-33 -10t-24.5 -12q-9 3 -17 13t-8 36q0 20 2 40v9
q-10 -22 -30 -42q-51 -51 -121 -51q-35 0 -62.5 9t-46.5 29.5t-28.5 54.5t-9.5 85v151q0 18 -1.5 31t-8.5 21.5t-20 13t-36 5.5q0 11 1 19.5t6 17.5q15 1 32.5 4.5t34.5 8t32.5 10t27.5 11.5q9 -3 15.5 -12.5t6.5 -31.5v-227q0 -76 20 -107.5t70 -31.5q20 0 40 10t35.5 31
t25 53.5t9.5 76.5v102z" />
    <glyph glyph-name="v" unicode="v" horiz-adv-x="544" 
d="M335 461q20 -2 45 -2.5t48 -0.5t49 0.5t44 2.5q0 -25 -9 -43q-12 -3 -21.5 -9t-18.5 -18.5t-18.5 -32t-21.5 -49.5l-134 -318q-12 0 -24.5 2t-21.5 7q-6 14 -18.5 43t-28.5 65t-34 75t-34 73.5t-28.5 61t-17.5 37.5q-10 20 -17 32t-13.5 18.5t-14 9t-17.5 3.5
q-4 13 -5 21t-1 22q42 -3 105 -3q32 0 65.5 0.5t57.5 2.5q0 -11 -2 -21.5t-5 -19.5q-25 -2 -39.5 -5.5t-19.5 -11t-2 -20t12 -32.5q7 -15 20.5 -46t30 -69t33.5 -78q13 -32 24 -58q22 57 39 103q20 52 37 97q25 65 15 90.5t-48 28.5q-11 20 -11 42z" />
    <glyph glyph-name="w" unicode="w" horiz-adv-x="774" 
d="M434 458q16 -36 34.5 -79t38 -89.5t39.5 -94.5q16 -39 31 -77l54 170q12 36 14 60t-4 38.5t-19 21.5t-31 9q-9 21 -9 44q19 -2 43 -2.5t46 -0.5q53 0 88 3q0 -25 -8 -44q-11 -3 -19.5 -9.5t-16.5 -20t-17 -36.5t-21 -60l-101 -300q-14 0 -25.5 2t-20.5 7q-17 42 -36 87.5
t-39 91.5t-40 91q-13 30 -25 58l-131 -337q-17 0 -26.5 2t-17.5 7q-32 91 -66 179t-72 179q-11 28 -22.5 40t-33.5 19q-4 10 -5 22t-1 21q20 -1 42.5 -1.5t55.5 -0.5t58.5 0.5t51.5 2.5q0 -10 -1 -23t-4 -21q-42 -5 -48 -18.5t5 -41.5q24 -59 49 -128q22 -58 41 -110
l129 343q10 0 21 -1t19 -3z" />
    <glyph glyph-name="x" unicode="x" horiz-adv-x="521" 
d="M302 102q-14 21 -30 44q-13 21 -28 41l-41 -61q-32 -46 -26 -66t35 -20q3 -8 4.5 -19.5t1.5 -22.5q-28 2 -59 2h-78q-20 0 -51 -2q0 11 1 22.5t5 19.5q13 1 25.5 5t25.5 14t27.5 27t33.5 43l69 97q-19 26 -37 52q-21 30 -38 53q-21 28 -35 45.5t-24 26.5t-18.5 12.5
t-20.5 4.5q-7 15 -7 40q22 -1 49 -1.5t56 -0.5h59q30 0 56 2q0 -10 -1.5 -21t-3.5 -19q-35 -2 -41 -16.5t26 -57.5l22 -30q11 -15 23 -32l40 62q26 40 24 56t-35 18q-4 9 -5 19t-1 21q19 -1 39 -1.5t50 -0.5t49 0.5t35 1.5q0 -11 -2 -21.5t-4 -18.5q-11 -1 -20.5 -3.5
t-19 -10t-21 -20.5t-26.5 -35l-74 -105q21 -28 43 -58q27 -37 47 -66q16 -24 28 -39.5t21.5 -25t18 -13.5t18.5 -4q4 -10 4.5 -19.5t0.5 -22.5q-31 2 -55 2h-106q-30 0 -59 -2q0 13 0.5 23t3.5 19q35 1 42 14t-16 48z" />
    <glyph glyph-name="y" unicode="y" horiz-adv-x="551" 
d="M384 298q13 32 15.5 53t-3.5 34.5t-20.5 20.5t-36.5 11q-7 20 -7 43q23 -2 47 -2h104q25 0 48 2q0 -10 -0.5 -21t-5.5 -22q-14 -3 -24 -9t-18.5 -17.5t-17.5 -30.5t-21 -47l-147 -350q-29 -68 -51 -110t-41.5 -64.5t-39 -30t-42.5 -7.5q-30 0 -47.5 7.5t-27.5 15.5
q-4 15 -3 37.5t4 35.5q34 -6 64 -6q29 0 55 13.5t46 45.5q7 10 17.5 31.5t23.5 51.5q3 5 5 10q-15 33 -31 69q-19 44 -38 86t-36.5 80t-30.5 66q-18 37 -30.5 60t-23.5 36t-21 18.5t-23 8.5q-6 18 -6 43q29 -1 58 -1.5t55 -0.5h64l36 1q18 1 33 1q0 -26 -7 -43
q-27 -5 -42 -12t-20 -19.5t0 -31.5t19 -47q10 -22 23 -50.5t26.5 -59t25.5 -60.5q8 -19 14 -36q5 11 10 23z" />
    <glyph glyph-name="z" unicode="z" horiz-adv-x="501" 
d="M67 461q15 -1 37 -1.5t47 -1t50 -0.5h96q25 0 49 0.5t45 1t36 1.5q7 -8 10 -20t3 -23q-17 -25 -40 -57t-48 -67t-52 -72t-52 -71.5t-48 -65.5q-16 -22 -30 -40h127q27 0 44.5 4t28.5 15.5t16.5 33.5t8.5 58q12 0 25 -1t28 -5q0 -12 0.5 -29.5t1.5 -36t2.5 -36.5t3.5 -31
q-4 -8 -12 -13.5t-20 -5.5q-19 0 -37 0.5t-39 1t-46 0.5h-57q-66 0 -108.5 -0.5t-69.5 -1.5q-7 7 -11.5 17.5t-4.5 22.5q17 24 41 57.5t50.5 70.5t54 76t52 74t43.5 64q14 20 23 34h-92q-27 0 -45 -4t-30.5 -16t-20.5 -32.5t-15 -53.5q-12 0 -26.5 1.5t-25.5 6.5q3 33 5 70
t2 75z" />
    <glyph glyph-name="braceleft" unicode="{" horiz-adv-x="352" 
d="M277 741q9 -14 9 -27q-51 -17 -68.5 -49.5t-17.5 -73.5q0 -23 3.5 -47t7.5 -49l8 -49q4 -24 4 -47q0 -26 -5 -49.5t-19 -43.5t-39 -35.5t-64 -24.5q39 -10 63.5 -26t39 -37t20 -45.5t5.5 -51.5q0 -49 -10 -100.5t-10 -98.5q0 -22 4 -41.5t14 -36.5t27 -30t43 -21
q0 -10 -0.5 -16.5t-5.5 -12.5q-51 16 -82.5 38.5t-49.5 49.5t-24 57.5t-6 62.5q0 38 4.5 75t4.5 72q0 24 -4 46t-14.5 40.5t-30 33t-49.5 24.5q0 9 0.5 16t4.5 16q29 10 47.5 23.5t29 31t14.5 37.5t4 42q0 36 -6 76t-6 79q0 29 6 56.5t23 52.5t47 46t78 37z" />
    <glyph glyph-name="bar" unicode="|" horiz-adv-x="175" 
d="M62 712q15 0 27 -2t23 -9v-95q0 -53 -0.5 -113.5t-0.5 -126.5v-265q0 -66 0.5 -127.5t0.5 -115.5v-99q-11 0 -27 3t-23 8v942z" />
    <glyph glyph-name="braceright" unicode="}" horiz-adv-x="331" 
d="M48 741q48 -16 78 -37t47 -46t23 -52.5t6 -56.5q0 -39 -6 -79t-6 -76q0 -22 4 -42t14.5 -37.5t29 -31t47.5 -23.5q4 -9 4.5 -16t0.5 -16q-30 -10 -49.5 -24.5t-30 -33t-14.5 -40.5t-4 -46q0 -35 4.5 -72t4.5 -75q0 -32 -6 -62.5t-24 -57.5t-49.5 -49.5t-82.5 -38.5
q-5 6 -5.5 12.5t-0.5 16.5q52 16 70 50.5t18 78.5q0 47 -10 98.5t-10 100.5q0 27 5.5 51.5t20 45.5t39 37t63.5 26q-39 9 -64 24.5t-39 35.5t-19 43.5t-5 49.5q0 23 4 47l8 49q4 25 7.5 49t3.5 47q0 41 -17.5 73.5t-68.5 49.5q0 13 9 27z" />
    <glyph glyph-name="asciitilde" unicode="~" horiz-adv-x="585" 
d="M63 213q-18 8 -21 26q41 55 78 75.5t72 20.5q28 0 55 -9t53.5 -19.5t53.5 -19.5t54 -9q25 0 50.5 10t52.5 35q11 -1 17.5 -3.5t14.5 -9.5q-42 -54 -78 -74t-68 -20q-27 0 -52.5 9.5t-51 21.5t-51.5 21.5t-54 9.5q-29 0 -59.5 -14t-65.5 -51z" />
    <glyph glyph-name="uni00A0" unicode="&#xa0;" horiz-adv-x="200" 
 />
    <glyph glyph-name="exclamdown" unicode="&#xa1;" horiz-adv-x="411" 
d="M145 -242q-21 7 -18 31q5 46 10 101t9.5 113.5t8.5 118t6 115.5q12 0 24 -0.5t21 -4.5q4 -69 8.5 -128t9 -112t10 -102t12.5 -99q-10 -2 -24 -6t-28.5 -8.5t-27.5 -9.5t-21 -9zM180 357q-26 0 -40.5 17.5t-14.5 34.5q0 30 18 44t41 14q27 0 42 -15t15 -38t-17 -40
t-44 -17z" />
    <glyph glyph-name="cent" unicode="&#xa2;" horiz-adv-x="453" 
d="M412 78q-27 -43 -67 -65q-30 -16 -69 -20v-47q1 -41 1 -87q-11 0 -27 3t-23 8v122q-28 3 -55 14q-37 15 -66.5 44.5t-47.5 73.5t-18 103q0 45 13.5 88t40 77t64.5 54q31 16 69 20v146q15 0 27 -2t23 -9v-80q0 -26 -1 -55q75 -6 123 -44q-5 -29 -6 -57t-1 -57
q-8 -5 -21.5 -6.5t-24.5 -1.5q-6 58 -34 89q-16 17 -36 25v-366q67 0 111 58q8 -4 15 -11.5t10 -16.5zM161 374q-28 -46 -28 -132q0 -38 9.5 -73t27.5 -62t44 -43q6 -4 13 -7v362q-41 -5 -66 -45z" />
    <glyph glyph-name="sterling" unicode="&#xa3;" horiz-adv-x="600" 
d="M498 100q21 -3 38 -20q-25 -19 -51 -44.5t-39 -44.5q-33 0 -56 11q-17 7 -29.5 16.5t-27.5 18t-34 14.5t-49 6q-39 0 -72.5 -15.5t-67.5 -49.5q-21 8 -34 30q28 27 50.5 51.5t38 50t23.5 53.5t8 61q0 28 -7 51h-37q-39 0 -68 -1q0 16 2.5 25t8.5 21h78l-10 24
q-12 28 -22.5 60t-10.5 76q0 36 12 70.5t35.5 61.5t58.5 43t80 16q54 0 87.5 -8.5t66.5 -26.5q-3 -31 -2 -62.5t3 -69.5q-14 -7 -27.5 -8.5t-26.5 -0.5q-5 69 -32 99t-81 30q-38 0 -64 -30t-26 -78q0 -36 10.5 -62t23.5 -50t23 -50q7 -16 9 -34h118q0 -15 -2.5 -24.5
t-7.5 -20.5q-33 1 -63 1h-44q-3 -50 -23 -95.5t-61 -97.5q9 6 17 11q17 11 32.5 17t30 8t30.5 2q27 0 49 -8t40.5 -18t34 -18t29.5 -8q8 0 18 4t20 13z" />
    <glyph glyph-name="currency" unicode="&#xa4;" 
d="M270 75q-41 0 -75 15q-17 8 -33 18l-49 -50q-15 1 -23 4.5t-17 13.5l58 61q-19 23 -31 51q-13 33 -13 69q0 39 15 71q8 18 19 33l-54 55q7 7 16 12.5t23 6.5l45 -45q22 18 50 28q33 13 69 13t68 -13q24 -10 44 -25l45 46q13 -3 21 -7.5t16 -13.5l-53 -53q14 -17 23 -38
q14 -32 14 -70q0 -47 -18 -81q-10 -19 -22 -35l66 -64q-6 -8 -15.5 -13.5t-24.5 -6.5l-57 55q-22 -17 -48 -26q-31 -11 -59 -11zM261 391q-53 0 -85.5 -35t-32.5 -92q0 -26 10 -52t28 -47t42.5 -34t52.5 -13q53 0 85 35.5t32 95.5q0 26 -10 51.5t-27.5 45.5t-42 32.5
t-52.5 12.5z" />
    <glyph glyph-name="yen" unicode="&#xa5;" horiz-adv-x="630" 
d="M413 378h122q0 -15 -3 -25.5t-8 -21.5h-138l-20 -36v-42h167q0 -28 -12 -47h-155v-43q0 -40 2.5 -63t10.5 -35t23 -17t41 -8q6 -18 6 -43l-66 2q-33 1 -61 1h-36q-19 0 -38 -0.5t-35.5 -1t-26.5 -0.5q0 11 1.5 22t4.5 20q27 2 42.5 6.5t24 15.5t11 32t2.5 56v56h-167
q0 11 3 24t8 23l156 1v40l-22 37h-136q0 25 10 47h99l-118 200q-10 16 -17.5 27t-15.5 18t-17.5 10t-23.5 4q-4 11 -5 20.5t-1 20.5q21 -1 48 -1.5t56 -0.5h69q19 0 36 0.5t29 1.5q0 -11 -1 -19.5t-4 -19.5q-39 -4 -44.5 -20t17.5 -55q30 -52 64 -113q29 -52 54 -102
q24 47 50 94q30 56 56 101q28 49 20.5 68t-47.5 25q-3 11 -5 20.5t-2 20.5q18 -2 46 -2h52q23 0 46 0.5t40 1.5q0 -20 -4 -39q-14 -4 -25 -10.5t-23 -18.5t-25 -31t-29 -48z" />
    <glyph glyph-name="brokenbar" unicode="&#xa6;" horiz-adv-x="181" 
d="M62 712q15 0 27 -2t23 -9q0 -32 -1 -80t-1 -99q0 -22 0.5 -49.5t0.5 -54.5t0.5 -51t0.5 -38q-11 0 -27 3t-23 8v372zM62 173q15 0 27 -2t23 -9q0 -16 -0.5 -40t-0.5 -51t-0.5 -54.5t-0.5 -49.5q0 -19 0.5 -45t0.5 -54.5t0.5 -56.5t0.5 -52q-11 0 -27 3t-23 8v403z" />
    <glyph glyph-name="section" unicode="&#xa7;" horiz-adv-x="528" 
d="M383 23q18 -24 25.5 -50t7.5 -57q0 -32 -9 -60.5t-28.5 -50.5t-50 -34.5t-73.5 -12.5q-31 0 -54 4.5t-40 12t-30 16.5t-23 18q2 35 2 68.5t-3 66.5q11 3 25 4.5t26 1.5q4 -46 13.5 -74.5t23 -44.5t30.5 -21.5t36 -5.5q41 0 64 21.5t23 59.5q0 21 -4.5 37t-18 31.5
t-39.5 32t-69 38.5q-44 22 -73.5 45t-48 48.5t-26.5 55.5t-8 68q0 30 8.5 57t24.5 50t39 39q18 13 41 22q-2 2 -4 3q-28 23 -43.5 47.5t-20.5 50t-5 51.5q0 30 11 57.5t31.5 48.5t49 34t64.5 13q50 0 81.5 -13t51.5 -29q-2 -26 -2 -57t3 -60q-13 -4 -24.5 -6t-26.5 -2
q-6 37 -14.5 60.5t-19 37t-23.5 18.5t-28 5q-20 0 -36 -7t-27.5 -19t-17.5 -27t-6 -30q0 -18 3.5 -33t15.5 -29.5t35 -29.5t61 -32q51 -23 85.5 -44.5t56.5 -46t31.5 -54.5t9.5 -70q0 -32 -10 -61.5t-29.5 -54t-47.5 -42.5q-20 -12 -43 -20q29 -22 47 -45zM257 114l21 -11
q29 4 50 12q26 11 41.5 26.5t22 34.5t6.5 38q0 20 -5.5 38.5t-22 37t-47 38t-79.5 41.5q-10 4 -18 8q-47 -9 -72 -36q-27 -30 -27 -75q0 -21 5.5 -40t20 -37.5t39.5 -37t65 -37.5z" />
    <glyph glyph-name="dieresis" unicode="&#xa8;" 
d="M202 532q-26 0 -41.5 14.5t-15.5 36.5t13 39.5t42 17.5q30 0 43.5 -16t13.5 -39t-16 -38t-39 -15zM395 640q25 0 41 -14t16 -37q0 -21 -12 -38.5t-42 -17.5q-29 0 -44 15.5t-15 40.5q0 24 15.5 37.5t40.5 13.5z" />
    <glyph glyph-name="copyright" unicode="&#xa9;" horiz-adv-x="752" 
d="M78 230q0 -63 23 -117.5t63 -94.5t94.5 -62.5t117.5 -22.5t117.5 23t94.5 63t63 94t23 117t-23 117.5t-63 94.5t-94.5 63t-117.5 23t-117 -23t-94.5 -63t-63.5 -94.5t-23 -117.5zM35 230q0 72 26.5 134t72.5 108t108 72.5t134 26.5q71 0 133.5 -26.5t108.5 -72.5
t72.5 -108t26.5 -134q0 -71 -26.5 -133.5t-72.5 -108.5t-108.5 -72.5t-133.5 -26.5q-72 0 -134.5 26.5t-108.5 72t-72 108t-26 134.5zM385 453q46 0 77.5 -10.5t66.5 -32.5q-5 -27 -6 -53.5t-1 -53.5q-7 -4 -20 -5.5t-23 -1.5q-2 20 -7.5 40t-18.5 36t-33.5 26t-52.5 10
q-29 0 -48.5 -13.5t-31.5 -36.5t-17.5 -54t-5.5 -65q0 -35 7 -67.5t23 -58t40.5 -41t59.5 -15.5q29 0 60.5 10.5t59.5 40.5q11 -10 17 -24q-26 -38 -65.5 -58.5t-97.5 -20.5q-36 0 -71.5 14t-63 42t-44.5 69.5t-17 97.5q0 51 15.5 92.5t44 71t67.5 45.5t86 16z" />
    <glyph glyph-name="ordfeminine" unicode="&#xaa;" horiz-adv-x="416" 
d="M255 537q-21 -3 -41 -7.5t-36 -12.5t-25.5 -21.5t-9.5 -34.5q0 -26 12 -36.5t28 -10.5q12 0 24.5 5.5t23 17.5t17.5 31t7 46v23zM345 488q0 -38 8 -50t33 -12q0 -11 -1 -22.5t-5 -21.5q-26 -2 -51.5 -8.5t-44.5 -14.5q-10 3 -16.5 11.5t-6.5 25.5q0 11 1.5 19.5t2.5 15.5
q-4 -11 -11 -22.5t-19 -22.5q-14 -11 -33.5 -18.5t-46.5 -7.5q-53 0 -79 21.5t-26 62.5q0 31 16 53t44 37t65.5 24.5t79.5 15.5q0 40 -3.5 55.5t-13.5 26.5q-17 22 -46 22q-16 0 -27 -8t-18 -21t-10.5 -28t-4.5 -30q-13 0 -28.5 1.5t-25.5 5.5q2 20 1 42.5t-5 39.5
q31 17 67 27t75 10q36 0 58.5 -8t37.5 -24q9 -9 15.5 -19.5t10 -25t5.5 -33.5t2 -46v-73z" />
    <glyph glyph-name="guillemotleft" unicode="&#xab;" horiz-adv-x="504" 
d="M209 417q22 -3 35 -16q-13 -16 -27.5 -34.5t-28.5 -37t-26.5 -35.5t-21.5 -30q22 -39 46.5 -76t50.5 -71q-3 -23 -20 -34q-45 45 -84 82.5t-79 74.5q0 16 6 34q42 37 77.5 71t71.5 72zM362 413q21 -2 34 -15q-48 -68 -86 -131q19 -38 40.5 -77t41.5 -74q-6 -20 -23 -28
q-20 24 -37 43.5t-33 37.5t-32 35t-34 36q0 11 2 19.5t4 13.5q35 38 64 71t59 69z" />
    <glyph glyph-name="logicalnot" unicode="&#xac;" horiz-adv-x="537" 
d="M439 297h-183q-109 1 -230 -1q0 11 2.5 27.5t7.5 23.5h455v-231q-23 -14 -52 -14v195z" />
    <glyph glyph-name="uni00AD" unicode="&#xad;" horiz-adv-x="419" 
d="M359 299q0 -16 -3 -33.5t-10 -31.5q-27 0 -65.5 -0.5t-78.5 -1t-77.5 -1t-64.5 -1.5q0 17 4.5 36.5t11.5 32.5h283z" />
    <glyph glyph-name="registered" unicode="&#xae;" horiz-adv-x="495" 
d="M60 497q0 39 14.5 73.5t40 60t59.5 40t73 14.5q40 0 74.5 -14.5t59.5 -40t39.5 -60t14.5 -73.5q0 -40 -14.5 -74t-39.5 -59t-59.5 -39.5t-74.5 -14.5q-39 0 -73 14.5t-59.5 39.5t-40 59t-14.5 74zM93 497q0 -33 12 -61t32.5 -48.5t48.5 -32.5t61 -12q34 0 62.5 12
t49 32.5t32 48.5t11.5 61t-11.5 61.5t-32 49t-49 32.5t-62.5 12q-33 0 -61 -12t-48.5 -32.5t-32.5 -49t-12 -61.5zM282 494q-4 -2 -8 -3q10 -12 16 -20q7 -9 18 -25q14 -20 21.5 -25.5t21.5 -5.5v-10q0 -4 -2 -8q-11 0 -25 -0.5t-24 -2.5q-15 27 -29 48t-33 43q-3 1 -8 1
v-36q0 -20 4 -27t16 -9q2 -5 2.5 -9t0.5 -9q-11 1 -23 1h-38q-9 0 -26 -1v8q0 5 2 10q15 2 19.5 8.5t4.5 27.5v100q0 23 -4.5 29t-21.5 6q-2 4 -2 8v9h93q39 0 56 -14.5t17 -37.5q0 -14 -7.5 -25t-18 -19t-22.5 -12zM237 585q-2 0 -7 -2v-81q31 1 46.5 8.5t15.5 29.5
q0 19 -10.5 32t-37.5 13h-7z" />
    <glyph glyph-name="macron" unicode="&#xaf;" 
d="M451 631q0 -21 -9 -43h-45q-33 0 -80.5 -0.5t-106.5 -1t-123 -1.5q0 6 2 21.5t7 24.5h355z" />
    <glyph glyph-name="degree" unicode="&#xb0;" horiz-adv-x="384" 
d="M190 700q65 0 99.5 -34.5t34.5 -86.5q0 -26 -9.5 -49t-27 -40t-42.5 -26.5t-55 -9.5q-62 0 -96 35t-34 89q0 26 9.5 48t27 38.5t41 26t52.5 9.5zM184 662q-23 0 -38.5 -19.5t-15.5 -45.5q0 -47 22.5 -75t51.5 -28q21 0 35.5 18t14.5 56q0 44 -19 69t-51 25z" />
    <glyph glyph-name="plusminus" unicode="&#xb1;" 
d="M299 362h170q0 -15 -1.5 -26t-8.5 -22q-26 0 -45 0.5t-38 0.5t-42 -1h-35v-141q-7 -5 -23 -7.5t-27 -2.5q0 30 0.5 52.5t1 42t0.5 37.5v19h-53q-47 0 -114 -1q0 11 2.5 26.5t7.5 22.5h157v45q0 20 -0.5 45t-0.5 60q11 7 22.5 8.5t26.5 1.5v-160zM501 130q0 -15 -1.5 -26
t-8.5 -22q-42 0 -68 0.5t-47 0.5h-160q-29 0 -57.5 -0.5t-58.5 -1t-64 -0.5q0 11 2.5 26.5t7.5 22.5h455z" />
    <glyph glyph-name="twosuperior" unicode="&#xb2;" horiz-adv-x="370" 
d="M189 717q18 0 37 -4.5t34.5 -15.5t25.5 -28.5t10 -42.5q0 -39 -15.5 -65t-47.5 -55q-18 -17 -40.5 -36.5t-47.5 -41.5h80q24 0 38.5 12t16.5 44q11 0 20 -1t17 -3q0 -26 1.5 -50.5t6.5 -51.5q-4 -8 -11.5 -14t-20.5 -6q-23 0 -57.5 1t-70.5 1q-37 0 -68 -1t-48 -1
q-5 8 -7 16.5t-2 16.5q32 31 61 56.5t47 41.5q35 32 51 59t16 64q0 28 -15 45t-36 17q-25 0 -35.5 -22t-17.5 -77q-11 0 -25 1t-24 5q2 24 2 52t-3 51q31 18 59 25.5t69 7.5z" />
    <glyph glyph-name="twosuperior" unicode="&#x2072;" horiz-adv-x="370" 
d="M189 717q18 0 37 -4.5t34.5 -15.5t25.5 -28.5t10 -42.5q0 -39 -15.5 -65t-47.5 -55q-18 -17 -40.5 -36.5t-47.5 -41.5h80q24 0 38.5 12t16.5 44q11 0 20 -1t17 -3q0 -26 1.5 -50.5t6.5 -51.5q-4 -8 -11.5 -14t-20.5 -6q-23 0 -57.5 1t-70.5 1q-37 0 -68 -1t-48 -1
q-5 8 -7 16.5t-2 16.5q32 31 61 56.5t47 41.5q35 32 51 59t16 64q0 28 -15 45t-36 17q-25 0 -35.5 -22t-17.5 -77q-11 0 -25 1t-24 5q2 24 2 52t-3 51q31 18 59 25.5t69 7.5z" />
    <glyph glyph-name="threesuperior" unicode="&#xb3;" horiz-adv-x="369" 
d="M256 715q28 0 42 1q5 -9 6.5 -16.5t1.5 -18.5q-25 -27 -56 -65t-63 -80q26 2 50.5 -5.5t44 -24.5t31 -42.5t11.5 -58.5t-13 -62t-37 -50.5t-59 -34.5t-78 -13q-45 0 -69.5 12.5t-32.5 19.5q5 10 10 16t13 11q7 -6 25.5 -12.5t47.5 -6.5q18 0 37 7t35 21t26 34.5t10 47.5
q0 38 -22 64.5t-67 26.5q-8 0 -12.5 -0.5t-9.5 -2.5q-6 5 -10.5 10.5t-6.5 15.5q42 53 68.5 86t46.5 60h-62q-17 0 -27.5 -2.5t-18 -9t-14 -18.5t-13.5 -30q-9 0 -19.5 2t-17.5 7q4 31 5.5 59t1.5 53q17 -1 47 -1h148z" />
    <glyph glyph-name="threesuperior" unicode="&#x2073;" horiz-adv-x="369" 
d="M256 715q28 0 42 1q5 -9 6.5 -16.5t1.5 -18.5q-25 -27 -56 -65t-63 -80q26 2 50.5 -5.5t44 -24.5t31 -42.5t11.5 -58.5t-13 -62t-37 -50.5t-59 -34.5t-78 -13q-45 0 -69.5 12.5t-32.5 19.5q5 10 10 16t13 11q7 -6 25.5 -12.5t47.5 -6.5q18 0 37 7t35 21t26 34.5t10 47.5
q0 38 -22 64.5t-67 26.5q-8 0 -12.5 -0.5t-9.5 -2.5q-6 5 -10.5 10.5t-6.5 15.5q42 53 68.5 86t46.5 60h-62q-17 0 -27.5 -2.5t-18 -9t-14 -18.5t-13.5 -30q-9 0 -19.5 2t-17.5 7q4 31 5.5 59t1.5 53q17 -1 47 -1h148z" />
    <glyph glyph-name="acute" unicode="&#xb4;" 
d="M224 537q24 50 39.5 92t25.5 80q22 8 40.5 10.5t33.5 1.5q9 -1 16.5 -3t12.5 -4q-33 -38 -68 -87.5t-64 -95.5q-9 -1 -18.5 0.5t-17.5 5.5z" />
    <glyph glyph-name="mu" unicode="&#xb5;" horiz-adv-x="563" 
d="M422 -9q-9 3 -17 13t-8 36q0 20 2 40v9q-10 -22 -30 -42q-51 -51 -121 -51q-35 0 -63 9l-16 6v-51q0 -45 3.5 -74.5t10.5 -52.5q-12 -9 -21 -17t-16.5 -16.5t-15.5 -18.5t-18 -23q-8 3 -13 9.5t-7 12.5q2 22 5.5 50.5t3.5 84.5v410q0 18 -1.5 31t-8.5 21.5t-20 13
t-36 5.5q0 11 1 19.5t6 17.5q15 1 32.5 4.5t34.5 8t32.5 10t27.5 11.5q9 -3 15.5 -12.5t6.5 -31.5v-227q0 -76 20 -107.5t70 -31.5q20 0 40 10t35.5 31t25 53.5t9.5 76.5v102q0 18 -2.5 31t-10.5 21.5t-22.5 13t-39.5 5.5q0 11 1 19.5t6 17.5q39 2 76 10t60 19
q9 -3 15.5 -12.5t6.5 -31.5v-290q0 -16 2 -28q2 -13 9 -21.5t20 -13t36 -5.5q0 -11 -1 -21.5t-5 -21.5q-11 0 -28 -2.5t-34.5 -6.5t-33 -10t-24.5 -12z" />
    <glyph glyph-name="paragraph" unicode="&#xb6;" 
d="M277 317q-10 -1 -23 -1q-51 0 -91 9t-68.5 29.5t-43.5 54.5t-15 84q0 39 14 73t44.5 59t78 39t114.5 14q47 0 81.5 -1t70.5 -1h39q22 0 43 2q0 -11 -1 -21t-5 -21q-22 -1 -35.5 -6t-20.5 -15.5t-9 -26.5t-2 -38v-799q-26 0 -50 10v875q-24 3 -43 4h-18v-889
q-14 0 -26 1.5t-24 7.5v558q-5 -1 -10 -1zM220 634q-33 -7 -54 -23.5t-30 -44.5t-9 -70q0 -37 11.5 -63.5t31 -44t45 -25.5t53.5 -8h19v286q-39 -1 -67 -7z" />
    <glyph glyph-name="periodcentered" unicode="&#xb7;" horiz-adv-x="234" 
d="M114 330q24 0 42 -15t18 -38q0 -19 -12.5 -38t-43.5 -19q-29 0 -43.5 14.5t-14.5 37.5q0 27 16 42.5t38 15.5z" />
    <glyph glyph-name="cedilla" unicode="&#xb8;" 
d="M324 16l-48 -66q40 -7 63.5 -31t23.5 -60q0 -25 -12.5 -44t-32 -31.5t-42 -19t-41.5 -6.5q-4 7 -5.5 15.5t-1.5 16.5q30 0 54.5 14.5t24.5 40.5q0 25 -18.5 39.5t-46.5 14.5q-8 6 -13 15.5t-5 22.5l50 79h50z" />
    <glyph glyph-name="onesuperior" unicode="&#xb9;" horiz-adv-x="306" 
d="M194 459q0 -32 12.5 -46.5t42.5 -14.5q4 -19 4 -41q-23 2 -49.5 2.5t-49.5 0.5t-50 -0.5t-51 -2.5q0 11 1 21t3 20q30 0 42.5 14.5t12.5 46.5v153q0 30 -12.5 45t-42.5 15q-4 17 -4 42q8 -1 21 -1.5t27.5 -1t28.5 -0.5h24q19 0 49 0.5t50 2.5q0 -25 -4 -42
q-30 0 -42.5 -15t-12.5 -45v-153z" />
    <glyph glyph-name="onesuperior" unicode="&#x2071;" horiz-adv-x="306" 
d="M194 459q0 -32 12.5 -46.5t42.5 -14.5q4 -19 4 -41q-23 2 -49.5 2.5t-49.5 0.5t-50 -0.5t-51 -2.5q0 11 1 21t3 20q30 0 42.5 14.5t12.5 46.5v153q0 30 -12.5 45t-42.5 15q-4 17 -4 42q8 -1 21 -1.5t27.5 -1t28.5 -0.5h24q19 0 49 0.5t50 2.5q0 -25 -4 -42
q-30 0 -42.5 -15t-12.5 -45v-153z" />
    <glyph glyph-name="ordmasculine" unicode="&#xba;" horiz-adv-x="418" 
d="M132 554q0 -73 22.5 -114.5t62.5 -41.5q35 0 53.5 35t18.5 92q0 72 -25.5 112t-61.5 40q-35 0 -52.5 -34.5t-17.5 -88.5zM40 535q0 41 13 74.5t35.5 57.5t54 37t67.5 13q83 0 126 -49.5t43 -128.5q0 -41 -12 -74.5t-34.5 -57.5t-54 -37t-70.5 -13q-79 0 -123.5 48.5
t-44.5 129.5z" />
    <glyph glyph-name="guillemotright" unicode="&#xbb;" horiz-adv-x="520" 
d="M269 87q-16 10 -23 29q25 32 48 64.5t46 68.5l-23 34q-13 20 -27.5 41t-29.5 41.5t-28 38.5q17 14 37 14q36 -35 73 -67.5t77 -65.5q4 -8 5 -15.5t1 -16.5q-41 -41 -79.5 -82.5t-76.5 -83.5zM114 91q-9 5 -15.5 12.5t-11.5 15.5q20 31 39 63t39 67q-8 15 -19 34t-23 39
t-24.5 40.5t-23.5 37.5q16 14 39 14q30 -34 61 -66t65 -64q5 -13 5 -31q-34 -40 -66.5 -80t-64.5 -82z" />
    <glyph glyph-name="onequarter" unicode="&#xbc;" horiz-adv-x="778" 
d="M102 583q0 41 -15 55.5t-61 14.5q0 9 1.5 21t6.5 22q37 5 71 13.5t61 19.5q11 -4 15.5 -12.5t4.5 -31.5v-259q0 -32 3.5 -52.5t11 -32t19 -16t26.5 -5.5q2 -8 3 -19t1 -23q-11 1 -42.5 2t-66.5 1q-38 0 -65.5 -1t-43.5 -2q0 26 4 42q16 1 28.5 5t21 14.5t12.5 29.5t4 50
v164zM163 -8q-14 5 -24.5 12t-15.5 14l512 696q11 -3 22 -10.5t18 -15.5zM667 191h47q23 0 32 -10q-7 -14 -11.5 -28t-6.5 -34h-61v-8q0 -23 2.5 -36.5t8.5 -20.5t15.5 -9t23.5 -3q2 -6 3.5 -20t1.5 -25q-9 0 -21.5 0.5t-26.5 1.5l-28 1h-53l-30 -1q-15 -1 -27.5 -1.5
t-19.5 -0.5q0 11 1 25.5t3 19.5q17 1 29.5 3.5t20.5 10t11.5 20.5t3.5 35v7q-32 -1 -58 -1q-37 -1 -64.5 -2.5t-49.5 -3.5q-18 20 -18 49q25 31 53.5 67t58 74.5t58 78t54.5 77.5q26 0 48 -11v-255zM585 191v147l-108 -147h108z" />
    <glyph glyph-name="onehalf" unicode="&#xbd;" horiz-adv-x="877" 
d="M102 583q0 41 -15 55.5t-61 14.5q0 9 1.5 21t6.5 22q37 5 71 13.5t61 19.5q11 -4 15.5 -12.5t4.5 -31.5v-259q0 -32 3.5 -52.5t11 -32t19 -16t26.5 -5.5q2 -8 3 -19t1 -23q-11 1 -42.5 2t-66.5 1q-38 0 -65.5 -1t-43.5 -2q0 26 4 42q16 1 28.5 5t21 14.5t12.5 29.5t4 50
v164zM153 -8q-14 5 -24.5 12t-15.5 14l512 696q11 -3 22 -10.5t18 -15.5zM663 449q29 0 54.5 -6t45 -19t31 -33t11.5 -48q0 -42 -23 -76t-61 -69q-32 -30 -58 -57t-58 -63h123q24 0 38.5 9.5t14.5 36.5q12 1 23.5 0t20.5 -5q-1 -28 0.5 -55.5t6.5 -48.5q-5 -9 -16 -12.5
t-34 -3.5q-11 0 -39 0.5t-54 0.5q-45 0 -86.5 -0.5t-85.5 -0.5q-5 5 -7 13t-2 16q15 17 34 38t33 36l91 94q27 29 39.5 59t12.5 72q0 35 -17.5 59.5t-55.5 24.5q-35 0 -50 -22t-22 -69q-29 0 -49 7q3 20 3 41.5t-4 48.5q61 32 140 32z" />
    <glyph glyph-name="threequarters" unicode="&#xbe;" horiz-adv-x="829" 
d="M194 724q48 0 78 1t44 1q13 -15 13 -36q-29 -30 -60.5 -64.5t-66.5 -72.5q26 0 52 -7t47 -22t34 -38.5t13 -55.5q0 -36 -14.5 -65.5t-40 -49.5t-61.5 -31t-79 -11q-48 0 -76.5 12t-39.5 22q-1 10 3 20.5t11 18.5q12 -8 35.5 -16t58.5 -8q47 0 77.5 21t30.5 66
q0 18 -7.5 32t-20.5 23.5t-29 14.5t-33 5q-9 0 -17 -1t-16 -4q-7 6 -12.5 17.5t-6.5 18.5q32 36 65.5 73t57.5 66h-75q-25 0 -39.5 -13.5t-28.5 -50.5q-11 0 -23 3.5t-20 8.5q6 26 8 62t1 62q20 -1 55 -1.5t82 -0.5zM193 -8q-14 5 -24.5 12t-15.5 14l512 696q11 -3 22 -10.5
t18 -15.5zM715 191h47q23 0 32 -10q-7 -14 -11.5 -28t-6.5 -34h-61v-8q0 -23 2.5 -36.5t8.5 -20.5t15.5 -9t23.5 -3q2 -6 3.5 -20t1.5 -25q-9 0 -21.5 0.5t-26.5 1.5l-28 1h-53l-30 -1q-15 -1 -27.5 -1.5t-19.5 -0.5q0 11 1 25.5t3 19.5q17 1 29.5 3.5t20.5 10t11.5 20.5
t3.5 35v7q-32 -1 -58 -1q-37 -1 -64.5 -2.5t-49.5 -3.5q-18 20 -18 49q25 31 53.5 67t58 74.5t58 78t54.5 77.5q26 0 48 -11v-255zM633 191v147l-108 -147h108z" />
    <glyph glyph-name="questiondown" unicode="&#xbf;" horiz-adv-x="537" 
d="M251 -242q-71 0 -116 32t-45 94q0 48 22.5 83t50 68.5t50 70.5t22.5 88q0 12 -3 32.5t-8 34.5q9 5 17.5 6.5t18.5 1.5q17 -11 31.5 -44.5t14.5 -75.5q0 -49 -20 -81.5t-43.5 -59t-43.5 -53t-20 -62.5q0 -21 6.5 -38.5t18 -30t26 -19.5t30.5 -7q38 0 59 29.5t29 97.5
q14 0 30.5 -2.5t26.5 -7.5q-3 -35 -3.5 -59t3.5 -56q-25 -15 -61 -28.5t-93 -13.5zM251 352q-27 0 -42.5 18t-15.5 36q0 32 19 46.5t43 14.5q29 0 44.5 -15.5t15.5 -39.5q0 -25 -17.5 -42.5t-46.5 -17.5z" />
    <glyph glyph-name="Agrave" unicode="&#xc0;" horiz-adv-x="704" 
d="M319 678q17 4 39 4l238 -546q12 -28 21.5 -46t18 -28.5t17 -15t20.5 -6.5q4 -13 5 -22t1 -21q-8 0 -22 0.5t-31 1.5l-33 1h-28q-12 0 -28.5 -0.5t-32.5 -1t-30.5 -1t-21.5 -0.5q0 12 1 23t6 20q21 2 32.5 6t15.5 12.5t1 22.5t-13 37l-44 102q-65 0 -137 -1
q-69 -1 -128 -3l-26 -69q-23 -59 -14 -81.5t50 -25.5q7 -17 7 -43q-17 2 -43.5 2.5t-51.5 0.5t-47 -1t-36 -2q0 10 1.5 21.5t5.5 20.5q13 3 23 9t19 18t17.5 31.5t20.5 49.5zM205 265h227l-76 178q-7 15 -12.5 28t-11 26.5t-11.5 27.5q-4 12 -10 26q-10 -33 -19 -57
q-9 -26 -18 -50zM370 752q-9 -5 -19.5 -4.5t-20.5 2.5q-35 54 -65 94.5t-62 74.5q20 10 45.5 11t50.5 -3q13 -43 30 -86.5t41 -88.5z" />
    <glyph glyph-name="Aacute" unicode="&#xc1;" horiz-adv-x="704" 
d="M319 678q17 4 39 4l238 -546q12 -28 21.5 -46t18 -28.5t17 -15t20.5 -6.5q4 -13 5 -22t1 -21q-8 0 -22 0.5t-31 1.5l-33 1h-28q-12 0 -28.5 -0.5t-32.5 -1t-30.5 -1t-21.5 -0.5q0 12 1 23t6 20q21 2 32.5 6t15.5 12.5t1 22.5t-13 37l-44 102q-65 0 -137 -1
q-69 -1 -128 -3l-26 -69q-23 -59 -14 -81.5t50 -25.5q7 -17 7 -43q-17 2 -43.5 2.5t-51.5 0.5t-47 -1t-36 -2q0 10 1.5 21.5t5.5 20.5q13 3 23 9t19 18t17.5 31.5t20.5 49.5zM205 265h227l-76 178q-7 15 -12.5 28t-11 26.5t-11.5 27.5q-4 12 -10 26q-10 -33 -19 -57
q-9 -26 -18 -50zM298 752q24 50 39.5 92t25.5 80q22 8 40.5 10.5t33.5 1.5q9 -1 16.5 -3t12.5 -4q-33 -38 -68 -87.5t-64 -95.5q-9 -1 -18.5 0.5t-17.5 5.5z" />
    <glyph glyph-name="Acircumflex" unicode="&#xc2;" horiz-adv-x="704" 
d="M319 678q17 4 39 4l238 -546q12 -28 21.5 -46t18 -28.5t17 -15t20.5 -6.5q4 -13 5 -22t1 -21q-8 0 -22 0.5t-31 1.5l-33 1h-28q-12 0 -28.5 -0.5t-32.5 -1t-30.5 -1t-21.5 -0.5q0 12 1 23t6 20q21 2 32.5 6t15.5 12.5t1 22.5t-13 37l-44 102q-65 0 -137 -1
q-69 -1 -128 -3l-26 -69q-23 -59 -14 -81.5t50 -25.5q7 -17 7 -43q-17 2 -43.5 2.5t-51.5 0.5t-47 -1t-36 -2q0 10 1.5 21.5t5.5 20.5q13 3 23 9t19 18t17.5 31.5t20.5 49.5zM205 265h227l-76 178q-7 15 -12.5 28t-11 26.5t-11.5 27.5q-4 12 -10 26q-10 -33 -19 -57
q-9 -26 -18 -50zM170 770q38 29 80.5 69t76.5 81q8 2 17 3t15 1q27 -37 64 -80t82 -88q-10 -13 -30 -18q-16 11 -34 24l-36 26q-18 13 -36 24.5t-34 20.5q-12 -6 -32.5 -19t-43.5 -28t-44.5 -30t-33.5 -24q-7 7 -9 19t-2 19z" />
    <glyph glyph-name="Atilde" unicode="&#xc3;" horiz-adv-x="704" 
d="M319 678q17 4 39 4l238 -546q12 -28 21.5 -46t18 -28.5t17 -15t20.5 -6.5q4 -13 5 -22t1 -21q-8 0 -22 0.5t-31 1.5l-33 1h-28q-12 0 -28.5 -0.5t-32.5 -1t-30.5 -1t-21.5 -0.5q0 12 1 23t6 20q21 2 32.5 6t15.5 12.5t1 22.5t-13 37l-44 102q-65 0 -137 -1
q-69 -1 -128 -3l-26 -69q-23 -59 -14 -81.5t50 -25.5q7 -17 7 -43q-17 2 -43.5 2.5t-51.5 0.5t-47 -1t-36 -2q0 10 1.5 21.5t5.5 20.5q13 3 23 9t19 18t17.5 31.5t20.5 49.5zM205 265h227l-76 178q-7 15 -12.5 28t-11 26.5t-11.5 27.5q-4 12 -10 26q-10 -33 -19 -57
q-9 -26 -18 -50zM201 732q-10 6 -10 19q30 53 57 72t52 19q18 0 34.5 -6.5t33 -14t32.5 -14t33 -6.5q15 0 30 7t31 24q4 0 9.5 -1.5t9.5 -6.5q-26 -56 -50 -76t-47 -20q-17 0 -33.5 6.5t-33.5 15t-34.5 15t-36.5 6.5q-18 0 -37 -8.5t-40 -30.5z" />
    <glyph glyph-name="Adieresis" unicode="&#xc4;" horiz-adv-x="704" 
d="M319 678q17 4 39 4l238 -546q12 -28 21.5 -46t18 -28.5t17 -15t20.5 -6.5q4 -13 5 -22t1 -21q-8 0 -22 0.5t-31 1.5l-33 1h-28q-12 0 -28.5 -0.5t-32.5 -1t-30.5 -1t-21.5 -0.5q0 12 1 23t6 20q21 2 32.5 6t15.5 12.5t1 22.5t-13 37l-44 102q-65 0 -137 -1
q-69 -1 -128 -3l-26 -69q-23 -59 -14 -81.5t50 -25.5q7 -17 7 -43q-17 2 -43.5 2.5t-51.5 0.5t-47 -1t-36 -2q0 10 1.5 21.5t5.5 20.5q13 3 23 9t19 18t17.5 31.5t20.5 49.5zM205 265h227l-76 178q-7 15 -12.5 28t-11 26.5t-11.5 27.5q-4 12 -10 26q-10 -33 -19 -57
q-9 -26 -18 -50zM246 747q-26 0 -41.5 14.5t-15.5 36.5t13 39.5t42 17.5q30 0 43.5 -16t13.5 -39t-16 -38t-39 -15zM439 855q25 0 41 -14t16 -37q0 -21 -12 -38.5t-42 -17.5q-29 0 -44 15.5t-15 40.5q0 24 15.5 37.5t40.5 13.5z" />
    <glyph glyph-name="Aring" unicode="&#xc5;" horiz-adv-x="704" 
d="M319 678q17 4 39 4l238 -546q12 -28 21.5 -46t18 -28.5t17 -15t20.5 -6.5q4 -13 5 -22t1 -21q-8 0 -22 0.5t-31 1.5l-33 1h-28q-12 0 -28.5 -0.5t-32.5 -1t-30.5 -1t-21.5 -0.5q0 12 1 23t6 20q21 2 32.5 6t15.5 12.5t1 22.5t-13 37l-44 102q-65 0 -137 -1
q-69 -1 -128 -3l-26 -69q-23 -59 -14 -81.5t50 -25.5q7 -17 7 -43q-17 2 -43.5 2.5t-51.5 0.5t-47 -1t-36 -2q0 10 1.5 21.5t5.5 20.5q13 3 23 9t19 18t17.5 31.5t20.5 49.5zM205 265h227l-76 178q-7 15 -12.5 28t-11 26.5t-11.5 27.5q-4 12 -10 26q-10 -33 -19 -57
q-9 -26 -18 -50zM235 829q0 40 30 67t74 27q18 0 36 -5t31.5 -16t22 -27.5t8.5 -38.5q0 -41 -30 -68t-75 -27q-19 0 -36.5 6t-31 17.5t-21.5 28t-8 36.5zM290 833q0 -23 13.5 -39t38.5 -16q16 0 28.5 12.5t12.5 35.5q0 21 -12.5 42t-38.5 21q-19 0 -30.5 -15t-11.5 -41z" />
    <glyph glyph-name="AE" unicode="&#xc6;" horiz-adv-x="956" 
d="M733 0h-200q-57 -1 -106 -2q0 11 1 22.5t6 19.5q19 3 31.5 7.5t19.5 15t10 28.5t3 47v160q-41 0 -73 -1q-40 -1 -70 -2q-22 -1 -42 -2q-19 -34 -36 -65q-26 -46 -41 -73q-18 -33 -24 -54.5t-3 -34t14.5 -19t29.5 -9.5q7 -17 7 -41q-23 2 -51.5 2.5t-53.5 0.5t-51.5 -0.5
t-41.5 -2.5q0 10 1.5 21.5t5.5 20.5q12 1 23 6t23 17t27 33.5t35 56.5l234 404q23 39 13.5 56.5t-57.5 22.5q-4 9 -5 20.5t-1 22.5q19 0 41.5 -0.5t44.5 -1t41 -0.5h240q78 1 124 2q1 -17 3.5 -37.5t5 -41.5t5.5 -41.5t7 -36.5q-8 -7 -19.5 -9.5t-25.5 -2.5q-2 23 -9.5 46
t-26 41t-49.5 29t-79 11h-72v-295h51q60 0 80.5 21t20.5 59q15 4 25 5.5t24 1.5q0 -8 -0.5 -21t-1 -28.5t-0.5 -32.5v-59q0 -16 0.5 -32t1 -30t0.5 -22q-14 0 -24.5 0.5t-21.5 4.5q-2 19 -6.5 35.5t-16 28.5t-32.5 19t-57 7h-43v-160q0 -32 5 -50.5t14 -28t22 -12.5
q8 -1 17 -2h38q47 0 76 8t47.5 24t29.5 39.5t22 54.5q15 -5 25 -10t19 -14q-11 -35 -18.5 -74.5t-12.5 -74.5q-31 0 -68 0.5t-75 1.5zM498 571q0 14 1 29q1 13 2 28l-8 -18q-6 -13 -14 -27.5t-20 -36.5q-28 -48 -61 -105q-29 -51 -57 -100h157v230z" />
    <glyph glyph-name="Ccedilla" unicode="&#xc7;" horiz-adv-x="653" 
d="M369 685q63 0 114.5 -13t107.5 -39q-8 -35 -9.5 -74t-1.5 -81q-13 -5 -25 -7t-28 -2q-2 53 -13 87t-30.5 53.5t-46.5 27t-60 7.5q-63 0 -108 -23t-73.5 -61.5t-42 -88t-13.5 -101.5q0 -67 17.5 -125t50 -101t80 -67.5t107.5 -24.5q48 0 98 16t92 43q6 -5 11.5 -14.5
t6.5 -16.5q-30 -23 -58.5 -39.5t-58.5 -27.5t-63 -16q-28 -5 -61 -6l-30 -41q40 -7 63.5 -31t23.5 -60q0 -25 -12.5 -44t-32 -31.5t-42 -19t-41.5 -6.5q-4 7 -5.5 15.5t-1.5 16.5q30 0 54.5 14.5t24.5 40.5q0 25 -18.5 39.5t-46.5 14.5q-8 6 -13 15.5t-5 22.5l35 56
q-48 5 -91 23q-58 26 -100 72.5t-65.5 111.5t-23.5 143q0 86 28.5 150t75 107t106.5 64t124 21z" />
    <glyph glyph-name="Egrave" unicode="&#xc8;" horiz-adv-x="584" 
d="M307 752q-9 -5 -19.5 -4.5t-20.5 2.5q-35 54 -65 94.5t-62 74.5q20 10 45.5 11t50.5 -3q13 -43 30 -86.5t41 -88.5zM486 679q1 -17 3.5 -37.5t5 -42t5.5 -42t7 -36.5q-8 -7 -19.5 -9.5t-25.5 -2.5q-2 23 -9.5 46t-26 41t-49.5 29t-79 11h-72v-274h42q31 0 52 3.5t34 12.5
t19 25t6 40q13 4 23.5 5.5t24.5 1.5q-2 -26 -2 -55v-112q0 -32 2 -58q-14 0 -24.5 1t-21.5 4q-2 26 -8.5 43t-19.5 27.5t-33.5 14.5t-51.5 4h-42v-181q0 -28 3.5 -46t13.5 -28.5t27.5 -14.5t45.5 -4h6q46 0 75 8t47.5 24t30 39.5t22.5 54.5q15 -5 25 -10t19 -14
q-11 -35 -18.5 -74.5t-12.5 -74.5q-15 0 -36.5 0.5t-47.5 1t-54 0.5h-121q-37 0 -73.5 -0.5t-69 -1t-51.5 -1.5q0 29 5 43q20 1 33.5 5.5t21.5 15.5t11.5 29.5t3.5 47.5v411q0 50 -14.5 67.5t-54.5 19.5q-3 8 -4 19.5t-1 23.5q15 -1 38 -1.5t47.5 -1t46.5 -0.5h36
q103 0 169 1t91 2z" />
    <glyph glyph-name="Eacute" unicode="&#xc9;" horiz-adv-x="584" 
d="M275 752q24 50 39.5 92t25.5 80q22 8 40.5 10.5t33.5 1.5q9 -1 16.5 -3t12.5 -4q-33 -38 -68 -87.5t-64 -95.5q-9 -1 -18.5 0.5t-17.5 5.5zM486 679q1 -17 3.5 -37.5t5 -42t5.5 -42t7 -36.5q-8 -7 -19.5 -9.5t-25.5 -2.5q-2 23 -9.5 46t-26 41t-49.5 29t-79 11h-72v-274
h42q31 0 52 3.5t34 12.5t19 25t6 40q13 4 23.5 5.5t24.5 1.5q-2 -26 -2 -55v-112q0 -32 2 -58q-14 0 -24.5 1t-21.5 4q-2 26 -8.5 43t-19.5 27.5t-33.5 14.5t-51.5 4h-42v-181q0 -28 3.5 -46t13.5 -28.5t27.5 -14.5t45.5 -4h6q46 0 75 8t47.5 24t30 39.5t22.5 54.5
q15 -5 25 -10t19 -14q-11 -35 -18.5 -74.5t-12.5 -74.5q-15 0 -36.5 0.5t-47.5 1t-54 0.5h-121q-37 0 -73.5 -0.5t-69 -1t-51.5 -1.5q0 29 5 43q20 1 33.5 5.5t21.5 15.5t11.5 29.5t3.5 47.5v411q0 50 -14.5 67.5t-54.5 19.5q-3 8 -4 19.5t-1 23.5q15 -1 38 -1.5t47.5 -1
t46.5 -0.5h36q103 0 169 1t91 2z" />
    <glyph glyph-name="Ecircumflex" unicode="&#xca;" horiz-adv-x="584" 
d="M124 770q38 29 80.5 69t76.5 81q8 2 17 3t15 1q27 -37 64 -80t82 -88q-10 -13 -30 -18q-16 11 -34 24l-36 26q-18 13 -36 24.5t-34 20.5q-12 -6 -32.5 -19t-43.5 -28t-44.5 -30t-33.5 -24q-7 7 -9 19t-2 19zM486 679q1 -17 3.5 -37.5t5 -42t5.5 -42t7 -36.5
q-8 -7 -19.5 -9.5t-25.5 -2.5q-2 23 -9.5 46t-26 41t-49.5 29t-79 11h-72v-274h42q31 0 52 3.5t34 12.5t19 25t6 40q13 4 23.5 5.5t24.5 1.5q-2 -26 -2 -55v-112q0 -32 2 -58q-14 0 -24.5 1t-21.5 4q-2 26 -8.5 43t-19.5 27.5t-33.5 14.5t-51.5 4h-42v-181q0 -28 3.5 -46
t13.5 -28.5t27.5 -14.5t45.5 -4h6q46 0 75 8t47.5 24t30 39.5t22.5 54.5q15 -5 25 -10t19 -14q-11 -35 -18.5 -74.5t-12.5 -74.5q-15 0 -36.5 0.5t-47.5 1t-54 0.5h-121q-37 0 -73.5 -0.5t-69 -1t-51.5 -1.5q0 29 5 43q20 1 33.5 5.5t21.5 15.5t11.5 29.5t3.5 47.5v411
q0 50 -14.5 67.5t-54.5 19.5q-3 8 -4 19.5t-1 23.5q15 -1 38 -1.5t47.5 -1t46.5 -0.5h36q103 0 169 1t91 2z" />
    <glyph glyph-name="Edieresis" unicode="&#xcb;" horiz-adv-x="584" 
d="M184 747q-26 0 -41.5 14.5t-15.5 36.5t13 39.5t42 17.5q30 0 43.5 -16t13.5 -39t-16 -38t-39 -15zM377 855q25 0 41 -14t16 -37q0 -21 -12 -38.5t-42 -17.5q-29 0 -44 15.5t-15 40.5q0 24 15.5 37.5t40.5 13.5zM486 679q1 -17 3.5 -37.5t5 -42t5.5 -42t7 -36.5
q-8 -7 -19.5 -9.5t-25.5 -2.5q-2 23 -9.5 46t-26 41t-49.5 29t-79 11h-72v-274h42q31 0 52 3.5t34 12.5t19 25t6 40q13 4 23.5 5.5t24.5 1.5q-2 -26 -2 -55v-112q0 -32 2 -58q-14 0 -24.5 1t-21.5 4q-2 26 -8.5 43t-19.5 27.5t-33.5 14.5t-51.5 4h-42v-181q0 -28 3.5 -46
t13.5 -28.5t27.5 -14.5t45.5 -4h6q46 0 75 8t47.5 24t30 39.5t22.5 54.5q15 -5 25 -10t19 -14q-11 -35 -18.5 -74.5t-12.5 -74.5q-15 0 -36.5 0.5t-47.5 1t-54 0.5h-121q-37 0 -73.5 -0.5t-69 -1t-51.5 -1.5q0 29 5 43q20 1 33.5 5.5t21.5 15.5t11.5 29.5t3.5 47.5v411
q0 50 -14.5 67.5t-54.5 19.5q-3 8 -4 19.5t-1 23.5q15 -1 38 -1.5t47.5 -1t46.5 -0.5h36q103 0 169 1t91 2z" />
    <glyph glyph-name="Igrave" unicode="&#xcc;" horiz-adv-x="376" 
d="M152 549q0 50 -14.5 67.5t-54.5 19.5q-5 14 -5 43q55 -3 121 -3q32 0 61.5 0.5t59.5 2.5q0 -29 -5 -43q-40 -2 -54.5 -19.5t-14.5 -67.5v-422q0 -50 14.5 -67.5t54.5 -19.5q5 -14 5 -43q-60 3 -121 3q-29 0 -62 -0.5t-59 -2.5q0 29 5 43q40 2 54.5 19.5t14.5 67.5v422z
M224 752q-9 -5 -19.5 -4.5t-20.5 2.5q-35 54 -65 94.5t-62 74.5q20 10 45.5 11t50.5 -3q13 -43 30 -86.5t41 -88.5z" />
    <glyph glyph-name="Iacute" unicode="&#xcd;" horiz-adv-x="380" 
d="M131 549q0 50 -14.5 67.5t-54.5 19.5q-5 14 -5 43q55 -3 121 -3q32 0 61.5 0.5t59.5 2.5q0 -29 -5 -43q-40 -2 -54.5 -19.5t-14.5 -67.5v-422q0 -50 14.5 -67.5t54.5 -19.5q5 -14 5 -43q-60 3 -121 3q-29 0 -62 -0.5t-59 -2.5q0 29 5 43q40 2 54.5 19.5t14.5 67.5v422z
M157 752q24 50 39.5 92t25.5 80q22 8 40.5 10.5t33.5 1.5q9 -1 16.5 -3t12.5 -4q-33 -38 -68 -87.5t-64 -95.5q-9 -1 -18.5 0.5t-17.5 5.5z" />
    <glyph glyph-name="Icircumflex" unicode="&#xce;" horiz-adv-x="448" 
d="M168 549q0 50 -14.5 67.5t-54.5 19.5q-5 14 -5 43q55 -3 121 -3q32 0 61.5 0.5t59.5 2.5q0 -29 -5 -43q-40 -2 -54.5 -19.5t-14.5 -67.5v-422q0 -50 14.5 -67.5t54.5 -19.5q5 -14 5 -43q-60 3 -121 3q-29 0 -62 -0.5t-59 -2.5q0 29 5 43q40 2 54.5 19.5t14.5 67.5v422z
M53 770q38 29 80.5 69t76.5 81q8 2 17 3t15 1q27 -37 64 -80t82 -88q-10 -13 -30 -18q-16 11 -34 24l-36 26q-18 13 -36 24.5t-34 20.5q-12 -6 -32.5 -19t-43.5 -28t-44.5 -30t-33.5 -24q-7 7 -9 19t-2 19z" />
    <glyph glyph-name="Idieresis" unicode="&#xcf;" horiz-adv-x="420" 
d="M166 549q0 50 -14.5 67.5t-54.5 19.5q-5 14 -5 43q55 -3 121 -3q32 0 61.5 0.5t59.5 2.5q0 -29 -5 -43q-40 -2 -54.5 -19.5t-14.5 -67.5v-422q0 -50 14.5 -67.5t54.5 -19.5q5 -14 5 -43q-60 3 -121 3q-29 0 -62 -0.5t-59 -2.5q0 29 5 43q40 2 54.5 19.5t14.5 67.5v422z
M115 747q-26 0 -41.5 14.5t-15.5 36.5t13 39.5t42 17.5q30 0 43.5 -16t13.5 -39t-16 -38t-39 -15zM308 855q25 0 41 -14t16 -37q0 -21 -12 -38.5t-42 -17.5q-29 0 -44 15.5t-15 40.5q0 24 15.5 37.5t40.5 13.5z" />
    <glyph glyph-name="Eth" unicode="&#xd0;" horiz-adv-x="727" 
d="M54 679q10 -1 25.5 -1.5t32.5 -1t35 -0.5h34q33 0 66 1t65 1q66 0 134 -12t122.5 -46.5t89 -98t34.5 -166.5q0 -81 -20.5 -139t-53 -97t-74 -63t-83.5 -36t-81.5 -16t-67.5 -4h-65q-37 0 -73.5 -0.5t-69 -1t-51.5 -1.5q0 29 5 43q20 1 33.5 5.5t21.5 15.5t11.5 29.5
t3.5 47.5v110h-36q-22 0 -57 -2q0 11 3 27.5t8 23.5h82v252q0 50 -14.5 67.5t-54.5 19.5q-3 8 -4 19.5t-1 23.5zM222 138q0 -28 3.5 -46t13.5 -28.5t27.5 -14.5t45.5 -4q60 0 110.5 14.5t87.5 48.5t58 90.5t21 141.5q0 81 -24.5 138t-65.5 93t-94 52.5t-109 16.5
q-18 0 -39.5 -2.5t-34.5 -6.5v-334h179q0 -15 -2 -27t-9 -23q-26 0 -47.5 0.5t-42.5 0.5h-78v-110z" />
    <glyph glyph-name="Ntilde" unicode="&#xd1;" horiz-adv-x="758" 
d="M513 679q22 -2 47.5 -2.5t46.5 -0.5t48 0.5t47 2.5q0 -10 -1 -21t-4 -22q-17 0 -28 -7t-18 -23.5t-10 -43.5t-3 -68v-498q-8 -3 -19 -4t-22 -1l-415 542v-346q0 -42 3 -70.5t11 -45.5t21.5 -24t33.5 -7q3 -9 4 -19t1 -24q-23 2 -50 2.5t-49 0.5t-51.5 -0.5t-48.5 -2.5
q0 13 1 23.5t4 19.5q20 0 33.5 7t21.5 24t11 45.5t3 70.5v413l-4 5q-14 18 -27 23.5t-38 7.5q-3 11 -4 23t-1 20q15 -2 35 -2.5t39 -0.5q40 0 67 3l389 -516v331q0 41 -3 68t-11 43.5t-21.5 23.5t-33.5 7q-3 17 -4 25.5t-1 17.5zM236 732q-10 6 -10 19q30 53 57 72t52 19
q18 0 34.5 -6.5t33 -14t32.5 -14t33 -6.5q15 0 30 7t31 24q4 0 9.5 -1.5t9.5 -6.5q-26 -56 -50 -76t-47 -20q-17 0 -33.5 6.5t-33.5 15t-34.5 15t-36.5 6.5q-18 0 -37 -8.5t-40 -30.5z" />
    <glyph glyph-name="Ograve" unicode="&#xd2;" horiz-adv-x="731" 
d="M35 340q0 76 25.5 139.5t70 109.5t105 71t129.5 25q72 0 132.5 -25t104.5 -70.5t69 -109t25 -140.5q0 -74 -24.5 -137.5t-68.5 -110.5t-104.5 -74t-133.5 -27q-74 0 -135 26.5t-104.5 73.5t-67 110.5t-23.5 138.5zM138 367q0 -63 16 -122t47.5 -104.5t77.5 -73t106 -27.5
q49 0 87.5 21.5t65.5 58.5t41 87t14 107q0 67 -19 126t-52 103t-78.5 69t-99.5 25q-44 0 -82 -19.5t-65.5 -55t-43 -85t-15.5 -110.5zM393 752q-9 -5 -19.5 -4.5t-20.5 2.5q-35 54 -65 94.5t-62 74.5q20 10 45.5 11t50.5 -3q13 -43 30 -86.5t41 -88.5z" />
    <glyph glyph-name="Oacute" unicode="&#xd3;" horiz-adv-x="731" 
d="M35 340q0 76 25.5 139.5t70 109.5t105 71t129.5 25q72 0 132.5 -25t104.5 -70.5t69 -109t25 -140.5q0 -74 -24.5 -137.5t-68.5 -110.5t-104.5 -74t-133.5 -27q-74 0 -135 26.5t-104.5 73.5t-67 110.5t-23.5 138.5zM138 367q0 -63 16 -122t47.5 -104.5t77.5 -73t106 -27.5
q49 0 87.5 21.5t65.5 58.5t41 87t14 107q0 67 -19 126t-52 103t-78.5 69t-99.5 25q-44 0 -82 -19.5t-65.5 -55t-43 -85t-15.5 -110.5zM340 752q24 50 39.5 92t25.5 80q22 8 40.5 10.5t33.5 1.5q9 -1 16.5 -3t12.5 -4q-33 -38 -68 -87.5t-64 -95.5q-9 -1 -18.5 0.5t-17.5 5.5
z" />
    <glyph glyph-name="Ocircumflex" unicode="&#xd4;" horiz-adv-x="731" 
d="M35 340q0 76 25.5 139.5t70 109.5t105 71t129.5 25q72 0 132.5 -25t104.5 -70.5t69 -109t25 -140.5q0 -74 -24.5 -137.5t-68.5 -110.5t-104.5 -74t-133.5 -27q-74 0 -135 26.5t-104.5 73.5t-67 110.5t-23.5 138.5zM138 367q0 -63 16 -122t47.5 -104.5t77.5 -73t106 -27.5
q49 0 87.5 21.5t65.5 58.5t41 87t14 107q0 67 -19 126t-52 103t-78.5 69t-99.5 25q-44 0 -82 -19.5t-65.5 -55t-43 -85t-15.5 -110.5zM200 770q38 29 80.5 69t76.5 81q8 2 17 3t15 1q27 -37 64 -80t82 -88q-10 -13 -30 -18q-16 11 -34 24l-36 26q-18 13 -36 24.5t-34 20.5
q-12 -6 -32.5 -19t-43.5 -28t-44.5 -30t-33.5 -24q-7 7 -9 19t-2 19z" />
    <glyph glyph-name="Otilde" unicode="&#xd5;" horiz-adv-x="731" 
d="M35 340q0 76 25.5 139.5t70 109.5t105 71t129.5 25q72 0 132.5 -25t104.5 -70.5t69 -109t25 -140.5q0 -74 -24.5 -137.5t-68.5 -110.5t-104.5 -74t-133.5 -27q-74 0 -135 26.5t-104.5 73.5t-67 110.5t-23.5 138.5zM138 367q0 -63 16 -122t47.5 -104.5t77.5 -73t106 -27.5
q49 0 87.5 21.5t65.5 58.5t41 87t14 107q0 67 -19 126t-52 103t-78.5 69t-99.5 25q-44 0 -82 -19.5t-65.5 -55t-43 -85t-15.5 -110.5zM221 732q-10 6 -10 19q30 53 57 72t52 19q18 0 34.5 -6.5t33 -14t32.5 -14t33 -6.5q15 0 30 7t31 24q4 0 9.5 -1.5t9.5 -6.5
q-26 -56 -50 -76t-47 -20q-17 0 -33.5 6.5t-33.5 15t-34.5 15t-36.5 6.5q-18 0 -37 -8.5t-40 -30.5z" />
    <glyph glyph-name="Odieresis" unicode="&#xd6;" horiz-adv-x="731" 
d="M35 340q0 76 25.5 139.5t70 109.5t105 71t129.5 25q72 0 132.5 -25t104.5 -70.5t69 -109t25 -140.5q0 -74 -24.5 -137.5t-68.5 -110.5t-104.5 -74t-133.5 -27q-74 0 -135 26.5t-104.5 73.5t-67 110.5t-23.5 138.5zM138 367q0 -63 16 -122t47.5 -104.5t77.5 -73t106 -27.5
q49 0 87.5 21.5t65.5 58.5t41 87t14 107q0 67 -19 126t-52 103t-78.5 69t-99.5 25q-44 0 -82 -19.5t-65.5 -55t-43 -85t-15.5 -110.5zM269 747q-26 0 -41.5 14.5t-15.5 36.5t13 39.5t42 17.5q30 0 43.5 -16t13.5 -39t-16 -38t-39 -15zM462 855q25 0 41 -14t16 -37
q0 -21 -12 -38.5t-42 -17.5q-29 0 -44 15.5t-15 40.5q0 24 15.5 37.5t40.5 13.5z" />
    <glyph glyph-name="multiply" unicode="&#xd7;" horiz-adv-x="619" 
d="M116 -9q-16 0 -31 4t-24 15l208 221q-113 106 -229 215q9 11 22 17.5t30 6.5l213 -201l201 213q16 -4 26.5 -10t20.5 -17q-40 -41 -95.5 -99t-115.5 -122l235 -219q-18 -24 -55 -24q-107 103 -215 205q-43 -45 -85 -90q-59 -63 -106 -115z" />
    <glyph glyph-name="Oslash" unicode="&#xd8;" horiz-adv-x="731" 
d="M35 340q0 76 25.5 139.5t70 109.5t105 71t129.5 25q72 0 132 -25q30 -12 55 -29l52 70q15 0 28 -3t23 -13l-64 -85l11 -11q44 -45 69 -108.5t25 -140.5q0 -74 -24.5 -137.5t-68.5 -110.5t-104.5 -74t-133.5 -27q-74 0 -135 26q-36 16 -66 38l-66 -84q-14 0 -26.5 6.5
t-17.5 15.5l75 94l-4 4q-43 47 -66.5 110.5t-23.5 138.5zM279 67q46 -27 106 -27q49 0 87.5 21.5t65.5 58.5t41 87t14 107q0 67 -19 126q-16 50 -42 89l-314 -410q26 -31 61 -52zM138 367q0 -63 16 -122q13 -47 35 -86l312 408q-26 27 -58 45q-45 25 -99 25q-44 0 -82 -19.5
t-65.5 -55t-43 -85t-15.5 -110.5z" />
    <glyph glyph-name="Ugrave" unicode="&#xd9;" horiz-adv-x="705" 
d="M585 269q0 -43 -2.5 -76.5t-9 -60t-17.5 -47t-28 -37.5q-29 -29 -70 -43t-92 -14q-70 0 -117 15.5t-75.5 46t-40.5 75.5t-12 103v318q0 27 -2.5 43t-9 25t-18 13t-29.5 6q-3 11 -4 22t-1 21q20 -2 52.5 -2.5t63.5 -0.5t62 0.5t54 2.5q0 -10 -1 -21t-4 -22
q-22 -2 -35.5 -5.5t-21 -12.5t-10 -25.5t-2.5 -43.5v-304q0 -42 8 -79t27.5 -64t52 -42.5t82.5 -15.5q25 0 55 8.5t51 29.5q12 12 20 26t13 35t7.5 49.5t2.5 68.5v248q0 36 -2.5 59.5t-10 38t-21 21t-35.5 8.5q-3 15 -4 23.5t-1 19.5q17 -2 44 -2.5t50 -0.5t49 0.5t46 2.5
q0 -7 -1 -16.5t-4 -26.5q-17 -2 -28.5 -8.5t-18.5 -20.5t-9.5 -38t-2.5 -60v-240zM395 752q-9 -5 -19.5 -4.5t-20.5 2.5q-35 54 -65 94.5t-62 74.5q20 10 45.5 11t50.5 -3q13 -43 30 -86.5t41 -88.5z" />
    <glyph glyph-name="Uacute" unicode="&#xda;" horiz-adv-x="705" 
d="M585 269q0 -43 -2.5 -76.5t-9 -60t-17.5 -47t-28 -37.5q-29 -29 -70 -43t-92 -14q-70 0 -117 15.5t-75.5 46t-40.5 75.5t-12 103v318q0 27 -2.5 43t-9 25t-18 13t-29.5 6q-3 11 -4 22t-1 21q20 -2 52.5 -2.5t63.5 -0.5t62 0.5t54 2.5q0 -10 -1 -21t-4 -22
q-22 -2 -35.5 -5.5t-21 -12.5t-10 -25.5t-2.5 -43.5v-304q0 -42 8 -79t27.5 -64t52 -42.5t82.5 -15.5q25 0 55 8.5t51 29.5q12 12 20 26t13 35t7.5 49.5t2.5 68.5v248q0 36 -2.5 59.5t-10 38t-21 21t-35.5 8.5q-3 15 -4 23.5t-1 19.5q17 -2 44 -2.5t50 -0.5t49 0.5t46 2.5
q0 -7 -1 -16.5t-4 -26.5q-17 -2 -28.5 -8.5t-18.5 -20.5t-9.5 -38t-2.5 -60v-240zM368 752q24 50 39.5 92t25.5 80q22 8 40.5 10.5t33.5 1.5q9 -1 16.5 -3t12.5 -4q-33 -38 -68 -87.5t-64 -95.5q-9 -1 -18.5 0.5t-17.5 5.5z" />
    <glyph glyph-name="Ucircumflex" unicode="&#xdb;" horiz-adv-x="705" 
d="M585 269q0 -43 -2.5 -76.5t-9 -60t-17.5 -47t-28 -37.5q-29 -29 -70 -43t-92 -14q-70 0 -117 15.5t-75.5 46t-40.5 75.5t-12 103v318q0 27 -2.5 43t-9 25t-18 13t-29.5 6q-3 11 -4 22t-1 21q20 -2 52.5 -2.5t63.5 -0.5t62 0.5t54 2.5q0 -10 -1 -21t-4 -22
q-22 -2 -35.5 -5.5t-21 -12.5t-10 -25.5t-2.5 -43.5v-304q0 -42 8 -79t27.5 -64t52 -42.5t82.5 -15.5q25 0 55 8.5t51 29.5q12 12 20 26t13 35t7.5 49.5t2.5 68.5v248q0 36 -2.5 59.5t-10 38t-21 21t-35.5 8.5q-3 15 -4 23.5t-1 19.5q17 -2 44 -2.5t50 -0.5t49 0.5t46 2.5
q0 -7 -1 -16.5t-4 -26.5q-17 -2 -28.5 -8.5t-18.5 -20.5t-9.5 -38t-2.5 -60v-240zM207 770q38 29 80.5 69t76.5 81q8 2 17 3t15 1q27 -37 64 -80t82 -88q-10 -13 -30 -18q-16 11 -34 24l-36 26q-18 13 -36 24.5t-34 20.5q-12 -6 -32.5 -19t-43.5 -28t-44.5 -30t-33.5 -24
q-7 7 -9 19t-2 19z" />
    <glyph glyph-name="Udieresis" unicode="&#xdc;" horiz-adv-x="705" 
d="M585 269q0 -43 -2.5 -76.5t-9 -60t-17.5 -47t-28 -37.5q-29 -29 -70 -43t-92 -14q-70 0 -117 15.5t-75.5 46t-40.5 75.5t-12 103v318q0 27 -2.5 43t-9 25t-18 13t-29.5 6q-3 11 -4 22t-1 21q20 -2 52.5 -2.5t63.5 -0.5t62 0.5t54 2.5q0 -10 -1 -21t-4 -22
q-22 -2 -35.5 -5.5t-21 -12.5t-10 -25.5t-2.5 -43.5v-304q0 -42 8 -79t27.5 -64t52 -42.5t82.5 -15.5q25 0 55 8.5t51 29.5q12 12 20 26t13 35t7.5 49.5t2.5 68.5v248q0 36 -2.5 59.5t-10 38t-21 21t-35.5 8.5q-3 15 -4 23.5t-1 19.5q17 -2 44 -2.5t50 -0.5t49 0.5t46 2.5
q0 -7 -1 -16.5t-4 -26.5q-17 -2 -28.5 -8.5t-18.5 -20.5t-9.5 -38t-2.5 -60v-240zM282 747q-26 0 -41.5 14.5t-15.5 36.5t13 39.5t42 17.5q30 0 43.5 -16t13.5 -39t-16 -38t-39 -15zM475 855q25 0 41 -14t16 -37q0 -21 -12 -38.5t-42 -17.5q-29 0 -44 15.5t-15 40.5
q0 24 15.5 37.5t40.5 13.5z" />
    <glyph glyph-name="Yacute" unicode="&#xdd;" horiz-adv-x="630" 
d="M366 295v-132q0 -40 2.5 -63t10.5 -35t23 -17t41 -8q6 -18 6 -43l-66 2q-33 1 -61 1h-36q-19 0 -38 -0.5t-35.5 -1t-26.5 -0.5q0 11 1.5 22t4.5 20q27 2 42.5 6.5t24 15.5t11 32t2.5 56v144l-167 284q-10 16 -17.5 27t-15.5 18t-17.5 10t-23.5 4q-4 11 -5 20.5t-1 20.5
q21 -1 48 -1.5t56 -0.5h69q19 0 36 0.5t29 1.5q0 -11 -1 -19.5t-4 -19.5q-39 -4 -44.5 -20t17.5 -55q30 -52 64 -113q29 -52 54 -102q24 47 50 94q30 56 56 101q28 49 20.5 68t-47.5 25q-3 11 -5 20.5t-2 20.5q18 -2 46 -2h52q23 0 46 0.5t40 1.5q0 -20 -4 -39
q-14 -4 -25 -10.5t-23 -18.5t-25 -31t-29 -48zM319 752q24 50 39.5 92t25.5 80q22 8 40.5 10.5t33.5 1.5q9 -1 16.5 -3t12.5 -4q-33 -38 -68 -87.5t-64 -95.5q-9 -1 -18.5 0.5t-17.5 5.5z" />
    <glyph glyph-name="Thorn" unicode="&#xde;" horiz-adv-x="606" 
d="M130 549q0 50 -14.5 67.5t-54.5 19.5q-5 14 -5 43q55 -3 121 -3q32 0 61.5 0.5t59.5 2.5q0 -29 -5 -43q-40 -2 -54.5 -19.5t-14.5 -67.5v-11q11 1 23 1q23 0 47 0.5t45 0.5q55 0 95 -14.5t66 -40t38.5 -59.5t12.5 -72q0 -36 -14 -72t-42.5 -65t-71 -47.5t-99.5 -18.5
q-21 0 -38.5 2.5t-31.5 7.5q-2 8 -1.5 17t2.5 16q13 -3 26 -4t29 -1q28 0 54 6t46.5 22.5t33 44t12.5 71.5q0 37 -10 68t-31 53.5t-53 35t-77 12.5q-17 0 -31 -2q-11 -1 -30 -5v-368q0 -50 14.5 -67.5t54.5 -19.5q5 -14 5 -43q-60 3 -121 3q-29 0 -62 -0.5t-59 -2.5
q0 29 5 43q40 2 54.5 19.5t14.5 67.5v422z" />
    <glyph glyph-name="germandbls" unicode="&#xdf;" horiz-adv-x="591" 
d="M116 392q-12 5 -37 8.5t-43 3.5q0 9 3 21.5t11 22.5h66v40q0 58 20 101t51.5 71t69.5 41.5t73 13.5q36 0 63.5 -11t46 -30t27.5 -43t9 -51q0 -31 -8.5 -52.5t-21 -38t-27.5 -29t-27.5 -24.5t-21 -25t-8.5 -30q0 -26 14.5 -43t36.5 -31t47 -27.5t47 -32.5t36.5 -46
t14.5 -68q0 -28 -12 -53t-32.5 -44.5t-47.5 -31t-56 -11.5q-23 0 -40.5 2t-32.5 6.5t-28 12t-27 17.5q2 23 2.5 52t-1.5 55q7 5 21 8t26 3q6 -65 24 -93t62 -28q26 0 45.5 23.5t19.5 61.5q0 27 -14.5 45.5t-37 32.5t-48 27t-48 29.5t-37 39.5t-14.5 58q0 28 10 47.5t25 35
t32 27.5t32 25.5t25 30t10 39.5q0 22 -9 42t-25 35t-38 24t-47 9q-23 0 -40 -6.5t-28.5 -22.5t-17 -43.5t-5.5 -68.5v-521q-13 1 -31.5 1.5t-44.5 0.5t-49 -0.5t-39 -2.5q0 29 5 43q40 2 54.5 19.5t14.5 67.5v265z" />
    <glyph glyph-name="agrave" unicode="&#xe0;" horiz-adv-x="483" 
d="M306 227q-26 -3 -54 -8.5t-51 -16.5t-38.5 -30.5t-15.5 -52.5q0 -37 18 -54t41 -17q16 0 33.5 8t32.5 25t24.5 43.5t9.5 64.5v38zM396 149q0 -48 10.5 -64t46.5 -16q0 -11 -1.5 -24.5t-5.5 -22.5q-26 -4 -55.5 -12.5t-50.5 -18.5q-10 4 -17.5 15t-7.5 34q0 15 1 25t1 17
q-4 -13 -11.5 -26t-25.5 -29q-17 -15 -41.5 -24.5t-58.5 -9.5q-65 0 -97.5 28t-32.5 78q0 49 28.5 79.5t69 49t84 27t74.5 13.5q0 31 -1 51t-3 33.5t-6.5 22.5t-10.5 17q-24 30 -64 30q-23 0 -39 -12t-26.5 -29.5t-15 -37.5t-5.5 -37q-11 0 -27.5 1.5t-24.5 5.5q2 25 1 55.5
t-6 53.5q40 20 84 32.5t91 12.5q34 0 58 -10.5t43 -28.5q13 -13 21 -28t12.5 -35.5t6.5 -46.5t2 -62v-107zM282 537q-9 -5 -19.5 -4.5t-20.5 2.5q-35 54 -65 94.5t-62 74.5q20 10 45.5 11t50.5 -3q13 -43 30 -86.5t41 -88.5z" />
    <glyph glyph-name="aacute" unicode="&#xe1;" horiz-adv-x="483" 
d="M306 227q-26 -3 -54 -8.5t-51 -16.5t-38.5 -30.5t-15.5 -52.5q0 -37 18 -54t41 -17q16 0 33.5 8t32.5 25t24.5 43.5t9.5 64.5v38zM396 149q0 -48 10.5 -64t46.5 -16q0 -11 -1.5 -24.5t-5.5 -22.5q-26 -4 -55.5 -12.5t-50.5 -18.5q-10 4 -17.5 15t-7.5 34q0 15 1 25t1 17
q-4 -13 -11.5 -26t-25.5 -29q-17 -15 -41.5 -24.5t-58.5 -9.5q-65 0 -97.5 28t-32.5 78q0 49 28.5 79.5t69 49t84 27t74.5 13.5q0 31 -1 51t-3 33.5t-6.5 22.5t-10.5 17q-24 30 -64 30q-23 0 -39 -12t-26.5 -29.5t-15 -37.5t-5.5 -37q-11 0 -27.5 1.5t-24.5 5.5q2 25 1 55.5
t-6 53.5q40 20 84 32.5t91 12.5q34 0 58 -10.5t43 -28.5q13 -13 21 -28t12.5 -35.5t6.5 -46.5t2 -62v-107zM211 537q24 50 39.5 92t25.5 80q22 8 40.5 10.5t33.5 1.5q9 -1 16.5 -3t12.5 -4q-33 -38 -68 -87.5t-64 -95.5q-9 -1 -18.5 0.5t-17.5 5.5z" />
    <glyph glyph-name="acircumflex" unicode="&#xe2;" horiz-adv-x="483" 
d="M306 227q-26 -3 -54 -8.5t-51 -16.5t-38.5 -30.5t-15.5 -52.5q0 -37 18 -54t41 -17q16 0 33.5 8t32.5 25t24.5 43.5t9.5 64.5v38zM396 149q0 -48 10.5 -64t46.5 -16q0 -11 -1.5 -24.5t-5.5 -22.5q-26 -4 -55.5 -12.5t-50.5 -18.5q-10 4 -17.5 15t-7.5 34q0 15 1 25t1 17
q-4 -13 -11.5 -26t-25.5 -29q-17 -15 -41.5 -24.5t-58.5 -9.5q-65 0 -97.5 28t-32.5 78q0 49 28.5 79.5t69 49t84 27t74.5 13.5q0 31 -1 51t-3 33.5t-6.5 22.5t-10.5 17q-24 30 -64 30q-23 0 -39 -12t-26.5 -29.5t-15 -37.5t-5.5 -37q-11 0 -27.5 1.5t-24.5 5.5q2 25 1 55.5
t-6 53.5q40 20 84 32.5t91 12.5q34 0 58 -10.5t43 -28.5q13 -13 21 -28t12.5 -35.5t6.5 -46.5t2 -62v-107zM61 555q38 29 80.5 69t76.5 81q8 2 17 3t15 1q27 -37 64 -80t82 -88q-10 -13 -30 -18q-16 11 -34 24l-36 26q-18 13 -36 24.5t-34 20.5q-12 -6 -32.5 -19t-43.5 -28
t-44.5 -30t-33.5 -24q-7 7 -9 19t-2 19z" />
    <glyph glyph-name="atilde" unicode="&#xe3;" horiz-adv-x="483" 
d="M306 227q-26 -3 -54 -8.5t-51 -16.5t-38.5 -30.5t-15.5 -52.5q0 -37 18 -54t41 -17q16 0 33.5 8t32.5 25t24.5 43.5t9.5 64.5v38zM396 149q0 -48 10.5 -64t46.5 -16q0 -11 -1.5 -24.5t-5.5 -22.5q-26 -4 -55.5 -12.5t-50.5 -18.5q-10 4 -17.5 15t-7.5 34q0 15 1 25t1 17
q-4 -13 -11.5 -26t-25.5 -29q-17 -15 -41.5 -24.5t-58.5 -9.5q-65 0 -97.5 28t-32.5 78q0 49 28.5 79.5t69 49t84 27t74.5 13.5q0 31 -1 51t-3 33.5t-6.5 22.5t-10.5 17q-24 30 -64 30q-23 0 -39 -12t-26.5 -29.5t-15 -37.5t-5.5 -37q-11 0 -27.5 1.5t-24.5 5.5q2 25 1 55.5
t-6 53.5q40 20 84 32.5t91 12.5q34 0 58 -10.5t43 -28.5q13 -13 21 -28t12.5 -35.5t6.5 -46.5t2 -62v-107zM92 517q-10 6 -10 19q30 53 57 72t52 19q18 0 34.5 -6.5t33 -14t32.5 -14t33 -6.5q15 0 30 7t31 24q4 0 9.5 -1.5t9.5 -6.5q-26 -56 -50 -76t-47 -20
q-17 0 -33.5 6.5t-33.5 15t-34.5 15t-36.5 6.5q-18 0 -37 -8.5t-40 -30.5z" />
    <glyph glyph-name="adieresis" unicode="&#xe4;" horiz-adv-x="483" 
d="M306 227q-26 -3 -54 -8.5t-51 -16.5t-38.5 -30.5t-15.5 -52.5q0 -37 18 -54t41 -17q16 0 33.5 8t32.5 25t24.5 43.5t9.5 64.5v38zM396 149q0 -48 10.5 -64t46.5 -16q0 -11 -1.5 -24.5t-5.5 -22.5q-26 -4 -55.5 -12.5t-50.5 -18.5q-10 4 -17.5 15t-7.5 34q0 15 1 25t1 17
q-4 -13 -11.5 -26t-25.5 -29q-17 -15 -41.5 -24.5t-58.5 -9.5q-65 0 -97.5 28t-32.5 78q0 49 28.5 79.5t69 49t84 27t74.5 13.5q0 31 -1 51t-3 33.5t-6.5 22.5t-10.5 17q-24 30 -64 30q-23 0 -39 -12t-26.5 -29.5t-15 -37.5t-5.5 -37q-11 0 -27.5 1.5t-24.5 5.5q2 25 1 55.5
t-6 53.5q40 20 84 32.5t91 12.5q34 0 58 -10.5t43 -28.5q13 -13 21 -28t12.5 -35.5t6.5 -46.5t2 -62v-107zM150 532q-26 0 -41.5 14.5t-15.5 36.5t13 39.5t42 17.5q30 0 43.5 -16t13.5 -39t-16 -38t-39 -15zM343 640q25 0 41 -14t16 -37q0 -21 -12 -38.5t-42 -17.5
q-29 0 -44 15.5t-15 40.5q0 24 15.5 37.5t40.5 13.5z" />
    <glyph glyph-name="aring" unicode="&#xe5;" horiz-adv-x="483" 
d="M306 227q-26 -3 -54 -8.5t-51 -16.5t-38.5 -30.5t-15.5 -52.5q0 -37 18 -54t41 -17q16 0 33.5 8t32.5 25t24.5 43.5t9.5 64.5v38zM396 149q0 -48 10.5 -64t46.5 -16q0 -11 -1.5 -24.5t-5.5 -22.5q-26 -4 -55.5 -12.5t-50.5 -18.5q-10 4 -17.5 15t-7.5 34q0 15 1 25t1 17
q-4 -13 -11.5 -26t-25.5 -29q-17 -15 -41.5 -24.5t-58.5 -9.5q-65 0 -97.5 28t-32.5 78q0 49 28.5 79.5t69 49t84 27t74.5 13.5q0 31 -1 51t-3 33.5t-6.5 22.5t-10.5 17q-24 30 -64 30q-23 0 -39 -12t-26.5 -29.5t-15 -37.5t-5.5 -37q-11 0 -27.5 1.5t-24.5 5.5q2 25 1 55.5
t-6 53.5q40 20 84 32.5t91 12.5q34 0 58 -10.5t43 -28.5q13 -13 21 -28t12.5 -35.5t6.5 -46.5t2 -62v-107zM139 614q0 40 30 67t74 27q18 0 36 -5t31.5 -16t22 -27.5t8.5 -38.5q0 -41 -30 -68t-75 -27q-19 0 -36.5 6t-31 17.5t-21.5 28t-8 36.5zM194 618q0 -23 13.5 -39
t38.5 -16q16 0 28.5 12.5t12.5 35.5q0 21 -12.5 42t-38.5 21q-19 0 -30.5 -15t-11.5 -41z" />
    <glyph glyph-name="ae" unicode="&#xe6;" horiz-adv-x="684" 
d="M492 240q-57 -3 -110 -8v-2q0 -30 6 -62.5t20.5 -59t37 -44t55.5 -17.5q49 0 77.5 19t45.5 42q7 -5 15 -13.5t10 -16.5q-33 -45 -75.5 -64.5t-94.5 -19.5q-50 0 -85.5 21t-59.5 54q-11 16 -20 33q-1 -5 -3 -10q-8 -25 -18 -39q-39 -59 -122 -59q-66 0 -99.5 26.5
t-33.5 76.5q0 49 26 80.5t65 50t84 27.5q41 8 76 13v53q0 51 -25.5 76t-58.5 25q-24 0 -39 -11t-25 -27.5t-14.5 -37.5t-7.5 -40q-11 0 -28 1.5t-24 5.5q2 25 1 55.5t-6 53.5q42 20 83 32.5t92 12.5q40 0 71 -19q24 -15 42 -44q24 31 54 45q40 18 81 18q39 0 68.5 -17
t50 -43.5t31 -59t12.5 -64.5q-2 -10 -5.5 -20t-10.5 -18q-73 -2 -139 -5zM263 87q26 40 26 131v5q-76 -8 -116 -29q-42 -23 -42 -78q0 -21 6.5 -34t16 -21t21 -11t22.5 -3q40 0 66 40zM382 277q35 4 72 6q44 3 96 5q0 21 -4.5 44.5t-15 43.5t-27.5 33t-43 13q-40 0 -59 -37
t-19 -98v-10z" />
    <glyph glyph-name="ccedilla" unicode="&#xe7;" horiz-adv-x="450" 
d="M412 78q-27 -43 -67 -65q-35 -19 -82 -22l-30 -41q40 -7 63.5 -31t23.5 -60q0 -25 -12.5 -44t-32 -31.5t-42 -19t-41.5 -6.5q-4 7 -5.5 15.5t-1.5 16.5q30 0 54.5 14.5t24.5 40.5q0 25 -18.5 39.5t-46.5 14.5q-8 6 -13 15.5t-5 22.5l35 57q-22 3 -44 12
q-37 15 -66.5 44.5t-47.5 73.5t-18 103q0 45 13.5 88t40 77t65 54.5t89.5 20.5q94 0 151 -45q-5 -29 -6 -57t-1 -57q-8 -5 -21.5 -6.5t-24.5 -1.5q-6 58 -34 89t-72 31q-50 0 -78.5 -46t-28.5 -132q0 -38 9.5 -73t27.5 -62t44.5 -43t61.5 -16q67 0 111 58q8 -4 15 -11.5
t10 -16.5z" />
    <glyph glyph-name="egrave" unicode="&#xe8;" horiz-adv-x="474" 
d="M203 223q-33 -1 -64 -3q1 -22 5 -43q7 -36 23.5 -65t44.5 -47t72 -18q33 0 65 14.5t57 43.5q8 -5 15 -14t9 -17q-35 -45 -79 -64t-99 -19q-53 0 -93 19t-66.5 51t-39.5 75.5t-13 92.5q0 48 14.5 91t41 76t65 52t86.5 19q49 0 83 -16.5t56 -44.5t33.5 -65.5t14.5 -80.5
q-4 -20 -15 -34h-51q-34 0 -76.5 -0.5t-88.5 -2.5zM146 332q-6 -25 -8 -61h192q0 66 -24 107t-68 41q-18 0 -36 -7.5t-32.5 -27t-23.5 -52.5zM265 537q-9 -5 -19.5 -4.5t-20.5 2.5q-35 54 -65 94.5t-62 74.5q20 10 45.5 11t50.5 -3q13 -43 30 -86.5t41 -88.5z" />
    <glyph glyph-name="eacute" unicode="&#xe9;" horiz-adv-x="474" 
d="M203 223q-33 -1 -64 -3q1 -22 5 -43q7 -36 23.5 -65t44.5 -47t72 -18q33 0 65 14.5t57 43.5q8 -5 15 -14t9 -17q-35 -45 -79 -64t-99 -19q-53 0 -93 19t-66.5 51t-39.5 75.5t-13 92.5q0 48 14.5 91t41 76t65 52t86.5 19q49 0 83 -16.5t56 -44.5t33.5 -65.5t14.5 -80.5
q-4 -20 -15 -34h-51q-34 0 -76.5 -0.5t-88.5 -2.5zM146 332q-6 -25 -8 -61h192q0 66 -24 107t-68 41q-18 0 -36 -7.5t-32.5 -27t-23.5 -52.5zM224 537q24 50 39.5 92t25.5 80q22 8 40.5 10.5t33.5 1.5q9 -1 16.5 -3t12.5 -4q-33 -38 -68 -87.5t-64 -95.5q-9 -1 -18.5 0.5
t-17.5 5.5z" />
    <glyph glyph-name="ecircumflex" unicode="&#xea;" horiz-adv-x="474" 
d="M203 223q-33 -1 -64 -3q1 -22 5 -43q7 -36 23.5 -65t44.5 -47t72 -18q33 0 65 14.5t57 43.5q8 -5 15 -14t9 -17q-35 -45 -79 -64t-99 -19q-53 0 -93 19t-66.5 51t-39.5 75.5t-13 92.5q0 48 14.5 91t41 76t65 52t86.5 19q49 0 83 -16.5t56 -44.5t33.5 -65.5t14.5 -80.5
q-4 -20 -15 -34h-51q-34 0 -76.5 -0.5t-88.5 -2.5zM146 332q-6 -25 -8 -61h192q0 66 -24 107t-68 41q-18 0 -36 -7.5t-32.5 -27t-23.5 -52.5zM80 555q38 29 80.5 69t76.5 81q8 2 17 3t15 1q27 -37 64 -80t82 -88q-10 -13 -30 -18q-16 11 -34 24l-36 26q-18 13 -36 24.5
t-34 20.5q-12 -6 -32.5 -19t-43.5 -28t-44.5 -30t-33.5 -24q-7 7 -9 19t-2 19z" />
    <glyph glyph-name="edieresis" unicode="&#xeb;" horiz-adv-x="474" 
d="M203 223q-33 -1 -64 -3q1 -22 5 -43q7 -36 23.5 -65t44.5 -47t72 -18q33 0 65 14.5t57 43.5q8 -5 15 -14t9 -17q-35 -45 -79 -64t-99 -19q-53 0 -93 19t-66.5 51t-39.5 75.5t-13 92.5q0 48 14.5 91t41 76t65 52t86.5 19q49 0 83 -16.5t56 -44.5t33.5 -65.5t14.5 -80.5
q-4 -20 -15 -34h-51q-34 0 -76.5 -0.5t-88.5 -2.5zM146 332q-6 -25 -8 -61h192q0 66 -24 107t-68 41q-18 0 -36 -7.5t-32.5 -27t-23.5 -52.5zM153 532q-26 0 -41.5 14.5t-15.5 36.5t13 39.5t42 17.5q30 0 43.5 -16t13.5 -39t-16 -38t-39 -15zM346 640q25 0 41 -14t16 -37
q0 -21 -12 -38.5t-42 -17.5q-29 0 -44 15.5t-15 40.5q0 24 15.5 37.5t40.5 13.5z" />
    <glyph glyph-name="igrave" unicode="&#xec;" horiz-adv-x="320" 
d="M156 537q-9 -5 -19.5 -4.5t-20.5 2.5q-35 54 -65 94.5t-62 74.5q20 10 45.5 11t50.5 -3q13 -43 30 -86.5t41 -88.5zM201 127q0 -50 13.5 -68.5t45.5 -18.5q3 -11 4 -23.5t1 -19.5q-26 2 -55 2.5t-58 0.5t-59.5 -0.5t-55.5 -2.5q0 10 1 21.5t4 21.5q40 0 54.5 18.5
t14.5 68.5v198q0 18 -2 31t-10 22t-23 13.5t-40 4.5q0 11 2 20t7 17q11 0 30 3t39 7.5t38 11t27 12.5q9 -3 15.5 -12t6.5 -28v-300z" />
    <glyph glyph-name="iacute" unicode="&#xed;" horiz-adv-x="324" 
d="M125 537q24 50 39.5 92t25.5 80q22 8 40.5 10.5t33.5 1.5q9 -1 16.5 -3t12.5 -4q-33 -38 -68 -87.5t-64 -95.5q-9 -1 -18.5 0.5t-17.5 5.5zM201 127q0 -50 13.5 -68.5t45.5 -18.5q3 -11 4 -23.5t1 -19.5q-26 2 -55 2.5t-58 0.5t-59.5 -0.5t-55.5 -2.5q0 10 1 21.5t4 21.5
q40 0 54.5 18.5t14.5 68.5v198q0 18 -2 31t-10 22t-23 13.5t-40 4.5q0 11 2 20t7 17q11 0 30 3t39 7.5t38 11t27 12.5q9 -3 15.5 -12t6.5 -28v-300z" />
    <glyph glyph-name="icircumflex" unicode="&#xee;" horiz-adv-x="313" 
d="M-14 555q38 29 80.5 69t76.5 81q8 2 17 3t15 1q27 -37 64 -80t82 -88q-10 -13 -30 -18q-16 11 -34 24l-36 26q-18 13 -36 24.5t-34 20.5q-12 -6 -32.5 -19t-43.5 -28t-44.5 -30t-33.5 -24q-7 7 -9 19t-2 19zM201 127q0 -50 13.5 -68.5t45.5 -18.5q3 -11 4 -23.5t1 -19.5
q-26 2 -55 2.5t-58 0.5t-59.5 -0.5t-55.5 -2.5q0 10 1 21.5t4 21.5q40 0 54.5 18.5t14.5 68.5v198q0 18 -2 31t-10 22t-23 13.5t-40 4.5q0 11 2 20t7 17q11 0 30 3t39 7.5t38 11t27 12.5q9 -3 15.5 -12t6.5 -28v-300z" />
    <glyph glyph-name="idieresis" unicode="&#xef;" horiz-adv-x="298" 
d="M50 532q-26 0 -41.5 14.5t-15.5 36.5t13 39.5t42 17.5q30 0 43.5 -16t13.5 -39t-16 -38t-39 -15zM243 640q25 0 41 -14t16 -37q0 -21 -12 -38.5t-42 -17.5q-29 0 -44 15.5t-15 40.5q0 24 15.5 37.5t40.5 13.5zM201 127q0 -50 13.5 -68.5t45.5 -18.5q3 -11 4 -23.5
t1 -19.5q-26 2 -55 2.5t-58 0.5t-59.5 -0.5t-55.5 -2.5q0 10 1 21.5t4 21.5q40 0 54.5 18.5t14.5 68.5v198q0 18 -2 31t-10 22t-23 13.5t-40 4.5q0 11 2 20t7 17q11 0 30 3t39 7.5t38 11t27 12.5q9 -3 15.5 -12t6.5 -28v-300z" />
    <glyph glyph-name="eth" unicode="&#xf0;" horiz-adv-x="532" 
d="M200 583q-50 28 -113 52q0 8 1.5 16t9.5 18q76 -13 147 -46q7 -3 14 -7l113 63q7 -14 11 -25.5t3 -24.5q-38 -20 -66 -35q-5 -3 -11 -6q33 -22 61 -48q55 -51 87.5 -119.5t32.5 -153.5q0 -73 -17.5 -125t-49 -85.5t-74 -49t-92.5 -15.5q-116 0 -165 57.5t-49 163.5
q0 62 21.5 104.5t54.5 69t74 38.5t80 12q31 0 60 -12q17 -7 31 -17q-19 48 -51 86q-28 33 -66 60q-18 -11 -38 -23q-30 -17 -71 -41q-6 11 -11 26.5t-4 23.5zM389 256q0 49 -8 90q-15 14 -34 26q-33 19 -83 19q-26 0 -48.5 -9t-39.5 -28.5t-27 -50.5t-10 -76q0 -91 36 -135
t93 -44q17 0 38 10t39.5 34t31 64t12.5 100z" />
    <glyph glyph-name="ntilde" unicode="&#xf1;" horiz-adv-x="596" 
d="M146 517q-10 6 -10 19q30 53 57 72t52 19q18 0 34.5 -6.5t33 -14t32.5 -14t33 -6.5q15 0 30 7t31 24q4 0 9.5 -1.5t9.5 -6.5q-26 -56 -50 -76t-47 -20q-17 0 -33.5 6.5t-33.5 15t-34.5 15t-36.5 6.5q-18 0 -37 -8.5t-40 -30.5zM497 127q0 -52 14.5 -69.5t44.5 -17.5
q3 -9 4 -19t1 -24q-22 2 -50 2.5t-59 0.5t-63.5 -1t-55.5 -2q0 29 5 43q36 0 52.5 18.5t16.5 68.5v152q0 35 -7 58.5t-19.5 37.5t-29.5 20t-37 6t-40 -9t-36 -29t-26.5 -51.5t-10.5 -77.5v-107q0 -50 15 -68.5t54 -18.5q3 -9 4 -19t1 -24q-21 1 -54.5 2t-64.5 1t-64 -0.5
t-55 -2.5q0 29 5 43q39 0 54 18.5t15 68.5v198q0 18 -2.5 31t-10.5 21.5t-22.5 13t-39.5 5.5q0 11 2 20t7 17q15 1 33.5 4.5t37 8t35 10t28.5 11.5q9 -3 15.5 -12.5t6.5 -31.5q0 -12 -1 -27t-6 -32q3 5 6 11.5t9 14.5q8 12 22 24.5t32.5 23t41 17.5t49.5 7q28 0 54 -8.5
t46 -27.5t31.5 -50t11.5 -77v-172z" />
    <glyph glyph-name="ograve" unicode="&#xf2;" horiz-adv-x="532" 
d="M141 250q0 -102 36 -156.5t97 -54.5q60 0 89 49.5t29 128.5q0 46 -11 83.5t-29.5 64t-43 40.5t-52.5 14q-58 0 -86.5 -47t-28.5 -122zM40 229q0 51 16.5 94.5t46.5 75.5t71.5 50t91.5 18q53 0 95 -17t71 -48.5t44.5 -75.5t15.5 -97q0 -51 -16.5 -95t-46 -75.5t-71 -49.5
t-92.5 -18t-93 17t-71.5 48t-45.5 75t-16 98zM284 537q-9 -5 -19.5 -4.5t-20.5 2.5q-35 54 -65 94.5t-62 74.5q20 10 45.5 11t50.5 -3q13 -43 30 -86.5t41 -88.5z" />
    <glyph glyph-name="oacute" unicode="&#xf3;" horiz-adv-x="532" 
d="M141 250q0 -102 36 -156.5t97 -54.5q60 0 89 49.5t29 128.5q0 46 -11 83.5t-29.5 64t-43 40.5t-52.5 14q-58 0 -86.5 -47t-28.5 -122zM40 229q0 51 16.5 94.5t46.5 75.5t71.5 50t91.5 18q53 0 95 -17t71 -48.5t44.5 -75.5t15.5 -97q0 -51 -16.5 -95t-46 -75.5t-71 -49.5
t-92.5 -18t-93 17t-71.5 48t-45.5 75t-16 98zM242 537q24 50 39.5 92t25.5 80q22 8 40.5 10.5t33.5 1.5q9 -1 16.5 -3t12.5 -4q-33 -38 -68 -87.5t-64 -95.5q-9 -1 -18.5 0.5t-17.5 5.5z" />
    <glyph glyph-name="ocircumflex" unicode="&#xf4;" horiz-adv-x="532" 
d="M141 250q0 -102 36 -156.5t97 -54.5q60 0 89 49.5t29 128.5q0 46 -11 83.5t-29.5 64t-43 40.5t-52.5 14q-58 0 -86.5 -47t-28.5 -122zM40 229q0 51 16.5 94.5t46.5 75.5t71.5 50t91.5 18q53 0 95 -17t71 -48.5t44.5 -75.5t15.5 -97q0 -51 -16.5 -95t-46 -75.5t-71 -49.5
t-92.5 -18t-93 17t-71.5 48t-45.5 75t-16 98zM101 555q38 29 80.5 69t76.5 81q8 2 17 3t15 1q27 -37 64 -80t82 -88q-10 -13 -30 -18q-16 11 -34 24l-36 26q-18 13 -36 24.5t-34 20.5q-12 -6 -32.5 -19t-43.5 -28t-44.5 -30t-33.5 -24q-7 7 -9 19t-2 19z" />
    <glyph glyph-name="otilde" unicode="&#xf5;" horiz-adv-x="532" 
d="M141 250q0 -102 36 -156.5t97 -54.5q60 0 89 49.5t29 128.5q0 46 -11 83.5t-29.5 64t-43 40.5t-52.5 14q-58 0 -86.5 -47t-28.5 -122zM40 229q0 51 16.5 94.5t46.5 75.5t71.5 50t91.5 18q53 0 95 -17t71 -48.5t44.5 -75.5t15.5 -97q0 -51 -16.5 -95t-46 -75.5t-71 -49.5
t-92.5 -18t-93 17t-71.5 48t-45.5 75t-16 98zM122 517q-10 6 -10 19q30 53 57 72t52 19q18 0 34.5 -6.5t33 -14t32.5 -14t33 -6.5q15 0 30 7t31 24q4 0 9.5 -1.5t9.5 -6.5q-26 -56 -50 -76t-47 -20q-17 0 -33.5 6.5t-33.5 15t-34.5 15t-36.5 6.5q-18 0 -37 -8.5t-40 -30.5z
" />
    <glyph glyph-name="odieresis" unicode="&#xf6;" horiz-adv-x="532" 
d="M141 250q0 -102 36 -156.5t97 -54.5q60 0 89 49.5t29 128.5q0 46 -11 83.5t-29.5 64t-43 40.5t-52.5 14q-58 0 -86.5 -47t-28.5 -122zM40 229q0 51 16.5 94.5t46.5 75.5t71.5 50t91.5 18q53 0 95 -17t71 -48.5t44.5 -75.5t15.5 -97q0 -51 -16.5 -95t-46 -75.5t-71 -49.5
t-92.5 -18t-93 17t-71.5 48t-45.5 75t-16 98zM161 532q-26 0 -41.5 14.5t-15.5 36.5t13 39.5t42 17.5q30 0 43.5 -16t13.5 -39t-16 -38t-39 -15zM354 640q25 0 41 -14t16 -37q0 -21 -12 -38.5t-42 -17.5q-29 0 -44 15.5t-15 40.5q0 24 15.5 37.5t40.5 13.5z" />
    <glyph glyph-name="divide" unicode="&#xf7;" horiz-adv-x="526" 
d="M505 287q0 -15 -1.5 -27t-8.5 -23q-42 0 -69.5 0.5t-50.5 0.5h-102q-66 0 -125.5 -0.5t-127.5 -1.5q0 11 2.5 27.5t7.5 23.5h475zM264 466q21 0 36 -11.5t15 -31.5q0 -23 -10.5 -39t-37.5 -16q-29 0 -42 15t-13 40q0 22 15.5 32.5t36.5 10.5zM269 61q-23 0 -37.5 14
t-14.5 34t11.5 34.5t38.5 14.5q28 0 40 -13t12 -36q0 -22 -15 -35t-35 -13z" />
    <glyph glyph-name="oslash" unicode="&#xf8;" horiz-adv-x="536" 
d="M44 229q0 51 16.5 94.5t46.5 75.5t71.5 50t91.5 18q53 0 95 -17q16 -7 30 -15l37 47q16 -2 25 -7t19 -17l-42 -55l2 -2q29 -31 44.5 -75t15.5 -97q0 -51 -16.5 -95t-46 -75.5t-71 -49.5t-92.5 -18t-93 17q-22 8 -40 20l-53 -67q-14 0 -26.5 6.5t-17.5 15.5l62 76
q-27 30 -42 72q-16 44 -16 98zM278 39q60 0 89 49.5t29 128.5q0 46 -11 83q-5 16 -11 30l-189 -243q35 -48 93 -48zM145 250q0 -69 16 -116l186 241q-15 19 -35 30q-24 14 -52 14q-58 0 -86.5 -47t-28.5 -122z" />
    <glyph glyph-name="ugrave" unicode="&#xf9;" horiz-adv-x="583" 
d="M314 537q-9 -5 -19.5 -4.5t-20.5 2.5q-35 54 -65 94.5t-62 74.5q20 10 45.5 11t50.5 -3q13 -43 30 -86.5t41 -88.5zM391 330q0 18 -2.5 31t-10.5 21.5t-22.5 13t-39.5 5.5q0 11 1 19.5t6 17.5q39 2 76 10t60 19q9 -3 15.5 -12.5t6.5 -31.5v-287q0 -18 2 -31t9 -21.5
t20 -13t36 -5.5q0 -11 -1 -21.5t-5 -21.5q-11 0 -28 -2.5t-34.5 -6.5t-33 -10t-24.5 -12q-9 3 -17 13t-8 36q0 20 2 40v9q-10 -22 -30 -42q-51 -51 -121 -51q-35 0 -62.5 9t-46.5 29.5t-28.5 54.5t-9.5 85v151q0 18 -1.5 31t-8.5 21.5t-20 13t-36 5.5q0 11 1 19.5t6 17.5
q15 1 32.5 4.5t34.5 8t32.5 10t27.5 11.5q9 -3 15.5 -12.5t6.5 -31.5v-227q0 -76 20 -107.5t70 -31.5q20 0 40 10t35.5 31t25 53.5t9.5 76.5v102z" />
    <glyph glyph-name="uacute" unicode="&#xfa;" horiz-adv-x="583" 
d="M251 537q24 50 39.5 92t25.5 80q22 8 40.5 10.5t33.5 1.5q9 -1 16.5 -3t12.5 -4q-33 -38 -68 -87.5t-64 -95.5q-9 -1 -18.5 0.5t-17.5 5.5zM391 330q0 18 -2.5 31t-10.5 21.5t-22.5 13t-39.5 5.5q0 11 1 19.5t6 17.5q39 2 76 10t60 19q9 -3 15.5 -12.5t6.5 -31.5v-287
q0 -18 2 -31t9 -21.5t20 -13t36 -5.5q0 -11 -1 -21.5t-5 -21.5q-11 0 -28 -2.5t-34.5 -6.5t-33 -10t-24.5 -12q-9 3 -17 13t-8 36q0 20 2 40v9q-10 -22 -30 -42q-51 -51 -121 -51q-35 0 -62.5 9t-46.5 29.5t-28.5 54.5t-9.5 85v151q0 18 -1.5 31t-8.5 21.5t-20 13t-36 5.5
q0 11 1 19.5t6 17.5q15 1 32.5 4.5t34.5 8t32.5 10t27.5 11.5q9 -3 15.5 -12.5t6.5 -31.5v-227q0 -76 20 -107.5t70 -31.5q20 0 40 10t35.5 31t25 53.5t9.5 76.5v102z" />
    <glyph glyph-name="ucircumflex" unicode="&#xfb;" horiz-adv-x="583" 
d="M111 555q38 29 80.5 69t76.5 81q8 2 17 3t15 1q27 -37 64 -80t82 -88q-10 -13 -30 -18q-16 11 -34 24l-36 26q-18 13 -36 24.5t-34 20.5q-12 -6 -32.5 -19t-43.5 -28t-44.5 -30t-33.5 -24q-7 7 -9 19t-2 19zM391 330q0 18 -2.5 31t-10.5 21.5t-22.5 13t-39.5 5.5
q0 11 1 19.5t6 17.5q39 2 76 10t60 19q9 -3 15.5 -12.5t6.5 -31.5v-287q0 -18 2 -31t9 -21.5t20 -13t36 -5.5q0 -11 -1 -21.5t-5 -21.5q-11 0 -28 -2.5t-34.5 -6.5t-33 -10t-24.5 -12q-9 3 -17 13t-8 36q0 20 2 40v9q-10 -22 -30 -42q-51 -51 -121 -51q-35 0 -62.5 9
t-46.5 29.5t-28.5 54.5t-9.5 85v151q0 18 -1.5 31t-8.5 21.5t-20 13t-36 5.5q0 11 1 19.5t6 17.5q15 1 32.5 4.5t34.5 8t32.5 10t27.5 11.5q9 -3 15.5 -12.5t6.5 -31.5v-227q0 -76 20 -107.5t70 -31.5q20 0 40 10t35.5 31t25 53.5t9.5 76.5v102z" />
    <glyph glyph-name="udieresis" unicode="&#xfc;" horiz-adv-x="563" 
d="M165 532q-26 0 -41.5 14.5t-15.5 36.5t13 39.5t42 17.5q30 0 43.5 -16t13.5 -39t-16 -38t-39 -15zM358 640q25 0 41 -14t16 -37q0 -21 -12 -38.5t-42 -17.5q-29 0 -44 15.5t-15 40.5q0 24 15.5 37.5t40.5 13.5zM371 330q0 18 -2.5 31t-10.5 21.5t-22.5 13t-39.5 5.5
q0 11 1 19.5t6 17.5q39 2 76 10t60 19q9 -3 15.5 -12.5t6.5 -31.5v-287q0 -18 2 -31t9 -21.5t20 -13t36 -5.5q0 -11 -1 -21.5t-5 -21.5q-11 0 -28 -2.5t-34.5 -6.5t-33 -10t-24.5 -12q-9 3 -17 13t-8 36q0 20 2 40v9q-10 -22 -30 -42q-51 -51 -121 -51q-35 0 -62.5 9
t-46.5 29.5t-28.5 54.5t-9.5 85v151q0 18 -1.5 31t-8.5 21.5t-20 13t-36 5.5q0 11 1 19.5t6 17.5q15 1 32.5 4.5t34.5 8t32.5 10t27.5 11.5q9 -3 15.5 -12.5t6.5 -31.5v-227q0 -76 20 -107.5t70 -31.5q20 0 40 10t35.5 31t25 53.5t9.5 76.5v102z" />
    <glyph glyph-name="yacute" unicode="&#xfd;" horiz-adv-x="574" 
d="M412 298q13 32 15.5 53t-3.5 34.5t-20.5 20.5t-36.5 11q-7 20 -7 43q23 -2 47 -2h104q25 0 48 2q0 -10 -0.5 -21t-5.5 -22q-14 -3 -24 -9t-18.5 -17.5t-17.5 -30.5t-21 -47l-147 -350q-29 -68 -51 -110t-41.5 -64.5t-39 -30t-42.5 -7.5q-30 0 -47.5 7.5t-27.5 15.5
q-4 15 -3 37.5t4 35.5q34 -6 64 -6q29 0 55 13.5t46 45.5q7 10 17.5 31.5t23.5 51.5q3 5 5 10q-15 33 -31 69q-19 44 -38 86t-36.5 80t-30.5 66q-18 37 -30.5 60t-23.5 36t-21 18.5t-23 8.5q-6 18 -6 43q29 -1 58 -1.5t55 -0.5h64l36 1q18 1 33 1q0 -26 -7 -43
q-27 -5 -42 -12t-20 -19.5t0 -31.5t19 -47q10 -22 23 -50.5t26.5 -59t25.5 -60.5q8 -19 14 -36q5 11 10 23zM309 537q24 50 39.5 92t25.5 80q22 8 40.5 10.5t33.5 1.5q9 -1 16.5 -3t12.5 -4q-33 -38 -68 -87.5t-64 -95.5q-9 -1 -18.5 0.5t-17.5 5.5z" />
    <glyph glyph-name="thorn" unicode="&#xfe;" horiz-adv-x="580" 
d="M271 -9q-29 0 -50 5l-13 3v-114q0 -26 3.5 -43t12 -26.5t24 -13.5t39.5 -4q3 -9 4 -19t1 -24q-24 2 -59.5 2.5t-64.5 0.5t-63 -0.5t-61 -2.5q0 29 5 43q40 0 54.5 18.5t14.5 68.5v690q0 18 -2.5 31t-10.5 22t-22.5 13.5t-39.5 4.5q0 11 2 20t7 17q11 0 30 3t39 7.5t38 11
t27 12.5q9 -3 15.5 -12t6.5 -28v-252q0 -8 -1 -17q4 4 8 9q13 13 31 24t40 18.5t47 7.5q88 0 137.5 -53t49.5 -169q0 -53 -18 -99t-50.5 -80.5t-78.5 -54.5t-102 -20zM208 56q5 -2 9 -5q24 -14 59 -14q21 0 46 8t47 30t37 59.5t15 97.5q0 48 -11.5 81t-28 53t-36.5 29t-36 9
q-22 0 -43.5 -10t-39.5 -33q-15 -20 -25 -51l7 -4v-250z" />
    <glyph glyph-name="ydieresis" unicode="&#xff;" horiz-adv-x="574" 
d="M409 298q13 32 15.5 53t-3.5 34.5t-20.5 20.5t-36.5 11q-7 20 -7 43q23 -2 47 -2h104q25 0 48 2q0 -10 -0.5 -21t-5.5 -22q-14 -3 -24 -9t-18.5 -17.5t-17.5 -30.5t-21 -47l-147 -350q-29 -68 -51 -110t-41.5 -64.5t-39 -30t-42.5 -7.5q-30 0 -47.5 7.5t-27.5 15.5
q-4 15 -3 37.5t4 35.5q34 -6 64 -6q29 0 55 13.5t46 45.5q7 10 17.5 31.5t23.5 51.5q3 5 5 10q-15 33 -31 69q-19 44 -38 86t-36.5 80t-30.5 66q-18 37 -30.5 60t-23.5 36t-21 18.5t-23 8.5q-6 18 -6 43q29 -1 58 -1.5t55 -0.5h64l36 1q18 1 33 1q0 -26 -7 -43
q-27 -5 -42 -12t-20 -19.5t0 -31.5t19 -47q10 -22 23 -50.5t26.5 -59t25.5 -60.5q8 -19 14 -36q5 11 10 23zM215 532q-26 0 -41.5 14.5t-15.5 36.5t13 39.5t42 17.5q30 0 43.5 -16t13.5 -39t-16 -38t-39 -15zM408 640q25 0 41 -14t16 -37q0 -21 -12 -38.5t-42 -17.5
q-29 0 -44 15.5t-15 40.5q0 24 15.5 37.5t40.5 13.5z" />
    <glyph glyph-name="dotlessi" unicode="&#x131;" horiz-adv-x="320" 
d="M201 127q0 -50 13.5 -68.5t45.5 -18.5q3 -11 4 -23.5t1 -19.5q-26 2 -55 2.5t-58 0.5t-59.5 -0.5t-55.5 -2.5q0 10 1 21.5t4 21.5q40 0 54.5 18.5t14.5 68.5v198q0 18 -2 31t-10 22t-23 13.5t-40 4.5q0 11 2 20t7 17q11 0 30 3t39 7.5t38 11t27 12.5q9 -3 15.5 -12
t6.5 -28v-300z" />
    <glyph glyph-name="dotlessj" unicode="&#x237;" horiz-adv-x="275" 
d="M111 325q0 18 -2 31t-10 22t-23 13.5t-40 4.5q0 11 2 20t7 17q11 0 30 3t39 7.5t38 11t27 12.5q9 -3 15.5 -12t6.5 -28v-404q0 -51 -15.5 -94t-39.5 -77.5t-53.5 -60t-57.5 -40.5q-8 4 -14 11t-8 17q30 34 49 63t30 57t15 58.5t4 68.5v299z" />
    <glyph glyph-name="apostrophe" unicode="&#x2bc;" horiz-adv-x="259" 
d="M165 719q34 -13 34 -72q0 -30 -8.5 -58.5t-23.5 -55.5t-34.5 -51t-40.5 -45q-20 0 -32 15q31 35 47.5 68t16.5 59q0 44 -47 50q0 10 1.5 28.5t6.5 31.5q23 5 43 12t37 18z" />
    <glyph glyph-name="circumflex" unicode="&#x2c6;" 
d="M75 555q38 29 80.5 69t76.5 81q8 2 17 3t15 1q27 -37 64 -80t82 -88q-10 -13 -30 -18q-16 11 -34 24l-36 26q-18 13 -36 24.5t-34 20.5q-12 -6 -32.5 -19t-43.5 -28t-44.5 -30t-33.5 -24q-7 7 -9 19t-2 19z" />
    <glyph glyph-name="ring" unicode="&#x2da;" 
d="M206 614q0 40 30 67t74 27q18 0 36 -5t31.5 -16t22 -27.5t8.5 -38.5q0 -41 -30 -68t-75 -27q-19 0 -36.5 6t-31 17.5t-21.5 28t-8 36.5zM261 618q0 -23 13.5 -39t38.5 -16q16 0 28.5 12.5t12.5 35.5q0 21 -12.5 42t-38.5 21q-19 0 -30.5 -15t-11.5 -41z" />
    <glyph glyph-name="tilde" unicode="&#x2dc;" 
d="M114 517q-10 6 -10 19q30 53 57 72t52 19q18 0 34.5 -6.5t33 -14t32.5 -14t33 -6.5q15 0 30 7t31 24q4 0 9.5 -1.5t9.5 -6.5q-26 -56 -50 -76t-47 -20q-17 0 -33.5 6.5t-33.5 15t-34.5 15t-36.5 6.5q-18 0 -37 -8.5t-40 -30.5z" />
    <glyph glyph-name="Eszett" unicode="&#x1e9e;" horiz-adv-x="741" 
d="M224 -1q-14 1 -29 1h-60q-13 0 -27.5 -0.5t-28 -1t-23.5 -1.5q0 12 1 23t4 20q20 2 33 7t21 17.5t11.5 35.5t3.5 61v259q0 75 19.5 124.5t55 79.5t83.5 42t105 12q15 0 27 -0.5t23 -0.5t24 -0.5t30 -0.5q29 0 57 0.5t62 2.5q5 -10 9 -21.5t4 -25.5q-27 -50 -68 -117
q-38 -64 -82 -126q43 -6 79 -21q39 -17 67 -43t43 -61t15 -76t-14 -77t-41 -62.5t-66 -42t-88 -15.5q-57 0 -96.5 14.5t-77.5 39.5q7 35 9 71.5t2 62.5q12 3 29 4.5t29 1.5q3 -35 7.5 -62.5t16 -46t30.5 -28t51 -9.5q25 0 44 11t32 29.5t19 43.5t6 53q0 33 -11.5 62.5
t-36 52.5t-62.5 39t-90 22q-5 8 -8 18.5t-3 21.5q44 60 88 133q34 56 61 108q-15 1 -28 1q-29 2 -55.5 3t-57.5 1q-34 0 -61.5 -9t-46.5 -33.5t-29.5 -67t-10.5 -108.5v-421z" />
    <glyph glyph-name="endash" unicode="&#x2013;" horiz-adv-x="566" 
d="M506 291q0 -15 -2 -28.5t-9 -24.5h-100q-46 0 -95 -0.5t-106.5 -1t-133.5 -1.5q0 14 3 30t8 26h435z" />
    <glyph glyph-name="emdash" unicode="&#x2014;" horiz-adv-x="1024" 
d="M964 290q0 -15 -2 -28t-9 -24q-298 0 -518 -0.5t-375 -2.5q0 6 1 14t2.5 16t3.5 15t4 10h893z" />
    <glyph glyph-name="quoteleft" unicode="&#x2018;" horiz-adv-x="242" 
d="M94 467q-34 13 -34 72q0 55 19 95.5t55 82.5q11 0 22.5 -3.5t17.5 -9.5q-13 -18 -20.5 -30.5t-11.5 -23t-5.5 -21t-1.5 -22.5q0 -44 47 -50q0 -10 -1.5 -28.5t-6.5 -31.5q-23 -5 -43 -12t-37 -18z" />
    <glyph glyph-name="quoteright" unicode="&#x2019;" horiz-adv-x="242" 
d="M128.006 715.028q33.998 -12.999 33.998 -71.9951q0 -54.9971 -18.999 -95.4941q-18.999 -40.498 -54.9971 -82.4951q-10.999 0 -22.498 3.5q-11.5 3.49902 -17.499 9.49902q12.999 17.999 20.499 30.498q7.49902 12.499 11.499 22.999q4 10.499 5.5 20.998
q1.49902 10.5 1.49902 22.499q0 43.9971 -46.9971 49.9971q0 9.99902 1.5 28.498t6.5 31.498q22.998 5 42.9971 11.999q19.999 7 36.998 17.999z" />
    <glyph glyph-name="quotesinglbase" unicode="&#x201a;" horiz-adv-x="242" 
d="M128.006 98.0283q33.998 -12.999 33.998 -71.9951q0 -54.9971 -18.999 -95.4941q-18.999 -40.498 -54.9971 -82.4951q-10.999 0 -22.498 3.5q-11.5 3.49902 -17.499 9.49902q12.999 17.999 20.499 30.498q7.49902 12.499 11.499 22.999q4 10.499 5.5 20.998
q1.49902 10.5 1.49902 22.499q0 43.9971 -46.9971 49.9971q0 9.99902 1.5 28.498t6.5 31.498q22.998 5 42.9971 11.999q19.999 7 36.998 17.999z" />
    <glyph glyph-name="quotedblleft" unicode="&#x201c;" horiz-adv-x="387" 
d="M94 467q-15 10 -24.5 28t-9.5 48q0 44 20 89t53 83q8 1 20 -2t19 -8q-16 -22 -27.5 -50t-11.5 -48t9 -33.5t35 -15.5q1 -14 -1 -32.5t-7 -29.5q-42 -7 -75 -29zM242 470q-16 10 -25 28t-9 48q0 44 20 86.5t52 80.5q9 1 20.5 -2t18.5 -8q-15 -22 -27 -49t-12 -47t10 -33.5
t36 -15.5q1 -14 -1 -31t-7 -28q-21 -4 -41 -11t-35 -18z" />
    <glyph glyph-name="quotedblright" unicode="&#x201d;" horiz-adv-x="387" 
d="M273.006 717.028q14.999 -9.99902 24.498 -27.998q9.5 -17.999 9.5 -47.9971q0 -43.9971 -19.999 -88.9941q-19.999 -44.998 -52.9971 -82.9951q-7.99902 -1 -19.998 2q-12 2.99902 -18.999 7.99902q15.999 21.999 27.498 49.9971t11.499 47.9971t-8.99902 33.498
q-9 13.499 -34.998 15.499q-1 13.999 1 32.498t7 29.498q41.9971 7 74.9951 28.998zM125.015 714.028q15.999 -9.99902 24.999 -27.998q8.99902 -17.999 8.99902 -47.9971q0 -43.9971 -19.999 -86.4941q-19.998 -42.498 -51.9961 -80.4951q-9 -1 -20.499 1.99902
q-11.499 3 -18.499 8q14.999 21.999 26.998 48.9971q12 26.998 12 46.9971t-10 33.498q-9.99902 13.499 -35.998 15.499q-1 13.999 1 30.998t7 27.998q20.999 4 40.9971 10.999q19.999 7 34.998 17.999z" />
    <glyph glyph-name="quotedblbase" unicode="&#x201e;" horiz-adv-x="387" 
d="M273.006 99.0283q14.999 -9.99902 24.498 -27.998q9.5 -17.999 9.5 -47.9971q0 -43.9971 -19.999 -88.9941q-19.999 -44.998 -52.9971 -82.9951q-7.99902 -1 -19.998 2q-12 2.99902 -18.999 7.99902q15.999 21.999 27.498 49.9971t11.499 47.9971t-8.99902 33.498
q-9 13.499 -34.998 15.499q-1 13.999 1 32.498t7 29.498q41.9971 7 74.9951 28.998zM125.015 96.0283q15.999 -9.99902 24.999 -27.998q8.99902 -17.999 8.99902 -47.9971q0 -43.9971 -19.999 -86.4941q-19.998 -42.498 -51.9961 -80.4951q-9 -1 -20.499 1.99902
q-11.499 3 -18.499 8q14.999 21.999 26.998 48.9971q12 26.998 12 46.9971t-10 33.498q-9.99902 13.499 -35.998 15.499q-1 13.999 1 30.998t7 27.998q20.999 4 40.9971 10.999q19.999 7 34.998 17.999z" />
    <glyph glyph-name="dagger" unicode="&#x2020;" horiz-adv-x="469" 
d="M282 633q-6 -87 -11 -175h162q-1 -17 -10 -40t-19 -35q-20 3 -38.5 5.5t-38 5t-42.5 4.5q-8 0 -16 1q-16 -320 -17 -648q-11 0 -22.5 3t-20.5 9q2 216 -2 433q-2 102 -6 204q-11 0 -21 -1q-25 -2 -48 -4t-44.5 -5t-45.5 -6q0 23 5.5 40.5t13.5 33.5h137q-4 87 -9 175
q25 7 40 16.5t34 23.5q14 -7 17 -15.5t2 -24.5z" />
    <glyph glyph-name="daggerdbl" unicode="&#x2021;" horiz-adv-x="476" 
d="M275 0q1 -9 2 -17q2 -31 4.5 -56.5t5 -47.5t5.5 -45q-20 -7 -35.5 -16.5t-31.5 -23.5q-14 7 -17.5 15.5t-1.5 24.5q5 42 9 92q2 32 4 74h-178q1 17 10 40t19 35q20 -3 38.5 -5.5t38 -5t41.5 -4.5q16 -2 34 -3q2 58 -4 103q-5 47 -22 67q16 22 19 70q4 46 0 104
q-19 -1 -35 -2q-25 -2 -48 -4t-44.5 -5t-45.5 -6q0 23 5.5 40.5t13.5 33.5h150q-3 47 -6 82q-4 52 -9 93q23 8 39 17t35 23q14 -7 17.5 -15.5t1.5 -24.5q-2 -21 -4.5 -42.5t-5 -48t-5.5 -59.5q-1 -12 -2 -25h161q-1 -17 -10 -40t-19 -35q-20 3 -38.5 5.5t-38 5t-42.5 4.5
q-7 0 -16 1q-2 -58 4 -102q6 -48 23 -70q-17 -20 -23 -66q-5 -45 -2 -104q12 1 23 2q25 2 48 4t44.5 5t45.5 6q0 -23 -5.5 -40.5t-13.5 -33.5h-138z" />
    <glyph glyph-name="bullet" unicode="&#x2022;" horiz-adv-x="338" 
d="M171 403q26 0 46 -8.5t33.5 -22.5t20.5 -32.5t7 -38.5q0 -47 -28 -77.5t-79 -30.5q-29 0 -49.5 9t-34.5 24.5t-20.5 35t-6.5 40.5q0 44 30.5 72.5t80.5 28.5z" />
    <glyph glyph-name="ellipsis" unicode="&#x2026;" horiz-adv-x="860" 
d="M121 102q26 0 40.5 -17.5t14.5 -34.5q0 -30 -18 -44t-41 -14q-27 0 -42 15t-15 38t17 40t44 17zM441 102q26 0 40.5 -17.5t14.5 -34.5q0 -30 -18 -44t-41 -14q-27 0 -42 15t-15 38t17 40t44 17zM745 102q26 0 40.5 -17.5t14.5 -34.5q0 -30 -18 -44t-41 -14q-27 0 -42 15
t-15 38t17 40t44 17z" />
    <glyph glyph-name="perthousand" unicode="&#x2030;" horiz-adv-x="1210" 
d="M1012 311q37 0 64.5 -13.5t46 -35t28 -49t9.5 -54.5q0 -34 -10.5 -64.5t-31 -53.5t-50 -36.5t-67.5 -13.5q-39 0 -68.5 13t-48.5 35t-28.5 49.5t-9.5 56.5q0 33 10.5 63t31 53t51.5 36.5t73 13.5zM998 269q-15 0 -28.5 -8.5t-23.5 -23.5t-16 -35t-6 -44q0 -54 23 -89.5
t63 -35.5q12 0 24.5 7t23 21t17 35t6.5 49q0 54 -23.5 89t-59.5 35zM174 -7q-14 8 -23.5 17.5t-12.5 19.5l553 656q14 -3 23.5 -10.5t18.5 -18.5zM626 311q37 0 64.5 -13.5t46 -35t28 -49t9.5 -54.5q0 -34 -10.5 -64.5t-31 -53.5t-50 -36.5t-67.5 -13.5q-39 0 -68.5 13
t-49 35t-29.5 49.5t-10 56.5q0 33 10.5 63t31.5 53t52.5 36.5t73.5 13.5zM612 269q-15 0 -28 -8.5t-23 -23.5t-15.5 -35t-5.5 -44q0 -54 22 -89.5t62 -35.5q12 0 24 7t22 21t16.5 35t6.5 49q0 54 -22.5 89t-58.5 35zM256 677q36 0 63.5 -13.5t46 -35t28 -48.5t9.5 -54
q0 -34 -10.5 -64t-30.5 -53t-49 -36.5t-67 -13.5q-39 0 -68.5 13t-49 35t-29 49t-9.5 56q0 32 10.5 62t31.5 53t52 36.5t72 13.5zM243 635q-32 0 -54 -31t-22 -79q0 -54 23 -89t64 -35q12 0 25 7t23.5 21t17.5 34.5t7 48.5q0 54 -23.5 88.5t-60.5 34.5z" />
    <glyph glyph-name="guilsinglleft" unicode="&#x2039;" horiz-adv-x="300" 
d="M208 418q21 -2 34 -15q-11 -12 -25.5 -30.5t-28.5 -38t-25.5 -37.5t-17.5 -30q9 -16 20 -35.5t23.5 -39.5t25.5 -39.5t24 -35.5q0 -11 -5 -20t-11 -14q-45 45 -88 86.5t-80 70.5q0 16 6 34q41 34 78 71t70 73z" />
    <glyph glyph-name="guilsinglright" unicode="&#x203a;" horiz-adv-x="302" 
d="M89 87q-16 10 -23 29q25 32 48 64.5t46 68.5l-23 34q-13 20 -27.5 41t-29.5 41.5t-28 38.5q17 14 37 14q36 -35 73 -67.5t77 -65.5q4 -8 5 -15.5t1 -16.5q-41 -41 -79.5 -82.5t-76.5 -83.5z" />
    <glyph glyph-name="fraction" unicode="&#x2044;" horiz-adv-x="618" 
d="M73 -8q-14 5 -24.5 12t-15.5 14l512 696q11 -3 22 -10.5t18 -15.5z" />
    <glyph glyph-name="Euro" unicode="&#x20ac;" horiz-adv-x="746" 
d="M491 407q0 -15 -2 -28.5t-9 -24.5h-100q-46 0 -95 -1q-35 0 -74 -1q1 -35 7 -67h273q0 -15 -2 -28.5t-9 -24.5h-100q-46 0 -95 -1q-25 0 -52 -1q17 -49 45 -86q33 -43 80.5 -67.5t107.5 -24.5q48 0 98 16t92 43q6 -5 11.5 -14.5t6.5 -16.5q-30 -23 -58.5 -39.5
t-58.5 -27.5t-62.5 -16.5t-70.5 -5.5q-70 0 -128.5 25.5t-100.5 72t-66 111.5q-5 14 -9 29h-75q0 14 3 30t8 26h53q-3 28 -3 58v8h-61q0 14 3 30t8 26h54q7 47 24 86q29 64 75.5 107t106.5 64t124 21q63 0 114.5 -13t107.5 -39q-8 -35 -9.5 -74t-1.5 -81q-13 -5 -25 -7
t-28 -2q-2 53 -13 87t-30.5 53.5t-46.5 27t-60 7.5q-63 0 -108 -23t-73.5 -61.5t-42.5 -88.5q-8 -31 -12 -64h279z" />
    <glyph glyph-name="minus" unicode="&#x2212;" horiz-adv-x="537" 
d="M511 287q0 -15 -1.5 -27t-8.5 -23q-42 0 -69.5 0.5t-50.5 0.5h-102q-66 0 -125.5 -0.5t-127.5 -1.5q0 11 2.5 27.5t7.5 23.5h475z" />
    <glyph glyph-name="arrow" unicode="&#x2799;" horiz-adv-x="659" 
d="M426 295q-13 26 -25 44.5t-22 31.5q-15 19 -15 34q0 9 5.5 15t16.5 11q20 -20 46.5 -41.5t55 -41t55 -35.5t46.5 -25q6 -10 8 -19t2 -20q-64 -32 -108.5 -64.5t-85.5 -70.5q-7 -7 -20 -7t-23 10q20 26 36.5 57t27.5 59q-37 0 -86 -1t-100 -2.5t-98.5 -3.5t-81.5 -3
q0 17 4 37.5t12 34.5h350z" />
    <glyph glyph-name="f_j" unicode="&#xe086;" horiz-adv-x="621" 
d="M437 321q0 20 -3 35t-14 24.5t-31.5 15t-55.5 6.5q-15 0 -34 -1t-37 -2.5t-33.5 -4t-22.5 -4.5v-263q0 -48 15.5 -66.5t53.5 -20.5q3 -9 4 -19t1 -24q-20 2 -52 2.5t-62 0.5h-33q-17 0 -34 -0.5t-32 -1t-25 -1.5q0 29 5 43q40 2 54.5 19.5t14.5 67.5v265q-12 5 -37 8.5
t-43 3.5q0 9 3 21.5t11 22.5h66v40q0 48 17 89.5t48.5 72t76.5 48t101 17.5q47 0 83 -8.5t68 -22.5q-2 -32 -2.5 -52t-0.5 -40q-14 -10 -38.5 -15t-47.5 0q0 41 -21.5 63.5t-66.5 22.5q-69 0 -98 -35.5t-29 -108.5v-71h167q32 1 68 5t64 14q12 -5 17 -14t5 -29v-401
q0 -51 -15.5 -94t-39.5 -77.5t-53.5 -60t-57.5 -40.5q-8 4 -14 11t-8 17q30 34 49 63t30 57t15 58.5t4 68.5v295z" />
    <glyph glyph-name="f_t" unicode="&#xe087;" horiz-adv-x="690" 
d="M431 448v104q-2 43 -30 65q-29 24 -82 24q-57 0 -85 -32.5t-28 -109.5v-51h102q0 -10 -2 -22.5t-8 -22.5q-53 0 -92 -12v-244q0 -33 5 -53t16 -32t27.5 -16.5t40.5 -5.5q5 -14 5 -43q-23 2 -57 2.5t-69 0.5h-37q-19 0 -37 -0.5t-33 -1t-25 -1.5q0 29 5 43q40 2 54.5 19.5
t14.5 67.5v267q-22 5 -43.5 7t-36.5 2q0 27 14 45h66v20q0 59 20.5 102t54 70.5t75.5 41t84 13.5q34 0 64 -8q26 -7 45 -19q22 6 40 19q9 -3 16 -12t7 -28v-199h129q0 -22 -9 -44q-73 -3 -120 -13v-250q0 -51 15 -73.5t42 -22.5q21 0 36.5 6t29.5 18q13 -15 15 -33
q-17 -19 -49 -32t-64 -13q-60 0 -88 30t-28 99v271q-15 5 -31 8t-41 5q0 13 2 22.5t7 21.5h63z" />
    <glyph glyph-name="f_f_t" unicode="&#xe089;" horiz-adv-x="1013" 
d="M754 448v97q0 48 -29.5 72t-82.5 24q-57 0 -85 -32.5t-28 -109.5v-51h102q0 -10 -2 -22.5t-8 -22.5q-53 0 -92 -12v-244q0 -33 5 -53t16 -32t27.5 -16.5t40.5 -5.5q5 -14 5 -43q-23 2 -57 2.5t-69 0.5h-37q-19 0 -37 -0.5t-33 -1t-25 -1.5q0 29 5 43q40 2 54.5 19.5
t14.5 67.5v268q-22 5 -46.5 7.5t-59.5 2.5q-51 0 -79 -4t-48 -9v-245q0 -33 5 -53t16 -32t27.5 -16.5t40.5 -5.5q5 -14 5 -43q-23 2 -57 2.5t-69 0.5h-37q-19 0 -37 -0.5t-33 -1t-25 -1.5q0 29 5 43q40 2 54.5 19.5t14.5 67.5v267q-22 5 -43.5 7t-36.5 2q0 27 14 45h66v13
q0 50 18.5 92t50.5 72t75 47t93 17q43 0 83 -15q38 -13 69 -41q4 4 8 7q34 28 76 41.5t84 13.5q34 0 64 -8q26 -7 45 -19q22 6 40 19q9 -3 16 -12t7 -28v-199h129q0 -22 -9 -44q-73 -3 -120 -13v-250q0 -51 15 -73.5t42 -22.5q21 0 36.5 6t29.5 18q13 -15 15 -33
q-17 -19 -49 -32t-64 -13q-60 0 -88 30t-28 99v271q-15 5 -31 8t-41 5q0 13 2 22.5t7 21.5h63zM439 448v20q0 52 15 91q-18 32 -43 52q-31 26 -73 26q-57 0 -94.5 -34t-37.5 -114v-41h233z" />
    <glyph glyph-name="shortslash" unicode="&#xe08e;" horiz-adv-x="363" 
d="M91 -34q-13 4 -26 12.5t-18 16.5l232 513q17 -5 27.5 -12.5t16.5 -15.5z" />
    <glyph glyph-name="f_f_l" unicode="&#xfb04;" horiz-adv-x="935" 
d="M757 565q0 48 -30.5 72t-83.5 24q-57 0 -85.5 -32.5t-28.5 -109.5v-71h102q0 -10 -2 -22.5t-8 -22.5q-53 0 -92 -12v-244q0 -32 3.5 -52.5t11.5 -32t21 -16.5t33 -6q5 -14 5 -43q-47 3 -116 3q-35 0 -68.5 -0.5t-53.5 -2.5q0 29 5 43q40 2 54.5 19.5t14.5 67.5v268
q-22 5 -46.5 7.5t-59.5 2.5q-51 0 -79 -4t-48 -9v-245q0 -33 5 -53t16 -32t27.5 -16.5t40.5 -5.5q5 -14 5 -43q-23 2 -57 2.5t-69 0.5h-37q-19 0 -37 -0.5t-33 -1t-25 -1.5q0 29 5 43q40 2 54.5 19.5t14.5 67.5v267q-22 5 -43.5 7t-36.5 2q0 27 14 45h66v23q0 50 18.5 92
t50.5 72t75 47t93 17q43 0 83 -15q35 -12 64 -36l14 12q34 28 76 41.5t84 13.5q34 0 63 -8q22 -5 37 -12q5 1 11 3q22 6 40 19q9 -3 15.5 -12t6.5 -28v-550q0 -50 13.5 -68.5t45.5 -18.5q3 -11 4 -23.5t1 -19.5q-26 2 -55 2.5t-58 0.5t-59.5 -0.5t-55.5 -2.5q0 10 1 21.5
t4 21.5q40 0 54.5 18.5t14.5 68.5v438zM439 448v40q0 48 13 85q-17 29 -41 48q-31 26 -73 26q-57 0 -94.5 -34t-37.5 -114v-51h233z" />
    <glyph glyph-name="f.calt" horiz-adv-x="359" 
d="M115 452v36q0 60 13 103t35.5 70t51.5 40t61 13q29 0 56.5 -7.5t41.5 -17.5q-7 -20 -9 -47t-2 -65q-9 -5 -27.5 -6.5t-32.5 -1.5q0 57 -14.5 79t-32.5 22q-16 0 -26 -7t-15.5 -24t-7.5 -46t-2 -74v-67h103q0 -10 -2 -22.5t-8 -22.5q-54 0 -93 -12v-248q0 -33 5 -53
t16 -32t27.5 -16.5t40.5 -5.5q5 -14 5 -43q-23 2 -57 2.5t-69 0.5h-37q-19 0 -37 -0.5t-33 -1t-25 -1.5q0 29 5 43q40 2 54.5 19.5t14.5 67.5v271q-22 5 -43 7t-36 2q0 27 14 45h65z" />
    <glyph glyph-name="f_f.calt" horiz-adv-x="714" 
d="M116 452v19q0 50 18.5 92t50.5 72t75 47t93 17q43 0 83 -15q26 -9 49 -25l2 2q23 27 52 40t61 13q29 0 56.5 -7.5t41.5 -17.5q-7 -20 -9 -47t-2 -65q-9 -5 -27.5 -6.5t-32.5 -1.5q0 57 -14.5 79t-32.5 22q-16 0 -26 -7t-15.5 -24t-7.5 -46t-2 -74v-67h102q0 -10 -2 -22.5
t-8 -22.5q-53 0 -92 -12v-248q0 -33 5 -53t16 -32t27.5 -16.5t40.5 -5.5q5 -14 5 -43q-23 2 -57 2.5t-69 0.5h-37q-19 0 -37 -0.5t-33 -1t-25 -1.5q0 29 5 43q40 2 54.5 19.5t14.5 67.5v272q-22 5 -46.5 7.5t-59.5 2.5q-51 0 -79 -4t-48 -9v-249q0 -33 5 -53t16 -32
t27.5 -16.5t40.5 -5.5q5 -14 5 -43q-23 2 -57 2.5t-69 0.5h-37q-19 0 -37 -0.5t-33 -1t-25 -1.5q0 29 5 43q40 2 54.5 19.5t14.5 67.5v271q-22 5 -43.5 7t-36.5 2q0 27 14 45h66zM439 452v36q0 52 9 91q-16 25 -37 42q-31 26 -73 26q-57 0 -94.5 -34t-37.5 -114v-47h233z
" />
    <glyph glyph-name="one.alt" horiz-adv-x="369" 
d="M151 321q0 30 -3 49t-13.5 30t-32.5 15t-59 4q0 10 1 19.5t4 18.5q51 8 92 20t78 29q15 -5 19 -17.5t4 -33.5v-302q0 -35 3.5 -56.5t12.5 -33.5t24 -17t39 -6q3 -10 4 -21t1 -22q-32 2 -66 2.5t-67 0.5t-69.5 -0.5t-65.5 -2.5q0 12 1 22.5t4 20.5q24 1 40.5 6t27.5 17
t16 33.5t5 56.5v168z" />
    <glyph glyph-name="one.numr" horiz-adv-x="286" 
d="M102 583q0 41 -15 55.5t-61 14.5q0 9 1.5 21t6.5 22q37 5 71 13.5t61 19.5q11 -4 15.5 -12.5t4.5 -31.5v-259q0 -32 3.5 -52.5t11 -32t19 -16t26.5 -5.5q2 -8 3 -19t1 -23q-11 1 -42.5 2t-66.5 1q-38 0 -65.5 -1t-43.5 -2q0 26 4 42q16 1 28.5 5t21 14.5t12.5 29.5t4 50
v164z" />
    <glyph glyph-name="three.numr" horiz-adv-x="385" 
d="M194 724q48 0 78 1t44 1q13 -15 13 -36q-29 -30 -60.5 -64.5t-66.5 -72.5q26 0 52 -7t47 -22t34 -38.5t13 -55.5q0 -36 -14.5 -65.5t-40 -49.5t-61.5 -31t-79 -11q-48 0 -76.5 12t-39.5 22q-1 10 3 20.5t11 18.5q12 -8 35.5 -16t58.5 -8q47 0 77.5 21t30.5 66
q0 18 -7.5 32t-20.5 23.5t-29 14.5t-33 5q-9 0 -17 -1t-16 -4q-7 6 -12.5 17.5t-6.5 18.5q32 36 65.5 73t57.5 66h-75q-25 0 -39.5 -13.5t-28.5 -50.5q-11 0 -23 3.5t-20 8.5q6 26 8 62t1 62q20 -1 55 -1.5t82 -0.5z" />
    <glyph glyph-name="four.dnom" horiz-adv-x="424" 
d="M310 191h47q23 0 32 -10q-7 -14 -11.5 -28t-6.5 -34h-61v-8q0 -23 2.5 -36.5t8.5 -20.5t15.5 -9t23.5 -3q2 -6 3.5 -20t1.5 -25q-9 0 -21.5 0.5t-26.5 1.5l-28 1h-53l-30 -1q-15 -1 -27.5 -1.5t-19.5 -0.5q0 11 1 25.5t3 19.5q17 1 29.5 3.5t20.5 10t11.5 20.5t3.5 35v7
q-32 -1 -58 -1q-37 -1 -64.5 -2.5t-49.5 -3.5q-18 20 -18 49q25 31 53.5 67t58 74.5t58 78t54.5 77.5q26 0 48 -11v-255zM228 191v147l-108 -147h108z" />
    <glyph glyph-name="two.dnom" horiz-adv-x="402" 
d="M197 449q29 0 54.5 -6t45 -19t31 -33t11.5 -48q0 -42 -23 -76t-61 -69q-32 -30 -58 -57t-58 -63h123q24 0 38.5 9.5t14.5 36.5q12 1 23.5 0t20.5 -5q-1 -28 0.5 -55.5t6.5 -48.5q-5 -9 -16 -12.5t-34 -3.5q-11 0 -39 0.5t-54 0.5q-45 0 -86.5 -0.5t-85.5 -0.5q-5 5 -7 13
t-2 16q15 17 34 38t33 36l91 94q27 29 39.5 59t12.5 72q0 35 -17.5 59.5t-55.5 24.5q-35 0 -50 -22t-22 -69q-29 0 -49 7q3 20 3 41.5t-4 48.5q61 32 140 32z" />
    </font>
</defs>
</svg>
