<?xml version="1.0" standalone="no"?>
<!DOCTYPE svg PUBLIC "-//W3C//DTD SVG 1.1//EN" "http://www.w3.org/Graphics/SVG/1.1/DTD/svg11.dtd" >
<svg xmlns="http://www.w3.org/2000/svg" xmlns:xlink="http://www.w3.org/1999/xlink" version="1.1">
<metadata>
Created by FontForge 20161013 at Fri May 13 14:54:34 2011
 By ,,,
Copyright (c) 2011 by Cyreal Type Foundry. All rights reserved.
</metadata>
<defs>
<font id="WireOne" horiz-adv-x="598" >
  <font-face 
    font-family="Wire One"
    font-weight="400"
    font-stretch="normal"
    units-per-em="2048"
    panose-1="2 0 5 8 0 0 0 2 0 4"
    ascent="1638"
    descent="-410"
    x-height="1030"
    cap-height="1454"
    bbox="-153 -430 2062 1821"
    underline-thickness="102"
    underline-position="-307"
    unicode-range="U+0020-F000"
  />
<missing-glyph horiz-adv-x="590" 
d="M508 233q0 -44 -10.5 -85.5t-35 -74.5t-66 -53t-103.5 -20h-211v791q0 43 10 85t35 75t66.5 53t103.5 20h211v-791zM293 41q51 0 84.5 17t53.5 44t28 61.5t8 69.5v750h-170q-51 0 -84.5 -17t-53.5 -44t-28 -61.5t-8 -69.5v-750h170z" />
    <glyph glyph-name=".notdef" horiz-adv-x="590" 
d="M508 233q0 -44 -10.5 -85.5t-35 -74.5t-66 -53t-103.5 -20h-211v791q0 43 10 85t35 75t66.5 53t103.5 20h211v-791zM293 41q51 0 84.5 17t53.5 44t28 61.5t8 69.5v750h-170q-51 0 -84.5 -17t-53.5 -44t-28 -61.5t-8 -69.5v-750h170z" />
    <glyph glyph-name=".null" horiz-adv-x="532" 
 />
    <glyph glyph-name="glyph2" horiz-adv-x="537" 
 />
    <glyph glyph-name="space" unicode=" " horiz-adv-x="340" 
 />
    <glyph glyph-name="exclam" unicode="!" horiz-adv-x="258" 
d="M152 309q6 -6 6 -16q0 -11 -8 -19t-19 -8t-19 8t-8 19q0 10 7 16v1100q-7 8 -7 18q0 11 8 19t19 8t19 -8t8 -19q0 -9 -6 -18v-1100zM166 -7q-12 -13 -35 -13q-22 0 -33.5 13t-11.5 32q0 20 11.5 33.5t33.5 13.5q23 0 35 -13.5t12 -33.5q0 -19 -12 -32z" />
    <glyph glyph-name="quotedbl" unicode="&#x22;" horiz-adv-x="412" 
d="M65 1257q0 -11 -7.5 -19t-18.5 -8t-19 8t-8 19q0 20 19 27l55 98q-6 9 -6 25q0 20 11.5 33.5t33.5 13.5q23 0 35 -13.5t12 -33.5q0 -19 -12 -32t-35 -13h-4l-56 -101v-4zM252 1257q0 -11 -7.5 -19t-18.5 -8t-19 8t-8 19q0 20 19 27l55 98q-6 9 -6 25q0 20 11.5 33.5
t33.5 13.5q23 0 35 -13.5t12 -33.5q0 -19 -12 -32t-35 -13h-4l-56 -101v-4z" />
    <glyph glyph-name="numbersign" unicode="#" horiz-adv-x="807" 
d="M364 18q4 -8 4 -12q0 -11 -7.5 -18.5t-18.5 -7.5t-19 7.5t-8 18.5q0 14 12 23l130 494h-210l-132 -505q4 -8 4 -12q0 -11 -7.5 -18.5t-18.5 -7.5t-19 7.5t-8 18.5q0 14 12 23l130 494h-112q-6 -6 -16 -6q-11 0 -19 8t-8 19t8 19t19 8q10 0 16 -7h123l65 247h-90
q-6 -6 -16 -6q-11 0 -19 8t-8 19t8 19t19 8q10 0 16 -7h101l148 563q-2 4 -2 12q0 11 7.5 19t18.5 8t19 -8t8 -19q0 -8 -4 -14.5t-12 -9.5l-145 -551h211l148 563q-2 4 -2 12q0 11 7.5 19t18.5 8t19 -8t8 -19q0 -8 -4 -14.5t-12 -9.5l-145 -551h110q8 7 18 7q11 0 19 -8
t8 -19t-8 -19t-19 -8q-9 0 -18 6h-120l-65 -247h87q8 7 18 7q11 0 19 -8t8 -19t-8 -19t-19 -8q-9 0 -18 6h-98zM258 564h210l65 247h-210z" />
    <glyph glyph-name="dollar" unicode="$" horiz-adv-x="580" 
d="M506 207q0 -44 -11 -85t-36 -72.5t-66 -50.5q-36 -16 -87 -19v-107q6 -9 6 -18q0 -11 -7.5 -19t-18.5 -8t-19 8t-8 19q0 9 6 18v108q-40 3 -70 16q-39 17 -64.5 45.5t-37.5 66.5t-15 79q-3 4 -4.5 9t-1.5 10q0 11 8 18.5t19 7.5t18.5 -7.5t7.5 -18.5q0 -5 -1.5 -10
t-4.5 -9q1 -34 11 -64.5t30.5 -53.5t52.5 -36.5t78 -13.5q49 0 82.5 15.5t53.5 42t29 60t9 69.5v256q0 52 -20.5 99.5t-58.5 82.5l-240 213q-25 22 -40 45.5t-23 46.5t-10.5 46.5t-2.5 47.5v177q0 43 11 85t36 75t66 53q34 16 82 19v106q-6 9 -6 18q0 11 8 19t19 8t18.5 -8
t7.5 -19q0 -9 -6 -18v-106q43 -3 75 -17q40 -18 65 -48t37.5 -68.5t14.5 -80.5q3 -3 4.5 -8t1.5 -10q0 -11 -7.5 -19t-18.5 -8t-19 8t-8 19q0 10 6 16q-2 33 -11.5 64.5t-30 56.5t-52.5 40t-78 15q-49 0 -82.5 -17t-53.5 -44t-29 -61.5t-9 -69.5v-177q2 -51 15.5 -90.5
t48.5 -70.5l241 -213q54 -50 72 -103t18 -104v-256z" />
    <glyph glyph-name="percent" unicode="%" horiz-adv-x="872" 
d="M274 18q4 -8 4 -12q0 -11 -7.5 -18.5t-18.5 -7.5t-19 7.5t-8 18.5q0 14 12 23l365 1386q-2 4 -2 12q0 11 7.5 19t18.5 8t19 -8t8 -19q0 -8 -4 -14.5t-12 -9.5zM108 969q0 -18 4 -36.5t14.5 -33.5t28 -24t43.5 -9t43.5 9t28.5 24t15.5 33.5t4.5 36.5v342q0 18 -4.5 36.5
t-15.5 33t-28.5 23.5t-43.5 9t-43.5 -9t-28 -23.5t-14.5 -33t-4 -36.5v-342zM331 969q0 -26 -7 -52t-23 -46.5t-41 -33t-62 -12.5t-62 12.5t-40.5 33t-22 46.5t-6.5 52v342q0 26 6.5 51.5t22 46t40.5 33t62 12.5t62 -12.5t41 -33t23 -46t7 -51.5v-342zM582 125
q0 -18 4 -36.5t14.5 -33.5t28 -24t43.5 -9t43.5 9t28.5 24t15.5 33.5t4.5 36.5v342q0 18 -4.5 36.5t-15.5 33t-28.5 23.5t-43.5 9t-43.5 -9t-28 -23.5t-14.5 -33t-4 -36.5v-342zM805 125q0 -26 -7 -52t-23 -46.5t-41 -33t-62 -12.5t-62 12.5t-40.5 33t-22 46.5t-6.5 52v342
q0 26 6.5 51.5t22 46t40.5 33t62 12.5t62 -12.5t41 -33t23 -46t7 -51.5v-342z" />
    <glyph glyph-name="ampersand" unicode="&#x26;" horiz-adv-x="631" 
d="M512 207q0 -44 -11 -85t-36 -72.5t-66 -50.5t-100 -19q-61 0 -102 19t-65.5 50.5t-35 72.5t-10.5 85v584q0 30 6 61.5t19.5 60t35.5 52.5t54 39q-32 14 -54 38t-35.5 53.5t-19.5 64t-6 69.5q0 42 10.5 82.5t35 72t65.5 51t102 19.5q58 0 97.5 -17t64.5 -45.5t37 -66.5
t14 -80q3 -3 5.5 -8t2.5 -10q0 -11 -7.5 -19t-18.5 -8t-19 8t-8 19q0 3 0.5 6.5t3.5 7.5q-2 32 -11.5 63t-30 55t-52.5 39t-78 15q-48 0 -81 -16t-53.5 -42t-29 -59t-8.5 -67q0 -38 8.5 -74.5t29 -65.5t53.5 -47q31 -17 77 -18h48v-41h-49q-46 -1 -77 -19q-33 -18 -53 -46
t-28.5 -62t-8.5 -65v-584q0 -36 8.5 -69.5t28.5 -60t53 -42t82 -15.5t82 15.5t53 42t28.5 60t8.5 69.5v194h-129q-6 -6 -16 -6q-11 0 -19 8t-8 19t8 19t19 8q9 0 16 -7h227q10 7 19 7q11 0 18.5 -8t7.5 -19t-7.5 -19t-18.5 -8q-10 0 -19 6h-57v-194z" />
    <glyph glyph-name="quotesingle" unicode="'" horiz-adv-x="219" 
d="M131 1202q6 -6 6 -16q0 -11 -7.5 -19t-18.5 -8t-19 8t-8 19q0 10 6 16v164q-12 5 -18 16t-6 25q0 20 11.5 33.5t33.5 13.5q23 0 35 -13.5t12 -33.5q0 -14 -7.5 -25.5t-19.5 -17.5v-162z" />
    <glyph glyph-name="parenleft" unicode="(" horiz-adv-x="354" 
d="M135 63q0 -35 7.5 -67.5t26 -58t49 -42t75.5 -18.5q3 2 6 3t8 1q11 0 19 -7.5t8 -18.5t-8 -19t-19 -8q-13 0 -20 10q-55 3 -92 23t-59.5 51t-32 70.5t-9.5 80.5v1301q0 42 9.5 82.5t32.5 72.5t60 52.5t93 23.5q3 3 7.5 6t10.5 3q11 0 19 -8t8 -19t-8 -19t-19 -8
q-8 0 -16 4q-45 -3 -75 -20.5t-48 -44t-25.5 -59t-7.5 -66.5v-1301z" />
    <glyph glyph-name="parenright" unicode=")" horiz-adv-x="354" 
d="M219 1364q0 34 -7.5 66.5t-25.5 59t-48 44t-75 20.5q-8 -4 -16 -4q-11 0 -19 8t-8 19t8 19t19 8q6 0 10.5 -3t7.5 -6q56 -3 93 -23.5t60 -52.5t32.5 -72.5t9.5 -82.5v-1301q0 -41 -9.5 -80.5t-32 -70.5t-59.5 -51t-92 -23q-7 -10 -20 -10q-11 0 -19 8t-8 19t8 18.5
t19 7.5q5 0 8 -1t6 -3q45 2 75.5 18.5t49 42t26 58t7.5 67.5v1301z" />
    <glyph glyph-name="asterisk" unicode="*" horiz-adv-x="670" 
d="M492 993q9 -2 15.5 -9.5t6.5 -16.5q0 -11 -8 -19t-19 -8t-18.5 8t-7.5 19l-129 174l-125 -170v-4q0 -11 -8 -19t-19 -8t-18.5 8t-7.5 19q0 9 5 15.5t13 8.5l127 174l-203 70q-3 -2 -5.5 -2h-4.5q-11 0 -19 8t-8 19t8 18.5t19 7.5q6 0 12 -3.5t11 -8.5l204 -68v215
q-6 9 -6 19q0 11 8 18.5t19 7.5t18.5 -7.5t7.5 -18.5q0 -10 -6 -19v-215l205 66q10 14 25 14q11 0 18.5 -7.5t7.5 -18.5t-7.5 -19t-18.5 -8h-9l-206 -68z" />
    <glyph glyph-name="plus" unicode="+" horiz-adv-x="694" 
d="M594 571q8 7 18 7q11 0 19 -8t8 -19t-8 -19t-19 -8q-9 0 -18 6h-225v-229q6 -6 6 -16q0 -11 -8 -19t-19 -8t-18.5 8t-7.5 19q0 10 6 16v229h-232q-6 -6 -16 -6q-11 0 -19 8t-8 19t8 19t19 8q10 0 16 -7h232v228q-6 9 -6 18q0 11 7.5 19t18.5 8t19 -8t8 -19q0 -9 -6 -18
v-228h225z" />
    <glyph glyph-name="comma" unicode="," horiz-adv-x="223" 
d="M65 -125q0 -11 -7.5 -19t-18.5 -8t-19 8t-8 19q0 20 19 27l55 98q-6 9 -6 25q0 20 11.5 33.5t33.5 13.5q23 0 35 -13.5t12 -33.5q0 -19 -12 -32t-35 -13h-4l-56 -101v-4z" />
    <glyph glyph-name="hyphen" unicode="-" horiz-adv-x="618" 
d="M520 616q8 7 19 7t18.5 -8t7.5 -19t-7.5 -19t-18.5 -8q-10 0 -19 6h-426q-6 -6 -16 -6q-11 0 -19 8t-8 19t8 19t19 8q10 0 16 -7h426z" />
    <glyph glyph-name="period" unicode="." horiz-adv-x="195" 
d="M131 -7q-12 -13 -35 -13q-22 0 -33.5 13t-11.5 32q0 20 11.5 33.5t33.5 13.5q23 0 35 -13.5t12 -33.5q0 -19 -12 -32z" />
    <glyph glyph-name="slash" unicode="/" horiz-adv-x="575" 
d="M96 -182q4 -8 4 -13q0 -11 -7.5 -18.5t-18.5 -7.5t-19 7.5t-8 18.5q0 18 14 25l414 1585q-2 4 -2 12q0 11 8 19t19 8t18.5 -8t7.5 -19q0 -8 -4 -14.5t-12 -9.5z" />
    <glyph glyph-name="zero" unicode="0" horiz-adv-x="610" 
d="M133 207q0 -36 8.5 -69.5t28.5 -60t53 -42t82 -15.5t82 15.5t53 42t28.5 60t8.5 69.5v1014q0 35 -8.5 69.5t-28.5 61.5t-53 44t-82 17t-82 -17t-53 -44t-28.5 -61.5t-8.5 -69.5v-1014zM518 207q0 -44 -11 -85t-36 -72.5t-66 -50.5t-100 -19q-61 0 -102 19t-65.5 50.5
t-35 72.5t-10.5 85v1014q0 43 10.5 85t35 75t65.5 53t102 20q59 0 100 -20t66 -53t36 -75t11 -85v-1014z" />
    <glyph glyph-name="one" unicode="1" horiz-adv-x="522" 
d="M424 23q6 -8 6 -17q0 -11 -8 -18.5t-19 -7.5t-18.5 7.5t-7.5 18.5q0 9 6 17v1357l-332 -329q0 -11 -7.5 -19t-18.5 -8t-19 8t-8 19q0 9 7 16.5t18 9.5l354 353q0 9 7.5 16.5t18.5 7.5t19 -8t8 -19q0 -9 -6 -18v-1386z" />
    <glyph glyph-name="two" unicode="2" horiz-adv-x="567" 
d="M469 41q9 6 18 6q11 0 19 -8t8 -19t-8 -18.5t-19 -7.5q-9 0 -18 6h-401v395q0 24 2.5 48t10 47t22 46t38.5 46l240 213q38 35 58 82t20 100v250q0 36 -8.5 69.5t-28.5 59.5t-53 41.5t-82 15.5q-46 0 -78 -13.5t-52.5 -36.5t-30.5 -53.5t-11 -64.5q3 -3 4.5 -8t1.5 -10
q0 -11 -8 -19t-19 -8t-18.5 8t-7.5 19q0 5 1.5 10t4.5 8q2 42 14.5 79.5t37.5 66.5t64.5 46t96.5 17q61 0 101.5 -19t65.5 -51t35.5 -73t10.5 -84v-250q0 -51 -17.5 -104.5t-70.5 -102.5l-242 -213q-35 -31 -47 -71t-14 -91v-354h360z" />
    <glyph glyph-name="three" unicode="3" horiz-adv-x="561" 
d="M475 207q0 -44 -10.5 -85t-35.5 -72.5t-65.5 -50.5t-101.5 -19q-57 0 -96.5 17t-64.5 45.5t-37.5 66.5t-14.5 79q-3 4 -4.5 9t-1.5 10q0 11 8 18.5t19 7.5t18.5 -7.5t7.5 -18.5q0 -5 -1.5 -10t-4.5 -9q1 -34 11 -64.5t30.5 -53.5t52.5 -36.5t78 -13.5q49 0 82 15.5t53 42
t28.5 60t8.5 69.5v584q0 36 -8.5 70.5t-29 61.5t-55 43.5t-85.5 16.5h-37v41h55q49 0 80.5 17t49 45t24 63.5t6.5 71.5q0 35 -8.5 69.5t-28.5 61.5t-53 44t-82 17q-46 0 -78 -13.5t-52.5 -36.5t-30.5 -53.5t-11 -64.5q3 -3 4.5 -8t1.5 -10q0 -11 -8.5 -19t-17.5 -8
q-11 0 -19 8t-8 19q0 5 1.5 10t4.5 8q2 42 14.5 79.5t37.5 66.5t64.5 46t96.5 17q59 0 100 -20t66 -53t36 -75t11 -85q0 -33 -5.5 -66.5t-19 -62.5t-36.5 -52t-58 -36q33 -15 55.5 -37t37 -49.5t20.5 -60t6 -66.5v-584z" />
    <glyph glyph-name="four" unicode="4" horiz-adv-x="522" 
d="M395 23q6 -8 6 -17q0 -11 -7.5 -18.5t-18.5 -7.5t-19 7.5t-8 18.5q0 9 6 17v960h-352v41l346 403q0 11 8 19t19 8t18.5 -8t7.5 -19q0 -9 -6 -18v-385h58q9 6 18 6q11 0 19 -7.5t8 -18.5t-8 -19t-19 -8q-9 0 -18 6h-58v-960zM354 1024v350l-303 -350h303z" />
    <glyph glyph-name="five" unicode="5" horiz-adv-x="555" 
d="M471 207q0 -44 -11 -85t-36 -72.5t-66 -50.5t-100 -19q-57 0 -96.5 16.5t-64 44t-37 64t-15.5 77.5q-6 6 -6 19q0 11 8 18.5t19 7.5t18.5 -7.5t7.5 -18.5t-6 -17q2 -33 12.5 -63t30.5 -52.5t52 -35.5t77 -13q49 0 82 15.5t53 42t28.5 60t8.5 69.5v590q0 36 -8.5 69.5
t-28.5 59.5t-53 41.5t-82 15.5h-172v451h350q9 6 19 6q11 0 18.5 -8t7.5 -19t-7.5 -19t-18.5 -8q-9 0 -19 7h-309v-369h131q59 0 100 -19t66 -51t36 -73t11 -84v-590z" />
    <glyph glyph-name="six" unicode="6" horiz-adv-x="602" 
d="M518 207q0 -44 -11 -85t-36 -72.5t-66 -50.5t-100 -19q-61 0 -102 19t-65.5 50.5t-35 72.5t-10.5 85v547v22v445q0 43 10.5 85t35 75t65.5 53t102 20q57 0 96.5 -18t64.5 -48t37.5 -68.5t14.5 -80.5q3 -3 4.5 -8t1.5 -10q0 -11 -7.5 -19t-18.5 -8t-19 8t-8 19q0 10 6 16
q-2 33 -11.5 64.5t-30 56.5t-52.5 40t-78 15q-49 0 -82 -17t-53 -44t-28.5 -61.5t-8.5 -69.5v-291q25 43 67.5 68.5t104.5 25.5q59 0 100 -20t66 -53t36 -75t11 -85v-584zM133 209q0 -36 8.5 -70t28.5 -60.5t53 -42.5t82 -16t82 16t53 42.5t28.5 60.5t8.5 70v579
q0 36 -8.5 70.5t-28.5 62.5t-53 45t-82 17t-82 -17t-53 -45t-28.5 -62.5t-8.5 -70.5v-579z" />
    <glyph glyph-name="seven" unicode="7" horiz-adv-x="502" 
d="M158 23q6 -8 6 -17q0 -11 -8 -18.5t-19 -7.5t-18.5 7.5t-7.5 18.5q0 9 6 17v688q0 51 17 104t71 103l170 149q35 31 47 71t14 91v164h-362q-7 -7 -17 -7q-11 0 -18.5 8t-7.5 19t7.5 19t18.5 8t17 -6h403v-205q0 -24 -2.5 -48t-10 -47t-22 -46.5t-39.5 -45.5l-167 -149
q-39 -35 -58.5 -82.5t-19.5 -99.5v-688z" />
    <glyph glyph-name="eight" unicode="8" horiz-adv-x="600" 
d="M512 207q0 -44 -11 -85t-36 -72.5t-66 -50.5t-100 -19q-61 0 -102 19t-65.5 50.5t-35 72.5t-10.5 85v604q0 32 6 64t19 60t34 51t52 38q-31 13 -52 34.5t-34 48.5t-19 58.5t-6 63.5q0 42 10.5 82.5t35 72t65.5 51t102 19.5t101.5 -18.5t65.5 -49.5t35.5 -71.5t10.5 -85.5
q0 -32 -6 -63.5t-19 -58.5t-35 -48.5t-53 -34.5q30 -15 51.5 -38t35 -51t20 -60t6.5 -64v-604zM127 207q0 -36 8.5 -69.5t28.5 -60t53 -42t82 -15.5t82 15.5t53 42t28.5 60t8.5 69.5v604q0 35 -8.5 69.5t-28.5 62t-53 44.5t-82 17t-82 -17t-53 -44.5t-28.5 -62t-8.5 -69.5
v-604zM307 1044q46 2 77.5 18t50.5 41.5t27.5 58t8.5 67.5q0 34 -8.5 67t-29 59t-53.5 42t-81 16t-81 -16t-53.5 -42t-29 -59t-8.5 -67q0 -33 8.5 -65.5t27.5 -58.5t50 -42.5t76 -18.5h10h8z" />
    <glyph glyph-name="nine" unicode="9" horiz-adv-x="602" 
d="M510 213q0 -44 -10.5 -86t-35.5 -74.5t-65.5 -52.5t-101.5 -20q-57 0 -96.5 18t-64.5 48t-37.5 68.5t-14.5 80.5q-3 3 -4.5 8t-1.5 10q0 11 7.5 19t18.5 8t19 -8t8 -19q0 -10 -6 -16q1 -33 11 -65t30.5 -56.5t52.5 -40t78 -15.5q49 0 82 17t53 44.5t28.5 62t8.5 69.5v289
q-26 -44 -69 -68t-103 -24q-59 0 -100 20t-66 52.5t-36 74.5t-11 86v584q0 43 11 84t36 73t66 51t100 19q61 0 101.5 -19t65.5 -51t35.5 -73t10.5 -84v-547v-23v-444zM125 645q0 -35 8.5 -70t28.5 -62.5t53 -44.5t82 -17q47 0 79 15.5t52.5 41t29.5 57.5t11 66v594
q0 36 -8.5 70t-28.5 60t-53 42t-82 16t-82 -16t-53 -42t-28.5 -60t-8.5 -70v-580z" />
    <glyph glyph-name="colon" unicode=":" horiz-adv-x="195" 
d="M131 -7q-12 -13 -35 -13q-22 0 -33.5 13t-11.5 32q0 20 11.5 33.5t33.5 13.5q23 0 35 -13.5t12 -33.5q0 -19 -12 -32zM131 781q-12 -13 -35 -13q-22 0 -33.5 13t-11.5 32q0 20 11.5 33.5t33.5 13.5q23 0 35 -13.5t12 -33.5q0 -19 -12 -32z" />
    <glyph glyph-name="semicolon" unicode=";" horiz-adv-x="223" 
d="M65 -125q0 -11 -7.5 -19t-18.5 -8t-19 8t-8 19q0 20 19 27l57 96q-8 8 -8 27q0 20 11.5 33.5t33.5 13.5q23 0 35 -13.5t12 -33.5q0 -19 -12 -32t-35 -13h-2zM160 781q-12 -13 -35 -13q-22 0 -33.5 13t-11.5 32q0 20 11.5 33.5t33.5 13.5q23 0 35 -13.5t12 -33.5
q0 -19 -12 -32z" />
    <glyph glyph-name="less" unicode="&#x3c;" horiz-adv-x="764" 
d="M655 457q2 2 9 2q11 0 18.5 -8t7.5 -19t-7.5 -18.5t-18.5 -7.5q-10 0 -17 5t-10 13l-555 301h-6q-11 0 -19 8t-8 19t8 18.5t19 7.5q4 0 6 -2l555 301q6 21 27 21q11 0 18.5 -8t7.5 -19t-7.5 -19t-18.5 -8h-9l-542 -292z" />
    <glyph glyph-name="equal" unicode="=" horiz-adv-x="764" 
d="M629 671q8 7 18 7q11 0 19 -8t8 -19t-8 -19t-19 -8q-9 0 -18 6h-498q-6 -6 -16 -6q-11 0 -19 8t-8 19t8 19t19 8q10 0 16 -7h498zM629 856q8 7 18 7q11 0 19 -8t8 -19t-8 -19t-19 -8q-9 0 -18 6h-498q-6 -6 -16 -6q-11 0 -19 8t-8 19t8 19t19 8q10 0 16 -7h498z" />
    <glyph glyph-name="greater" unicode="&#x3e;" horiz-adv-x="764" 
d="M109.08 457q-2 2 -8.99902 2q-10.999 0 -18.498 -8t-7.49902 -19t7.49902 -18.5t18.498 -7.5q9.99902 0 16.998 5t9.99902 13l554.932 301h6q10.998 0 18.9971 8t7.99902 19t-7.99902 18.5t-18.9971 7.5q-4 0 -6 -2l-554.932 301q-6 21 -26.9971 21q-10.999 0 -18.498 -8
t-7.49902 -19t7.49902 -19t18.498 -8h8.99902l541.934 -292z" />
    <glyph glyph-name="question" unicode="?" horiz-adv-x="555" 
d="M291 309q6 -6 6 -16q0 -11 -8 -19t-19 -8t-18.5 8t-7.5 19q0 10 6 16v365q0 51 17 104t71 103l43 37q35 30 47 70t14 91v142q0 35 -8.5 69.5t-28.5 61.5t-53 44t-82 17q-46 0 -78 -15t-52.5 -40t-30.5 -56.5t-11 -64.5q6 -6 6 -16q0 -11 -7.5 -19t-18.5 -8t-19 8t-8 19
q0 5 1.5 10t4.5 8q2 42 14.5 80.5t37.5 68.5t64.5 48t96.5 18q61 0 101.5 -20t65.5 -53t35.5 -75t10.5 -85v-142q0 -24 -2.5 -47.5t-10 -47t-22 -46.5t-38.5 -45l-41 -37q-39 -35 -58.5 -82.5t-19.5 -99.5v-365zM306 -7q-12 -13 -35 -13q-22 0 -33.5 13t-11.5 32
q0 20 11.5 33.5t33.5 13.5q23 0 35 -13.5t12 -33.5q0 -19 -12 -32z" />
    <glyph glyph-name="at" unicode="@" horiz-adv-x="948" 
d="M868 61h-16q-78 0 -124 34t-66 85q-15 -38 -38.5 -61t-49.5 -36t-53 -17.5t-50 -4.5q-61 0 -101.5 20.5t-65 53.5t-34.5 75.5t-10 86.5v430q0 44 10 86.5t34.5 75.5t65 53.5t101.5 20.5q62 0 102 -24t68 -62v41q-6 9 -6 18q0 11 8 19t19 8t18.5 -8t7.5 -19q0 -9 -6 -18
v-615v-6q0 -34 7 -66.5t23.5 -59.5t44.5 -45t70 -22v713q0 71 -17.5 141t-58.5 125.5t-109 90t-169 34.5q-100 0 -167 -34.5t-107.5 -90t-58 -125.5t-17.5 -141v-590q0 -71 17.5 -140.5t58 -125.5t107.5 -90.5t167 -34.5v-41q-112 0 -187 37t-120.5 97.5t-64.5 137.5
t-19 158v594q0 81 19.5 158t65 137.5t121 97.5t187.5 37q109 0 184 -37t121.5 -97.5t67 -137.5t20.5 -158v-758zM301 297q0 -35 8 -70t27.5 -63t52 -45t82.5 -17q48 0 80.5 16.5t52.5 43.5t28.5 62t8.5 73v430q0 35 -10.5 70t-31.5 62.5t-53 45t-75 17.5q-50 0 -82.5 -17.5
t-52 -45t-27.5 -62.5t-8 -70v-430z" />
    <glyph glyph-name="A" unicode="A" 
d="M512 23q6 -8 6 -17q0 -11 -7.5 -18.5t-18.5 -7.5t-19 7.5t-8 18.5q0 9 6 17v960h-344v-960q6 -8 6 -17q0 -11 -8 -18.5t-19 -7.5t-18.5 7.5t-7.5 18.5q0 9 6 17v1177q0 44 10 86t35 75t66.5 53t103.5 20h211v-1411zM471 1024v369h-170q-51 0 -84.5 -17t-53.5 -44.5
t-28 -62t-8 -69.5v-176h344z" />
    <glyph glyph-name="B" unicode="B" horiz-adv-x="582" 
d="M514 221q0 -105 -54.5 -163t-160.5 -58h-211v1434h207q58 0 96.5 -17t61.5 -46t33 -68t10 -82q0 -33 -5 -66t-16.5 -62t-31 -52.5t-48.5 -36.5q33 -15 55.5 -37t37 -49.5t20.5 -60t6 -66.5v-570zM299 41q87 0 130.5 48.5t43.5 133.5v568q0 36 -8.5 70.5t-29 61.5
t-55 43.5t-85.5 16.5h-166v-942h170zM295 1024q49 0 80 17t49 45t24.5 63.5t6.5 71.5q0 35 -8 66.5t-26.5 55t-49.5 37t-76 13.5h-166v-369h166z" />
    <glyph glyph-name="C" unicode="C" horiz-adv-x="539" 
d="M123 207q0 -36 8.5 -69.5t28.5 -60t53 -42t82 -15.5q46 0 78 13.5t52.5 36.5t30 53.5t11.5 64.5q-3 4 -4.5 9t-1.5 10q0 11 7.5 18.5t18.5 7.5t19 -7.5t8 -18.5q0 -5 -1.5 -10t-4.5 -9q-2 -41 -14.5 -79t-37.5 -66.5t-64.5 -45.5t-96.5 -17q-61 0 -102 19t-65.5 50.5
t-35 72.5t-10.5 85v1014q0 43 10.5 85t35 75t65.5 53t102 20q57 0 96.5 -18t64.5 -48t37.5 -68.5t14.5 -80.5q3 -3 4.5 -8t1.5 -10q0 -11 -8 -19t-19 -8t-18.5 8t-7.5 19q0 10 6 16q-2 33 -11.5 64.5t-30 56.5t-52.5 40t-78 15q-49 0 -82 -17t-53 -44t-28.5 -61.5
t-8.5 -69.5v-1014z" />
    <glyph glyph-name="D" unicode="D" horiz-adv-x="596" 
d="M514 233q0 -44 -10.5 -85.5t-35 -74.5t-66 -53t-103.5 -20h-211v1434h211q62 0 103.5 -20t66 -53t35 -75t10.5 -86v-967zM299 41q51 0 84.5 17t53.5 44t28 61.5t8 69.5v967q0 35 -8 69.5t-28 62t-53.5 44.5t-84.5 17h-170v-1352h170z" />
    <glyph glyph-name="E" unicode="E" horiz-adv-x="547" 
d="M467 41q9 6 18 6q11 0 19 -8t8 -19t-8 -18.5t-19 -7.5q-9 0 -18 6h-381v1202q0 44 10 85.5t35 74t66.5 52.5t103.5 20h166q9 6 18 6q11 0 19 -8t8 -19t-8 -19t-19 -8q-8 0 -18 7h-166q-51 0 -84.5 -16.5t-53.5 -43.5t-28 -61.5t-8 -69.5v-178h281q9 6 18 6q11 0 19 -7.5
t8 -18.5t-8 -19t-19 -8q-9 0 -18 6h-281v-942h340z" />
    <glyph glyph-name="F" unicode="F" horiz-adv-x="524" 
d="M127 23q6 -8 6 -17q0 -11 -8 -18.5t-19 -7.5t-18.5 7.5t-7.5 18.5q0 9 6 17v1179q0 44 10 85.5t35 74t66.5 52.5t103.5 20h166q9 6 18 6q11 0 19 -8t8 -19t-8 -19t-19 -8q-8 0 -18 7h-166q-51 0 -84.5 -16.5t-53.5 -43.5t-28 -61.5t-8 -69.5v-178h281q9 6 18 6
q11 0 19 -7.5t8 -18.5t-8 -19t-19 -8q-9 0 -18 6h-281v-960z" />
    <glyph glyph-name="G" unicode="G" horiz-adv-x="571" 
d="M508 207q0 -44 -11 -85t-36 -72.5t-66 -50.5t-100 -19q-61 0 -102 19t-65.5 50.5t-35 72.5t-10.5 85v1014q0 43 10.5 85t35 75t65.5 53t102 20q57 0 96.5 -18t64.5 -48t37.5 -68.5t14.5 -80.5q3 -3 4.5 -8t1.5 -10q0 -11 -8 -19t-19 -8t-18.5 8t-7.5 19q0 10 6 16
q-2 33 -11.5 64.5t-30 56.5t-52.5 40t-78 15q-49 0 -82 -17t-53 -44t-28.5 -61.5t-8.5 -69.5v-1014q0 -36 8.5 -69.5t28.5 -60t53 -42t82 -15.5t82 15.5t53 42t28.5 60t8.5 69.5v364h-156q-6 -6 -16 -6q-11 0 -19 8t-8 19t8 18.5t19 7.5q10 0 16 -6h197v-405z" />
    <glyph glyph-name="H" unicode="H" horiz-adv-x="602" 
d="M514 23q6 -8 6 -17q0 -11 -7.5 -18.5t-18.5 -7.5t-19 7.5t-8 18.5q0 9 6 17v960h-344v-960q6 -8 6 -17q0 -11 -7.5 -18.5t-18.5 -7.5t-19 7.5t-8 18.5q0 9 6 17v1386q-6 9 -6 18q0 11 8 19t19 8t18.5 -8t7.5 -19q0 -9 -6 -18v-385h344v385q-6 9 -6 18q0 11 8 19t19 8
t18.5 -8t7.5 -19q0 -9 -6 -18v-1386z" />
    <glyph glyph-name="I" unicode="I" horiz-adv-x="217" 
d="M129 23q6 -8 6 -17q0 -11 -7.5 -18.5t-18.5 -7.5t-19 7.5t-8 18.5q0 9 6 17v1386q-6 9 -6 18q0 11 8 19t19 8t18.5 -8t7.5 -19q0 -9 -6 -18v-1386z" />
    <glyph glyph-name="J" unicode="J" horiz-adv-x="522" 
d="M436 207q0 -44 -10.5 -85t-35.5 -72.5t-65.5 -50.5t-101.5 -19q-57 0 -96.5 17t-64.5 45.5t-37.5 66.5t-14.5 79q-3 4 -4.5 9t-1.5 10q0 11 8 18.5t19 7.5t18.5 -7.5t7.5 -18.5q0 -5 -1.5 -10t-4.5 -9q1 -34 11 -64.5t30.5 -53.5t52.5 -36.5t78 -13.5q49 0 82 15.5t53 42
t28.5 60t8.5 69.5v1202q-3 3 -4.5 8t-1.5 10q0 11 8.5 19t18.5 8q11 0 18.5 -8t7.5 -19q0 -5 -1.5 -10t-4.5 -8v-1202z" />
    <glyph glyph-name="K" unicode="K" horiz-adv-x="586" 
d="M514 23q6 -8 6 -17q0 -11 -7.5 -18.5t-18.5 -7.5t-19 7.5t-8 18.5q0 9 6 17v770q0 35 -8.5 69.5t-28.5 61.5t-53 44t-82 17h-172v-962q6 -8 6 -17q0 -11 -7.5 -18.5t-18.5 -7.5t-19 7.5t-8 18.5q0 9 6 17v1386q-6 9 -6 18q0 11 8 19t19 8t18.5 -8t7.5 -19q0 -9 -6 -18
v-385l328 401v2q0 11 7.5 19t18.5 8t19 -8t8 -19q0 -9 -6.5 -16.5t-16.5 -9.5l-307 -377h121q59 0 100 -20t66 -52.5t36 -74.5t11 -86v-768z" />
    <glyph glyph-name="L" unicode="L" horiz-adv-x="535" 
d="M483 41q9 6 19 6q11 0 18.5 -8t7.5 -19t-7.5 -18.5t-18.5 -7.5q-10 0 -19 6h-395v1409q-6 9 -6 18q0 11 8 19t19 8t18.5 -8t7.5 -19q0 -9 -6 -18v-1368h354z" />
    <glyph glyph-name="M" unicode="M" horiz-adv-x="733" 
d="M645 23q6 -8 6 -17q0 -11 -7.5 -18.5t-18.5 -7.5t-19 7.5t-8 18.5q0 9 6 17v1327l-217 -367h-43l-215 365v-1325q6 -8 6 -17q0 -11 -7.5 -18.5t-18.5 -7.5t-19 7.5t-8 18.5q0 9 6 17v1386q-6 9 -6 18q0 11 8 19t19 8t18.5 -8t7.5 -19q0 -6 -2 -8l234 -395l231 395v8
q0 11 8 19t19 8t18.5 -8t7.5 -19q0 -9 -6 -18v-1386z" />
    <glyph glyph-name="N" unicode="N" horiz-adv-x="602" 
d="M514 23q6 -8 6 -17q0 -11 -7.5 -18.5t-18.5 -7.5t-19 7.5t-8 18.5q0 9 6 17v1353l-344 -366v-987q6 -8 6 -17q0 -11 -7.5 -18.5t-18.5 -7.5t-19 7.5t-8 18.5q0 9 6 17v1386q-6 9 -6 18q0 11 8 19t19 8t18.5 -8t7.5 -19q0 -9 -6 -18v-342l344 367h41v-1411z" />
    <glyph glyph-name="O" unicode="O" horiz-adv-x="590" 
d="M123 207q0 -36 8.5 -69.5t28.5 -60t53 -42t82 -15.5t82 15.5t53 42t28.5 60t8.5 69.5v1014q0 35 -8.5 69.5t-28.5 61.5t-53 44t-82 17t-82 -17t-53 -44t-28.5 -61.5t-8.5 -69.5v-1014zM508 207q0 -44 -11 -85t-36 -72.5t-66 -50.5t-100 -19q-61 0 -102 19t-65.5 50.5
t-35 72.5t-10.5 85v1014q0 43 10.5 85t35 75t65.5 53t102 20q59 0 100 -20t66 -53t36 -75t11 -85v-1014z" />
    <glyph glyph-name="P" unicode="P" horiz-adv-x="573" 
d="M129 23q6 -8 6 -17q0 -11 -7.5 -18.5t-18.5 -7.5t-19 7.5t-8 18.5q0 9 6 17v1411h219q61 0 101.5 -20t65.5 -53t35.5 -75t10.5 -86v-563q0 -44 -10.5 -85t-35.5 -72.5t-65.5 -50.5t-101.5 -19h-178v-387zM307 451q49 0 82 15.5t53 41.5t28.5 59.5t8.5 69.5v563
q0 35 -8.5 69.5t-28.5 62t-53 44.5t-82 17h-178v-942h178z" />
    <glyph glyph-name="Q" unicode="Q" horiz-adv-x="590" 
d="M504 33q11 0 18.5 -8t7.5 -19t-7.5 -18.5t-18.5 -7.5t-18 6.5t-9 15.5l-33 31q-24 -25 -61 -39t-88 -14q-61 0 -102 19t-65.5 50.5t-35 72.5t-10.5 85v1014q0 43 10.5 85t35 75t65.5 53t102 20q59 0 100 -20t66 -53t36 -75t11 -85v-1014q0 -38 -9 -75t-28 -66zM440 94
q14 25 20.5 53.5t6.5 59.5v1014q0 35 -8.5 69.5t-28.5 61.5t-53 44t-82 17t-82 -17t-53 -44t-28.5 -61.5t-8.5 -69.5v-1014q0 -36 8.5 -69.5t28.5 -60t53 -42t82 -15.5q42 0 71.5 11.5t49.5 29.5l-123 125q-11 0 -18 8t-7 19t8 19t19 8q9 0 17 -8t10 -17z" />
    <glyph glyph-name="R" unicode="R" horiz-adv-x="582" 
d="M500 31q7 -2 14 -11q6 -9 3.5 -19.5t-13.5 -16.5q-8 -7 -19 -3.5t-16 11.5q-3 5 -3.5 9t-0.5 9l-236 400h-100v-387q6 -8 6 -17q0 -11 -7.5 -18.5t-18.5 -7.5t-19 7.5t-8 18.5q0 9 6 17v1411h219q61 0 101.5 -20t65.5 -53t35.5 -75t10.5 -86v-563q0 -44 -10.5 -85
t-35.5 -72.5t-65.5 -50.5t-101.5 -19h-31zM307 451q49 0 82 15.5t53 41.5t28.5 59.5t8.5 69.5v563q0 35 -8.5 69.5t-28.5 62t-53 44.5t-82 17h-178v-942h178z" />
    <glyph glyph-name="S" unicode="S" horiz-adv-x="545" 
d="M487 207q0 -44 -11 -85t-36 -72.5t-66 -50.5t-102 -19q-57 0 -96 17t-64.5 45.5t-37.5 66.5t-15 79q-3 4 -4.5 9t-1.5 10q0 11 8 18.5t19 7.5t18.5 -7.5t7.5 -18.5q0 -5 -1.5 -10t-4.5 -9q1 -34 11 -64.5t30.5 -53.5t52.5 -36.5t78 -13.5q49 0 82.5 15.5t53.5 42t29 60
t9 69.5v256q0 52 -20.5 99.5t-58.5 82.5l-240 213q-25 22 -40 45.5t-23 46.5t-10.5 46.5t-2.5 47.5v177q0 43 11 85t36 75t66 53t102 20q57 0 96.5 -18t64.5 -48t37.5 -68.5t14.5 -80.5q3 -3 4.5 -8t1.5 -10q0 -11 -7.5 -19t-18.5 -8t-19 8t-8 19q0 10 6 16
q-2 33 -11.5 64.5t-30 56.5t-52.5 40t-78 15q-49 0 -82.5 -17t-53.5 -44t-29 -61.5t-9 -69.5v-177q2 -51 15.5 -90.5t48.5 -70.5l241 -213q54 -50 72 -103t18 -104v-256z" />
    <glyph glyph-name="T" unicode="T" horiz-adv-x="479" 
d="M260 23q6 -8 6 -17q0 -11 -7.5 -18.5t-18.5 -7.5t-19 7.5t-8 18.5q0 9 6 17v1370h-156q-7 -7 -16 -7q-11 0 -19 8t-8 19t8 19t19 8q10 0 16 -6h351q9 6 18 6q11 0 19 -8t8 -19t-8 -19t-19 -8q-8 0 -18 7h-154v-1370z" />
    <glyph glyph-name="U" unicode="U" 
d="M512 213q0 -44 -11 -86t-36 -74.5t-66 -52.5t-100 -20q-61 0 -102 20t-65.5 52.5t-35 74.5t-10.5 86v1196q-6 9 -6 18q0 11 7.5 19t18.5 8t19 -8t8 -19q0 -9 -6 -18v-1196q0 -35 8.5 -69.5t28.5 -62t53 -44.5t82 -17t82 17t53 44.5t28.5 62t8.5 69.5v1196q-6 9 -6 18
q0 11 8 19t19 8t18.5 -8t7.5 -19q0 -9 -6 -18v-1196z" />
    <glyph glyph-name="V" unicode="V" horiz-adv-x="537" 
d="M291 20q4 -8 4 -14q0 -11 -8 -18.5t-19 -7.5t-18.5 7.5t-7.5 18.5q0 3 0.5 7t3.5 7l-213 1387q-8 8 -8 20q0 11 7.5 19t18.5 8t19 -8t8 -19q0 -5 -1 -8t-3 -6l194 -1268l195 1268q-3 3 -3.5 6t-0.5 8q0 11 7.5 19t18.5 8t19 -8t8 -19q0 -6 -2.5 -10.5t-5.5 -9.5z" />
    <glyph glyph-name="W" unicode="W" horiz-adv-x="971" 
d="M725 20q4 -8 4 -14q0 -11 -8 -18.5t-19 -7.5t-18.5 7.5t-7.5 18.5q0 3 0.5 7t3.5 7l-195 1268l-194 -1268q4 -8 4 -14q0 -11 -8 -18.5t-19 -7.5t-18.5 7.5t-7.5 18.5q0 3 0.5 7t3.5 7l-213 1387q-8 8 -8 20q0 11 7.5 19t18.5 8t19 -8t8 -19q0 -5 -1 -8t-3 -6l194 -1268
l195 1268q-3 3 -3.5 6t-0.5 8q0 11 7.5 19t18.5 8t19 -8t8 -19q0 -5 -1 -8t-3 -6l194 -1268l195 1268q-3 3 -3.5 6t-0.5 8q0 11 8 19t19 8t18.5 -8t7.5 -19q0 -6 -2.5 -10.5t-5.5 -9.5z" />
    <glyph glyph-name="X" unicode="X" horiz-adv-x="512" 
d="M494 27q6 -3 9 -9t3 -12q0 -11 -8 -18.5t-19 -7.5t-18.5 7.5t-7.5 18.5v8l-197 654l-197 -654q2 -4 2 -8q0 -11 -7.5 -18.5t-18.5 -7.5t-19 7.5t-8 18.5q0 14 10 21l215 714l-198 664q-10 10 -10 22q0 11 7.5 19t18.5 8t19 -8t8 -19q0 -3 -1 -5.5t-1 -4.5l180 -602
l182 602q-2 2 -2 10q0 11 8 19t19 8t18.5 -8t7.5 -19q0 -12 -10 -22l-200 -664z" />
    <glyph glyph-name="Y" unicode="Y" horiz-adv-x="502" 
d="M272 23q7 -9 7 -17q0 -11 -8 -18.5t-19 -7.5t-19 7.5t-8 18.5q0 9 6 17v1001l-206 379q-17 6 -17 24q0 11 8 19t19 8t18.5 -8t7.5 -19q0 -6 -2 -10l189 -344h6l188 344v10q0 11 8 19t19 8t19 -8t8 -19q0 -9 -5.5 -15t-11.5 -9l-207 -379v-1001z" />
    <glyph glyph-name="Z" unicode="Z" horiz-adv-x="489" 
d="M416 41q9 6 18 6q11 0 19 -8t8 -19t-8 -18.5t-19 -7.5q-9 0 -18 6h-389v41l391 1352h-348q-7 -7 -17 -7q-11 0 -18.5 8t-7.5 19t7.5 19t18.5 8t17 -6h391v-41l-391 -1352h346z" />
    <glyph glyph-name="bracketleft" unicode="[" horiz-adv-x="371" 
d="M303 -123q9 6 19 6q11 0 18.5 -7.5t7.5 -18.5t-7.5 -19t-18.5 -8q-10 0 -19 6h-201v1761h201q8 7 19 7t18.5 -8t7.5 -19t-7.5 -19t-18.5 -8q-10 0 -19 6h-158v-1679h158z" />
    <glyph glyph-name="backslash" unicode="\" horiz-adv-x="573" 
d="M477.012 -182q-4 -8 -4 -13q0 -11 7.5 -18.5q7.49902 -7.5 18.4971 -7.5q10.999 0 18.998 7.5t7.99902 18.5q0 18 -13.998 25l-413.95 1585q2 4 2 12q0 11 -7.99902 19t-18.998 8q-10.998 0 -18.4971 -8t-7.49902 -19q0 -8 3.99902 -14.5q4 -6.5 11.999 -9.5z" />
    <glyph glyph-name="bracketright" unicode="]" horiz-adv-x="371" 
d="M226 -123v1679h-158q-9 -6 -19 -6q-11 0 -18.5 8t-7.5 19t7.5 19t18.5 8t19 -7h201v-1761h-201q-9 -6 -19 -6q-11 0 -18.5 8t-7.5 19t7.5 18.5t18.5 7.5q10 0 19 -6h158z" />
    <glyph glyph-name="asciicircum" unicode="^" 
d="M489 551q7 -6 7 -16q0 -11 -6.5 -19t-20.5 -8t-20.5 8t-6.5 19q0 4 4 12l-141 766l-153 -764q4 -8 4 -14q0 -11 -8 -19t-19 -8t-19 8t-8 19q0 6 2 11.5t7 8.5l172 858q-2 3 -2 7v7q0 11 7.5 19t18.5 8t19 -8t8 -19q0 -5 -1 -8t-3 -6z" />
    <glyph glyph-name="underscore" unicode="_" horiz-adv-x="571" 
d="M499 43q8 7 19 7t18.5 -8t7.5 -19t-7.5 -19t-18.5 -8q-10 0 -19 6h-426q-6 -6 -16 -6q-11 0 -19 8t-8 19t8 19t19 8q10 0 16 -7h426z" />
    <glyph glyph-name="grave" unicode="`" horiz-adv-x="451" 
d="M344 1221q9 -2 17 -10t8 -17q0 -11 -8 -19t-19 -8t-19 8t-8 19l-206 207q-11 0 -19 7.5t-8 18.5t8 19t19 8q9 0 16.5 -7.5t9.5 -16.5z" />
    <glyph glyph-name="a" unicode="a" horiz-adv-x="563" 
d="M485 23q7 -9 7 -17q0 -11 -8 -18.5t-19 -7.5t-19 7.5t-8 18.5q0 9 6 17v43q-27 -39 -67.5 -62.5t-102.5 -23.5q-60 0 -100.5 20.5t-65 53.5t-35 75t-10.5 86v166q0 44 9.5 86t37 75t79 53.5t135.5 20.5h120v193q0 35 -8.5 70t-28 62.5t-52.5 45t-81 17.5q-46 0 -78 -15.5
t-52.5 -40t-30.5 -56.5t-11 -65q7 -7 7 -16t-8 -17t-19 -8t-19 8t-8 17q0 5 1.5 10t4.5 8q3 42 15 80.5t37.5 68.5t64.5 48t96 18q60 0 100.5 -20.5t65 -53.5t35 -75t10.5 -86v-786zM104 215q0 -35 8 -70t27.5 -63t52 -45t82.5 -17q48 0 80 15.5t51.5 41t28 58t10.5 66.5
v374h-120q-72 0 -115.5 -17t-67 -44.5t-30.5 -62.5t-7 -70v-166z" />
    <glyph glyph-name="b" unicode="b" horiz-adv-x="573" 
d="M504 215q0 -44 -10 -86t-34.5 -75t-65 -53.5t-101.5 -20.5q-62 0 -102 23.5t-68 62.5v-43q6 -8 6 -17q0 -11 -8 -18.5t-19 -7.5t-18.5 7.5t-7.5 18.5q0 9 6 17v1386q-6 9 -6 18q0 11 7.5 19t18.5 8t19 -8t8 -19q0 -9 -6 -18v-460q28 48 68 71.5t102 23.5
q61 0 101.5 -20.5t65 -53.5t34.5 -75t10 -86v-594zM123 215q0 -34 8.5 -68.5t28.5 -62.5t52.5 -46t80.5 -18q50 0 82.5 17t52 45t27.5 63t8 70v594q0 35 -8 70t-27.5 62.5t-52 45t-82.5 17.5q-43 0 -75 -17.5t-53 -45t-31.5 -62.5t-10.5 -70v-594z" />
    <glyph glyph-name="c" unicode="c" horiz-adv-x="539" 
d="M113 215q0 -36 8.5 -71t28 -62.5t52.5 -44.5t81 -17q46 0 78 14.5t52.5 39t30 56t11.5 65.5q-3 3 -4.5 8t-1.5 10q0 9 7.5 17t18.5 8t19 -8t8 -17q0 -5 -1.5 -10t-4.5 -8q-3 -42 -15 -80.5t-37.5 -68.5t-64.5 -48t-96 -18q-60 0 -100.5 20.5t-65 53.5t-35 75t-10.5 86
v594q0 44 10.5 86t35 75t65 53.5t100.5 20.5q57 0 96 -18t64.5 -48t37.5 -68.5t15 -80.5q3 -3 4.5 -8t1.5 -10q0 -9 -8 -17t-19 -8t-18.5 8t-7.5 17q0 10 6 16q-2 33 -11.5 65t-30 56.5t-52.5 40t-78 15.5q-48 0 -81 -17.5t-52.5 -45t-28 -62.5t-8.5 -70v-594z" />
    <glyph glyph-name="d" unicode="d" horiz-adv-x="575" 
d="M72 809q0 44 10 86t34.5 75t65 53.5t101.5 20.5q62 0 102 -23.5t68 -71.5v460q-6 9 -6 18q0 11 8 19t19 8t18.5 -8t7.5 -19q0 -9 -6 -18v-1386q6 -8 6 -17q0 -11 -7.5 -18.5t-18.5 -7.5t-19 7.5t-8 18.5q0 9 6 17v43q-28 -39 -68 -62.5t-102 -23.5q-61 0 -101.5 20.5
t-65 53.5t-34.5 75t-10 86v594zM453 809q0 35 -10.5 70t-31.5 62.5t-53 45t-75 17.5q-50 0 -82.5 -17.5t-52 -45t-27.5 -62.5t-8 -70v-594q0 -35 8 -70t27.5 -63t52 -45t82.5 -17q48 0 80.5 18t52.5 46t28.5 62.5t8.5 68.5v594z" />
    <glyph glyph-name="e" unicode="e" horiz-adv-x="555" 
d="M494 575h-381v-360q0 -36 8.5 -71t28 -62.5t52.5 -44.5t81 -17q47 0 79 15t51.5 39.5t28.5 56.5t11 66q-3 3 -5 8t-2 8q0 11 8 19t19 8t19 -8t8 -19q0 -3 -1.5 -8t-4.5 -8q-3 -42 -14.5 -81t-35.5 -69t-63.5 -48.5t-97.5 -18.5q-60 0 -100.5 20.5t-65 53.5t-35 75
t-10.5 86v594q0 44 10.5 86t35 75t65 53.5t100.5 20.5t100 -20.5t65 -53.5t35.5 -75t10.5 -86v-234zM453 616v193q0 35 -8 70t-27.5 62.5t-52.5 45t-82 17.5q-48 0 -81 -17.5t-52.5 -45t-28 -62.5t-8.5 -70v-193h340z" />
    <glyph glyph-name="f" unicode="f" horiz-adv-x="399" 
d="M182 23q6 -8 6 -17q0 -11 -7.5 -18.5t-18.5 -7.5t-19 7.5t-8 18.5q0 9 6 17v960h-92q-6 -6 -16 -6q-11 0 -19 8t-8 19t8 18.5t19 7.5q10 0 16 -6h92v174q0 42 10 83.5t33.5 74.5t62 54t95.5 24q9 6 18 6q11 0 19 -8t8 -19t-8 -19t-19 -8q-8 0 -18 7q-45 -3 -75.5 -20.5
t-49 -45t-26.5 -61.5t-9 -68v-174h160q9 6 18 6q11 0 19 -7.5t8 -18.5t-8 -19t-19 -8q-9 0 -18 6h-160v-960z" />
    <glyph glyph-name="g" unicode="g" horiz-adv-x="573" 
d="M494 -195q0 -44 -10.5 -86t-35.5 -75t-65 -53.5t-100 -20.5q-57 0 -96.5 18t-64.5 48t-37.5 68.5t-14.5 80.5q-7 7 -7 18q0 10 8 17.5t19 7.5t19 -7.5t8 -17.5q0 -5 -1.5 -10t-4.5 -8q1 -34 11 -65.5t30.5 -55.5t52.5 -38.5t78 -14.5q48 0 81 17t52.5 44t28 62t8.5 71
v261q-28 -39 -68 -62.5t-102 -23.5q-61 0 -101.5 20.5t-65 53.5t-34.5 75t-10 86v594q0 44 10 86t34.5 75t65 53.5t101.5 20.5q62 0 102 -23.5t68 -62.5v43q-7 12 -7 19q0 11 8 19t19 8t19 -8t8 -19q0 -9 -6 -19v-1196zM113 215q0 -35 8 -70t27.5 -63t52 -45t82.5 -17
q48 0 80 15.5t51.5 41t28 58t10.5 66.5v608q0 35 -10.5 70t-31.5 62.5t-53 45t-75 17.5q-50 0 -82.5 -17.5t-52 -45t-27.5 -62.5t-8 -70v-594z" />
    <glyph glyph-name="h" unicode="h" horiz-adv-x="582" 
d="M504 23q6 -8 6 -17q0 -11 -8 -18.5t-19 -7.5t-18.5 7.5t-7.5 18.5q0 9 6 17v786q0 35 -8 70t-27.5 62.5t-52 45t-82.5 17.5q-43 0 -75 -17.5t-53 -45t-31.5 -62.5t-10.5 -70v-786q6 -8 6 -17q0 -11 -8 -18.5t-19 -7.5t-18.5 7.5t-7.5 18.5q0 9 6 17v1386q-6 9 -6 18
q0 11 7.5 19t18.5 8t19 -8t8 -19q0 -9 -6 -18v-460q28 48 71.5 71.5t98.5 23.5q61 0 101.5 -20.5t65 -53.5t34.5 -75t10 -86v-786z" />
    <glyph glyph-name="i" unicode="i" horiz-adv-x="215" 
d="M129 23q6 -8 6 -17q0 -11 -7.5 -18.5t-18.5 -7.5t-19 7.5t-8 18.5q0 9 6 17v976q-6 10 -6 19q0 11 8 18.5t19 7.5t18.5 -7.5t7.5 -18.5q0 -9 -6 -19v-976zM129 1270q6 -6 6 -16q0 -11 -7.5 -19t-18.5 -8t-19 8t-8 19q0 10 6 16v59q-6 10 -6 19q0 11 8 18.5t19 7.5
t18.5 -7.5t7.5 -18.5q0 -9 -6 -19v-59z" />
    <glyph glyph-name="j" unicode="j" horiz-adv-x="213" 
d="M127 -188q0 -42 -10.5 -83.5t-34 -74.5t-62 -54.5t-94.5 -23.5q-9 -6 -18 -6q-11 0 -19 8t-8 19t8 18.5t19 7.5q9 0 18 -6q45 2 75.5 20t49 45t26.5 61t9 69v1187q-6 10 -6 19q0 11 7.5 18.5t18.5 7.5t19 -7.5t8 -18.5q0 -9 -6 -19v-1187zM127 1270q6 -6 6 -16
q0 -11 -7.5 -19t-18.5 -8t-19 8t-8 19q0 10 6 16v59q-6 10 -6 19q0 11 8 18.5t19 7.5t18.5 -7.5t7.5 -18.5q0 -9 -6 -19v-59z" />
    <glyph glyph-name="k" unicode="k" horiz-adv-x="512" 
d="M496 29q14 -7 14 -23q0 -11 -8 -18.5t-19 -7.5t-18.5 7.5t-7.5 18.5v8l-242 531l-92 -154v-368q6 -8 6 -17q0 -11 -8 -18.5t-19 -7.5t-18.5 7.5t-7.5 18.5q0 9 6 17v1386q-6 9 -6 18q0 11 7.5 19t18.5 8t19 -8t8 -19q0 -9 -6 -18v-938l328 543v4q0 11 7.5 18.5t18.5 7.5
t19 -7.5t8 -18.5q0 -20 -19 -27l-243 -403z" />
    <glyph glyph-name="l" unicode="l" horiz-adv-x="215" 
d="M129 23q6 -8 6 -17q0 -11 -7.5 -18.5t-18.5 -7.5t-19 7.5t-8 18.5q0 9 6 17v1386q-6 9 -6 18q0 11 8 19t19 8t18.5 -8t7.5 -19q0 -9 -6 -18v-1386z" />
    <glyph glyph-name="m" unicode="m" horiz-adv-x="872" 
d="M795 23q6 -8 6 -17q0 -11 -8 -18.5t-19 -7.5t-18.5 7.5t-7.5 18.5q0 9 6 17v813q0 30 -7 60t-24 54t-45.5 39t-71.5 15q-41 0 -68.5 -13.5t-44.5 -35.5t-25 -50t-9 -57v-825q6 -8 6 -17q0 -11 -8 -18.5t-19 -7.5t-18.5 7.5t-7.5 18.5q0 9 6 17v813q0 30 -7 60t-24 54
t-45.5 39t-71.5 15q-41 0 -69.5 -13.5t-45.5 -35.5t-24.5 -50t-7.5 -57v-825q6 -8 6 -17q0 -11 -8 -18.5t-19 -7.5t-18.5 7.5t-7.5 18.5q0 9 6 17v976q-6 10 -6 19q0 11 7.5 18.5t18.5 7.5t19 -7.5t8 -18.5q0 -9 -6 -19v-34q25 38 60 58.5t89 20.5q72 0 111.5 -30t56.5 -76
q23 55 69.5 80.5t98.5 25.5q54 0 90 -18t57.5 -47t30.5 -66t9 -75v-815z" />
    <glyph glyph-name="n" unicode="n" horiz-adv-x="582" 
d="M504 23q6 -8 6 -17q0 -11 -8 -18.5t-19 -7.5t-18.5 7.5t-7.5 18.5q0 9 6 17v786q0 35 -8 70t-27.5 62.5t-52 45t-82.5 17.5q-43 0 -75 -17.5t-53 -45t-31.5 -62.5t-10.5 -70v-786q6 -8 6 -17q0 -11 -8 -18.5t-19 -7.5t-18.5 7.5t-7.5 18.5q0 9 6 17v976q-6 10 -6 19
q0 11 7.5 18.5t18.5 7.5t19 -7.5t8 -18.5q0 -9 -6 -19v-51q28 49 68 72.5t102 23.5q61 0 101.5 -20.5t65 -53.5t34.5 -75t10 -86v-786z" />
    <glyph glyph-name="o" unicode="o" horiz-adv-x="565" 
d="M113 215q0 -36 8.5 -71t28 -62.5t52.5 -44.5t81 -17q49 0 82 17t52.5 44.5t27.5 62.5t8 71v594q0 35 -8 70t-27.5 62.5t-52.5 45t-82 17.5q-48 0 -81 -17.5t-52.5 -45t-28 -62.5t-8.5 -70v-594zM494 215q0 -44 -10.5 -86t-35.5 -75t-65 -53.5t-100 -20.5t-100.5 20.5
t-65 53.5t-35 75t-10.5 86v594q0 44 10.5 86t35 75t65 53.5t100.5 20.5t100 -20.5t65 -53.5t35.5 -75t10.5 -86v-594z" />
    <glyph glyph-name="p" unicode="p" horiz-adv-x="573" 
d="M504 215q0 -44 -10 -86t-34.5 -75t-65 -53.5t-101.5 -20.5q-62 0 -102 23.5t-68 71.5v-460q6 -9 6 -18q0 -11 -8 -19t-19 -8t-18.5 8t-7.5 19q0 9 6 18v1386q-6 8 -6 17q0 11 7.5 18.5t18.5 7.5t19 -7.5t8 -18.5q0 -9 -6 -17v-43q28 39 68 62.5t102 23.5
q61 0 101.5 -20.5t65 -53.5t34.5 -75t10 -86v-594zM123 215q0 -35 10.5 -70t31.5 -62.5t53 -45t75 -17.5q50 0 82.5 17.5t52 45t27.5 62.5t8 70v594q0 35 -8 70t-27.5 63t-52 45t-82.5 17q-48 0 -80.5 -18t-52.5 -46t-28.5 -62.5t-8.5 -68.5v-594z" />
    <glyph glyph-name="q" unicode="q" horiz-adv-x="575" 
d="M72 809q0 44 10 86t34.5 75t65 53.5t101.5 20.5q62 0 102 -23.5t68 -62.5v43q-6 8 -6 17q0 11 8 18.5t19 7.5t18.5 -7.5t7.5 -18.5q0 -9 -6 -17v-1386q6 -9 6 -18q0 -11 -7.5 -19t-18.5 -8t-19 8t-8 19q0 9 6 18v460q-28 -48 -68 -71.5t-102 -23.5q-61 0 -101.5 20.5
t-65 53.5t-34.5 75t-10 86v594zM453 809q0 34 -8.5 68.5t-28.5 62.5t-52.5 46t-80.5 18q-50 0 -82.5 -17t-52 -45t-27.5 -63t-8 -70v-594q0 -35 8 -70t27.5 -62.5t52 -45t82.5 -17.5q43 0 75 17.5t53 45t31.5 62.5t10.5 70v594z" />
    <glyph glyph-name="r" unicode="r" horiz-adv-x="385" 
d="M123 23q6 -8 6 -17q0 -11 -8 -18.5t-19 -7.5t-18.5 7.5t-7.5 18.5q0 9 6 17v976q-6 10 -6 19q0 11 7.5 18.5t18.5 7.5t19 -7.5t8 -18.5q0 -9 -6 -19v-71q28 48 68 72t102 24h35q9 6 18 6q11 0 19 -7.5t8 -18.5t-8 -19t-19 -8q-9 0 -18 6h-35q-43 0 -75 -17t-53 -45
t-31.5 -62.5t-10.5 -70.5v-765z" />
    <glyph glyph-name="s" unicode="s" horiz-adv-x="541" 
d="M403 434q26 -24 43 -49t26.5 -51t13 -52t3.5 -51q0 -52 -10.5 -98t-36 -80t-68.5 -53.5t-108 -19.5q-62 0 -104 19t-68.5 50.5t-39.5 72.5t-15 85q-3 3 -4.5 8t-1.5 10q0 11 7.5 19t18.5 8t19 -8t8 -19q0 -4 -4 -12q1 -36 11.5 -71t32 -62.5t56 -44.5t84.5 -17
q58 0 94 18.5t56 49t26.5 68.5t6.5 77q0 51 -18.5 95.5t-55.5 79.5l-232 208q-24 22 -38.5 43.5t-22.5 45t-11 48.5t-3 54q0 47 11 90t36.5 76t66.5 53t101 20q54 0 92 -18t62 -48t36 -68.5t14 -80.5q7 -6 7 -16q0 -11 -8 -19t-19 -8q-9 0 -17 8t-8 19q0 8 7 14
q-2 33 -12 65t-30 56.5t-50.5 40t-73.5 15.5q-48 0 -81.5 -17t-54 -44.5t-29.5 -63.5t-9 -74q1 -59 14 -96t47 -66z" />
    <glyph glyph-name="t" unicode="t" horiz-adv-x="391" 
d="M186 221q0 -37 8 -71t26.5 -61t49.5 -44t76 -18q9 6 19 6q11 0 18.5 -8t7.5 -19t-7.5 -18.5t-18.5 -7.5q-10 0 -19 6q-57 2 -95.5 23t-62 53.5t-33.5 74t-10 84.5v762h-92q-6 -6 -16 -6q-11 0 -19 8t-8 19t8 18.5t19 7.5q10 0 16 -6h92v305q-6 10 -6 19q0 11 8 18.5
t19 7.5t19 -7.5t8 -18.5q0 -7 -7 -19v-305h160q9 6 19 6q11 0 18.5 -7.5t7.5 -18.5t-7.5 -19t-18.5 -8q-10 0 -19 6h-160v-762z" />
    <glyph glyph-name="u" unicode="u" horiz-adv-x="582" 
d="M500 23q6 -8 6 -17q0 -11 -8 -18.5t-19 -7.5t-18.5 7.5t-7.5 18.5q0 9 6 17v53q-28 -49 -68 -72.5t-102 -23.5q-61 0 -101.5 20.5t-65 53.5t-34.5 75t-10 86v784q-6 10 -6 19q0 11 7.5 18.5t18.5 7.5t19 -7.5t8 -18.5q0 -9 -6 -19v-784q0 -35 8 -70t27.5 -63t52 -45
t82.5 -17q45 0 77.5 15.5t53 41.5t30 59.5t9.5 68.5v794q-6 10 -6 19q0 11 7.5 18.5t18.5 7.5t19 -7.5t8 -18.5q0 -9 -6 -19v-976z" />
    <glyph glyph-name="v" unicode="v" horiz-adv-x="516" 
d="M281 18q4 -8 4 -12q0 -11 -8 -18.5t-19 -7.5t-19 7.5t-8 18.5q0 8 2 12l-210 979q-5 3 -7 9t-2 12q0 11 8 18.5t19 7.5t19 -7.5t8 -18.5q0 -7 -5 -14l195 -898l193 898q-2 3 -2 7v7q0 11 7.5 18.5t18.5 7.5t19 -7.5t8 -18.5q0 -14 -10 -21z" />
    <glyph glyph-name="w" unicode="w" horiz-adv-x="952" 
d="M715 18q4 -8 4 -12q0 -11 -8 -18.5t-19 -7.5t-18.5 7.5t-7.5 18.5q0 8 2 12l-193 897l-194 -897q4 -8 4 -12q0 -11 -8 -18.5t-19 -7.5t-19 7.5t-8 18.5q0 8 2 12l-210 979q-5 3 -7 9t-2 12q0 11 8 18.5t19 7.5t19 -7.5t8 -18.5q0 -7 -5 -14l195 -898l193 898q-2 3 -2 7v7
q0 11 7.5 18.5t18.5 7.5t19 -7.5t8 -18.5q0 -6 -4 -14l194 -898l193 898q-2 3 -2 7v7q0 11 7.5 18.5t18.5 7.5t19 -7.5t8 -18.5q0 -14 -10 -21z" />
    <glyph glyph-name="x" unicode="x" horiz-adv-x="520" 
d="M492 29q5 -5 8.5 -11t3.5 -12q0 -11 -8 -18.5t-19 -7.5t-18.5 7.5t-7.5 18.5v8l-191 463l-203 -463q2 -4 2 -8q0 -11 -7.5 -18.5t-18.5 -7.5t-19 7.5t-8 18.5q0 14 12 23l220 501l-193 465q-12 6 -12 23q0 11 7.5 18.5t18.5 7.5t19 -7.5t8 -18.5q0 -6 -2 -8l176 -424
l184 424v8q0 11 8 18.5t19 7.5t19 -7.5t8 -18.5q0 -16 -13 -23l-202 -465z" />
    <glyph glyph-name="y" unicode="y" horiz-adv-x="516" 
d="M238 -188q-9 -41 -20.5 -81t-32.5 -73t-54 -54.5t-86 -25.5q-5 -3 -9 -5.5t-9 -2.5q-11 0 -19 8t-8 19t8 18.5t19 7.5q8 0 16 -4q43 3 69.5 21t42.5 45.5t25 60.5t17 66l41 196l-213 989q-5 3 -7 9t-2 12q0 11 8 18.5t19 7.5t19 -7.5t8 -18.5q0 -6 -4 -14l194 -898
l193 898q-2 3 -2 7v7q0 11 7.5 18.5t18.5 7.5t19 -7.5t8 -18.5q0 -14 -10 -21l-213 -985z" />
    <glyph glyph-name="z" unicode="z" horiz-adv-x="502" 
d="M426 41q9 6 18 6q11 0 19 -8t8 -19t-8 -18.5t-19 -7.5q-9 0 -18 6h-352q-6 -6 -17 -6t-18.5 7.5t-7.5 18.5q0 18 14 25l363 938h-334q-6 -6 -17 -6t-18.5 8t-7.5 19t7.5 18.5t18.5 7.5t17 -6h352q9 6 18 6q11 0 19 -7.5t8 -18.5q0 -10 -5 -17t-13 -10l-363 -936h336z" />
    <glyph glyph-name="braceleft" unicode="{" horiz-adv-x="451" 
d="M231 80q0 -35 8 -70t26 -63.5t47.5 -47.5t72.5 -22q6 6 18 6q11 0 19 -7.5t8 -18.5t-8 -19t-19 -8q-10 0 -18 8q-54 3 -91.5 25t-60.5 56t-33 76t-10 85v424q0 35 -9 69.5t-30.5 61.5t-58 44t-90.5 17v41q54 0 90.5 17t58 44.5t30.5 62t9 69.5v424q0 43 10 84.5t33 75.5
t60.5 56t91.5 25q3 3 7.5 6t10.5 3q11 0 19 -8t8 -19t-8 -19t-19 -8q-12 0 -18 6q-43 -3 -72.5 -21.5t-47.5 -47t-26 -63.5t-8 -70v-424q0 -34 -6 -66t-20 -60t-36.5 -50.5t-55.5 -36.5q33 -14 55.5 -36.5t36.5 -50.5t20 -60t6 -66v-424z" />
    <glyph glyph-name="bar" unicode="|" horiz-adv-x="248" 
d="M143 -127q7 -11 7 -18q0 -11 -8 -19t-19 -8t-19 8t-8 19q0 9 6 18v1686q-6 9 -6 18q0 11 8 19t19 8t19 -8t8 -19q0 -8 -7 -18v-1686z" />
    <glyph glyph-name="braceright" unicode="}" horiz-adv-x="451" 
d="M219 504q0 34 6 66t20 60t36.5 50.5t55.5 36.5q-33 14 -55.5 36.5t-36.5 50.5t-20 60t-6 66v424q0 35 -8 70t-26 63.5t-47.5 47t-72.5 21.5q-6 -6 -18 -6q-11 0 -19 8t-8 19t8 19t19 8q6 0 10.5 -3t7.5 -6q54 -3 91.5 -25t60.5 -56t33 -75.5t10 -84.5v-424q0 -35 9 -69.5
t30.5 -62t58 -44.5t90.5 -17v-41q-54 0 -90.5 -17t-58 -44t-30.5 -61.5t-9 -69.5v-424q0 -43 -10 -85t-33 -76t-60.5 -56t-91.5 -25q-8 -8 -18 -8q-11 0 -19 8t-8 19t8 18.5t19 7.5q12 0 18 -6q43 3 72.5 22t47.5 47.5t26 63.5t8 70v424z" />
    <glyph glyph-name="asciitilde" unicode="~" horiz-adv-x="575" 
d="M501 733q0 -32 -9 -54t-24 -35.5t-35.5 -19t-42.5 -5.5q-25 0 -45 10t-36 24.5t-30 32t-28 32t-29 24.5t-34 10q-28 0 -49 -15t-21 -59v-16q6 -6 6 -17t-7.5 -18.5t-18.5 -7.5t-19 7.5t-8 18.5q0 14 8 19v14q0 34 9.5 56t25.5 35t36 18.5t40 5.5q25 0 44.5 -10
t35.5 -24.5t30 -32t28.5 -32t29.5 -24.5t34 -10q28 0 49 14.5t21 58.5v15q-6 9 -6 18q0 11 8 19t19 8t18.5 -8t7.5 -19q0 -7 -2.5 -11.5t-5.5 -8.5v-13z" />
    <glyph glyph-name="nonbreakingspace" unicode="&#xa0;" horiz-adv-x="340" 
 />
    <glyph glyph-name="exclamdown" unicode="&#xa1;" horiz-adv-x="256" 
d="M148 23q6 -8 6 -17q0 -11 -8 -18.5t-19 -7.5t-19 7.5t-8 18.5q0 10 7 17v1099q-7 8 -7 19t8 18.5t19 7.5t19 -7.5t8 -18.5q0 -10 -6 -19v-1099zM162 1375q-12 -13 -35 -13q-22 0 -33.5 13.5t-11.5 33.5q0 19 11.5 32t33.5 13q23 0 35 -13t12 -32q0 -20 -12 -34z" />
    <glyph glyph-name="cent" unicode="&#xa2;" horiz-adv-x="582" 
d="M127 215q0 -36 8.5 -71t28 -62.5t52.5 -44.5t81 -17q46 0 78 14.5t52.5 39t30 56t11.5 65.5q-3 3 -4.5 8t-1.5 10q0 9 7.5 17t18.5 8t19 -8t8 -17q0 -5 -1.5 -10t-4.5 -8q-3 -42 -15 -80.5t-37.5 -68.5t-64.5 -48q-31 -14 -74 -17v-108q7 -8 7 -18q0 -11 -8 -19t-19 -8
t-19 8t-8 19q0 10 7 18v108q-48 2 -83 19q-40 21 -64.5 54t-35 75t-10.5 86v594q0 44 10.5 86t35 75t64.5 53q35 18 83 20v106q-7 8 -7 18q0 11 8 19t19 8t19 -8t8 -19q0 -10 -7 -18v-106q43 -3 74 -17q39 -18 64.5 -48t37.5 -68.5t15 -80.5q3 -3 4.5 -8t1.5 -10
q0 -9 -8 -17t-19 -8t-18.5 8t-7.5 17q0 10 6 16q-2 33 -11.5 65t-30 56.5t-52.5 40t-78 15.5q-48 0 -81 -17.5t-52.5 -45t-28 -62.5t-8.5 -70v-594z" />
    <glyph glyph-name="sterling" unicode="&#xa3;" horiz-adv-x="702" 
d="M584 41q9 6 18 6q11 0 19 -8t8 -19t-8 -18.5t-19 -7.5q-9 0 -18 6h-396v983h-96q-6 -6 -16 -6q-11 0 -19 8t-8 19t8 18.5t19 7.5q10 0 16 -6h96v178q0 44 10.5 85.5t35 74t66 52.5t103.5 20h179q9 6 18 6q11 0 19 -8t8 -19t-8 -19t-19 -8q-8 0 -18 7h-179
q-51 0 -84.5 -16.5t-53.5 -43.5t-28 -61.5t-8 -69.5v-178h293q9 6 19 6q11 0 18.5 -7.5t7.5 -18.5t-7.5 -19t-18.5 -8q-10 0 -19 6h-293v-942h355z" />
    <glyph glyph-name="currency" unicode="&#xa4;" horiz-adv-x="702" 
d="M606 498q11 0 19 -8t8 -19t-8 -19t-19 -8t-18.5 7t-7.5 18l-97 94q-2 -25 -9.5 -49t-23 -42.5t-40 -30t-58.5 -11.5q-35 0 -60 11.5t-41 30t-23.5 42.5t-8.5 49l-96 -94q-2 -11 -9.5 -18t-17.5 -7q-11 0 -18.5 8t-7.5 19t7.5 19t18.5 8l123 120v252l-123 121
q-11 0 -18.5 8t-7.5 19t7.5 18.5t18.5 7.5q10 0 17.5 -7.5t9.5 -16.5l96 -94q1 24 8.5 48t23.5 43t41 30.5t60 11.5q34 0 58.5 -11.5t40 -30.5t23 -43t9.5 -48l97 94q0 9 7.5 16.5t18.5 7.5t19 -7.5t8 -18.5t-8 -19t-19 -8l-123 -121v-252zM260 573q0 -18 4.5 -36.5
t15.5 -33t28.5 -23.5t43.5 -9t43.5 9t28 23.5t14.5 33t4 36.5v342q0 19 -4 37.5t-14.5 33t-28 23.5t-43.5 9t-43.5 -9t-28.5 -23.5t-15.5 -33t-4.5 -37.5v-342z" />
    <glyph glyph-name="yen" unicode="&#xa5;" horiz-adv-x="614" 
d="M328 23q6 -8 6 -17q0 -11 -8 -18.5t-19 -7.5t-18.5 7.5t-7.5 18.5q0 9 6 17v776h-181q-6 -6 -16 -6q-11 0 -19 7.5t-8 18.5t8 19t19 8q10 0 16 -6h181v143h-181q-6 -6 -16 -6q-11 0 -19 8t-8 19t8 18.5t19 7.5q10 0 16 -6h181l-207 379q-17 7 -17 24q0 11 8 19t19 8
t19 -8t8 -19q0 -6 -2 -10l188 -344h6l189 344v10q0 11 7.5 19t18.5 8t19 -8t8 -19q0 -9 -5 -15t-11 -9l-207 -379h178q9 6 18 6q11 0 19 -7.5t8 -18.5t-8 -19t-19 -8q-9 0 -18 6h-178v-143h178q9 6 18 6q11 0 19 -8t8 -19t-8 -18.5t-19 -7.5q-9 0 -18 6h-178v-776z" />
    <glyph glyph-name="brokenbar" unicode="&#xa6;" horiz-adv-x="256" 
d="M150 924q6 -6 6 -17t-8 -18.5t-19 -7.5t-19 7.5t-8 18.5t7 17v635q-7 8 -7 18q0 11 8 19t19 8t19 -8t8 -19q0 -9 -6 -18v-635zM150 -127q6 -9 6 -18q0 -11 -8 -19t-19 -8t-19 8t-8 19q0 10 7 18v614q-7 10 -7 19q0 11 8 18.5t19 7.5t19 -7.5t8 -18.5q0 -9 -6 -19v-614z
" />
    <glyph glyph-name="section" unicode="&#xa7;" horiz-adv-x="590" 
d="M510 63q0 -44 -10.5 -84.5t-35.5 -72.5t-65.5 -51t-101.5 -19q-57 0 -96.5 17t-64.5 46t-37.5 66.5t-14.5 79.5q-3 3 -4.5 8t-1.5 10q0 11 7.5 19t18.5 8t19 -8t8 -19q0 -5 -1.5 -10t-4.5 -8q1 -34 11 -64.5t30.5 -53.5t52.5 -36.5t78 -13.5q49 0 82.5 15.5t53.5 41.5
t29 59.5t9 69.5v179q0 52 -21 99.5t-59 82.5l-239 213q-25 22 -39.5 45t-22 46.5t-10 47t-2.5 47.5q0 29 4.5 58t14.5 55t26 48t39 38l-10 10q-25 22 -39.5 45.5t-22 46.5t-10 47t-2.5 48v145q0 44 10.5 86t35 74.5t65.5 52.5t102 20q57 0 96.5 -18t64.5 -48t37.5 -68.5
t14.5 -80.5q3 -3 4.5 -8t1.5 -10q0 -11 -8 -19t-19 -8t-18.5 8t-7.5 19q0 10 6 16q-2 33 -11.5 64.5t-30 56.5t-52.5 40t-78 15q-49 0 -82.5 -17t-53.5 -44t-29 -61.5t-9 -69.5v-145q2 -51 15 -91t48 -71l242 -213q54 -50 71 -103t17 -104q0 -59 -18.5 -111t-63.5 -86
q49 -47 65.5 -98t16.5 -100v-179zM397 469q39 28 55.5 73t16.5 95q0 53 -20 100t-58 82l-196 174q-44 -28 -60 -74t-16 -96q2 -51 14 -91t47 -70z" />
    <glyph glyph-name="dieresis" unicode="&#xa8;" horiz-adv-x="508" 
d="M160 1270q6 -6 6 -16q0 -11 -8 -19t-19 -8t-18.5 8t-7.5 19q0 10 6 16v59q-6 10 -6 19q0 11 7.5 18.5t18.5 7.5t19 -7.5t8 -18.5q0 -9 -6 -19v-59zM391 1270q6 -6 6 -16q0 -11 -7.5 -19t-18.5 -8t-19 8t-8 19q0 10 6 16v59q-6 10 -6 19q0 11 8 18.5t19 7.5t18.5 -7.5
t7.5 -18.5q0 -9 -6 -19v-59z" />
    <glyph glyph-name="copyright" unicode="&#xa9;" horiz-adv-x="948" 
d="M868 408q0 -81 -20.5 -158t-67 -138t-121.5 -98t-184 -37q-112 0 -187.5 37t-121 98t-65 138t-19.5 158v616q0 81 19.5 158t65 137.5t121 97.5t187.5 37q109 0 184 -37t121.5 -97.5t67 -137.5t20.5 -158v-616zM827 1022q0 70 -17.5 140t-58.5 126t-109 90.5t-169 34.5
q-100 0 -167 -34.5t-107.5 -90.5t-58 -126t-17.5 -140v-612q0 -71 17.5 -141t58 -126t107.5 -90.5t167 -34.5q101 0 169 34.5t109 90.5t58.5 126t17.5 141v612zM303 420q0 -36 8.5 -71t28 -62.5t52.5 -44.5t81 -17q46 0 78 14.5t52.5 38.5t30 55.5t11.5 65.5q-3 3 -4.5 8.5
t-1.5 10.5q0 9 8 16.5t19 7.5t18.5 -7.5t7.5 -16.5q0 -5 -1.5 -10.5t-4.5 -8.5q-2 -41 -14.5 -80t-37.5 -69t-64.5 -48t-96.5 -18q-60 0 -100.5 20.5t-65 53.5t-35 75.5t-10.5 86.5v594q0 43 10.5 85.5t35 75.5t65 53.5t100.5 20.5q57 0 96.5 -18t64.5 -48t37.5 -68.5
t14.5 -80.5q3 -3 4.5 -8t1.5 -10q0 -9 -7.5 -17t-18.5 -8t-19 8t-8 17q0 10 6 16q-2 33 -11.5 64.5t-30 56.5t-52.5 40t-78 15q-48 0 -81 -17t-52.5 -44.5t-28 -62.5t-8.5 -70v-594z" />
    <glyph glyph-name="ordfeminine" unicode="&#xaa;" horiz-adv-x="420" 
d="M336 864q6 -6 6 -16q0 -11 -8 -19t-19 -8t-18.5 8t-7.5 19q0 10 6 16v23q-12 -28 -34 -47t-64 -19q-63 0 -94 41.5t-31 104.5v104q0 27 5.5 53t23 47t49 33.5t83.5 12.5h62v92q0 19 -4.5 37.5t-15 33.5t-28 24t-42.5 9q-45 0 -67 -23.5t-25 -60.5q6 -6 6 -16t-8 -17.5
t-19 -7.5t-18.5 7.5t-7.5 17.5q0 5 1.5 10t4.5 8q1 22 10 44t25.5 39.5t41 28.5t56.5 11q37 0 62.5 -12.5t40.5 -33t21.5 -46.5t6.5 -53v-445zM113 967q0 -20 3.5 -38.5t13 -33.5t26.5 -24t43 -9q21 0 38.5 8.5t29.5 23t19 32.5t9 37v213h-62q-39 0 -62.5 -9t-36.5 -24
t-17 -34t-4 -38v-104z" />
    <glyph glyph-name="guillemotleft" unicode="&#xab;" horiz-adv-x="752" 
d="M440 166q10 -2 17.5 -9.5t7.5 -17.5q0 -11 -8 -18.5t-19 -7.5t-18.5 7.5t-7.5 18.5l-338 336q-11 0 -19 8t-8 19q0 9 7 16.5t18 9.5l340 338q0 10 7.5 17.5t18.5 7.5t19 -8t8 -19t-8 -18.5t-19 -7.5l-338 -336zM645 166q10 -2 17.5 -9.5t7.5 -17.5q0 -11 -8 -18.5
t-19 -7.5t-18.5 7.5t-7.5 18.5l-338 336q-11 0 -19 8t-8 19q0 9 7 16.5t18 9.5l340 338q0 10 7.5 17.5t18.5 7.5t19 -8t8 -19t-8 -18.5t-19 -7.5l-338 -336z" />
    <glyph glyph-name="logicalnot" unicode="&#xac;" horiz-adv-x="676" 
d="M584 510q6 -6 6 -16q0 -11 -8 -19t-19 -8t-18.5 8t-7.5 19q0 10 6 16v225h-426q-6 -6 -17 -6t-18.5 8t-7.5 19t7.5 18.5t18.5 7.5t17 -6h426q9 6 18 6q11 0 19 -7.5t8 -18.5q0 -7 -4 -15v-231z" />
    <glyph glyph-name="uni00AD" unicode="&#xad;" horiz-adv-x="618" 
d="M520 616q8 7 19 7t18.5 -8t7.5 -19t-7.5 -19t-18.5 -8q-10 0 -19 6h-426q-6 -6 -16 -6q-11 0 -19 8t-8 19t8 19t19 8q10 0 16 -7h426z" />
    <glyph glyph-name="registered" unicode="&#xae;" horiz-adv-x="948" 
d="M868 408q0 -81 -20.5 -158t-67 -138t-121.5 -98t-184 -37q-112 0 -187.5 37t-121 98t-65 138t-19.5 158v616q0 81 19.5 158t65 137.5t121 97.5t187.5 37q109 0 184 -37t121.5 -97.5t67 -137.5t20.5 -158v-616zM827 1022q0 70 -17.5 140t-58.5 126t-109 90.5t-169 34.5
q-100 0 -167 -34.5t-107.5 -90.5t-58 -126t-17.5 -140v-612q0 -71 17.5 -141t58 -126t107.5 -90.5t167 -34.5q101 0 169 34.5t109 90.5t58.5 126t17.5 141v612zM664 236q6 -4 11 -10.5t5 -14.5q0 -11 -8 -19t-19 -8t-18.5 8t-7.5 19v6l-140 283h-4h-149v-273q6 -6 6 -16
q0 -11 -8 -19t-19 -8t-18.5 8t-7.5 19q0 10 6 16v1022h190q54 0 91 -18t59.5 -48t32.5 -68.5t10 -78.5v-329q0 -36 -7.5 -69t-24.5 -60.5t-44.5 -47t-67.5 -26.5zM483 541q42 0 71 14t47 37t26 53t8 62v329q0 31 -7.5 62t-25.5 55.5t-47 39.5t-72 15h-149v-667h149z" />
    <glyph glyph-name="macron" unicode="&#xaf;" horiz-adv-x="586" 
d="M459 1389q9 6 18 6q11 0 19 -8t8 -19t-8 -19t-19 -8q-10 0 -18 7h-334q-6 -7 -16 -7q-11 0 -19 8t-8 19t8 19t19 8q10 0 16 -6h334z" />
    <glyph glyph-name="degree" unicode="&#xb0;" horiz-adv-x="416" 
d="M117 969q0 -18 4 -36.5t14.5 -33.5t28 -24t43.5 -9t43.5 9t28.5 24t15.5 33.5t4.5 36.5v342q0 18 -4.5 36.5t-15.5 33t-28.5 23.5t-43.5 9t-43.5 -9t-28 -23.5t-14.5 -33t-4 -36.5v-342zM340 969q0 -26 -7 -52t-23 -46.5t-41 -33t-62 -12.5t-62 12.5t-40.5 33t-22 46.5
t-6.5 52v342q0 26 6.5 51.5t22 46t40.5 33t62 12.5t62 -12.5t41 -33t23 -46t7 -51.5v-342z" />
    <glyph glyph-name="plusminus" unicode="&#xb1;" horiz-adv-x="737" 
d="M617 571q8 7 18 7q11 0 19 -8t8 -19t-8 -19t-19 -8q-9 0 -18 6h-228v-129q6 -6 6 -16q0 -11 -7.5 -19t-18.5 -8t-19 8t-8 19q0 10 6 16v129h-229q-6 -6 -16 -6q-11 0 -19 8t-8 19t8 19t19 8q10 0 16 -7h229v226q-6 9 -6 18q0 11 8 19t19 8t18.5 -8t7.5 -19q0 -9 -6 -18
v-226h228zM617 305q8 7 18 7q11 0 19 -8t8 -19t-8 -19t-19 -8q-9 0 -18 6h-498q-6 -6 -16 -6q-11 0 -19 8t-8 19t8 19t19 8q10 0 16 -7h498z" />
    <glyph glyph-name="twosuperior" unicode="&#xb2;" horiz-adv-x="369" 
d="M250 877q9 6 18 6q11 0 19 -8t8 -19t-8 -19t-19 -8q-10 0 -18 7h-170v170q0 24 11 46t30 38l102 92q14 12 23.5 30.5t9.5 44.5v62q0 42 -15.5 68t-54.5 26q-21 0 -35 -7t-22.5 -19t-12.5 -27t-5 -31q6 -6 6 -16t-9 -17.5t-18 -7.5q-11 0 -19 7.5t-8 17.5q0 11 7 18
q1 18 7.5 39t20 40t35 31.5t53.5 12.5q31 0 52 -10.5t34 -28.5t19 -43t6 -53v-72q0 -57 -47 -98l-105 -92q-15 -13 -20.5 -30t-5.5 -42v-108h131z" />
    <glyph glyph-name="threesuperior" unicode="&#xb3;" horiz-adv-x="406" 
d="M330 969q0 -26 -7 -52t-23 -46.5t-41 -33t-62 -12.5q-36 0 -60.5 12t-39 30t-21.5 39.5t-8 41.5q-4 3 -5.5 8.5t-1.5 10.5q0 9 8 16.5t19 7.5q9 0 18 -6.5t9 -17.5t-6 -17q1 -32 22 -58t66 -26q26 0 43.5 9t28.5 24t15.5 33.5t4.5 36.5v196q0 20 -13.5 38t-48.5 18h-28
q-3 -5 -8.5 -7t-10.5 -2q-11 0 -18.5 8t-7.5 19t7.5 19t18.5 8q5 0 10.5 -2.5t8.5 -6.5h28q18 0 29.5 7t19 18t10.5 25t3 28q0 13 -5 27t-16 25t-27.5 18.5t-39.5 7.5q-38 0 -66.5 -22t-28.5 -62q7 -6 7 -16t-9 -17.5t-18 -7.5q-11 0 -19 7.5t-8 17.5q0 5 1.5 10t5.5 8
q0 53 36.5 88t98.5 35q57 0 93 -32.5t36 -86.5q0 -37 -11.5 -58.5t-31.5 -35.5q28 -11 35.5 -31t7.5 -45v-196z" />
    <glyph glyph-name="acute" unicode="&#xb4;" horiz-adv-x="451" 
d="M135 1194q0 -11 -7.5 -19t-18.5 -8t-19 8t-8 19q0 9 6.5 17t17.5 10l209 209q0 9 8 16.5t19 7.5t19 -8t8 -19t-8 -18.5t-19 -7.5z" />
    <glyph glyph-name="mu" unicode="&#xb5;" 
d="M518 23q6 -8 6 -17q0 -11 -7.5 -18.5t-18.5 -7.5t-19 7.5t-8 18.5q0 9 6 17v43q-28 -39 -68 -62.5t-102 -23.5q-63 0 -105 22t-65 57v-247q1 -35 9 -69t26.5 -61t49 -45t75.5 -20q9 6 18 6q11 0 19 -7.5t8 -18.5t-8 -19t-19 -8q-9 0 -18 6q-57 2 -95.5 23.5t-62 54.5
t-33.5 74.5t-10 83.5v1187q-6 10 -6 19q0 11 8 18.5t19 7.5t18.5 -7.5t7.5 -18.5q0 -9 -6 -19v-798q1 -34 10 -66.5t28.5 -58t51.5 -41t80 -15.5q43 0 75 17t53 45t31.5 63t10.5 70v784q-6 10 -6 19q0 11 8 18.5t19 7.5t18.5 -7.5t7.5 -18.5q0 -9 -6 -19v-976z" />
    <glyph glyph-name="mu" unicode="&#x3bc;" 
d="M518 23q6 -8 6 -17q0 -11 -7.5 -18.5t-18.5 -7.5t-19 7.5t-8 18.5q0 9 6 17v43q-28 -39 -68 -62.5t-102 -23.5q-63 0 -105 22t-65 57v-247q1 -35 9 -69t26.5 -61t49 -45t75.5 -20q9 6 18 6q11 0 19 -7.5t8 -18.5t-8 -19t-19 -8q-9 0 -18 6q-57 2 -95.5 23.5t-62 54.5
t-33.5 74.5t-10 83.5v1187q-6 10 -6 19q0 11 8 18.5t19 7.5t18.5 -7.5t7.5 -18.5q0 -9 -6 -19v-798q1 -34 10 -66.5t28.5 -58t51.5 -41t80 -15.5q43 0 75 17t53 45t31.5 63t10.5 70v784q-6 10 -6 19q0 11 8 18.5t19 7.5t18.5 -7.5t7.5 -18.5q0 -9 -6 -19v-976z" />
    <glyph glyph-name="paragraph" unicode="&#xb6;" horiz-adv-x="752" 
d="M492 23q6 -8 6 -17q0 -11 -8 -18.5t-19 -7.5t-19 7.5t-8 18.5q0 10 7 17v768h-179q-60 0 -101 19t-66 50.5t-35.5 72.5t-10.5 85v182q0 44 10.5 86t35.5 75t66 53t101 20h220v-1411zM451 831v562h-179q-49 0 -82 -17t-53 -44.5t-28.5 -62t-8.5 -69.5v-182
q0 -36 8.5 -69.5t28.5 -60t53 -42t82 -15.5h179zM639 23q6 -8 6 -17q0 -11 -8 -18.5t-19 -7.5t-18.5 7.5t-7.5 18.5q0 9 6 17v1386q-6 9 -6 18q0 11 7.5 19t18.5 8t19 -8t8 -19q0 -9 -6 -18v-1386z" />
    <glyph glyph-name="periodcentered" unicode="&#xb7;" horiz-adv-x="238" 
d="M152 808q-12 -13 -35 -13q-22 0 -33.5 13t-11.5 32q0 20 11.5 33.5t33.5 13.5q23 0 35 -13.5t12 -33.5q0 -19 -12 -32z" />
    <glyph glyph-name="cedilla" unicode="&#xb8;" horiz-adv-x="469" 
d="M387 -254q0 -37 -12.5 -62t-33 -40.5t-46 -22t-51.5 -6.5h-119q-6 -6 -16 -6q-11 0 -19 7.5t-8 18.5t8 19t19 8q10 0 16 -6h119q18 0 36.5 4t33 14.5t23.5 28t9 43.5v33q0 26 -9 43t-23.5 27.5t-33 15t-36.5 4.5h-58v41v90h41v-90h17q26 0 51.5 -6.5t46 -22t33 -40.5
t12.5 -62v-33z" />
    <glyph glyph-name="onesuperior" unicode="&#xb9;" horiz-adv-x="322" 
d="M233 858q7 -6 7 -16q0 -11 -8 -19t-19 -8t-19 8t-8 19q0 10 7 16v541l-119 -121q0 -11 -8 -19t-19 -8t-19 8t-8 19q0 9 7 17t18 10l148 149h40v-596z" />
    <glyph glyph-name="ordmasculine" unicode="&#xba;" horiz-adv-x="416" 
d="M117 969q0 -18 4 -36.5t14.5 -33.5t28 -24t43.5 -9t43.5 9t28.5 24t15.5 33.5t4.5 36.5v342q0 18 -4.5 36.5t-15.5 33t-28.5 23.5t-43.5 9t-43.5 -9t-28 -23.5t-14.5 -33t-4 -36.5v-342zM340 969q0 -26 -7 -52t-23 -46.5t-41 -33t-62 -12.5t-62 12.5t-40.5 33t-22 46.5
t-6.5 52v342q0 26 6.5 51.5t22 46t40.5 33t62 12.5t62 -12.5t41 -33t23 -46t7 -51.5v-342z" />
    <glyph glyph-name="guillemotright" unicode="&#xbb;" horiz-adv-x="752" 
d="M107.054 166q-9.99902 -2 -17.498 -9.5t-7.49902 -17.5q0 -11 7.99902 -18.5t18.9971 -7.5q10.999 0 18.498 7.5t7.49902 18.5l337.959 336q10.999 0 18.998 8t7.99902 19q0 9 -7 16.5q-6.99902 7.5 -17.9971 9.5l-339.959 338q0 10 -7.49902 17.5t-18.498 7.5
q-10.998 0 -18.9971 -8t-7.99902 -19t7.99902 -18.5t18.9971 -7.5l337.959 -336zM312.054 166q-9.99902 -2 -17.498 -9.5t-7.49902 -17.5q0 -11 7.99902 -18.5t18.9971 -7.5q10.999 0 18.498 7.5t7.49902 18.5l337.959 336q10.999 0 18.998 8t7.99902 19q0 9 -7 16.5
q-6.99902 7.5 -17.9971 9.5l-339.959 338q0 10 -7.49902 17.5t-18.498 7.5q-10.998 0 -18.9971 -8t-7.99902 -19t7.99902 -18.5t18.9971 -7.5l337.959 -336z" />
    <glyph glyph-name="onequarter" unicode="&#xbc;" horiz-adv-x="817" 
d="M258 858q7 -6 7 -16q0 -11 -8 -19t-19 -8t-19 8t-8 19q0 10 7 16v541l-119 -121q0 -11 -8 -19t-19 -8t-19 8t-8 19q0 9 7 17t18 10l148 149h40v-596zM699 25q6 -6 6 -17t-8 -18.5t-19 -7.5t-19 7.5t-8 18.5q0 10 7 17v348h-172v41l165 192v2q0 11 8 19t19 8t19 -8t8 -19
q0 -9 -6 -18v-176h16q9 6 18 6q11 0 19 -8t8 -19t-8 -18.5t-19 -7.5q-9 0 -18 6h-16v-348zM658 414v141l-123 -141h123zM256 18q4 -8 4 -12q0 -11 -7.5 -18.5t-18.5 -7.5t-19 7.5t-8 18.5q0 14 12 23l365 1386q-2 4 -2 12q0 11 7.5 19t18.5 8t19 -8t8 -19q0 -8 -4 -14.5
t-12 -9.5z" />
    <glyph glyph-name="onehalf" unicode="&#xbd;" horiz-adv-x="846" 
d="M256 18q4 -8 4 -12q0 -11 -7.5 -18.5t-18.5 -7.5t-19 7.5t-8 18.5q0 14 12 23l365 1386q-2 4 -2 12q0 11 7.5 19t18.5 8t19 -8t8 -19q0 -8 -4 -14.5t-12 -9.5zM258 858q7 -6 7 -16q0 -11 -8 -19t-19 -8t-19 8t-8 19q0 10 7 16v541l-119 -121q0 -11 -8 -19t-19 -8t-19 8
t-8 19q0 9 7 17t18 10l148 149h40v-596zM727 43q9 6 18 6q11 0 19 -8t8 -19t-8 -19t-19 -8q-10 0 -18 7h-170v170q0 24 11 46t30 38l102 92q14 12 23.5 30.5t9.5 44.5v62q0 42 -15.5 68t-54.5 26q-21 0 -35 -7t-22.5 -19t-12.5 -27t-5 -31q6 -6 6 -16t-9 -17.5t-18 -7.5
q-11 0 -19 7.5t-8 17.5q0 11 7 18q1 18 7.5 39t20 40t35 31.5t53.5 12.5q31 0 52 -10.5t34 -28.5t19 -43t6 -53v-72q0 -57 -47 -98l-105 -92q-15 -13 -20.5 -30t-5.5 -42v-108h131z" />
    <glyph glyph-name="threequarters" unicode="&#xbe;" horiz-adv-x="866" 
d="M754 25q6 -6 6 -17t-8 -18.5t-19 -7.5t-19 7.5t-8 18.5q0 10 7 17v348h-172v41l165 192v2q0 11 8 19t19 8t19 -8t8 -19q0 -9 -6 -18v-176h16q9 6 18 6q11 0 19 -8t8 -19t-8 -18.5t-19 -7.5q-9 0 -18 6h-16v-348zM713 414v141l-123 -141h123zM332 969q0 -26 -7 -52
t-23 -46.5t-41 -33t-62 -12.5q-36 0 -60.5 12t-39 30t-21.5 39.5t-8 41.5q-4 3 -5.5 8.5t-1.5 10.5q0 9 8 16.5t19 7.5q9 0 18 -6.5t9 -17.5t-6 -17q1 -32 22 -58t66 -26q26 0 43.5 9t28.5 24t15.5 33.5t4.5 36.5v196q0 20 -13.5 38t-48.5 18h-28q-3 -5 -8.5 -7t-10.5 -2
q-11 0 -18.5 8t-7.5 19t7.5 19t18.5 8q5 0 10.5 -2.5t8.5 -6.5h28q18 0 29.5 7t19 18t10.5 25t3 28q0 13 -5 27t-16 25t-27.5 18.5t-39.5 7.5q-38 0 -66.5 -22t-28.5 -62q7 -6 7 -16t-9 -17.5t-18 -7.5q-11 0 -19 7.5t-8 17.5q0 5 1.5 10t5.5 8q0 53 36.5 88t98.5 35
q57 0 93 -32.5t36 -86.5q0 -37 -11.5 -58.5t-31.5 -35.5q28 -11 35.5 -31t7.5 -45v-196zM311 18q4 -8 4 -12q0 -11 -7.5 -18.5t-18.5 -7.5t-19 7.5t-8 18.5q0 14 12 23l365 1386q-2 4 -2 12q0 11 7.5 19t18.5 8t19 -8t8 -19q0 -8 -4 -14.5t-12 -9.5z" />
    <glyph glyph-name="questiondown" unicode="&#xbf;" horiz-adv-x="555" 
d="M264 1125q-6 6 -6 16q0 11 8 19t19 8t18.5 -8t7.5 -19q0 -10 -6 -16v-365q0 -51 -17 -104t-71 -103l-43 -37q-35 -30 -47 -70t-14 -91v-142q0 -35 8.5 -69.5t28.5 -61.5t53 -44t82 -17q46 0 78 15t52.5 40t30.5 56.5t11 64.5q-6 6 -6 16q0 11 7.5 19t18.5 8t19 -8t8 -19
q0 -5 -1.5 -10t-4.5 -8q-2 -42 -14.5 -80.5t-37.5 -68.5t-64.5 -48t-96.5 -18q-61 0 -101.5 20t-65.5 53t-35.5 75t-10.5 85v142q0 24 2.5 47.5t10 47t22 46.5t38.5 45l41 37q39 35 58.5 82.5t19.5 99.5v365zM249 1441q12 13 35 13q22 0 33.5 -13t11.5 -32
q0 -20 -11.5 -33.5t-33.5 -13.5q-23 0 -35 13.5t-12 33.5q0 19 12 32z" />
    <glyph glyph-name="Agrave" unicode="&#xc0;" 
d="M512 23q6 -8 6 -17q0 -11 -7.5 -18.5t-18.5 -7.5t-19 7.5t-8 18.5q0 9 6 17v960h-344v-960q6 -8 6 -17q0 -11 -8 -18.5t-19 -7.5t-18.5 7.5t-7.5 18.5q0 9 6 17v1177q0 44 10 86t35 75t66.5 53t103.5 20h211v-1411zM471 1024v369h-170q-51 0 -84.5 -17t-53.5 -44.5
t-28 -62t-8 -69.5v-176h344zM399 1583q9 -2 17 -10t8 -17q0 -11 -8 -19t-19 -8t-19 8t-8 19l-206 207q-11 0 -19 7.5t-8 18.5t8 19t19 8q9 0 16.5 -7.5t9.5 -16.5z" />
    <glyph glyph-name="Aacute" unicode="&#xc1;" 
d="M512 23q6 -8 6 -17q0 -11 -7.5 -18.5t-18.5 -7.5t-19 7.5t-8 18.5q0 9 6 17v960h-344v-960q6 -8 6 -17q0 -11 -8 -18.5t-19 -7.5t-18.5 7.5t-7.5 18.5q0 9 6 17v1177q0 44 10 86t35 75t66.5 53t103.5 20h211v-1411zM471 1024v369h-170q-51 0 -84.5 -17t-53.5 -44.5
t-28 -62t-8 -69.5v-176h344zM272 1561q0 -11 -7.5 -19t-18.5 -8t-19 8t-8 19q0 9 6.5 17t17.5 10l209 209q0 9 8 16.5t19 7.5t19 -8t8 -19t-8 -18.5t-19 -7.5z" />
    <glyph glyph-name="Acircumflex" unicode="&#xc2;" 
d="M509 23q6 -8 6 -17q0 -11 -7.5 -18.5t-18.5 -7.5t-19 7.5t-8 18.5q0 9 6 17v960h-344v-960q6 -8 6 -17q0 -11 -8 -18.5t-19 -7.5t-18.5 7.5t-7.5 18.5q0 9 6 17v1177q0 44 10 86t35 75t66.5 53t103.5 20h211v-1411zM468 1024v369h-170q-51 0 -84.5 -17t-53.5 -44.5
t-28 -62t-8 -69.5v-176h344zM554 1586q9 -2 17 -10t8 -17q0 -11 -8 -19t-19 -8t-19 8t-8 19l-206 207l-207 -207q0 -11 -8 -19t-19 -8t-19 8t-8 19q0 9 7 17t18 10l209 209q0 9 8 16.5t19 7.5q9 0 16.5 -7.5t9.5 -16.5z" />
    <glyph glyph-name="Atilde" unicode="&#xc3;" 
d="M512 23q6 -8 6 -17q0 -11 -7.5 -18.5t-18.5 -7.5t-19 7.5t-8 18.5q0 9 6 17v960h-344v-960q6 -8 6 -17q0 -11 -8 -18.5t-19 -7.5t-18.5 7.5t-7.5 18.5q0 9 6 17v1177q0 44 10 86t35 75t66.5 53t103.5 20h211v-1411zM471 1024v369h-170q-51 0 -84.5 -17t-53.5 -44.5
t-28 -62t-8 -69.5v-176h344zM512 1701q0 -32 -9 -54t-24 -35.5t-35.5 -19t-42.5 -5.5q-25 0 -45 10t-36 24.5t-30 32t-28 32t-29 24.5t-34 10q-28 0 -49 -15t-21 -59v-16q6 -6 6 -17t-7.5 -18.5t-18.5 -7.5t-19 7.5t-8 18.5q0 14 8 19v14q0 34 9.5 56t25.5 35t36 18.5
t40 5.5q25 0 44.5 -10t35.5 -24.5t30 -32t28.5 -32t29.5 -24.5t34 -10q28 0 49 14.5t21 58.5v15q-6 9 -6 18q0 11 8 19t19 8t18.5 -8t7.5 -19q0 -7 -2.5 -11.5t-5.5 -8.5v-13z" />
    <glyph glyph-name="Adieresis" unicode="&#xc4;" 
d="M512 23q6 -8 6 -17q0 -11 -7.5 -18.5t-18.5 -7.5t-19 7.5t-8 18.5q0 9 6 17v960h-344v-960q6 -8 6 -17q0 -11 -8 -18.5t-19 -7.5t-18.5 7.5t-7.5 18.5q0 9 6 17v1177q0 44 10 86t35 75t66.5 53t103.5 20h211v-1411zM471 1024v369h-170q-51 0 -84.5 -17t-53.5 -44.5
t-28 -62t-8 -69.5v-176h344zM204 1644q6 -6 6 -16q0 -11 -8 -19t-19 -8t-18.5 8t-7.5 19q0 10 6 16v59q-6 10 -6 19q0 11 7.5 18.5t18.5 7.5t19 -7.5t8 -18.5q0 -9 -6 -19v-59zM435 1644q6 -6 6 -16q0 -11 -7.5 -19t-18.5 -8t-19 8t-8 19q0 10 6 16v59q-6 10 -6 19
q0 11 8 18.5t19 7.5t18.5 -7.5t7.5 -18.5q0 -9 -6 -19v-59z" />
    <glyph glyph-name="Aring" unicode="&#xc5;" 
d="M512 23q6 -8 6 -17q0 -11 -7.5 -18.5t-18.5 -7.5t-19 7.5t-8 18.5q0 9 6 17v960h-344v-960q6 -8 6 -17q0 -11 -8 -18.5t-19 -7.5t-18.5 7.5t-7.5 18.5q0 9 6 17v1177q0 44 10 86t35 75t66.5 53t103.5 20h211v-1411zM471 1024v369h-170q-51 0 -84.5 -17t-53.5 -44.5
t-28 -62t-8 -69.5v-176h344zM172 1682q0 24 6.5 48.5t21.5 44t39.5 32t59.5 12.5q37 0 61.5 -12.5t39 -32t20.5 -44t6 -58.5q0 -26 -6 -51.5t-20.5 -45t-39 -31.5t-61.5 -12q-35 0 -59.5 12t-39.5 31.5t-21.5 45t-6.5 51.5v10zM340 1582q17 9 27 23t14 31.5t4 35.5
q0 26 -4 43t-14 31t-26.5 23t-41.5 9t-41.5 -9t-26.5 -23t-14 -31t-4 -43q0 -18 4 -35.5t14 -31.5t26.5 -23t41.5 -9t41 9z" />
    <glyph glyph-name="AE" unicode="&#xc6;" horiz-adv-x="930" 
d="M852 41q9 6 18 6q11 0 19 -8t8 -19t-8 -18.5t-19 -7.5q-9 0 -18 6h-381v983h-344v-960q6 -8 6 -17q0 -11 -8 -18.5t-19 -7.5t-18.5 7.5t-7.5 18.5q0 9 6 17v1177q0 44 10 86t35 75t66.5 53t103.5 20h551q9 6 18 6q11 0 19 -8t8 -19t-8 -19t-19 -8q-8 0 -18 7h-340v-369
h281q9 6 18 6q11 0 19 -7.5t8 -18.5t-8 -19t-19 -8q-9 0 -18 6h-281v-942h340zM471 1024v369h-170q-51 0 -84.5 -17t-53.5 -44.5t-28 -62t-8 -69.5v-176h344z" />
    <glyph glyph-name="Ccedilla" unicode="&#xc7;" horiz-adv-x="539" 
d="M477 -254q0 -37 -12.5 -62t-33 -40.5t-46 -22t-51.5 -6.5h-119q-6 -6 -16 -6q-11 0 -19 7.5t-8 18.5t8 19t19 8q10 0 16 -6h119q18 0 36.5 4t33 14.5t23.5 28t9 43.5v33q0 26 -9 43t-23.5 27.5t-33 15t-36.5 4.5h-58v112q-49 2 -83 18q-41 19 -65.5 50.5t-35 72.5
t-10.5 85v1014q0 43 10.5 85t35 75t65.5 53t102 20q57 0 96.5 -18t64.5 -48t37.5 -68.5t14.5 -80.5q3 -3 4.5 -8t1.5 -10q0 -11 -8 -19t-19 -8t-18.5 8t-7.5 19q0 10 6 16q-2 33 -11.5 64.5t-30 56.5t-52.5 40t-78 15q-49 0 -82 -17t-53 -44t-28.5 -61.5t-8.5 -69.5v-1014
q0 -36 8.5 -69.5t28.5 -60t53 -42t82 -15.5q46 0 78 13.5t52.5 36.5t30 53.5t11.5 64.5q-3 4 -4.5 9t-1.5 10q0 11 7.5 18.5t18.5 7.5t19 -7.5t8 -18.5q0 -5 -1.5 -10t-4.5 -9q-2 -41 -14.5 -79t-37.5 -66.5t-65 -45.5q-31 -13 -74 -16v-71h17q26 0 51.5 -6.5t46 -22
t33 -40.5t12.5 -62v-33z" />
    <glyph glyph-name="Egrave" unicode="&#xc8;" horiz-adv-x="547" 
d="M467 41q9 6 18 6q11 0 19 -8t8 -19t-8 -18.5t-19 -7.5q-9 0 -18 6h-381v1202q0 44 10 85.5t35 74t66.5 52.5t103.5 20h166q9 6 18 6q11 0 19 -8t8 -19t-8 -19t-19 -8q-8 0 -18 7h-166q-51 0 -84.5 -16.5t-53.5 -43.5t-28 -61.5t-8 -69.5v-178h281q9 6 18 6q11 0 19 -7.5
t8 -18.5t-8 -19t-19 -8q-9 0 -18 6h-281v-942h340zM418 1586q9 -2 17 -10t8 -17q0 -11 -8 -19t-19 -8t-19 8t-8 19l-206 207q-11 0 -19 7.5t-8 18.5t8 19t19 8q9 0 16.5 -7.5t9.5 -16.5z" />
    <glyph glyph-name="Eacute" unicode="&#xc9;" horiz-adv-x="547" 
d="M467 41q9 6 18 6q11 0 19 -8t8 -19t-8 -18.5t-19 -7.5q-9 0 -18 6h-381v1202q0 44 10 85.5t35 74t66.5 52.5t103.5 20h166q9 6 18 6q11 0 19 -8t8 -19t-8 -19t-19 -8q-8 0 -18 7h-166q-51 0 -84.5 -16.5t-53.5 -43.5t-28 -61.5t-8 -69.5v-178h281q9 6 18 6q11 0 19 -7.5
t8 -18.5t-8 -19t-19 -8q-9 0 -18 6h-281v-942h340zM270 1559q0 -11 -7.5 -19t-18.5 -8t-19 8t-8 19q0 9 6.5 17t17.5 10l209 209q0 9 8 16.5t19 7.5t19 -8t8 -19t-8 -18.5t-19 -7.5z" />
    <glyph glyph-name="Ecircumflex" unicode="&#xca;" horiz-adv-x="547" 
d="M467 41q9 6 18 6q11 0 19 -8t8 -19t-8 -18.5t-19 -7.5q-9 0 -18 6h-381v1202q0 44 10 85.5t35 74t66.5 52.5t103.5 20h166q9 6 18 6q11 0 19 -8t8 -19t-8 -19t-19 -8q-8 0 -18 7h-166q-51 0 -84.5 -16.5t-53.5 -43.5t-28 -61.5t-8 -69.5v-178h281q9 6 18 6q11 0 19 -7.5
t8 -18.5t-8 -19t-19 -8q-9 0 -18 6h-281v-942h340zM554 1586q9 -2 17 -10t8 -17q0 -11 -8 -19t-19 -8t-19 8t-8 19l-206 207l-207 -207q0 -11 -8 -19t-19 -8t-19 8t-8 19q0 9 7 17t18 10l209 209q0 9 8 16.5t19 7.5q9 0 16.5 -7.5t9.5 -16.5z" />
    <glyph glyph-name="Edieresis" unicode="&#xcb;" horiz-adv-x="547" 
d="M467 41q9 6 18 6q11 0 19 -8t8 -19t-8 -18.5t-19 -7.5q-9 0 -18 6h-381v1202q0 44 10 85.5t35 74t66.5 52.5t103.5 20h166q9 6 18 6q11 0 19 -8t8 -19t-8 -19t-19 -8q-8 0 -18 7h-166q-51 0 -84.5 -16.5t-53.5 -43.5t-28 -61.5t-8 -69.5v-178h281q9 6 18 6q11 0 19 -7.5
t8 -18.5t-8 -19t-19 -8q-9 0 -18 6h-281v-942h340zM205 1643q6 -6 6 -16q0 -11 -8 -19t-19 -8t-18.5 8t-7.5 19q0 10 6 16v59q-6 10 -6 19q0 11 7.5 18.5t18.5 7.5t19 -7.5t8 -18.5q0 -9 -6 -19v-59zM436 1643q6 -6 6 -16q0 -11 -7.5 -19t-18.5 -8t-19 8t-8 19q0 10 6 16v59
q-6 10 -6 19q0 11 8 18.5t19 7.5t18.5 -7.5t7.5 -18.5q0 -9 -6 -19v-59z" />
    <glyph glyph-name="Igrave" unicode="&#xcc;" horiz-adv-x="217" 
d="M129 23q6 -8 6 -17q0 -11 -7.5 -18.5t-18.5 -7.5t-19 7.5t-8 18.5q0 9 6 17v1386q-6 9 -6 18q0 11 8 19t19 8t18.5 -8t7.5 -19q0 -9 -6 -18v-1386zM111 1586q9 -2 17 -10t8 -17q0 -11 -8 -19t-19 -8t-19 8t-8 19l-206 207q-11 0 -19 7.5t-8 18.5t8 19t19 8q9 0 16.5 -7.5
t9.5 -16.5z" />
    <glyph glyph-name="Iacute" unicode="&#xcd;" horiz-adv-x="217" 
d="M129 23q6 -8 6 -17q0 -11 -7.5 -18.5t-18.5 -7.5t-19 7.5t-8 18.5q0 9 6 17v1386q-6 9 -6 18q0 11 8 19t19 8t18.5 -8t7.5 -19q0 -9 -6 -18v-1386zM135 1559q0 -11 -7.5 -19t-18.5 -8t-19 8t-8 19q0 9 6.5 17t17.5 10l209 209q0 9 8 16.5t19 7.5t19 -8t8 -19t-8 -18.5
t-19 -7.5z" />
    <glyph glyph-name="Icircumflex" unicode="&#xce;" horiz-adv-x="217" 
d="M129 23q6 -8 6 -17q0 -11 -7.5 -18.5t-18.5 -7.5t-19 7.5t-8 18.5q0 9 6 17v1386q-6 9 -6 18q0 11 8 19t19 8t18.5 -8t7.5 -19q0 -9 -6 -18v-1386zM345 1586q9 -2 17 -10t8 -17q0 -11 -8 -19t-19 -8t-19 8t-8 19l-206 207l-207 -207q0 -11 -8 -19t-19 -8t-19 8t-8 19
q0 9 7 17t18 10l209 209q0 9 8 16.5t19 7.5q9 0 16.5 -7.5t9.5 -16.5z" />
    <glyph glyph-name="Idieresis" unicode="&#xcf;" horiz-adv-x="217" 
d="M129 23q6 -8 6 -17q0 -11 -7.5 -18.5t-18.5 -7.5t-19 7.5t-8 18.5q0 9 6 17v1386q-6 9 -6 18q0 11 8 19t19 8t18.5 -8t7.5 -19q0 -9 -6 -18v-1386zM13 1643q6 -6 6 -16q0 -11 -8 -19t-19 -8t-18.5 8t-7.5 19q0 10 6 16v59q-6 10 -6 19q0 11 7.5 18.5t18.5 7.5t19 -7.5
t8 -18.5q0 -9 -6 -19v-59zM244 1643q6 -6 6 -16q0 -11 -7.5 -19t-18.5 -8t-19 8t-8 19q0 10 6 16v59q-6 10 -6 19q0 11 8 18.5t19 7.5t18.5 -7.5t7.5 -18.5q0 -9 -6 -19v-59z" />
    <glyph glyph-name="Eth" unicode="&#xd0;" horiz-adv-x="610" 
d="M528 233q0 -44 -10.5 -85.5t-35 -74.5t-66 -53t-103.5 -20h-211v983h-96q-6 -6 -16 -6q-11 0 -19 8t-8 19t8 18.5t19 7.5q10 0 16 -6h96v410h211q62 0 103.5 -20t66 -53t35 -75t10.5 -86v-967zM313 41q51 0 84.5 17t53.5 44t28 61.5t8 69.5v967q0 35 -8 69.5t-28 62
t-53.5 44.5t-84.5 17h-170v-369h152q9 6 18 6q11 0 19 -7.5t8 -18.5t-8 -19t-19 -8q-9 0 -18 6h-152v-942h170z" />
    <glyph glyph-name="Ntilde" unicode="&#xd1;" horiz-adv-x="602" 
d="M514 23q6 -8 6 -17q0 -11 -7.5 -18.5t-18.5 -7.5t-19 7.5t-8 18.5q0 9 6 17v1353l-344 -366v-987q6 -8 6 -17q0 -11 -7.5 -18.5t-18.5 -7.5t-19 7.5t-8 18.5q0 9 6 17v1386q-6 9 -6 18q0 11 8 19t19 8t18.5 -8t7.5 -19q0 -9 -6 -18v-342l344 367h41v-1411zM512 1701
q0 -32 -9 -54t-24 -35.5t-35.5 -19t-42.5 -5.5q-25 0 -45 10t-36 24.5t-30 32t-28 32t-29 24.5t-34 10q-28 0 -49 -15t-21 -59v-16q6 -6 6 -17t-7.5 -18.5t-18.5 -7.5t-19 7.5t-8 18.5q0 14 8 19v14q0 34 9.5 56t25.5 35t36 18.5t40 5.5q25 0 44.5 -10t35.5 -24.5t30 -32
t28.5 -32t29.5 -24.5t34 -10q28 0 49 14.5t21 58.5v15q-6 9 -6 18q0 11 8 19t19 8t18.5 -8t7.5 -19q0 -7 -2.5 -11.5t-5.5 -8.5v-13z" />
    <glyph glyph-name="Ograve" unicode="&#xd2;" horiz-adv-x="590" 
d="M123 207q0 -36 8.5 -69.5t28.5 -60t53 -42t82 -15.5t82 15.5t53 42t28.5 60t8.5 69.5v1014q0 35 -8.5 69.5t-28.5 61.5t-53 44t-82 17t-82 -17t-53 -44t-28.5 -61.5t-8.5 -69.5v-1014zM508 207q0 -44 -11 -85t-36 -72.5t-66 -50.5t-100 -19q-61 0 -102 19t-65.5 50.5
t-35 72.5t-10.5 85v1014q0 43 10.5 85t35 75t65.5 53t102 20q59 0 100 -20t66 -53t36 -75t11 -85v-1014zM373 1586q9 -2 17 -10t8 -17q0 -11 -8 -19t-19 -8t-19 8t-8 19l-206 207q-11 0 -19 7.5t-8 18.5t8 19t19 8q9 0 16.5 -7.5t9.5 -16.5z" />
    <glyph glyph-name="Oacute" unicode="&#xd3;" horiz-adv-x="590" 
d="M123 207q0 -36 8.5 -69.5t28.5 -60t53 -42t82 -15.5t82 15.5t53 42t28.5 60t8.5 69.5v1014q0 35 -8.5 69.5t-28.5 61.5t-53 44t-82 17t-82 -17t-53 -44t-28.5 -61.5t-8.5 -69.5v-1014zM508 207q0 -44 -11 -85t-36 -72.5t-66 -50.5t-100 -19q-61 0 -102 19t-65.5 50.5
t-35 72.5t-10.5 85v1014q0 43 10.5 85t35 75t65.5 53t102 20q59 0 100 -20t66 -53t36 -75t11 -85v-1014zM287 1559q0 -11 -7.5 -19t-18.5 -8t-19 8t-8 19q0 9 6.5 17t17.5 10l209 209q0 9 8 16.5t19 7.5t19 -8t8 -19t-8 -18.5t-19 -7.5z" />
    <glyph glyph-name="Ocircumflex" unicode="&#xd4;" horiz-adv-x="590" 
d="M123 207q0 -36 8.5 -69.5t28.5 -60t53 -42t82 -15.5t82 15.5t53 42t28.5 60t8.5 69.5v1014q0 35 -8.5 69.5t-28.5 61.5t-53 44t-82 17t-82 -17t-53 -44t-28.5 -61.5t-8.5 -69.5v-1014zM508 207q0 -44 -11 -85t-36 -72.5t-66 -50.5t-100 -19q-61 0 -102 19t-65.5 50.5
t-35 72.5t-10.5 85v1014q0 43 10.5 85t35 75t65.5 53t102 20q59 0 100 -20t66 -53t36 -75t11 -85v-1014zM532 1586q9 -2 17 -10t8 -17q0 -11 -8 -19t-19 -8t-19 8t-8 19l-206 207l-207 -207q0 -11 -8 -19t-19 -8t-19 8t-8 19q0 9 7 17t18 10l209 209q0 9 8 16.5t19 7.5
q9 0 16.5 -7.5t9.5 -16.5z" />
    <glyph glyph-name="Otilde" unicode="&#xd5;" horiz-adv-x="590" 
d="M123 207q0 -36 8.5 -69.5t28.5 -60t53 -42t82 -15.5t82 15.5t53 42t28.5 60t8.5 69.5v1014q0 35 -8.5 69.5t-28.5 61.5t-53 44t-82 17t-82 -17t-53 -44t-28.5 -61.5t-8.5 -69.5v-1014zM508 207q0 -44 -11 -85t-36 -72.5t-66 -50.5t-100 -19q-61 0 -102 19t-65.5 50.5
t-35 72.5t-10.5 85v1014q0 43 10.5 85t35 75t65.5 53t102 20q59 0 100 -20t66 -53t36 -75t11 -85v-1014zM507 1701q0 -32 -9 -54t-24 -35.5t-35.5 -19t-42.5 -5.5q-25 0 -45 10t-36 24.5t-30 32t-28 32t-29 24.5t-34 10q-28 0 -49 -15t-21 -59v-16q6 -6 6 -17t-7.5 -18.5
t-18.5 -7.5t-19 7.5t-8 18.5q0 14 8 19v14q0 34 9.5 56t25.5 35t36 18.5t40 5.5q25 0 44.5 -10t35.5 -24.5t30 -32t28.5 -32t29.5 -24.5t34 -10q28 0 49 14.5t21 58.5v15q-6 9 -6 18q0 11 8 19t19 8t18.5 -8t7.5 -19q0 -7 -2.5 -11.5t-5.5 -8.5v-13z" />
    <glyph glyph-name="Odieresis" unicode="&#xd6;" horiz-adv-x="590" 
d="M123 207q0 -36 8.5 -69.5t28.5 -60t53 -42t82 -15.5t82 15.5t53 42t28.5 60t8.5 69.5v1014q0 35 -8.5 69.5t-28.5 61.5t-53 44t-82 17t-82 -17t-53 -44t-28.5 -61.5t-8.5 -69.5v-1014zM508 207q0 -44 -11 -85t-36 -72.5t-66 -50.5t-100 -19q-61 0 -102 19t-65.5 50.5
t-35 72.5t-10.5 85v1014q0 43 10.5 85t35 75t65.5 53t102 20q59 0 100 -20t66 -53t36 -75t11 -85v-1014zM201 1643q6 -6 6 -16q0 -11 -8 -19t-19 -8t-18.5 8t-7.5 19q0 10 6 16v59q-6 10 -6 19q0 11 7.5 18.5t18.5 7.5t19 -7.5t8 -18.5q0 -9 -6 -19v-59zM432 1643
q6 -6 6 -16q0 -11 -7.5 -19t-18.5 -8t-19 8t-8 19q0 10 6 16v59q-6 10 -6 19q0 11 8 18.5t19 7.5t18.5 -7.5t7.5 -18.5q0 -9 -6 -19v-59z" />
    <glyph glyph-name="multiply" unicode="&#xd7;" horiz-adv-x="590" 
d="M475 385q9 0 17 -6q8 -8 8 -18.5t-8 -18.5t-18.5 -8t-18.5 8q-3 3 -4.5 7t-3.5 7l-164 166l-162 -162q0 -10 -6 -16q-8 -8 -19.5 -8t-19.5 8t-8 18.5t8 18.5q6 6 14 6l164 164l-162 160q-3 2 -7 3.5t-7 4.5q-8 8 -8 18.5t8 18.5t18.5 8t18.5 -8q6 -6 6 -17l162 -159
l161 161q2 5 4 9.5t5 7.5q8 8 18.5 8t18.5 -8t8 -19.5t-8 -19.5q-9 -8 -19 -8l-160 -160z" />
    <glyph glyph-name="Oslash" unicode="&#xd8;" horiz-adv-x="596" 
d="M508 207q0 -44 -11 -85t-36 -72.5t-66 -50.5t-100 -19q-61 0 -102 19t-65.5 50.5t-35.5 72.5q-1 6 -3 11l-81 -209q2 -3 3 -6t1 -8q-2 -11 -10.5 -18t-19.5 -7q-11 2 -18 11t-5 20q3 15 16 23l107 275v1007q0 43 10.5 85t35 75t65.5 53t102 20q59 0 100 -20t66 -53
t36 -75q2 -7 3 -14l86 221q-4 9 -2 13q2 11 10.5 17.5t19.5 4.5q11 0 18 -8.5t5 -19.5q-3 -17 -16 -23l-113 -290v-1000zM467 1221q0 35 -8.5 69.5t-28.5 61.5t-53 44t-82 17t-82 -17t-53 -44t-28.5 -61.5t-8.5 -69.5v-901l344 886v15zM123 207q0 -36 8.5 -69.5t28.5 -60
t53 -42t82 -15.5t82 15.5t53 42t28.5 60t8.5 69.5v895l-344 -883v-12z" />
    <glyph glyph-name="Ugrave" unicode="&#xd9;" 
d="M512 213q0 -44 -11 -86t-36 -74.5t-66 -52.5t-100 -20q-61 0 -102 20t-65.5 52.5t-35 74.5t-10.5 86v1196q-6 9 -6 18q0 11 7.5 19t18.5 8t19 -8t8 -19q0 -9 -6 -18v-1196q0 -35 8.5 -69.5t28.5 -62t53 -44.5t82 -17t82 17t53 44.5t28.5 62t8.5 69.5v1196q-6 9 -6 18
q0 11 8 19t19 8t18.5 -8t7.5 -19q0 -9 -6 -18v-1196zM397 1586q9 -2 17 -10t8 -17q0 -11 -8 -19t-19 -8t-19 8t-8 19l-206 207q-11 0 -19 7.5t-8 18.5t8 19t19 8q9 0 16.5 -7.5t9.5 -16.5z" />
    <glyph glyph-name="Uacute" unicode="&#xda;" 
d="M512 213q0 -44 -11 -86t-36 -74.5t-66 -52.5t-100 -20q-61 0 -102 20t-65.5 52.5t-35 74.5t-10.5 86v1196q-6 9 -6 18q0 11 7.5 19t18.5 8t19 -8t8 -19q0 -9 -6 -18v-1196q0 -35 8.5 -69.5t28.5 -62t53 -44.5t82 -17t82 17t53 44.5t28.5 62t8.5 69.5v1196q-6 9 -6 18
q0 11 8 19t19 8t18.5 -8t7.5 -19q0 -9 -6 -18v-1196zM270 1561q0 -11 -7.5 -19t-18.5 -8t-19 8t-8 19q0 9 6.5 17t17.5 10l209 209q0 9 8 16.5t19 7.5t19 -8t8 -19t-8 -18.5t-19 -7.5z" />
    <glyph glyph-name="Ucircumflex" unicode="&#xdb;" 
d="M512 213q0 -44 -11 -86t-36 -74.5t-66 -52.5t-100 -20q-61 0 -102 20t-65.5 52.5t-35 74.5t-10.5 86v1196q-6 9 -6 18q0 11 7.5 19t18.5 8t19 -8t8 -19q0 -9 -6 -18v-1196q0 -35 8.5 -69.5t28.5 -62t53 -44.5t82 -17t82 17t53 44.5t28.5 62t8.5 69.5v1196q-6 9 -6 18
q0 11 8 19t19 8t18.5 -8t7.5 -19q0 -9 -6 -18v-1196zM536 1586q9 -2 17 -10t8 -17q0 -11 -8 -19t-19 -8t-19 8t-8 19l-206 207l-207 -207q0 -11 -8 -19t-19 -8t-19 8t-8 19q0 9 7 17t18 10l209 209q0 9 8 16.5t19 7.5q9 0 16.5 -7.5t9.5 -16.5z" />
    <glyph glyph-name="Udieresis" unicode="&#xdc;" 
d="M512 213q0 -44 -11 -86t-36 -74.5t-66 -52.5t-100 -20q-61 0 -102 20t-65.5 52.5t-35 74.5t-10.5 86v1196q-6 9 -6 18q0 11 7.5 19t18.5 8t19 -8t8 -19q0 -9 -6 -18v-1196q0 -35 8.5 -69.5t28.5 -62t53 -44.5t82 -17t82 17t53 44.5t28.5 62t8.5 69.5v1196q-6 9 -6 18
q0 11 8 19t19 8t18.5 -8t7.5 -19q0 -9 -6 -18v-1196zM205 1643q6 -6 6 -16q0 -11 -8 -19t-19 -8t-18.5 8t-7.5 19q0 10 6 16v59q-6 10 -6 19q0 11 7.5 18.5t18.5 7.5t19 -7.5t8 -18.5q0 -9 -6 -19v-59zM436 1643q6 -6 6 -16q0 -11 -7.5 -19t-18.5 -8t-19 8t-8 19q0 10 6 16
v59q-6 10 -6 19q0 11 8 18.5t19 7.5t18.5 -7.5t7.5 -18.5q0 -9 -6 -19v-59z" />
    <glyph glyph-name="Yacute" unicode="&#xdd;" horiz-adv-x="502" 
d="M272 23q7 -9 7 -17q0 -11 -8 -18.5t-19 -7.5t-19 7.5t-8 18.5q0 9 6 17v1001l-206 379q-17 6 -17 24q0 11 8 19t19 8t18.5 -8t7.5 -19q0 -6 -2 -10l189 -344h6l188 344v10q0 11 8 19t19 8t19 -8t8 -19q0 -9 -5.5 -15t-11.5 -9l-207 -379v-1001zM203 1559q0 -11 -7.5 -19
t-18.5 -8t-19 8t-8 19q0 9 6.5 17t17.5 10l209 209q0 9 8 16.5t19 7.5t19 -8t8 -19t-8 -18.5t-19 -7.5z" />
    <glyph glyph-name="Thorn" unicode="&#xde;" horiz-adv-x="561" 
d="M129 23q6 -8 6 -17q0 -11 -7.5 -18.5t-18.5 -7.5t-19 7.5t-8 18.5q0 9 6 17v1386q-6 9 -6 18q0 11 8 19t19 8t18.5 -8t7.5 -19q0 -9 -6 -18v-170h178q61 0 101.5 -20t65.5 -53t35.5 -75t10.5 -85v-369q0 -44 -10.5 -85t-35.5 -72.5t-65.5 -50.5t-101.5 -19h-178v-387z
M307 451q49 0 82 15.5t53 41.5t28.5 59.5t8.5 69.5v369q0 35 -8.5 69.5t-28.5 61.5t-53 44t-82 17h-178v-747h178z" />
    <glyph glyph-name="germandbls" unicode="&#xdf;" horiz-adv-x="578" 
d="M508 221q0 -105 -54.5 -163t-160.5 -58h-41q-6 -6 -16 -6q-11 0 -19 7.5t-8 18.5t8 19t19 8q10 0 16 -6h41q87 0 130.5 48.5t43.5 133.5v568q0 36 -8.5 70.5t-29 61.5t-55 43.5t-85.5 16.5h-37q-6 -6 -16 -6q-11 0 -19 8t-8 19t8 18.5t19 7.5q10 0 16 -6h55q49 0 80 17
t49 45t24.5 63.5t6.5 71.5q0 35 -8.5 69.5t-28.5 61.5t-53 44t-82 17t-82 -17t-53 -44t-28.5 -61.5t-8.5 -69.5v-1198q6 -8 6 -17q0 -11 -8 -18.5t-19 -7.5t-18.5 7.5t-7.5 18.5q0 9 6 17v1198q0 43 10.5 85t35 75t65.5 53t102 20q59 0 100 -20t66 -53t36 -75t11 -85
q0 -33 -5.5 -66.5t-19.5 -62.5t-37 -52t-57 -36q33 -15 55.5 -37t37 -49.5t20.5 -60t6 -66.5v-570z" />
    <glyph glyph-name="agrave" unicode="&#xe0;" horiz-adv-x="563" 
d="M485 23q7 -9 7 -17q0 -11 -8 -18.5t-19 -7.5t-19 7.5t-8 18.5q0 9 6 17v43q-27 -39 -67.5 -62.5t-102.5 -23.5q-60 0 -100.5 20.5t-65 53.5t-35 75t-10.5 86v166q0 44 9.5 86t37 75t79 53.5t135.5 20.5h120v193q0 35 -8.5 70t-28 62.5t-52.5 45t-81 17.5q-46 0 -78 -15.5
t-52.5 -40t-30.5 -56.5t-11 -65q7 -7 7 -16t-8 -17t-19 -8t-19 8t-8 17q0 5 1.5 10t4.5 8q3 42 15 80.5t37.5 68.5t64.5 48t96 18q60 0 100.5 -20.5t65 -53.5t35 -75t10.5 -86v-786zM104 215q0 -35 8 -70t27.5 -63t52 -45t82.5 -17q48 0 80 15.5t51.5 41t28 58t10.5 66.5
v374h-120q-72 0 -115.5 -17t-67 -44.5t-30.5 -62.5t-7 -70v-166zM344 1221q9 -2 17 -10t8 -17q0 -11 -8 -19t-19 -8t-19 8t-8 19l-206 207q-11 0 -19 7.5t-8 18.5t8 19t19 8q9 0 16.5 -7.5t9.5 -16.5z" />
    <glyph glyph-name="aacute" unicode="&#xe1;" horiz-adv-x="563" 
d="M485 23q7 -9 7 -17q0 -11 -8 -18.5t-19 -7.5t-19 7.5t-8 18.5q0 9 6 17v43q-27 -39 -67.5 -62.5t-102.5 -23.5q-60 0 -100.5 20.5t-65 53.5t-35 75t-10.5 86v166q0 44 9.5 86t37 75t79 53.5t135.5 20.5h120v193q0 35 -8.5 70t-28 62.5t-52.5 45t-81 17.5q-46 0 -78 -15.5
t-52.5 -40t-30.5 -56.5t-11 -65q7 -7 7 -16t-8 -17t-19 -8t-19 8t-8 17q0 5 1.5 10t4.5 8q3 42 15 80.5t37.5 68.5t64.5 48t96 18q60 0 100.5 -20.5t65 -53.5t35 -75t10.5 -86v-786zM104 215q0 -35 8 -70t27.5 -63t52 -45t82.5 -17q48 0 80 15.5t51.5 41t28 58t10.5 66.5
v374h-120q-72 0 -115.5 -17t-67 -44.5t-30.5 -62.5t-7 -70v-166zM272 1194q0 -11 -7.5 -19t-18.5 -8t-19 8t-8 19q0 9 6.5 17t17.5 10l209 209q0 9 8 16.5t19 7.5t19 -8t8 -19t-8 -18.5t-19 -7.5z" />
    <glyph glyph-name="acircumflex" unicode="&#xe2;" horiz-adv-x="563" 
d="M485 23q7 -9 7 -17q0 -11 -8 -18.5t-19 -7.5t-19 7.5t-8 18.5q0 9 6 17v43q-27 -39 -67.5 -62.5t-102.5 -23.5q-60 0 -100.5 20.5t-65 53.5t-35 75t-10.5 86v166q0 44 9.5 86t37 75t79 53.5t135.5 20.5h120v193q0 35 -8.5 70t-28 62.5t-52.5 45t-81 17.5q-46 0 -78 -15.5
t-52.5 -40t-30.5 -56.5t-11 -65q7 -7 7 -16t-8 -17t-19 -8t-19 8t-8 17q0 5 1.5 10t4.5 8q3 42 15 80.5t37.5 68.5t64.5 48t96 18q60 0 100.5 -20.5t65 -53.5t35 -75t10.5 -86v-786zM104 215q0 -35 8 -70t27.5 -63t52 -45t82.5 -17q48 0 80 15.5t51.5 41t28 58t10.5 66.5
v374h-120q-72 0 -115.5 -17t-67 -44.5t-30.5 -62.5t-7 -70v-166zM511 1221q9 -2 17 -10t8 -17q0 -11 -8 -19t-19 -8t-19 8t-8 19l-206 207l-207 -207q0 -11 -8 -19t-19 -8t-19 8t-8 19q0 9 7 17t18 10l209 209q0 9 8 16.5t19 7.5q9 0 16.5 -7.5t9.5 -16.5z" />
    <glyph glyph-name="atilde" unicode="&#xe3;" horiz-adv-x="563" 
d="M485 23q7 -9 7 -17q0 -11 -8 -18.5t-19 -7.5t-19 7.5t-8 18.5q0 9 6 17v43q-27 -39 -67.5 -62.5t-102.5 -23.5q-60 0 -100.5 20.5t-65 53.5t-35 75t-10.5 86v166q0 44 9.5 86t37 75t79 53.5t135.5 20.5h120v193q0 35 -8.5 70t-28 62.5t-52.5 45t-81 17.5q-46 0 -78 -15.5
t-52.5 -40t-30.5 -56.5t-11 -65q7 -7 7 -16t-8 -17t-19 -8t-19 8t-8 17q0 5 1.5 10t4.5 8q3 42 15 80.5t37.5 68.5t64.5 48t96 18q60 0 100.5 -20.5t65 -53.5t35 -75t10.5 -86v-786zM104 215q0 -35 8 -70t27.5 -63t52 -45t82.5 -17q48 0 80 15.5t51.5 41t28 58t10.5 66.5
v374h-120q-72 0 -115.5 -17t-67 -44.5t-30.5 -62.5t-7 -70v-166zM498 1339q0 -32 -9 -54t-24 -35.5t-35.5 -19t-42.5 -5.5q-25 0 -45 10t-36 24.5t-30 32t-28 32t-29 24.5t-34 10q-28 0 -49 -15t-21 -59v-16q6 -6 6 -17t-7.5 -18.5t-18.5 -7.5t-19 7.5t-8 18.5q0 14 8 19v14
q0 34 9.5 56t25.5 35t36 18.5t40 5.5q25 0 44.5 -10t35.5 -24.5t30 -32t28.5 -32t29.5 -24.5t34 -10q28 0 49 14.5t21 58.5v15q-6 9 -6 18q0 11 8 19t19 8t18.5 -8t7.5 -19q0 -7 -2.5 -11.5t-5.5 -8.5v-13z" />
    <glyph glyph-name="adieresis" unicode="&#xe4;" horiz-adv-x="563" 
d="M485 23q7 -9 7 -17q0 -11 -8 -18.5t-19 -7.5t-19 7.5t-8 18.5q0 9 6 17v43q-27 -39 -67.5 -62.5t-102.5 -23.5q-60 0 -100.5 20.5t-65 53.5t-35 75t-10.5 86v166q0 44 9.5 86t37 75t79 53.5t135.5 20.5h120v193q0 35 -8.5 70t-28 62.5t-52.5 45t-81 17.5q-46 0 -78 -15.5
t-52.5 -40t-30.5 -56.5t-11 -65q7 -7 7 -16t-8 -17t-19 -8t-19 8t-8 17q0 5 1.5 10t4.5 8q3 42 15 80.5t37.5 68.5t64.5 48t96 18q60 0 100.5 -20.5t65 -53.5t35 -75t10.5 -86v-786zM104 215q0 -35 8 -70t27.5 -63t52 -45t82.5 -17q48 0 80 15.5t51.5 41t28 58t10.5 66.5
v374h-120q-72 0 -115.5 -17t-67 -44.5t-30.5 -62.5t-7 -70v-166zM178 1270q6 -6 6 -16q0 -11 -8 -19t-19 -8t-18.5 8t-7.5 19q0 10 6 16v59q-6 10 -6 19q0 11 7.5 18.5t18.5 7.5t19 -7.5t8 -18.5q0 -9 -6 -19v-59zM409 1270q6 -6 6 -16q0 -11 -7.5 -19t-18.5 -8t-19 8t-8 19
q0 10 6 16v59q-6 10 -6 19q0 11 8 18.5t19 7.5t18.5 -7.5t7.5 -18.5q0 -9 -6 -19v-59z" />
    <glyph glyph-name="aring" unicode="&#xe5;" horiz-adv-x="563" 
d="M485 23q7 -9 7 -17q0 -11 -8 -18.5t-19 -7.5t-19 7.5t-8 18.5q0 9 6 17v43q-27 -39 -67.5 -62.5t-102.5 -23.5q-60 0 -100.5 20.5t-65 53.5t-35 75t-10.5 86v166q0 44 9.5 86t37 75t79 53.5t135.5 20.5h120v193q0 35 -8.5 70t-28 62.5t-52.5 45t-81 17.5q-46 0 -78 -15.5
t-52.5 -40t-30.5 -56.5t-11 -65q7 -7 7 -16t-8 -17t-19 -8t-19 8t-8 17q0 5 1.5 10t4.5 8q3 42 15 80.5t37.5 68.5t64.5 48t96 18q60 0 100.5 -20.5t65 -53.5t35 -75t10.5 -86v-786zM104 215q0 -35 8 -70t27.5 -63t52 -45t82.5 -17q48 0 80 15.5t51.5 41t28 58t10.5 66.5
v374h-120q-72 0 -115.5 -17t-67 -44.5t-30.5 -62.5t-7 -70v-166zM149 1317q0 24 6.5 48.5t21.5 44t39.5 32t59.5 12.5q37 0 61.5 -12.5t39 -32t20.5 -44t6 -58.5q0 -26 -6 -51.5t-20.5 -45t-39 -31.5t-61.5 -12q-35 0 -59.5 12t-39.5 31.5t-21.5 45t-6.5 51.5v10zM317 1217
q17 9 27 23t14 31.5t4 35.5q0 26 -4 43t-14 31t-26.5 23t-41.5 9t-41.5 -9t-26.5 -23t-14 -31t-4 -43q0 -18 4 -35.5t14 -31.5t26.5 -23t41.5 -9t41 9z" />
    <glyph glyph-name="ae" unicode="&#xe6;" horiz-adv-x="928" 
d="M866 575h-381v-360q0 -36 8.5 -71t28 -62.5t52.5 -44.5t81 -17q47 0 79 15t51.5 39.5t28.5 56.5t11 66q-3 3 -4.5 8t-1.5 8q0 11 8 19t19 8t18.5 -8t7.5 -19q0 -3 -1.5 -8t-4.5 -8q-2 -42 -13.5 -81t-36 -69t-64 -48.5t-97.5 -18.5q-40 0 -70.5 9t-54 25t-39.5 37.5
t-26 46.5q-23 -49 -70 -83.5t-121 -34.5q-60 0 -100.5 20.5t-65 53.5t-35 75t-10.5 86v166q0 44 9.5 86t37 75t79 53.5t135.5 20.5h120v193q0 35 -8.5 70t-28 62.5t-52.5 45t-81 17.5q-46 0 -78 -15.5t-52.5 -40t-30.5 -56.5t-11 -65q7 -7 7 -16t-8 -17t-19 -8t-19 8t-8 17
q0 5 1.5 10t4.5 8q3 42 15 80.5t37.5 68.5t64.5 48t96 18q79 0 124 -34t67 -86q10 26 26 48t39.5 38t54 25t70.5 9q60 0 100.5 -20.5t65 -53.5t35 -75t10.5 -86v-234zM104 215q0 -35 8 -70t27.5 -63t52 -45t82.5 -17q48 0 80 15.5t51.5 41t28 58t10.5 66.5v374h-120
q-72 0 -115.5 -17t-67 -44.5t-30.5 -62.5t-7 -70v-166zM825 616v193q0 35 -8 70t-27.5 62.5t-52.5 45t-82 17.5q-46 0 -78 -15.5t-52 -41t-29.5 -58t-10.5 -66.5v-14v-193h340z" />
    <glyph glyph-name="ccedilla" unicode="&#xe7;" horiz-adv-x="539" 
d="M438 -254q0 -37 -12.5 -62t-33 -40.5t-46 -22t-51.5 -6.5h-119q-6 -6 -16 -6q-11 0 -19 7.5t-8 18.5t8 19t19 8q10 0 16 -6h119q18 0 36.5 4t33 14.5t23.5 28t9 43.5v33q0 26 -9 43t-23.5 27.5t-33 15t-36.5 4.5h-58v115q-31 5 -55 16q-40 21 -64.5 54t-35 75t-10.5 86
v594q0 44 10.5 86t35 75t65 53.5t100.5 20.5q57 0 96 -18t64.5 -48t37.5 -68.5t15 -80.5q3 -3 4.5 -8t1.5 -10q0 -9 -8 -17t-19 -8t-18.5 8t-7.5 17q0 10 6 16q-2 33 -11.5 65t-30 56.5t-52.5 40t-78 15.5q-48 0 -81 -17.5t-52.5 -45t-28 -62.5t-8.5 -70v-594q0 -36 8.5 -71
t28 -62.5t52.5 -44.5t81 -17q46 0 78 14.5t52.5 39t30 56t11.5 65.5q-3 3 -4.5 8t-1.5 10q0 9 7.5 17t18.5 8t19 -8t8 -17q0 -5 -1.5 -10t-4.5 -8q-3 -42 -15 -80.5t-37.5 -68.5t-64.5 -48t-96 -18h-5v-70h17q26 0 51.5 -6.5t46 -22t33 -40.5t12.5 -62v-33z" />
    <glyph glyph-name="egrave" unicode="&#xe8;" horiz-adv-x="555" 
d="M494 575h-381v-360q0 -36 8.5 -71t28 -62.5t52.5 -44.5t81 -17q47 0 79 15t51.5 39.5t28.5 56.5t11 66q-3 3 -5 8t-2 8q0 11 8 19t19 8t19 -8t8 -19q0 -3 -1.5 -8t-4.5 -8q-3 -42 -14.5 -81t-35.5 -69t-63.5 -48.5t-97.5 -18.5q-60 0 -100.5 20.5t-65 53.5t-35 75
t-10.5 86v594q0 44 10.5 86t35 75t65 53.5t100.5 20.5t100 -20.5t65 -53.5t35.5 -75t10.5 -86v-234zM453 616v193q0 35 -8 70t-27.5 62.5t-52.5 45t-82 17.5q-48 0 -81 -17.5t-52.5 -45t-28 -62.5t-8.5 -70v-193h340zM362 1221q9 -2 17 -10t8 -17q0 -11 -8 -19t-19 -8t-19 8
t-8 19l-206 207q-11 0 -19 7.5t-8 18.5t8 19t19 8q9 0 16.5 -7.5t9.5 -16.5z" />
    <glyph glyph-name="eacute" unicode="&#xe9;" horiz-adv-x="555" 
d="M494 575h-381v-360q0 -36 8.5 -71t28 -62.5t52.5 -44.5t81 -17q47 0 79 15t51.5 39.5t28.5 56.5t11 66q-3 3 -5 8t-2 8q0 11 8 19t19 8t19 -8t8 -19q0 -3 -1.5 -8t-4.5 -8q-3 -42 -14.5 -81t-35.5 -69t-63.5 -48.5t-97.5 -18.5q-60 0 -100.5 20.5t-65 53.5t-35 75
t-10.5 86v594q0 44 10.5 86t35 75t65 53.5t100.5 20.5t100 -20.5t65 -53.5t35.5 -75t10.5 -86v-234zM453 616v193q0 35 -8 70t-27.5 62.5t-52.5 45t-82 17.5q-48 0 -81 -17.5t-52.5 -45t-28 -62.5t-8.5 -70v-193h340zM276 1194q0 -11 -7.5 -19t-18.5 -8t-19 8t-8 19
q0 9 6.5 17t17.5 10l209 209q0 9 8 16.5t19 7.5t19 -8t8 -19t-8 -18.5t-19 -7.5z" />
    <glyph glyph-name="ecircumflex" unicode="&#xea;" horiz-adv-x="555" 
d="M494 575h-381v-360q0 -36 8.5 -71t28 -62.5t52.5 -44.5t81 -17q47 0 79 15t51.5 39.5t28.5 56.5t11 66q-3 3 -5 8t-2 8q0 11 8 19t19 8t19 -8t8 -19q0 -3 -1.5 -8t-4.5 -8q-3 -42 -14.5 -81t-35.5 -69t-63.5 -48.5t-97.5 -18.5q-60 0 -100.5 20.5t-65 53.5t-35 75
t-10.5 86v594q0 44 10.5 86t35 75t65 53.5t100.5 20.5t100 -20.5t65 -53.5t35.5 -75t10.5 -86v-234zM453 616v193q0 35 -8 70t-27.5 62.5t-52.5 45t-82 17.5q-48 0 -81 -17.5t-52.5 -45t-28 -62.5t-8.5 -70v-193h340zM520 1221q9 -2 17 -10t8 -17q0 -11 -8 -19t-19 -8t-19 8
t-8 19l-206 207l-207 -207q0 -11 -8 -19t-19 -8t-19 8t-8 19q0 9 7 17t18 10l209 209q0 9 8 16.5t19 7.5q9 0 16.5 -7.5t9.5 -16.5z" />
    <glyph glyph-name="edieresis" unicode="&#xeb;" horiz-adv-x="555" 
d="M494 575h-381v-360q0 -36 8.5 -71t28 -62.5t52.5 -44.5t81 -17q47 0 79 15t51.5 39.5t28.5 56.5t11 66q-3 3 -5 8t-2 8q0 11 8 19t19 8t19 -8t8 -19q0 -3 -1.5 -8t-4.5 -8q-3 -42 -14.5 -81t-35.5 -69t-63.5 -48.5t-97.5 -18.5q-60 0 -100.5 20.5t-65 53.5t-35 75
t-10.5 86v594q0 44 10.5 86t35 75t65 53.5t100.5 20.5t100 -20.5t65 -53.5t35.5 -75t10.5 -86v-234zM453 616v193q0 35 -8 70t-27.5 62.5t-52.5 45t-82 17.5q-48 0 -81 -17.5t-52.5 -45t-28 -62.5t-8.5 -70v-193h340zM191 1270q6 -6 6 -16q0 -11 -8 -19t-19 -8t-18.5 8
t-7.5 19q0 10 6 16v59q-6 10 -6 19q0 11 7.5 18.5t18.5 7.5t19 -7.5t8 -18.5q0 -9 -6 -19v-59zM422 1270q6 -6 6 -16q0 -11 -7.5 -19t-18.5 -8t-19 8t-8 19q0 10 6 16v59q-6 10 -6 19q0 11 8 18.5t19 7.5t18.5 -7.5t7.5 -18.5q0 -9 -6 -19v-59z" />
    <glyph glyph-name="igrave" unicode="&#xec;" horiz-adv-x="213" 
d="M128 23q6 -8 6 -17q0 -11 -7.5 -18.5t-18.5 -7.5t-19 7.5t-8 18.5q0 9 6 17v976q-6 10 -6 19q0 11 8 18.5t19 7.5t18.5 -7.5t7.5 -18.5q0 -9 -6 -19v-976zM109 1221q9 -2 17 -10t8 -17q0 -11 -8 -19t-19 -8t-19 8t-8 19l-206 207q-11 0 -19 7.5t-8 18.5t8 19t19 8
q9 0 16.5 -7.5t9.5 -16.5z" />
    <glyph glyph-name="iacute" unicode="&#xed;" horiz-adv-x="213" 
d="M129 23q6 -8 6 -17q0 -11 -7.5 -18.5t-18.5 -7.5t-19 7.5t-8 18.5q0 9 6 17v976q-6 10 -6 19q0 11 8 18.5t19 7.5t18.5 -7.5t7.5 -18.5q0 -9 -6 -19v-976zM137 1194q0 -11 -7.5 -19t-18.5 -8t-19 8t-8 19q0 9 6.5 17t17.5 10l209 209q0 9 8 16.5t19 7.5t19 -8t8 -19
t-8 -18.5t-19 -7.5z" />
    <glyph glyph-name="icircumflex" unicode="&#xee;" horiz-adv-x="213" 
d="M128 23q6 -8 6 -17q0 -11 -7.5 -18.5t-18.5 -7.5t-19 7.5t-8 18.5q0 9 6 17v976q-6 10 -6 19q0 11 8 18.5t19 7.5t18.5 -7.5t7.5 -18.5q0 -9 -6 -19v-976zM343 1221q9 -2 17 -10t8 -17q0 -11 -8 -19t-19 -8t-19 8t-8 19l-206 207l-207 -207q0 -11 -8 -19t-19 -8t-19 8
t-8 19q0 9 7 17t18 10l209 209q0 9 8 16.5t19 7.5q9 0 16.5 -7.5t9.5 -16.5z" />
    <glyph glyph-name="idieresis" unicode="&#xef;" horiz-adv-x="215" 
d="M127 23q6 -8 6 -17q0 -11 -7.5 -18.5t-18.5 -7.5t-19 7.5t-8 18.5q0 9 6 17v976q-6 10 -6 19q0 11 8 18.5t19 7.5t18.5 -7.5t7.5 -18.5q0 -9 -6 -19v-976zM13 1270q6 -6 6 -16q0 -11 -8 -19t-19 -8t-18.5 8t-7.5 19q0 10 6 16v59q-6 10 -6 19q0 11 7.5 18.5t18.5 7.5
t19 -7.5t8 -18.5q0 -9 -6 -19v-59zM244 1270q6 -6 6 -16q0 -11 -7.5 -19t-18.5 -8t-19 8t-8 19q0 10 6 16v59q-6 10 -6 19q0 11 8 18.5t19 7.5t18.5 -7.5t7.5 -18.5q0 -9 -6 -19v-59z" />
    <glyph glyph-name="eth" unicode="&#xf0;" horiz-adv-x="565" 
d="M494 215q0 -44 -10.5 -86t-35.5 -75t-65 -53.5t-100 -20.5t-100.5 20.5t-65 53.5t-35 75t-10.5 86v594q0 44 10.5 86t35 75t65 53.5t100.5 20.5q37 0 65 -8t51 -22l-61 188l-90 -31q-7 -10 -21 -10q-11 0 -18.5 8t-7.5 19t7.5 18.5t18.5 7.5q2 0 4.5 -1t6.5 -1l86 29
l-54 164q-12 6 -12 22q0 11 8 19t19 8t18.5 -8t7.5 -19q0 -8 -2 -12l53 -160l87 29q9 12 22 12q11 0 19 -7.5t8 -18.5t-8 -19t-19 -8q-8 0 -12 2l-84 -28l100 -297q19 -55 19 -111v-594zM113 215q0 -36 8.5 -71t28 -62.5t52.5 -44.5t81 -17q49 0 82 17t52.5 44.5t27.5 62.5
t8 71v594q0 35 -8 70t-27.5 62.5t-52.5 45t-82 17.5q-48 0 -81 -17.5t-52.5 -45t-28 -62.5t-8.5 -70v-594z" />
    <glyph glyph-name="ntilde" unicode="&#xf1;" horiz-adv-x="582" 
d="M504 23q6 -8 6 -17q0 -11 -8 -18.5t-19 -7.5t-18.5 7.5t-7.5 18.5q0 9 6 17v786q0 35 -8 70t-27.5 62.5t-52 45t-82.5 17.5q-43 0 -75 -17.5t-53 -45t-31.5 -62.5t-10.5 -70v-786q6 -8 6 -17q0 -11 -8 -18.5t-19 -7.5t-18.5 7.5t-7.5 18.5q0 9 6 17v976q-6 10 -6 19
q0 11 7.5 18.5t18.5 7.5t19 -7.5t8 -18.5q0 -9 -6 -19v-51q28 49 68 72.5t102 23.5q61 0 101.5 -20.5t65 -53.5t34.5 -75t10 -86v-786zM499 1339q0 -32 -9 -54t-24 -35.5t-35.5 -19t-42.5 -5.5q-25 0 -45 10t-36 24.5t-30 32t-28 32t-29 24.5t-34 10q-28 0 -49 -15t-21 -59
v-16q6 -6 6 -17t-7.5 -18.5t-18.5 -7.5t-19 7.5t-8 18.5q0 14 8 19v14q0 34 9.5 56t25.5 35t36 18.5t40 5.5q25 0 44.5 -10t35.5 -24.5t30 -32t28.5 -32t29.5 -24.5t34 -10q28 0 49 14.5t21 58.5v15q-6 9 -6 18q0 11 8 19t19 8t18.5 -8t7.5 -19q0 -7 -2.5 -11.5t-5.5 -8.5
v-13z" />
    <glyph glyph-name="ograve" unicode="&#xf2;" horiz-adv-x="565" 
d="M113 215q0 -36 8.5 -71t28 -62.5t52.5 -44.5t81 -17q49 0 82 17t52.5 44.5t27.5 62.5t8 71v594q0 35 -8 70t-27.5 62.5t-52.5 45t-82 17.5q-48 0 -81 -17.5t-52.5 -45t-28 -62.5t-8.5 -70v-594zM494 215q0 -44 -10.5 -86t-35.5 -75t-65 -53.5t-100 -20.5t-100.5 20.5
t-65 53.5t-35 75t-10.5 86v594q0 44 10.5 86t35 75t65 53.5t100.5 20.5t100 -20.5t65 -53.5t35.5 -75t10.5 -86v-594zM360 1221q9 -2 17 -10t8 -17q0 -11 -8 -19t-19 -8t-19 8t-8 19l-206 207q-11 0 -19 7.5t-8 18.5t8 19t19 8q9 0 16.5 -7.5t9.5 -16.5z" />
    <glyph glyph-name="oacute" unicode="&#xf3;" horiz-adv-x="565" 
d="M113 215q0 -36 8.5 -71t28 -62.5t52.5 -44.5t81 -17q49 0 82 17t52.5 44.5t27.5 62.5t8 71v594q0 35 -8 70t-27.5 62.5t-52.5 45t-82 17.5q-48 0 -81 -17.5t-52.5 -45t-28 -62.5t-8.5 -70v-594zM494 215q0 -44 -10.5 -86t-35.5 -75t-65 -53.5t-100 -20.5t-100.5 20.5
t-65 53.5t-35 75t-10.5 86v594q0 44 10.5 86t35 75t65 53.5t100.5 20.5t100 -20.5t65 -53.5t35.5 -75t10.5 -86v-594zM274 1194q0 -11 -7.5 -19t-18.5 -8t-19 8t-8 19q0 9 6.5 17t17.5 10l209 209q0 9 8 16.5t19 7.5t19 -8t8 -19t-8 -18.5t-19 -7.5z" />
    <glyph glyph-name="ocircumflex" unicode="&#xf4;" horiz-adv-x="565" 
d="M113 215q0 -36 8.5 -71t28 -62.5t52.5 -44.5t81 -17q49 0 82 17t52.5 44.5t27.5 62.5t8 71v594q0 35 -8 70t-27.5 62.5t-52.5 45t-82 17.5q-48 0 -81 -17.5t-52.5 -45t-28 -62.5t-8.5 -70v-594zM494 215q0 -44 -10.5 -86t-35.5 -75t-65 -53.5t-100 -20.5t-100.5 20.5
t-65 53.5t-35 75t-10.5 86v594q0 44 10.5 86t35 75t65 53.5t100.5 20.5t100 -20.5t65 -53.5t35.5 -75t10.5 -86v-594zM515 1221q9 -2 17 -10t8 -17q0 -11 -8 -19t-19 -8t-19 8t-8 19l-206 207l-207 -207q0 -11 -8 -19t-19 -8t-19 8t-8 19q0 9 7 17t18 10l209 209q0 9 8 16.5
t19 7.5q9 0 16.5 -7.5t9.5 -16.5z" />
    <glyph glyph-name="otilde" unicode="&#xf5;" horiz-adv-x="565" 
d="M113 215q0 -36 8.5 -71t28 -62.5t52.5 -44.5t81 -17q49 0 82 17t52.5 44.5t27.5 62.5t8 71v594q0 35 -8 70t-27.5 62.5t-52.5 45t-82 17.5q-48 0 -81 -17.5t-52.5 -45t-28 -62.5t-8.5 -70v-594zM494 215q0 -44 -10.5 -86t-35.5 -75t-65 -53.5t-100 -20.5t-100.5 20.5
t-65 53.5t-35 75t-10.5 86v594q0 44 10.5 86t35 75t65 53.5t100.5 20.5t100 -20.5t65 -53.5t35.5 -75t10.5 -86v-594zM494 1339q0 -32 -9 -54t-24 -35.5t-35.5 -19t-42.5 -5.5q-25 0 -45 10t-36 24.5t-30 32t-28 32t-29 24.5t-34 10q-28 0 -49 -15t-21 -59v-16q6 -6 6 -17
t-7.5 -18.5t-18.5 -7.5t-19 7.5t-8 18.5q0 14 8 19v14q0 34 9.5 56t25.5 35t36 18.5t40 5.5q25 0 44.5 -10t35.5 -24.5t30 -32t28.5 -32t29.5 -24.5t34 -10q28 0 49 14.5t21 58.5v15q-6 9 -6 18q0 11 8 19t19 8t18.5 -8t7.5 -19q0 -7 -2.5 -11.5t-5.5 -8.5v-13z" />
    <glyph glyph-name="odieresis" unicode="&#xf6;" horiz-adv-x="565" 
d="M113 215q0 -36 8.5 -71t28 -62.5t52.5 -44.5t81 -17q49 0 82 17t52.5 44.5t27.5 62.5t8 71v594q0 35 -8 70t-27.5 62.5t-52.5 45t-82 17.5q-48 0 -81 -17.5t-52.5 -45t-28 -62.5t-8.5 -70v-594zM494 215q0 -44 -10.5 -86t-35.5 -75t-65 -53.5t-100 -20.5t-100.5 20.5
t-65 53.5t-35 75t-10.5 86v594q0 44 10.5 86t35 75t65 53.5t100.5 20.5t100 -20.5t65 -53.5t35.5 -75t10.5 -86v-594zM189 1270q6 -6 6 -16q0 -11 -8 -19t-19 -8t-18.5 8t-7.5 19q0 10 6 16v59q-6 10 -6 19q0 11 7.5 18.5t18.5 7.5t19 -7.5t8 -18.5q0 -9 -6 -19v-59z
M420 1270q6 -6 6 -16q0 -11 -7.5 -19t-18.5 -8t-19 8t-8 19q0 10 6 16v59q-6 10 -6 19q0 11 8 18.5t19 7.5t18.5 -7.5t7.5 -18.5q0 -9 -6 -19v-59z" />
    <glyph glyph-name="divide" unicode="&#xf7;" horiz-adv-x="723" 
d="M395 280q-12 -13 -35 -13q-22 0 -33.5 13t-11.5 32q0 20 11.5 33.5t33.5 13.5q23 0 35 -13.5t12 -33.5q0 -19 -12 -32zM395 753q-12 -13 -35 -13q-22 0 -33.5 13t-11.5 32q0 20 11.5 33.5t33.5 13.5q23 0 35 -13.5t12 -33.5q0 -19 -12 -32zM609 572q8 7 18 7q11 0 19 -8
t8 -19t-8 -19t-19 -8q-9 0 -18 6h-498q-6 -6 -16 -6q-11 0 -19 8t-8 19t8 19t19 8q10 0 16 -7h498z" />
    <glyph glyph-name="oslash" unicode="&#xf8;" horiz-adv-x="596" 
d="M509 215q0 -44 -10.5 -86t-35.5 -75t-65 -53.5t-100 -20.5t-100.5 20.5t-65.5 53.5q-22 30 -33 68l-91 -161q2 -2 2 -8q0 -11 -7.5 -19t-18.5 -8t-19 8t-8 19q0 9 5 16t13 11l113 201q-1 17 -1 34v594q0 44 10.5 86t35 75t65 53.5t100.5 20.5t100 -20.5t65 -53.5
q21 -29 32 -64l89 157v8q0 11 7.5 19t18.5 8t19 -8t8 -19q0 -9 -5.5 -16t-13.5 -11l-111 -197q2 -19 2 -38v-594zM136 144q9 -35 28.5 -62.5t52.5 -44.5t81 -17q49 0 82 17t52.5 44.5t27.5 62.5t8 71v562l-338 -600q2 -17 6 -33zM460 879q-8 35 -27.5 62.5t-52.5 45
t-82 17.5q-48 0 -81 -17.5t-52.5 -45t-28 -62.5t-8.5 -70v-557l337 599q-2 14 -5 28z" />
    <glyph glyph-name="ugrave" unicode="&#xf9;" horiz-adv-x="582" 
d="M500 23q6 -8 6 -17q0 -11 -8 -18.5t-19 -7.5t-18.5 7.5t-7.5 18.5q0 9 6 17v53q-28 -49 -68 -72.5t-102 -23.5q-61 0 -101.5 20.5t-65 53.5t-34.5 75t-10 86v784q-6 10 -6 19q0 11 7.5 18.5t18.5 7.5t19 -7.5t8 -18.5q0 -9 -6 -19v-784q0 -35 8 -70t27.5 -63t52 -45
t82.5 -17q45 0 77.5 15.5t53 41.5t30 59.5t9.5 68.5v794q-6 10 -6 19q0 11 7.5 18.5t18.5 7.5t19 -7.5t8 -18.5q0 -9 -6 -19v-976zM350 1221q9 -2 17 -10t8 -17q0 -11 -8 -19t-19 -8t-19 8t-8 19l-206 207q-11 0 -19 7.5t-8 18.5t8 19t19 8q9 0 16.5 -7.5t9.5 -16.5z" />
    <glyph glyph-name="uacute" unicode="&#xfa;" horiz-adv-x="582" 
d="M500 23q6 -8 6 -17q0 -11 -8 -18.5t-19 -7.5t-18.5 7.5t-7.5 18.5q0 9 6 17v53q-28 -49 -68 -72.5t-102 -23.5q-61 0 -101.5 20.5t-65 53.5t-34.5 75t-10 86v784q-6 10 -6 19q0 11 7.5 18.5t18.5 7.5t19 -7.5t8 -18.5q0 -9 -6 -19v-784q0 -35 8 -70t27.5 -63t52 -45
t82.5 -17q45 0 77.5 15.5t53 41.5t30 59.5t9.5 68.5v794q-6 10 -6 19q0 11 7.5 18.5t18.5 7.5t19 -7.5t8 -18.5q0 -9 -6 -19v-976zM285 1194q0 -11 -7.5 -19t-18.5 -8t-19 8t-8 19q0 9 6.5 17t17.5 10l209 209q0 9 8 16.5t19 7.5t19 -8t8 -19t-8 -18.5t-19 -7.5z" />
    <glyph glyph-name="ucircumflex" unicode="&#xfb;" horiz-adv-x="582" 
d="M500 23q6 -8 6 -17q0 -11 -8 -18.5t-19 -7.5t-18.5 7.5t-7.5 18.5q0 9 6 17v53q-28 -49 -68 -72.5t-102 -23.5q-61 0 -101.5 20.5t-65 53.5t-34.5 75t-10 86v784q-6 10 -6 19q0 11 7.5 18.5t18.5 7.5t19 -7.5t8 -18.5q0 -9 -6 -19v-784q0 -35 8 -70t27.5 -63t52 -45
t82.5 -17q45 0 77.5 15.5t53 41.5t30 59.5t9.5 68.5v794q-6 10 -6 19q0 11 7.5 18.5t18.5 7.5t19 -7.5t8 -18.5q0 -9 -6 -19v-976zM526 1221q9 -2 17 -10t8 -17q0 -11 -8 -19t-19 -8t-19 8t-8 19l-206 207l-207 -207q0 -11 -8 -19t-19 -8t-19 8t-8 19q0 9 7 17t18 10
l209 209q0 9 8 16.5t19 7.5q9 0 16.5 -7.5t9.5 -16.5z" />
    <glyph glyph-name="udieresis" unicode="&#xfc;" horiz-adv-x="582" 
d="M500 23q6 -8 6 -17q0 -11 -8 -18.5t-19 -7.5t-18.5 7.5t-7.5 18.5q0 9 6 17v53q-28 -49 -68 -72.5t-102 -23.5q-61 0 -101.5 20.5t-65 53.5t-34.5 75t-10 86v784q-6 10 -6 19q0 11 7.5 18.5t18.5 7.5t19 -7.5t8 -18.5q0 -9 -6 -19v-784q0 -35 8 -70t27.5 -63t52 -45
t82.5 -17q45 0 77.5 15.5t53 41.5t30 59.5t9.5 68.5v794q-6 10 -6 19q0 11 7.5 18.5t18.5 7.5t19 -7.5t8 -18.5q0 -9 -6 -19v-976zM193 1270q6 -6 6 -16q0 -11 -8 -19t-19 -8t-18.5 8t-7.5 19q0 10 6 16v59q-6 10 -6 19q0 11 7.5 18.5t18.5 7.5t19 -7.5t8 -18.5q0 -9 -6 -19
v-59zM424 1270q6 -6 6 -16q0 -11 -7.5 -19t-18.5 -8t-19 8t-8 19q0 10 6 16v59q-6 10 -6 19q0 11 8 18.5t19 7.5t18.5 -7.5t7.5 -18.5q0 -9 -6 -19v-59z" />
    <glyph glyph-name="yacute" unicode="&#xfd;" horiz-adv-x="516" 
d="M238 -188q-9 -41 -20.5 -81t-32.5 -73t-54 -54.5t-86 -25.5q-5 -3 -9 -5.5t-9 -2.5q-11 0 -19 8t-8 19t8 18.5t19 7.5q8 0 16 -4q43 3 69.5 21t42.5 45.5t25 60.5t17 66l41 196l-213 989q-5 3 -7 9t-2 12q0 11 8 18.5t19 7.5t19 -7.5t8 -18.5q0 -6 -4 -14l194 -898
l193 898q-2 3 -2 7v7q0 11 7.5 18.5t18.5 7.5t19 -7.5t8 -18.5q0 -14 -10 -21l-213 -985zM229 1194q0 -11 -7.5 -19t-18.5 -8t-19 8t-8 19q0 9 6.5 17t17.5 10l209 209q0 9 8 16.5t19 7.5t19 -8t8 -19t-8 -18.5t-19 -7.5z" />
    <glyph glyph-name="thorn" unicode="&#xfe;" horiz-adv-x="573" 
d="M123 -385q6 -9 6 -18q0 -11 -8 -19t-19 -8t-18.5 8t-7.5 19q0 9 6 18v1794q-6 9 -6 18q0 11 7.5 19t18.5 8t19 -8t8 -19q0 -9 -6 -18v-451q28 39 68 62.5t102 23.5q61 0 101.5 -20.5t65 -53.5t34.5 -75t10 -86v-594q0 -44 -10 -86t-34.5 -75t-65 -53.5t-101.5 -20.5
q-62 0 -102 23.5t-68 62.5v-451zM123 215q0 -34 8.5 -68.5t28.5 -62.5t52.5 -46t80.5 -18q50 0 82.5 17t52 45t27.5 63t8 70v594q0 35 -8 70t-27.5 62.5t-52 45t-82.5 17.5q-43 0 -75 -17.5t-53 -45t-31.5 -62.5t-10.5 -70v-594z" />
    <glyph glyph-name="ydieresis" unicode="&#xff;" horiz-adv-x="516" 
d="M238 -188q-9 -41 -20.5 -81t-32.5 -73t-54 -54.5t-86 -25.5q-5 -3 -9 -5.5t-9 -2.5q-11 0 -19 8t-8 19t8 18.5t19 7.5q8 0 16 -4q43 3 69.5 21t42.5 45.5t25 60.5t17 66l41 196l-213 989q-5 3 -7 9t-2 12q0 11 8 18.5t19 7.5t19 -7.5t8 -18.5q0 -6 -4 -14l194 -898
l193 898q-2 3 -2 7v7q0 11 7.5 18.5t18.5 7.5t19 -7.5t8 -18.5q0 -14 -10 -21l-213 -985zM168 1270q6 -6 6 -16q0 -11 -8 -19t-19 -8t-18.5 8t-7.5 19q0 10 6 16v59q-6 10 -6 19q0 11 7.5 18.5t18.5 7.5t19 -7.5t8 -18.5q0 -9 -6 -19v-59zM399 1270q6 -6 6 -16
q0 -11 -7.5 -19t-18.5 -8t-19 8t-8 19q0 10 6 16v59q-6 10 -6 19q0 11 8 18.5t19 7.5t18.5 -7.5t7.5 -18.5q0 -9 -6 -19v-59z" />
    <glyph glyph-name="dotlessi" unicode="&#x131;" horiz-adv-x="215" 
d="M129 23q6 -8 6 -17q0 -11 -7.5 -18.5t-18.5 -7.5t-19 7.5t-8 18.5q0 9 6 17v976q-6 10 -6 19q0 11 8 18.5t19 7.5t18.5 -7.5t7.5 -18.5q0 -9 -6 -19v-976z" />
    <glyph glyph-name="OE" unicode="&#x152;" horiz-adv-x="928" 
d="M848 41q9 6 18 6q11 0 19 -8t8 -19t-8 -18.5t-19 -7.5q-9 0 -18 6h-377v63l-10 -14q-25 -31 -66 -50t-100 -19q-61 0 -102 19t-65.5 50.5t-35 72.5t-10.5 85v1014q0 43 10.5 85t35 75t65.5 53t102 20q59 0 100 -20t66 -53q20 -27 29 -59q8 21 22 39q25 33 66.5 53
t103.5 20h166q9 6 18 6q11 0 19 -8t8 -19t-8 -19t-19 -8q-8 0 -18 7h-166q-51 0 -84.5 -16.5t-53.5 -43.5t-28 -61.5t-8 -69.5v-178h281q9 6 18 6q11 0 19 -7.5t8 -18.5t-8 -19t-19 -8q-9 0 -18 6h-281v-942h340zM123 207q0 -36 8.5 -69.5t28.5 -60t53 -42t82 -15.5t82 15.5
t53 42t28.5 60t8.5 69.5v1014q0 35 -8.5 69.5t-28.5 61.5t-53 44t-82 17t-82 -17t-53 -44t-28.5 -61.5t-8.5 -69.5v-1014z" />
    <glyph glyph-name="oe" unicode="&#x153;" horiz-adv-x="936" 
d="M875 575h-381v-360q0 -36 8.5 -71t28 -62.5t52.5 -44.5t81 -17q47 0 79 15t51.5 39.5t28.5 56.5t11 66q-3 3 -5 8t-2 8q0 11 8 19t19 8t19 -8t8 -19q0 -3 -1.5 -8t-4.5 -8q-3 -42 -14.5 -81t-35.5 -69t-63.5 -48.5t-97.5 -18.5q-60 0 -100.5 20.5t-65.5 53.5
q-15 20 -25 44q-10 -24 -25 -44q-25 -33 -65 -53.5t-100 -20.5t-100.5 20.5t-65 53.5t-35 75t-10.5 86v594q0 44 10.5 86t35 75t65 53.5t100.5 20.5t100 -20.5t65 -53.5q15 -21 25 -44q10 23 25 44q25 33 65.5 53.5t100.5 20.5t100 -20.5t65 -53.5t35.5 -75t10.5 -86v-234z
M113 215q0 -36 8.5 -71t28 -62.5t52.5 -44.5t81 -17q49 0 82 17t52.5 44.5t27.5 62.5t8 71v594q0 35 -8 70t-27.5 62.5t-52.5 45t-82 17.5q-48 0 -81 -17.5t-52.5 -45t-28 -62.5t-8.5 -70v-594zM834 616v193q0 35 -8 70t-27.5 62.5t-52.5 45t-82 17.5q-48 0 -81 -17.5
t-52.5 -45t-28 -62.5t-8.5 -70v-193h340z" />
    <glyph glyph-name="circumflex" unicode="&#x2c6;" horiz-adv-x="643" 
d="M557 1221q9 -2 17 -10t8 -17q0 -11 -8 -19t-19 -8t-19 8t-8 19l-206 207l-207 -207q0 -11 -8 -19t-19 -8t-19 8t-8 19q0 9 7 17t18 10l209 209q0 9 8 16.5t19 7.5q9 0 16.5 -7.5t9.5 -16.5z" />
    <glyph glyph-name="caron" unicode="&#x2c7;" horiz-adv-x="684" 
d="M369 1192q-2 -11 -10 -18t-17 -7q-11 0 -19 7t-8 18l-209 209q-11 0 -17.5 7.5t-6.5 18.5t8 19t19 8t18.5 -8t7.5 -19l207 -206l207 206q0 11 7.5 19t18.5 8t19 -8t8 -19t-7.5 -18.5t-16.5 -7.5z" />
    <glyph glyph-name="breve" unicode="&#x2d8;" 
d="M516 1427q0 -10 -8 -18q-2 -41 -14.5 -79t-37 -67.5t-63.5 -47t-94 -17.5q-56 0 -95 17.5t-63.5 47t-37 67.5t-15.5 79q-6 6 -6 18q0 11 8 19t19 8t18.5 -8t7.5 -19q0 -10 -6 -16q2 -33 12 -64t30.5 -55t51.5 -38.5t76 -14.5t76.5 14.5t51 38.5t29 55t11.5 64q-4 8 -4 16
q0 11 7.5 19t18.5 8t19 -8t8 -19z" />
    <glyph glyph-name="dotaccent" unicode="&#x2d9;" horiz-adv-x="279" 
d="M174 1279q-12 -13 -35 -13q-21 0 -33 13t-12 32q0 20 12 33.5t33 13.5q23 0 35 -13.5t12 -33.5q0 -19 -12 -32z" />
    <glyph glyph-name="ring" unicode="&#x2da;" horiz-adv-x="446" 
d="M96 1317q0 24 6.5 48.5t21.5 44t39.5 32t59.5 12.5q37 0 61.5 -12.5t39 -32t20.5 -44t6 -58.5q0 -26 -6 -51.5t-20.5 -45t-39 -31.5t-61.5 -12q-35 0 -59.5 12t-39.5 31.5t-21.5 45t-6.5 51.5v10zM264 1217q17 9 27 23t14 31.5t4 35.5q0 26 -4 43t-14 31t-26.5 23
t-41.5 9t-41.5 -9t-26.5 -23t-14 -31t-4 -43q0 -18 4 -35.5t14 -31.5t26.5 -23t41.5 -9t41 9z" />
    <glyph glyph-name="ogonek" unicode="&#x2db;" horiz-adv-x="446" 
d="M334 -348q-29 -19 -53.5 -29t-55.5 -10q-28 0 -54 10t-45.5 29t-31.5 47t-12 63q0 64 27 109t71 86l51 47l27 -31l-51 -47q-19 -18 -34 -35t-25 -35t-15.5 -39t-5.5 -48q0 -47 26.5 -79t71.5 -32q25 0 44 7.5t42 21.5q3 8 10.5 13t16.5 5q11 0 19 -8t8 -19t-8 -18.5
t-19 -7.5h-4z" />
    <glyph glyph-name="tilde" unicode="&#x2dc;" horiz-adv-x="602" 
d="M512 1339q0 -32 -9 -54t-24 -35.5t-35.5 -19t-42.5 -5.5q-25 0 -45 10t-36 24.5t-30 32t-28 32t-29 24.5t-34 10q-28 0 -49 -15t-21 -59v-16q6 -6 6 -17t-7.5 -18.5t-18.5 -7.5t-19 7.5t-8 18.5q0 14 8 19v14q0 34 9.5 56t25.5 35t36 18.5t40 5.5q25 0 44.5 -10
t35.5 -24.5t30 -32t28.5 -32t29.5 -24.5t34 -10q28 0 49 14.5t21 58.5v15q-6 9 -6 18q0 11 8 19t19 8t18.5 -8t7.5 -19q0 -7 -2.5 -11.5t-5.5 -8.5v-13z" />
    <glyph glyph-name="hungarumlaut" unicode="&#x2dd;" horiz-adv-x="676" 
d="M135 1194q0 -11 -7.5 -19t-18.5 -8t-19 8t-8 19q0 9 6.5 17t17.5 10l209 209q0 9 8 16.5t19 7.5t19 -8t8 -19t-8 -18.5t-19 -7.5zM360 1194q0 -11 -7.5 -19t-18.5 -8t-19 8t-8 19q0 9 7 17t18 10l209 209q0 9 7.5 16.5t18.5 7.5t19 -8t8 -19t-8 -18.5t-19 -7.5z" />
    <glyph glyph-name="endash" unicode="&#x2013;" horiz-adv-x="678" 
d="M586 616q8 7 18 7q11 0 19 -8t8 -19t-8 -19t-19 -8q-9 0 -18 6h-498q-6 -6 -16 -6q-11 0 -19 8t-8 19t8 19t19 8q10 0 16 -7h498z" />
    <glyph glyph-name="emdash" unicode="&#x2014;" horiz-adv-x="844" 
d="M752 616q8 7 18 7q11 0 19 -8t8 -19t-8 -19t-19 -8q-9 0 -18 6h-664q-6 -6 -16 -6q-11 0 -19 8t-8 19t8 19t19 8q10 0 16 -7h664z" />
    <glyph glyph-name="quoteleft" unicode="&#x2018;" horiz-adv-x="223" 
d="M158.008 1257q0 -11 7.49902 -19t18.498 -8t18.9971 8q8 8 8 19q0 20 -18.998 27l-54.9932 98q5.99902 9 5.99902 25q0 20 -11.499 33.5q-11.498 13.5 -33.4951 13.5q-22.998 0 -34.9961 -13.5t-11.998 -33.5q0 -19 11.998 -32t34.9961 -13h3.99902l55.9932 -101v-4z" />
    <glyph glyph-name="quoteright" unicode="&#x2019;" horiz-adv-x="223" 
d="M65 1257q0 -11 -7.5 -19t-18.5 -8t-19 8t-8 19q0 20 19 27l55 98q-6 9 -6 25q0 20 11.5 33.5t33.5 13.5q23 0 35 -13.5t12 -33.5q0 -19 -12 -32t-35 -13h-4l-56 -101v-4z" />
    <glyph glyph-name="quotesinglbase" unicode="&#x201a;" horiz-adv-x="223" 
d="M65 -125q0 -11 -7.5 -19t-18.5 -8t-19 8t-8 19q0 20 19 27l55 98q-6 9 -6 25q0 20 11.5 33.5t33.5 13.5q23 0 35 -13.5t12 -33.5q0 -19 -12 -32t-35 -13h-4l-56 -101v-4z" />
    <glyph glyph-name="quotedblleft" unicode="&#x201c;" horiz-adv-x="412" 
d="M158.008 1257q0 -11 7.49902 -19t18.498 -8t18.9971 8q8 8 8 19q0 20 -18.998 27l-54.9932 98q5.99902 9 5.99902 25q0 20 -11.499 33.5q-11.498 13.5 -33.4951 13.5q-22.998 0 -34.9961 -13.5t-11.998 -33.5q0 -19 11.998 -32t34.9961 -13h3.99902l55.9932 -101v-4z
M344.008 1257q0 -11 7.49902 -19t18.498 -8t18.9971 8q8 8 8 19q0 20 -18.998 27l-54.9932 98q5.99902 9 5.99902 25q0 20 -11.499 33.5q-11.498 13.5 -33.4951 13.5q-22.998 0 -34.9961 -13.5t-11.998 -33.5q0 -19 11.998 -32t34.9961 -13h3.99902l55.9932 -101v-4z" />
    <glyph glyph-name="quotedblright" unicode="&#x201d;" horiz-adv-x="412" 
d="M65 1257q0 -11 -7.5 -19t-18.5 -8t-19 8t-8 19q0 20 19 27l55 98q-6 9 -6 25q0 20 11.5 33.5t33.5 13.5q23 0 35 -13.5t12 -33.5q0 -19 -12 -32t-35 -13h-4l-56 -101v-4zM251 1257q0 -11 -7.5 -19t-18.5 -8t-19 8t-8 19q0 20 19 27l55 98q-6 9 -6 25q0 20 11.5 33.5
t33.5 13.5q23 0 35 -13.5t12 -33.5q0 -19 -12 -32t-35 -13h-4l-56 -101v-4z" />
    <glyph glyph-name="quotedblbase" unicode="&#x201e;" horiz-adv-x="412" 
d="M65 -125q0 -11 -7.5 -19t-18.5 -8t-19 8t-8 19q0 20 19 27l55 98q-6 9 -6 25q0 20 11.5 33.5t33.5 13.5q23 0 35 -13.5t12 -33.5q0 -19 -12 -32t-35 -13h-4l-56 -101v-4zM251 -125q0 -11 -7.5 -19t-18.5 -8t-19 8t-8 19q0 20 19 27l55 98q-6 9 -6 25q0 20 11.5 33.5
t33.5 13.5q23 0 35 -13.5t12 -33.5q0 -19 -12 -32t-35 -13h-4l-56 -101v-4z" />
    <glyph glyph-name="bullet" unicode="&#x2022;" horiz-adv-x="238" 
d="M152 808q-12 -13 -35 -13q-22 0 -33.5 13t-11.5 32q0 20 11.5 33.5t33.5 13.5q23 0 35 -13.5t12 -33.5q0 -19 -12 -32z" />
    <glyph glyph-name="guilsinglleft" unicode="&#x2039;" horiz-adv-x="545" 
d="M438 166q10 -2 17.5 -9.5t7.5 -17.5q0 -11 -8 -18.5t-19 -7.5t-18.5 7.5t-7.5 18.5l-338 336q-11 0 -19 8t-8 19q0 9 7 16.5t18 9.5l340 338q0 10 7.5 17.5t18.5 7.5t19 -8t8 -19t-8 -18.5t-19 -7.5l-338 -336z" />
    <glyph glyph-name="guilsinglright" unicode="&#x203a;" horiz-adv-x="547" 
d="M107.054 166q-9.99902 -2 -17.498 -9.5t-7.49902 -17.5q0 -11 7.99902 -18.5t18.9971 -7.5q10.999 0 18.498 7.5t7.49902 18.5l337.959 336q10.999 0 18.998 8t7.99902 19q0 9 -7 16.5q-6.99902 7.5 -17.9971 9.5l-339.959 338q0 10 -7.49902 17.5t-18.498 7.5
q-10.998 0 -18.9971 -8t-7.99902 -19t7.99902 -18.5t18.9971 -7.5l337.959 -336z" />
    <glyph glyph-name="fraction" unicode="&#x2044;" horiz-adv-x="473" 
d="M47 18q4 -8 4 -12q0 -11 -7.5 -18.5t-18.5 -7.5t-19 7.5t-8 18.5q0 14 12 23l365 1386q-2 4 -2 12q0 11 7.5 19t18.5 8t19 -8t8 -19q0 -8 -4 -14.5t-12 -9.5z" />
    <glyph glyph-name="foursuperior" unicode="&#x2074;" horiz-adv-x="342" 
d="M238 844q6 -6 6 -17t-8 -18.5t-19 -7.5t-19 7.5t-8 18.5q0 10 7 17v348h-172v41l165 192v2q0 11 8 19t19 8t19 -8t8 -19q0 -9 -6 -18v-176h16q9 6 18 6q11 0 19 -8t8 -19t-8 -18.5t-19 -7.5q-9 0 -18 6h-16v-348zM197 1233v141l-123 -141h123z" />
    <glyph glyph-name="Euro" unicode="&#x20ac;" horiz-adv-x="702" 
d="M500 840q9 6 18 6q11 0 19 -8t8 -19t-8 -18.5t-19 -7.5q-9 0 -18 6h-262v-592q0 -36 8.5 -69.5t28.5 -60t53 -42t82 -15.5q46 0 78 13.5t52.5 36.5t30 53.5t11.5 64.5q-3 4 -4.5 9t-1.5 10q0 11 7.5 18.5t18.5 7.5t19 -7.5t8 -18.5q0 -5 -1.5 -10t-4.5 -9
q-2 -41 -14.5 -79t-37.5 -66.5t-64.5 -45.5t-96.5 -17q-61 0 -102 19t-65.5 50.5t-35 72.5t-10.5 85v592h-97q-6 -6 -16 -6q-11 0 -19 7.5t-8 18.5t8 19t19 8q10 0 16 -6h97v143h-97q-6 -6 -16 -6q-11 0 -19 8t-8 19t8 18.5t19 7.5q10 0 16 -6h97v197q0 43 10.5 85t35 75
t65.5 53t102 20q57 0 96.5 -18t64.5 -48t37.5 -68.5t14.5 -80.5q3 -3 4.5 -8t1.5 -10q0 -11 -8 -19t-19 -8t-18.5 8t-7.5 19q0 10 6 16q-2 33 -11.5 64.5t-30 56.5t-52.5 40t-78 15q-49 0 -82 -17t-53 -44t-28.5 -61.5t-8.5 -69.5v-197h262q9 6 18 6q11 0 19 -7.5t8 -18.5
t-8 -19t-19 -8q-9 0 -18 6h-262v-143h262z" />
    <glyph glyph-name="minus" unicode="&#x2212;" horiz-adv-x="643" 
d="M535 571q8 7 19 7t18.5 -8t7.5 -19t-7.5 -19t-18.5 -8q-10 0 -19 6h-426q-6 -6 -16 -6q-11 0 -19 8t-8 19t8 19t19 8q10 0 16 -7h426z" />
    <glyph glyph-name="uni2215" unicode="&#x2215;" horiz-adv-x="473" 
d="M48 -182q4 -8 4 -13q0 -11 -7.5 -18.5t-18.5 -7.5t-19 7.5t-8 18.5q0 18 14 25l414 1585q-2 4 -2 12q0 11 8 19t19 8t18.5 -8t7.5 -19q0 -8 -4 -14.5t-12 -9.5z" />
    <glyph glyph-name="uniE0FF" unicode="&#xe0ff;" horiz-adv-x="762" 
 />
    <glyph glyph-name="uniEFFD" unicode="&#xeffd;" horiz-adv-x="600" 
d="M512 233q0 -44 -10.5 -85.5t-35 -74.5t-66 -53t-103.5 -20h-211v791q0 43 10 85t35 75t66.5 53t103.5 20h211v-791zM297 41q51 0 84.5 17t53.5 44t28 61.5t8 69.5v750h-170q-51 0 -84.5 -17t-53.5 -44t-28 -61.5t-8 -69.5v-750h170z" />
    <glyph glyph-name="uniF000" unicode="&#xf000;" horiz-adv-x="461" 
 />
    <glyph glyph-name="noBreak" horiz-adv-x="537" 
 />
    <glyph glyph-name="ampersand.alt" horiz-adv-x="662" 
d="M610 31q8 -3 12.5 -10t4.5 -15q0 -11 -8 -18.5t-19 -7.5t-19 7.5t-8 18.5q0 8 2 10l-73 162q-3 -40 -16 -76t-38 -63t-64 -43t-93 -16q-61 0 -102 19t-65.5 50.5t-35 72.5t-10.5 85v604q0 46 12 91t43 79q-17 37 -28 65.5t-17.5 54t-9 51t-2.5 56.5q0 42 10.5 83t35 72.5
t65.5 51t102 19.5h153q10 6 19 6q11 0 18.5 -8t7.5 -19t-7.5 -19t-18.5 -8q-7 0 -19 7h-153q-48 0 -81 -16.5t-53.5 -42.5t-29 -59t-8.5 -67q0 -24 2 -46t8 -47t17.5 -55.5t29.5 -70.5l289 -635v670h135q6 6 16 6q11 0 19 -7.5t8 -16.5q0 -11 -8 -19t-19 -8q-5 0 -10 1.5
t-8 4.5h-92v-721zM463 264l-311 674q-19 -26 -26 -59.5t-7 -67.5v-604q0 -36 8.5 -69.5t28.5 -60t53 -42t82 -15.5t82 15.5t53 42t28.5 60t8.5 69.5v57z" />
    <glyph glyph-name="nonmarkingreturn" horiz-adv-x="537" 
 />
    <glyph glyph-name="foundryicon" horiz-adv-x="2163" 
d="M2062 514h-32q2 -4 2 -10q0 -29 -22.5 -50.5t-70.5 -21.5q-18 0 -24 2v-31h37q80 0 80 -73q0 -17 -4.5 -28t-8.5 -19h-55v59h-94q-10 8 -15.5 20.5t-5.5 24.5q0 37 29 62q-29 16 -29 57q0 33 23.5 54.5t64.5 21.5q37 0 64 -21q16 21 39 21q8 0 12 -1t10 -3v-64zM502 358
q-13 -45 -36.5 -60t-51.5 -15q-39 0 -54 14v53h35q33 0 43 23h-28l-50 141h-20v64h78l28 -101l11 -49l22 86h-18v64h88v-64zM324 383q-37 -16 -84 -16q-64 0 -100 35.5t-36 99.5q0 65 35 105t105 40q18 0 38.5 -4t41.5 -10v-82h-64v31q-6 2 -18 2q-29 0 -44.5 -20.5
t-15.5 -53.5q0 -76 76 -76h66v-51zM1532 367q-100 0 -100 106q0 51 27.5 80t74.5 29t74.5 -28t27.5 -79t-27.5 -79.5t-76.5 -28.5zM991 567q19 6 36 10.5t38 4.5q94 0 94 -78v-70h23v-55q-17 -10 -41 -10q-33 0 -45 14q-19 -16 -52 -16q-28 0 -48.5 16t-20.5 47
q0 29 18.5 45.5t61.5 16.5h32v2q0 8 -9 14t-36 6h-51v53zM944 434v-53q-16 -8 -36.5 -11t-39.5 -3q-53 0 -80.5 27.5t-27.5 76.5t24.5 80t75.5 31q41 0 65.5 -25t24.5 -61q0 -9 -1 -18t-3 -19h-112q8 -25 51 -25h59zM1661 514v64h70l20 -33q4 10 9 15t12 11q14 11 30 11
q13 0 25 -4v-64h-70v-80h35v-61h-127v61h18v80h-22zM578 514v64h69l21 -33q4 10 9 15l11 11q14 11 31 11q12 0 24 -4v-64h-69v-80h35v-61h-127v61h20v80h-24zM1206 584h-24v63h96v-213h29v-57q-19 -8 -45 -8q-56 0 -56 57v158zM1333 408q0 16 10.5 28.5t30.5 12.5
q23 0 34 -12.5t11 -28.5q0 -17 -11 -28t-34 -11q-20 0 -30.5 11t-10.5 28zM1534 422q29 0 29 53q0 49 -29 49t-29 -49q0 -53 29 -53zM1917 506q0 -31 25 -31q20 0 20 31t-20 31q-25 0 -25 -31zM1065 418q14 0 22 6v31h-16q-27 0 -27 -19q0 -18 21 -18zM858 528
q-20 0 -27 -32h52q0 32 -25 32z" />
    </font>
</defs>
</svg>
