<?xml version="1.0" standalone="no"?>
<!DOCTYPE svg PUBLIC "-//W3C//DTD SVG 1.1//EN" "http://www.w3.org/Graphics/SVG/1.1/DTD/svg11.dtd" >
<svg xmlns="http://www.w3.org/2000/svg" xmlns:xlink="http://www.w3.org/1999/xlink" version="1.1">
<metadata>
Created by FontForge 20161013 at Tue Apr 10 05:11:58 2012
 By ,,,
Copyright (c) 2010, Yanone (http://yanone.de/typedesign/). All rights reserved.
This Font Software is licensed under the SIL Open Font License, Version 1.1.
This license is available with a FAQ at: http://scripts.sil.org/OFL
</metadata>
<defs>
<font id="YanoneKaffeesatz-Regular" horiz-adv-x="417" >
  <font-face 
    font-family="Yanone Kaffeesatz"
    font-weight="400"
    font-stretch="normal"
    units-per-em="1000"
    panose-1="2 0 0 0 0 0 0 0 0 0"
    ascent="800"
    descent="-200"
    x-height="500"
    cap-height="700"
    bbox="-107 -206 937 957"
    underline-thickness="71"
    underline-position="-144"
    unicode-range="U+0020-FB04"
  />
<missing-glyph horiz-adv-x="237" 
 />
    <glyph glyph-name="fi" unicode="fi" horiz-adv-x="402" 
d="M357 16q0 -6 -1.5 -9.5t-9 -5t-24 -1.5h-47.5v463q0 14 3.5 21.5t12.5 11t25 4t41 0.5v-484zM10 431q0 24 0.5 38t2.5 20.5t6 8.5t12 2h48v60q0 60 16 95t42 54t58 24.5t64 5.5q56 0 85.5 -12.5t29.5 -36.5q0 -10 -2 -23t-6 -24q-20 10 -48 16t-56 6q-20 0 -38.5 -3
t-32.5 -13.5t-22.5 -31t-8.5 -55.5v-62h70q0 -24 -0.5 -38t-2.5 -20.5t-5 -8.5t-9 -2h-53v-415q0 -4 -2 -8q-4 -8 -14 -8h-65v431h-69z" />
    <glyph glyph-name="fl" unicode="fl" horiz-adv-x="412" 
d="M10 431q0 24 0.5 38t2.5 20.5t6 8.5t12 2h48v60q0 60 16 95t39.5 53.5t51 24t50.5 5.5q38 0 72 -9.5t58 -24.5v-688q0 -4 -2 -8q-4 -8 -14 -8h-65v664q-11 4 -23 5.5t-21 1.5q-13 0 -27 -2.5t-26 -12.5t-20 -29.5t-8 -53.5v-73h80q0 -24 -0.5 -38t-2 -20.5t-5 -8.5
t-9.5 -2h-63v-415q0 -4 -2 -8q-4 -8 -15 -8h-64v431h-69z" />
    <glyph glyph-name=".notdef" horiz-adv-x="237" 
 />
    <glyph glyph-name=".null" horiz-adv-x="0" 
 />
    <glyph glyph-name="nonmarkingreturn" horiz-adv-x="157" 
 />
    <glyph glyph-name="space" unicode=" " horiz-adv-x="157" 
 />
    <glyph glyph-name="exclam" unicode="!" horiz-adv-x="195" 
d="M42 50q0 23 14.5 40.5t40.5 17.5q31 0 43.5 -16t12.5 -42q0 -23 -15 -40t-41 -17q-32 0 -43.5 15.5t-11.5 41.5zM45 682q0 9 4 13.5t16 7t34 3t57 0.5l-16 -454q-1 -14 -5 -21.5t-13.5 -11t-24.5 -4.5t-38 -1z" />
    <glyph glyph-name="quotedbl" unicode="&#x22;" horiz-adv-x="264" 
d="M90 586q-1 -1 -8 -1t-15 -1q-10 -1 -22 -1q0 2 -2 17.5t-4 37t-4 46t-3 46t-1 36t3 16.5q4 2 12 3t19 1q13 0 25.5 -0.5t20.5 -2.5q0 -21 -2.5 -53.5t-5.5 -63.5t-6.5 -54.5t-6.5 -25.5zM213 586q-1 -1 -8 -1t-15 -1q-10 -1 -22 -1q-1 2 -2.5 17.5t-3.5 37t-4.5 46
t-3.5 46t-1 36t3 16.5q4 2 12.5 3t19.5 1q13 0 25.5 -0.5t20.5 -2.5q0 -21 -2.5 -53.5t-5.5 -63.5t-6.5 -54.5t-6.5 -25.5z" />
    <glyph glyph-name="numbersign" unicode="#" 
d="M319 190l-3 -67q-1 -12 -17.5 -14t-54.5 -2l4 83h-95l-3 -67q-1 -12 -17.5 -14t-54.5 -2l4 83h-55q0 38 2 51t15 13h42l5 106h-64q0 38 2 51t15 13h51l3 63q1 12 17.5 14t54.5 2l-4 -79h95l3 63q1 12 17.5 14t54.5 2l-4 -79h58q0 -38 -2 -51t-14 -13h-46l-5 -106h67
q0 -38 -2 -51t-14 -13h-55zM157 254h95l5 106h-95z" />
    <glyph glyph-name="dollar" unicode="$" 
d="M163 -7q-58 3 -84.5 18t-26.5 26q0 3 1.5 11.5t4.5 18.5t7 19.5t9 15.5q15 -12 41 -20.5t65 -8.5q47 0 70 22t23 63q0 28 -12 50.5t-43 54.5l-112 114q-28 29 -40.5 56.5t-12.5 54.5q0 54 33 86.5t94 40.5v89q0 21 19 27t55 6v-121q57 -4 80 -16t23 -19q0 -9 -4.5 -26
t-15.5 -31q-10 7 -36.5 14t-61.5 7q-45 0 -71 -12t-26 -44q0 -21 10.5 -39t32.5 -41l121 -121q30 -30 43.5 -61t13.5 -70q0 -29 -6 -55t-21 -47t-39 -36.5t-60 -21.5v-87q0 -21 -18 -26.5t-56 -5.5v115z" />
    <glyph glyph-name="percent" unicode="%" horiz-adv-x="691" 
d="M44 525q0 95 37 139t105 44q33 0 58 -8.5t41.5 -29.5t25 -56t8.5 -88q0 -97 -35.5 -142t-103.5 -45q-33 0 -58.5 7t-43 27t-26 56.5t-8.5 95.5zM122 523q0 -38 4 -62t11.5 -37t18.5 -17.5t26 -4.5q13 0 24.5 6t19.5 20t13 37.5t5 59.5q0 37 -3.5 60.5t-11 36.5t-18 18
t-25.5 5t-26.5 -5.5t-20 -19.5t-13 -37.5t-4.5 -59.5zM372 177q0 95 37 139t105 44q33 0 58 -8.5t41.5 -29.5t25 -56t8.5 -88q0 -97 -35.5 -142t-103.5 -45q-33 0 -58.5 7t-43 27t-26 56.5t-8.5 95.5zM449 173q0 -38 4 -62t11.5 -37t18.5 -17.5t26 -4.5q27 0 45 26t18 97
q0 37 -3.5 60.5t-11 36.5t-18.5 18t-26 5t-26.5 -5.5t-20 -19t-13 -37.5t-4.5 -60zM166 -8q-14 4 -25 9q-10 4 -17.5 9.5t-7.5 12.5l403 686q12 -5 23 -10q8 -5 15.5 -11t7.5 -14q0 -3 -17 -33.5t-45.5 -79t-64.5 -109.5t-73 -124q-88 -149 -199 -336z" />
    <glyph glyph-name="ampersand" unicode="&#x26;" horiz-adv-x="502" 
d="M227 706q67 0 108.5 -14.5t41.5 -32.5q0 -14 -5.5 -31.5t-14.5 -28.5q-29 20 -57.5 27.5t-62.5 7.5q-19 0 -35.5 -2.5t-29 -10.5t-19.5 -23t-7 -40q0 -27 17 -69t45 -91t63 -100t71 -97q5 26 6.5 49.5t1.5 40.5q0 79 -17.5 127t-42.5 78q13 3 29.5 4.5t32.5 2t30 1
t23 0.5q23 0 41.5 -0.5t35.5 -2.5q1 -2 2 -10.5t1 -19.5q0 -15 -7 -25.5t-35 -10.5h-49q5 -9 11 -21t11.5 -30t9 -43t3.5 -60q0 -29 -5 -70t-20 -83q25 -28 46.5 -47t36.5 -26q-1 -12 -7 -24t-13.5 -21t-16.5 -14.5t-16 -5.5q-8 0 -27.5 17t-45.5 46q-25 -28 -61 -45.5
t-88 -17.5q-55 0 -91 15t-57 40t-29.5 57.5t-8.5 67.5q0 31 9 59t24.5 52t36 43.5t42.5 33.5q-35 60 -56.5 114.5t-21.5 95.5q0 68 44 103t123 35zM308 115q-33 40 -67.5 87t-66.5 97q-29 -21 -46.5 -52.5t-17.5 -78.5q0 -19 4.5 -37t16 -32.5t30 -23t46.5 -8.5
q36 0 60.5 13.5t40.5 34.5z" />
    <glyph glyph-name="quotesingle" unicode="'" horiz-adv-x="141" 
d="M90 586q-1 -1 -8 -1t-15 -1q-10 -1 -22 -1q0 2 -2 17.5t-4 37t-4 46t-3 46t-1 36t3 16.5q4 2 12 3t19 1q13 0 25.5 -0.5t20.5 -2.5q0 -21 -2.5 -53.5t-5.5 -63.5t-6.5 -54.5t-6.5 -25.5z" />
    <glyph glyph-name="parenleft" unicode="(" horiz-adv-x="292" 
d="M148 323q0 -87 11.5 -161t30 -132.5t40 -100.5t41.5 -64q-5 -28 -15 -44t-30 -16q-7 0 -33 30t-54.5 93t-51 160t-22.5 232q0 125 23 216t52 150.5t54.5 88t31.5 28.5q20 0 29 -11t16 -41q-23 -30 -45 -70.5t-39 -94t-28 -119t-11 -144.5z" />
    <glyph glyph-name="parenright" unicode=")" horiz-adv-x="292" 
d="M144 323q0 74 -10 139t-27 119.5t-39.5 97.5t-46.5 72q7 30 16 41t29 11q6 0 31.5 -27.5t54.5 -86t52 -150t23 -219.5q0 -127 -22.5 -223t-51 -161t-54.5 -98t-33 -33q-20 0 -30 16t-15 44q20 27 42 68.5t40 98.5t29.5 129.5t11.5 161.5z" />
    <glyph glyph-name="asterisk" unicode="*" horiz-adv-x="470" 
d="M258 519q-2 -11 -8.5 -15.5t-28.5 0.5l-23 163q-1 12 7.5 17t22.5 5q12 0 25.5 -3.5t24.5 -8.5zM430 575q11 -9 17.5 -24.5t6.5 -29.5q0 -11 -3.5 -18.5t-11.5 -9.5l-159 -38q-13 17 -11 25.5t13 14.5zM199 487q2 -18 -5.5 -25t-18.5 -3l-159 44q0 18 5.5 32t13.5 22.5
t17.5 11.5t16.5 0zM249 403q-5 11 -1.5 17t23.5 14l115 -135q7 -9 3 -17.5t-14 -16t-23 -13t-25 -7.5zM187 423q18 18 37 -8l-88 -156q-7 -10 -16.5 -9t-20 8.5t-19.5 19t-14 22.5z" />
    <glyph glyph-name="plus" unicode="+" 
d="M245 246v-123q0 -12 -16.5 -14t-54.5 -2v139h-140q0 38 2 54.5t15 16.5h123v123q0 13 16.5 15t54.5 2v-140h139q0 -38 -2 -54.5t-14 -16.5h-123z" />
    <glyph glyph-name="comma" unicode="," horiz-adv-x="183" 
d="M43 55q0 22 14 37t37 15q55 0 55 -60q0 -27 -10 -54t-23 -48.5t-26 -34.5t-20 -13q-11 0 -20 5t-12 18q9 15 14 26t8 20.5t4 19t2 20.5q-23 14 -23 49z" />
    <glyph glyph-name="hyphen" unicode="-" horiz-adv-x="278" 
d="M37 246q0 38 2 54.5t14 16.5h188q0 -38 -2 -54.5t-15 -16.5h-187z" />
    <glyph glyph-name="period" unicode="." horiz-adv-x="183" 
d="M37 51q0 23 14.5 40.5t41.5 17.5q31 0 43.5 -16t12.5 -42q0 -24 -15 -40.5t-41 -16.5q-32 0 -44 15t-12 42z" />
    <glyph glyph-name="slash" unicode="/" horiz-adv-x="335" 
d="M100 0q-2 -7 -5 -11t-12 -6t-26 -2.5t-47 -0.5l225 763q2 7 5 11.5t12 7t26 3t47 0.5z" />
    <glyph glyph-name="zero" unicode="0" 
d="M29 296q0 149 42.5 226.5t139.5 77.5t137.5 -69.5t40.5 -210.5q0 -81 -9 -143t-30.5 -103t-56.5 -62t-87 -21t-86 20t-54.5 58.5t-28.5 95.5t-8 131zM116 290q0 -62 4.5 -105t15.5 -69.5t28.5 -38.5t43.5 -12q51 0 73.5 60.5t22.5 195.5q0 103 -18.5 155t-70.5 52
q-57 0 -78 -63t-21 -175z" />
    <glyph glyph-name="one" unicode="1" 
d="M69 498q-5 11 -8.5 24.5t-3.5 28.5q0 6 25 14t57.5 16t63.5 13.5t44 5.5q6 0 13 -1.5t10 -3.5l-13 -518h74h22t19 1q10 1 17 2q0 -42 -2 -61t-15 -19h-342q-1 12 -1.5 28t-0.5 28q0 6 14 10.5t35 6.5t46.5 3t48.5 1l11 439q-13 -1 -32 -3.5t-37 -5.5q-21 -4 -45 -9z" />
    <glyph glyph-name="two" unicode="2" 
d="M59 487q-7 16 -8.5 32.5t-1.5 27.5q0 9 14 18.5t38 17t56.5 12.5t68.5 5q43 0 71.5 -9t45.5 -26.5t24 -42.5t7 -58q0 -52 -23.5 -98t-59 -91t-77.5 -93t-78 -105h134q20 0 41 0.5t38 2.5q20 2 39 4q0 -46 -2 -65t-15 -19h-339q-2 6 -2.5 13.5t-0.5 11.5q0 10 1 18t4 15.5
t7.5 16.5t11.5 21q33 55 73 102t74.5 90t58 83t23.5 82q0 32 -17.5 50.5t-59.5 18.5q-39 0 -80 -10t-66 -25z" />
    <glyph glyph-name="three" unicode="3" 
d="M245 301q27 -3 51 -12.5t42 -27.5t28.5 -45t10.5 -64q0 -62 -17 -109.5t-47 -79t-71.5 -47.5t-90.5 -16q-56 0 -81.5 14.5t-25.5 34.5q0 22 4 35.5t7 24.5q36 -31 98 -31q66 0 101.5 48.5t35.5 123.5q0 32 -13.5 52t-35.5 31.5t-50.5 15.5t-59.5 4l-2 52q64 30 98.5 70
t34.5 82q0 11 -2.5 22.5t-10 21t-21.5 15.5t-38 6q-41 0 -76 -9.5t-61 -25.5v-1q-8 15 -9.5 32t-1.5 28q0 20 46.5 37t126.5 17q40 0 66.5 -9.5t42.5 -26t23 -38t7 -45.5q0 -30 -9 -56.5t-24.5 -49t-35 -41t-40.5 -33.5z" />
    <glyph glyph-name="four" unicode="4" 
d="M316 206h27.5t24.5 1q12 1 22 2q1 -3 2 -7t1.5 -9t0.5 -13q-1 -20 -7 -35t-20 -15h-51v-104q0 -10 -1.5 -15t-9 -7.5t-24 -3t-46.5 -0.5v130h-181q-16 15 -21 35t-5 37q0 12 10 41.5t27 67t38.5 80.5t44.5 82t46 71t42 48q17 14 37 14q15 0 26.5 -3.5t19.5 -8.5zM235 206
l11 288q-18 -21 -40.5 -56t-43.5 -75.5t-38.5 -81.5t-25.5 -75h137z" />
    <glyph glyph-name="five" unicode="5" 
d="M377 600q0 -23 -1.5 -37t-6 -22t-13 -11t-22.5 -3q-12 0 -44 0.5t-65 1.5q-40 1 -85 2l-15 -150q5 1 19 3t39 2q29 0 63.5 -5.5t64 -25.5t49 -58t19.5 -103q0 -67 -13.5 -121t-42 -92.5t-72 -59.5t-103.5 -21q-30 0 -52 4.5t-35.5 11t-20 13.5t-6.5 12q0 23 2 37t7 29
q34 -31 97 -31q41 0 70 17t47.5 45t27 64.5t8.5 74.5q0 43 -11 70.5t-31.5 43t-49 21.5t-63.5 6q-31 0 -56.5 -4.5t-39.5 -8.5l29 295h306z" />
    <glyph glyph-name="six" unicode="6" 
d="M265 625q-33 0 -61 -14.5t-48 -45.5t-32 -80t-15 -118q23 36 56 54t81 18q64 0 104.5 -45t40.5 -149q0 -129 -48 -191t-142 -62q-58 0 -91.5 22t-51 63.5t-22.5 100t-5 130.5q0 112 17.5 187.5t48 121.5t72 65.5t89.5 19.5q21 0 40.5 -1.5t35 -5.5t24.5 -10.5t9 -16.5
q0 -12 -1.5 -28t-6.5 -30q-19 7 -42.5 11t-51.5 4zM222 364q-66 0 -113 -74v-6q-2 -117 22 -168.5t74 -51.5q26 0 45.5 12.5t33 34.5t20.5 52t7 65q0 66 -22.5 101t-66.5 35z" />
    <glyph glyph-name="seven" unicode="7" 
d="M404 600q-46 -90 -85.5 -176.5t-70.5 -172t-53 -170t-32 -169.5q-46 0 -64.5 4t-18.5 18q10 79 33.5 165t53.5 166.5t63.5 149.5t62.5 115q-29 -2 -88.5 -2.5t-137.5 -0.5q-14 0 -18.5 22.5t-4.5 50.5h360z" />
    <glyph glyph-name="eight" unicode="8" 
d="M209 706q34 0 66.5 -7t57 -25.5t39.5 -50t15 -79.5q0 -33 -9.5 -59t-24.5 -47t-34.5 -38t-39.5 -31q14 -11 28 -22.5t25 -23.5q29 -29 44 -62.5t15 -78.5q0 -39 -10.5 -74t-32.5 -60.5t-54.5 -40.5t-76.5 -15q-50 0 -85 15t-57.5 41t-33 61t-10.5 75q0 65 33 114t81 78
q-19 13 -36 26t-29 27q-20 20 -31 47.5t-11 57.5q0 43 14 75.5t37 54t54 32t66 10.5zM267 285q-12 12 -26.5 23.5t-30.5 22.5q-43 -22 -73 -57.5t-30 -85.5q0 -54 28 -86t77 -32q46 0 73 30t27 84q0 41 -13.5 63t-31.5 38zM220 629q-41 0 -70.5 -21.5t-29.5 -68.5
q0 -50 39 -81q10 -11 25.5 -22.5t34.5 -24.5q38 25 65.5 56.5t27.5 73.5q0 23 -8 40t-20.5 27.5t-29 15.5t-34.5 5z" />
    <glyph glyph-name="nine" unicode="9" 
d="M128 -26q48 0 80.5 18.5t53.5 52.5t31.5 80t14.5 102q-23 -35 -55 -52.5t-80 -17.5q-31 0 -58 13t-46.5 38.5t-30.5 63t-11 86.5q0 129 48 190t142 61q54 0 87 -16t51.5 -52.5t25 -96.5t8.5 -147q-2 -204 -61.5 -302.5t-189.5 -98.5q-37 0 -63.5 7.5t-26.5 25.5
q0 12 2.5 28t4.5 27q34 -10 73 -10zM197 232q32 0 60.5 17t53.5 55v6q0 56 -3.5 98.5t-13.5 71t-28 43t-48 14.5q-51 0 -81 -42t-30 -127q0 -66 24 -101t66 -35z" />
    <glyph glyph-name="colon" unicode=":" horiz-adv-x="183" 
d="M37 386q0 23 15 40.5t41 17.5q31 0 43.5 -16t12.5 -42q0 -24 -15 -40.5t-41 -16.5q-32 0 -44 15t-12 42zM37 51q0 23 15 40.5t41 17.5q31 0 43.5 -16t12.5 -42q0 -24 -15 -40.5t-41 -16.5q-32 0 -44 15t-12 42z" />
    <glyph glyph-name="semicolon" unicode=";" horiz-adv-x="183" 
d="M35 386q0 23 15 40.5t41 17.5q31 0 43.5 -16t12.5 -42q0 -24 -15 -40.5t-41 -16.5q-32 0 -44 15t-12 42zM39 55q0 22 14 37t36 15q55 0 55 -60q0 -27 -9.5 -54t-22.5 -48.5t-26 -34.5t-20 -13q-11 0 -20 5t-12 18q8 15 13 26t8 20.5t4.5 19t2.5 20.5q-23 14 -23 49z" />
    <glyph glyph-name="less" unicode="&#x3c;" horiz-adv-x="400" 
d="M145 255l215 -96q-1 -26 -12.5 -45t-23.5 -19q-9 0 -28 8l-244 108q-13 23 -13 47q0 14 6 25.5t20 18.5l264 129q14 -13 21 -28t8 -27q0 -17 -15 -24z" />
    <glyph glyph-name="equal" unicode="=" 
d="M34 339q0 38 2 54.5t15 16.5h333q0 -38 -2 -54.5t-14 -16.5h-334zM34 153q0 38 2 54.5t15 16.5h333q0 -38 -2 -54.5t-14 -16.5h-334z" />
    <glyph glyph-name="greater" unicode="&#x3e;" horiz-adv-x="400" 
d="M259 261l-216 96q2 26 13.5 44.5t23.5 18.5q10 0 27 -7l244 -108q14 -22 14 -47q0 -31 -27 -44l-264 -129q-13 13 -20 27.5t-8 26.5q0 18 14 25z" />
    <glyph glyph-name="question" unicode="?" horiz-adv-x="295" 
d="M74 51q0 23 15 40.5t41 17.5q31 0 43.5 -16t12.5 -42q0 -24 -15 -40.5t-41 -16.5q-32 0 -44 15t-12 42zM144 710q63 0 101 -34.5t38 -104.5q0 -45 -12 -79t-29.5 -61.5t-36.5 -51t-33 -48.5q-7 -12 -9.5 -24t-2.5 -23q0 -24 5.5 -42.5t0.5 -24.5q-3 -4 -12 -6.5t-19.5 -3
t-21.5 -0.5t-20 2q-4 9 -8 20q-3 10 -5 22.5t-2 28.5q0 17 3.5 35t14.5 37q16 30 33.5 54.5t32.5 47t24.5 46t9.5 51.5q0 23 -7 38t-18 23.5t-26 12t-31 3.5q-33 0 -53.5 -9.5t-29.5 -15.5q-5 15 -8.5 30.5t-3.5 33.5q0 9 11.5 17t29.5 13.5t40 9t44 3.5z" />
    <glyph glyph-name="at" unicode="@" horiz-adv-x="738" 
d="M609 338q0 76 -10.5 128t-36 84t-67 46t-103.5 14q-64 0 -113 -17.5t-82 -58.5t-50 -109.5t-17 -171.5q0 -113 15.5 -183.5t45.5 -111t74.5 -55t102.5 -14.5q79 0 133.5 12t99.5 31q10 -13 16 -28.5t6 -29.5q0 -11 -17 -22.5t-49 -20.5t-78 -15t-104 -6q-69 0 -129 13.5
t-104 60t-69.5 137t-25.5 243.5q0 111 25 190.5t70.5 130t109.5 74t142 23.5q73 0 129 -17t93.5 -55t57 -99.5t19.5 -151.5q0 -82 -8 -140t-21.5 -98t-30 -63.5t-34.5 -36t-35.5 -16t-31.5 -3.5q-20 0 -35 6.5t-26 16.5q-11 -9 -38.5 -16.5t-70.5 -7.5q-27 0 -50 4.5
t-39.5 21t-26 47t-9.5 81.5q1 48 11.5 79.5t27.5 50t40 26t48 7.5q14 0 30 -2t28 -9q0 10 1 21q0 9 0.5 19.5t0.5 20.5q2 34 -14.5 46t-45.5 12q-32 0 -54.5 -6t-45.5 -19q-6 11 -7.5 26t-1.5 21q1 12 9 20q14 8 44.5 17t82.5 9q55 0 83 -24.5t27 -91.5l-5 -201
q-1 -32 -2 -56.5t-3 -42.5q15 -6 32 -6q14 0 29 13.5t28 45t21 82t8 125.5zM422 258q-5 1 -14.5 2t-20.5 1q-16 0 -29 -5t-23 -17t-15.5 -33t-5.5 -54q-1 -54 13 -72t41 -18q20 0 34.5 11t15.5 42z" />
    <glyph glyph-name="A" unicode="A" horiz-adv-x="437" 
d="M305 178h-172l-39 -164q-2 -8 -8 -12t-30 -4q-8 0 -22.5 0.5t-28.5 2.5l178 688q3 14 31 14q23 0 38 -3l179 -685q2 -8 -4.5 -12.5t-30.5 -4.5h-21t-27 2zM150 252h138l-34 142q-6 25 -11.5 51t-10 51.5t-8 48.5t-5.5 41q-2 -18 -6 -41t-8.5 -48t-9.5 -51.5t-11 -51.5z
" />
    <glyph glyph-name="B" unicode="B" horiz-adv-x="376" 
d="M43 681q0 9 5.5 14t21.5 5h99q30 0 60 -6t54 -23t39 -47.5t15 -78.5q0 -41 -9 -70.5t-23 -49t-31 -29.5t-33 -12q17 -1 37.5 -7t38.5 -22t30 -44t12 -73q0 -63 -15 -108t-41 -74t-60.5 -42.5t-73.5 -13.5h-126v681zM126 414h49q32 0 52.5 27.5t20.5 87.5q0 31 -6 50
t-16.5 30t-24 15t-27.5 4h-48v-214zM126 71h45q19 0 35.5 9t29.5 28.5t20.5 49.5t7.5 73q0 39 -7 61.5t-19 34t-29 14.5t-37 3h-46v-273z" />
    <glyph glyph-name="C" unicode="C" horiz-adv-x="339" 
d="M228 710q28 0 46 -5t28.5 -13t15 -17.5t4.5 -19.5q0 -14 -4 -27t-9 -22q-8 7 -25 16t-40 9q-24 0 -46.5 -11t-40.5 -43t-29 -92.5t-11 -159.5q0 -76 7.5 -124.5t20.5 -76t31.5 -36t40.5 -8.5q29 0 53.5 10t38.5 21q5 -10 8.5 -23t3.5 -26q0 -29 -34 -50.5t-90 -21.5
q-36 -3 -66 8.5t-52.5 46.5t-35 101t-12.5 175q0 128 18.5 205.5t47 119t63.5 53t68 11.5z" />
    <glyph glyph-name="D" unicode="D" horiz-adv-x="393" 
d="M168 700q49 0 86 -15t61.5 -51t36.5 -96.5t12 -151.5q0 -110 -13 -184t-38 -119t-61.5 -64t-82.5 -19h-125v681q0 9 5 14t22 5h97zM271 394q0 69 -6 114t-18.5 71t-31.5 36t-44 10h-46v-548h45q19 0 37.5 10.5t32.5 44t22.5 96t8.5 166.5z" />
    <glyph glyph-name="E" unicode="E" horiz-adv-x="320" 
d="M297 73q0 -26 -0.5 -40.5t-2 -21.5t-4.5 -9t-9 -2h-237v683q0 4 2 8q2 3 5.5 6t9.5 3h239v-39.5t-1.5 -22t-4.5 -9.5t-9 -2h-159v-209h150v-38t-1.5 -23t-4.5 -11t-9 -3h-135v-270h171z" />
    <glyph glyph-name="F" unicode="F" horiz-adv-x="312" 
d="M44 0v683q0 4 2 8q2 3 5.5 6t9.5 3h239v-39t-1.5 -21t-4.5 -8.5t-9 -1.5h-159v-212h150q0 -46 -2 -60t-13 -14h-135v-328q0 -4 -2 -8q-4 -8 -14 -8h-66z" />
    <glyph glyph-name="G" unicode="G" horiz-adv-x="385" 
d="M241 709q51 0 79 -15t28 -35q0 -14 -3 -27t-8 -24q-13 11 -33.5 17.5t-45.5 6.5q-38 0 -65.5 -14.5t-45 -48t-25.5 -90t-8 -140.5q0 -89 7 -142t20 -81.5t32.5 -37t43.5 -8.5q26 0 40 9t18 15v248h-73v52q0 17 19 17h131l-1 -376q-17 -15 -50.5 -29.5t-85.5 -14.5
q-50 0 -86 14t-58.5 52t-33 105t-10.5 172q0 117 15 190.5t42.5 114.5t67 55.5t89.5 14.5z" />
    <glyph glyph-name="H" unicode="H" horiz-adv-x="409" 
d="M284 340h-159v-324q0 -6 -1 -9.5t-8.5 -5t-24 -1.5h-47.5v683q0 6 1 9.5t8.5 5t24 2t47.5 0.5v-285h159v268q0 6 1 9.5t8.5 5t24 2t47.5 0.5v-684q0 -6 -1 -9.5t-8.5 -5t-24 -1.5h-47.5v340z" />
    <glyph glyph-name="I" unicode="I" horiz-adv-x="168" 
d="M43 663q0 14 1.5 21.5t9 11t24.5 4t47 0.5v-684q0 -6 -1.5 -9.5t-9 -5t-24.5 -1.5h-47v663z" />
    <glyph glyph-name="J" unicode="J" horiz-adv-x="306" 
d="M180 663q0 14 1.5 21.5t9 11t24.5 4t48 0.5v-535q0 -37 -6 -69t-21.5 -55t-42 -36.5t-67.5 -13.5q-31 0 -51.5 5t-32.5 13.5t-17 19t-5 21.5q0 16 4.5 27t8.5 19q14 -13 35.5 -23t46.5 -10q22 0 35 8t19.5 23t8.5 37.5t2 51.5v480z" />
    <glyph glyph-name="K" unicode="K" horiz-adv-x="393" 
d="M42 683q0 6 1.5 9.5t9 5t24 2t47.5 0.5v-302l159 297q14 3 27.5 4.5t24.5 1.5q45 0 33 -24l-161 -279q60 -45 100 -140.5t60 -239.5q1 -11 -5.5 -15.5t-27.5 -4.5q-27 0 -57 3q-22 117 -46 194t-66 123q-9 9 -19.5 15.5t-21.5 11.5v-329q0 -6 -1.5 -9.5t-9 -5t-24 -1.5
h-47.5v683z" />
    <glyph glyph-name="L" unicode="L" horiz-adv-x="317" 
d="M125 76h172v-60q0 -10 -4.5 -13t-12.5 -3h-237v677q0 9 1.5 13.5t9.5 6.5t24.5 2.5t46.5 0.5v-624z" />
    <glyph glyph-name="M" unicode="M" horiz-adv-x="489" 
d="M43 683q0 12 5 14.5t12 2.5h59l95 -302q4 -15 9.5 -33t10 -35t8 -29t4.5 -15q0 1 3 13.5t7.5 29t9 34.5t9.5 32l88 288q2 8 5 12.5t11 4.5h66v-684q0 -6 -1.5 -9.5t-9 -5t-24.5 -1.5h-48l3 243q1 36 3.5 82t5.5 89.5t5.5 77.5t3.5 46q-8 -28 -18 -63.5t-19 -68t-16.5 -58
t-10.5 -34.5l-53 -152q-2 -5 -5 -6.5t-6 -1.5h-35l-52 160q-3 8 -10.5 33.5t-17 58.5t-19.5 69t-18 65v-1q5 -53 9 -106q4 -45 6.5 -95.5t3.5 -90.5l2 -231q0 -6 -2 -9.5t-10 -5t-24.5 -1.5h-44.5v683z" />
    <glyph glyph-name="N" unicode="N" horiz-adv-x="444" 
d="M209 275q-7 17 -19 52.5t-26 77t-27.5 83t-22.5 70.5q2 -24 4 -68t3.5 -90t2 -85.5t0.5 -55.5v-243q0 -6 -1.5 -9.5t-9 -5t-24 -1.5h-46.5v683q0 17 17 17h62l112 -270q7 -20 19.5 -55.5t26.5 -76.5t27 -81.5t22 -68.5v3q-3 22 -4.5 65t-3 88.5t-2 85.5t-0.5 58v235
q0 6 1.5 9.5t9.5 5t24.5 2t46.5 0.5v-684q0 -16 -17 -16h-61z" />
    <glyph glyph-name="O" unicode="O" horiz-adv-x="428" 
d="M30 354q0 100 11.5 168t35.5 109.5t60 59.5t84 18q49 0 83 -17t55 -57.5t30.5 -108.5t9.5 -169q0 -103 -11 -173t-34 -113t-59 -61.5t-85 -18.5q-48 0 -82.5 16t-56 57.5t-31.5 111.5t-10 178zM121 334q0 -70 4.5 -119t15.5 -80.5t28.5 -46t44.5 -14.5t45.5 15t30 49
t16.5 87t5 130q0 75 -4.5 126.5t-15 84t-28 46.5t-44.5 14q-26 0 -44.5 -15.5t-30.5 -50t-17.5 -90t-5.5 -136.5z" />
    <glyph glyph-name="P" unicode="P" horiz-adv-x="360" 
d="M43 683q0 17 17 17h99q95 0 139.5 -46.5t44.5 -151.5q0 -62 -14.5 -103.5t-40 -67t-59 -36.5t-70.5 -11h-35v-268q0 -6 -1.5 -9.5t-9 -5t-24 -1.5h-46.5v683zM253 511q0 53 -17.5 85.5t-61.5 32.5h-50v-270h44q42 0 63.5 34.5t21.5 117.5z" />
    <glyph glyph-name="Q" unicode="Q" horiz-adv-x="428" 
d="M30 354q0 100 11.5 168t35.5 109.5t60 59.5t84 18q49 0 83 -17t55 -57.5t30.5 -108.5t9.5 -169q0 -82 -7 -143t-21 -104t-36.5 -69t-52.5 -38q7 -40 19 -56.5t35 -16.5q15 0 31.5 3.5t30.5 13.5q6 -9 9 -22t3 -22q0 -12 -9.5 -20t-23 -12.5t-29 -6t-28.5 -1.5
q-52 0 -83 30.5t-48 98.5q-43 3 -73 21.5t-49 60t-28 110t-9 170.5zM121 334q0 -70 4.5 -119t15.5 -80.5t28.5 -46t44.5 -14.5t45.5 15t30 49t16.5 87t5 130q0 75 -4.5 126.5t-15 84t-28 46.5t-44.5 14q-26 0 -44.5 -15.5t-30.5 -50t-17.5 -90t-5.5 -136.5z" />
    <glyph glyph-name="R" unicode="R" horiz-adv-x="373" 
d="M43 683q0 4 2 8q2 3 5 6t10 3h99q95 0 139.5 -46.5t44.5 -151.5q0 -81 -24 -127.5t-63 -68.5q12 -15 26.5 -40t28.5 -60t24.5 -82t14.5 -106q0 -11 -6 -15.5t-35 -4.5q-10 0 -22 0.5t-26 1.5q-4 63 -14 111t-22 82.5t-24.5 57t-21.5 34.5q-5 -1 -10 -1h-10h-35v-268
q0 -6 -1.5 -9.5t-9 -5t-24 -1.5h-46.5v683zM253 506q0 57 -17 90t-62 33h-50v-270h44q42 0 63.5 33.5t21.5 113.5z" />
    <glyph glyph-name="S" unicode="S" horiz-adv-x="358" 
d="M198 710q72 0 101.5 -14.5t29.5 -35.5q0 -11 -4.5 -23.5t-15.5 -23.5q-11 8 -37 16.5t-61 8.5q-45 0 -71 -18.5t-26 -50.5q0 -28 11.5 -50t34.5 -49l108 -123q19 -23 32 -43.5t21 -41t11 -41t3 -43.5q0 -38 -9 -72t-29.5 -60t-55 -41t-85.5 -15q-68 0 -99.5 19.5
t-31.5 40.5q0 12 5 28t16 30q16 -14 41.5 -24.5t61.5 -10.5q54 0 76 28t22 74q0 34 -12.5 63t-45.5 67l-101 117q-34 42 -48 75.5t-14 68.5q0 63 43.5 103.5t128.5 40.5z" />
    <glyph glyph-name="T" unicode="T" horiz-adv-x="373" 
d="M225 624v-608q0 -6 -1.5 -9.5t-9 -5t-24 -1.5h-46.5v624h-136v59q0 17 17 17h340v-60q0 -16 -17 -16h-123z" />
    <glyph glyph-name="U" unicode="U" horiz-adv-x="437" 
d="M127 202q0 -30 3 -55.5t13.5 -43.5t29 -28t50.5 -10q26 0 50.5 5.5t37.5 12.5v600q0 6 1.5 9.5t9 5t24.5 2t47 0.5v-674q-19 -12 -64.5 -24t-105.5 -12t-95.5 17t-54.5 46.5t-24.5 68t-5.5 82.5v479q0 6 1.5 9.5t9 5t24.5 2t49 0.5v-498z" />
    <glyph glyph-name="V" unicode="V" horiz-adv-x="420" 
d="M7 676q-3 13 -1 18.5t19 5.5h66l83 -387q13 -67 22.5 -131.5t17.5 -112.5q6 48 15 113t21 131l74 363q2 12 6 18t15 6h71l-154 -703q-17 -2 -31 -3t-37 -1q-20 0 -31 16t-17 42q-8 30 -18 73.5t-21 93t-23 103t-23 104.5q-26 120 -54 251z" />
    <glyph glyph-name="W" unicode="W" horiz-adv-x="655" 
d="M7 676q-2 12 0.5 18t16.5 6h67l72 -387q12 -67 18.5 -122t11.5 -103h6q2 60 9 115.5t17 109.5l61 329q2 13 5.5 18.5t15.5 5.5h58l70 -353q13 -68 19 -122t11 -102h6q4 48 10 107.5t15 116.5l64 363q2 12 6 18t15 6h69l-131 -703q-11 -1 -18.5 -2t-14.5 -1.5t-15 -1
t-20 -0.5q-18 0 -28.5 15.5t-15.5 41.5l-51 224q-4 20 -8.5 48.5t-8.5 60t-7.5 62.5t-6.5 57q-3 -26 -7 -57t-7.5 -62t-7.5 -59.5t-7 -48.5l-55 -277q-19 -2 -33.5 -3t-40.5 -1q-16 0 -26 17t-15 45q-7 31 -15.5 74t-18.5 92.5t-20 102.5t-19 104q-22 118 -46 248z" />
    <glyph glyph-name="X" unicode="X" horiz-adv-x="424" 
d="M268 368l143 -354q8 -14 -8 -14h-89l-54 135q-16 40 -30 79.5t-23 66.5q-9 -26 -23.5 -65.5t-31.5 -80.5l-54 -125q-6 -10 -19 -10h-70l152 362l-125 324q-2 5 -0.5 8t11 4.5t29.5 1.5h56l40 -113q16 -43 28.5 -83.5t20.5 -66.5q8 25 20.5 65.5t29.5 84.5l38 100
q1 5 3 7.5t10.5 4t25.5 1.5h49z" />
    <glyph glyph-name="Y" unicode="Y" horiz-adv-x="364" 
d="M144 283l-138 404q-2 5 -1 7.5t10 4t28.5 1.5h54.5l40 -137q7 -24 15.5 -55.5t15.5 -62t12 -55.5t6 -36q1 11 6.5 36t12.5 55.5t15.5 62t15.5 55.5l35 122q2 6 4 9t10.5 4.5t25.5 1.5h48l-135 -411v-273q0 -6 -1 -9.5t-8.5 -5t-24 -1.5h-47.5v283z" />
    <glyph glyph-name="Z" unicode="Z" horiz-adv-x="385" 
d="M44 683q0 17 17 17h299q4 -6 6 -11.5t2 -15.5q0 -20 -8 -36l-255 -564h193q17 0 32 1t27 6v-64q0 -7 -3 -11.5t-14 -4.5h-312q-5 5 -9 13t-4 19q0 17 8 36l251 559h-186q-14 0 -25.5 -0.5t-18.5 -2.5v59z" />
    <glyph glyph-name="bracketleft" unicode="[" horiz-adv-x="385" 
d="M376 821q0 -25 -0.5 -39.5t-3 -22.5t-8 -10.5t-15.5 -2.5h-146v-869h172q0 -28 -1 -43.5t-4 -22.5t-8 -8.5t-14 -1.5h-227v995q0 8 1 13t7 7.5t18.5 3.5t35.5 1h193z" />
    <glyph glyph-name="backslash" unicode="\" horiz-adv-x="330" 
d="M318 -10q2 -7 1 -11t-9.5 -6t-25.5 -2.5t-47 -0.5l-225 773q-3 7 -2 11.5t9 7t25 3t47 0.5z" />
    <glyph glyph-name="bracketright" unicode="]" horiz-adv-x="385" 
d="M9 -200q0 25 0.5 39.5t3 22.5t8 10.5t15.5 2.5h146v871h-172q0 28 1 43.5t4 22.5t8 8.5t14 1.5h227v-997q0 -8 -1 -13t-7 -7.5t-19 -3.5t-36 -1h-192z" />
    <glyph glyph-name="asciicircum" unicode="^" horiz-adv-x="430" 
d="M110 218q-10 -6 -15 -8t-10 -2q-17 0 -26.5 13t-10.5 29l173 148l145 -127q14 -13 14 -27t-11 -25t-28 -13l-129 87z" />
    <glyph glyph-name="underscore" unicode="_" horiz-adv-x="377" 
d="M13 -109q0 38 2 54.5t15 16.5h333q0 -38 -2 -54.5t-14 -16.5h-334z" />
    <glyph glyph-name="grave" unicode="`" horiz-adv-x="171" 
d="M140 571q-3 0 -23 13t-44 30.5t-45.5 34t-27.5 23.5q1 9 4.5 20t8.5 20t11.5 15.5t13.5 6.5q3 0 21 -14t40 -33.5t43 -39.5t29 -31q-4 -13 -8 -23q-4 -8 -10 -15t-13 -7z" />
    <glyph glyph-name="a" unicode="a" horiz-adv-x="354" 
d="M30 455q0 8 2.5 15.5t8.5 12.5q13 8 54 17.5t98 9.5q65 0 94.5 -27t29.5 -95v-53v-86.5t-1 -84t-2 -76.5t-3 -64q-20 -12 -55 -23t-84 -11q-27 0 -53 4t-46 20t-32 46.5t-12 81.5q0 52 11.5 84t30 50t42.5 24t49 6q17 0 37.5 -2.5t35.5 -10.5v79q0 35 -16 47t-46 12
q-38 0 -74 -6.5t-58 -15.5q-7 12 -9 24.5t-2 21.5zM235 236q-10 5 -23 7t-24 2q-15 0 -28.5 -3.5t-23.5 -14.5t-16 -30.5t-6 -52.5q0 -27 4.5 -44t13 -26.5t20.5 -12.5t27 -3q17 0 31.5 5t21.5 12q1 12 1.5 31.5t1 41.5t0.5 45v43z" />
    <glyph glyph-name="b" unicode="b" horiz-adv-x="383" 
d="M47 697q0 14 3 22t12 11.5t25 4t41 0.5v-260q20 17 46 26t61 9q30 0 53 -10.5t38 -33.5t23 -60.5t8 -92.5q0 -108 -18.5 -172t-47 -97.5t-62.5 -43.5t-65 -10q-79 0 -117 30v677zM128 75q7 -5 18.5 -9t28.5 -4q13 0 29 8t29.5 32.5t23 70.5t9.5 122q0 80 -17 111t-51 31
q-39 0 -70 -28v-334z" />
    <glyph glyph-name="c" unicode="c" horiz-adv-x="313" 
d="M294 465q0 -8 -2 -20t-7 -25q-12 7 -31 12.5t-39 5.5q-18 0 -35.5 -6t-31.5 -26.5t-23 -60t-9 -106.5q0 -53 5.5 -87t16.5 -54t27.5 -28t39.5 -8q24 0 45 7.5t34 15.5q4 -14 6 -24t2 -20q0 -20 -31 -35.5t-81 -15.5q-36 0 -63.5 9t-46.5 36t-29 76t-10 128
q0 90 16.5 143.5t42.5 82t58 37t63 8.5q35 0 59 -12.5t24 -32.5z" />
    <glyph glyph-name="d" unicode="d" horiz-adv-x="386" 
d="M257 426q-10 8 -20 10.5t-26 2.5q-17 0 -32.5 -8t-28 -29.5t-20 -60.5t-7.5 -100q0 -56 5 -91t15 -54.5t23.5 -26t31.5 -6.5q17 0 32 3.5t27 11.5v348zM257 698q0 14 3.5 21.5t12.5 11t24.5 4t40.5 0.5v-715q-25 -12 -60.5 -21t-82.5 -9q-33 0 -62.5 7.5t-52 32.5
t-35.5 73t-13 129q0 74 12 127t33 86.5t49 49t60 15.5q45 0 71 -20v208z" />
    <glyph glyph-name="e" unicode="e" horiz-adv-x="361" 
d="M208 510q127 0 127 -161q0 -33 -2.5 -68t-8.5 -62q-26 -5 -55 -8t-57.5 -5t-53.5 -2.5t-43 -0.5q1 -40 7.5 -66t17.5 -41t28 -21t40 -6q30 0 59 8.5t55 22.5q4 -11 5.5 -27t1.5 -28t-11 -22t-30 -17.5t-44 -11.5t-53 -4q-35 0 -64.5 9t-50.5 34.5t-33 71.5t-12 119
q0 94 15.5 150.5t40 86.5t56.5 39.5t65 9.5zM199 439q-15 0 -29 -7.5t-25.5 -27t-19 -52t-9.5 -83.5h32t36.5 1.5t36 3.5t30.5 6q3 14 4 30t1 30q-1 54 -13 76.5t-44 22.5z" />
    <glyph glyph-name="f" unicode="f" horiz-adv-x="255" 
d="M12 431q0 24 0.5 38t2.5 20.5t6 8.5t12 2h48v60q0 58 15.5 93.5t40 54.5t54 25t58.5 6q46 0 69.5 -11t23.5 -30q0 -11 -2 -22.5t-7 -22.5q-18 8 -36 10t-35 2q-20 0 -38 -3t-31.5 -13.5t-22 -30t-8.5 -51.5v-67h90q0 -24 -0.5 -38t-2 -20.5t-5 -8.5t-9.5 -2h-73v-415
q0 -2 -2.5 -9t-13.5 -7h-65v431h-69z" />
    <glyph glyph-name="g" unicode="g" horiz-adv-x="393" 
d="M205 510q10 0 23.5 -2t26.5 -6h120q3 -5 5.5 -15t2.5 -24q0 -31 -28 -31q-14 0 -36 5q17 -17 27.5 -44t10.5 -64q0 -80 -37.5 -127.5t-124.5 -47.5q-28 0 -45 4q-10 -10 -18 -22t-8 -22q0 -7 9 -11.5t25 -7.5t37.5 -6t46.5 -6q30 -5 54 -12.5t41.5 -21t27 -33.5t9.5 -50
q0 -32 -11 -61.5t-34.5 -52t-60 -36t-86.5 -13.5t-81.5 9.5t-49 25.5t-23.5 35t-6 39q0 37 22 67.5t54 52.5q-29 8 -45.5 21.5t-15.5 33.5t18 43.5t46 46.5q-35 23 -48.5 62.5t-13.5 87.5q0 50 12 85t34 56.5t52.5 31.5t67.5 10zM202 450q-32 0 -54.5 -27.5t-22.5 -93.5
q0 -27 3 -48t11 -35.5t22.5 -22t37.5 -7.5q40 0 58 33t18 99q0 55 -18.5 78.5t-54.5 23.5zM178 19q-5 0 -9 0.5t-9 1.5q-22 -17 -38 -41t-16 -49q0 -12 3.5 -21.5t12.5 -16.5t25.5 -11t42.5 -4q27 0 46 7t31.5 18.5t18.5 25t6 26.5q0 17 -5.5 28t-18.5 18.5t-35 11.5t-55 6z
" />
    <glyph glyph-name="h" unicode="h" horiz-adv-x="380" 
d="M45 698q0 14 3 21.5t12 11t25 4t41 0.5v-264q23 20 53 29.5t59 9.5q32 0 52.5 -9t32 -25.5t15.5 -41.5t4 -56v-362q0 -6 -2 -9.5t-10 -5t-25 -1.5h-47v355q0 16 -2 31t-8 25.5t-17.5 17t-29.5 6.5q-17 0 -37 -6t-38 -22v-391q0 -6 -1.5 -9.5t-9 -5t-24 -1.5h-46.5v698z
" />
    <glyph glyph-name="i" unicode="i" horiz-adv-x="175" 
d="M129 16q0 -6 -1.5 -9.5t-9.5 -5t-24.5 -1.5h-47.5v463q0 14 3.5 21.5t13 11t25.5 4t41 0.5v-484zM47 659q1 27 12 43.5t35 16.5q23 0 32 -13t8 -45q0 -31 -11.5 -48t-34.5 -17q-20 0 -30.5 14t-10.5 49z" />
    <glyph glyph-name="j" unicode="j" horiz-adv-x="184" 
d="M135 -36q0 -33 -5.5 -62t-19.5 -51t-40 -34.5t-66 -12.5q-56 0 -81 14.5t-25 38.5q0 11 2.5 22t9.5 20q34 -20 84 -20q38 0 49 22.5t11 75.5v486q0 14 3.5 21.5t12.5 11t24.5 4t40.5 0.5v-536zM52 659q1 27 12 43.5t35 16.5q23 0 32 -13t8 -45q0 -31 -11.5 -48t-34.5 -17
q-20 0 -30.5 14t-10.5 49z" />
    <glyph glyph-name="k" unicode="k" horiz-adv-x="381" 
d="M46 698q0 14 3.5 21.5t12.5 11t25 4t41 0.5v-271q25 21 59 33.5t66 12.5q25 0 41 -7t26 -19t14 -27.5t4 -32.5q0 -31 -9.5 -56.5t-22.5 -45t-27.5 -33t-23.5 -20.5q36 -16 64.5 -58t34.5 -111q1 -8 1 -16v-17q0 -24 -3 -51q-1 -6 -2.5 -9.5t-10.5 -5t-27 -1.5h-52
q2 17 3 33t1 31q0 17 -1.5 31t-3.5 28q-9 60 -33.5 84.5t-53.5 18.5q-7 -2 -14.5 -5t-14.5 -6q-8 -4 -15 -8v-191q0 -6 -1 -9.5t-8.5 -5t-24.5 -1.5h-48v698zM248 396q0 41 -37 41q-20 0 -41.5 -12t-41.5 -36v-124q52 21 86 52.5t34 78.5z" />
    <glyph glyph-name="l" unicode="l" horiz-adv-x="173" 
d="M127 16q0 -6 -1.5 -9.5t-9 -5t-24 -1.5h-46.5v698q0 14 3.5 21.5t12.5 11t25 4t40 0.5v-719z" />
    <glyph glyph-name="m" unicode="m" horiz-adv-x="563" 
d="M244 389q-1 27 -10 38.5t-39 11.5q-35 0 -68 -17v-406q0 -6 -1.5 -9.5t-9.5 -5t-24.5 -1.5h-45.5v477q33 15 71 24t80 9q32 0 54 -8t36 -23q26 14 59 22.5t64 8.5q37 0 59.5 -9.5t34 -27.5t15 -44t3.5 -60v-353q0 -6 -1.5 -9.5t-9.5 -5t-24.5 -1.5h-45.5v370
q0 36 -9.5 52t-39.5 16q-17 0 -33.5 -4t-33.5 -15v-403q0 -6 -1 -9.5t-8.5 -5t-24 -1.5h-47.5v389z" />
    <glyph glyph-name="n" unicode="n" horiz-adv-x="382" 
d="M45 476q15 6 34 12.5t40 11t42.5 7.5t41.5 3q79 0 110 -30.5t31 -103.5v-360q0 -6 -1.5 -9.5t-9.5 -5t-25 -1.5h-48v352q0 48 -11 67.5t-49 19.5q-16 0 -36.5 -4.5t-37.5 -13.5v-405q0 -6 -1.5 -9.5t-9.5 -5t-24 -1.5h-46v476z" />
    <glyph glyph-name="o" unicode="o" horiz-adv-x="368" 
d="M24 250q0 137 43.5 198.5t122.5 61.5q39 0 68.5 -11.5t48.5 -41t28.5 -79t9.5 -125.5q0 -140 -42 -201.5t-122 -61.5q-39 0 -68 9t-49 36.5t-30 79t-10 135.5zM112 248q0 -62 4.5 -99t13.5 -57t22.5 -26.5t30.5 -6.5q16 0 29.5 8t23.5 30t15.5 59t5.5 96q0 60 -4.5 96.5
t-13 56.5t-21.5 27t-31 7q-17 0 -30.5 -8t-23.5 -29t-15.5 -58.5t-5.5 -95.5z" />
    <glyph glyph-name="p" unicode="p" horiz-adv-x="383" 
d="M46 470q63 40 146 40q37 0 67 -9.5t51.5 -33t33 -64t11.5 -101.5q0 -101 -13.5 -162.5t-35.5 -94.5t-48.5 -44t-51.5 -11q-28 0 -48 8.5t-31 19.5v-208q-10 -4 -21 -5.5t-21 -1.5q-21 0 -30 7.5t-9 27.5v632zM127 96q11 -17 25 -25t29 -8q12 0 26.5 6.5t27 30.5
t21.5 69.5t9 123.5q0 45 -5 73t-14.5 44.5t-24 22.5t-33.5 6q-34 0 -61 -19v-324z" />
    <glyph glyph-name="q" unicode="q" horiz-adv-x="390" 
d="M343 -163q0 -12 -1.5 -18.5t-7 -10t-15 -5t-24.5 -1.5q-18 0 -34 3v229q-30 -44 -95 -44q-24 0 -48 8t-43.5 32.5t-31.5 69t-12 118.5q0 83 16 139t44 90t65.5 48.5t79.5 14.5q35 0 59.5 -7.5t47.5 -23.5v-642zM261 425q-16 14 -46 14q-22 0 -39 -11t-29 -37t-18 -68
t-6 -103q0 -51 6.5 -82t17 -48t23.5 -23t26 -6q20 0 37.5 12.5t27.5 38.5v313z" />
    <glyph glyph-name="r" unicode="r" horiz-adv-x="263" 
d="M45 465q29 20 64 32.5t72 12.5q38 0 54 -11t16 -31q0 -8 -2 -21.5t-7 -26.5q-23 12 -48 12q-17 0 -34.5 -5.5t-31.5 -17.5l-1 -393q0 -6 -1.5 -9.5t-9 -5t-24.5 -1.5h-47v465z" />
    <glyph glyph-name="s" unicode="s" horiz-adv-x="345" 
d="M194 510q39 0 63.5 -6t38.5 -14.5t19 -18.5t5 -17q0 -21 -18 -41q-43 26 -98 26q-35 0 -57 -12.5t-22 -35.5q0 -14 7 -27.5t33 -34.5l93 -75q32 -32 45.5 -59.5t13.5 -65.5q0 -67 -44 -103t-121 -36q-54 0 -88 12.5t-34 38.5q0 9 3 21t11 26q43 -25 100 -25q38 0 59.5 16
t21.5 46q0 20 -8.5 39t-31.5 39l-97 83q-34 28 -45.5 54.5t-11.5 51.5q0 52 39.5 85t123.5 33z" />
    <glyph glyph-name="t" unicode="t" horiz-adv-x="291" 
d="M86 430h-68q0 23 0.5 37t2 21.5t5.5 9.5t10 2h50v152q0 10 3.5 16t12.5 8.5t25 3t41 0.5v-180h102q0 -24 -0.5 -37.5t-2 -21t-4.5 -9.5t-9 -2h-86v-291q0 -16 0.5 -30.5t4 -25t10.5 -17t21 -6.5q17 0 30 3.5t28 11.5q2 -8 4 -18t2 -22q0 -14 -8 -22.5t-20.5 -13.5
t-27.5 -7t-30 -2q-32 0 -51 10.5t-29 30t-13 47t-3 61.5v291z" />
    <glyph glyph-name="u" unicode="u" horiz-adv-x="390" 
d="M343 26q-29 -16 -68.5 -26t-80.5 -10q-45 0 -74 10t-46 31t-23.5 52t-6.5 73v327q0 6 1.5 9.5t9 5t24.5 2t49 0.5v-351q0 -49 13 -68.5t54 -19.5q14 0 32.5 3.5t34.5 14.5v404q0 6 1.5 9.5t9 5t24 2t46.5 0.5v-474z" />
    <glyph glyph-name="v" unicode="v" horiz-adv-x="344" 
d="M18 475q-2 9 -1 14.5t9.5 7.5t27 2.5t51.5 0.5l32 -160q8 -39 15 -83.5t12 -82.5q6 -44 12 -87h2q5 44 11 88q5 38 11.5 82t14.5 84l27 141q1 7 3 10.5t10.5 5t25 2t47.5 0.5l-115 -503q-11 -2 -29 -2.5t-28 -0.5q-14 0 -22.5 14t-13.5 35z" />
    <glyph glyph-name="w" unicode="w" horiz-adv-x="540" 
d="M15 483q-1 6 1 9.5t11 5t27 2t50 0.5l30 -163q8 -42 14 -85t11 -78q5 -41 10 -80h6q2 13 5 34.5t6.5 47t7.5 52t9 49.5l31 192q2 11 6.5 14t20.5 3h53l39 -210q6 -29 11.5 -60.5t10.5 -58.5q5 -32 9 -63h5q1 22 4.5 51.5t7.5 62.5t9 66t10 63l26 145q1 7 3 10.5t9.5 5
t23.5 2t44 0.5q-30 -141 -53 -252q-10 -47 -19.5 -92.5t-17 -80.5t-12.5 -56.5t-6 -21.5q-5 -1 -13 -2q-7 -1 -16.5 -1h-22.5q-11 0 -24.5 12.5t-18.5 39.5l-13 67q-6 31 -12 65t-10.5 67t-8 63t-5.5 53q-3 -23 -6.5 -53.5t-8 -63.5t-10 -66.5t-11.5 -64.5l-23 -116l-24 -2
q-11 -1 -22.5 -1h-21.5q-14 0 -22 14t-13 35q-5 23 -12 54t-15 66t-16 72.5t-16 73.5q-18 84 -38 174z" />
    <glyph glyph-name="x" unicode="x" horiz-adv-x="410" 
d="M258 266l133 -247q3 -8 3.5 -11.5t-8 -5.5t-28.5 -2h-57l-37 65q-9 16 -18 34.5t-18 36.5t-16.5 34.5t-12.5 28.5q-5 -12 -12.5 -28.5t-15.5 -34.5t-17 -36.5t-18 -34.5l-28 -49q-3 -6 -7 -9.5t-14 -5t-27 -1.5h-45l141 261l-121 226q-3 5 -2.5 7.5t8.5 4t26.5 1.5h52.5
l37 -68q7 -14 15 -30.5t15 -32t13 -29l10 -22.5q4 9 10 22t13.5 29t15.5 32t16 31l30 54q3 5 5.5 8t11 4.5t25.5 1.5h49z" />
    <glyph glyph-name="y" unicode="y" horiz-adv-x="356" 
d="M24 478q-2 8 -2 12.5t7.5 6.5t24.5 2.5t49 0.5l54 -238q6 -28 10.5 -57t8 -54t5.5 -43t3 -23q0 3 2 20.5t5 42.5t7.5 55.5t9.5 59.5l44 213q1 9 3.5 14t11 7t25.5 2.5t48 0.5l-123 -527q-11 -48 -24 -79.5t-29.5 -51t-38 -27.5t-48.5 -8q-45 0 -63 11t-18 28q0 11 3 24.5
t9 21.5q10 -7 28 -11.5t35 -4.5q23 0 42.5 23t30.5 85z" />
    <glyph glyph-name="z" unicode="z" horiz-adv-x="334" 
d="M305 500q2 -2 4 -6q2 -3 3.5 -8t1.5 -11q0 -7 -2 -16.5t-8 -23.5l-188 -360h88q42 0 66 3.5t39 7.5q2 -7 2.5 -18t0.5 -18q-1 -26 -7 -38t-26 -12h-245q-4 3 -7 9q-7 10 -7 31q0 16 7 31l194 360h-102q-29 0 -52 -1.5t-39 -3.5q-2 14 -2.5 23.5t-0.5 15.5q0 35 26 35h254
z" />
    <glyph glyph-name="braceleft" unicode="{" horiz-adv-x="276" 
d="M244 744q8 -11 11.5 -24.5t3.5 -25.5q0 -26 -14 -29q-36 -3 -54.5 -22t-18.5 -58q0 -37 5 -83t5 -100q0 -49 -15 -70t-39 -32q26 -10 40 -30t14 -65q0 -54 -5 -98.5t-5 -84.5q0 -29 5 -46.5t15 -28t25 -15t35 -7.5q3 -20 3 -31q0 -20 -7 -32t-21 -12q-75 0 -106.5 34
t-31.5 101q0 26 2 49.5t5 47t5 48t2 52.5q0 40 -14.5 56.5t-41.5 21.5q-4 8 -5 17t-1 16q0 14 4.5 24.5t12.5 16.5q9 6 17.5 12t14.5 15.5t9.5 25t3.5 40.5q0 54 -7 104t-7 95q0 31 11.5 53.5t32 36.5t49 21t62.5 7z" />
    <glyph glyph-name="bar" unicode="|" horiz-adv-x="323" 
d="M203 -180q0 -8 -1.5 -12t-9.5 -5.5t-24.5 -2t-46.5 -0.5v993q0 8 1.5 12.5t9 6.5t24.5 2.5t47 0.5v-995z" />
    <glyph glyph-name="braceright" unicode="}" horiz-adv-x="276" 
d="M33 -150q-8 11 -11.5 24.5t-3.5 26.5q0 25 15 28q35 3 53.5 22t18.5 58q0 37 -5 82.5t-5 99.5q0 50 14.5 71.5t38.5 31.5q-25 10 -39 30t-14 65q0 54 5 98.5t5 84.5q0 28 -5 46t-15.5 28.5t-25.5 15t-34 7.5q-4 17 -4 31q0 20 8 32t22 12q75 0 106 -34.5t31 -100.5
q0 -26 -2 -49.5t-5 -47t-5 -48t-2 -52.5q0 -40 14 -56.5t41 -21.5q7 -17 7 -33q0 -29 -18 -40q-9 -6 -17 -12.5t-14 -16.5t-9.5 -25.5t-3.5 -39.5q0 -54 7 -104t7 -95q0 -32 -11.5 -54t-32 -36.5t-49 -21t-62.5 -6.5z" />
    <glyph glyph-name="asciitilde" unicode="~" horiz-adv-x="400" 
d="M11 266q6 10 18.5 21.5t29.5 20.5t37.5 15t43.5 6q25 0 41 -6.5t28.5 -15t26 -15t34.5 -6.5t39.5 10.5t30.5 24.5q19 12 34 -3t17 -42q-7 -10 -19 -21.5t-28 -21t-36.5 -15.5t-44.5 -6q-27 0 -43.5 7t-30 15t-26 15t-31.5 7q-15 0 -27 -5.5t-22.5 -12.5l-19.5 -13t-17 -7
q-14 -1 -23.5 12t-11.5 36z" />
    <glyph glyph-name="uni00A0" unicode="&#xa0;" horiz-adv-x="157" 
 />
    <glyph glyph-name="exclamdown" unicode="&#xa1;" horiz-adv-x="195" 
d="M158 451q0 -23 -14.5 -40.5t-41.5 -17.5q-31 0 -43.5 16t-12.5 42q0 23 15 40t41 17q32 0 44 -15.5t12 -41.5zM155 -173q0 -9 -4 -13.5t-16 -7t-34 -3t-57 -0.5l16 452q1 13 5 20.5t13.5 11t25 4.5t38.5 1z" />
    <glyph glyph-name="cent" unicode="&#xa2;" 
d="M286 508q24 -5 41.5 -14.5t17.5 -18.5q0 -2 -0.5 -8.5t-1 -15t-2.5 -18.5t-5 -17q-13 8 -29.5 13t-37.5 5q-19 0 -37.5 -6t-33.5 -26.5t-24.5 -61t-9.5 -109.5q0 -58 5.5 -91t17 -49.5t29 -21t41.5 -4.5q20 0 42 7t36 16q4 -11 6 -26.5t2 -24.5q0 -14 -24 -28.5
t-56 -17.5v-92q0 -21 -18.5 -26.5t-55.5 -5.5v127q-25 4 -45 15.5t-33.5 37.5t-20.5 69.5t-7 111.5q0 73 10.5 123t28.5 81.5t41 48t49 23.5v87q0 21 19 27.5t55 6.5v-117z" />
    <glyph glyph-name="sterling" unicode="&#xa3;" horiz-adv-x="366" 
d="M158 277q0 -54 2 -101.5t6 -94.5l156 -7q4 -10 5 -19.5t1 -17.5q0 -20 -15 -28.5t-36 -8.5h-189q-5 69 -7.5 140t-3.5 137h-62q0 38 2 54.5t14 16.5h46q2 69 14 116t33 76.5t49.5 42t64.5 12.5q39 0 69 -13t30 -40q0 -14 -2.5 -25t-7.5 -25q-17 11 -33.5 16t-37.5 5
t-38.5 -7t-30.5 -25t-20.5 -50t-8.5 -83h130q0 -38 -2 -54.5t-14 -16.5h-114z" />
    <glyph glyph-name="yen" unicode="&#xa5;" 
d="M168 176h-130q0 37 5.5 52.5t26.5 15.5h98v39l-20 58h-110q0 37 5.5 52.5t26.5 15.5h55l-95 278q-2 5 -1 7.5t10 4t28.5 1.5h54.5l39 -137q7 -24 15.5 -52.5t15.5 -55.5t11.5 -49t5.5 -33q1 11 6 33t12 49t15.5 55.5t16.5 52.5l37 122q2 6 4 9t10.5 4.5t25.5 1.5h48
l-95 -291h89q0 -37 -5 -52.5t-26 -15.5h-81l-17 -53v-44h130q0 -37 -5.5 -52.5t-26.5 -15.5h-98v-160q0 -6 -1 -9.5t-8.5 -5t-24 -1.5h-47.5v176z" />
    <glyph glyph-name="brokenbar" unicode="&#xa6;" horiz-adv-x="227" 
d="M154 354q0 -17 -8 -22.5t-34 -5.5q-7 0 -18.5 1t-20.5 3v381q0 18 8.5 25t33.5 7q9 0 19.5 -1.5t19.5 -4.5v-383zM154 -169q0 -18 -8 -23.5t-34 -5.5q-7 0 -18.5 1t-20.5 4v385q0 18 8.5 25.5t33.5 7.5q9 0 19.5 -1.5t19.5 -4.5v-388z" />
    <glyph glyph-name="section" unicode="&#xa7;" horiz-adv-x="348" 
d="M197 703q49 0 75 -14t32 -28q2 -5 2 -9v-8q0 -27 -15 -50q-17 11 -36 17t-45 6q-35 0 -53.5 -13t-18.5 -33q0 -15 7.5 -27.5t22.5 -29.5q9 -10 23 -23t29 -28t29.5 -30.5t25.5 -29.5q18 -23 27 -42.5t9 -48.5q0 -24 -12.5 -52t-43.5 -49l9 -10q20 -26 28.5 -45t8.5 -44
q0 -27 -11.5 -48.5t-32 -36.5t-48.5 -23t-60 -8q-49 0 -75 14.5t-31 28.5q-2 5 -2.5 9t-0.5 7q0 27 15 50q17 -11 36 -17t45 -6q35 0 53.5 13t18.5 33q0 15 -7.5 27.5t-22.5 29.5q-9 10 -23 23.5t-29 28t-29.5 30t-25.5 29.5q-18 23 -27 43t-9 49q0 24 12.5 51.5t43.5 48.5
q-6 6 -8 10q-20 26 -28.5 45.5t-8.5 43.5q0 27 11.5 48.5t31.5 36.5t48 23t60 8zM141 315q9 -12 23 -24t31 -26q19 8 29.5 24.5t10.5 28.5q0 19 -7.5 34t-21.5 32q-10 13 -24.5 25t-31.5 25q-19 -7 -29 -23.5t-10 -29.5q0 -19 8 -34t22 -32z" />
    <glyph glyph-name="dieresis" unicode="&#xa8;" horiz-adv-x="241" 
d="M0 639q0 20 13 35.5t36 15.5q27 0 38.5 -14t11.5 -37q0 -22 -13.5 -36.5t-36.5 -14.5q-27 0 -38 13.5t-11 37.5zM143 639q0 20 12.5 35.5t35.5 15.5q27 0 38.5 -14t11.5 -37q0 -22 -13 -36.5t-37 -14.5q-27 0 -37.5 13.5t-10.5 37.5z" />
    <glyph glyph-name="copyright" unicode="&#xa9;" horiz-adv-x="472" 
d="M294 652q0 -5 -2 -16t-4 -16q-8 2 -15.5 4.5t-18.5 2.5q-9 0 -18 -2.5t-16 -12.5t-11.5 -29.5t-4.5 -52.5q0 -25 3 -39.5t8.5 -22t13.5 -9.5t19 -2q9 0 19.5 3.5t18.5 6.5q3 -6 5 -16t2 -13q0 -8 -16 -14.5t-34 -6.5q-22 0 -38 3.5t-26.5 15.5t-16 34.5t-5.5 60.5
q0 46 8.5 73t22 41t30 18.5t31.5 4.5t30 -5.5t15 -10.5zM35 541q0 114 54.5 166.5t152.5 52.5q49 0 85.5 -11.5t60.5 -37t36 -67t12 -101.5q0 -108 -51.5 -165.5t-150.5 -57.5q-49 0 -86.5 11.5t-62.5 38t-37.5 68.5t-12.5 103zM97 541q0 -46 9 -77t26 -50t42.5 -27t57.5 -8
q30 0 55.5 9t45 28.5t30.5 51t11 76.5q0 85 -33 122.5t-100 37.5q-32 0 -58.5 -8.5t-45.5 -27.5t-29.5 -50t-10.5 -77z" />
    <glyph glyph-name="ordfeminine" unicode="&#xaa;" horiz-adv-x="322" 
d="M52 675q14 15 44 25t80 10q47 0 76.5 -23.5t29.5 -78.5v-291q-20 -10 -55 -19.5t-74 -9.5q-22 0 -42.5 4t-36 16.5t-25 37t-9.5 65.5q0 36 8 59.5t23 37.5t35 20t44 6q16 0 33.5 -3t30.5 -7v57q0 37 -19 47.5t-44 10.5q-27 0 -51.5 -7.5t-42.5 -15.5q-5 5 -7.5 13.5
t-3.5 17t0.5 16t5.5 12.5zM214 468q-9 3 -21.5 5.5t-20.5 2.5q-14 0 -26 -2t-21 -8.5t-14 -20t-5 -36.5q0 -38 17 -50.5t41 -12.5q14 0 28 4t22 8v110z" />
    <glyph glyph-name="guillemotleft" unicode="&#xab;" horiz-adv-x="416" 
d="M18 252q0 6 6 20t16.5 33t23 40.5t26.5 43.5q32 51 73 111q12 0 21 -6.5t15 -14.5q7 -9 13 -20q0 -7 -5 -20t-13.5 -28.5t-19 -33.5t-21.5 -36q-26 -41 -59 -89q34 -48 60 -89q11 -18 22 -35.5t19.5 -33.5t13.5 -28t5 -19q-5 -13 -12 -24q-6 -9 -15.5 -16t-20.5 -7
q-41 60 -74 112q-14 22 -27 44t-23.5 41t-17 33.5t-6.5 21.5zM190 251q0 6 6 19t16.5 30t23 36.5t26.5 39.5q32 46 72 101q11 0 20 -6t15 -13q7 -9 12 -19q0 -14 -18 -45t-39 -63q-26 -38 -57 -80q32 -42 58 -78q22 -31 40 -61t18 -43q-5 -12 -12 -22q-6 -8 -14.5 -15
t-19.5 -7q-41 54 -74 100q-14 19 -27 39t-23.5 37t-16.5 30t-6 20z" />
    <glyph glyph-name="logicalnot" unicode="&#xac;" horiz-adv-x="400" 
d="M358 111q-9 -3 -19 -5t-18 -2q-17 0 -28.5 6.5t-11.5 20.5v101h-241q-6 19 -6 38q0 16 6 27.5t20 11.5h298v-198z" />
    <glyph glyph-name="registered" unicode="&#xae;" horiz-adv-x="472" 
d="M35 541q0 114 54.5 166.5t152.5 52.5q49 0 85.5 -11.5t60.5 -37t36 -67t12 -101.5q0 -108 -51.5 -165.5t-150.5 -57.5q-49 0 -86.5 11.5t-62.5 38t-37.5 68.5t-12.5 103zM97 541q0 -46 9 -77t26 -50t42.5 -27t57.5 -8q30 0 55.5 9t45 28.5t30.5 51t11 76.5
q0 85 -33 122.5t-100 37.5q-32 0 -58.5 -8.5t-45.5 -27.5t-29.5 -50t-10.5 -77zM227 670q42 0 61.5 -19t19.5 -54q0 -25 -9.5 -41.5t-24.5 -26.5q11 -10 24 -34t17 -69q0 -5 -2.5 -7.5t-13.5 -2.5h-12t-13 1q-4 49 -15.5 71t-20.5 29h-24v-92q0 -6 -6 -7t-32 -1v248q0 1 1 2
l2 2t4 1h44zM268 600q0 17 -8 27t-28 10h-18v-86h16q18 0 28 11.5t10 37.5z" />
    <glyph glyph-name="macron" unicode="&#xaf;" horiz-adv-x="267" 
d="M6 593q-4 11 -5 19.5t-1 17.5q0 18 8.5 29t23.5 11h228q7 -17 7 -35t-8 -30t-23 -12h-230z" />
    <glyph glyph-name="degree" unicode="&#xb0;" horiz-adv-x="358" 
d="M83 649q0 51 26.5 74t73.5 23q48 0 70.5 -20t22.5 -76q0 -50 -25.5 -74t-73.5 -24q-46 0 -70 19.5t-24 77.5zM138 648q0 -44 40 -44q20 0 32 10t12 36q0 24 -9.5 34t-28.5 10q-22 0 -34 -10.5t-12 -35.5z" />
    <glyph glyph-name="plusminus" unicode="&#xb1;" horiz-adv-x="419" 
d="M246 289v-123q0 -12 -16.5 -14t-54.5 -2v139h-140q0 38 2 54.5t15 16.5h123v123q0 13 16.5 15t54.5 2v-140h139q0 -38 -2 -54.5t-14 -16.5h-123zM34 14q0 38 2 54.5t15 16.5h333q0 -38 -2 -54.5t-14 -16.5h-334z" />
    <glyph glyph-name="twosuperior" unicode="&#xb2;" horiz-adv-x="384" 
d="M66 589q-10 18 -12.5 28t-2.5 22q0 14 14 27t36.5 22.5t49.5 15.5t54 6q36 0 60 -7.5t38.5 -21.5t20 -33.5t5.5 -43.5q0 -36 -17.5 -68t-43 -61t-54 -56.5t-51.5 -52.5h175q3 -11 4 -19.5t1 -16.5q0 -41 -26 -41h-271q-6 15 -6 27q0 11 3 22.5t9 19.5q30 35 62 64t58 55
t42.5 49.5t16.5 48.5q0 21 -12 36.5t-52 15.5q-32 0 -56.5 -11.5t-44.5 -26.5z" />
    <glyph glyph-name="threesuperior" unicode="&#xb3;" horiz-adv-x="383" 
d="M118 510q0 11 5.5 18t20.5 7q26 0 52 -3q21 15 29.5 29.5t8.5 31.5q0 16 -13 30t-51 14q-30 0 -56.5 -9t-46.5 -24q-15 16 -16.5 37t9.5 30q17 15 53 27t91 12q65 0 93 -26t28 -64q0 -58 -54 -104q32 -14 50 -38.5t18 -54.5q0 -37 -13.5 -64t-37 -45t-55.5 -26.5
t-69 -8.5q-42 0 -69 8t-38 17q-13 10 -13 31q0 12 5.5 24t14.5 20q15 -10 38.5 -17.5t58.5 -7.5q43 0 68.5 16t25.5 46q0 23 -15 36.5t-42 17.5q-14 2 -33.5 2.5t-37.5 0.5q-2 3 -5.5 16.5t-3.5 20.5z" />
    <glyph glyph-name="acute" unicode="&#xb4;" horiz-adv-x="171" 
d="M31 569q-7 0 -12.5 7t-9.5 16q-5 10 -9 23q17 19 39 40t42 38t35 28t18 11q7 0 13.5 -6t11 -15.5t8 -20t4.5 -19.5q-6 -7 -24 -21t-39.5 -30t-42.5 -30t-34 -21z" />
    <glyph glyph-name="mu" unicode="&#xb5;" horiz-adv-x="394" 
d="M349 24q-29 -14 -70 -24t-86 -10q-23 0 -40 6t-27 19v-178q0 -19 -14 -25.5t-32 -6.5q-9 0 -18.5 1.5t-17.5 3.5v660q0 17 9.5 26t32.5 9q8 0 19 -1t21 -4v-369q0 -35 18.5 -49.5t50.5 -14.5q23 0 40.5 4t31.5 10v389q0 17 8 26t32 9q8 0 20 -1t22 -4v-476z" />
    <glyph glyph-name="mu" unicode="&#x3bc;" horiz-adv-x="394" 
d="M349 24q-29 -14 -70 -24t-86 -10q-23 0 -40 6t-27 19v-178q0 -19 -14 -25.5t-32 -6.5q-9 0 -18.5 1.5t-17.5 3.5v660q0 17 9.5 26t32.5 9q8 0 19 -1t21 -4v-369q0 -35 18.5 -49.5t50.5 -14.5q23 0 40.5 4t31.5 10v389q0 17 8 26t32 9q8 0 20 -1t22 -4v-476z" />
    <glyph glyph-name="paragraph" unicode="&#xb6;" horiz-adv-x="541" 
d="M352 26q0 -19 -13 -24t-27 -5t-24.5 2t-17.5 4v202q-14 -8 -36.5 -11.5t-42.5 -3.5q-31 0 -59.5 10.5t-50.5 37t-35 70.5t-13 112q0 77 14.5 132t40.5 90t62.5 51.5t80.5 16.5q38 0 68.5 -8.5t52.5 -19.5v-656zM270 630q-6 3 -18.5 6.5t-32.5 3.5q-50 0 -76 -53t-26 -159
q0 -54 8 -87.5t21.5 -52t30.5 -25.5t34 -7q12 0 29.5 3t29.5 11v360zM496 26q0 -18 -8.5 -23.5t-34.5 -5.5q-7 0 -18.5 1t-20.5 4v656q0 17 8.5 24.5t33.5 7.5q20 0 40 -6v-658z" />
    <glyph glyph-name="periodcentered" unicode="&#xb7;" horiz-adv-x="221" 
d="M53 269q0 23 15 40.5t41 17.5q31 0 43.5 -16t12.5 -42q0 -24 -15 -40.5t-41 -16.5q-32 0 -44 15t-12 42z" />
    <glyph glyph-name="cedilla" unicode="&#xb8;" horiz-adv-x="136" 
d="M82 2l-12 -60h17q18 0 33.5 -14.5t15.5 -49.5q0 -39 -22.5 -61.5t-57.5 -22.5q-12 0 -22 2t-18 4q-9 3 -16 6l4 18l4 14t5 9q5 5 16.5 -2.5t27.5 -7.5q32 0 32 34q0 19 -8 26t-22 7q-10 0 -17.5 -1t-12.5 -2q-6 -1 -11 -2l19 103h45z" />
    <glyph glyph-name="onesuperior" unicode="&#xb9;" horiz-adv-x="381" 
d="M57 599q-10 17 -10 39q0 15 8 24t19 14q18 6 40 12t43.5 11t39 8t25.5 3q5 0 13.5 -0.5t11.5 -2.5v-341h87q3 -21 3 -36q0 -23 -5 -32t-19 -9h-264q-3 11 -4 20t-1 15q0 20 5.5 31t22.5 11h93v255z" />
    <glyph glyph-name="ordmasculine" unicode="&#xba;" horiz-adv-x="338" 
d="M35 499q0 112 38 161.5t101 49.5q33 0 57 -9.5t40 -33t24 -64t8 -102.5q0 -109 -35.5 -160.5t-102.5 -51.5q-31 0 -55.5 9.5t-41 33t-25 64t-8.5 103.5zM104 494q0 -42 4 -69t11.5 -42t19.5 -21t27 -6q32 0 50 32.5t18 110.5q0 42 -4 69t-11.5 42.5t-18.5 21.5t-26 6
q-17 0 -30 -7t-22 -24t-13.5 -44.5t-4.5 -68.5z" />
    <glyph glyph-name="guillemotright" unicode="&#xbb;" horiz-adv-x="414" 
d="M396 252q0 -7 -6.5 -21.5t-17 -33.5t-23.5 -41t-27 -44q-33 -52 -74 -112q-13 4 -24 11q-9 5 -16.5 14t-7.5 22q0 7 5 19t13.5 28t19.5 33.5t22 35.5q26 41 60 89q-33 48 -59 89l-22 36t-19 33.5t-13 28.5t-5 20q0 11 7.5 18.5t16.5 12.5q11 6 25 10q40 -60 72 -111
q13 -22 26.5 -43.5t23.5 -40.5t16.5 -33t6.5 -20zM224 250q0 -7 -6.5 -20.5t-17 -31t-23.5 -37.5t-27 -39q-33 -47 -74 -100q-12 4 -22 11q-8 5 -15 14t-7 22q0 14 18 43.5t40 60.5q26 36 58 77q1 0 -6.5 11.5t-20 29t-27.5 39.5t-28 43t-22 38.5t-9 27.5q0 11 7 18.5
t15 12.5q10 6 22 10q40 -55 72 -102q13 -20 26.5 -40t23.5 -37.5t16.5 -31t6.5 -19.5z" />
    <glyph glyph-name="onequarter" unicode="&#xbc;" horiz-adv-x="869" 
d="M57 599q-10 17 -10 39q0 15 8 24t19 14q18 6 40 12t43.5 11t39 8t25.5 3q5 0 13.5 -0.5t11.5 -2.5v-341h87q3 -21 3 -36q0 -23 -5 -32t-19 -9h-264q-3 11 -4 20t-1 15q0 20 5.5 31t22.5 11h93v255zM759 148h60q2 -7 4 -16.5t2 -21.5q0 -18 -7 -28.5t-18 -10.5h-41v-51
q0 -25 -43 -25q-7 0 -15.5 1t-17.5 3v72h-171q-14 17 -14 40q0 7 2 15t5 18q9 30 26 64.5t37.5 68.5t43 64t43.5 50q17 20 34.5 25.5t36.5 5.5q8 0 17.5 -1.5t15.5 -3.5v-269zM686 143l4 186q-16 -13 -33.5 -34.5t-34 -47t-29.5 -52.5t-20 -52h113zM330 5q-2 -5 -7.5 -10
t-16.5 -5q-12 0 -28 7.5t-29 21.5l335 672q3 8 9 13.5t19 5.5t27.5 -7t27.5 -22z" />
    <glyph glyph-name="onehalf" unicode="&#xbd;" horiz-adv-x="900" 
d="M57 599q-10 17 -10 39q0 15 8 24t19 14q18 6 40 12t43.5 11t39 8t25.5 3q5 0 13.5 -0.5t11.5 -2.5v-341h87q3 -21 3 -36q0 -23 -5 -32t-19 -9h-264q-3 11 -4 20t-1 15q0 20 5.5 31t22.5 11h93v255zM330 5q-2 -5 -7.5 -10t-16.5 -5q-12 0 -28 7.5t-29 21.5l335 672
q3 8 9 13.5t19 5.5t27.5 -7t27.5 -22zM578 300q-10 18 -12.5 28t-2.5 22q0 14 14 27t36.5 22.5t49.5 15.5t54 6q36 0 60 -7.5t38.5 -21.5t20 -33.5t5.5 -43.5q0 -36 -17.5 -68t-43 -61t-54 -56.5t-51.5 -52.5h175q3 -11 4 -19.5t1 -16.5q0 -41 -26 -41h-271q-6 15 -6 27
q0 11 3 22.5t9 19.5q30 35 62 64t58 55t42.5 49.5t16.5 48.5q0 21 -12 36.5t-52 15.5q-32 0 -56.5 -11.5t-44.5 -26.5z" />
    <glyph glyph-name="threequarters" unicode="&#xbe;" horiz-adv-x="866" 
d="M118 510q0 11 5.5 18t20.5 7q26 0 52 -3q21 15 29.5 29.5t8.5 31.5q0 16 -13 30t-51 14q-30 0 -56.5 -9t-46.5 -24q-15 16 -16.5 37t9.5 30q17 15 53 27t91 12q65 0 93 -26t28 -64q0 -58 -54 -104q32 -14 50 -38.5t18 -54.5q0 -37 -13.5 -64t-37 -45t-55.5 -26.5
t-69 -8.5q-42 0 -69 8t-38 17q-13 10 -13 31q0 12 5.5 24t14.5 20q15 -10 38.5 -17.5t58.5 -7.5q43 0 68.5 16t25.5 46q0 23 -15 36.5t-42 17.5q-14 2 -33.5 2.5t-37.5 0.5q-2 3 -5.5 16.5t-3.5 20.5zM756 148h60q2 -7 4 -16.5t2 -21.5q0 -18 -7 -28.5t-18 -10.5h-41v-51
q0 -25 -43 -25q-7 0 -15.5 1t-17.5 3v72h-171q-14 17 -14 40q0 7 2 15t5 18q9 30 26 64.5t37.5 68.5t43 64t43.5 50q17 20 34.5 25.5t36.5 5.5q8 0 17.5 -1.5t15.5 -3.5v-269zM683 143l4 186q-16 -13 -33.5 -34.5t-34 -47t-29.5 -52.5t-20 -52h113zM327 5q-2 -5 -7.5 -10
t-16.5 -5q-12 0 -28 7.5t-29 21.5l335 672q3 8 9 13.5t19 5.5t27.5 -7t27.5 -22z" />
    <glyph glyph-name="questiondown" unicode="&#xbf;" horiz-adv-x="306" 
d="M223 449q0 -23 -14.5 -40.5t-41.5 -17.5q-31 0 -43.5 16t-12.5 42q0 24 15 40.5t41 16.5q32 0 44 -15t12 -42zM153 -195q-63 0 -101 34.5t-38 104.5q0 45 12 79t29.5 61.5t36.5 51t33 48.5q7 12 9.5 24t2.5 23q0 24 -5.5 42.5t-0.5 23.5q4 4 12.5 6.5t19 3.5t21.5 0.5
t20 -1.5q3 -9 7 -20q3 -10 5.5 -23t2.5 -28q0 -17 -3.5 -35t-14.5 -37q-16 -30 -33.5 -54.5t-32 -47.5t-24 -46.5t-9.5 -51.5q0 -23 6.5 -37.5t18 -23t26 -12t30.5 -3.5q33 0 54 9.5t29 15.5q6 -16 9 -31.5t3 -33.5q0 -9 -11 -16.5t-29 -13t-40.5 -9t-44.5 -3.5z" />
    <glyph glyph-name="Agrave" unicode="&#xc0;" horiz-adv-x="437" 
d="M305 178h-172l-39 -164q-2 -8 -8 -12t-30 -4q-8 0 -22.5 0.5t-28.5 2.5l178 688q3 14 31 14q23 0 38 -3l179 -685q2 -8 -4.5 -12.5t-30.5 -4.5h-21t-27 2zM150 252h138l-34 142q-6 25 -11.5 51t-10 51.5t-8 48.5t-5.5 41q-2 -18 -6 -41t-8.5 -48t-9.5 -51.5t-11 -51.5z
M241 771q-3 0 -23 13t-44 30.5t-45.5 34t-27.5 23.5q1 9 4.5 20t8.5 20t11.5 15.5t13.5 6.5q3 0 21 -14t40 -33.5t43 -39.5t29 -31q-4 -13 -8 -23q-4 -8 -10 -15t-13 -7z" />
    <glyph glyph-name="Aacute" unicode="&#xc1;" horiz-adv-x="437" 
d="M305 178h-172l-39 -164q-2 -8 -8 -12t-30 -4q-8 0 -22.5 0.5t-28.5 2.5l178 688q3 14 31 14q23 0 38 -3l179 -685q2 -8 -4.5 -12.5t-30.5 -4.5h-21t-27 2zM150 252h138l-34 142q-6 25 -11.5 51t-10 51.5t-8 48.5t-5.5 41q-2 -18 -6 -41t-8.5 -48t-9.5 -51.5t-11 -51.5z
M202 769q-7 0 -12.5 7t-9.5 16q-5 10 -9 23q17 19 39 40t42 38t35 28t18 11q7 0 13.5 -6t11 -15.5t8 -20t4.5 -19.5q-6 -7 -24 -21t-39.5 -30t-42.5 -30t-34 -21z" />
    <glyph glyph-name="Acircumflex" unicode="&#xc2;" horiz-adv-x="437" 
d="M305 178h-172l-39 -164q-2 -8 -8 -12t-30 -4q-8 0 -22.5 0.5t-28.5 2.5l178 688q3 14 31 14q23 0 38 -3l179 -685q2 -8 -4.5 -12.5t-30.5 -4.5h-21t-27 2zM150 252h138l-34 142q-6 25 -11.5 51t-10 51.5t-8 48.5t-5.5 41q-2 -18 -6 -41t-8.5 -48t-9.5 -51.5t-11 -51.5z
M204 918q6 3 17 3q13 0 25 -12q27 -27 48 -51q18 -20 33.5 -39t15.5 -25q0 -11 -18 -17.5t-40 -6.5q-15 16 -28 30q-11 12 -21.5 25t-15.5 23q-17 -22 -31 -39q-13 -14 -25 -26t-19 -12q-21 0 -34 6.5t-20 17.5z" />
    <glyph glyph-name="Atilde" unicode="&#xc3;" horiz-adv-x="437" 
d="M305 178h-172l-39 -164q-2 -8 -8 -12t-30 -4q-8 0 -22.5 0.5t-28.5 2.5l178 688q3 14 31 14q23 0 38 -3l179 -685q2 -8 -4.5 -12.5t-30.5 -4.5h-21t-27 2zM150 252h138l-34 142q-6 25 -11.5 51t-10 51.5t-8 48.5t-5.5 41q-2 -18 -6 -41t-8.5 -48t-9.5 -51.5t-11 -51.5z
M71 824q26 42 56 58.5t57 16.5q16 0 26 -7.5t18.5 -16t18 -16t24.5 -7.5q18 0 28 6t16 13t10.5 13t10.5 6t11.5 -7.5t9.5 -15.5q4 -10 8 -22q-2 -4 -10.5 -15.5t-23 -24t-33.5 -22t-42 -9.5q-20 0 -31 7.5t-19 16.5t-15.5 16.5t-21.5 7.5q-13 0 -22 -6t-15.5 -13.5
t-11.5 -13.5t-10 -6q-8 0 -15.5 6t-12.5 14q-6 9 -11 21z" />
    <glyph glyph-name="Adieresis" unicode="&#xc4;" horiz-adv-x="437" 
d="M305 178h-172l-39 -164q-2 -8 -8 -12t-30 -4q-8 0 -22.5 0.5t-28.5 2.5l178 688q3 14 31 14q23 0 38 -3l179 -685q2 -8 -4.5 -12.5t-30.5 -4.5h-21t-27 2zM150 252h138l-34 142q-6 25 -11.5 51t-10 51.5t-8 48.5t-5.5 41q-2 -18 -6 -41t-8.5 -48t-9.5 -51.5t-11 -51.5z
M100 839q0 20 13 35.5t36 15.5q27 0 38.5 -14t11.5 -37q0 -22 -13.5 -36.5t-36.5 -14.5q-27 0 -38 13.5t-11 37.5zM243 839q0 20 12.5 35.5t35.5 15.5q27 0 38.5 -14t11.5 -37q0 -22 -13 -36.5t-37 -14.5q-27 0 -37.5 13.5t-10.5 37.5z" />
    <glyph glyph-name="Aring" unicode="&#xc5;" horiz-adv-x="437" 
d="M305 178h-172l-39 -164q-2 -8 -8 -12t-30 -4q-8 0 -22.5 0.5t-28.5 2.5l178 688q3 14 31 14q23 0 38 -3l179 -685q2 -8 -4.5 -12.5t-30.5 -4.5h-21t-27 2zM150 252h138l-34 142q-6 25 -11.5 51t-10 51.5t-8 48.5t-5.5 41q-2 -18 -6 -41t-8.5 -48t-9.5 -51.5t-11 -51.5z
M120 859q0 51 26.5 74.5t73.5 23.5q48 0 70.5 -20.5t22.5 -76.5q0 -49 -25.5 -73.5t-73.5 -24.5q-46 0 -70 20.5t-24 76.5zM178 858q0 -41 37 -41q19 0 30 10t11 33q0 41 -35 41q-20 0 -31.5 -10t-11.5 -33z" />
    <glyph glyph-name="AE" unicode="&#xc6;" horiz-adv-x="615" 
d="M591 73q0 -26 -0.5 -40.5t-2 -21.5t-4.5 -9t-9 -2h-236v178h-165l-68 -164q-3 -8 -10 -12t-28 -4q-8 0 -22.5 0.5t-28.5 2.5l293 685q6 14 26 14h259v-39.5t-1.5 -22t-4.5 -9.5t-9 -2h-160v-209h151q0 -23 -0.5 -38t-2 -23t-4.5 -11t-9 -3h-135v-270h171zM205 252h134
v362q-8 -26 -17 -55t-18.5 -58.5t-20 -57.5l-19.5 -52z" />
    <glyph glyph-name="Ccedilla" unicode="&#xc7;" horiz-adv-x="339" 
d="M228 713q28 0 46 -5t28.5 -13t15 -17.5t4.5 -19.5q0 -14 -4 -27t-9 -22q-8 7 -25 16t-40 9q-24 0 -46.5 -11t-40.5 -44.5t-29 -94t-11 -159.5q0 -76 7.5 -124.5t20.5 -76t31.5 -37.5t40.5 -10q29 0 53.5 10t38.5 21q5 -10 8.5 -23t3.5 -26q0 -26 -27.5 -46t-74.5 -25
l-9 -46h17q18 0 33.5 -14.5t15.5 -49.5q0 -39 -22.5 -61.5t-57.5 -22.5q-12 0 -22 2t-18 4q-9 3 -16 6l4 18l4 14t5 9q5 5 16.5 -2.5t27.5 -7.5q32 0 32 34q0 19 -8 26t-22 7q-10 0 -17.5 -1t-12.5 -2q-6 -1 -11 -2l16 89q-31 3 -57.5 17.5t-45.5 51.5t-29.5 100t-10.5 164
q0 128 18.5 205.5t47 119t63.5 54.5t68 13z" />
    <glyph glyph-name="Egrave" unicode="&#xc8;" horiz-adv-x="320" 
d="M297 73q0 -26 -0.5 -40.5t-2 -21.5t-4.5 -9t-9 -2h-237v683q0 4 2 8q2 3 5.5 6t9.5 3h239v-39.5t-1.5 -22t-4.5 -9.5t-9 -2h-159v-209h150v-38t-1.5 -23t-4.5 -11t-9 -3h-135v-270h171zM205 771q-3 0 -23 13t-44 30.5t-45.5 34t-27.5 23.5q1 9 4.5 20t8.5 20t11.5 15.5
t13.5 6.5q3 0 21 -14t40 -33.5t43 -39.5t29 -31q-4 -13 -8 -23q-4 -8 -10 -15t-13 -7z" />
    <glyph glyph-name="Eacute" unicode="&#xc9;" horiz-adv-x="320" 
d="M297 73q0 -26 -0.5 -40.5t-2 -21.5t-4.5 -9t-9 -2h-237v683q0 4 2 8q2 3 5.5 6t9.5 3h239v-39.5t-1.5 -22t-4.5 -9.5t-9 -2h-159v-209h150v-38t-1.5 -23t-4.5 -11t-9 -3h-135v-270h171zM167 769q-7 0 -12.5 7t-9.5 16q-5 10 -9 23q17 19 39 40t42 38t35 28t18 11
q7 0 13.5 -6t11 -15.5t8 -20t4.5 -19.5q-6 -7 -24 -21t-39.5 -30t-42.5 -30t-34 -21z" />
    <glyph glyph-name="Ecircumflex" unicode="&#xca;" horiz-adv-x="320" 
d="M297 73q0 -26 -0.5 -40.5t-2 -21.5t-4.5 -9t-9 -2h-237v683q0 4 2 8q2 3 5.5 6t9.5 3h239v-39.5t-1.5 -22t-4.5 -9.5t-9 -2h-159v-209h150v-38t-1.5 -23t-4.5 -11t-9 -3h-135v-270h171zM169 918q6 3 17 3q13 0 25 -12q27 -27 48 -51q18 -20 33.5 -39t15.5 -25
q0 -11 -18 -17.5t-40 -6.5q-15 16 -28 30q-11 12 -21.5 25t-15.5 23q-17 -22 -31 -39q-13 -14 -25 -26t-19 -12q-21 0 -34 6.5t-20 17.5z" />
    <glyph glyph-name="Edieresis" unicode="&#xcb;" horiz-adv-x="320" 
d="M297 73q0 -26 -0.5 -40.5t-2 -21.5t-4.5 -9t-9 -2h-237v683q0 4 2 8q2 3 5.5 6t9.5 3h239v-39.5t-1.5 -22t-4.5 -9.5t-9 -2h-159v-209h150v-38t-1.5 -23t-4.5 -11t-9 -3h-135v-270h171zM64 839q0 20 13 35.5t36 15.5q27 0 38.5 -14t11.5 -37q0 -22 -13.5 -36.5
t-36.5 -14.5q-27 0 -38 13.5t-11 37.5zM207 839q0 20 12.5 35.5t35.5 15.5q27 0 38.5 -14t11.5 -37q0 -22 -13 -36.5t-37 -14.5q-27 0 -37.5 13.5t-10.5 37.5z" />
    <glyph glyph-name="Igrave" unicode="&#xcc;" horiz-adv-x="168" 
d="M43 663q0 14 1.5 21.5t9 11t24.5 4t47 0.5v-684q0 -6 -1.5 -9.5t-9 -5t-24.5 -1.5h-47v663zM108 771q-3 0 -23 13t-44 30.5t-45.5 34t-27.5 23.5q1 9 4.5 20t8.5 20t11.5 15.5t13.5 6.5q3 0 21 -14t40 -33.5t43 -39.5t29 -31q-4 -13 -8 -23q-4 -8 -10 -15t-13 -7z" />
    <glyph glyph-name="Iacute" unicode="&#xcd;" horiz-adv-x="168" 
d="M43 663q0 14 1.5 21.5t9 11t24.5 4t47 0.5v-684q0 -6 -1.5 -9.5t-9 -5t-24.5 -1.5h-47v663zM69 769q-7 0 -12.5 7t-9.5 16q-5 10 -9 23q17 19 39 40t42 38t35 28t18 11q7 0 13.5 -6t11 -15.5t8 -20t4.5 -19.5q-6 -7 -24 -21t-39.5 -30t-42.5 -30t-34 -21z" />
    <glyph glyph-name="Icircumflex" unicode="&#xce;" horiz-adv-x="168" 
d="M43 663q0 14 1.5 21.5t9 11t24.5 4t47 0.5v-684q0 -6 -1.5 -9.5t-9 -5t-24.5 -1.5h-47v663zM71 918q6 3 17 3q13 0 25 -12q27 -27 48 -51q18 -20 33.5 -39t15.5 -25q0 -11 -18 -17.5t-40 -6.5q-15 16 -28 30q-11 12 -21.5 25t-15.5 23q-17 -22 -31 -39q-13 -14 -25 -26
t-19 -12q-21 0 -34 6.5t-20 17.5z" />
    <glyph glyph-name="Idieresis" unicode="&#xcf;" horiz-adv-x="168" 
d="M43 663q0 14 1.5 21.5t9 11t24.5 4t47 0.5v-684q0 -6 -1.5 -9.5t-9 -5t-24.5 -1.5h-47v663zM-33 839q0 20 13 35.5t36 15.5q27 0 38.5 -14t11.5 -37q0 -22 -13.5 -36.5t-36.5 -14.5q-27 0 -38 13.5t-11 37.5zM110 839q0 20 12.5 35.5t35.5 15.5q27 0 38.5 -14t11.5 -37
q0 -22 -13 -36.5t-37 -14.5q-27 0 -37.5 13.5t-10.5 37.5z" />
    <glyph glyph-name="Eth" unicode="&#xd0;" horiz-adv-x="393" 
d="M168 700q49 0 86 -15t61.5 -50t36.5 -94t12 -147q0 -113 -13 -188.5t-38 -121.5t-61.5 -65t-82.5 -19h-125v330h-40q0 38 2 55t15 17h23v279q0 9 5 14t22 5h97zM271 394q0 69 -6 114t-18.5 71t-31.5 36t-44 10h-46v-223h79q0 -38 -2 -55t-14 -17h-63v-252l45 -1
q19 0 37.5 10.5t32.5 44t22.5 96t8.5 166.5z" />
    <glyph glyph-name="Ntilde" unicode="&#xd1;" horiz-adv-x="444" 
d="M209 275q-7 17 -19 52.5t-26 77t-27.5 83t-22.5 70.5q2 -24 4 -68t3.5 -90t2 -85.5t0.5 -55.5v-243q0 -6 -1.5 -9.5t-9 -5t-24 -1.5h-46.5v683q0 17 17 17h62l112 -270q7 -20 19.5 -55.5t26.5 -76.5t27 -81.5t22 -68.5v3q-3 22 -4.5 65t-3 88.5t-2 85.5t-0.5 58v235
q0 6 1.5 9.5t9.5 5t24.5 2t46.5 0.5v-684q0 -16 -17 -16h-61zM82 824q26 42 56 58.5t57 16.5q16 0 26 -7.5t18.5 -16t18 -16t24.5 -7.5q18 0 28 6t16 13t10.5 13t10.5 6t11.5 -7.5t9.5 -15.5q4 -10 8 -22q-2 -4 -10.5 -15.5t-23 -24t-33.5 -22t-42 -9.5q-20 0 -31 7.5
t-19 16.5t-15.5 16.5t-21.5 7.5q-13 0 -22 -6t-15.5 -13.5t-11.5 -13.5t-10 -6q-8 0 -15.5 6t-12.5 14q-6 9 -11 21z" />
    <glyph glyph-name="Ograve" unicode="&#xd2;" horiz-adv-x="428" 
d="M30 354q0 100 11.5 168t35.5 109.5t60 59.5t84 18q49 0 83 -17t55 -57.5t30.5 -108.5t9.5 -169q0 -103 -11 -173t-34 -113t-59 -61.5t-85 -18.5q-48 0 -82.5 16t-56 57.5t-31.5 111.5t-10 178zM121 334q0 -70 4.5 -119t15.5 -80.5t28.5 -46t44.5 -14.5t45.5 15t30 49
t16.5 87t5 130q0 75 -4.5 126.5t-15 84t-28 46.5t-44.5 14q-26 0 -44.5 -15.5t-30.5 -50t-17.5 -90t-5.5 -136.5zM243 771q-3 0 -23 13t-44 30.5t-45.5 34t-27.5 23.5q1 9 4.5 20t8.5 20t11.5 15.5t13.5 6.5q3 0 21 -14t40 -33.5t43 -39.5t29 -31q-4 -13 -8 -23
q-4 -8 -10 -15t-13 -7z" />
    <glyph glyph-name="Oacute" unicode="&#xd3;" horiz-adv-x="428" 
d="M30 354q0 100 11.5 168t35.5 109.5t60 59.5t84 18q49 0 83 -17t55 -57.5t30.5 -108.5t9.5 -169q0 -103 -11 -173t-34 -113t-59 -61.5t-85 -18.5q-48 0 -82.5 16t-56 57.5t-31.5 111.5t-10 178zM121 334q0 -70 4.5 -119t15.5 -80.5t28.5 -46t44.5 -14.5t45.5 15t30 49
t16.5 87t5 130q0 75 -4.5 126.5t-15 84t-28 46.5t-44.5 14q-26 0 -44.5 -15.5t-30.5 -50t-17.5 -90t-5.5 -136.5zM205 769q-7 0 -12.5 7t-9.5 16q-5 10 -9 23q17 19 39 40t42 38t35 28t18 11q7 0 13.5 -6t11 -15.5t8 -20t4.5 -19.5q-6 -7 -24 -21t-39.5 -30t-42.5 -30
t-34 -21z" />
    <glyph glyph-name="Ocircumflex" unicode="&#xd4;" horiz-adv-x="428" 
d="M30 354q0 100 11.5 168t35.5 109.5t60 59.5t84 18q49 0 83 -17t55 -57.5t30.5 -108.5t9.5 -169q0 -103 -11 -173t-34 -113t-59 -61.5t-85 -18.5q-48 0 -82.5 16t-56 57.5t-31.5 111.5t-10 178zM121 334q0 -70 4.5 -119t15.5 -80.5t28.5 -46t44.5 -14.5t45.5 15t30 49
t16.5 87t5 130q0 75 -4.5 126.5t-15 84t-28 46.5t-44.5 14q-26 0 -44.5 -15.5t-30.5 -50t-17.5 -90t-5.5 -136.5zM207 918q6 3 17 3q13 0 25 -12q27 -27 48 -51q18 -20 33.5 -39t15.5 -25q0 -11 -18 -17.5t-40 -6.5q-15 16 -28 30q-11 12 -21.5 25t-15.5 23q-17 -22 -31 -39
q-13 -14 -25 -26t-19 -12q-21 0 -34 6.5t-20 17.5z" />
    <glyph glyph-name="Otilde" unicode="&#xd5;" horiz-adv-x="428" 
d="M30 354q0 100 11.5 168t35.5 109.5t60 59.5t84 18q49 0 83 -17t55 -57.5t30.5 -108.5t9.5 -169q0 -103 -11 -173t-34 -113t-59 -61.5t-85 -18.5q-48 0 -82.5 16t-56 57.5t-31.5 111.5t-10 178zM121 334q0 -70 4.5 -119t15.5 -80.5t28.5 -46t44.5 -14.5t45.5 15t30 49
t16.5 87t5 130q0 75 -4.5 126.5t-15 84t-28 46.5t-44.5 14q-26 0 -44.5 -15.5t-30.5 -50t-17.5 -90t-5.5 -136.5zM74 824q26 42 56 58.5t57 16.5q16 0 26 -7.5t18.5 -16t18 -16t24.5 -7.5q18 0 28 6t16 13t10.5 13t10.5 6t11.5 -7.5t9.5 -15.5q4 -10 8 -22
q-2 -4 -10.5 -15.5t-23 -24t-33.5 -22t-42 -9.5q-20 0 -31 7.5t-19 16.5t-15.5 16.5t-21.5 7.5q-13 0 -22 -6t-15.5 -13.5t-11.5 -13.5t-10 -6q-8 0 -15.5 6t-12.5 14q-6 9 -11 21z" />
    <glyph glyph-name="Odieresis" unicode="&#xd6;" horiz-adv-x="428" 
d="M30 354q0 100 11.5 168t35.5 109.5t60 59.5t84 18q49 0 83 -17t55 -57.5t30.5 -108.5t9.5 -169q0 -103 -11 -173t-34 -113t-59 -61.5t-85 -18.5q-48 0 -82.5 16t-56 57.5t-31.5 111.5t-10 178zM121 334q0 -70 4.5 -119t15.5 -80.5t28.5 -46t44.5 -14.5t45.5 15t30 49
t16.5 87t5 130q0 75 -4.5 126.5t-15 84t-28 46.5t-44.5 14q-26 0 -44.5 -15.5t-30.5 -50t-17.5 -90t-5.5 -136.5zM103 839q0 20 13 35.5t36 15.5q27 0 38.5 -14t11.5 -37q0 -22 -13.5 -36.5t-36.5 -14.5q-27 0 -38 13.5t-11 37.5zM246 839q0 20 12.5 35.5t35.5 15.5
q27 0 38.5 -14t11.5 -37q0 -22 -13 -36.5t-37 -14.5q-27 0 -37.5 13.5t-10.5 37.5z" />
    <glyph glyph-name="multiply" unicode="&#xd7;" 
d="M208 227l-75 -83q-9 -8 -22 2.5t-40 36.5l89 98l-89 100q27 26 40 36.5t22 1.5l75 -84l76 84q8 9 21.5 -1.5t40.5 -36.5l-89 -99l89 -99q-27 -26 -40.5 -36.5t-22.5 -2.5z" />
    <glyph glyph-name="Oslash" unicode="&#xd8;" horiz-adv-x="463" 
d="M87 -16q-6 0 -14 1.5t-15.5 4.5t-13.5 8t-7 11q-1 2 3 12.5t9.5 25t11.5 30t11 27.5q-13 42 -19 103t-6 147q0 100 11 168t34.5 110t59 60t84.5 18q38 0 67.5 -10.5t50.5 -35.5l14 35t9 20q13 -1 24 -5q9 -3 17 -7.5t10 -12.5q0 -3 -3.5 -16t-8.5 -29.5t-11 -34.5
t-11 -32q22 -79 22 -225q0 -103 -11 -173.5t-34 -113.5t-59 -61.5t-85 -18.5q-39 0 -68.5 10t-50.5 35q-7 -18 -13 -32.5t-8 -18.5zM138 334q0 -49 1.5 -87.5t5.5 -68.5l148 420q-20 29 -58 29q-26 0 -44.5 -15.5t-30 -50t-17 -90.5t-5.5 -137zM328 355q0 51 -2 90t-6 70
q-17 -48 -38 -108t-42 -118.5t-39.5 -109.5t-29.5 -81q19 -24 53 -24q24 0 43.5 10.5t33 40.5t20.5 85t7 145z" />
    <glyph glyph-name="Ugrave" unicode="&#xd9;" horiz-adv-x="437" 
d="M127 202q0 -30 3 -55.5t13.5 -43.5t29 -28t50.5 -10q26 0 50.5 5.5t37.5 12.5v600q0 6 1.5 9.5t9 5t24.5 2t47 0.5v-674q-19 -12 -64.5 -24t-105.5 -12t-95.5 17t-54.5 46.5t-24.5 68t-5.5 82.5v479q0 6 1.5 9.5t9 5t24.5 2t49 0.5v-498zM243 771q-3 0 -23 13t-44 30.5
t-45.5 34t-27.5 23.5q1 9 4.5 20t8.5 20t11.5 15.5t13.5 6.5q3 0 21 -14t40 -33.5t43 -39.5t29 -31q-4 -13 -8 -23q-4 -8 -10 -15t-13 -7z" />
    <glyph glyph-name="Uacute" unicode="&#xda;" horiz-adv-x="437" 
d="M127 202q0 -30 3 -55.5t13.5 -43.5t29 -28t50.5 -10q26 0 50.5 5.5t37.5 12.5v600q0 6 1.5 9.5t9 5t24.5 2t47 0.5v-674q-19 -12 -64.5 -24t-105.5 -12t-95.5 17t-54.5 46.5t-24.5 68t-5.5 82.5v479q0 6 1.5 9.5t9 5t24.5 2t49 0.5v-498zM205 769q-7 0 -12.5 7t-9.5 16
q-5 10 -9 23q17 19 39 40t42 38t35 28t18 11q7 0 13.5 -6t11 -15.5t8 -20t4.5 -19.5q-6 -7 -24 -21t-39.5 -30t-42.5 -30t-34 -21z" />
    <glyph glyph-name="Ucircumflex" unicode="&#xdb;" horiz-adv-x="437" 
d="M127 202q0 -30 3 -55.5t13.5 -43.5t29 -28t50.5 -10q26 0 50.5 5.5t37.5 12.5v600q0 6 1.5 9.5t9 5t24.5 2t47 0.5v-674q-19 -12 -64.5 -24t-105.5 -12t-95.5 17t-54.5 46.5t-24.5 68t-5.5 82.5v479q0 6 1.5 9.5t9 5t24.5 2t49 0.5v-498zM207 918q6 3 17 3q13 0 25 -12
q27 -27 48 -51q18 -20 33.5 -39t15.5 -25q0 -11 -18 -17.5t-40 -6.5q-15 16 -28 30q-11 12 -21.5 25t-15.5 23q-17 -22 -31 -39q-13 -14 -25 -26t-19 -12q-21 0 -34 6.5t-20 17.5z" />
    <glyph glyph-name="Udieresis" unicode="&#xdc;" horiz-adv-x="437" 
d="M127 202q0 -30 3 -55.5t13.5 -43.5t29 -28t50.5 -10q26 0 50.5 5.5t37.5 12.5v600q0 6 1.5 9.5t9 5t24.5 2t47 0.5v-674q-19 -12 -64.5 -24t-105.5 -12t-95.5 17t-54.5 46.5t-24.5 68t-5.5 82.5v479q0 6 1.5 9.5t9 5t24.5 2t49 0.5v-498zM103 839q0 20 13 35.5t36 15.5
q27 0 38.5 -14t11.5 -37q0 -22 -13.5 -36.5t-36.5 -14.5q-27 0 -38 13.5t-11 37.5zM246 839q0 20 12.5 35.5t35.5 15.5q27 0 38.5 -14t11.5 -37q0 -22 -13 -36.5t-37 -14.5q-27 0 -37.5 13.5t-10.5 37.5z" />
    <glyph glyph-name="Yacute" unicode="&#xdd;" horiz-adv-x="364" 
d="M144 283l-138 404q-2 5 -1 7.5t10 4t28.5 1.5h54.5l40 -137q7 -24 15.5 -55.5t15.5 -62t12 -55.5t6 -36q1 11 6.5 36t12.5 55.5t15.5 62t15.5 55.5l35 122q2 6 4 9t10.5 4.5t25.5 1.5h48l-135 -411v-273q0 -6 -1 -9.5t-8.5 -5t-24 -1.5h-47.5v283zM171 769q-7 0 -12.5 7
t-9.5 16q-5 10 -9 23q17 19 39 40t42 38t35 28t18 11q7 0 13.5 -6t11 -15.5t8 -20t4.5 -19.5q-6 -7 -24 -21t-39.5 -30t-42.5 -30t-34 -21z" />
    <glyph glyph-name="Thorn" unicode="&#xde;" horiz-adv-x="360" 
d="M43 680q0 14 11 17t45 3h25v-125h35q95 0 139.5 -46.5t44.5 -151.5q0 -62 -14.5 -103.5t-40 -67t-59 -36.5t-70.5 -11h-35v-143q0 -6 -1.5 -9.5t-9.5 -5t-24.5 -1.5h-45.5v680zM253 387q0 53 -17.5 85t-61.5 32q-22 0 -34 -0.5t-16 -1.5v-266q2 0 8 -0.5t13 -0.5
t13.5 -0.5t9.5 -0.5q42 0 63.5 34.5t21.5 118.5z" />
    <glyph glyph-name="germandbls" unicode="&#xdf;" horiz-adv-x="465" 
d="M47 550q0 81 44 118t117 37q55 0 93 -12.5t62 -33t35 -46.5t11 -52q0 -34 -17 -54t-37.5 -35t-37.5 -30t-17 -39q0 -16 11.5 -32t29 -33t37.5 -36.5t37.5 -43.5t29 -53.5t11.5 -66.5q0 -69 -40 -108t-110 -39q-60 0 -89.5 15.5t-29.5 29.5q0 22 7 34.5t14 20.5
q7 -7 27.5 -17t52.5 -10q35 0 56 18t21 55q0 39 -24 70.5t-53 61.5t-53 61t-24 69q0 34 17.5 55t38 37t38 31t17.5 38q0 26 -26.5 47.5t-81.5 21.5q-49 0 -67 -29t-18 -96l3 -460q0 -29 -9 -41t-39 -12q-23 0 -35 5q-6 3 -10 6q2 8 5 19q2 9 4 22.5t2 30.5z" />
    <glyph glyph-name="agrave" unicode="&#xe0;" horiz-adv-x="354" 
d="M30 455q0 8 2.5 15.5t8.5 12.5q13 8 54 17.5t98 9.5q65 0 94.5 -27t29.5 -95v-53v-86.5t-1 -84t-2 -76.5t-3 -64q-20 -12 -55 -23t-84 -11q-27 0 -53 4t-46 20t-32 46.5t-12 81.5q0 52 11.5 84t30 50t42.5 24t49 6q17 0 37.5 -2.5t35.5 -10.5v79q0 35 -16 47t-46 12
q-38 0 -74 -6.5t-58 -15.5q-7 12 -9 24.5t-2 21.5zM235 236q-10 5 -23 7t-24 2q-15 0 -28.5 -3.5t-23.5 -14.5t-16 -30.5t-6 -52.5q0 -27 4.5 -44t13 -26.5t20.5 -12.5t27 -3q17 0 31.5 5t21.5 12q1 12 1.5 31.5t1 41.5t0.5 45v43zM201 571q-3 0 -23 13t-44 30.5t-45.5 34
t-27.5 23.5q1 9 4.5 20t8.5 20t11.5 15.5t13.5 6.5q3 0 21 -14t40 -33.5t43 -39.5t29 -31q-4 -13 -8 -23q-4 -8 -10 -15t-13 -7z" />
    <glyph glyph-name="aacute" unicode="&#xe1;" horiz-adv-x="354" 
d="M30 455q0 8 2.5 15.5t8.5 12.5q13 8 54 17.5t98 9.5q65 0 94.5 -27t29.5 -95v-53v-86.5t-1 -84t-2 -76.5t-3 -64q-20 -12 -55 -23t-84 -11q-27 0 -53 4t-46 20t-32 46.5t-12 81.5q0 52 11.5 84t30 50t42.5 24t49 6q17 0 37.5 -2.5t35.5 -10.5v79q0 35 -16 47t-46 12
q-38 0 -74 -6.5t-58 -15.5q-7 12 -9 24.5t-2 21.5zM235 236q-10 5 -23 7t-24 2q-15 0 -28.5 -3.5t-23.5 -14.5t-16 -30.5t-6 -52.5q0 -27 4.5 -44t13 -26.5t20.5 -12.5t27 -3q17 0 31.5 5t21.5 12q1 12 1.5 31.5t1 41.5t0.5 45v43zM162 569q-7 0 -12.5 7t-9.5 16
q-5 10 -9 23q17 19 39 40t42 38t35 28t18 11q7 0 13.5 -6t11 -15.5t8 -20t4.5 -19.5q-6 -7 -24 -21t-39.5 -30t-42.5 -30t-34 -21z" />
    <glyph glyph-name="acircumflex" unicode="&#xe2;" horiz-adv-x="354" 
d="M30 455q0 8 2.5 15.5t8.5 12.5q13 8 54 17.5t98 9.5q65 0 94.5 -27t29.5 -95v-53v-86.5t-1 -84t-2 -76.5t-3 -64q-20 -12 -55 -23t-84 -11q-27 0 -53 4t-46 20t-32 46.5t-12 81.5q0 52 11.5 84t30 50t42.5 24t49 6q17 0 37.5 -2.5t35.5 -10.5v79q0 35 -16 47t-46 12
q-38 0 -74 -6.5t-58 -15.5q-7 12 -9 24.5t-2 21.5zM235 236q-10 5 -23 7t-24 2q-15 0 -28.5 -3.5t-23.5 -14.5t-16 -30.5t-6 -52.5q0 -27 4.5 -44t13 -26.5t20.5 -12.5t27 -3q17 0 31.5 5t21.5 12q1 12 1.5 31.5t1 41.5t0.5 45v43zM164 718q6 3 17 3q13 0 25 -12
q27 -27 48 -51q18 -20 33.5 -39t15.5 -25q0 -11 -18 -17.5t-40 -6.5q-15 16 -28 30q-11 12 -21.5 25t-15.5 23q-17 -22 -31 -39q-13 -14 -25 -26t-19 -12q-21 0 -34 6.5t-20 17.5z" />
    <glyph glyph-name="atilde" unicode="&#xe3;" horiz-adv-x="354" 
d="M30 455q0 8 2.5 15.5t8.5 12.5q13 8 54 17.5t98 9.5q65 0 94.5 -27t29.5 -95v-53v-86.5t-1 -84t-2 -76.5t-3 -64q-20 -12 -55 -23t-84 -11q-27 0 -53 4t-46 20t-32 46.5t-12 81.5q0 52 11.5 84t30 50t42.5 24t49 6q17 0 37.5 -2.5t35.5 -10.5v79q0 35 -16 47t-46 12
q-38 0 -74 -6.5t-58 -15.5q-7 12 -9 24.5t-2 21.5zM235 236q-10 5 -23 7t-24 2q-15 0 -28.5 -3.5t-23.5 -14.5t-16 -30.5t-6 -52.5q0 -27 4.5 -44t13 -26.5t20.5 -12.5t27 -3q17 0 31.5 5t21.5 12q1 12 1.5 31.5t1 41.5t0.5 45v43zM31 624q26 42 56 58.5t57 16.5
q16 0 26 -7.5t18.5 -16t18 -16t24.5 -7.5q18 0 28 6t16 13t10.5 13t10.5 6t11.5 -7.5t9.5 -15.5q4 -10 8 -22q-2 -4 -10.5 -15.5t-23 -24t-33.5 -22t-42 -9.5q-20 0 -31 7.5t-19 16.5t-15.5 16.5t-21.5 7.5q-13 0 -22 -6t-15.5 -13.5t-11.5 -13.5t-10 -6q-8 0 -15.5 6
t-12.5 14q-6 9 -11 21z" />
    <glyph glyph-name="adieresis" unicode="&#xe4;" horiz-adv-x="354" 
d="M30 455q0 8 2.5 15.5t8.5 12.5q13 8 54 17.5t98 9.5q65 0 94.5 -27t29.5 -95v-53v-86.5t-1 -84t-2 -76.5t-3 -64q-20 -12 -55 -23t-84 -11q-27 0 -53 4t-46 20t-32 46.5t-12 81.5q0 52 11.5 84t30 50t42.5 24t49 6q17 0 37.5 -2.5t35.5 -10.5v79q0 35 -16 47t-46 12
q-38 0 -74 -6.5t-58 -15.5q-7 12 -9 24.5t-2 21.5zM235 236q-10 5 -23 7t-24 2q-15 0 -28.5 -3.5t-23.5 -14.5t-16 -30.5t-6 -52.5q0 -27 4.5 -44t13 -26.5t20.5 -12.5t27 -3q17 0 31.5 5t21.5 12q1 12 1.5 31.5t1 41.5t0.5 45v43zM60 639q0 20 13 35.5t36 15.5
q27 0 38.5 -14t11.5 -37q0 -22 -13.5 -36.5t-36.5 -14.5q-27 0 -38 13.5t-11 37.5zM203 639q0 20 12.5 35.5t35.5 15.5q27 0 38.5 -14t11.5 -37q0 -22 -13 -36.5t-37 -14.5q-27 0 -37.5 13.5t-10.5 37.5z" />
    <glyph glyph-name="aring" unicode="&#xe5;" horiz-adv-x="354" 
d="M30 455q0 8 2.5 15.5t8.5 12.5q13 8 54 17.5t98 9.5q65 0 94.5 -27t29.5 -95v-53v-86.5t-1 -84t-2 -76.5t-3 -64q-20 -12 -55 -23t-84 -11q-27 0 -53 4t-46 20t-32 46.5t-12 81.5q0 52 11.5 84t30 50t42.5 24t49 6q17 0 37.5 -2.5t35.5 -10.5v79q0 35 -16 47t-46 12
q-38 0 -74 -6.5t-58 -15.5q-7 12 -9 24.5t-2 21.5zM235 236q-10 5 -23 7t-24 2q-15 0 -28.5 -3.5t-23.5 -14.5t-16 -30.5t-6 -52.5q0 -27 4.5 -44t13 -26.5t20.5 -12.5t27 -3q17 0 31.5 5t21.5 12q1 12 1.5 31.5t1 41.5t0.5 45v43zM80 659q0 51 26.5 74.5t73.5 23.5
q48 0 70.5 -20.5t22.5 -76.5q0 -49 -25.5 -73.5t-73.5 -24.5q-46 0 -70 20.5t-24 76.5zM138 658q0 -41 37 -41q19 0 30 10t11 33q0 41 -35 41q-20 0 -31.5 -10t-11.5 -33z" />
    <glyph glyph-name="ae" unicode="&#xe6;" horiz-adv-x="581" 
d="M31 459q0 8 3.5 14.5t7.5 9.5q14 9 51.5 18t103.5 9q40 0 64 -13t34 -43q23 35 54.5 45.5t67.5 10.5q127 0 127 -159q0 -34 -2.5 -69.5t-8.5 -62.5q-47 -6 -89 -6q-38 0 -69 3.5t-51 7.5q0 -52 5.5 -82.5t16 -46.5t26.5 -20.5t37 -4.5q37 0 67 8.5t55 22.5q4 -12 5.5 -34
t1.5 -39q0 -5 -11 -11.5t-30 -12t-44 -9.5t-53 -4q-31 0 -55.5 5.5t-42.5 22.5q-21 -12 -51.5 -20t-78.5 -8q-27 0 -53 3.5t-46 19t-32 47.5t-12 88q0 52 11.5 85t29.5 52t41.5 26t47.5 7q19 0 40 -2.5t36 -10.5v72q0 35 -19 47t-49 12q-38 0 -69.5 -7t-55.5 -20
q-8 13 -9.5 28.5t-1.5 20.5zM235 250q-11 4 -23.5 6t-23.5 2q-15 0 -28.5 -4.5t-23.5 -16.5t-16 -33.5t-6 -54.5q0 -31 4.5 -49t13 -27.5t20 -12t26.5 -2.5t33 4t24 12v176zM408 439q-15 0 -28.5 -6.5t-24.5 -23.5t-18.5 -46t-10.5 -73q19 -5 45 -9t53 -4q18 0 36 3
q3 14 4 31t1 31q-1 54 -12.5 75.5t-44.5 21.5z" />
    <glyph glyph-name="ccedilla" unicode="&#xe7;" horiz-adv-x="313" 
d="M294 465q0 -8 -2 -20t-7 -25q-12 7 -31 12.5t-39 5.5q-18 0 -35.5 -6t-31.5 -26.5t-23 -60t-9 -106.5q0 -53 5.5 -87t16.5 -54t27.5 -28t39.5 -8q24 0 45 7.5t34 15.5q4 -14 6 -24t2 -20q0 -18 -24 -32t-64 -18l-10 -49h17q18 0 33.5 -14.5t15.5 -49.5q0 -39 -22.5 -61.5
t-57.5 -22.5q-12 0 -22 2t-18 4q-9 3 -16 6l4 18l4 14t5 9q5 5 16.5 -2.5t27.5 -7.5q32 0 32 34q0 19 -8 26t-22 7q-10 0 -17.5 -1t-12.5 -2q-6 -1 -11 -2l17 92q-31 2 -54.5 13.5t-40 39.5t-25 75t-8.5 120q0 90 16.5 143.5t42.5 82t58 37t63 8.5q35 0 59 -12.5t24 -32.5z
" />
    <glyph glyph-name="egrave" unicode="&#xe8;" horiz-adv-x="361" 
d="M208 510q127 0 127 -161q0 -33 -2.5 -68t-8.5 -62q-26 -5 -55 -8t-57.5 -5t-53.5 -2.5t-43 -0.5q1 -40 7.5 -66t17.5 -41t28 -21t40 -6q30 0 59 8.5t55 22.5q4 -11 5.5 -27t1.5 -28t-11 -22t-30 -17.5t-44 -11.5t-53 -4q-35 0 -64.5 9t-50.5 34.5t-33 71.5t-12 119
q0 94 15.5 150.5t40 86.5t56.5 39.5t65 9.5zM199 439q-15 0 -29 -7.5t-25.5 -27t-19 -52t-9.5 -83.5h32t36.5 1.5t36 3.5t30.5 6q3 14 4 30t1 30q-1 54 -13 76.5t-44 22.5zM222 571q-3 0 -23 13t-44 30.5t-45.5 34t-27.5 23.5q1 9 4.5 20t8.5 20t11.5 15.5t13.5 6.5
q3 0 21 -14t40 -33.5t43 -39.5t29 -31q-4 -13 -8 -23q-4 -8 -10 -15t-13 -7z" />
    <glyph glyph-name="eacute" unicode="&#xe9;" horiz-adv-x="361" 
d="M208 510q127 0 127 -161q0 -33 -2.5 -68t-8.5 -62q-26 -5 -55 -8t-57.5 -5t-53.5 -2.5t-43 -0.5q1 -40 7.5 -66t17.5 -41t28 -21t40 -6q30 0 59 8.5t55 22.5q4 -11 5.5 -27t1.5 -28t-11 -22t-30 -17.5t-44 -11.5t-53 -4q-35 0 -64.5 9t-50.5 34.5t-33 71.5t-12 119
q0 94 15.5 150.5t40 86.5t56.5 39.5t65 9.5zM199 439q-15 0 -29 -7.5t-25.5 -27t-19 -52t-9.5 -83.5h32t36.5 1.5t36 3.5t30.5 6q3 14 4 30t1 30q-1 54 -13 76.5t-44 22.5zM183 569q-7 0 -12.5 7t-9.5 16q-5 10 -9 23q17 19 39 40t42 38t35 28t18 11q7 0 13.5 -6t11 -15.5
t8 -20t4.5 -19.5q-6 -7 -24 -21t-39.5 -30t-42.5 -30t-34 -21z" />
    <glyph glyph-name="ecircumflex" unicode="&#xea;" horiz-adv-x="361" 
d="M208 510q127 0 127 -161q0 -33 -2.5 -68t-8.5 -62q-26 -5 -55 -8t-57.5 -5t-53.5 -2.5t-43 -0.5q1 -40 7.5 -66t17.5 -41t28 -21t40 -6q30 0 59 8.5t55 22.5q4 -11 5.5 -27t1.5 -28t-11 -22t-30 -17.5t-44 -11.5t-53 -4q-35 0 -64.5 9t-50.5 34.5t-33 71.5t-12 119
q0 94 15.5 150.5t40 86.5t56.5 39.5t65 9.5zM199 439q-15 0 -29 -7.5t-25.5 -27t-19 -52t-9.5 -83.5h32t36.5 1.5t36 3.5t30.5 6q3 14 4 30t1 30q-1 54 -13 76.5t-44 22.5zM185 718q6 3 17 3q13 0 25 -12q27 -27 48 -51q18 -20 33.5 -39t15.5 -25q0 -11 -18 -17.5t-40 -6.5
q-15 16 -28 30q-11 12 -21.5 25t-15.5 23q-17 -22 -31 -39q-13 -14 -25 -26t-19 -12q-21 0 -34 6.5t-20 17.5z" />
    <glyph glyph-name="edieresis" unicode="&#xeb;" horiz-adv-x="361" 
d="M208 510q127 0 127 -161q0 -33 -2.5 -68t-8.5 -62q-26 -5 -55 -8t-57.5 -5t-53.5 -2.5t-43 -0.5q1 -40 7.5 -66t17.5 -41t28 -21t40 -6q30 0 59 8.5t55 22.5q4 -11 5.5 -27t1.5 -28t-11 -22t-30 -17.5t-44 -11.5t-53 -4q-35 0 -64.5 9t-50.5 34.5t-33 71.5t-12 119
q0 94 15.5 150.5t40 86.5t56.5 39.5t65 9.5zM199 439q-15 0 -29 -7.5t-25.5 -27t-19 -52t-9.5 -83.5h32t36.5 1.5t36 3.5t30.5 6q3 14 4 30t1 30q-1 54 -13 76.5t-44 22.5zM81 639q0 20 13 35.5t36 15.5q27 0 38.5 -14t11.5 -37q0 -22 -13.5 -36.5t-36.5 -14.5
q-27 0 -38 13.5t-11 37.5zM224 639q0 20 12.5 35.5t35.5 15.5q27 0 38.5 -14t11.5 -37q0 -22 -13 -36.5t-37 -14.5q-27 0 -37.5 13.5t-10.5 37.5z" />
    <glyph glyph-name="igrave" unicode="&#xec;" horiz-adv-x="175" 
d="M129 16q0 -6 -1.5 -9.5t-9.5 -5t-24.5 -1.5h-47.5v463q0 14 3.5 21.5t13 11t25.5 4t41 0.5v-484zM112 571q-3 0 -23 13t-44 30.5t-45.5 34t-27.5 23.5q1 9 4.5 20t8.5 20t11.5 15.5t13.5 6.5q3 0 21 -14t40 -33.5t43 -39.5t29 -31q-4 -13 -8 -23q-4 -8 -10 -15t-13 -7z
" />
    <glyph glyph-name="iacute" unicode="&#xed;" horiz-adv-x="175" 
d="M129 16q0 -6 -1.5 -9.5t-9.5 -5t-24.5 -1.5h-47.5v463q0 14 3.5 21.5t13 11t25.5 4t41 0.5v-484zM73 569q-7 0 -12.5 7t-9.5 16q-5 10 -9 23q17 19 39 40t42 38t35 28t18 11q7 0 13.5 -6t11 -15.5t8 -20t4.5 -19.5q-6 -7 -24 -21t-39.5 -30t-42.5 -30t-34 -21z" />
    <glyph glyph-name="icircumflex" unicode="&#xee;" horiz-adv-x="175" 
d="M129 16q0 -6 -1.5 -9.5t-9.5 -5t-24.5 -1.5h-47.5v463q0 14 3.5 21.5t13 11t25.5 4t41 0.5v-484zM76 718q6 3 17 3q13 0 25 -12q27 -27 48 -51q18 -20 33.5 -39t15.5 -25q0 -11 -18 -17.5t-40 -6.5q-15 16 -28 30q-11 12 -21.5 25t-15.5 23q-17 -22 -31 -39
q-13 -14 -25 -26t-19 -12q-21 0 -34 6.5t-20 17.5z" />
    <glyph glyph-name="idieresis" unicode="&#xef;" horiz-adv-x="175" 
d="M129 16q0 -6 -1.5 -9.5t-9.5 -5t-24.5 -1.5h-47.5v463q0 14 3.5 21.5t13 11t25.5 4t41 0.5v-484zM-28 639q0 20 13 35.5t36 15.5q27 0 38.5 -14t11.5 -37q0 -22 -13.5 -36.5t-36.5 -14.5q-27 0 -38 13.5t-11 37.5zM115 639q0 20 12.5 35.5t35.5 15.5q27 0 38.5 -14
t11.5 -37q0 -22 -13 -36.5t-37 -14.5q-27 0 -37.5 13.5t-10.5 37.5z" />
    <glyph glyph-name="eth" unicode="&#xf0;" horiz-adv-x="425" 
d="M316 631q39 -64 59 -148t20 -194q0 -60 -6.5 -114.5t-25 -95.5t-52 -65t-87.5 -24q-45 0 -79 14t-56.5 46t-33.5 82.5t-11 124.5q0 124 43.5 188t116.5 64q54 0 88 -29q-9 35 -22.5 64.5t-31.5 56.5l-94 -37q-14 35 -18 51.5t7 21.5l58 22q-12 12 -25 24t-27 24
q9 17 25.5 27t33.5 10q8 0 16.5 -3t13.5 -10l22 -20t21 -21l69 27q14 -35 18 -51t-7 -21zM312 286q0 28 -1.5 53t-3.5 48q-17 26 -36.5 38t-44.5 12t-43.5 -15t-30.5 -41t-18 -61.5t-6 -75.5q0 -97 24.5 -141.5t69.5 -44.5q31 0 49 18t27 49.5t11.5 72.5t2.5 88z" />
    <glyph glyph-name="ntilde" unicode="&#xf1;" horiz-adv-x="382" 
d="M45 476q15 6 34 12.5t40 11t42.5 7.5t41.5 3q79 0 110 -30.5t31 -103.5v-360q0 -6 -1.5 -9.5t-9.5 -5t-25 -1.5h-48v352q0 48 -11 67.5t-49 19.5q-16 0 -36.5 -4.5t-37.5 -13.5v-405q0 -6 -1.5 -9.5t-9.5 -5t-24 -1.5h-46v476zM51 624q26 42 56 58.5t57 16.5
q16 0 26 -7.5t18.5 -16t18 -16t24.5 -7.5q18 0 28 6t16 13t10.5 13t10.5 6t11.5 -7.5t9.5 -15.5q4 -10 8 -22q-2 -4 -10.5 -15.5t-23 -24t-33.5 -22t-42 -9.5q-20 0 -31 7.5t-19 16.5t-15.5 16.5t-21.5 7.5q-13 0 -22 -6t-15.5 -13.5t-11.5 -13.5t-10 -6q-8 0 -15.5 6
t-12.5 14q-6 9 -11 21z" />
    <glyph glyph-name="ograve" unicode="&#xf2;" horiz-adv-x="368" 
d="M24 250q0 137 43.5 198.5t122.5 61.5q39 0 68.5 -11.5t48.5 -41t28.5 -79t9.5 -125.5q0 -140 -42 -201.5t-122 -61.5q-39 0 -68 9t-49 36.5t-30 79t-10 135.5zM112 248q0 -62 4.5 -99t13.5 -57t22.5 -26.5t30.5 -6.5q16 0 29.5 8t23.5 30t15.5 59t5.5 96q0 60 -4.5 96.5
t-13 56.5t-21.5 27t-31 7q-17 0 -30.5 -8t-23.5 -29t-15.5 -58.5t-5.5 -95.5zM210 571q-3 0 -23 13t-44 30.5t-45.5 34t-27.5 23.5q1 9 4.5 20t8.5 20t11.5 15.5t13.5 6.5q3 0 21 -14t40 -33.5t43 -39.5t29 -31q-4 -13 -8 -23q-4 -8 -10 -15t-13 -7z" />
    <glyph glyph-name="oacute" unicode="&#xf3;" horiz-adv-x="368" 
d="M24 250q0 137 43.5 198.5t122.5 61.5q39 0 68.5 -11.5t48.5 -41t28.5 -79t9.5 -125.5q0 -140 -42 -201.5t-122 -61.5q-39 0 -68 9t-49 36.5t-30 79t-10 135.5zM112 248q0 -62 4.5 -99t13.5 -57t22.5 -26.5t30.5 -6.5q16 0 29.5 8t23.5 30t15.5 59t5.5 96q0 60 -4.5 96.5
t-13 56.5t-21.5 27t-31 7q-17 0 -30.5 -8t-23.5 -29t-15.5 -58.5t-5.5 -95.5zM172 569q-7 0 -12.5 7t-9.5 16q-5 10 -9 23q17 19 39 40t42 38t35 28t18 11q7 0 13.5 -6t11 -15.5t8 -20t4.5 -19.5q-6 -7 -24 -21t-39.5 -30t-42.5 -30t-34 -21z" />
    <glyph glyph-name="ocircumflex" unicode="&#xf4;" horiz-adv-x="368" 
d="M24 250q0 137 43.5 198.5t122.5 61.5q39 0 68.5 -11.5t48.5 -41t28.5 -79t9.5 -125.5q0 -140 -42 -201.5t-122 -61.5q-39 0 -68 9t-49 36.5t-30 79t-10 135.5zM112 248q0 -62 4.5 -99t13.5 -57t22.5 -26.5t30.5 -6.5q16 0 29.5 8t23.5 30t15.5 59t5.5 96q0 60 -4.5 96.5
t-13 56.5t-21.5 27t-31 7q-17 0 -30.5 -8t-23.5 -29t-15.5 -58.5t-5.5 -95.5zM174 718q6 3 17 3q13 0 25 -12q27 -27 48 -51q18 -20 33.5 -39t15.5 -25q0 -11 -18 -17.5t-40 -6.5q-15 16 -28 30q-11 12 -21.5 25t-15.5 23q-17 -22 -31 -39q-13 -14 -25 -26t-19 -12
q-21 0 -34 6.5t-20 17.5z" />
    <glyph glyph-name="otilde" unicode="&#xf5;" horiz-adv-x="368" 
d="M24 250q0 137 43.5 198.5t122.5 61.5q39 0 68.5 -11.5t48.5 -41t28.5 -79t9.5 -125.5q0 -140 -42 -201.5t-122 -61.5q-39 0 -68 9t-49 36.5t-30 79t-10 135.5zM112 248q0 -62 4.5 -99t13.5 -57t22.5 -26.5t30.5 -6.5q16 0 29.5 8t23.5 30t15.5 59t5.5 96q0 60 -4.5 96.5
t-13 56.5t-21.5 27t-31 7q-17 0 -30.5 -8t-23.5 -29t-15.5 -58.5t-5.5 -95.5zM41 624q26 42 56 58.5t57 16.5q16 0 26 -7.5t18.5 -16t18 -16t24.5 -7.5q18 0 28 6t16 13t10.5 13t10.5 6t11.5 -7.5t9.5 -15.5q4 -10 8 -22q-2 -4 -10.5 -15.5t-23 -24t-33.5 -22t-42 -9.5
q-20 0 -31 7.5t-19 16.5t-15.5 16.5t-21.5 7.5q-13 0 -22 -6t-15.5 -13.5t-11.5 -13.5t-10 -6q-8 0 -15.5 6t-12.5 14q-6 9 -11 21z" />
    <glyph glyph-name="odieresis" unicode="&#xf6;" horiz-adv-x="368" 
d="M24 250q0 137 43.5 198.5t122.5 61.5q39 0 68.5 -11.5t48.5 -41t28.5 -79t9.5 -125.5q0 -140 -42 -201.5t-122 -61.5q-39 0 -68 9t-49 36.5t-30 79t-10 135.5zM112 248q0 -62 4.5 -99t13.5 -57t22.5 -26.5t30.5 -6.5q16 0 29.5 8t23.5 30t15.5 59t5.5 96q0 60 -4.5 96.5
t-13 56.5t-21.5 27t-31 7q-17 0 -30.5 -8t-23.5 -29t-15.5 -58.5t-5.5 -95.5zM70 639q0 20 13 35.5t36 15.5q27 0 38.5 -14t11.5 -37q0 -22 -13.5 -36.5t-36.5 -14.5q-27 0 -38 13.5t-11 37.5zM213 639q0 20 12.5 35.5t35.5 15.5q27 0 38.5 -14t11.5 -37q0 -22 -13 -36.5
t-37 -14.5q-27 0 -37.5 13.5t-10.5 37.5z" />
    <glyph glyph-name="divide" unicode="&#xf7;" 
d="M34 246q0 38 2 54.5t15 16.5h333q0 -38 -2 -54.5t-14 -16.5h-334zM158 131q0 21 13 36.5t36 15.5q28 0 39.5 -14.5t11.5 -37.5q0 -21 -13.5 -36t-37.5 -15q-27 0 -38 14t-11 37zM158 427q0 21 13 36.5t36 15.5q28 0 39.5 -14.5t11.5 -37.5q0 -21 -13.5 -36t-37.5 -15
q-27 0 -38 13.5t-11 37.5z" />
    <glyph glyph-name="oslash" unicode="&#xf8;" horiz-adv-x="412" 
d="M62 -26q-12 2 -28.5 11t-16.5 23q0 2 5 11.5t11.5 22t14.5 26t14 23.5q-8 29 -11.5 67.5t-3.5 91.5q0 137 43.5 198.5t122.5 61.5q35 0 62.5 -9.5t47.5 -32.5q11 20 20.5 34.5t13.5 19.5q12 -4 23 -9q8 -5 15.5 -10.5t7.5 -13.5q0 -3 -4.5 -13t-11.5 -23.5t-15.5 -29
t-16.5 -28.5q14 -56 14 -142q0 -70 -10.5 -119.5t-31 -81.5t-51 -47t-69.5 -15q-37 0 -65.5 7.5t-48.5 30.5q-10 -18 -19.5 -34t-11.5 -20zM281 252q0 43 -3 75q-15 -26 -32.5 -57.5t-35 -62.5t-33.5 -59t-27 -47q9 -26 23 -34t34 -8q16 0 29.5 8t23.5 30t15.5 59t5.5 96z
M136 248v-37.5t2 -32.5l126 225q-8 21 -21.5 28.5t-31.5 7.5q-17 0 -31 -8t-23.5 -29t-15 -58.5t-5.5 -95.5z" />
    <glyph glyph-name="ugrave" unicode="&#xf9;" horiz-adv-x="390" 
d="M343 26q-29 -16 -68.5 -26t-80.5 -10q-45 0 -74 10t-46 31t-23.5 52t-6.5 73v327q0 6 1.5 9.5t9 5t24.5 2t49 0.5v-351q0 -49 13 -68.5t54 -19.5q14 0 32.5 3.5t34.5 14.5v404q0 6 1.5 9.5t9 5t24 2t46.5 0.5v-474zM219 571q-3 0 -23 13t-44 30.5t-45.5 34t-27.5 23.5
q1 9 4.5 20t8.5 20t11.5 15.5t13.5 6.5q3 0 21 -14t40 -33.5t43 -39.5t29 -31q-4 -13 -8 -23q-4 -8 -10 -15t-13 -7z" />
    <glyph glyph-name="uacute" unicode="&#xfa;" horiz-adv-x="390" 
d="M343 26q-29 -16 -68.5 -26t-80.5 -10q-45 0 -74 10t-46 31t-23.5 52t-6.5 73v327q0 6 1.5 9.5t9 5t24.5 2t49 0.5v-351q0 -49 13 -68.5t54 -19.5q14 0 32.5 3.5t34.5 14.5v404q0 6 1.5 9.5t9 5t24 2t46.5 0.5v-474zM181 569q-7 0 -12.5 7t-9.5 16q-5 10 -9 23
q17 19 39 40t42 38t35 28t18 11q7 0 13.5 -6t11 -15.5t8 -20t4.5 -19.5q-6 -7 -24 -21t-39.5 -30t-42.5 -30t-34 -21z" />
    <glyph glyph-name="ucircumflex" unicode="&#xfb;" horiz-adv-x="390" 
d="M343 26q-29 -16 -68.5 -26t-80.5 -10q-45 0 -74 10t-46 31t-23.5 52t-6.5 73v327q0 6 1.5 9.5t9 5t24.5 2t49 0.5v-351q0 -49 13 -68.5t54 -19.5q14 0 32.5 3.5t34.5 14.5v404q0 6 1.5 9.5t9 5t24 2t46.5 0.5v-474zM183 718q6 3 17 3q13 0 25 -12q27 -27 48 -51
q18 -20 33.5 -39t15.5 -25q0 -11 -18 -17.5t-40 -6.5q-15 16 -28 30q-11 12 -21.5 25t-15.5 23q-17 -22 -31 -39q-13 -14 -25 -26t-19 -12q-21 0 -34 6.5t-20 17.5z" />
    <glyph glyph-name="udieresis" unicode="&#xfc;" horiz-adv-x="390" 
d="M343 26q-29 -16 -68.5 -26t-80.5 -10q-45 0 -74 10t-46 31t-23.5 52t-6.5 73v327q0 6 1.5 9.5t9 5t24.5 2t49 0.5v-351q0 -49 13 -68.5t54 -19.5q14 0 32.5 3.5t34.5 14.5v404q0 6 1.5 9.5t9 5t24 2t46.5 0.5v-474zM79 639q0 20 13 35.5t36 15.5q27 0 38.5 -14t11.5 -37
q0 -22 -13.5 -36.5t-36.5 -14.5q-27 0 -38 13.5t-11 37.5zM222 639q0 20 12.5 35.5t35.5 15.5q27 0 38.5 -14t11.5 -37q0 -22 -13 -36.5t-37 -14.5q-27 0 -37.5 13.5t-10.5 37.5z" />
    <glyph glyph-name="yacute" unicode="&#xfd;" horiz-adv-x="356" 
d="M24 478q-2 8 -2 12.5t7.5 6.5t24.5 2.5t49 0.5l54 -238q6 -28 10.5 -57t8 -54t5.5 -43t3 -23q0 3 2 20.5t5 42.5t7.5 55.5t9.5 59.5l44 213q1 9 3.5 14t11 7t25.5 2.5t48 0.5l-123 -527q-11 -48 -24 -79.5t-29.5 -51t-38 -27.5t-48.5 -8q-45 0 -63 11t-18 28q0 11 3 24.5
t9 21.5q10 -7 28 -11.5t35 -4.5q23 0 42.5 23t30.5 85zM168 569q-7 0 -12.5 7t-9.5 16q-5 10 -9 23q17 19 39 40t42 38t35 28t18 11q7 0 13.5 -6t11 -15.5t8 -20t4.5 -19.5q-6 -7 -24 -21t-39.5 -30t-42.5 -30t-34 -21z" />
    <glyph glyph-name="thorn" unicode="&#xfe;" horiz-adv-x="383" 
d="M127 502q16 3 32 5t33 2q37 0 67 -9.5t51.5 -33t33 -64t11.5 -102.5q0 -100 -15.5 -161t-38.5 -94t-49.5 -44t-48.5 -11q-28 0 -46 7.5t-30 18.5v-210q-20 -6 -48 -6q-21 0 -27 6.5t-6 27.5v864q0 14 3.5 21.5t12.5 11t25 4t40 0.5v-233zM127 88q9 -17 22.5 -22.5
t28.5 -5.5q12 0 27 7.5t28.5 32t22.5 70.5t9 123q0 47 -5 75.5t-15 44t-24.5 20.5t-33.5 5q-33 0 -60 -21v-329z" />
    <glyph glyph-name="ydieresis" unicode="&#xff;" horiz-adv-x="356" 
d="M24 478q-2 8 -2 12.5t7.5 6.5t24.5 2.5t49 0.5l54 -238q6 -28 10.5 -57t8 -54t5.5 -43t3 -23q0 3 2 20.5t5 42.5t7.5 55.5t9.5 59.5l44 213q1 9 3.5 14t11 7t25.5 2.5t48 0.5l-123 -527q-11 -48 -24 -79.5t-29.5 -51t-38 -27.5t-48.5 -8q-45 0 -63 11t-18 28q0 11 3 24.5
t9 21.5q10 -7 28 -11.5t35 -4.5q23 0 42.5 23t30.5 85zM66 639q0 20 13 35.5t36 15.5q27 0 38.5 -14t11.5 -37q0 -22 -13.5 -36.5t-36.5 -14.5q-27 0 -38 13.5t-11 37.5zM209 639q0 20 12.5 35.5t35.5 15.5q27 0 38.5 -14t11.5 -37q0 -22 -13 -36.5t-37 -14.5
q-27 0 -37.5 13.5t-10.5 37.5z" />
    <glyph glyph-name="dotlessi" unicode="&#x131;" horiz-adv-x="175" 
d="M129 16q0 -6 -1.5 -9.5t-9.5 -5t-24.5 -1.5h-47.5v463q0 14 3.5 21.5t13 11t25.5 4t41 0.5v-484z" />
    <glyph glyph-name="Lslash" unicode="&#x141;" horiz-adv-x="317" 
d="M125 407l97 27q9 -37 11 -53.5t-10 -19.5l-98 -27v-258h172v-60q0 -4 -2 -8q-4 -8 -15 -8h-237v312l-34 -9q-9 36 -10.5 53t10.5 20l34 9v292q0 9 1.5 13.5t9.5 6.5t24.5 2.5t46.5 0.5v-293z" />
    <glyph glyph-name="lslash" unicode="&#x142;" horiz-adv-x="173" 
d="M127 403l43 12q9 -37 11 -53.5t-10 -19.5l-44 -13v-313q0 -6 -1 -9.5t-8.5 -5t-24 -1.5h-47.5v307l-40 -11q-9 37 -10.5 53.5t10.5 20.5l40 11v317q0 14 3.5 21.5t12.5 11t25 4t40 0.5v-332z" />
    <glyph glyph-name="OE" unicode="&#x152;" horiz-adv-x="591" 
d="M567 73v-40.5t-1.5 -21.5t-4.5 -9t-9 -2h-224v40q-42 -49 -121 -49q-48 0 -82.5 16.5t-56 58t-31.5 111t-10 176.5q0 98 11 166t34.5 110t59 61t84.5 19q36 0 64 -9.5t48 -31.5v15q0 4 2 8q2 3 5.5 6t9.5 3h226v-39.5t-1.5 -22t-4.5 -9.5t-9 -2h-160v-209h151v-38
t-1.5 -23t-4.5 -11t-9 -3h-136v-270h171zM118 334q0 -70 4.5 -119.5t15 -81.5t28.5 -47t45 -15t45 15.5t28.5 50t15 88t4.5 130.5q0 75 -3.5 127.5t-13.5 86t-27.5 48.5t-44.5 15q-26 0 -44.5 -16t-30 -52t-17 -92.5t-5.5 -137.5z" />
    <glyph glyph-name="oe" unicode="&#x153;" horiz-adv-x="599" 
d="M27 250q0 137 43.5 198t121.5 61q41 0 70.5 -12.5t49.5 -44.5q25 37 59.5 47.5t71.5 10.5q127 0 127 -159q0 -34 -2.5 -69.5t-8.5 -62.5q-26 -5 -55 -8.5t-57.5 -5t-53.5 -2t-43 -0.5q1 -45 7 -71.5t16.5 -40.5t26 -18t35.5 -4q36 0 66 8.5t56 22.5q4 -11 5.5 -33
t1.5 -39q0 -5 -11 -11.5t-30 -12.5t-44 -10t-53 -4q-40 0 -72 10.5t-53 43.5q-39 -54 -115 -54q-39 0 -69 9t-50 36.5t-30 79t-10 135.5zM115 248q0 -62 4.5 -99t13.5 -57t22.5 -26.5t30.5 -6.5q16 0 29.5 8t23.5 30t15.5 59t5.5 96q0 60 -4.5 96.5t-13 56.5t-21.5 27t-31 7
q-17 0 -30.5 -8t-23.5 -29t-15.5 -58.5t-5.5 -95.5zM434 439q-15 0 -29.5 -7t-25.5 -26t-19 -52t-10 -85h33t36.5 1.5t36 3.5t30.5 6q3 14 4 31t1 31q-1 54 -13 75.5t-44 21.5z" />
    <glyph glyph-name="Scaron" unicode="&#x160;" horiz-adv-x="358" 
d="M198 710q72 0 101.5 -14.5t29.5 -35.5q0 -11 -4.5 -23.5t-15.5 -23.5q-11 8 -37 16.5t-61 8.5q-45 0 -71 -18.5t-26 -50.5q0 -28 11.5 -50t34.5 -49l108 -123q19 -23 32 -43.5t21 -41t11 -41t3 -43.5q0 -38 -9 -72t-29.5 -60t-55 -41t-85.5 -15q-68 0 -99.5 19.5
t-31.5 40.5q0 12 5 28t16 30q16 -14 41.5 -24.5t61.5 -10.5q54 0 76 28t22 74q0 34 -12.5 63t-45.5 67l-101 117q-34 42 -48 75.5t-14 68.5q0 63 43.5 103.5t128.5 40.5zM202 767q-8 0 -26 14.5t-38 33t-37.5 37t-22.5 26.5q5 16 16 33.5t22 17.5q7 0 21.5 -13.5t29.5 -29.5
q18 -19 38 -43q14 20 27 35t24 26q12 12 24 23q15 -8 24 -18t9 -19q0 -8 -15 -28t-34.5 -41t-37.5 -37.5t-24 -16.5z" />
    <glyph glyph-name="scaron" unicode="&#x161;" horiz-adv-x="345" 
d="M194 510q39 0 63.5 -6t38.5 -14.5t19 -18.5t5 -17q0 -21 -18 -41q-43 26 -98 26q-35 0 -57 -12.5t-22 -35.5q0 -14 7 -27.5t33 -34.5l93 -75q32 -32 45.5 -59.5t13.5 -65.5q0 -67 -44 -103t-121 -36q-54 0 -88 12.5t-34 38.5q0 9 3 21t11 26q43 -25 100 -25q38 0 59.5 16
t21.5 46q0 20 -8.5 39t-31.5 39l-97 83q-34 28 -45.5 54.5t-11.5 51.5q0 52 39.5 85t123.5 33zM196 567q-8 0 -26 14.5t-38 33t-37.5 37t-22.5 26.5q5 16 16 33.5t22 17.5q7 0 21.5 -13.5t29.5 -29.5q18 -19 38 -43q14 20 27 35t24 26q12 12 24 23q15 -8 24 -18t9 -19
q0 -8 -15 -28t-34.5 -41t-37.5 -37.5t-24 -16.5z" />
    <glyph glyph-name="Ydieresis" unicode="&#x178;" horiz-adv-x="364" 
d="M144 283l-138 404q-2 5 -1 7.5t10 4t28.5 1.5h54.5l40 -137q7 -24 15.5 -55.5t15.5 -62t12 -55.5t6 -36q1 11 6.5 36t12.5 55.5t15.5 62t15.5 55.5l35 122q2 6 4 9t10.5 4.5t25.5 1.5h48l-135 -411v-273q0 -6 -1 -9.5t-8.5 -5t-24 -1.5h-47.5v283zM68 839q0 20 13 35.5
t36 15.5q27 0 38.5 -14t11.5 -37q0 -22 -13.5 -36.5t-36.5 -14.5q-27 0 -38 13.5t-11 37.5zM211 839q0 20 12.5 35.5t35.5 15.5q27 0 38.5 -14t11.5 -37q0 -22 -13 -36.5t-37 -14.5q-27 0 -37.5 13.5t-10.5 37.5z" />
    <glyph glyph-name="Zcaron" unicode="&#x17d;" horiz-adv-x="385" 
d="M44 683q0 17 17 17h299q4 -6 6 -11.5t2 -15.5q0 -20 -8 -36l-255 -564h193q17 0 32 1t27 6v-64q0 -7 -3 -11.5t-14 -4.5h-312q-5 5 -9 13t-4 19q0 17 8 36l251 559h-186q-14 0 -25.5 -0.5t-18.5 -2.5v59zM214 767q-8 0 -26 14.5t-38 33t-37.5 37t-22.5 26.5q5 16 16 33.5
t22 17.5q7 0 21.5 -13.5t29.5 -29.5q18 -19 38 -43q14 20 27 35t24 26q12 12 24 23q15 -8 24 -18t9 -19q0 -8 -15 -28t-34.5 -41t-37.5 -37.5t-24 -16.5z" />
    <glyph glyph-name="zcaron" unicode="&#x17e;" horiz-adv-x="334" 
d="M305 500q2 -2 4 -6q2 -3 3.5 -8t1.5 -11q0 -7 -2 -16.5t-8 -23.5l-188 -360h88q42 0 66 3.5t39 7.5q2 -7 2.5 -18t0.5 -18q-1 -26 -7 -38t-26 -12h-245q-4 3 -7 9q-7 10 -7 31q0 16 7 31l194 360h-102q-29 0 -52 -1.5t-39 -3.5q-2 14 -2.5 23.5t-0.5 15.5q0 35 26 35h254
zM177 567q-8 0 -26 14.5t-38 33t-37.5 37t-22.5 26.5q5 16 16 33.5t22 17.5q7 0 21.5 -13.5t29.5 -29.5q18 -19 38 -43q14 20 27 35t24 26q12 12 24 23q15 -8 24 -18t9 -19q0 -8 -15 -28t-34.5 -41t-37.5 -37.5t-24 -16.5z" />
    <glyph glyph-name="longs" unicode="&#x17f;" horiz-adv-x="174" 
d="M46 588q0 81 44 115.5t129 34.5q51 0 84 -16t33 -37q0 -11 -6.5 -25.5t-14.5 -24.5q-23 17 -45 24.5t-53 7.5q-49 0 -69 -26.5t-20 -83.5v-527q0 -24 -10.5 -31t-37.5 -7q-12 0 -20 2t-13 4q-6 3 -9 6q2 10 4 21q2 10 3 22t1 26v515z" />
    <glyph glyph-name="florin" unicode="&#x192;" horiz-adv-x="467" 
d="M274 429v-452q0 -59 -15.5 -93.5t-40 -52t-54.5 -22.5t-58 -5q-53 0 -73 12.5t-20 31.5q0 11 2.5 20.5t6.5 20.5q19 -8 36.5 -10t34.5 -2q20 0 38 2.5t32 12t22 28t8 51.5v458h-123q0 38 2 54.5t15 16.5h106v64q0 60 15.5 94.5t40 52t54 22.5t58.5 5q54 0 73.5 -13
t19.5 -31q0 -11 -2.5 -21t-6.5 -21q-19 8 -36.5 10t-34.5 2q-20 0 -38 -2.5t-31.5 -12t-22 -28t-8.5 -50.5v-71h146q0 -38 -2 -54.5t-14 -16.5h-130z" />
    <glyph glyph-name="uni0237" unicode="&#x237;" horiz-adv-x="184" 
d="M135 -36q0 -33 -5.5 -62t-19.5 -51t-40 -34.5t-66 -12.5q-56 0 -81 14.5t-25 38.5q0 11 2.5 22t9.5 20q34 -20 84 -20q38 0 49 22.5t11 75.5v486q0 14 3.5 21.5t12.5 11t24.5 4t40.5 0.5v-536z" />
    <glyph glyph-name="circumflex" unicode="&#x2c6;" horiz-adv-x="252" 
d="M113 718q6 3 17 3q13 0 25 -12q27 -27 48 -51q18 -20 33.5 -39t15.5 -25q0 -11 -18 -17.5t-40 -6.5q-15 16 -28 30q-11 12 -21.5 25t-15.5 23q-17 -22 -31 -39q-13 -14 -25 -26t-19 -12q-21 0 -34 6.5t-20 17.5z" />
    <glyph glyph-name="caron" unicode="&#x2c7;" horiz-adv-x="235" 
d="M124 567q-8 0 -26 14.5t-38 33t-37.5 37t-22.5 26.5q5 16 16 33.5t22 17.5q7 0 21.5 -13.5t29.5 -29.5q18 -19 38 -43q14 20 27 35t24 26q12 12 24 23q15 -8 24 -18t9 -19q0 -8 -15 -28t-34.5 -41t-37.5 -37.5t-24 -16.5z" />
    <glyph glyph-name="breve" unicode="&#x2d8;" horiz-adv-x="258" 
d="M42 723q4 -11 11 -25t17.5 -26t24 -20t30.5 -8t29 6t20.5 16t15 21.5t11.5 22.5q6 10 15 10t17.5 -6t15.5 -16t9 -20q-8 -22 -19.5 -42t-28 -35.5t-38 -24.5t-48.5 -9q-26 0 -48.5 11.5t-39.5 28t-26.5 36t-9.5 35.5q0 17 9.5 27t32.5 18z" />
    <glyph glyph-name="dotaccent" unicode="&#x2d9;" horiz-adv-x="88" 
d="M0 659q1 27 12 43.5t35 16.5q23 0 32 -13t8 -45q0 -31 -11.5 -48t-34.5 -17q-20 0 -30.5 14t-10.5 49z" />
    <glyph glyph-name="ring" unicode="&#x2da;" horiz-adv-x="193" 
d="M0 659q0 51 26.5 74.5t73.5 23.5q48 0 70.5 -20.5t22.5 -76.5q0 -49 -25.5 -73.5t-73.5 -24.5q-46 0 -70 20.5t-24 76.5zM58 658q0 -41 37 -41q19 0 30 10t11 33q0 41 -35 41q-20 0 -31.5 -10t-11.5 -33z" />
    <glyph glyph-name="ogonek" unicode="&#x2db;" horiz-adv-x="143" 
d="M99 24q12 2 20 -1q8 -2 14.5 -8.5t8.5 -14.5q-12 -8 -24.5 -19t-22 -24.5t-16 -28t-6.5 -28.5q0 -36 32 -36q16 0 29 8q8 -18 8 -31q0 -11 -2 -15q-5 -11 -20.5 -16t-37.5 -5q-35 0 -58.5 18.5t-23.5 66.5q0 25 9.5 48t24 41.5t32 30t33.5 14.5z" />
    <glyph glyph-name="tilde" unicode="&#x2dc;" horiz-adv-x="294" 
d="M0 624q26 42 56 58.5t57 16.5q16 0 26 -7.5t18.5 -16t18 -16t24.5 -7.5q18 0 28 6t16 13t10.5 13t10.5 6t11.5 -7.5t9.5 -15.5q4 -10 8 -22q-2 -4 -10.5 -15.5t-23 -24t-33.5 -22t-42 -9.5q-20 0 -31 7.5t-19 16.5t-15.5 16.5t-21.5 7.5q-13 0 -22 -6t-15.5 -13.5
t-11.5 -13.5t-10 -6q-8 0 -15.5 6t-12.5 14q-6 9 -11 21z" />
    <glyph glyph-name="hungarumlaut" unicode="&#x2dd;" horiz-adv-x="320" 
d="M124 745q7 22 34 22q22 0 39 -18q10 10 25 10q18 0 33.5 -15t16.5 -42l-118 -133q-7 -7 -18 -7q-16 0 -29 13q-9 -11 -23 -11q-11 0 -23 7t-17 21z" />
    <glyph glyph-name="Delta" unicode="&#x394;" horiz-adv-x="427" 
d="M165 652q3 16 9.5 26.5t14.5 16t16.5 7.5t15.5 2q17 0 27 -4t16 -9l144 -691h-384zM116 77h203l-100 513h-4z" />
    <glyph glyph-name="Delta" unicode="&#x2206;" horiz-adv-x="427" 
d="M165 652q3 16 9.5 26.5t14.5 16t16.5 7.5t15.5 2q17 0 27 -4t16 -9l144 -691h-384zM116 77h203l-100 513h-4z" />
    <glyph glyph-name="Omega" unicode="&#x3a9;" horiz-adv-x="435" 
d="M242 0q13 31 25.5 68t23 81t17 94t6.5 106q0 76 -5.5 128.5t-17 85t-29.5 47t-42 14.5t-42.5 -11t-30.5 -39.5t-18.5 -77t-6.5 -124.5q0 -57 6 -111.5t16 -102.5t22.5 -88t25.5 -70h-150q-2 7 -4.5 16.5t-2.5 20.5q0 12 5.5 26t21.5 14h51q-12 17 -25 45t-24 66.5t-18 88
t-7 108.5q0 169 45 247t146 78q47 0 79 -18t51.5 -57t28 -100t8.5 -146q0 -63 -7.5 -114t-19 -90t-24.5 -66t-24 -42h70q3 -8 5 -17.5t2 -20.5q0 -13 -6 -26t-22 -13h-129z" />
    <glyph glyph-name="Omega" unicode="&#x2126;" horiz-adv-x="435" 
d="M242 0q13 31 25.5 68t23 81t17 94t6.5 106q0 76 -5.5 128.5t-17 85t-29.5 47t-42 14.5t-42.5 -11t-30.5 -39.5t-18.5 -77t-6.5 -124.5q0 -57 6 -111.5t16 -102.5t22.5 -88t25.5 -70h-150q-2 7 -4.5 16.5t-2.5 20.5q0 12 5.5 26t21.5 14h51q-12 17 -25 45t-24 66.5t-18 88
t-7 108.5q0 169 45 247t146 78q47 0 79 -18t51.5 -57t28 -100t8.5 -146q0 -63 -7.5 -114t-19 -90t-24.5 -66t-24 -42h70q3 -8 5 -17.5t2 -20.5q0 -13 -6 -26t-22 -13h-129z" />
    <glyph glyph-name="pi" unicode="&#x3c0;" horiz-adv-x="438" 
d="M352 423v-398q0 -17 -15.5 -23t-29.5 -6q-8 0 -17 1t-20 4v422h-108v-398q0 -17 -15 -23t-31 -6q-9 0 -18 1t-17 4v422h-45q-2 7 -4 15t-2 19q0 16 5 29.5t21 13.5h345q3 -8 5 -17t2 -19q0 -17 -7.5 -29t-21.5 -12h-27z" />
    <glyph glyph-name="endash" unicode="&#x2013;" horiz-adv-x="424" 
d="M37 246q0 38 2 54.5t14 16.5h334q0 -38 -2 -54.5t-15 -16.5h-333z" />
    <glyph glyph-name="emdash" unicode="&#x2014;" horiz-adv-x="700" 
d="M6 246q0 38 2 54.5t14 16.5h672q0 -38 -2 -54.5t-15 -16.5h-671z" />
    <glyph glyph-name="quoteleft" unicode="&#x2018;" horiz-adv-x="175" 
d="M139 627q0 -22 -14 -37t-37 -15q-54 0 -54 59q0 27 9 56t21.5 52t25 38t19.5 15q11 0 19.5 -5t12.5 -18q-16 -29 -19.5 -51.5t-5.5 -44.5q23 -14 23 -49z" />
    <glyph glyph-name="quoteright" unicode="&#x2019;" horiz-adv-x="175" 
d="M36 740q0 23 14 37.5t36 14.5q55 0 55 -59q0 -27 -9 -56t-21.5 -52t-25 -38t-19.5 -15q-11 0 -20 5t-12 18q16 29 19.5 52t5.5 44q-23 14 -23 49z" />
    <glyph glyph-name="quotesinglbase" unicode="&#x201a;" horiz-adv-x="171" 
d="M36 54q0 22 14 37t36 15q55 0 55 -59q0 -28 -9 -56.5t-21.5 -52t-25 -38t-19.5 -14.5q-11 0 -20 5t-12 18q16 29 19.5 51.5t5.5 44.5q-23 14 -23 49z" />
    <glyph glyph-name="quotedblleft" unicode="&#x201c;" horiz-adv-x="325" 
d="M139 627q0 -22 -14 -37t-37 -15q-54 0 -54 59q0 27 9 56t21.5 52t25 38t19.5 15q11 0 19.5 -5t12.5 -18q-16 -29 -19.5 -51.5t-5.5 -44.5q23 -14 23 -49zM289 627q0 -22 -14 -37t-36 -15q-55 0 -55 59q0 27 9 56t21.5 52t25 38t19.5 15q11 0 20 -5t12 -18
q-16 -29 -19.5 -51.5t-5.5 -44.5q23 -14 23 -49z" />
    <glyph glyph-name="quotedblright" unicode="&#x201d;" horiz-adv-x="325" 
d="M186 740q0 23 14 37.5t37 14.5q55 0 55 -59q0 -27 -9 -56t-21.5 -52t-25.5 -38t-20 -15q-11 0 -19.5 5t-11.5 18q15 29 18.5 52t5.5 44q-23 14 -23 49zM36 740q0 23 14 37.5t36 14.5q55 0 55 -59q0 -27 -9 -56t-21.5 -52t-25 -38t-19.5 -15q-11 0 -20 5t-12 18
q16 29 19.5 52t5.5 44q-23 14 -23 49z" />
    <glyph glyph-name="quotedblbase" unicode="&#x201e;" horiz-adv-x="322" 
d="M186 54q0 22 14 37t37 15q55 0 55 -59q0 -28 -9 -56.5t-21.5 -52t-25.5 -38t-20 -14.5q-11 0 -19.5 5t-11.5 18q15 29 18.5 51.5t5.5 44.5q-23 14 -23 49zM36 54q0 22 14 37t36 15q55 0 55 -59q0 -28 -9 -56.5t-21.5 -52t-25 -38t-19.5 -14.5q-11 0 -20 5t-12 18
q16 29 19.5 51.5t5.5 44.5q-23 14 -23 49z" />
    <glyph glyph-name="dagger" unicode="&#x2020;" horiz-adv-x="430" 
d="M173 668q-4 20 11 29.5t35 9.5q26 0 42 -18l-23 -177q-5 -17 -18 -17.5t-24 7.5zM361 515q19 7 28.5 -8t9.5 -36q0 -13 -4.5 -24.5t-12.5 -18.5l-120 21q-16 5 -17 18t6 25zM69 429q-19 -4 -29 10.5t-10 32.5q0 13 4.5 25t14.5 20l120 -23q19 -7 19.5 -20t-7.5 -24z
M259 33q2 -20 -12 -29.5t-32 -9.5q-13 0 -24.5 4.5t-19.5 13.5l23 412q1 10 6 14.5t11.5 5.5t13.5 -1.5t12 -6.5z" />
    <glyph glyph-name="daggerdbl" unicode="&#x2021;" horiz-adv-x="430" 
d="M189 421q0 18 16 23t37 -5v-169q0 -16 -15 -20t-38 4v167zM173 668q-4 20 11 29.5t35 9.5q26 0 42 -18l-23 -177q-5 -17 -18 -17.5t-24 7.5zM361 515q19 7 28.5 -8t9.5 -36q0 -13 -4.5 -24.5t-12.5 -18.5l-120 21q-16 5 -17 18t6 25zM69 429q-19 -4 -29 10.5t-10 32.5
q0 13 4.5 25t14.5 20l120 -23q19 -7 19.5 -20t-7.5 -24zM257 35q2 -10 -1 -17t-10 -11.5t-16 -7t-19 -2.5q-12 0 -23 4.5t-19 13.5l22 166q5 17 18.5 18t24.5 -7zM68 178q-9 -4 -16.5 -1.5t-12 9.5t-7 16.5t-2.5 20.5q0 13 4.5 24.5t13.5 18.5l120 -22q15 -4 16 -17.5
t-5 -25.5zM360 264q19 3 29 -11.5t10 -32.5q0 -12 -4.5 -24t-13.5 -20l-121 23q-18 6 -18.5 19t6.5 24z" />
    <glyph glyph-name="bullet" unicode="&#x2022;" horiz-adv-x="223" 
d="M41 284q0 31 19 54t54 23q41 0 58 -21t17 -56q0 -32 -20 -54t-55 -22q-41 0 -57 20.5t-16 55.5z" />
    <glyph glyph-name="ellipsis" unicode="&#x2026;" horiz-adv-x="522" 
d="M36 51q0 23 14.5 40.5t41.5 17.5q31 0 43.5 -16t12.5 -42q0 -24 -15 -40.5t-41 -16.5q-32 0 -44 15t-12 42zM205 51q0 23 14.5 40.5t41.5 17.5q31 0 43.5 -16t12.5 -42q0 -24 -15 -40.5t-41 -16.5q-32 0 -44 15t-12 42zM375 51q0 23 14.5 40.5t41.5 17.5q31 0 43.5 -16
t12.5 -42q0 -24 -15 -40.5t-41 -16.5q-32 0 -44 15t-12 42z" />
    <glyph glyph-name="perthousand" unicode="&#x2030;" horiz-adv-x="981" 
d="M155 -9q-14 4 -25 9q-10 4 -17.5 9.5t-7.5 12.5l404 687q12 -5 23 -10q8 -5 15.5 -11t7.5 -14q0 -2 -17 -32.5t-45.5 -79t-64.5 -110t-73 -124.5q-88 -149 -200 -337zM44 526q0 95 37 139t105 44q33 0 58 -8.5t41.5 -29.5t25 -56t8.5 -88q0 -97 -35.5 -142t-103.5 -45
q-33 0 -58.5 7t-43 27t-26 56.5t-8.5 95.5zM122 524q0 -38 4 -62t11.5 -37t18.5 -17.5t26 -4.5q13 0 24.5 6t19.5 20t13 37.5t5 59.5q0 37 -3.5 60.5t-11 36.5t-18 18t-25.5 5t-26.5 -5.5t-20 -19.5t-13 -37.5t-4.5 -59.5zM364 176q0 96 37 139.5t105 43.5q33 0 58 -8.5
t41.5 -29t25 -55.5t8.5 -88q0 -97 -35.5 -142t-104.5 -45q-33 0 -58 7t-42.5 27t-26 56t-8.5 95zM442 174q0 -38 4 -61.5t11.5 -36.5t18.5 -17.5t26 -4.5q13 0 24 6t19.5 20t13 37.5t4.5 59.5q0 37 -3.5 60.5t-10.5 36.5t-18 17.5t-26 4.5q-14 0 -26 -5.5t-20 -19
t-12.5 -37.5t-4.5 -60zM663 176q0 96 37 139.5t104 43.5q33 0 58 -8.5t41.5 -29t25 -55.5t8.5 -88q0 -97 -35.5 -142t-103.5 -45q-33 0 -58.5 7t-42.5 27t-25.5 56t-8.5 95zM740 174q0 -38 4 -61.5t11.5 -36.5t18.5 -17.5t26 -4.5q27 0 44.5 26t17.5 97q0 37 -3.5 60.5
t-10.5 36.5t-18 17.5t-26 4.5q-14 0 -26 -5.5t-20.5 -19t-13 -37.5t-4.5 -60z" />
    <glyph glyph-name="guilsinglleft" unicode="&#x2039;" horiz-adv-x="247" 
d="M18 250q0 6 6 20.5t16.5 33t23 40.5t26.5 44q32 51 73 112q12 0 21 -6.5t15 -14.5q7 -9 13 -20q0 -7 -5 -20t-13.5 -29t-19 -34t-21.5 -36q-26 -42 -59 -90q34 -48 60 -88q11 -17 22 -34.5t19.5 -33.5t13.5 -28t5 -19q-5 -13 -12 -24q-6 -9 -15.5 -16t-20.5 -7
q-41 60 -74 111q-14 22 -27 44t-23.5 40.5t-17 33t-6.5 21.5z" />
    <glyph glyph-name="guilsinglright" unicode="&#x203a;" horiz-adv-x="247" 
d="M229 250q0 -7 -6.5 -21.5t-17 -33t-23.5 -40.5t-27 -44q-33 -51 -74 -111q-14 4 -25 11q-9 5 -16.5 14t-7.5 22q0 7 5 19t13.5 28t19.5 33.5t22 34.5q26 40 60 88q-33 48 -59 90q-11 18 -21.5 36t-18.5 34t-13 29t-5 20q0 11 7.5 18.5t16.5 12.5q11 6 24 10
q40 -61 73 -112q13 -22 26.5 -44t23.5 -40.5t16.5 -33t6.5 -20.5z" />
    <glyph glyph-name="fraction" unicode="&#x2044;" horiz-adv-x="195" 
d="M-26 5q-2 -5 -7.5 -10t-16.5 -5q-12 0 -28 7.5t-29 21.5l335 672q3 8 9 13.5t19 5.5t27.5 -7t27.5 -22z" />
    <glyph glyph-name="uni2074" unicode="&#x2074;" horiz-adv-x="396" 
d="M301 436h60q2 -7 4 -16.5t2 -21.5q0 -18 -7 -28.5t-18 -10.5h-41v-51q0 -25 -43 -25q-7 0 -15.5 1t-17.5 3v72h-171q-14 17 -14 40q0 7 2 15t5 18q9 30 26 64.5t37.5 68.5t43 64t43.5 50q17 20 34.5 25.5t36.5 5.5q8 0 17.5 -1.5t15.5 -3.5v-269zM228 431l4 186
q-16 -13 -33.5 -34.5t-34 -47t-29.5 -52.5t-20 -52h113z" />
    <glyph glyph-name="Euro" unicode="&#x20ac;" 
d="M296 606q28 0 47 -4.5t30.5 -10.5t16.5 -13t5 -12q0 -17 -3.5 -32t-9.5 -23q-8 5 -26.5 13t-39.5 8q-15 0 -32 -4.5t-33 -18t-29 -38t-22 -64.5h143q0 -37 -5.5 -52.5t-26.5 -15.5h-120q-2 -14 -2 -29.5v-32.5v-12h121q0 -36 -5.5 -51.5t-26.5 -15.5h-86
q4 -42 12.5 -67.5t21 -39t28.5 -17.5t35 -4q27 0 50.5 7t37.5 18q5 -8 8.5 -21.5t3.5 -30.5q0 -8 -8.5 -17t-24 -17t-37 -13t-46.5 -5q-34 0 -63 7.5t-50.5 29.5t-36 62.5t-19.5 107.5h-88q0 37 5.5 52t26.5 15h54v9v33.5t2 31.5h-88q0 37 5.5 52.5t26.5 15.5h63
q10 64 30.5 103t45.5 60.5t53.5 28.5t55.5 7z" />
    <glyph glyph-name="trademark" unicode="&#x2122;" horiz-adv-x="503" 
d="M254 691q0 2 1 4q2 5 9 5h28l44 -126q2 -8 5.5 -17.5t6.5 -17.5q4 -10 7 -20l6 20q2 8 5 17t5 16l40 119q1 3 2.5 6t6.5 3h32v-309q0 -3 -0.5 -5t-4.5 -3t-12.5 -1h-24.5l1 111q0 11 1 27t2.5 33t2.5 32t2 24l-25 -80l-28 -74q-1 -4 -5 -4h-21l-29 78l-25 84q2 -24 4 -47
q2 -20 3 -40t1 -33l1 -102q0 -7 -6 -8t-35 -1v309zM153 661v-270q0 -3 -0.5 -5t-4.5 -3t-12 -1h-24v279h-82v30q0 6 4 8q2 1 5 1h190v-30q0 -6 -5 -8q-3 -1 -5 -1h-66z" />
    <glyph glyph-name="partialdiff" unicode="&#x2202;" horiz-adv-x="425" 
d="M204 509q54 0 88 -29q-19 72 -55.5 124.5t-96.5 101.5q10 17 26 27t33 10q19 0 31 -13q82 -68 123.5 -174t41.5 -267q0 -60 -6.5 -114.5t-25 -95.5t-52 -65t-87.5 -24q-45 0 -79 14t-56.5 46t-33.5 82.5t-11 124.5q0 124 43.5 188t116.5 64zM312 286q0 28 -1.5 53
t-3.5 48q-17 26 -36.5 38t-44.5 12t-43.5 -15t-30.5 -41t-18 -61.5t-6 -75.5q0 -97 24.5 -141.5t69.5 -44.5q31 0 49 18t27 49.5t11.5 72.5t2.5 88z" />
    <glyph glyph-name="product" unicode="&#x220f;" horiz-adv-x="438" 
d="M352 623v-786q0 -18 -15.5 -24t-29.5 -6q-8 0 -17 1t-20 5v810h-108v-786q0 -17 -15 -23.5t-31 -6.5q-20 0 -35 6v810h-45q-2 7 -4 15t-2 19q0 16 5 29.5t21 13.5h345q3 -8 5 -17t2 -19q0 -17 -7.5 -29t-21.5 -12h-27z" />
    <glyph glyph-name="summation" unicode="&#x2211;" horiz-adv-x="390" 
d="M47 -190l149 403l-148 487h272q2 -6 3 -14t1 -16q0 -18 -5.5 -32.5t-16.5 -14.5h-143l121 -416l-124 -321h170q3 -20 3 -36q0 -40 -25 -40h-257z" />
    <glyph glyph-name="minus" unicode="&#x2212;" 
d="M34 246q0 38 2 54.5t15 16.5h333q0 -38 -2 -54.5t-14 -16.5h-334z" />
    <glyph glyph-name="radical" unicode="&#x221a;" horiz-adv-x="468" 
d="M47 218q8 9 21 14t26 5t23 -5.5t12 -17.5l61 -251l88 737h163q3 -7 5 -15t2 -22q0 -12 -6 -26t-22 -14h-70l-97 -778q-3 -24 -20 -32t-37 -8q-17 0 -27 2.5t-20 4.5z" />
    <glyph glyph-name="infinity" unicode="&#x221e;" horiz-adv-x="606" 
d="M40 259q0 30 7 57t23 47.5t42 32t64 11.5q51 0 81 -24.5t51 -58.5q23 33 53 58t76 25q58 0 93.5 -37t35.5 -109q0 -74 -31.5 -108.5t-83.5 -39.5q-9 -1 -18 -0.5t-18 1.5q-37 4 -66.5 25.5t-49.5 55.5q-25 -32 -56 -55.5t-72 -23.5q-65 0 -98 39.5t-33 103.5zM121 260
q0 -27 14 -48t45 -21q27 0 47.5 19t38.5 47l-2 3q-10 23 -25 40.5t-37 21.5q-19 4 -35 1q-26 -6 -36 -25.5t-10 -37.5zM374 299q-7 -8 -14 -18t-15 -21q7 -13 14.5 -25.5t16.5 -22.5t20.5 -16t25.5 -6q29 0 46.5 18.5t17.5 53.5q0 26 -12 43.5t-32 21.5q-13 3 -27 -1
q-16 -2 -24.5 -9t-16.5 -18z" />
    <glyph glyph-name="integral" unicode="&#x222b;" horiz-adv-x="467" 
d="M193 564q0 60 15.5 94.5t40 52t54 22.5t58.5 5q54 0 73.5 -13t19.5 -31q0 -11 -2.5 -21t-6.5 -21q-19 8 -36.5 10t-34.5 2q-20 0 -38 -2.5t-31.5 -12t-22 -28t-8.5 -50.5v-594q0 -59 -15.5 -93.5t-40 -52t-54.5 -22.5t-58 -5q-53 0 -73 12.5t-20 31.5q0 11 2.5 20.5
t6.5 20.5q19 -8 36.5 -10t34.5 -2q20 0 38 2.5t32 12t22 28t8 51.5v593z" />
    <glyph glyph-name="approxequal" unicode="&#x2248;" horiz-adv-x="400" 
d="M16 326q17 21 48 42t77 21q24 0 38.5 -6.5t26.5 -15t25 -15t34 -6.5q22 0 39.5 10.5t30.5 24.5q11 8 20.5 4.5t17.5 -12.5q5 -8 7.5 -19t0.5 -24q-14 -20 -45 -39t-73 -19q-25 0 -40.5 6.5t-28.5 14.5t-26 14.5t-32 6.5q-17 0 -31.5 -4.5t-25.5 -10.5t-20 -11.5t-15 -6.5
q-11 -1 -18.5 11t-9.5 34zM15 191q15 18 46 38t73 20q25 0 41 -6.5t29 -14.5t26.5 -14.5t34.5 -6.5q14 0 26.5 4t24 9.5t21.5 10.5t18 8q12 1 20.5 -10.5t10.5 -31.5q-7 -10 -18.5 -21.5t-28 -21t-37 -16t-44.5 -6.5q-27 0 -42 6.5t-26.5 15t-22.5 15t-29 6.5
q-24 0 -42.5 -12t-29.5 -22q-9 -5 -17.5 -3t-16 9.5t-12 18.5t-5.5 25z" />
    <glyph glyph-name="notequal" unicode="&#x2260;" horiz-adv-x="400" 
d="M194 116l-37 -106q-5 -17 -25 -17q-27 0 -56 27l33 96h-84q0 38 2 54.5t15 16.5h92l40 115h-149q0 38 2 54.5t15 16.5h156l40 114q8 20 30 20q25 0 54 -26l-38 -108h91q0 -38 -2 -54.5t-14 -16.5h-100l-40 -115h156q0 -38 -2 -54.5t-14 -16.5h-165z" />
    <glyph glyph-name="lessequal" unicode="&#x2264;" horiz-adv-x="412" 
d="M150 291l215 -97q-1 -26 -12.5 -44.5t-24.5 -18.5q-5 0 -11.5 2t-15.5 5l-244 108q-13 23 -13 48q0 14 6 25.5t20 18.5l264 128q14 -12 21 -27t7 -27q0 -18 -14 -24zM49 0q0 38 2 54.5t14 16.5h302q0 -38 -2 -54.5t-14 -16.5h-302z" />
    <glyph glyph-name="greaterequal" unicode="&#x2265;" horiz-adv-x="409" 
d="M259 305l-215 96q1 26 12.5 44.5t23.5 18.5q11 0 28 -7l244 -108q13 -23 13 -47q0 -31 -27 -44l-263 -129q-14 13 -21 27.5t-8 26.5q0 18 14 25zM49 0q0 38 2 54.5t15 16.5h297q0 -38 -2 -54.5t-14 -16.5h-298z" />
    <glyph glyph-name="lozenge" unicode="&#x25ca;" horiz-adv-x="455" 
d="M228 -6l-199 355l199 356l200 -356zM228 545l-110 -196l110 -194l111 194z" />
    <glyph glyph-name="ff" unicode="&#xfb00;" horiz-adv-x="456" 
d="M162 431v-415q0 -4 -2 -8q-4 -8 -14 -8h-65v431h-69q0 24 0.5 38t2.5 20.5t6 8.5t12 2h48v69q0 56 16.5 89t40.5 50t51 21.5t49 4.5q29 0 54.5 -8t45.5 -20q25 20 55.5 26.5t58.5 6.5q49 0 70.5 -11.5t21.5 -35.5q0 -7 -2 -17.5t-6 -21.5q-19 8 -36.5 10t-34.5 2
q-20 0 -38 -3t-32 -13.5t-22 -30t-8 -51.5v-67h89q0 -24 -0.5 -38t-2 -20.5t-5 -8.5t-9.5 -2h-72v-415q0 -4 -2 -8q-4 -8 -15 -8h-64v431h-122zM162 500h122v60q0 54 14 91q-12 7 -25.5 10.5t-33.5 3.5q-10 0 -23 -2t-25 -10.5t-20.5 -26t-8.5 -48.5v-78z" />
    <glyph glyph-name="ffi" unicode="&#xfb03;" horiz-adv-x="606" 
d="M10 431q0 24 0.5 38t2.5 20.5t6 8.5t12 2h48v69q0 56 16 89t40 50t51.5 21.5t49.5 4.5q29 0 54.5 -8t45.5 -20q26 20 59 26.5t67 6.5q55 0 85 -12.5t30 -36.5q0 -10 -2.5 -23t-6.5 -24q-20 10 -48 16t-56 6q-20 0 -38.5 -3t-32.5 -13.5t-22.5 -31t-8.5 -55.5v-62h70
q0 -24 -0.5 -38t-2 -20.5t-5 -8.5t-9.5 -2h-53v-415q0 -4 -2 -8q-4 -8 -14 -8h-65v431h-121v-415q0 -4 -2 -8q-4 -8 -15 -8h-64v431h-69zM560 16q0 -6 -1.5 -9.5t-9.5 -5t-24.5 -1.5h-47.5v463q0 14 3.5 21.5t13 11t25.5 4t41 0.5v-484zM281 560q0 55 14 91q-12 7 -26 10.5
t-33 3.5q-10 0 -23 -2t-25 -10.5t-20 -26t-8 -48.5v-78h121v60z" />
    <glyph glyph-name="ffl" unicode="&#xfb04;" horiz-adv-x="616" 
d="M10 431q0 24 0.5 38t2.5 20.5t6 8.5t12 2h48v69q0 56 16 89t40 50t51.5 21.5t49.5 4.5q28 0 53 -7.5t45 -19.5q24 20 52 26t52 6q47 0 80 -11.5t52 -22.5v-689q0 -6 -1.5 -9.5t-9 -5t-24 -1.5h-47.5v659q-8 3 -18.5 5t-25.5 2q-14 0 -28.5 -2.5t-26.5 -12t-19.5 -28.5
t-7.5 -51v-72h69q0 -24 -0.5 -38t-2 -20.5t-5 -8.5t-9.5 -2h-52v-415q0 -4 -2 -8q-4 -8 -14 -8h-65v431h-121v-415q0 -4 -2 -8q-4 -8 -15 -8h-64v431h-69zM281 560q0 55 14 91q-12 7 -26 10.5t-33 3.5q-10 0 -23 -2t-25 -10.5t-20 -26t-8 -48.5v-78h121v60z" />
    <glyph glyph-name="t_z" horiz-adv-x="626" 
d="M86 430h-68q0 23 0.5 37t2 21.5t5.5 9.5t10 2h50v152q0 10 3.5 16t12.5 8.5t25 3t41 0.5v-180h102q0 -24 -0.5 -37.5t-2 -21t-4.5 -9.5t-9 -2h-86v-291q0 -16 0.5 -30.5t4 -25t10.5 -17t21 -6.5q17 0 30 3.5t28 11.5q2 -8 4 -18t2 -22q0 -14 -8 -22.5t-20.5 -13.5
t-27.5 -7t-30 -2q-32 0 -51 10.5t-29 30t-13 47t-3 61.5v291zM596 500q2 -2 4 -6q2 -3 3.5 -8t1.5 -11q0 -7 -2 -16.5t-8 -23.5l-188 -360h88q42 0 66 3.5t39 7.5q2 -7 2.5 -18t0.5 -18q-1 -26 -7 -38t-26 -12h-245q-4 3 -7 9q-7 10 -7 31q0 16 7 31l194 360h-102
q-29 0 -52 -1.5t-39 -3.5q-2 14 -2.5 23.5t-0.5 15.5q0 35 26 35h254z" />
    <glyph glyph-name="g.ss01" horiz-adv-x="391" 
d="M176 -200q-62 0 -95.5 17.5t-33.5 40.5q0 26 17 50q23 -14 48 -23t66 -9q13 0 28 4t28 13.5t21.5 26.5t8.5 44v67q-11 -14 -36.5 -27t-60.5 -13q-33 0 -57 12t-40.5 39.5t-24.5 74t-8 115.5q0 83 17 137t45 86t65 44.5t78 12.5q28 0 56 -9.5t47 -23.5v-525
q0 -40 -12.5 -69t-35 -48t-53.5 -28t-68 -9zM266 429q-8 6 -19.5 10.5t-27.5 4.5q-17 0 -33.5 -9t-29.5 -32t-21 -62t-8 -100q0 -52 5 -86t14 -54.5t21.5 -28.5t27.5 -8q25 0 44 16.5t27 54.5v294z" />
    <glyph glyph-name="f.ss02" horiz-adv-x="251" 
d="M9 431q0 24 0.5 38t2.5 20.5t6 8.5t12 2h48v116q0 38 9.5 62t25 37.5t36 18.5t42.5 5q42 0 57.5 -10t15.5 -27q0 -8 -2 -19.5t-6 -22.5q-11 5 -23.5 7.5t-23.5 2.5q-23 0 -36.5 -12.5t-13.5 -50.5v-107h90q0 -24 -0.5 -38t-2.5 -20.5t-5.5 -8.5t-9.5 -2h-72v-415
q0 -4 -2 -8q-4 -8 -14 -8h-65v431h-69z" />
    <glyph glyph-name="ampersand.ss03" horiz-adv-x="436" 
d="M197 57q-85 6 -122 47t-37 112q0 62 31.5 98.5t75.5 51.5q-15 3 -31.5 9.5t-30 19.5t-22 34.5t-8.5 54.5q0 68 42.5 110.5t111.5 51.5v81q0 21 18.5 26.5t55.5 5.5v-114q32 -5 56.5 -15t41 -21.5t24.5 -22.5t8 -18q0 -14 -8.5 -33t-20.5 -33q-23 31 -54.5 49t-76.5 18
q-52 0 -83 -24t-31 -66q0 -35 21.5 -52.5t62.5 -18.5q15 0 33.5 1.5t26.5 3.5l-10 -77q-70 -3 -106 -35.5t-36 -77.5q0 -40 27.5 -61.5t81.5 -21.5q26 0 48 7t40 18.5t32 25t23 26.5q11 -13 22.5 -33.5t11.5 -34.5q0 -8 -8 -21t-25.5 -27t-45 -26t-65.5 -17v-79
q0 -20 -18 -25.5t-56 -5.5v109z" />
    <glyph glyph-name="ampersand.ss04" horiz-adv-x="641" 
d="M260 535q0 85 -51 85q-38 0 -62.5 -46.5t-28.5 -134.5q14 0 32 1t34 3q18 2 36 5q14 4 22 15.5t12 25t5 26.5t1 20zM301 448q10 1 31 4l42 6q25 4 52 8v66q0 25 5 40t15.5 23.5t26 11t35.5 2.5v-134q20 2 39 5t33 5q17 3 32 5q0 -23 -1.5 -37.5t-6 -23.5t-12 -13
t-19.5 -5q-13 -2 -25 -4q-23 -3 -40 -5v-254q0 -51 8 -70t33 -19q29 0 49 5q11 2 18 5l2 -14q1 -6 1.5 -14t0.5 -16q0 -13 -21 -23.5t-76 -10.5q-26 0 -44.5 6t-30 22.5t-17 46.5t-5.5 77v252q-58 -5 -113 -9q-48 -3 -101 -5.5t-95 -2.5q0 -53 6.5 -82.5t18 -43.5t27 -17.5
t32.5 -3.5q21 0 40 6t34.5 16t27 21.5t18.5 22.5q6 -8 10 -18q4 -8 7 -19t3 -22q0 -9 -10 -22.5t-29 -26t-47 -21.5t-63 -9q-39 0 -68.5 11t-49.5 38.5t-30.5 74t-10.5 116.5q0 69 9 122.5t30 90t54.5 55.5t83.5 19q23 0 45.5 -7t40.5 -23.5t28.5 -43.5t10.5 -67
q0 -16 -2 -32t-6.5 -29.5t-10.5 -23t-15 -12.5z" />
    <glyph glyph-name="germandbls.ss05" horiz-adv-x="477" 
d="M128 431v-375q0 -36 -10.5 -50t-37.5 -14q-12 0 -20 2t-13 4q-6 3 -9 6q2 10 4 21q2 10 3 22t1 26v515q0 82 44.5 114.5t130.5 32.5q25 0 46 -5t36.5 -12.5t24 -16t8.5 -14.5q0 -8 -3.5 -17.5t-7.5 -17.5q-4 -10 -10 -20q-23 17 -45 25t-53 8q-52 0 -70.5 -28t-18.5 -95
v-42h309q3 -7 3 -17q0 -8 -2.5 -21t-9.5 -30l-97 -177q60 -16 93.5 -57t33.5 -106q0 -47 -12.5 -88t-37 -72t-61 -48.5t-84.5 -17.5q-31 0 -51.5 4.5t-33 11.5t-17.5 15.5t-5 15.5q0 13 5.5 29t13.5 30q17 -14 34.5 -21t46.5 -7q49 0 82 36.5t33 104.5q0 46 -18 70.5
t-47 36.5q-19 7 -40.5 11t-47.5 5l121 223h-211z" />
    <glyph glyph-name="z.ss05" horiz-adv-x="348" 
d="M18 431v38t1.5 21t4 8.5t7.5 1.5h274q2 -7 2 -17q0 -8 -2 -21t-10 -30l-97 -177q60 -16 94 -57t34 -106q0 -47 -12.5 -88t-37 -72t-61 -48.5t-84.5 -17.5q-31 0 -51.5 5t-33 12t-17.5 15.5t-5 14.5q0 13 5.5 29t13.5 30q16 -14 34 -21t47 -7q48 0 81 36.5t33 104.5
q0 46 -18 70.5t-47 36.5q-18 7 -40 11t-48 5l122 223h-189z" />
    <glyph glyph-name="t_z.ss05" horiz-adv-x="507" 
d="M166 430v-407q0 -9 -1.5 -13.5t-9.5 -6.5t-24.5 -2.5t-46.5 -0.5v430h-78q0 23 0.5 37t2 21.5t5.5 9.5t10 2h60v152q0 10 3.5 16t12.5 8.5t25 3t41 0.5v-180h299q2 -7 2 -17q0 -8 -2.5 -21t-9.5 -30l-97 -177q60 -16 94 -57t34 -106q0 -47 -11 -88t-34 -72t-58 -48.5
t-84 -17.5q-53 0 -74.5 13.5t-21.5 27.5q0 12 5.5 28t13.5 30q18 -13 33 -17t38 -4q49 0 77 36.5t28 104.5q0 46 -18 70.5t-47 36.5q-18 7 -40 11t-48 5l122 222h-201z" />
    <glyph glyph-name="apple" horiz-adv-x="800" 
d="M400 709q82 0 148.5 -25.5t113.5 -72.5t72.5 -113.5t25.5 -148.5t-25.5 -148t-72.5 -113t-113.5 -72.5t-148.5 -25.5t-148.5 25.5t-113.5 72.5t-72.5 113t-25.5 148t25.5 148.5t72.5 113.5t113.5 72.5t148.5 25.5zM409 578q-26 0 -43.5 -16t-17.5 -47q0 -26 12.5 -45
t31.5 -36t41.5 -35t42.5 -43q19 25 42 43t42 35t32 36t13 45q0 31 -18 47t-44 16q-43 0 -67 -44q-24 44 -67 44zM248 539q1 0 3 -1.5t2 -10.5v-112q0 -9 -2 -10.5t-3 -1.5q-4 0 -6.5 0.5t-7.5 0.5q-8 0 -13 -4.5t-5 -11.5q0 -8 5 -14t16 -6q16 0 21.5 2.5t17.5 2.5
q10 0 15.5 -2.5t17.5 -2.5q11 0 16 6t5 14q0 16 -17 16q-4 0 -7 -0.5t-7 -0.5q-2 0 -3.5 1.5t-1.5 10.5v112q0 9 1.5 10.5t3.5 1.5q5 0 7.5 -0.5t6.5 -0.5q6 0 11.5 5t5.5 13t-5 13t-16 5q-9 0 -16 -1.5t-18 -1.5q-12 0 -19.5 1.5t-16.5 1.5q-12 0 -17.5 -5t-5.5 -13
q0 -7 5 -12.5t13 -5.5q4 0 7.5 0.5t6.5 0.5zM608 294q11 0 15 5t4 11q0 7 -4.5 13t-15.5 6q-8 0 -16 -1.5t-16 -1.5q-10 0 -17 1.5t-15 1.5q-12 0 -17 -6.5t-5 -12.5t5 -11t13 -5h8q8 0 9.5 -5t1.5 -7v-98l-70 127l-2 6q-1 4 -4.5 8t-14.5 4q-6 0 -12 -1t-14 -1
q-9 0 -15.5 1t-10.5 1q-13 0 -17 -11q-6 11 -17 11q-8 0 -18 -1.5t-18 -1.5q-9 0 -17.5 1.5t-14.5 1.5q-19 0 -19 -19q0 -7 4 -12t15 -5h1q2 0 4 1q-5 -10 -14.5 -27t-15.5 -29l-34 56h2q14 0 18 5.5t4 10.5q0 7 -4.5 13t-15.5 6q-10 0 -16 -2t-15 -2t-17.5 2t-17.5 2
q-20 0 -20 -19q0 -7 5 -12t16 -5q3 0 5 0.5t5 0.5q4 0 5 -1l58 -94v-34q0 -4 -2 -6t-4 -2q-5 0 -6.5 1.5t-6.5 1.5q-18 0 -18 -20q0 -6 5 -11t16 -5t18 1.5t17 1.5t17.5 -1.5t18.5 -1.5q13 0 17.5 5t4.5 12q0 19 -16 19q-6 0 -9.5 -1.5t-5.5 -1.5q-6 0 -6 8v36l58 91
q2 3 4 3q5 0 6.5 -0.5t6.5 -0.5q7 0 10.5 3t5.5 6q2 -3 6 -6t9 -3t8 0.5t5 0.5t4 -2t2 -11v-113q0 -9 -2 -10.5t-4 -1.5t-6 1t-7 1q-17 0 -17 -18q0 -7 4.5 -12t15.5 -5q8 0 17 1.5t20 1.5t18 -1.5t15 -1.5q12 0 16.5 5t4.5 11q0 19 -17 19q-3 0 -7 -1t-6 -1t-4 1.5t-2 11.5
v97q8 -14 19 -34.5t22 -40.5q12 -23 27 -48q6 -12 13 -18t18 -6q17 0 22 13.5t5 30.5v118q0 2 1 7t6 5h5z" />
    </font>
</defs>
</svg>
